  0
SECTION
  2
HEADER
  9
$ACADVER
  1
AC1015
  9
$ACADMAINTVER
 70
    20
  9
$DWGCODEPAGE
  3
ANSI_932
  9
$INSBASE
 10
0.0
 20
0.0
 30
0.0
  9
$EXTMIN
 10
-30.8
 20
-46.5
 30
0.0
  9
$EXTMAX
 10
107.4133246785264
 20
89.00000000000003
 30
0.0
  9
$LIMMIN
 10
0.0
 20
0.0
  9
$LIMMAX
 10
420.0
 20
297.0
  9
$ORTHOMODE
 70
     1
  9
$REGENMODE
 70
     1
  9
$FILLMODE
 70
     1
  9
$QTEXTMODE
 70
     0
  9
$MIRRTEXT
 70
     1
  9
$LTSCALE
 40
1.0
  9
$ATTMODE
 70
     1
  9
$TEXTSIZE
 40
3.5
  9
$TRACEWID
 40
1.0
  9
$TEXTSTYLE
  7
simplex
  9
$CLAYER
  8
0
  9
$CELTYPE
  6
ByLayer
  9
$CECOLOR
 62
   256
  9
$CELTSCALE
 40
1.0
  9
$DISPSILH
 70
     0
  9
$DIMSCALE
 40
0.0
  9
$DIMASZ
 40
3.5
  9
$DIMEXO
 40
0.0
  9
$DIMDLI
 40
0.38
  9
$DIMRND
 40
0.0
  9
$DIMDLE
 40
0.0
  9
$DIMEXE
 40
1.5
  9
$DIMTP
 40
0.0
  9
$DIMTM
 40
0.0
  9
$DIMTXT
 40
3.5
  9
$DIMCEN
 40
0.09
  9
$DIMTSZ
 40
0.0
  9
$DIMTOL
 70
     0
  9
$DIMLIM
 70
     0
  9
$DIMTIH
 70
     0
  9
$DIMTOH
 70
     0
  9
$DIMSE1
 70
     0
  9
$DIMSE2
 70
     0
  9
$DIMTAD
 70
     1
  9
$DIMZIN
 70
     8
  9
$DIMBLK
  1

  9
$DIMASO
 70
     1
  9
$DIMSHO
 70
     1
  9
$DIMPOST
  1

  9
$DIMAPOST
  1

  9
$DIMALT
 70
     0
  9
$DIMALTD
 70
     2
  9
$DIMALTF
 40
25.4
  9
$DIMLFAC
 40
1.0
  9
$DIMTOFL
 70
     0
  9
$DIMTVP
 40
0.0
  9
$DIMTIX
 70
     0
  9
$DIMSOXD
 70
     0
  9
$DIMSAH
 70
     0
  9
$DIMBLK1
  1

  9
$DIMBLK2
  1

  9
$DIMSTYLE
  2
コピー - ISO-25
  9
$DIMCLRD
 70
   256
  9
$DIMCLRE
 70
   256
  9
$DIMCLRT
 70
   256
  9
$DIMTFAC
 40
1.0
  9
$DIMGAP
 40
2.299999999999998
  9
$DIMJUST
 70
     0
  9
$DIMSD1
 70
     0
  9
$DIMSD2
 70
     0
  9
$DIMTOLJ
 70
     1
  9
$DIMTZIN
 70
     8
  9
$DIMALTZ
 70
     0
  9
$DIMALTTZ
 70
     0
  9
$DIMUPT
 70
     0
  9
$DIMDEC
 70
     2
  9
$DIMTDEC
 70
     2
  9
$DIMALTU
 70
     2
  9
$DIMALTTD
 70
     2
  9
$DIMTXSTY
  7
simplex
  9
$DIMAUNIT
 70
     0
  9
$DIMADEC
 70
     0
  9
$DIMALTRND
 40
0.0
  9
$DIMAZIN
 70
     0
  9
$DIMDSEP
 70
    46
  9
$DIMATFIT
 70
     3
  9
$DIMFRAC
 70
     0
  9
$DIMLDRBLK
  1

  9
$DIMLUNIT
 70
     2
  9
$DIMLWD
 70
    -1
  9
$DIMLWE
 70
    -1
  9
$DIMTMOVE
 70
     0
  9
$LUNITS
 70
     2
  9
$LUPREC
 70
     4
  9
$SKETCHINC
 40
1.0
  9
$FILLETRAD
 40
0.8
  9
$AUNITS
 70
     0
  9
$AUPREC
 70
     0
  9
$MENU
  1
.
  9
$ELEVATION
 40
0.0
  9
$PELEVATION
 40
0.0
  9
$THICKNESS
 40
0.0
  9
$LIMCHECK
 70
     0
  9
$CHAMFERA
 40
10.0
  9
$CHAMFERB
 40
10.0
  9
$CHAMFERC
 40
20.0
  9
$CHAMFERD
 40
0.0
  9
$SKPOLY
 70
     0
  9
$TDCREATE
 40
2455489.391063368
  9
$TDUCREATE
 40
2455489.057730035
  9
$TDUPDATE
 40
2458925.714415243
  9
$TDUUPDATE
 40
2458925.381081910
  9
$TDINDWG
 40
2.570939514
  9
$TDUSRTIMER
 40
2.570887130
  9
$USRTIMER
 70
     1
  9
$ANGBASE
 50
0.0
  9
$ANGDIR
 70
     0
  9
$PDMODE
 70
     0
  9
$PDSIZE
 40
0.0
  9
$PLINEWID
 40
0.0
  9
$SPLFRAME
 70
     0
  9
$SPLINETYPE
 70
     6
  9
$SPLINESEGS
 70
     8
  9
$HANDSEED
  5
8AD92
  9
$SURFTAB1
 70
     6
  9
$SURFTAB2
 70
     6
  9
$SURFTYPE
 70
     6
  9
$SURFU
 70
     6
  9
$SURFV
 70
     6
  9
$UCSBASE
  2

  9
$UCSNAME
  2

  9
$UCSORG
 10
0.0
 20
0.0
 30
0.0
  9
$UCSXDIR
 10
1.0
 20
0.0
 30
0.0
  9
$UCSYDIR
 10
0.0
 20
1.0
 30
0.0
  9
$UCSORTHOREF
  2

  9
$UCSORTHOVIEW
 70
     0
  9
$UCSORGTOP
 10
0.0
 20
0.0
 30
0.0
  9
$UCSORGBOTTOM
 10
0.0
 20
0.0
 30
0.0
  9
$UCSORGLEFT
 10
0.0
 20
0.0
 30
0.0
  9
$UCSORGRIGHT
 10
0.0
 20
0.0
 30
0.0
  9
$UCSORGFRONT
 10
0.0
 20
0.0
 30
0.0
  9
$UCSORGBACK
 10
0.0
 20
0.0
 30
0.0
  9
$PUCSBASE
  2

  9
$PUCSNAME
  2

  9
$PUCSORG
 10
0.0
 20
0.0
 30
0.0
  9
$PUCSXDIR
 10
1.0
 20
0.0
 30
0.0
  9
$PUCSYDIR
 10
0.0
 20
1.0
 30
0.0
  9
$PUCSORTHOREF
  2

  9
$PUCSORTHOVIEW
 70
     0
  9
$PUCSORGTOP
 10
0.0
 20
0.0
 30
0.0
  9
$PUCSORGBOTTOM
 10
0.0
 20
0.0
 30
0.0
  9
$PUCSORGLEFT
 10
0.0
 20
0.0
 30
0.0
  9
$PUCSORGRIGHT
 10
0.0
 20
0.0
 30
0.0
  9
$PUCSORGFRONT
 10
0.0
 20
0.0
 30
0.0
  9
$PUCSORGBACK
 10
0.0
 20
0.0
 30
0.0
  9
$USERI1
 70
     0
  9
$USERI2
 70
     0
  9
$USERI3
 70
     0
  9
$USERI4
 70
     0
  9
$USERI5
 70
     0
  9
$USERR1
 40
0.0
  9
$USERR2
 40
0.0
  9
$USERR3
 40
0.0
  9
$USERR4
 40
0.0
  9
$USERR5
 40
0.0
  9
$WORLDVIEW
 70
     1
  9
$SHADEDGE
 70
     3
  9
$SHADEDIF
 70
    70
  9
$TILEMODE
 70
     1
  9
$MAXACTVP
 70
    64
  9
$PINSBASE
 10
0.0
 20
0.0
 30
0.0
  9
$PLIMCHECK
 70
     0
  9
$PEXTMIN
 10
26.66999878883364
 20
20.31999878883365
 30
0.0
  9
$PEXTMAX
 10
240.0299890995025
 20
182.8799890995025
 30
0.0
  9
$PLIMMIN
 10
-6.350006103515625
 20
-6.349999904632567
  9
$PLIMMAX
 10
273.0499877929688
 20
209.5499939918518
  9
$UNITMODE
 70
     0
  9
$VISRETAIN
 70
     1
  9
$PLINEGEN
 70
     0
  9
$PSLTSCALE
 70
     1
  9
$TREEDEPTH
 70
  3020
  9
$CMLSTYLE
  2
Standard
  9
$CMLJUST
 70
     0
  9
$CMLSCALE
 40
20.0
  9
$PROXYGRAPHICS
 70
     1
  9
$MEASUREMENT
 70
     1
  9
$CELWEIGHT
370
    -1
  9
$ENDCAPS
280
     0
  9
$JOINSTYLE
280
     0
  9
$LWDISPLAY
290
     0
  9
$INSUNITS
 70
     4
  9
$HYPERLINKBASE
  1

  9
$STYLESHEET
  1

  9
$XEDIT
290
     1
  9
$CEPSNTYPE
380
     0
  9
$PSTYLEMODE
290
     1
  9
$FINGERPRINTGUID
  2
{2C5D8F45-C17F-4317-B2F0-63F7CD798DCD}
  9
$VERSIONGUID
  2
{D5736B8B-7F8F-4F34-9D0A-40420C649346}
  9
$EXTNAMES
290
     1
  9
$PSVPSCALE
 40
0.0
  9
$OLESTARTUP
290
     0
  0
ENDSEC
  0
SECTION
  2
CLASSES
  0
CLASS
  1
ACDBDICTIONARYWDFLT
  2
AcDbDictionaryWithDefault
  3
ObjectDBX Classes
 90
        0
280
     0
281
     0
  0
CLASS
  1
ACDBPLACEHOLDER
  2
AcDbPlaceHolder
  3
ObjectDBX Classes
 90
    32768
280
     0
281
     0
  0
CLASS
  1
LAYOUT
  2
AcDbLayout
  3
ObjectDBX Classes
 90
    32768
280
     0
281
     0
  0
CLASS
  1
DICTIONARYVAR
  2
AcDbDictionaryVar
  3
ObjectDBX Classes
 90
        0
280
     0
281
     0
  0
CLASS
  1
TABLESTYLE
  2
AcDbTableStyle
  3
ObjectDBX Classes
 90
     4095
280
     0
281
     0
  0
CLASS
  1
SORTENTSTABLE
  2
AcDbSortentsTable
  3
ObjectDBX Classes
 90
        0
280
     0
281
     0
  0
CLASS
  1
DIMASSOC
  2
AcDbDimAssoc
  3
"AcDbDimAssoc|Product Desc:     AcDim ARX App For Dimension|Company:          Autodesk, Inc.|WEB Address:      www.autodesk.com"
 90
    32768
280
     0
281
     0
  0
CLASS
  1
ACAD_EVALUATION_GRAPH
  2
AcDbEvalGraph
  3
ObjectDBX Classes
 90
    33921
280
     0
281
     0
  0
CLASS
  1
ACAECUSTOBJ
  2
AcAeEditorObj
  3
AcAeEditorObj
 90
    33792
280
     0
281
     0
  0
CLASS
  1
ACDB_DYNAMICBLOCKPURGEPREVENTER_VERSION
  2
AcDbDynamicBlockPurgePreventer
  3
ObjectDBX Classes
 90
    33921
280
     0
281
     0
  0
CLASS
  1
MATERIAL
  2
AcDbMaterial
  3
ObjectDBX Classes
 90
     1153
280
     0
281
     0
  0
CLASS
  1
VISUALSTYLE
  2
AcDbVisualStyle
  3
ObjectDBX Classes
 90
     4095
280
     0
281
     0
  0
CLASS
  1
SCALE
  2
AcDbScale
  3
ObjectDBX Classes
 90
     1153
280
     0
281
     0
  0
CLASS
  1
MLEADERSTYLE
  2
AcDbMLeaderStyle
  3
ACDB_MLEADERSTYLE_CLASS
 90
     4095
280
     0
281
     0
  0
CLASS
  1
ACDBSECTIONVIEWSTYLE
  2
AcDbSectionViewStyle
  3
ObjectDBX Classes
 90
     1025
280
     0
281
     0
  0
CLASS
  1
ACDBDETAILVIEWSTYLE
  2
AcDbDetailViewStyle
  3
ObjectDBX Classes
 90
     1025
280
     0
281
     0
  0
CLASS
  1
CELLSTYLEMAP
  2
AcDbCellStyleMap
  3
ObjectDBX Classes
 90
     1152
280
     0
281
     0
  0
CLASS
  1
ACDBPLACEHOLDER
  2
AcDbPlaceHolder
  3
ObjectDBX Classes
 90
    32768
280
     0
281
     0
  0
CLASS
  1
LAYOUT
  2
AcDbLayout
  3
ObjectDBX Classes
 90
    32768
280
     0
281
     0
  0
CLASS
  1
ACDBPLACEHOLDER
  2
AcDbPlaceHolder
  3
ObjectDBX Classes
 90
    32768
280
     0
281
     0
  0
CLASS
  1
LAYOUT
  2
AcDbLayout
  3
ObjectDBX Classes
 90
    32768
280
     0
281
     0
  0
CLASS
  1
ACDBPLACEHOLDER
  2
AcDbPlaceHolder
  3
ObjectDBX Classes
 90
    32768
280
     0
281
     0
  0
CLASS
  1
LAYOUT
  2
AcDbLayout
  3
ObjectDBX Classes
 90
    32768
280
     0
281
     0
  0
CLASS
  1
ACDBPLACEHOLDER
  2
AcDbPlaceHolder
  3
ObjectDBX Classes
 90
    32768
280
     0
281
     0
  0
CLASS
  1
LAYOUT
  2
AcDbLayout
  3
ObjectDBX Classes
 90
    32768
280
     0
281
     0
  0
CLASS
  1
ACDBPLACEHOLDER
  2
AcDbPlaceHolder
  3
ObjectDBX Classes
 90
    32768
280
     0
281
     0
  0
CLASS
  1
LAYOUT
  2
AcDbLayout
  3
ObjectDBX Classes
 90
    32768
280
     0
281
     0
  0
CLASS
  1
ACDBPLACEHOLDER
  2
AcDbPlaceHolder
  3
ObjectDBX Classes
 90
    32768
280
     0
281
     0
  0
CLASS
  1
LAYOUT
  2
AcDbLayout
  3
ObjectDBX Classes
 90
    32768
280
     0
281
     0
  0
CLASS
  1
ACDBPLACEHOLDER
  2
AcDbPlaceHolder
  3
ObjectDBX Classes
 90
    32768
280
     0
281
     0
  0
CLASS
  1
LAYOUT
  2
AcDbLayout
  3
ObjectDBX Classes
 90
    32768
280
     0
281
     0
  0
CLASS
  1
ACDBPLACEHOLDER
  2
AcDbPlaceHolder
  3
ObjectDBX Classes
 90
    32768
280
     0
281
     0
  0
CLASS
  1
LAYOUT
  2
AcDbLayout
  3
ObjectDBX Classes
 90
    32768
280
     0
281
     0
  0
CLASS
  1
ACDBPLACEHOLDER
  2
AcDbPlaceHolder
  3
ObjectDBX Classes
 90
        0
280
     0
281
     0
  0
CLASS
  1
LAYOUT
  2
AcDbLayout
  3
ObjectDBX Classes
 90
        0
280
     0
281
     0
  0
ENDSEC
  0
SECTION
  2
TABLES
  0
TABLE
  2
VPORT
  5
8
102
{ACAD_XDICTIONARY
360
87DC4
102
}
330
0
100
AcDbSymbolTable
 70
     1
  0
VPORT
  5
4A360
330
8
100
AcDbSymbolTableRecord
100
AcDbViewportTableRecord
  2
*Active
 70
     0
 10
0.0
 20
0.0
 11
1.0
 21
1.0
 12
28.09475903872526
 22
17.63478511841064
 13
0.0
 23
0.0
 14
1.0
 24
1.0
 15
1.0
 25
1.0
 16
0.0
 26
0.0
 36
1.0
 17
0.0
 27
0.0
 37
0.0
 40
179.3274018148603
 41
1.236547085201793
 42
50.0
 43
0.0
 44
0.0
 50
0.0
 51
0.0
 71
     0
 72
  1000
 73
     1
 74
     1
 75
     0
 76
     0
 77
     0
 78
     0
281
     0
 65
     1
110
0.0
120
0.0
130
0.0
111
1.0
121
0.0
131
0.0
112
0.0
122
1.0
132
0.0
 79
     0
146
0.0
1001
ACAD_NAV_VCDISPLAY
1070
     3
  0
ENDTAB
  0
TABLE
  2
LTYPE
  5
5
330
0
100
AcDbSymbolTable
 70
     3
  0
LTYPE
  5
14
330
5
100
AcDbSymbolTableRecord
100
AcDbLinetypeTableRecord
  2
ByBlock
 70
     0
  3

 72
    65
 73
     0
 40
0.0
  0
LTYPE
  5
15
330
5
100
AcDbSymbolTableRecord
100
AcDbLinetypeTableRecord
  2
ByLayer
 70
     0
  3

 72
    65
 73
     0
 40
0.0
  0
LTYPE
  5
16
330
5
100
AcDbSymbolTableRecord
100
AcDbLinetypeTableRecord
  2
Continuous
 70
     0
  3
Solid line
 72
    65
 73
     0
 40
0.0
  0
LTYPE
  5
4A76E
330
5
100
AcDbSymbolTableRecord
100
AcDbLinetypeTableRecord
  2
CENTER2
 70
     0
  3
Center (.5x) ___ _ ___ _ ___ _ ___ _ ___ _ ___
 72
    65
 73
     4
 40
28.575
 49
19.05
 74
     0
 49
-3.174999999999998
 74
     0
 49
3.174999999999998
 74
     0
 49
-3.174999999999998
 74
     0
  0
LTYPE
  5
87CBF
330
5
100
AcDbSymbolTableRecord
100
AcDbLinetypeTableRecord
  2
DASHED2
 70
     0
  3
Dashed (.5x) _ _ _ _ _ _ _ _ _ _ _ _ _ _ _ _ _ 
 72
    65
 73
     2
 40
9.524999999999996
 49
6.349999999999997
 74
     0
 49
-3.174999999999998
 74
     0
  0
ENDTAB
  0
TABLE
  2
LAYER
  5
2
102
{ACAD_XDICTIONARY
360
E2
102
}
330
0
100
AcDbSymbolTable
 70
    10
  0
LAYER
  5
10
102
{ACAD_XDICTIONARY
360
4A86C
102
}
330
2
100
AcDbSymbolTableRecord
100
AcDbLayerTableRecord
  2
0
 70
     0
 62
     7
  6
Continuous
370
    -3
390
F
  0
LAYER
  5
31B6
330
2
100
AcDbSymbolTableRecord
100
AcDbLayerTableRecord
  2
Defpoints
 70
     0
 62
     7
  6
Continuous
290
     0
370
    -3
390
F
  0
LAYER
  5
4A772
102
{ACAD_XDICTIONARY
360
4A773
102
}
330
2
100
AcDbSymbolTableRecord
100
AcDbLayerTableRecord
  2
1
 70
     0
 62
     4
  6
Continuous
370
    50
390
F
1001
AcAecLayerStandard
1000

1000
Contour
  0
LAYER
  5
4A774
102
{ACAD_XDICTIONARY
360
4A775
102
}
330
2
100
AcDbSymbolTableRecord
100
AcDbLayerTableRecord
  2
2
 70
     0
 62
     7
  6
Continuous
370
    25
390
F
1001
AcAecLayerStandard
1000

1000
Dimension milling
  0
LAYER
  5
4A776
102
{ACAD_XDICTIONARY
360
4A777
102
}
330
2
100
AcDbSymbolTableRecord
100
AcDbLayerTableRecord
  2
4
 70
     0
 62
     2
  6
CENTER2
370
    25
390
F
1001
AcAecLayerStandard
1000

1000
Center line
  0
LAYER
  5
4A778
102
{ACAD_XDICTIONARY
360
4A779
102
}
330
2
100
AcDbSymbolTableRecord
100
AcDbLayerTableRecord
  2
cut
 70
     0
 62
     1
  6
Continuous
370
    25
390
F
1001
AcAecLayerStandard
1000

1000
contour
  0
LAYER
  5
4A77A
102
{ACAD_XDICTIONARY
360
4A77B
102
}
330
2
100
AcDbSymbolTableRecord
100
AcDbLayerTableRecord
  2
nocut
 70
     0
 62
     7
  6
Continuous
370
    25
390
F
1001
AcAecLayerStandard
1000

1000
contour
  0
LAYER
  5
4A77E
102
{ACAD_XDICTIONARY
360
4A77F
102
}
330
2
100
AcDbSymbolTableRecord
100
AcDbLayerTableRecord
  2
sk2
 70
     0
 62
     7
  6
Continuous
370
    25
390
F
1001
AcAecLayerStandard
1000

1000
sk2 dimension
  0
LAYER
  5
4A782
102
{ACAD_XDICTIONARY
360
4A783
102
}
330
2
100
AcDbSymbolTableRecord
100
AcDbLayerTableRecord
  2
sk6
 70
     0
 62
     5
  6
Continuous
370
    35
390
F
1001
AcAecLayerStandard
1000

1000
sk6 text
  0
LAYER
  5
87CBE
330
2
100
AcDbSymbolTableRecord
100
AcDbLayerTableRecord
  2
sk3
 70
     0
 62
     1
  6
DASHED2
370
    35
390
F
1001
AcAecLayerStandard
1000

1000
sk4 center line
  0
ENDTAB
  0
TABLE
  2
STYLE
  5
3
330
0
100
AcDbSymbolTable
 70
     2
  0
STYLE
  5
11
330
3
100
AcDbSymbolTableRecord
100
AcDbTextStyleTableRecord
  2
Standard
 70
     0
 40
0.0
 41
1.0
 50
0.0
 71
     0
 42
2.5
  3
txt.shx
  4
@extfont2.shx
  0
STYLE
  5
24A
330
3
100
AcDbSymbolTableRecord
100
AcDbTextStyleTableRecord
  2
simplex
 70
     0
 40
3.5
 41
1.0
 50
0.0
 71
     0
 42
3.5
  3
txt.shx
  4

  0
ENDTAB
  0
TABLE
  2
VIEW
  5
6
330
0
100
AcDbSymbolTable
 70
     0
  0
ENDTAB
  0
TABLE
  2
UCS
  5
7
330
0
100
AcDbSymbolTable
 70
     0
  0
ENDTAB
  0
TABLE
  2
APPID
  5
9
330
0
100
AcDbSymbolTable
 70
    28
  0
APPID
  5
12
330
9
100
AcDbSymbolTableRecord
100
AcDbRegAppTableRecord
  2
ACAD
 70
     0
  0
APPID
  5
D2
330
9
100
AcDbSymbolTableRecord
100
AcDbRegAppTableRecord
  2
AcAecLayerStandard
 70
     0
  0
APPID
  5
E6
330
9
100
AcDbSymbolTableRecord
100
AcDbRegAppTableRecord
  2
ACAD_DSTYLE_DIMTEXT_FILL
 70
     0
  0
APPID
  5
4C84
330
9
100
AcDbSymbolTableRecord
100
AcDbRegAppTableRecord
  2
ACAD_EXEMPT_FROM_CAD_STANDARDS
 70
     0
  0
APPID
  5
3493E
330
9
100
AcDbSymbolTableRecord
100
AcDbRegAppTableRecord
  2
DCO15
 70
     0
  0
APPID
  5
3BAB0
330
9
100
AcDbSymbolTableRecord
100
AcDbRegAppTableRecord
  2
ACAD_DSTYLE_DIMEXT_ENABLED
 70
     0
  0
APPID
  5
3BAB1
330
9
100
AcDbSymbolTableRecord
100
AcDbRegAppTableRecord
  2
ACAD_DSTYLE_DIMEXT_LENGTH
 70
     0
  0
APPID
  5
3BEB4
330
9
100
AcDbSymbolTableRecord
100
AcDbRegAppTableRecord
  2
ACAUTHENVIRON
 70
     0
  0
APPID
  5
3BEB7
330
9
100
AcDbSymbolTableRecord
100
AcDbRegAppTableRecord
  2
AcDbDynamicBlockTrueName
 70
     0
  0
APPID
  5
3BEB8
330
9
100
AcDbSymbolTableRecord
100
AcDbRegAppTableRecord
  2
AcDbDynamicBlockGUID
 70
     0
  0
APPID
  5
3BEBA
330
9
100
AcDbSymbolTableRecord
100
AcDbRegAppTableRecord
  2
AcDbBlockRepETag
 70
     0
  0
APPID
  5
4A453
330
9
100
AcDbSymbolTableRecord
100
AcDbRegAppTableRecord
  2
ACAD_PSEXT
 70
     0
  0
APPID
  5
4A454
330
9
100
AcDbSymbolTableRecord
100
AcDbRegAppTableRecord
  2
AcadAnnotative
 70
     0
  0
APPID
  5
4A455
330
9
100
AcDbSymbolTableRecord
100
AcDbRegAppTableRecord
  2
ACAD_DSTYLE_DIMJAG
 70
     0
  0
APPID
  5
4A456
330
9
100
AcDbSymbolTableRecord
100
AcDbRegAppTableRecord
  2
ACAD_DSTYLE_DIMTALN
 70
     0
  0
APPID
  5
4A457
330
9
100
AcDbSymbolTableRecord
100
AcDbRegAppTableRecord
  2
ACAD_NAV_VCDISPLAY
 70
     0
  0
APPID
  5
4A787
330
9
100
AcDbSymbolTableRecord
100
AcDbRegAppTableRecord
  2
ACAD_DSTYLE_DIMINSPECT
 70
     0
  0
APPID
  5
4A788
330
9
100
AcDbSymbolTableRecord
100
AcDbRegAppTableRecord
  2
GENIUS_GENDTOL_13
 70
     0
  0
APPID
  5
4A789
330
9
100
AcDbSymbolTableRecord
100
AcDbRegAppTableRecord
  2
ZWMCAD_GENSTANDARDFRAME_13_
 70
     0
  0
APPID
  5
4A78A
330
9
100
AcDbSymbolTableRecord
100
AcDbRegAppTableRecord
  2
ZW_RECESS_XDATA
 70
     0
  0
APPID
  5
4A78B
330
9
100
AcDbSymbolTableRecord
100
AcDbRegAppTableRecord
  2
ZW_FAC_XDATA
 70
     0
  0
APPID
  5
4A78C
330
9
100
AcDbSymbolTableRecord
100
AcDbRegAppTableRecord
  2
ZW_FLC_XDATA
 70
     0
  0
APPID
  5
4A78D
330
9
100
AcDbSymbolTableRecord
100
AcDbRegAppTableRecord
  2
ZW_SUPERPART
 70
     0
  0
APPID
  5
4A78E
330
9
100
AcDbSymbolTableRecord
100
AcDbRegAppTableRecord
  2
ZW_SUPERSYMBOL
 70
     0
  0
APPID
  5
4A78F
330
9
100
AcDbSymbolTableRecord
100
AcDbRegAppTableRecord
  2
ZW_SUPERSHAFT
 70
     0
  0
APPID
  5
4A790
330
9
100
AcDbSymbolTableRecord
100
AcDbRegAppTableRecord
  2
ZWMCAD_GENFRAME_13_
 70
     0
  0
APPID
  5
4A791
330
9
100
AcDbSymbolTableRecord
100
AcDbRegAppTableRecord
  2
ACAD_MLEADERVER
 70
     0
  0
APPID
  5
4A792
330
9
100
AcDbSymbolTableRecord
100
AcDbRegAppTableRecord
  2
ACAD_DSTYLE_DIMRADIAL_EXTENSION
 70
     0
  0
ENDTAB
  0
TABLE
  2
DIMSTYLE
  5
A
330
0
100
AcDbSymbolTable
 70
     2
100
AcDbDimStyleTable
 71
     2
340
1BF
340
3527
  0
DIMSTYLE
105
1BF
102
{ACAD_REACTORS
330
8A2EF
330
8A2EE
330
8A2ED
330
8A2EC
330
8A2EB
330
8A2EA
330
8A2E9
102
}
330
A
100
AcDbSymbolTableRecord
100
AcDbDimStyleTableRecord
  2
コピー - ISO-25
 70
     0
 40
0.0
 41
3.5
 42
0.0
 44
1.5
 73
     0
 74
     0
 77
     1
 78
     8
140
3.5
147
2.299999999999998
176
   256
177
   256
271
     2
178
   256
271
     2
272
     2
284
     8
340
24A
371
    -1
372
    -1
  0
DIMSTYLE
105
3527
330
A
100
AcDbSymbolTableRecord
100
AcDbDimStyleTableRecord
  2
STANDARD
 70
     0
 41
3.0
 47
0.001
 48
0.001
 71
     1
 73
     0
 74
     0
 77
     1
 78
     8
140
4.0
271
     3
272
     3
284
     8
340
11
341
34B1
342
34B1
343
34B1
344
34B1
  0
ENDTAB
  0
TABLE
  2
BLOCK_RECORD
  5
1
330
0
100
AcDbSymbolTable
 70
    10
  0
BLOCK_RECORD
  5
1F
102
{ACAD_XDICTIONARY
360
31EE
102
}
330
1
100
AcDbSymbolTableRecord
100
AcDbBlockTableRecord
  2
*Model_Space
340
22
  0
BLOCK_RECORD
  5
55
330
1
100
AcDbSymbolTableRecord
100
AcDbBlockTableRecord
  2
*Paper_Space
340
56
  0
BLOCK_RECORD
  5
50
330
1
100
AcDbSymbolTableRecord
100
AcDbBlockTableRecord
  2
*Paper_Space0000000000
340
51
  0
BLOCK_RECORD
  5
34B1
330
1
100
AcDbSymbolTableRecord
100
AcDbBlockTableRecord
  2
_OPEN
340
0
102
{BLKREFS
331
8771A
331
8771B
331
87727
331
87728
331
87734
331
87735
331
87741
331
87742
331
8774E
331
8774F
331
87756
331
87763
331
87764
331
8A070
331
8A071
331
8A07B
331
8A07C
331
8A089
331
8A08A
331
8A095
331
8A096
331
8A09D
331
8A0A7
331
8A0A8
331
8A0B4
331
8A0B5
331
8A526
331
8A527
331
8A532
331
8A533
331
8A53F
331
8A540
331
8A54B
331
8A54C
331
8A556
331
8A561
331
8A562
331
8A56D
331
8A56E
331
8A578
331
8A579
331
8A581
331
8A582
331
8A58B
331
8A58C
331
8A594
331
8A595
331
8A59C
331
8A5A4
331
8A5A5
331
8A5AD
331
8A5AE
331
8A771
331
8A772
331
8A77A
331
8A77B
331
8A783
331
8A784
331
8A78D
331
8A78E
331
8A796
331
8A797
331
8A79F
331
8A7A0
331
8A7A7
331
8A7AF
331
8A7B0
331
8A7B8
331
8A7B9
331
8A7C1
331
8A7C2
331
8A7CB
331
8A7CC
331
8A7D4
331
8A7D5
331
8A7DD
331
8A7DE
331
8A7E5
102
}
  0
BLOCK_RECORD
  5
8820A
330
1
100
AcDbSymbolTableRecord
100
AcDbBlockTableRecord
  2
_None
340
0
102
{BLKREFS
331
8A84F
331
8A8A6
331
8A8AF
331
8A8B7
331
8A9FA
331
8AA38
331
89218
331
8843B
331
88443
102
}
  0
BLOCK_RECORD
  5
8A521
330
1
100
AcDbSymbolTableRecord
100
AcDbBlockTableRecord
  2
*D18333
340
0
  0
BLOCK_RECORD
  5
8A52E
330
1
100
AcDbSymbolTableRecord
100
AcDbBlockTableRecord
  2
*D19444
340
0
  0
BLOCK_RECORD
  5
8A53A
330
1
100
AcDbSymbolTableRecord
100
AcDbBlockTableRecord
  2
*D20555
340
0
  0
BLOCK_RECORD
  5
8A547
330
1
100
AcDbSymbolTableRecord
100
AcDbBlockTableRecord
  2
*D21666
340
0
  0
BLOCK_RECORD
  5
8A553
330
1
100
AcDbSymbolTableRecord
100
AcDbBlockTableRecord
  2
*D22777
340
0
  0
BLOCK_RECORD
  5
8A55D
330
1
100
AcDbSymbolTableRecord
100
AcDbBlockTableRecord
  2
*D23888
340
0
  0
BLOCK_RECORD
  5
8A569
330
1
100
AcDbSymbolTableRecord
100
AcDbBlockTableRecord
  2
*D24999
340
0
  0
ENDTAB
  0
ENDSEC
  0
SECTION
  2
BLOCKS
  0
BLOCK
  5
20
330
1F
100
AcDbEntity
  8
0
100
AcDbBlockBegin
  2
*Model_Space
 70
     0
 10
0.0
 20
0.0
 30
0.0
  3
*Model_Space
  1

  0
ENDBLK
  5
21
330
1F
100
AcDbEntity
  8
0
100
AcDbBlockEnd
  0
BLOCK
  5
57
330
55
100
AcDbEntity
 67
     1
  8
0
100
AcDbBlockBegin
  2
*Paper_Space
 70
     0
 10
0.0
 20
0.0
 30
0.0
  3
*Paper_Space
  1

  0
ENDBLK
  5
58
330
55
100
AcDbEntity
 67
     1
  8
0
100
AcDbBlockEnd
  0
BLOCK
  5
52
330
50
100
AcDbEntity
  8
0
100
AcDbBlockBegin
  2
*Paper_Space0000000000
 70
     0
 10
0.0
 20
0.0
 30
0.0
  3
*Paper_Space0000000000
  1

  0
VIEWPORT
  5
6B
102
{ACAD_XDICTIONARY
360
87699
102
}
330
50
100
AcDbEntity
  8
0
100
AcDbViewport
 10
264.3775031494645
 20
160.4455827878762
 30
0.0
 40
567.6219612953822
 41
282.2272140146125
 68
     1
 69
    -1
 12
264.3775031494645
 22
160.4455827878762
 13
0.0
 23
0.0
 14
10.0
 24
10.0
 15
10.0
 25
10.0
 16
0.0
 26
0.0
 36
1.0
 17
0.0
 27
0.0
 37
0.0
 42
50.0
 43
0.0
 44
0.0
 45
282.2272140146125
 50
0.0
 51
0.0
 72
  1000
 90
    32864
  1

281
     0
 71
     1
 74
     0
110
0.0
120
0.0
130
0.0
111
1.0
121
0.0
131
0.0
112
0.0
122
1.0
132
0.0
 79
     0
146
0.0
  0
VIEWPORT
  5
6D
102
{ACAD_XDICTIONARY
360
8769B
102
}
330
50
100
AcDbEntity
  8
0
100
AcDbViewport
 10
133.3499939441681
 20
101.5999939441681
 30
0.0
 40
213.3599903106689
 41
162.5599903106689
 68
     2
 69
    -1
 12
210.0
 22
148.5
 13
0.0
 23
0.0
 14
10.0
 24
10.0
 15
10.0
 25
10.0
 16
0.0
 26
0.0
 36
1.0
 17
0.0
 27
0.0
 37
0.0
 42
50.0
 43
0.0
 44
0.0
 45
324.0677920111345
 50
0.0
 51
0.0
 72
   100
 90
    32864
  1

281
     0
 71
     1
 74
     0
110
0.0
120
0.0
130
0.0
111
1.0
121
0.0
131
0.0
112
0.0
122
1.0
132
0.0
 79
     0
146
0.0
  0
ENDBLK
  5
53
330
50
100
AcDbEntity
  8
0
100
AcDbBlockEnd
  0
BLOCK
  5
34B2
330
34B1
100
AcDbEntity
  8
0
100
AcDbBlockBegin
  2
_OPEN
 70
     0
 10
0.0
 20
0.0
 30
0.0
  3
_OPEN
  1

  0
LINE
  5
34B3
330
34B1
100
AcDbEntity
  8
0
  6
ByBlock
 62
     0
100
AcDbLine
 10
0.0
 20
0.0
 30
0.0
 11
-1.0
 21
0.1766666667
 31
0.0
  0
LINE
  5
34B4
330
34B1
100
AcDbEntity
  8
0
  6
ByBlock
 62
     0
100
AcDbLine
 10
-1.0
 20
-0.1766666667
 30
0.0
 11
0.0
 21
0.0
 31
0.0
  0
LINE
  5
34B5
330
34B1
100
AcDbEntity
  8
0
  6
ByBlock
 62
     0
100
AcDbLine
 10
-1.0
 20
0.0
 30
0.0
 11
0.0
 21
0.0
 31
0.0
  0
ENDBLK
  5
34B6
330
34B1
100
AcDbEntity
  8
0
  6
ByBlock
 62
     0
100
AcDbBlockEnd
  0
BLOCK
  5
8820B
330
8820A
100
AcDbEntity
  8
0
100
AcDbBlockBegin
  2
_None
 70
     0
 10
0.0
 20
0.0
 30
0.0
  3
_None
  1

  0
ENDBLK
  5
8820C
330
8820A
100
AcDbEntity
  8
0
100
AcDbBlockEnd
  0
BLOCK
  5
8A52C
330
8A521
100
AcDbEntity
  8
0
100
AcDbBlockBegin
  2
*D18333
 70
     1
 10
0.0
 20
0.0
 30
0.0
  3
*D18333
  1

  0
LINE
  5
8AA50
330
8A521
100
AcDbEntity
  8
sk2
100
AcDbLine
 10
1.5
 20
22.22499999890001
 30
0.0
 11
-26.5
 21
22.22499999890002
 31
0.0
  0
LINE
  5
8AA51
330
8A521
100
AcDbEntity
  8
sk2
100
AcDbLine
 10
1.5
 20
-22.2250000011
 30
0.0
 11
-26.5
 21
-22.2250000011
 31
0.0
  0
LINE
  5
8AA52
330
8A521
100
AcDbEntity
  8
sk2
100
AcDbLine
 10
-25.0
 20
18.72499999890002
 30
0.0
 11
-25.0
 21
-18.72500000109999
 31
0.0
  0
SOLID
  5
8AA53
330
8A521
100
AcDbEntity
  8
sk2
100
AcDbTrace
 10
-24.41666666666666
 20
18.72499999890002
 30
0.0
 11
-25.58333333333333
 21
18.72499999890002
 31
0.0
 12
-25.0
 22
22.22499999890002
 32
0.0
 13
-25.0
 23
22.22499999890002
 33
0.0
  0
SOLID
  5
8AA54
330
8A521
100
AcDbEntity
  8
sk2
100
AcDbTrace
 10
-25.58333333333334
 20
-18.72500000109999
 30
0.0
 11
-24.41666666666667
 21
-18.72500000109999
 31
0.0
 12
-25.0
 22
-22.2250000011
 32
0.0
 13
-25.0
 23
-22.2250000011
 33
0.0
  0
MTEXT
  5
8AA55
330
8A521
100
AcDbEntity
  8
sk2
100
AcDbMText
 10
-30.8
 20
-0.0000000010999975
 30
0.0
 40
3.5
 41
0.0
 71
     2
 72
     1
  1
\A1;%%c44.45 [%%c1.750"]
  7
simplex
 11
0.0000000000000002
 21
1.0
 31
0.0
 73
     1
 44
1.0
1001
ACAD
1000
MTEXTBEGIN
1070
    73
1070
     1
1070
    44
1040
1.0
1070
    74
1070
     0
1000
MTEXTEND
  0
POINT
  5
8AA56
330
8A521
100
AcDbEntity
  8
Defpoints
 62
     0
100
AcDbPoint
 10
1.5
 20
22.22499999890001
 30
0.0
  0
POINT
  5
8AA57
330
8A521
100
AcDbEntity
  8
Defpoints
 62
     0
100
AcDbPoint
 10
1.5
 20
-22.2250000011
 30
0.0
  0
POINT
  5
8AA58
330
8A521
100
AcDbEntity
  8
Defpoints
 62
     0
100
AcDbPoint
 10
-25.0
 20
-22.2250000011
 30
0.0
  0
ENDBLK
  5
8A52D
330
8A521
100
AcDbEntity
  8
0
100
AcDbBlockEnd
  0
BLOCK
  5
8A538
330
8A52E
100
AcDbEntity
  8
0
100
AcDbBlockBegin
  2
*D19444
 70
     1
 10
0.0
 20
0.0
 30
0.0
  3
*D19444
  1

  0
LINE
  5
8AA47
330
8A52E
100
AcDbEntity
  8
sk2
100
AcDbLine
 10
3.5
 20
9.524999998900007
 30
0.0
 11
-16.5
 21
9.52499999890001
 31
0.0
  0
LINE
  5
8AA48
330
8A52E
100
AcDbEntity
  8
sk2
100
AcDbLine
 10
3.5
 20
-9.524999998899996
 30
0.0
 11
-16.5
 21
-9.524999998899993
 31
0.0
  0
LINE
  5
8AA49
330
8A52E
100
AcDbEntity
  8
sk2
100
AcDbLine
 10
-15.0
 20
6.02499999890001
 30
0.0
 11
-15.0
 21
-6.024999998899993
 31
0.0
  0
SOLID
  5
8AA4A
330
8A52E
100
AcDbEntity
  8
sk2
100
AcDbTrace
 10
-14.41666666666666
 20
6.02499999890001
 30
0.0
 11
-15.58333333333333
 21
6.02499999890001
 31
0.0
 12
-15.0
 22
9.52499999890001
 32
0.0
 13
-15.0
 23
9.52499999890001
 33
0.0
  0
SOLID
  5
8AA4B
330
8A52E
100
AcDbEntity
  8
sk2
100
AcDbTrace
 10
-15.58333333333333
 20
-6.024999998899993
 30
0.0
 11
-14.41666666666666
 21
-6.024999998899993
 31
0.0
 12
-15.0
 22
-9.524999998899993
 32
0.0
 13
-15.0
 23
-9.524999998899993
 33
0.0
  0
MTEXT
  5
8AA4C
330
8A52E
100
AcDbEntity
  8
sk2
100
AcDbMText
 10
-20.8
 20
-0.0992676711999962
 30
0.0
 40
3.5
 41
0.0
 71
     2
 72
     1
  1
\A1;%%c19.05 [%%c.750"]
  7
simplex
 11
0.0
 21
1.0
 31
0.0
 73
     1
 44
1.0
1001
ACAD
1000
MTEXTBEGIN
1070
    73
1070
     1
1070
    44
1040
1.0
1070
    74
1070
     0
1000
MTEXTEND
  0
POINT
  5
8AA4D
330
8A52E
100
AcDbEntity
  8
Defpoints
 62
     0
100
AcDbPoint
 10
3.5
 20
9.524999998900007
 30
0.0
  0
POINT
  5
8AA4E
330
8A52E
100
AcDbEntity
  8
Defpoints
 62
     0
100
AcDbPoint
 10
3.5
 20
-9.524999998899996
 30
0.0
  0
POINT
  5
8AA4F
330
8A52E
100
AcDbEntity
  8
Defpoints
 62
     0
100
AcDbPoint
 10
-15.0
 20
-9.524999998899993
 30
0.0
  0
ENDBLK
  5
8A539
330
8A52E
100
AcDbEntity
  8
0
100
AcDbBlockEnd
  0
BLOCK
  5
8A545
330
8A53A
100
AcDbEntity
  8
0
100
AcDbBlockBegin
  2
*D20555
 70
     1
 10
0.0
 20
0.0
 30
0.0
  3
*D20555
  1

  0
LINE
  5
8AA3D
330
8A53A
100
AcDbEntity
  8
sk2
100
AcDbLine
 10
0.0
 20
-20.7250000011
 30
0.0
 11
0.0
 21
-46.5
 31
0.0
  0
LINE
  5
8AA3E
330
8A53A
100
AcDbEntity
  8
sk2
100
AcDbLine
 10
19.0
 20
-9.199999998899992
 30
0.0
 11
19.0
 21
-46.5
 31
0.0
  0
LINE
  5
8AA3F
330
8A53A
100
AcDbEntity
  8
sk2
100
AcDbLine
 10
19.0
 20
-45.0
 30
0.0
 11
54.15208222106663
 21
-45.0
 31
0.0
  0
LINE
  5
8AA40
330
8A53A
100
AcDbEntity
  8
sk2
100
AcDbLine
 10
3.5
 20
-45.0
 30
0.0
 11
15.5
 21
-45.0
 31
0.0
  0
SOLID
  5
8AA41
330
8A53A
100
AcDbEntity
  8
sk2
100
AcDbTrace
 10
3.5
 20
-44.41666666666666
 30
0.0
 11
3.5
 21
-45.58333333333333
 31
0.0
 12
0.0
 22
-45.0
 32
0.0
 13
0.0
 23
-45.0
 33
0.0
  0
SOLID
  5
8AA42
330
8A53A
100
AcDbEntity
  8
sk2
100
AcDbTrace
 10
15.5
 20
-45.58333333333333
 30
0.0
 11
15.5
 21
-44.41666666666666
 31
0.0
 12
19.0
 22
-45.0
 32
0.0
 13
19.0
 23
-45.0
 33
0.0
  0
MTEXT
  5
8AA43
330
8A53A
100
AcDbEntity
  8
sk2
100
AcDbMText
 10
38.43541555439998
 20
-39.2
 30
0.0
 40
3.5
 41
0.0
 71
     2
 72
     1
  1
\A1;19 [.748"]
  7
simplex
 73
     1
 44
1.0
1001
ACAD
1000
MTEXTBEGIN
1070
    73
1070
     1
1070
    44
1040
1.0
1070
    74
1070
     0
1000
MTEXTEND
  0
POINT
  5
8AA44
330
8A53A
100
AcDbEntity
  8
Defpoints
 62
     0
100
AcDbPoint
 10
0.0
 20
-20.7250000011
 30
0.0
  0
POINT
  5
8AA45
330
8A53A
100
AcDbEntity
  8
Defpoints
 62
     0
100
AcDbPoint
 10
19.0
 20
-9.199999998899992
 30
0.0
  0
POINT
  5
8AA46
330
8A53A
100
AcDbEntity
  8
Defpoints
 62
     0
100
AcDbPoint
 10
19.0
 20
-45.0
 30
0.0
  0
ENDBLK
  5
8A546
330
8A53A
100
AcDbEntity
  8
0
100
AcDbBlockEnd
  0
BLOCK
  5
8A551
330
8A547
100
AcDbEntity
  8
0
100
AcDbBlockBegin
  2
*D21666
 70
     1
 10
0.0
 20
0.0
 30
0.0
  3
*D21666
  1

  0
LINE
  5
8AA35
330
8A547
100
AcDbEntity
  8
2
100
AcDbLine
 10
50.39999999999999
 20
25.3999999989
 30
0.0
 11
71.25685473999999
 21
25.3999999989
 31
0.0
  0
LINE
  5
8AA36
330
8A547
100
AcDbEntity
  8
2
100
AcDbLine
 10
69.75685473999999
 20
21.8999999989
 30
0.0
 11
69.75685473999999
 21
-25.3999999989
 31
0.0
  0
SOLID
  5
8AA37
330
8A547
100
AcDbEntity
  8
2
100
AcDbTrace
 10
70.34018807333332
 20
21.8999999989
 30
0.0
 11
69.17352140666666
 21
21.8999999989
 31
0.0
 12
69.75685473999999
 22
25.3999999989
 32
0.0
 13
69.75685473999999
 23
25.3999999989
 33
0.0
  0
INSERT
  5
8AA38
330
8A547
100
AcDbEntity
  8
2
100
AcDbBlockReference
  2
_None
 10
69.75685473999999
 20
-25.3999999989
 30
0.0
 41
3.5
 42
3.5
 43
3.5
 50
270.0
  0
MTEXT
  5
8AA39
330
8A547
100
AcDbEntity
  8
2
100
AcDbMText
 10
63.95685474
 20
-1.75
 30
0.0
 40
3.5
 41
0.0
 71
     2
 72
     1
  1
\A1;%%c50.8 [%%c2.000"]
  7
simplex
 11
0.0
 21
1.0
 31
0.0
 73
     1
 44
1.0
1001
ACAD
1000
MTEXTBEGIN
1070
    73
1070
     1
1070
    44
1040
1.0
1070
    74
1070
     0
1000
MTEXTEND
  0
POINT
  5
8AA3A
330
8A547
100
AcDbEntity
  8
Defpoints
 62
     0
100
AcDbPoint
 10
50.39999999999999
 20
25.3999999989
 30
0.0
  0
POINT
  5
8AA3B
330
8A547
100
AcDbEntity
  8
Defpoints
 62
     0
100
AcDbPoint
 10
68.75685473999999
 20
-25.3999999989
 30
0.0
  0
POINT
  5
8AA3C
330
8A547
100
AcDbEntity
  8
Defpoints
 62
     0
100
AcDbPoint
 10
69.75685473999999
 20
-25.3999999989
 30
0.0
  0
ENDBLK
  5
8A552
330
8A547
100
AcDbEntity
  8
0
100
AcDbBlockEnd
  0
BLOCK
  5
8A55B
330
8A553
100
AcDbEntity
  8
0
100
AcDbBlockBegin
  2
*D22777
 70
     1
 10
0.0
 20
0.0
 30
0.0
  3
*D22777
  1

  0
LINE
  5
8AA60
330
8A553
100
AcDbEntity
  8
2
100
AcDbLine
 10
85.89133534034537
 20
53.61153669108348
 30
0.0
 11
53.41998998900615
 21
27.07823355109536
 31
0.0
  0
MTEXT
  5
8AA61
330
8A553
100
AcDbEntity
  8
2
100
AcDbMText
 10
67.3408382486085
 20
45.94346421964458
 30
0.0
 40
3.5
 41
0.0
 71
     2
 72
     1
  1
\A1;R0.4 [R.016"]
  7
simplex
 11
0.7743564074246241
 21
0.6327496774242003
 31
0.0
 73
     1
 44
1.0
1001
ACAD
1000
MTEXTBEGIN
1070
    73
1070
     1
1070
    44
1040
1.0
1070
    74
1070
     0
1000
MTEXTEND
  0
SOLID
  5
8AA62
330
8A553
100
AcDbEntity
  8
2
100
AcDbTrace
 10
53.0508860105087
 20
27.52994145542639
 30
0.0
 11
53.7890939675036
 21
26.62652564676433
 31
0.0
 12
50.70974256301997
 22
24.86360968011066
 32
0.0
 13
50.70974256301997
 23
24.86360968011066
 33
0.0
  0
LINE
  5
8AA63
330
8A553
100
AcDbEntity
  8
2
100
AcDbLine
 10
50.30999999999998
 20
24.61050980910001
 30
0.0
 11
50.48999999999999
 21
24.61050980910001
 31
0.0
  0
LINE
  5
8AA64
330
8A553
100
AcDbEntity
  8
2
100
AcDbLine
 10
50.39999999999999
 20
24.52050980910001
 30
0.0
 11
50.39999999999999
 21
24.70050980910001
 31
0.0
  0
POINT
  5
8AA65
330
8A553
100
AcDbEntity
  8
Defpoints
 62
     0
100
AcDbPoint
 10
50.70974256301997
 20
24.86360968011066
 30
0.0
  0
POINT
  5
8AA66
330
8A553
100
AcDbEntity
  8
Defpoints
 62
     0
100
AcDbPoint
 10
50.39999999999999
 20
24.61050980910001
 30
0.0
  0
ENDBLK
  5
8A55C
330
8A553
100
AcDbEntity
  8
0
100
AcDbBlockEnd
  0
BLOCK
  5
8A567
330
8A55D
100
AcDbEntity
  8
0
100
AcDbBlockBegin
  2
*D23888
 70
     1
 10
0.0
 20
0.0
 30
0.0
  3
*D23888
  1

  0
LINE
  5
8AA7A
330
8A55D
100
AcDbEntity
  8
2
100
AcDbLine
 10
35.30000000000001
 20
25.33460387870001
 30
0.0
 11
35.30000000000001
 21
63.94747959607063
 31
0.0
  0
LINE
  5
8AA7B
330
8A55D
100
AcDbEntity
  8
2
100
AcDbLine
 10
50.80000000000001
 20
24.61050980910001
 30
0.0
 11
50.80000000000001
 21
63.94747959607063
 31
0.0
  0
LINE
  5
8AA7C
330
8A55D
100
AcDbEntity
  8
2
100
AcDbLine
 10
50.80000000000001
 20
62.44747959607064
 30
0.0
 11
107.4133246785264
 21
62.44747959607064
 31
0.0
  0
LINE
  5
8AA7D
330
8A55D
100
AcDbEntity
  8
2
100
AcDbLine
 10
38.80000000000001
 20
62.44747959607064
 30
0.0
 11
47.30000000000001
 21
62.44747959607064
 31
0.0
  0
SOLID
  5
8AA7E
330
8A55D
100
AcDbEntity
  8
2
100
AcDbTrace
 10
38.80000000000001
 20
63.03081292940397
 30
0.0
 11
38.80000000000001
 21
61.8641462627373
 31
0.0
 12
35.30000000000001
 22
62.44747959607064
 32
0.0
 13
35.30000000000001
 23
62.44747959607064
 33
0.0
  0
SOLID
  5
8AA7F
330
8A55D
100
AcDbEntity
  8
2
100
AcDbTrace
 10
47.30000000000001
 20
61.8641462627373
 30
0.0
 11
47.30000000000001
 21
63.03081292940397
 31
0.0
 12
50.80000000000001
 22
62.44747959607064
 32
0.0
 13
50.80000000000001
 23
62.44747959607064
 33
0.0
  0
MTEXT
  5
8AA80
330
8A55D
100
AcDbEntity
  8
2
100
AcDbMText
 10
82.65499134519307
 20
68.24747959607063
 30
0.0
 40
3.5
 41
0.0
 71
     2
 72
     1
  1
\A1;15.5 [.610"](MAX)
  7
simplex
 73
     1
 44
1.0
1001
ACAD
1000
MTEXTBEGIN
1070
    73
1070
     1
1070
    44
1040
1.0
1070
    74
1070
     0
1000
MTEXTEND
  0
POINT
  5
8AA81
330
8A55D
100
AcDbEntity
  8
Defpoints
 62
     0
100
AcDbPoint
 10
35.30000000000001
 20
25.33460387870001
 30
0.0
  0
POINT
  5
8AA82
330
8A55D
100
AcDbEntity
  8
Defpoints
 62
     0
100
AcDbPoint
 10
50.80000000000001
 20
24.61050980910001
 30
0.0
  0
POINT
  5
8AA83
330
8A55D
100
AcDbEntity
  8
Defpoints
 62
     0
100
AcDbPoint
 10
50.80000000000001
 20
62.44747959607064
 30
0.0
  0
ENDBLK
  5
8A568
330
8A55D
100
AcDbEntity
  8
0
100
AcDbBlockEnd
  0
BLOCK
  5
8A573
330
8A569
100
AcDbEntity
  8
0
100
AcDbBlockBegin
  2
*D24999
 70
     1
 10
0.0
 20
0.0
 30
0.0
  3
*D24999
  1

  0
LINE
  5
8AA67
330
8A569
100
AcDbEntity
  8
2
100
AcDbLine
 10
0.0
 20
19.55799999890001
 30
0.0
 11
0.0
 21
73.98087356488073
 31
0.0
  0
LINE
  5
8AA68
330
8A569
100
AcDbEntity
  8
2
100
AcDbLine
 10
50.80000000000001
 20
24.6107061961
 30
0.0
 11
50.80000000000001
 21
73.98087356488073
 31
0.0
  0
LINE
  5
8AA69
330
8A569
100
AcDbEntity
  8
2
100
AcDbLine
 10
3.5
 20
72.48087356488072
 30
0.0
 11
47.30000000000001
 21
72.48087356488072
 31
0.0
  0
SOLID
  5
8AA6A
330
8A569
100
AcDbEntity
  8
2
100
AcDbTrace
 10
3.5
 20
73.06420689821405
 30
0.0
 11
3.5
 21
71.8975402315474
 31
0.0
 12
0.0
 22
72.48087356488072
 32
0.0
 13
0.0
 23
72.48087356488072
 33
0.0
  0
SOLID
  5
8AA6B
330
8A569
100
AcDbEntity
  8
2
100
AcDbTrace
 10
47.30000000000001
 20
71.8975402315474
 30
0.0
 11
47.30000000000001
 21
73.06420689821405
 31
0.0
 12
50.80000000000001
 22
72.48087356488072
 32
0.0
 13
50.80000000000001
 23
72.48087356488072
 33
0.0
  0
MTEXT
  5
8AA6C
330
8A569
100
AcDbEntity
  8
2
100
AcDbMText
 10
25.18125171290002
 20
78.28087356488072
 30
0.0
 40
3.5
 41
0.0
 71
     2
 72
     1
  1
\A1;50.8 [2.000"]
  7
simplex
 73
     1
 44
1.0
1001
ACAD
1000
MTEXTBEGIN
1070
    73
1070
     1
1070
    44
1040
1.0
1070
    74
1070
     0
1000
MTEXTEND
  0
POINT
  5
8AA6D
330
8A569
100
AcDbEntity
  8
Defpoints
 62
     0
100
AcDbPoint
 10
0.0
 20
19.55799999890001
 30
0.0
  0
POINT
  5
8AA6E
330
8A569
100
AcDbEntity
  8
Defpoints
 62
     0
100
AcDbPoint
 10
50.80000000000001
 20
24.6107061961
 30
0.0
  0
POINT
  5
8AA6F
330
8A569
100
AcDbEntity
  8
Defpoints
 62
     0
100
AcDbPoint
 10
50.80000000000001
 20
72.48087356488072
 30
0.0
  0
ENDBLK
  5
8A574
330
8A569
100
AcDbEntity
  8
0
100
AcDbBlockEnd
  0
ENDSEC
  0
SECTION
  2
ENTITIES
  0
LINE
  5
87946
330
1F
100
AcDbEntity
  8
0
100
AcDbLine
 10
1.0
 20
0.0
 30
0.0
 11
0.0
 21
0.0
 31
0.0
  0
LINE
  5
87947
330
1F
100
AcDbEntity
  8
0
100
AcDbLine
 10
-1.0
 20
0.0
 30
0.0
 11
0.0
 21
0.0
 31
0.0
  0
LINE
  5
87948
330
1F
100
AcDbEntity
  8
0
100
AcDbLine
 10
0.0
 20
0.0
 30
0.0
 11
0.0
 21
-1.0
 31
0.0
  0
LINE
  5
87949
330
1F
100
AcDbEntity
  8
0
100
AcDbLine
 10
0.0
 20
0.0
 30
0.0
 11
0.0
 21
1.0
 31
0.0
  0
ARC
  5
8794A
330
1F
100
AcDbEntity
  8
0
100
AcDbCircle
 10
0.0
 20
0.0
 30
0.0
 40
1.0
100
AcDbArc
 50
270.0
 51
0.0
  0
ARC
  5
8794B
330
1F
100
AcDbEntity
  8
0
100
AcDbCircle
 10
0.0
 20
0.0
 30
0.0
 40
1.0
100
AcDbArc
 50
90.0
 51
180.0
  0
HATCH
  5
8794C
330
1F
100
AcDbEntity
  8
0
100
AcDbHatch
 10
0.0
 20
0.0
 30
0.0
210
0.0
220
0.0
230
1.0
  2
SOLID
 70
     1
 71
     0
 91
        2
 92
        1
 93
        3
 72
     1
 10
0.0
 20
0.0
 11
0.0
 21
-1.0
 72
     2
 10
0.0
 20
0.0
 40
1.0
 50
270.0
 51
360.0
 73
     1
 72
     1
 10
1.0
 20
0.0
 11
0.0
 21
0.0
 97
        0
 92
        1
 93
        3
 72
     1
 10
0.0
 20
0.0
 11
0.0
 21
1.0
 72
     2
 10
0.0
 20
0.0
 40
1.0
 50
90.0
 51
180.0
 73
     1
 72
     1
 10
-1.0
 20
0.0
 11
0.0
 21
0.0
 97
        0
 75
     0
 76
     1
 98
        1
 10
-31.0
 20
-41.0
  0
LINE
  5
8794E
330
1F
100
AcDbEntity
  8
0
100
AcDbLine
 10
1.0
 20
0.0
 30
0.0
 11
-1.0
 21
0.0
 31
0.0
  0
LINE
  5
87953
330
1F
100
AcDbEntity
  8
0
100
AcDbLine
 10
0.0
 20
1.0
 30
0.0
 11
0.0
 21
-1.0
 31
0.0
  0
CIRCLE
  5
87A74
330
1F
100
AcDbEntity
  8
0
100
AcDbCircle
 10
0.0
 20
0.0
 30
0.0
 40
1.0
  0
DIMENSION
  5
8A2E9
330
1F
100
AcDbEntity
  8
sk2
100
AcDbDimension
  2
*D18333
 10
-25.0
 20
-22.2250000011
 30
0.0
 11
-25.0
 21
-0.0000000010999983
 31
0.0
 70
   160
  1
%%c44.45 [%%c1.750"]
 71
     2
 42
44.45
  3
コピー - ISO-25
100
AcDbAlignedDimension
 13
1.5
 23
22.22499999890001
 33
0.0
 14
1.5
 24
-22.2250000011
 34
0.0
 50
270.0
100
AcDbRotatedDimension
1001
ACAD
1000
DSTYLE
1002
{
1070
   170
1070
     1
1070
   171
1070
     3
1070
   143
1040
0.0393700787401575
1070
   285
1070
     4
1070
     4
1000
%%c[]"
1070
   271
1070
     8
1070
    40
1040
1.0
1002
}
1001
ACAD_DSTYLE_DIMINSPECT
1070
   393
1070
     0
1070
   394
1070
     0
1070
   395
1000

1070
   396
1000

  0
DIMENSION
  5
8A2EA
330
1F
100
AcDbEntity
  8
sk2
100
AcDbDimension
  2
*D19444
 10
-15.0
 20
-9.524999998899993
 30
0.0
 11
-15.0
 21
-0.0992676711999963
 31
0.0
 70
   160
  1
%%c19.05 [%%c.750"]
 71
     2
 42
19.0499999978
  3
コピー - ISO-25
100
AcDbAlignedDimension
 13
3.5
 23
9.524999998900007
 33
0.0
 14
3.5
 24
-9.524999998899996
 34
0.0
 50
270.0
100
AcDbRotatedDimension
1001
ACAD
1000
DSTYLE
1002
{
1070
   170
1070
     1
1070
   171
1070
     3
1070
   143
1040
0.0393700787401575
1070
   285
1070
     4
1070
     4
1000
%%c[]"
1070
   271
1070
     8
1070
    40
1040
1.0
1002
}
1001
ACAD_DSTYLE_DIMINSPECT
1070
   393
1070
     0
1070
   394
1070
     0
1070
   395
1000

1070
   396
1000

  0
DIMENSION
  5
8A2EB
330
1F
100
AcDbEntity
  8
sk2
100
AcDbDimension
  2
*D20555
 10
19.0
 20
-45.0
 30
0.0
 11
38.43541555439998
 21
-45.0
 31
0.0
 70
   160
  1
19 [.748"]
 71
     2
 42
19.0
  3
コピー - ISO-25
100
AcDbAlignedDimension
 13
0.0
 23
-20.7250000011
 33
0.0
 14
19.0
 24
-9.199999998899992
 34
0.0
 50
0.0
100
AcDbRotatedDimension
1001
ACAD
1000
DSTYLE
1002
{
1070
   170
1070
     1
1070
   171
1070
     3
1070
   143
1040
0.0393700787401575
1070
   285
1070
     4
1070
     4
1000
"
1070
   271
1070
     8
1070
    40
1040
1.0
1002
}
1001
ACAD_DSTYLE_DIMINSPECT
1070
   393
1070
     0
1070
   394
1070
     0
1070
   395
1000

1070
   396
1000

  0
DIMENSION
  5
8A2EC
330
1F
100
AcDbEntity
  8
2
100
AcDbDimension
  2
*D21666
 10
69.75685473999999
 20
-25.3999999989
 30
0.0
 11
69.75685473999999
 21
-1.75
 31
0.0
 70
   160
  1
%%c50.8 [%%c2.000"]
 71
     2
 42
50.7999999978
  3
コピー - ISO-25
100
AcDbAlignedDimension
 13
50.39999999999999
 23
25.3999999989
 33
0.0
 14
68.75685473999999
 24
-25.3999999989
 34
0.0
 50
270.0
100
AcDbRotatedDimension
1001
ACAD
1000
DSTYLE
1002
{
1070
    76
1070
     1
1070
   342
1005
0
1070
   343
1005
0
1070
   173
1070
     1
1070
   344
1005
8820A
1070
   170
1070
     1
1070
   171
1070
     3
1070
   143
1040
0.0393700787401575
1070
   285
1070
     4
1070
     4
1000
"
1070
   271
1070
     8
1070
    40
1040
1.0
1002
}
1001
ACAD_DSTYLE_DIMINSPECT
1070
   393
1070
     0
1070
   394
1070
     0
1070
   395
1000

1070
   396
1000

  0
DIMENSION
  5
8A2ED
330
1F
100
AcDbEntity
  8
2
100
AcDbDimension
  2
*D22777
 10
50.39999999999999
 20
24.61050980910001
 30
0.0
 11
67.55247068473335
 21
38.6263043305
 31
0.0
 70
   164
  1
R0.4 [R.016"]
 71
     2
 42
0.4000000001
  3
コピー - ISO-25
100
AcDbRadialDimension
 15
50.70974256301997
 25
24.86360968011066
 35
0.0
 40
0.0
1001
ACAD
1000
DSTYLE
1002
{
1070
   170
1070
     1
1070
   171
1070
     3
1070
   143
1040
0.0393700787401575
1070
   285
1070
     4
1070
     4
1000
"
1070
   271
1070
     8
1070
    40
1040
1.0
1002
}
1001
ACAD_DSTYLE_DIMINSPECT
1070
   393
1070
     0
1070
   394
1070
     0
1070
   395
1000

1070
   396
1000

  0
DIMENSION
  5
8A2EE
330
1F
100
AcDbEntity
  8
2
100
AcDbDimension
  2
*D23888
 10
50.80000000000001
 20
62.44747959607064
 30
0.0
 11
82.65499134519307
 21
62.44747959607064
 31
0.0
 70
   160
  1
15.5 [.610"](MAX)
 71
     2
 42
15.5
  3
コピー - ISO-25
100
AcDbAlignedDimension
 13
35.30000000000001
 23
25.33460387870001
 33
0.0
 14
50.80000000000001
 24
24.61050980910001
 34
0.0
 50
0.0
100
AcDbRotatedDimension
1001
ACAD
1000
DSTYLE
1002
{
1070
   170
1070
     1
1070
   171
1070
     3
1070
   143
1040
0.0393700787401575
1070
   285
1070
     4
1070
     4
1000
"
1070
   271
1070
     8
1070
    40
1040
1.0
1002
}
1001
ACAD_DSTYLE_DIMINSPECT
1070
   393
1070
     0
1070
   394
1070
     0
1070
   395
1000

1070
   396
1000

  0
DIMENSION
  5
8A2EF
330
1F
100
AcDbEntity
  8
2
100
AcDbDimension
  2
*D24999
 10
50.80000000000001
 20
72.48087356488072
 30
0.0
 11
25.18125171290002
 21
72.48087356488072
 31
0.0
 70
   160
  1
50.8 [2.000"]
 71
     2
 42
50.8
  3
コピー - ISO-25
100
AcDbAlignedDimension
 13
0.0
 23
19.55799999890001
 33
0.0
 14
50.80000000000001
 24
24.6107061961
 34
0.0
 50
0.0
100
AcDbRotatedDimension
1001
ACAD
1000
DSTYLE
1002
{
1070
   170
1070
     1
1070
   171
1070
     3
1070
   143
1040
0.0393700787401575
1070
   285
1070
     4
1070
     4
1000
"
1070
   271
1070
     8
1070
    40
1040
1.0
1070
   340
1005
24A
1002
}
1001
ACAD_DSTYLE_DIMINSPECT
1070
   393
1070
     0
1070
   394
1070
     0
1070
   395
1000

1070
   396
1000

  0
MTEXT
  5
8A2F0
330
1F
100
AcDbEntity
  8
sk6
100
AcDbMText
 10
0.0
 20
89.00000000000003
 30
0.0
 40
3.5
 41
41.65
 71
     1
 72
     1
  1
AXD4000AUR2.0004AAD
 73
     1
 44
0.9
1001
ACAD
1000
MTEXTBEGIN
1070
    73
1070
     1
1070
    44
1040
0.9
1070
    74
1070
     0
1000
MTEXTEND
  0
LINE
  5
8A2F1
330
1F
100
AcDbEntity
  8
1
100
AcDbLine
 10
44.28626054499999
 20
-24.6250000011
 30
0.0
 11
46.0424040127
 21
-24.283640291
 31
0.0
  0
LINE
  5
8A2F2
330
1F
100
AcDbEntity
  8
1
100
AcDbLine
 10
23.3518794309
 20
-24.6250000011
 30
0.0
 11
44.28626054499999
 21
-24.6250000011
 31
0.0
  0
LINE
  5
8A2F3
330
1F
100
AcDbEntity
  8
1
100
AcDbLine
 10
22.57542229559999
 20
-24.52277748
 30
0.0
 11
14.38149964249999
 21
-22.3272225222
 31
0.0
  0
LINE
  5
8A2F4
330
1F
100
AcDbEntity
  8
1
100
AcDbLine
 10
13.60504250719998
 20
-22.2250000011
 30
0.0
 11
1.5
 21
-22.2250000011
 31
0.0
  0
LINE
  5
8A2FB
330
1F
100
AcDbEntity
  8
1
100
AcDbLine
 10
0.0
 20
-20.7250000011
 30
0.0
 11
0.0
 21
-4.470000001099997
 31
0.0
  0
LINE
  5
8A2FD
330
1F
100
AcDbEntity
  8
nocut
100
AcDbLine
 10
0.0
 20
0.0
 30
0.0
 11
0.0
 21
20.7249999989
 31
0.0
  0
LINE
  5
8A2FE
330
1F
100
AcDbEntity
  8
1
100
AcDbLine
 10
0.0
 20
4.469999998900004
 30
0.0
 11
0.0
 21
20.7249999989
 31
0.0
  0
LINE
  5
8A2FF
330
1F
100
AcDbEntity
  8
sk3
100
AcDbLine
 10
44.92702750870001
 20
-17.50734284099999
 30
0.0
 11
45.63482483180002
 21
-17.63214660599999
 31
0.0
  0
LINE
  5
8A300
330
1F
100
AcDbEntity
  8
sk3
100
AcDbLine
 10
10.98135921279999
 20
-9.524999998899996
 30
0.0
 11
11.8392611207
 21
-9.925046228499994
 31
0.0
  0
LINE
  5
8A301
330
1F
100
AcDbEntity
  8
1
100
AcDbLine
 10
0.0
 20
4.469999998900004
 30
0.0
 11
0.5
 21
3.969999998900007
 31
0.0
  0
LINE
  5
8A302
330
1F
100
AcDbEntity
  8
sk3
100
AcDbLine
 10
1.000000237499989
 20
-3.970000001099997
 30
0.0
 11
1.000000237499989
 21
-10.02499999889999
 31
0.0
  0
LINE
  5
8A303
330
1F
100
AcDbEntity
  8
sk3
100
AcDbLine
 10
1.000000237499989
 20
3.969999998900007
 30
0.0
 11
1.000000237499989
 21
10.02499999890001
 31
0.0
  0
LINE
  5
8A304
330
1F
100
AcDbEntity
  8
sk3
100
AcDbLine
 10
3.5
 20
-3.970000001099997
 30
0.0
 11
3.5
 21
-10.02499999889999
 31
0.0
  0
LINE
  5
8A305
330
1F
100
AcDbEntity
  8
sk3
100
AcDbLine
 10
3.5
 20
3.969999998900007
 30
0.0
 11
3.5
 21
10.02499999890001
 31
0.0
  0
LINE
  5
8A306
330
1F
100
AcDbEntity
  8
1
100
AcDbLine
 10
4.75999999999999
 20
2.969999998900007
 30
0.0
 11
4.75999999999999
 21
-2.970000001099997
 31
0.0
  0
LINE
  5
8A307
330
1F
100
AcDbEntity
  8
sk3
100
AcDbLine
 10
1.000000237499989
 20
-10.02499999889999
 30
0.0
 11
3.5
 21
-10.02499999889999
 31
0.0
  0
LINE
  5
8A308
330
1F
100
AcDbEntity
  8
sk3
100
AcDbLine
 10
12.1773557301
 20
-9.999999998899994
 30
0.0
 11
18.19999999999999
 21
-9.999999998899994
 31
0.0
  0
LINE
  5
8A309
330
1F
100
AcDbEntity
  8
sk3
100
AcDbLine
 10
3.5
 20
-9.524999998899996
 30
0.0
 11
10.98135921279999
 21
-9.524999998899996
 31
0.0
  0
LINE
  5
8A30A
330
1F
100
AcDbEntity
  8
1
100
AcDbLine
 10
3.75999999999999
 20
3.969999998900007
 30
0.0
 11
4.75999999999999
 21
2.969999998900007
 31
0.0
  0
LINE
  5
8A30B
330
1F
100
AcDbEntity
  8
sk3
100
AcDbLine
 10
1.000000237499989
 20
10.02499999890001
 30
0.0
 11
0.0
 21
11.02500026010001
 31
0.0
  0
LINE
  5
8A30C
330
1F
100
AcDbEntity
  8
sk3
100
AcDbLine
 10
34.39999999999999
 20
-7.999999998899992
 30
0.0
 11
43.1006756864
 21
-7.999999998899992
 31
0.0
  0
LINE
  5
8A30D
330
1F
100
AcDbEntity
  8
sk3
100
AcDbLine
 10
19.39999999999997
 20
-5.249999998899993
 30
0.0
 11
33.50000001299998
 21
-5.249999998899993
 31
0.0
  0
LINE
  5
8A30E
330
1F
100
AcDbEntity
  8
1
100
AcDbLine
 10
0.5
 20
-3.970000001099997
 30
0.0
 11
3.75999999999999
 21
-3.970000001099997
 31
0.0
  0
LINE
  5
8A30F
330
1F
100
AcDbEntity
  8
sk3
100
AcDbLine
 10
10.98135921279999
 20
-9.524999998899996
 30
0.0
 11
10.98135921279999
 21
9.524999998900007
 31
0.0
  0
LINE
  5
8A310
330
1F
100
AcDbEntity
  8
nocut
100
AcDbLine
 10
48.22721972519996
 20
0.0
 30
0.0
 11
0.0
 21
0.0
 31
0.0
  0
LINE
  5
8A311
330
1F
100
AcDbEntity
  8
4
100
AcDbLine
 10
51.22721972519997
 20
0.0
 30
0.0
 11
-3.0
 21
0.0
 31
0.0
  0
LINE
  5
8A313
330
1F
100
AcDbEntity
  8
sk3
100
AcDbLine
 10
33.50000001299998
 20
-5.249999998899993
 30
0.0
 11
34.0
 21
-5.749999984699995
 31
0.0
  0
LINE
  5
8A314
330
1F
100
AcDbEntity
  8
sk3
100
AcDbLine
 10
19.0
 20
-9.199999998899992
 30
0.0
 11
19.0
 21
9.199999998900002
 31
0.0
  0
LINE
  5
8A315
330
1F
100
AcDbEntity
  8
1
100
AcDbLine
 10
0.5
 20
3.969999998900007
 30
0.0
 11
3.75999999999999
 21
3.969999998900007
 31
0.0
  0
LINE
  5
8A316
330
1F
100
AcDbEntity
  8
sk3
100
AcDbLine
 10
19.39999999999997
 20
5.249999998900007
 30
0.0
 11
33.50000001299998
 21
5.249999998900007
 31
0.0
  0
LINE
  5
8A317
330
1F
100
AcDbEntity
  8
sk3
100
AcDbLine
 10
43.1006756864
 20
-7.999999998899992
 30
0.0
 11
44.10067568639999
 21
-8.999999998899994
 31
0.0
  0
LINE
  5
8A318
330
1F
100
AcDbEntity
  8
1
100
AcDbLine
 10
23.3518794309
 20
24.6186399203
 30
0.0
 11
23.3518794309
 21
24.62499999890001
 31
0.0
  0
LINE
  5
8A319
330
1F
100
AcDbEntity
  8
sk3
100
AcDbLine
 10
34.39999999999999
 20
7.999999998900007
 30
0.0
 11
43.1006756864
 21
7.999999998900007
 31
0.0
  0
LINE
  5
8A31A
330
1F
100
AcDbEntity
  8
sk3
100
AcDbLine
 10
3.5
 20
9.524999998900007
 30
0.0
 11
10.98135921279999
 21
9.524999998900007
 31
0.0
  0
LINE
  5
8A31B
330
1F
100
AcDbEntity
  8
sk3
100
AcDbLine
 10
12.1773557301
 20
9.999999998900008
 30
0.0
 11
18.19999999999999
 21
9.999999998900008
 31
0.0
  0
LINE
  5
8A31C
330
1F
100
AcDbEntity
  8
sk3
100
AcDbLine
 10
1.000000237499989
 20
10.02499999890001
 30
0.0
 11
3.5
 21
10.02499999890001
 31
0.0
  0
LINE
  5
8A31D
330
1F
100
AcDbEntity
  8
sk3
100
AcDbLine
 10
46.32763806039998
 20
-18.117710299
 30
0.0
 11
48.17380428780001
 21
-21.3218180968
 31
0.0
  0
LINE
  5
8A31E
330
1F
100
AcDbEntity
  8
cut
100
AcDbLine
 10
27.8905442839
 20
16.0495848737
 30
0.0
 11
27.8898524203
 21
16.0565343533
 31
0.0
  0
LINE
  5
8A31F
330
1F
100
AcDbEntity
  8
cut
100
AcDbLine
 10
27.8898524203
 20
16.0565343533
 30
0.0
 11
27.88928599970001
 21
16.0634939891
 31
0.0
  0
LINE
  5
8A320
330
1F
100
AcDbEntity
  8
cut
100
AcDbLine
 10
27.88928599970001
 20
16.0634939891
 30
0.0
 11
27.8888455778
 21
16.0704534352
 31
0.0
  0
LINE
  5
8A321
330
1F
100
AcDbEntity
  8
cut
100
AcDbLine
 10
27.8888455778
 20
16.0704534352
 30
0.0
 11
27.88853133999999
 21
16.0774092427
 31
0.0
  0
LINE
  5
8A322
330
1F
100
AcDbEntity
  8
cut
100
AcDbLine
 10
27.88853133999999
 20
16.0774092427
 30
0.0
 11
27.8883431008
 21
16.0843648605
 31
0.0
  0
LINE
  5
8A323
330
1F
100
AcDbEntity
  8
cut
100
AcDbLine
 10
27.8883431008
 20
16.0843648605
 30
0.0
 11
27.88828086039999
 21
16.09132028850001
 31
0.0
  0
LINE
  5
8A324
330
1F
100
AcDbEntity
  8
1
100
AcDbLine
 10
27.88828037579998
 20
17.5972401577
 30
0.0
 11
27.88828037579998
 21
15.8803922607
 31
0.0
  0
LINE
  5
8A325
330
1F
100
AcDbEntity
  8
cut
100
AcDbLine
 10
27.88828086039999
 20
16.0913202886
 30
0.0
 11
27.8882817695
 21
17.7839329959
 31
0.0
  0
LINE
  5
8A326
330
1F
100
AcDbEntity
  8
cut
100
AcDbLine
 10
27.8882817695
 20
17.7839329958
 30
0.0
 11
27.88870569369999
 21
17.8096305083
 31
0.0
  0
LINE
  5
8A327
330
1F
100
AcDbEntity
  8
cut
100
AcDbLine
 10
27.88870569369999
 20
17.8096305083
 30
0.0
 11
27.88997990350001
 21
17.8353028249
 31
0.0
  0
LINE
  5
8A328
330
1F
100
AcDbEntity
  8
cut
100
AcDbLine
 10
27.88997990350001
 20
17.8353028249
 30
0.0
 11
27.89210439889999
 21
17.8609499457
 31
0.0
  0
LINE
  5
8A329
330
1F
100
AcDbEntity
  8
cut
100
AcDbLine
 10
27.89210439889999
 20
17.8609499457
 30
0.0
 11
27.89508720689998
 21
17.88661814399999
 31
0.0
  0
LINE
  5
8A32A
330
1F
100
AcDbEntity
  8
cut
100
AcDbLine
 10
27.89508720689998
 20
17.88661814399999
 30
0.0
 11
27.89892030049998
 21
17.9122611466
 31
0.0
  0
LINE
  5
8A32B
330
1F
100
AcDbEntity
  8
cut
100
AcDbLine
 10
27.89892030049998
 20
17.9122611466
 30
0.0
 11
27.90357959879998
 21
17.9377401326
 31
0.0
  0
LINE
  5
8A32C
330
1F
100
AcDbEntity
  8
cut
100
AcDbLine
 10
27.90357959879998
 20
17.9377401326
 30
0.0
 11
27.90905783799999
 21
17.9630175382
 31
0.0
  0
LINE
  5
8A32D
330
1F
100
AcDbEntity
  8
cut
100
AcDbLine
 10
27.90905783799999
 20
17.9630175382
 30
0.0
 11
27.91536228199999
 21
17.9881309273
 31
0.0
  0
LINE
  5
8A32E
330
1F
100
AcDbEntity
  8
cut
100
AcDbLine
 10
27.91536228199999
 20
17.9881309273
 30
0.0
 11
27.92249064089999
 21
18.01305417140001
 31
0.0
  0
LINE
  5
8A32F
330
1F
100
AcDbEntity
  8
cut
100
AcDbLine
 10
27.92249064089999
 20
18.01305417140001
 30
0.0
 11
27.9304539485
 21
18.03782383720001
 31
0.0
  0
LINE
  5
8A330
330
1F
100
AcDbEntity
  8
cut
100
AcDbLine
 10
27.9304539485
 20
18.03782383720001
 30
0.0
 11
27.93924117099999
 21
18.062403358
 31
0.0
  0
LINE
  5
8A331
330
1F
100
AcDbEntity
  8
cut
100
AcDbLine
 10
27.93924117099999
 20
18.062403358
 30
0.0
 11
27.94881691730001
 21
18.08665690519999
 31
0.0
  0
LINE
  5
8A332
330
1F
100
AcDbEntity
  8
cut
100
AcDbLine
 10
27.94881691730001
 20
18.08665690519999
 30
0.0
 11
27.95916939019998
 21
18.1105392024
 31
0.0
  0
LINE
  5
8A333
330
1F
100
AcDbEntity
  8
cut
100
AcDbLine
 10
27.95916939019998
 20
18.1105392024
 30
0.0
 11
27.97031038680001
 21
18.13409552600001
 31
0.0
  0
LINE
  5
8A334
330
1F
100
AcDbEntity
  8
cut
100
AcDbLine
 10
27.97031038680001
 20
18.13409552600001
 30
0.0
 11
27.98223990700001
 21
18.15732587590001
 31
0.0
  0
LINE
  5
8A335
330
1F
100
AcDbEntity
  8
cut
100
AcDbLine
 10
27.98223990669999
 20
18.1573258753
 30
0.0
 11
27.98432775129999
 21
18.16118834640001
 31
0.0
  0
LINE
  5
8A336
330
1F
100
AcDbEntity
  8
cut
100
AcDbLine
 10
27.98432775129999
 20
18.16118834640001
 30
0.0
 11
27.9864507305
 21
18.1650329771
 31
0.0
  0
LINE
  5
8A337
330
1F
100
AcDbEntity
  8
cut
100
AcDbLine
 10
27.9864507305
 20
18.1650329771
 30
0.0
 11
27.9886088442
 21
18.1688597675
 31
0.0
  0
LINE
  5
8A338
330
1F
100
AcDbEntity
  8
cut
100
AcDbLine
 10
27.9886088442
 20
18.1688597675
 30
0.0
 11
27.99080209249999
 21
18.1726687174
 31
0.0
  0
LINE
  5
8A339
330
1F
100
AcDbEntity
  8
cut
100
AcDbLine
 10
27.99080209249999
 20
18.1726687174
 30
0.0
 11
27.99303047529998
 21
18.1764598269
 31
0.0
  0
LINE
  5
8A33A
330
1F
100
AcDbEntity
  8
cut
100
AcDbLine
 10
27.99303047529998
 20
18.1764598269
 30
0.0
 11
27.9952939927
 21
18.1802330961
 31
0.0
  0
LINE
  5
8A33B
330
1F
100
AcDbEntity
  8
1
100
AcDbLine
 10
27.99529398120002
 20
17.997276444
 30
0.0
 11
28.01196412399998
 21
18.02462876760001
 31
0.0
  0
LINE
  5
8A33C
330
1F
100
AcDbEntity
  8
cut
100
AcDbLine
 10
27.9952939927
 20
18.1802330961
 30
0.0
 11
28.00076441889999
 21
18.1891993265
 31
0.0
  0
LINE
  5
8A33D
330
1F
100
AcDbEntity
  8
cut
100
AcDbLine
 10
32.3181739456
 20
24.30216786440001
 30
0.0
 11
32.38344695019998
 21
24.4084914293
 31
0.0
  0
LINE
  5
8A33E
330
1F
100
AcDbEntity
  8
cut
100
AcDbLine
 10
28.00076441889999
 20
18.1891993265
 30
0.0
 11
28.0063211273
 21
18.19818686019999
 31
0.0
  0
LINE
  5
8A33F
330
1F
100
AcDbEntity
  8
1
100
AcDbLine
 10
28.01196412399998
 20
18.02462876760001
 30
0.0
 11
28.30475896269999
 21
18.49701687340001
 31
0.0
  0
LINE
  5
8A340
330
1F
100
AcDbEntity
  8
cut
100
AcDbLine
 10
32.38344695019998
 20
24.4084914293
 30
0.0
 11
32.3966893345
 21
24.4298105892
 31
0.0
  0
LINE
  5
8A341
330
1F
100
AcDbEntity
  8
cut
100
AcDbLine
 10
32.29192209600002
 20
24.25995332350002
 30
0.0
 11
32.3181739456
 21
24.30216786440001
 31
0.0
  0
LINE
  5
8A342
330
1F
100
AcDbEntity
  8
cut
100
AcDbLine
 10
32.3966893345
 20
24.4298105892
 30
0.0
 11
32.41004334190001
 21
24.4510910691
 31
0.0
  0
LINE
  5
8A343
330
1F
100
AcDbEntity
  8
cut
100
AcDbLine
 10
28.0063211273
 20
18.19818686019999
 30
0.0
 11
28.30475897599999
 21
18.6717919986
 31
0.0
  0
LINE
  5
8A344
330
1F
100
AcDbEntity
  8
cut
100
AcDbLine
 10
32.27837998500002
 20
24.23849517150001
 30
0.0
 11
32.29192209600002
 21
24.25995332350002
 31
0.0
  0
LINE
  5
8A345
330
1F
100
AcDbEntity
  8
cut
100
AcDbLine
 10
28.304758975
 20
18.671791997
 30
0.0
 11
28.32470176129999
 21
18.7032302564
 31
0.0
  0
LINE
  5
8A346
330
1F
100
AcDbEntity
  8
cut
100
AcDbLine
 10
32.41004334190001
 20
24.4510910691
 30
0.0
 11
32.42351328299998
 21
24.4723188025
 31
0.0
  0
LINE
  5
8A347
330
1F
100
AcDbEntity
  8
cut
100
AcDbLine
 10
32.26447291619999
 20
24.21669627510001
 30
0.0
 11
32.27837998500002
 21
24.23849517150001
 31
0.0
  0
LINE
  5
8A348
330
1F
100
AcDbEntity
  8
cut
100
AcDbLine
 10
28.32470176129999
 20
18.7032302564
 30
0.0
 11
28.34479765769998
 21
18.7344224248
 31
0.0
  0
LINE
  5
8A349
330
1F
100
AcDbEntity
  8
cut
100
AcDbLine
 10
32.25019025329999
 20
24.1945492201
 30
0.0
 11
32.26447291619999
 21
24.21669627510001
 31
0.0
  0
LINE
  5
8A34A
330
1F
100
AcDbEntity
  8
cut
100
AcDbLine
 10
32.42351328299998
 20
24.4723188025
 30
0.0
 11
32.43718482449998
 21
24.49335491470002
 31
0.0
  0
LINE
  5
8A34B
330
1F
100
AcDbEntity
  8
cut
100
AcDbLine
 10
28.34479765769998
 20
18.7344224248
 30
0.0
 11
28.36504666409999
 21
18.7653685022
 31
0.0
  0
LINE
  5
8A34C
330
1F
100
AcDbEntity
  8
cut
100
AcDbLine
 10
32.23520567790001
 20
24.1716890501
 30
0.0
 11
32.25019025329999
 21
24.1945492201
 31
0.0
  0
LINE
  5
8A34D
330
1F
100
AcDbEntity
  8
cut
100
AcDbLine
 10
28.36504666409999
 20
18.7653685022
 30
0.0
 11
28.3854553546
 21
18.7960662651
 31
0.0
  0
LINE
  5
8A34E
330
1F
100
AcDbEntity
  8
cut
100
AcDbLine
 10
32.21951384459999
 20
24.1480936068
 30
0.0
 11
32.23520567790001
 21
24.1716890501
 31
0.0
  0
LINE
  5
8A34F
330
1F
100
AcDbEntity
  8
cut
100
AcDbLine
 10
32.43718482449998
 20
24.49335491470002
 30
0.0
 11
32.45108652210002
 21
24.5141531141
 31
0.0
  0
LINE
  5
8A350
330
1F
100
AcDbEntity
  8
cut
100
AcDbLine
 10
32.20312009880001
 20
24.12378504850002
 30
0.0
 11
32.21951384459999
 21
24.1480936068
 31
0.0
  0
LINE
  5
8A351
330
1F
100
AcDbEntity
  8
cut
100
AcDbLine
 10
28.3854553546
 20
18.7960662651
 30
0.0
 11
28.40601715529999
 21
18.8265179371
 31
0.0
  0
LINE
  5
8A352
330
1F
100
AcDbEntity
  8
cut
100
AcDbLine
 10
32.45108652210002
 20
24.5141531141
 30
0.0
 11
32.46518982020001
 21
24.5347596923
 31
0.0
  0
LINE
  5
8A353
330
1F
100
AcDbEntity
  8
cut
100
AcDbLine
 10
28.40601715529999
 20
18.8265179371
 30
0.0
 11
28.42671234380001
 21
18.85673018850001
 31
0.0
  0
LINE
  5
8A354
330
1F
100
AcDbEntity
  8
cut
100
AcDbLine
 10
32.1857141584
 20
24.0984648939
 30
0.0
 11
32.20312009880001
 21
24.12378504850002
 31
0.0
  0
LINE
  5
8A355
330
1F
100
AcDbEntity
  8
cut
100
AcDbLine
 10
31.4664770926
 20
23.12041676930001
 30
0.0
 11
31.60885057920001
 21
23.326581843
 31
0.0
  0
LINE
  5
8A356
330
1F
100
AcDbEntity
  8
cut
100
AcDbLine
 10
28.42671234380001
 20
18.85673018850001
 30
0.0
 11
28.44753434609998
 21
18.8867052429
 31
0.0
  0
LINE
  5
8A357
330
1F
100
AcDbEntity
  8
1
100
AcDbLine
 10
28.48957849889999
 20
18.7782165051
 30
0.0
 11
32.47949458289998
 21
24.513822454
 31
0.0
  0
LINE
  5
8A358
330
1F
100
AcDbEntity
  8
cut
100
AcDbLine
 10
31.60885057920001
 20
23.326581843
 30
0.0
 11
31.63774942589999
 21
23.368042973
 31
0.0
  0
LINE
  5
8A359
330
1F
100
AcDbEntity
  8
cut
100
AcDbLine
 10
32.16721553989998
 20
24.07202685290001
 30
0.0
 11
32.1857141584
 21
24.0984648939
 31
0.0
  0
LINE
  5
8A35A
330
1F
100
AcDbEntity
  8
cut
100
AcDbLine
 10
31.3809508013
 20
22.9982166538
 30
0.0
 11
31.4664770926
 21
23.12041676930001
 31
0.0
  0
LINE
  5
8A35B
330
1F
100
AcDbEntity
  8
cut
100
AcDbLine
 10
32.46518982020001
 20
24.5347596923
 30
0.0
 11
32.4794947188
 21
24.5551746493
 31
0.0
  0
LINE
  5
8A35C
330
1F
100
AcDbEntity
  8
cut
100
AcDbLine
 10
28.44753434609998
 20
18.8867052429
 30
0.0
 11
28.4684897363
 21
18.9164408767
 31
0.0
  0
LINE
  5
8A35D
330
1F
100
AcDbEntity
  8
cut
100
AcDbLine
 10
31.63774942589999
 20
23.368042973
 30
0.0
 11
31.69646704510001
 21
23.4510970595
 31
0.0
  0
LINE
  5
8A35E
330
1F
100
AcDbEntity
  8
cut
100
AcDbLine
 10
30.8312442056
 20
22.22360242930001
 30
0.0
 11
31.23723473979999
 21
22.7959793391
 31
0.0
  0
LINE
  5
8A35F
330
1F
100
AcDbEntity
  8
cut
100
AcDbLine
 10
30.5399430311
 20
21.81337660220001
 30
0.0
 11
30.8312442056
 21
22.22360242930001
 31
0.0
  0
LINE
  5
8A360
330
1F
100
AcDbEntity
  8
cut
100
AcDbLine
 10
31.23723473979999
 20
22.7959793391
 30
0.0
 11
31.3809508013
 21
22.9982166538
 31
0.0
  0
LINE
  5
8A361
330
1F
100
AcDbEntity
  8
cut
100
AcDbLine
 10
32.14770472689997
 20
24.0445772155
 30
0.0
 11
32.16721553989998
 21
24.07202685290001
 31
0.0
  0
LINE
  5
8A362
330
1F
100
AcDbEntity
  8
cut
100
AcDbLine
 10
30.24826639539998
 20
21.4032908638
 30
0.0
 11
30.5399430311
 21
21.81337660220001
 31
0.0
  0
LINE
  5
8A363
330
1F
100
AcDbEntity
  8
cut
100
AcDbLine
 10
29.95624183109999
 20
20.99333711040001
 30
0.0
 11
30.24826639539998
 21
21.4032908638
 31
0.0
  0
LINE
  5
8A364
330
1F
100
AcDbEntity
  8
cut
100
AcDbLine
 10
29.66384180559998
 20
20.5835234456
 30
0.0
 11
29.95624183109999
 21
20.99333711040001
 31
0.0
  0
LINE
  5
8A365
330
1F
100
AcDbEntity
  8
cut
100
AcDbLine
 10
29.37098372100002
 20
20.17387418010001
 30
0.0
 11
29.66384180559998
 21
20.5835234456
 31
0.0
  0
LINE
  5
8A366
330
1F
100
AcDbEntity
  8
cut
100
AcDbLine
 10
29.07764004449999
 20
19.76439741729999
 30
0.0
 11
29.37098372100002
 21
20.17387418010001
 31
0.0
  0
LINE
  5
8A367
330
1F
100
AcDbEntity
  8
cut
100
AcDbLine
 10
28.78383830889999
 20
19.3550850538
 30
0.0
 11
29.07764004449999
 21
19.76439741729999
 31
0.0
  0
LINE
  5
8A368
330
1F
100
AcDbEntity
  8
cut
100
AcDbLine
 10
28.4684897363
 20
18.9164408767
 30
0.0
 11
28.78383830889999
 21
19.3550850538
 31
0.0
  0
LINE
  5
8A369
330
1F
100
AcDbEntity
  8
cut
100
AcDbLine
 10
31.69646704510001
 20
23.4510970595
 30
0.0
 11
31.7259745014
 21
23.4920651182
 31
0.0
  0
LINE
  5
8A36A
330
1F
100
AcDbEntity
  8
cut
100
AcDbLine
 10
32.1271128876
 20
24.0161363703
 30
0.0
 11
32.14770472689997
 21
24.0445772155
 31
0.0
  0
LINE
  5
8A36B
330
1F
100
AcDbEntity
  8
cut
100
AcDbLine
 10
32.47949457279998
 20
24.5551744462
 30
0.0
 11
32.49068799219998
 21
24.5705433469
 31
0.0
  0
LINE
  5
8A36C
330
1F
100
AcDbEntity
  8
cut
100
AcDbLine
 10
31.7259745014
 20
23.4920651182
 30
0.0
 11
31.7555486233
 21
23.5324337617
 31
0.0
  0
LINE
  5
8A36D
330
1F
100
AcDbEntity
  8
cut
100
AcDbLine
 10
32.10535079779999
 20
23.9866363758
 30
0.0
 11
32.1271128876
 21
24.0161363703
 31
0.0
  0
LINE
  5
8A36E
330
1F
100
AcDbEntity
  8
cut
100
AcDbLine
 10
31.7555486233
 20
23.5324337617
 30
0.0
 11
31.78515451139998
 21
23.57226090899999
 31
0.0
  0
LINE
  5
8A36F
330
1F
100
AcDbEntity
  8
cut
100
AcDbLine
 10
32.08250768170001
 20
23.9561451734
 30
0.0
 11
32.10535079779999
 21
23.9866363758
 31
0.0
  0
LINE
  5
8A370
330
1F
100
AcDbEntity
  8
cut
100
AcDbLine
 10
31.78515451139998
 20
23.57226090899999
 30
0.0
 11
31.81448547299999
 21
23.6112137976
 31
0.0
  0
LINE
  5
8A371
330
1F
100
AcDbEntity
  8
cut
100
AcDbLine
 10
32.49068799219998
 20
24.5705433469
 30
0.0
 11
32.50198736810001
 21
24.58552766610001
 31
0.0
  0
LINE
  5
8A372
330
1F
100
AcDbEntity
  8
cut
100
AcDbLine
 10
32.05878238100002
 20
23.92488697600001
 30
0.0
 11
32.08250768170001
 21
23.9561451734
 31
0.0
  0
LINE
  5
8A373
330
1F
100
AcDbEntity
  8
cut
100
AcDbLine
 10
31.81448547299999
 20
23.6112137976
 30
0.0
 11
31.84349750619998
 21
23.6491508232
 31
0.0
  0
LINE
  5
8A374
330
1F
100
AcDbEntity
  8
cut
100
AcDbLine
 10
32.03415896420001
 20
23.89290634229999
 30
0.0
 11
32.05878238100002
 21
23.92488697600001
 31
0.0
  0
LINE
  5
8A375
330
1F
100
AcDbEntity
  8
cut
100
AcDbLine
 10
31.84349750619998
 20
23.6491508232
 30
0.0
 11
31.8722346129
 21
23.68621359000001
 31
0.0
  0
LINE
  5
8A376
330
1F
100
AcDbEntity
  8
cut
100
AcDbLine
 10
31.9825122124
 20
23.82673462610001
 30
0.0
 11
32.03415896420001
 21
23.89290634229999
 31
0.0
  0
LINE
  5
8A377
330
1F
100
AcDbEntity
  8
cut
100
AcDbLine
 10
32.50198736810001
 20
24.58552766610001
 30
0.0
 11
32.51339270040001
 21
24.60012740390002
 31
0.0
  0
LINE
  5
8A378
330
1F
100
AcDbEntity
  8
cut
100
AcDbLine
 10
31.8722346129
 20
23.68621359000001
 30
0.0
 11
31.92836373339999
 21
23.75798793280001
 31
0.0
  0
LINE
  5
8A379
330
1F
100
AcDbEntity
  8
cut
100
AcDbLine
 10
31.92836373339999
 20
23.75798793280001
 30
0.0
 11
31.9825122124
 21
23.82673462610001
 31
0.0
  0
LINE
  5
8A37A
330
1F
100
AcDbEntity
  8
cut
100
AcDbLine
 10
32.51339270040001
 20
24.60012740390002
 30
0.0
 11
32.52489247040001
 21
24.6143322904
 31
0.0
  0
LINE
  5
8A37B
330
1F
100
AcDbEntity
  8
cut
100
AcDbLine
 10
32.52489247040001
 20
24.6143322904
 30
0.0
 11
32.53649819689997
 21
24.6281525956
 31
0.0
  0
LINE
  5
8A37C
330
1F
100
AcDbEntity
  8
cut
100
AcDbLine
 10
32.53649819689997
 20
24.6281525956
 30
0.0
 11
32.5482444361
 21
24.6416191288
 31
0.0
  0
LINE
  5
8A37D
330
1F
100
AcDbEntity
  8
cut
100
AcDbLine
 10
32.5482444361
 20
24.6416191288
 30
0.0
 11
32.5601420173
 21
24.6547270069
 31
0.0
  0
LINE
  5
8A37E
330
1F
100
AcDbEntity
  8
cut
100
AcDbLine
 10
32.5601420173
 20
24.6547270069
 30
0.0
 11
32.57218011129999
 21
24.6674811131
 31
0.0
  0
LINE
  5
8A37F
330
1F
100
AcDbEntity
  8
cut
100
AcDbLine
 10
32.57218011129999
 20
24.6674811131
 30
0.0
 11
32.5843607873
 21
24.6799269065
 31
0.0
  0
LINE
  5
8A380
330
1F
100
AcDbEntity
  8
1
100
AcDbLine
 10
0.5
 20
-3.970000001099997
 30
0.0
 11
0.0
 21
-4.470000001099997
 31
0.0
  0
LINE
  5
8A381
330
1F
100
AcDbEntity
  8
1
100
AcDbLine
 10
4.75999999999999
 20
-2.970000001099997
 30
0.0
 11
3.75999999999999
 21
-3.970000001099997
 31
0.0
  0
LINE
  5
8A382
330
1F
100
AcDbEntity
  8
cut
100
AcDbLine
 10
32.5843607873
 20
24.6799269065
 30
0.0
 11
32.59668154349999
 21
24.69206532440001
 31
0.0
  0
LINE
  5
8A383
330
1F
100
AcDbEntity
  8
cut
100
AcDbLine
 10
32.59668154349999
 20
24.69206532440001
 30
0.0
 11
32.60914488169998
 21
24.7038954294
 31
0.0
  0
LINE
  5
8A384
330
1F
100
AcDbEntity
  8
cut
100
AcDbLine
 10
32.60914488169998
 20
24.7038954294
 30
0.0
 11
32.621760376
 21
24.71545986870002
 31
0.0
  0
LINE
  5
8A385
330
1F
100
AcDbEntity
  8
cut
100
AcDbLine
 10
32.621760376
 20
24.71545986870002
 30
0.0
 11
32.6345294752
 21
24.7267635642
 31
0.0
  0
LINE
  5
8A386
330
1F
100
AcDbEntity
  8
cut
100
AcDbLine
 10
32.6345294752
 20
24.7267635642
 30
0.0
 11
32.64745073069998
 21
24.7378015939
 31
0.0
  0
LINE
  5
8A387
330
1F
100
AcDbEntity
  8
cut
100
AcDbLine
 10
32.64745073069998
 20
24.7378015939
 30
0.0
 11
32.66052937019998
 21
24.7486018381
 31
0.0
  0
LINE
  5
8A388
330
1F
100
AcDbEntity
  8
cut
100
AcDbLine
 10
32.66052937019998
 20
24.7486018381
 30
0.0
 11
32.6737649377
 21
24.759172167
 31
0.0
  0
LINE
  5
8A389
330
1F
100
AcDbEntity
  8
cut
100
AcDbLine
 10
32.6737649377
 20
24.759172167
 30
0.0
 11
32.68715788930001
 21
24.7695047103
 31
0.0
  0
LINE
  5
8A38A
330
1F
100
AcDbEntity
  8
cut
100
AcDbLine
 10
32.68715788930001
 20
24.7695047103
 30
0.0
 11
32.70071482079999
 21
24.77960373800002
 31
0.0
  0
LINE
  5
8A38B
330
1F
100
AcDbEntity
  8
cut
100
AcDbLine
 10
32.70071482079999
 20
24.77960373800002
 30
0.0
 11
32.7144334905
 21
24.7894703794
 31
0.0
  0
LINE
  5
8A38C
330
1F
100
AcDbEntity
  8
cut
100
AcDbLine
 10
32.7144334905
 20
24.7894703794
 30
0.0
 11
32.72831614000001
 21
24.79910350500001
 31
0.0
  0
LINE
  5
8A38D
330
1F
100
AcDbEntity
  8
cut
100
AcDbLine
 10
32.72831614000001
 20
24.79910350500001
 30
0.0
 11
32.74237608990001
 21
24.80850399659999
 31
0.0
  0
LINE
  5
8A38E
330
1F
100
AcDbEntity
  8
cut
100
AcDbLine
 10
32.74237608990001
 20
24.80850399659999
 30
0.0
 11
32.75661778029999
 21
24.8176721479
 31
0.0
  0
LINE
  5
8A38F
330
1F
100
AcDbEntity
  8
cut
100
AcDbLine
 10
32.75661778029999
 20
24.8176721479
 30
0.0
 11
32.7710367711
 21
24.8266076651
 31
0.0
  0
LINE
  5
8A390
330
1F
100
AcDbEntity
  8
cut
100
AcDbLine
 10
32.7710367711
 20
24.8266076651
 30
0.0
 11
32.78563306230001
 21
24.8353105482
 31
0.0
  0
LINE
  5
8A391
330
1F
100
AcDbEntity
  8
cut
100
AcDbLine
 10
32.78563306209998
 20
24.8353105481
 30
0.0
 11
33.7518326545
 21
25.3999999989
 31
0.0
  0
LINE
  5
8A392
330
1F
100
AcDbEntity
  8
1
100
AcDbLine
 10
32.7856330775
 20
24.7954853374
 30
0.0
 11
33.6891219698
 21
25.3202982278
 31
0.0
  0
LINE
  5
8A393
330
1F
100
AcDbEntity
  8
sk3
100
AcDbLine
 10
44.92702750870001
 20
17.50734284100001
 30
0.0
 11
45.63482483180002
 21
17.632146606
 31
0.0
  0
LINE
  5
8A394
330
1F
100
AcDbEntity
  8
1
100
AcDbLine
 10
44.28626055199996
 20
13.5078197206
 30
0.0
 11
41.63628747479998
 21
13.4472200657
 31
0.0
  0
LINE
  5
8A395
330
1F
100
AcDbEntity
  8
1
100
AcDbLine
 10
46.0424040127
 20
13.540837691
 30
0.0
 11
44.28626054499999
 21
13.5078196927
 31
0.0
  0
LINE
  5
8A396
330
1F
100
AcDbEntity
  8
1
100
AcDbLine
 10
45.2188838169
 20
15.1269700815
 30
0.0
 11
44.95827449519999
 21
15.1243239206
 31
0.0
  0
LINE
  5
8A397
330
1F
100
AcDbEntity
  8
1
100
AcDbLine
 10
44.95827449519999
 20
15.1243239206
 30
0.0
 11
44.42181306290001
 21
15.12022580600001
 31
0.0
  0
LINE
  5
8A398
330
1F
100
AcDbEntity
  8
1
100
AcDbLine
 10
44.42181306290001
 20
15.12022580600001
 30
0.0
 11
43.87579211420001
 21
15.1174727837
 31
0.0
  0
LINE
  5
8A399
330
1F
100
AcDbEntity
  8
cut
100
AcDbLine
 10
45.21888381769995
 20
15.35636106180001
 30
0.0
 11
44.95827447559998
 21
15.3556803473
 31
0.0
  0
LINE
  5
8A39A
330
1F
100
AcDbEntity
  8
1
100
AcDbLine
 10
43.87579211420001
 20
15.1174727837
 30
0.0
 11
43.31998015209999
 21
15.1160952594
 31
0.0
  0
LINE
  5
8A39B
330
1F
100
AcDbEntity
  8
cut
100
AcDbLine
 10
44.95827447559998
 20
15.3556803473
 30
0.0
 11
44.42181308869999
 21
15.3554306354
 31
0.0
  0
LINE
  5
8A39C
330
1F
100
AcDbEntity
  8
1
100
AcDbLine
 10
43.31998015209999
 20
15.1160952594
 30
0.0
 11
42.75414669289999
 21
15.1161227233
 31
0.0
  0
LINE
  5
8A39D
330
1F
100
AcDbEntity
  8
cut
100
AcDbLine
 10
44.42181308869999
 20
15.3554306354
 30
0.0
 11
44.10067568639999
 21
15.35595846180001
 31
0.0
  0
LINE
  5
8A39E
330
1F
100
AcDbEntity
  8
cut
100
AcDbLine
 10
43.83438090549997
 20
15.356497492
 30
0.0
 11
44.10067568639999
 21
15.35595846180001
 31
0.0
  0
LINE
  5
8A39F
330
1F
100
AcDbEntity
  8
1
100
AcDbLine
 10
42.75414669289999
 20
15.1161227233
 30
0.0
 11
42.17805361379999
 21
15.1175841637
 31
0.0
  0
LINE
  5
8A3A0
330
1F
100
AcDbEntity
  8
cut
100
AcDbLine
 10
43.83438090549997
 20
15.356497492
 30
0.0
 11
43.31998014819999
 21
15.3584312708
 31
0.0
  0
LINE
  5
8A3A1
330
1F
100
AcDbEntity
  8
1
100
AcDbLine
 10
42.17805361379999
 20
15.1175841637
 30
0.0
 11
41.5914385588
 21
15.1205088678
 31
0.0
  0
LINE
  5
8A3A2
330
1F
100
AcDbEntity
  8
cut
100
AcDbLine
 10
43.31998014819999
 20
15.3584312708
 30
0.0
 11
42.75414670099999
 21
15.3617000324
 31
0.0
  0
LINE
  5
8A3A3
330
1F
100
AcDbEntity
  8
1
100
AcDbLine
 10
41.5914385588
 20
15.1205088678
 30
0.0
 11
40.99401716029999
 21
15.1249263246
 31
0.0
  0
LINE
  5
8A3A4
330
1F
100
AcDbEntity
  8
cut
100
AcDbLine
 10
42.75414670099999
 20
15.3617000324
 30
0.0
 11
42.17805360599998
 21
15.3661586629
 31
0.0
  0
LINE
  5
8A3A5
330
1F
100
AcDbEntity
  8
cut
100
AcDbLine
 10
42.17805360599998
 20
15.3661586629
 30
0.0
 11
41.59143857359999
 21
15.3718147089
 31
0.0
  0
LINE
  5
8A3A6
330
1F
100
AcDbEntity
  8
1
100
AcDbLine
 10
40.99401716029999
 20
15.1249263246
 30
0.0
 11
40.38549277229996
 21
15.1308657654
 31
0.0
  0
LINE
  5
8A3A7
330
1F
100
AcDbEntity
  8
cut
100
AcDbLine
 10
41.59143857359999
 20
15.3718147089
 30
0.0
 11
40.99401715379999
 21
15.3786753357
 31
0.0
  0
LINE
  5
8A3A8
330
1F
100
AcDbEntity
  8
1
100
AcDbLine
 10
40.38549277229996
 20
15.1308657654
 30
0.0
 11
39.76553653719998
 21
15.138357131
 31
0.0
  0
LINE
  5
8A3A9
330
1F
100
AcDbEntity
  8
cut
100
AcDbLine
 10
40.99401715379999
 20
15.3786753357
 30
0.0
 11
40.38549278609997
 21
15.3867473188
 31
0.0
  0
LINE
  5
8A3AA
330
1F
100
AcDbEntity
  8
1
100
AcDbLine
 10
39.76553653719998
 20
15.138357131
 30
0.0
 11
39.13380007979998
 21
15.1474304708
 31
0.0
  0
LINE
  5
8A3AB
330
1F
100
AcDbEntity
  8
cut
100
AcDbLine
 10
45.25766295749997
 20
15.3557963093
 30
0.0
 11
45.21888381769995
 21
15.35636106180001
 31
0.0
  0
LINE
  5
8A3AC
330
1F
100
AcDbEntity
  8
cut
100
AcDbLine
 10
40.38549278609997
 20
15.3867473188
 30
0.0
 11
39.7655365512
 21
15.3960374016
 31
0.0
  0
LINE
  5
8A3AD
330
1F
100
AcDbEntity
  8
1
100
AcDbLine
 10
39.13380007979998
 20
15.1474304708
 30
0.0
 11
38.4898891996
 21
15.1581172223
 31
0.0
  0
LINE
  5
8A3AE
330
1F
100
AcDbEntity
  8
cut
100
AcDbLine
 10
39.7655365512
 20
15.3960374016
 30
0.0
 11
39.13380005319999
 21
15.406552277
 31
0.0
  0
LINE
  5
8A3AF
330
1F
100
AcDbEntity
  8
cut
100
AcDbLine
 10
39.13380005319999
 20
15.406552277
 30
0.0
 11
38.489889178
 21
15.4182990347
 31
0.0
  0
LINE
  5
8A3B0
330
1F
100
AcDbEntity
  8
1
100
AcDbLine
 10
38.4898891996
 20
15.1581172223
 30
0.0
 11
37.83336388379999
 21
15.1704502253
 31
0.0
  0
LINE
  5
8A3B1
330
1F
100
AcDbEntity
  8
cut
100
AcDbLine
 10
38.489889178
 20
15.4182990347
 30
0.0
 11
37.8333638895
 21
15.4312853266
 31
0.0
  0
LINE
  5
8A3B2
330
1F
100
AcDbEntity
  8
1
100
AcDbLine
 10
37.83336388379999
 20
15.1704502253
 30
0.0
 11
37.16375348600003
 21
15.1844630014
 31
0.0
  0
LINE
  5
8A3B3
330
1F
100
AcDbEntity
  8
cut
100
AcDbLine
 10
37.8333638895
 20
15.4312853266
 30
0.0
 11
37.16375350769999
 21
15.4455193844
 31
0.0
  0
LINE
  5
8A3B4
330
1F
100
AcDbEntity
  8
cut
100
AcDbLine
 10
37.16375350769999
 20
15.4455193844
 30
0.0
 11
36.48055169930001
 21
15.4610102957
 31
0.0
  0
LINE
  5
8A3B5
330
1F
100
AcDbEntity
  8
1
100
AcDbLine
 10
37.16375348600003
 20
15.1844630014
 30
0.0
 11
36.48055170510001
 21
15.200190008
 31
0.0
  0
LINE
  5
8A3B6
330
1F
100
AcDbEntity
  8
cut
100
AcDbLine
 10
36.48055169930001
 20
15.4610102957
 30
0.0
 11
35.7831518488
 21
15.4777689783
 31
0.0
  0
LINE
  5
8A3B7
330
1F
100
AcDbEntity
  8
1
100
AcDbLine
 10
36.48055170510001
 20
15.200190008
 30
0.0
 11
35.78315186579999
 21
15.2176697854
 31
0.0
  0
LINE
  5
8A3B8
330
1F
100
AcDbEntity
  8
cut
100
AcDbLine
 10
35.7831518488
 20
15.4777689783
 30
0.0
 11
35.07086071750001
 21
15.495808332
 31
0.0
  0
LINE
  5
8A3B9
330
1F
100
AcDbEntity
  8
cut
100
AcDbLine
 10
35.07086071750001
 20
15.495808332
 30
0.0
 11
34.34292390399998
 21
15.515143311
 31
0.0
  0
LINE
  5
8A3BA
330
1F
100
AcDbEntity
  8
cut
100
AcDbLine
 10
28.28600018819998
 20
15.7038127008
 30
0.0
 11
28.26868531470001
 21
15.704271346
 31
0.0
  0
LINE
  5
8A3BB
330
1F
100
AcDbEntity
  8
1
100
AcDbLine
 10
35.78315186579999
 20
15.2176697854
 30
0.0
 11
35.07086072819999
 21
15.2369443086
 31
0.0
  0
LINE
  5
8A3BC
330
1F
100
AcDbEntity
  8
cut
100
AcDbLine
 10
34.34292390399998
 20
15.515143311
 30
0.0
 11
33.5985185591
 21
15.5357914216
 31
0.0
  0
LINE
  5
8A3BD
330
1F
100
AcDbEntity
  8
1
100
AcDbLine
 10
35.07086072819999
 20
15.2369443086
 30
0.0
 11
34.3429238997
 21
15.2580577732
 31
0.0
  0
LINE
  5
8A3BE
330
1F
100
AcDbEntity
  8
cut
100
AcDbLine
 10
33.5985185591
 20
15.5357914216
 30
0.0
 11
32.83667463569999
 21
15.5577741391
 31
0.0
  0
LINE
  5
8A3BF
330
1F
100
AcDbEntity
  8
cut
100
AcDbLine
 10
32.83667463569999
 20
15.5577741391
 30
0.0
 11
32.0563285289
 21
15.5811169075
 31
0.0
  0
LINE
  5
8A3C0
330
1F
100
AcDbEntity
  8
1
100
AcDbLine
 10
34.3429238997
 20
15.2580577732
 30
0.0
 11
33.59851857019999
 21
15.2810569616
 31
0.0
  0
LINE
  5
8A3C1
330
1F
100
AcDbEntity
  8
cut
100
AcDbLine
 10
32.0563285289
 20
15.5811169075
 30
0.0
 11
31.25611215539999
 21
15.60585248689999
 31
0.0
  0
LINE
  5
8A3C2
330
1F
100
AcDbEntity
  8
cut
100
AcDbLine
 10
31.25611215539999
 20
15.60585248689999
 30
0.0
 11
30.4345379724
 21
15.6320197718
 31
0.0
  0
LINE
  5
8A3C3
330
1F
100
AcDbEntity
  8
1
100
AcDbLine
 10
33.59851857019999
 20
15.2810569616
 30
0.0
 11
32.83667465539997
 21
15.3059950854
 31
0.0
  0
LINE
  5
8A3C4
330
1F
100
AcDbEntity
  8
cut
100
AcDbLine
 10
30.4345379724
 20
15.6320197718
 30
0.0
 11
29.58998956549999
 21
15.65966502100001
 31
0.0
  0
LINE
  5
8A3C5
330
1F
100
AcDbEntity
  8
cut
100
AcDbLine
 10
29.58998956549999
 20
15.65966502100001
 30
0.0
 11
28.72066874679999
 21
15.6888438898
 31
0.0
  0
LINE
  5
8A3C6
330
1F
100
AcDbEntity
  8
cut
100
AcDbLine
 10
28.72066874679999
 20
15.6888438898
 30
0.0
 11
28.28600018819998
 21
15.7038127008
 31
0.0
  0
LINE
  5
8A3C7
330
1F
100
AcDbEntity
  8
1
100
AcDbLine
 10
32.83667465539997
 20
15.3059950854
 30
0.0
 11
32.05632852050003
 21
15.3329292001
 31
0.0
  0
LINE
  5
8A3C8
330
1F
100
AcDbEntity
  8
1
100
AcDbLine
 10
32.05632852050003
 20
15.3329292001
 30
0.0
 11
31.2561121457
 21
15.361930458
 31
0.0
  0
LINE
  5
8A3C9
330
1F
100
AcDbEntity
  8
1
100
AcDbLine
 10
29.73643327489998
 20
14.7382387873
 30
0.0
 11
29.71619620339999
 21
14.7389844105
 31
0.0
  0
LINE
  5
8A3CA
330
1F
100
AcDbEntity
  8
1
100
AcDbLine
 10
31.2561121457
 20
15.361930458
 30
0.0
 11
30.4345379804
 21
15.3930751629
 31
0.0
  0
LINE
  5
8A3CB
330
1F
100
AcDbEntity
  8
1
100
AcDbLine
 10
30.4345379804
 20
15.3930751629
 30
0.0
 11
29.58998956059998
 21
15.4264452465
 31
0.0
  0
LINE
  5
8A3CC
330
1F
100
AcDbEntity
  8
1
100
AcDbLine
 10
29.58998956059998
 20
15.4264452465
 30
0.0
 11
28.72066873029999
 21
15.462130855
 31
0.0
  0
LINE
  5
8A3CD
330
1F
100
AcDbEntity
  8
1
100
AcDbLine
 10
28.2859440293
 20
15.4805979533
 30
0.0
 11
28.72066873029999
 21
15.462130855
 31
0.0
  0
LINE
  5
8A3CE
330
1F
100
AcDbEntity
  8
1
100
AcDbLine
 10
28.2859440293
 20
15.4805979533
 30
0.0
 11
28.26866948419999
 21
15.4813733638
 31
0.0
  0
LINE
  5
8A3CF
330
1F
100
AcDbEntity
  8
cut
100
AcDbLine
 10
28.26868531849999
 20
15.7042713459
 30
0.0
 11
28.25706666229999
 21
15.7047988616
 31
0.0
  0
LINE
  5
8A3D0
330
1F
100
AcDbEntity
  8
1
100
AcDbLine
 10
45.2576629082
 20
15.12495913800001
 30
0.0
 11
45.2188838169
 21
15.1269700815
 31
0.0
  0
LINE
  5
8A3D1
330
1F
100
AcDbEntity
  8
cut
100
AcDbLine
 10
28.25706666229999
 20
15.7047988616
 30
0.0
 11
28.2454839827
 21
15.7056594181
 31
0.0
  0
LINE
  5
8A3D2
330
1F
100
AcDbEntity
  8
cut
100
AcDbLine
 10
28.2454839827
 20
15.7056594181
 30
0.0
 11
28.23393727939998
 21
15.7068530155
 31
0.0
  0
LINE
  5
8A3D3
330
1F
100
AcDbEntity
  8
cut
100
AcDbLine
 10
28.23393727939998
 20
15.7068530155
 30
0.0
 11
28.22241623939999
 21
15.7083840612
 31
0.0
  0
LINE
  5
8A3D4
330
1F
100
AcDbEntity
  8
cut
100
AcDbLine
 10
28.22241623939999
 20
15.7083840612
 30
0.0
 11
28.21093117589999
 21
15.7102481478
 31
0.0
  0
LINE
  5
8A3D5
330
1F
100
AcDbEntity
  8
1
100
AcDbLine
 10
29.28924991470001
 20
14.44304224359999
 30
0.0
 11
28.35140830669999
 21
14.6093514787
 31
0.0
  0
LINE
  5
8A3D6
330
1F
100
AcDbEntity
  8
1
100
AcDbLine
 10
28.27700079689999
 20
15.0001094101
 30
0.0
 11
27.39855138019999
 21
15.1558865151
 31
0.0
  0
LINE
  5
8A3D7
330
1F
100
AcDbEntity
  8
1
100
AcDbLine
 10
26.25795770259998
 20
17.9728372224
 30
0.0
 11
25.88524378540002
 21
18.0389312898
 31
0.0
  0
LINE
  5
8A3D8
330
1F
100
AcDbEntity
  8
cut
100
AcDbLine
 10
28.21093117589999
 20
15.7102481478
 30
0.0
 11
28.1995130286
 21
15.7124320524
 31
0.0
  0
LINE
  5
8A3D9
330
1F
100
AcDbEntity
  8
cut
100
AcDbLine
 10
28.1995130286
 20
15.7124320524
 30
0.0
 11
28.18816349649998
 21
15.7149306703
 31
0.0
  0
LINE
  5
8A3DA
330
1F
100
AcDbEntity
  8
cut
100
AcDbLine
 10
28.18816349649998
 20
15.7149306703
 30
0.0
 11
28.17688088059998
 21
15.7177491063
 31
0.0
  0
LINE
  5
8A3DB
330
1F
100
AcDbEntity
  8
cut
100
AcDbLine
 10
28.17688088059998
 20
15.7177491063
 30
0.0
 11
28.1656910234
 21
15.7208894516
 31
0.0
  0
LINE
  5
8A3DC
330
1F
100
AcDbEntity
  8
cut
100
AcDbLine
 10
28.1656910234
 20
15.7208894516
 30
0.0
 11
28.15459288969999
 21
15.7243509499
 31
0.0
  0
LINE
  5
8A3DD
330
1F
100
AcDbEntity
  8
cut
100
AcDbLine
 10
28.15459288969999
 20
15.7243509499
 30
0.0
 11
28.1435875146
 21
15.7281343576
 31
0.0
  0
LINE
  5
8A3DE
330
1F
100
AcDbEntity
  8
cut
100
AcDbLine
 10
28.1435875146
 20
15.7281343576
 30
0.0
 11
28.1327038465
 21
15.7322440355
 31
0.0
  0
LINE
  5
8A3DF
330
1F
100
AcDbEntity
  8
cut
100
AcDbLine
 10
28.1327038465
 20
15.7322440355
 30
0.0
 11
28.1219410702
 21
15.7366835802
 31
0.0
  0
LINE
  5
8A3E0
330
1F
100
AcDbEntity
  8
cut
100
AcDbLine
 10
28.1219410702
 20
15.7366835802
 30
0.0
 11
28.11130000079998
 21
15.7414493951
 31
0.0
  0
LINE
  5
8A3E1
330
1F
100
AcDbEntity
  8
cut
100
AcDbLine
 10
28.11130000079998
 20
15.7414493951
 30
0.0
 11
28.10081203139998
 21
15.74653505019999
 31
0.0
  0
LINE
  5
8A3E2
330
1F
100
AcDbEntity
  8
cut
100
AcDbLine
 10
28.10081203139998
 20
15.74653505019999
 30
0.0
 11
28.09047970730001
 21
15.75194286819999
 31
0.0
  0
LINE
  5
8A3E3
330
1F
100
AcDbEntity
  8
cut
100
AcDbLine
 10
28.09047970730001
 20
15.75194286819999
 30
0.0
 11
28.08030048320001
 21
15.7576705265
 31
0.0
  0
LINE
  5
8A3E4
330
1F
100
AcDbEntity
  8
cut
100
AcDbLine
 10
28.08030048320001
 20
15.7576705265
 30
0.0
 11
28.07029811569999
 21
15.7637046271
 31
0.0
  0
LINE
  5
8A3E5
330
1F
100
AcDbEntity
  8
cut
100
AcDbLine
 10
28.07029811569999
 20
15.7637046271
 30
0.0
 11
28.0604720042
 21
15.7700474566
 31
0.0
  0
LINE
  5
8A3E6
330
1F
100
AcDbEntity
  8
cut
100
AcDbLine
 10
28.0604720042
 20
15.7700474566
 30
0.0
 11
28.0508227494
 21
15.7766967285
 31
0.0
  0
LINE
  5
8A3E7
330
1F
100
AcDbEntity
  8
cut
100
AcDbLine
 10
28.0508227494
 20
15.7766967285
 30
0.0
 11
28.04137591
 21
15.7836321858
 31
0.0
  0
LINE
  5
8A3E8
330
1F
100
AcDbEntity
  8
cut
100
AcDbLine
 10
28.04137591
 20
15.7836321858
 30
0.0
 11
28.03214000539998
 21
15.7908470761
 31
0.0
  0
LINE
  5
8A3E9
330
1F
100
AcDbEntity
  8
cut
100
AcDbLine
 10
28.03214000539998
 20
15.7908470761
 30
0.0
 11
28.02310651619999
 21
15.7983481517
 31
0.0
  0
LINE
  5
8A3EA
330
1F
100
AcDbEntity
  8
cut
100
AcDbLine
 10
28.02310651619999
 20
15.7983481517
 30
0.0
 11
28.0142754423
 21
15.8061354128
 31
0.0
  0
LINE
  5
8A3EB
330
1F
100
AcDbEntity
  8
cut
100
AcDbLine
 10
28.01427544289999
 20
15.8061354123
 30
0.0
 11
28.0070569705
 21
15.81287569090001
 31
0.0
  0
LINE
  5
8A3EC
330
1F
100
AcDbEntity
  8
cut
100
AcDbLine
 10
28.0070569705
 20
15.81287569090001
 30
0.0
 11
28.00000328279998
 21
15.8198118462
 31
0.0
  0
LINE
  5
8A3ED
330
1F
100
AcDbEntity
  8
cut
100
AcDbLine
 10
28.00000328279998
 20
15.8198118462
 30
0.0
 11
27.99311437979998
 21
15.8269438779
 31
0.0
  0
LINE
  5
8A3EE
330
1F
100
AcDbEntity
  8
cut
100
AcDbLine
 10
27.99311437979998
 20
15.8269438779
 30
0.0
 11
27.9863819057
 21
15.8342783638
 31
0.0
  0
LINE
  5
8A3EF
330
1F
100
AcDbEntity
  8
cut
100
AcDbLine
 10
27.9863819057
 20
15.8342783638
 30
0.0
 11
27.9798142162
 21
15.8418087262
 31
0.0
  0
LINE
  5
8A3F0
330
1F
100
AcDbEntity
  8
cut
100
AcDbLine
 10
27.9798142162
 20
15.8418087262
 30
0.0
 11
27.97343637879999
 21
15.8495152324
 31
0.0
  0
LINE
  5
8A3F1
330
1F
100
AcDbEntity
  8
cut
100
AcDbLine
 10
27.97343637879999
 20
15.8495152324
 30
0.0
 11
27.96725674909999
 21
15.8573913049
 31
0.0
  0
LINE
  5
8A3F2
330
1F
100
AcDbEntity
  8
cut
100
AcDbLine
 10
27.96725674909999
 20
15.8573913049
 30
0.0
 11
27.96126697130001
 21
15.8654435212
 31
0.0
  0
LINE
  5
8A3F3
330
1F
100
AcDbEntity
  8
cut
100
AcDbLine
 10
27.96126697130001
 20
15.8654435212
 30
0.0
 11
27.9554670455
 21
15.8736718812
 31
0.0
  0
LINE
  5
8A3F4
330
1F
100
AcDbEntity
  8
cut
100
AcDbLine
 10
27.9554670469
 20
15.8736718793
 30
0.0
 11
27.94778433819999
 21
15.8853515953
 31
0.0
  0
LINE
  5
8A3F5
330
1F
100
AcDbEntity
  8
cut
100
AcDbLine
 10
27.94778433819999
 20
15.8853515953
 30
0.0
 11
27.9405407024
 21
15.897293457
 31
0.0
  0
LINE
  5
8A3F6
330
1F
100
AcDbEntity
  8
cut
100
AcDbLine
 10
27.9405407024
 20
15.897293457
 30
0.0
 11
27.93373613969999
 21
15.9094974643
 31
0.0
  0
LINE
  5
8A3F7
330
1F
100
AcDbEntity
  8
cut
100
AcDbLine
 10
27.93373613969999
 20
15.9094974643
 30
0.0
 11
27.92735929489999
 21
15.9219847271
 31
0.0
  0
LINE
  5
8A3F8
330
1F
100
AcDbEntity
  8
cut
100
AcDbLine
 10
27.92735929489999
 20
15.9219847271
 30
0.0
 11
27.9214215232
 21
15.93473413559999
 31
0.0
  0
LINE
  5
8A3F9
330
1F
100
AcDbEntity
  8
cut
100
AcDbLine
 10
27.9214215232
 20
15.93473413559999
 30
0.0
 11
27.91595688929999
 21
15.9476823603
 31
0.0
  0
LINE
  5
8A3FA
330
1F
100
AcDbEntity
  8
cut
100
AcDbLine
 10
27.91595688929999
 20
15.9476823603
 30
0.0
 11
27.91096938300001
 21
15.9608309756
 31
0.0
  0
LINE
  5
8A3FB
330
1F
100
AcDbEntity
  8
cut
100
AcDbLine
 10
27.91096938300001
 20
15.9608309756
 30
0.0
 11
27.9064550146
 21
15.9741784071
 31
0.0
  0
LINE
  5
8A3FC
330
1F
100
AcDbEntity
  8
cut
100
AcDbLine
 10
27.9064550146
 20
15.9741784071
 30
0.0
 11
27.90243588019999
 21
15.9876566024
 31
0.0
  0
LINE
  5
8A3FD
330
1F
100
AcDbEntity
  8
cut
100
AcDbLine
 10
27.90243588019999
 20
15.9876566024
 30
0.0
 11
27.898919345
 21
16.0012428773
 31
0.0
  0
LINE
  5
8A3FE
330
1F
100
AcDbEntity
  8
cut
100
AcDbLine
 10
27.898919345
 20
16.0012428773
 30
0.0
 11
27.89589804369999
 21
16.01495991590001
 31
0.0
  0
LINE
  5
8A3FF
330
1F
100
AcDbEntity
  8
cut
100
AcDbLine
 10
27.89589804369999
 20
16.01495991590001
 30
0.0
 11
27.8933719764
 21
16.0288077182
 31
0.0
  0
LINE
  5
8A400
330
1F
100
AcDbEntity
  8
cut
100
AcDbLine
 10
27.89337197629999
 20
16.02880771829999
 30
0.0
 11
27.8923039693
 21
16.03572328050001
 31
0.0
  0
LINE
  5
8A401
330
1F
100
AcDbEntity
  8
cut
100
AcDbLine
 10
27.8923039693
 20
16.03572328050001
 30
0.0
 11
27.89136140509999
 21
16.042648999
 31
0.0
  0
LINE
  5
8A402
330
1F
100
AcDbEntity
  8
cut
100
AcDbLine
 10
27.89136140509999
 20
16.042648999
 30
0.0
 11
27.8905442839
 21
16.0495848737
 31
0.0
  0
LINE
  5
8A403
330
1F
100
AcDbEntity
  8
sk3
100
AcDbLine
 10
33.50000001299998
 20
-5.249999998899993
 30
0.0
 11
33.50000001299998
 21
5.249999998900007
 31
0.0
  0
LINE
  5
8A404
330
1F
100
AcDbEntity
  8
sk3
100
AcDbLine
 10
34.0
 20
-7.599999998899996
 30
0.0
 11
34.0
 21
7.599999998900003
 31
0.0
  0
LINE
  5
8A405
330
1F
100
AcDbEntity
  8
1
100
AcDbLine
 10
31.2549985021
 20
15.3622941755
 30
0.0
 11
31.25096883329999
 21
15.3530374405
 31
0.0
  0
LINE
  5
8A406
330
1F
100
AcDbEntity
  8
sk3
100
AcDbLine
 10
1.000000237499989
 20
-10.02499999889999
 30
0.0
 11
0.0
 21
-11.0250002601
 31
0.0
  0
LINE
  5
8A407
330
1F
100
AcDbEntity
  8
1
100
AcDbLine
 10
34.60032217079998
 20
20.6753706873
 30
0.0
 11
34.60786360409997
 21
20.6789350407
 31
0.0
  0
LINE
  5
8A408
330
1F
100
AcDbEntity
  8
sk3
100
AcDbLine
 10
10.98135921279999
 20
9.524999998900007
 30
0.0
 11
11.8392611207
 21
9.925046228500006
 31
0.0
  0
LINE
  5
8A409
330
1F
100
AcDbEntity
  8
1
100
AcDbLine
 10
34.47710217759999
 20
20.0678080372
 30
0.0
 11
34.4871985991
 21
20.0667633313
 31
0.0
  0
LINE
  5
8A40A
330
1F
100
AcDbEntity
  8
1
100
AcDbLine
 10
36.9700637
 20
20.50333772590001
 30
0.0
 11
36.9599672784
 21
20.5043824318
 31
0.0
  0
LINE
  5
8A40B
330
1F
100
AcDbEntity
  8
1
100
AcDbLine
 10
35.9431867248
 20
19.0454590467
 30
0.0
 11
36.072791951
 21
19.0224759056
 31
0.0
  0
LINE
  5
8A40C
330
1F
100
AcDbEntity
  8
1
100
AcDbLine
 10
35.8220434013
 20
19.2334748689
 30
0.0
 11
35.6834270059
 21
19.2580559779
 31
0.0
  0
LINE
  5
8A40D
330
1F
100
AcDbEntity
  8
1
100
AcDbLine
 10
34.7631476144
 20
19.47315855649999
 30
0.0
 11
34.89275284069999
 21
19.4501754153
 31
0.0
  0
LINE
  5
8A40E
330
1F
100
AcDbEntity
  8
1
100
AcDbLine
 10
34.69613469339999
 20
20.0518031899
 30
0.0
 11
34.56330177059999
 21
20.07535870460001
 31
0.0
  0
LINE
  5
8A40F
330
1F
100
AcDbEntity
  8
1
100
AcDbLine
 10
36.94393649770001
 20
19.8616514513
 30
0.0
 11
36.8561121219
 21
19.87722551479999
 31
0.0
  0
LINE
  5
8A410
330
1F
100
AcDbEntity
  8
1
100
AcDbLine
 10
43.08592944669999
 20
18.9095779457
 30
0.0
 11
43.21553467299997
 21
18.8865948046
 31
0.0
  0
LINE
  5
8A411
330
1F
100
AcDbEntity
  8
1
100
AcDbLine
 10
42.89222607990001
 20
19.2012688144
 30
0.0
 11
42.7539157653
 21
19.2257956454
 31
0.0
  0
LINE
  5
8A412
330
1F
100
AcDbEntity
  8
1
100
AcDbLine
 10
34.59105375569999
 20
20.6939202483
 30
0.0
 11
34.72285156530001
 21
20.6705482922
 31
0.0
  0
LINE
  5
8A413
330
1F
100
AcDbEntity
  8
1
100
AcDbLine
 10
36.883864107
 20
20.49578705850001
 30
0.0
 11
37.01669702989999
 21
20.47223154380001
 31
0.0
  0
LINE
  5
8A414
330
1F
100
AcDbEntity
  8
1
100
AcDbLine
 10
42.0568010918
 20
19.6294116821
 30
0.0
 11
42.18640631799996
 21
19.60642854100001
 31
0.0
  0
LINE
  5
8A415
330
1F
100
AcDbEntity
  8
1
100
AcDbLine
 10
44.2227863128
 20
19.4450898345
 30
0.0
 11
44.26152434189996
 21
19.4382203461
 31
0.0
  0
LINE
  5
8A416
330
1F
100
AcDbEntity
  8
1
100
AcDbLine
 10
44.27682552549997
 20
19.4643979298
 30
0.0
 11
44.1434622854
 21
19.4880474867
 31
0.0
  0
LINE
  5
8A417
330
1F
100
AcDbEntity
  8
1
100
AcDbLine
 10
34.91806113439999
 20
21.25064700350001
 30
0.0
 11
35.04766636059998
 21
21.2276638624
 31
0.0
  0
LINE
  5
8A418
330
1F
100
AcDbEntity
  8
1
100
AcDbLine
 10
35.76373887170003
 20
21.3130897853
 30
0.0
 11
35.90235526719999
 21
21.28850867630001
 31
0.0
  0
LINE
  5
8A419
330
1F
100
AcDbEntity
  8
1
100
AcDbLine
 10
42.1153414954
 20
20.25127132100001
 30
0.0
 11
41.98399734769997
 21
20.27456282840001
 31
0.0
  0
LINE
  5
8A41A
330
1F
100
AcDbEntity
  8
1
100
AcDbLine
 10
36.154445474
 20
21.46945655380001
 30
0.0
 11
36.2840507002
 21
21.44647341260001
 31
0.0
  0
LINE
  5
8A41B
330
1F
100
AcDbEntity
  8
1
100
AcDbLine
 10
44.40331856789998
 20
20.0552843134
 30
0.0
 11
44.46678598379997
 21
20.04402951580001
 31
0.0
  0
LINE
  5
8A41C
330
1F
100
AcDbEntity
  8
1
100
AcDbLine
 10
29.71614314300001
 20
14.73922100769999
 30
0.0
 11
29.59193866800001
 21
14.6967898335
 31
0.0
  0
LINE
  5
8A41D
330
1F
100
AcDbEntity
  8
1
100
AcDbLine
 10
33.72873308479999
 20
25.3181397362
 30
0.0
 11
33.9834101486
 21
25.3218378757
 31
0.0
  0
LINE
  5
8A41E
330
1F
100
AcDbEntity
  8
1
100
AcDbLine
 10
33.9834101486
 20
25.3218378757
 30
0.0
 11
34.50786004819998
 21
25.32806601820001
 31
0.0
  0
LINE
  5
8A41F
330
1F
100
AcDbEntity
  8
1
100
AcDbLine
 10
34.50786004819998
 20
25.32806601820001
 30
0.0
 11
35.04191058379999
 21
25.3329417766
 31
0.0
  0
LINE
  5
8A420
330
1F
100
AcDbEntity
  8
1
100
AcDbLine
 10
35.04191058379999
 20
25.3329417766
 30
0.0
 11
35.585804285
 21
25.33643278880001
 31
0.0
  0
LINE
  5
8A421
330
1F
100
AcDbEntity
  8
1
100
AcDbLine
 10
35.585804285
 20
25.33643278880001
 30
0.0
 11
36.1397826432
 21
25.33850761250001
 31
0.0
  0
LINE
  5
8A422
330
1F
100
AcDbEntity
  8
1
100
AcDbLine
 10
36.1397826432
 20
25.33850761250001
 30
0.0
 11
36.7040949158
 21
25.33913528479999
 31
0.0
  0
LINE
  5
8A423
330
1F
100
AcDbEntity
  8
1
100
AcDbLine
 10
13.60504250719998
 20
22.22499999890001
 30
0.0
 11
1.5
 21
22.22499999890001
 31
0.0
  0
LINE
  5
8A424
330
1F
100
AcDbEntity
  8
nocut
100
AcDbLine
 10
1.5
 20
22.22499999890001
 30
0.0
 11
13.6050425073
 21
22.22499999890001
 31
0.0
  0
LINE
  5
8A425
330
1F
100
AcDbEntity
  8
nocut
100
AcDbLine
 10
23.35187943099999
 20
24.62499999890001
 30
0.0
 11
44.28626054509999
 21
24.62499999890001
 31
0.0
  0
LINE
  5
8A426
330
1F
100
AcDbEntity
  8
1
100
AcDbLine
 10
23.3518794309
 20
24.62499999890001
 30
0.0
 11
24.1057344466
 21
24.62499999890001
 31
0.0
  0
LINE
  5
8A427
330
1F
100
AcDbEntity
  8
cut
100
AcDbLine
 10
33.7518326545
 20
25.3999999989
 30
0.0
 11
50.39999999999999
 21
25.3999999989
 31
0.0
  0
LINE
  5
8A428
330
1F
100
AcDbEntity
  8
1
100
AcDbLine
 10
36.7040949158
 20
25.33913528479999
 30
0.0
 11
37.2790150248
 21
25.33828446779999
 31
0.0
  0
LINE
  5
8A429
330
1F
100
AcDbEntity
  8
1
100
AcDbLine
 10
37.2790150248
 20
25.33828446779999
 30
0.0
 11
37.86483929100001
 21
25.33592355260001
 31
0.0
  0
LINE
  5
8A42A
330
1F
100
AcDbEntity
  8
1
100
AcDbLine
 10
37.86483929100001
 20
25.33592355260001
 30
0.0
 11
38.46187651309998
 21
25.33202115269999
 31
0.0
  0
LINE
  5
8A42B
330
1F
100
AcDbEntity
  8
1
100
AcDbLine
 10
38.46187651309998
 20
25.33202115269999
 30
0.0
 11
39.0704682714
 21
25.32654507130001
 31
0.0
  0
LINE
  5
8A42C
330
1F
100
AcDbEntity
  8
1
100
AcDbLine
 10
39.0704682714
 20
25.32654507130001
 30
0.0
 11
39.69097599010002
 21
25.3194629451
 31
0.0
  0
LINE
  5
8A42D
330
1F
100
AcDbEntity
  8
1
100
AcDbLine
 10
39.69097599010002
 20
25.3194629451
 30
0.0
 11
40.32380773919999
 21
25.310740877
 31
0.0
  0
LINE
  5
8A42E
330
1F
100
AcDbEntity
  8
1
100
AcDbLine
 10
40.32380773919999
 20
25.310740877
 30
0.0
 11
40.96941822039997
 21
25.3003434224
 31
0.0
  0
LINE
  5
8A42F
330
1F
100
AcDbEntity
  8
1
100
AcDbLine
 10
40.96941822039997
 20
25.3003434224
 30
0.0
 11
41.6282932945
 21
25.28823436170001
 31
0.0
  0
LINE
  5
8A430
330
1F
100
AcDbEntity
  8
1
100
AcDbLine
 10
41.6282932945
 20
25.28823436170001
 30
0.0
 11
42.3009550913
 21
25.2743764305
 31
0.0
  0
LINE
  5
8A431
330
1F
100
AcDbEntity
  8
1
100
AcDbLine
 10
42.3009550913
 20
25.2743764305
 30
0.0
 11
42.98802796619997
 21
25.2587279533
 31
0.0
  0
LINE
  5
8A432
330
1F
100
AcDbEntity
  8
1
100
AcDbLine
 10
42.98802796619997
 20
25.2587279533
 30
0.0
 11
43.69022442670001
 21
25.2412435383
 31
0.0
  0
LINE
  5
8A433
330
1F
100
AcDbEntity
  8
1
100
AcDbLine
 10
31.9204156349
 20
24.0344024173
 30
0.0
 11
31.02265180079999
 21
24.0574574564
 31
0.0
  0
LINE
  5
8A434
330
1F
100
AcDbEntity
  8
1
100
AcDbLine
 10
43.69022442670001
 20
25.2412435383
 30
0.0
 11
44.40831922839999
 21
25.2218753791
 31
0.0
  0
LINE
  5
8A435
330
1F
100
AcDbEntity
  8
1
100
AcDbLine
 10
44.40831922839999
 20
25.2218753791
 30
0.0
 11
45.14315676839999
 21
25.200572865
 31
0.0
  0
LINE
  5
8A436
330
1F
100
AcDbEntity
  8
1
100
AcDbLine
 10
45.14315676839999
 20
25.200572865
 30
0.0
 11
45.89573145880001
 21
25.1772784704
 31
0.0
  0
LINE
  5
8A437
330
1F
100
AcDbEntity
  8
1
100
AcDbLine
 10
45.89573145880001
 20
25.1772784704
 30
0.0
 11
46.6671329575
 21
25.151930525
 31
0.0
  0
LINE
  5
8A438
330
1F
100
AcDbEntity
  8
1
100
AcDbLine
 10
46.6671329575
 20
25.151930525
 30
0.0
 11
47.4587610839
 21
25.12445223760001
 31
0.0
  0
LINE
  5
8A439
330
1F
100
AcDbEntity
  8
1
100
AcDbLine
 10
47.4587610839
 20
25.12445223760001
 30
0.0
 11
48.2721373743
 21
25.0947612774
 31
0.0
  0
LINE
  5
8A43A
330
1F
100
AcDbEntity
  8
1
100
AcDbLine
 10
48.2721373743
 20
25.0947612774
 30
0.0
 11
49.1089146214
 21
25.0627692706
 31
0.0
  0
LINE
  5
8A43B
330
1F
100
AcDbEntity
  8
1
100
AcDbLine
 10
49.1089146214
 20
25.0627692706
 30
0.0
 11
49.97093065280001
 21
25.02837903600001
 31
0.0
  0
LINE
  5
8A43C
330
1F
100
AcDbEntity
  8
1
100
AcDbLine
 10
50.40228387089999
 20
25.0105098091
 30
0.0
 11
49.97093065280001
 21
25.02837903600001
 31
0.0
  0
LINE
  5
8A43D
330
1F
100
AcDbEntity
  8
1
100
AcDbLine
 10
50.41649489989999
 20
25.00986343450001
 30
0.0
 11
50.41961087919997
 21
25.0097250953
 31
0.0
  0
LINE
  5
8A43E
330
1F
100
AcDbEntity
  8
1
100
AcDbLine
 10
50.40228387089999
 20
25.0105098091
 30
0.0
 11
50.41961087919997
 21
25.0097250953
 31
0.0
  0
LINE
  5
8A43F
330
1F
100
AcDbEntity
  8
1
100
AcDbLine
 10
33.68912197430002
 20
25.3202982258
 30
0.0
 11
33.72873308479999
 21
25.3181397362
 31
0.0
  0
LINE
  5
8A440
330
1F
100
AcDbEntity
  8
1
100
AcDbLine
 10
42.24385363019999
 20
20.84179965510001
 30
0.0
 11
42.3772168703
 21
20.8181500982
 31
0.0
  0
LINE
  5
8A441
330
1F
100
AcDbEntity
  8
1
100
AcDbLine
 10
43.63340015019995
 20
21.1040514964
 30
0.0
 11
43.77171046479996
 21
21.0795246654
 31
0.0
  0
LINE
  5
8A442
330
1F
100
AcDbEntity
  8
1
100
AcDbLine
 10
42.66471908559998
 20
21.30671697930001
 30
0.0
 11
42.79432431179997
 21
21.2837338382
 31
0.0
  0
LINE
  5
8A443
330
1F
100
AcDbEntity
  8
1
100
AcDbLine
 10
43.91495970229999
 20
21.19695363340001
 30
0.0
 11
44.04456492859996
 21
21.1739704923
 31
0.0
  0
LINE
  5
8A444
330
1F
100
AcDbEntity
  8
nocut
100
AcDbLine
 10
44.28626054509999
 20
24.62499999890001
 30
0.0
 11
46.04240401279997
 21
24.2836402888
 31
0.0
  0
LINE
  5
8A445
330
1F
100
AcDbEntity
  8
sk3
100
AcDbLine
 10
43.1006756864
 20
-7.999999998899992
 30
0.0
 11
43.1006756864
 21
7.999999998900007
 31
0.0
  0
LINE
  5
8A446
330
1F
100
AcDbEntity
  8
1
100
AcDbLine
 10
44.1006756863
 20
15.1185779925
 30
0.0
 11
44.1006756863
 21
13.50357587130001
 31
0.0
  0
LINE
  5
8A447
330
1F
100
AcDbEntity
  8
sk3
100
AcDbLine
 10
44.10067568639999
 20
-16.522535088
 30
0.0
 11
44.10067568639999
 21
16.522535088
 31
0.0
  0
LINE
  5
8A448
330
1F
100
AcDbEntity
  8
1
100
AcDbLine
 10
44.92702750870001
 20
15.1240792953
 30
0.0
 11
44.92702750870001
 21
13.5198739534
 31
0.0
  0
LINE
  5
8A449
330
1F
100
AcDbEntity
  8
1
100
AcDbLine
 10
45.63482483180002
 20
13.53318001600001
 30
0.0
 11
45.63482483180002
 21
15.3440425497
 31
0.0
  0
LINE
  5
8A44A
330
1F
100
AcDbEntity
  8
1
100
AcDbLine
 10
46.32763806039998
 20
15.7742028936
 30
0.0
 11
46.32763806039998
 21
13.5458474604
 31
0.0
  0
LINE
  5
8A44B
330
1F
100
AcDbEntity
  8
sk3
100
AcDbLine
 10
46.32763806039998
 20
18.117710299
 30
0.0
 11
48.17380428780001
 21
21.32181809680001
 31
0.0
  0
LINE
  5
8A44C
330
1F
100
AcDbEntity
  8
sk3
100
AcDbLine
 10
33.50000001299998
 20
5.249999998900007
 30
0.0
 11
34.0
 21
5.749999984700004
 31
0.0
  0
LINE
  5
8A44D
330
1F
100
AcDbEntity
  8
cut
100
AcDbLine
 10
46.29790365609999
 20
15.9839683752
 30
0.0
 11
46.27652789529998
 21
15.9657217081
 31
0.0
  0
LINE
  5
8A44E
330
1F
100
AcDbEntity
  8
cut
100
AcDbLine
 10
46.27652789529998
 20
15.9657217081
 30
0.0
 11
46.25451453049999
 21
15.9481106648
 31
0.0
  0
LINE
  5
8A44F
330
1F
100
AcDbEntity
  8
cut
100
AcDbLine
 10
46.25451453049999
 20
15.9481106648
 30
0.0
 11
46.23196054249999
 21
15.9312272038
 31
0.0
  0
LINE
  5
8A450
330
1F
100
AcDbEntity
  8
cut
100
AcDbLine
 10
46.23196054249999
 20
15.9312272038
 30
0.0
 11
46.20889825789999
 21
15.9151019778
 31
0.0
  0
LINE
  5
8A451
330
1F
100
AcDbEntity
  8
cut
100
AcDbLine
 10
46.20889825789999
 20
15.9151019778
 30
0.0
 11
46.18529534999999
 21
15.8997043341
 31
0.0
  0
LINE
  5
8A452
330
1F
100
AcDbEntity
  8
cut
100
AcDbLine
 10
46.18529534999999
 20
15.8997043341
 30
0.0
 11
46.16115181879999
 21
15.8850342726
 31
0.0
  0
LINE
  5
8A453
330
1F
100
AcDbEntity
  8
1
100
AcDbLine
 10
46.1611518105
 20
15.6497720228
 30
0.0
 11
46.1677250553
 21
15.6537238293
 31
0.0
  0
LINE
  5
8A454
330
1F
100
AcDbEntity
  8
cut
100
AcDbLine
 10
46.1611518189
 20
15.8850342727
 30
0.0
 11
45.25766295749997
 21
15.3557963093
 31
0.0
  0
LINE
  5
8A455
330
1F
100
AcDbEntity
  8
1
100
AcDbLine
 10
46.1611518105
 20
15.6497720228
 30
0.0
 11
45.2576629182
 21
15.1249591325
 31
0.0
  0
LINE
  5
8A456
330
1F
100
AcDbEntity
  8
1
100
AcDbLine
 10
22.57542229559999
 20
24.52277747780001
 30
0.0
 11
14.38149964249999
 21
22.32722252000001
 31
0.0
  0
LINE
  5
8A457
330
1F
100
AcDbEntity
  8
nocut
100
AcDbLine
 10
14.3814996426
 20
22.32722252000001
 30
0.0
 11
22.57542229559999
 21
24.52277747780001
 31
0.0
  0
LINE
  5
8A458
330
1F
100
AcDbEntity
  8
1
100
AcDbLine
 10
48.17380428769999
 20
13.5441461478
 30
0.0
 11
48.17380428769999
 21
18.5699746997
 31
0.0
  0
LINE
  5
8A459
330
1F
100
AcDbEntity
  8
nocut
100
AcDbLine
 10
48.22721972519996
 20
21.63324689350002
 30
0.0
 11
48.22721972519996
 21
0.0
 31
0.0
  0
LINE
  5
8A45A
330
1F
100
AcDbEntity
  8
1
100
AcDbLine
 10
48.22721972519996
 20
18.652178574
 30
0.0
 11
48.22721972519996
 21
-21.6332460745
 31
0.0
  0
LINE
  5
8A45B
330
1F
100
AcDbEntity
  8
cut
100
AcDbLine
 10
50.79999914839999
 20
24.99999999890001
 30
0.0
 11
50.79999914839999
 21
23.33209926390001
 31
0.0
  0
LINE
  5
8A45C
330
1F
100
AcDbEntity
  8
1
100
AcDbLine
 10
50.80000000000001
 20
22.8938582992
 30
0.0
 11
50.80000000000001
 21
24.6107061961
 31
0.0
  0
LINE
  5
8A45D
330
1F
100
AcDbEntity
  8
cut
100
AcDbLine
 10
50.79999914839999
 20
23.33209926390001
 30
0.0
 11
50.7995789973
 21
23.30669693030001
 31
0.0
  0
LINE
  5
8A45E
330
1F
100
AcDbEntity
  8
cut
100
AcDbLine
 10
50.7995789973
 20
23.30669693030001
 30
0.0
 11
50.7983097842
 21
23.28130707210001
 31
0.0
  0
LINE
  5
8A45F
330
1F
100
AcDbEntity
  8
cut
100
AcDbLine
 10
50.7983097842
 20
23.28130707210001
 30
0.0
 11
50.79619150920001
 21
23.25592968930001
 31
0.0
  0
LINE
  5
8A460
330
1F
100
AcDbEntity
  8
cut
100
AcDbLine
 10
50.79619150920001
 20
23.25592968930001
 30
0.0
 11
50.7932169151
 21
23.2305180691
 31
0.0
  0
LINE
  5
8A461
330
1F
100
AcDbEntity
  8
cut
100
AcDbLine
 10
50.7932169151
 20
23.2305180691
 30
0.0
 11
50.78939325909999
 21
23.20511892420001
 31
0.0
  0
LINE
  5
8A462
330
1F
100
AcDbEntity
  8
cut
100
AcDbLine
 10
50.78939325909999
 20
23.20511892420001
 30
0.0
 11
50.7847423123
 21
23.17987239280001
 31
0.0
  0
LINE
  5
8A463
330
1F
100
AcDbEntity
  8
cut
100
AcDbLine
 10
50.7847423123
 20
23.17987239280001
 30
0.0
 11
50.77927120279998
 21
23.15481626170001
 31
0.0
  0
LINE
  5
8A464
330
1F
100
AcDbEntity
  8
cut
100
AcDbLine
 10
50.77927120279998
 20
23.15481626170001
 30
0.0
 11
50.77297280249999
 21
23.12991274399999
 31
0.0
  0
LINE
  5
8A465
330
1F
100
AcDbEntity
  8
cut
100
AcDbLine
 10
50.77297280249999
 20
23.12991274399999
 30
0.0
 11
50.7658474978
 21
23.1051886171
 31
0.0
  0
LINE
  5
8A466
330
1F
100
AcDbEntity
  8
cut
100
AcDbLine
 10
50.7658474978
 20
23.1051886171
 30
0.0
 11
50.75788393709999
 21
23.08060718830001
 31
0.0
  0
LINE
  5
8A467
330
1F
100
AcDbEntity
  8
cut
100
AcDbLine
 10
50.75788393709999
 20
23.08060718830001
 30
0.0
 11
50.74909347210001
 21
23.0562051503
 31
0.0
  0
LINE
  5
8A468
330
1F
100
AcDbEntity
  8
cut
100
AcDbLine
 10
50.74909347210001
 20
23.0562051503
 30
0.0
 11
50.7395105434
 21
23.0321193579
 31
0.0
  0
LINE
  5
8A469
330
1F
100
AcDbEntity
  8
cut
100
AcDbLine
 10
50.7395105434
 20
23.0321193579
 30
0.0
 11
50.72914663119998
 21
23.0083954294
 31
0.0
  0
LINE
  5
8A46A
330
1F
100
AcDbEntity
  8
cut
100
AcDbLine
 10
50.72914663119998
 20
23.0083954294
 30
0.0
 11
50.71799025529998
 21
22.9849877466
 31
0.0
  0
LINE
  5
8A46B
330
1F
100
AcDbEntity
  8
cut
100
AcDbLine
 10
50.71799025529998
 20
22.9849877466
 30
0.0
 11
50.70604141569997
 21
22.9618963095
 31
0.0
  0
LINE
  5
8A46C
330
1F
100
AcDbEntity
  8
cut
100
AcDbLine
 10
50.7060414161
 20
22.9618963103
 30
0.0
 11
50.70396709659998
 21
22.95807702260001
 31
0.0
  0
LINE
  5
8A46D
330
1F
100
AcDbEntity
  8
cut
100
AcDbLine
 10
50.70396709659998
 20
22.95807702260001
 30
0.0
 11
50.70185852999998
 21
22.95425662510001
 31
0.0
  0
LINE
  5
8A46E
330
1F
100
AcDbEntity
  8
cut
100
AcDbLine
 10
50.70185852999998
 20
22.95425662510001
 30
0.0
 11
50.6997157165
 21
22.9504351178
 31
0.0
  0
LINE
  5
8A46F
330
1F
100
AcDbEntity
  8
cut
100
AcDbLine
 10
50.6997157165
 20
22.9504351178
 30
0.0
 11
50.697538656
 21
22.9466125008
 31
0.0
  0
LINE
  5
8A470
330
1F
100
AcDbEntity
  8
cut
100
AcDbLine
 10
50.697538656
 20
22.9466125008
 30
0.0
 11
50.6953273485
 21
22.942788774
 31
0.0
  0
LINE
  5
8A471
330
1F
100
AcDbEntity
  8
cut
100
AcDbLine
 10
50.6953273485
 20
22.942788774
 30
0.0
 11
50.693081794
 21
22.93896393750001
 31
0.0
  0
LINE
  5
8A472
330
1F
100
AcDbEntity
  8
1
100
AcDbLine
 10
50.6930818068
 20
22.4938050932
 30
0.0
 11
50.67673451140001
 21
22.46639551840001
 31
0.0
  0
LINE
  5
8A473
330
1F
100
AcDbEntity
  8
cut
100
AcDbLine
 10
50.69308179389998
 20
22.9389639374
 30
0.0
 11
50.39117945880001
 21
22.4354657719
 31
0.0
  0
LINE
  5
8A474
330
1F
100
AcDbEntity
  8
cut
100
AcDbLine
 10
50.39117945940001
 20
22.4354657729
 30
0.0
 11
50.3534054797
 21
22.37279699250001
 31
0.0
  0
LINE
  5
8A475
330
1F
100
AcDbEntity
  8
1
100
AcDbLine
 10
50.67673451140001
 20
22.46639551840001
 30
0.0
 11
50.3911794563
 21
21.9927235681
 31
0.0
  0
LINE
  5
8A476
330
1F
100
AcDbEntity
  8
cut
100
AcDbLine
 10
50.3534054797
 20
22.37279699250001
 30
0.0
 11
50.31474853219997
 21
22.3093454927
 31
0.0
  0
LINE
  5
8A477
330
1F
100
AcDbEntity
  8
cut
100
AcDbLine
 10
50.31474853219997
 20
22.3093454927
 30
0.0
 11
50.2752091543
 21
22.24511171800001
 31
0.0
  0
LINE
  5
8A478
330
1F
100
AcDbEntity
  8
cut
100
AcDbLine
 10
50.2752091543
 20
22.24511171800001
 30
0.0
 11
50.21424942679999
 21
22.14729751430001
 31
0.0
  0
LINE
  5
8A479
330
1F
100
AcDbEntity
  8
cut
100
AcDbLine
 10
50.21424942689995
 20
22.14729751460001
 30
0.0
 11
48.05714646230001
 21
18.71383049769999
 31
0.0
  0
LINE
  5
8A47A
330
1F
100
AcDbEntity
  8
cut
100
AcDbLine
 10
48.05714646230001
 20
18.71383049769999
 30
0.0
 11
46.93846092679999
 21
16.9348062169
 31
0.0
  0
LINE
  5
8A47B
330
1F
100
AcDbEntity
  8
cut
100
AcDbLine
 10
46.93846092679999
 20
16.9348062169
 30
0.0
 11
46.46012708329998
 21
16.1745748609
 31
0.0
  0
LINE
  5
8A47C
330
1F
100
AcDbEntity
  8
1
100
AcDbLine
 10
50.21424942269999
 20
21.7101248758
 30
0.0
 11
46.4601270839
 21
15.9327051739
 31
0.0
  0
LINE
  5
8A47D
330
1F
100
AcDbEntity
  8
cut
100
AcDbLine
 10
46.46012708339998
 20
16.174574861
 30
0.0
 11
46.4449605584
 21
16.1513131085
 31
0.0
  0
LINE
  5
8A47E
330
1F
100
AcDbEntity
  8
cut
100
AcDbLine
 10
46.4449605584
 20
16.1513131085
 30
0.0
 11
46.42905939359997
 21
16.1285464103
 31
0.0
  0
LINE
  5
8A47F
330
1F
100
AcDbEntity
  8
cut
100
AcDbLine
 10
46.42905939359997
 20
16.1285464103
 30
0.0
 11
46.41242358879997
 21
16.1062747665
 31
0.0
  0
LINE
  5
8A480
330
1F
100
AcDbEntity
  8
cut
100
AcDbLine
 10
46.41242358879997
 20
16.1062747665
 30
0.0
 11
46.39502639089999
 21
16.08446383140001
 31
0.0
  0
LINE
  5
8A481
330
1F
100
AcDbEntity
  8
cut
100
AcDbLine
 10
46.39502639089999
 20
16.08446383140001
 30
0.0
 11
46.37689455319994
 21
16.0631479506
 31
0.0
  0
LINE
  5
8A482
330
1F
100
AcDbEntity
  8
cut
100
AcDbLine
 10
46.37689455319994
 20
16.0631479506
 30
0.0
 11
46.35810833489999
 21
16.0424301609
 31
0.0
  0
LINE
  5
8A483
330
1F
100
AcDbEntity
  8
cut
100
AcDbLine
 10
46.35810833489999
 20
16.0424301609
 30
0.0
 11
46.33868889699999
 21
16.022332297
 31
0.0
  0
LINE
  5
8A484
330
1F
100
AcDbEntity
  8
sk3
100
AcDbLine
 10
43.1006756864
 20
7.999999998900007
 30
0.0
 11
44.10067568639999
 21
8.999999998900008
 31
0.0
  0
LINE
  5
8A485
330
1F
100
AcDbEntity
  8
cut
100
AcDbLine
 10
46.33868889699999
 20
16.022332297
 30
0.0
 11
46.3186150785
 21
16.0028325242
 31
0.0
  0
LINE
  5
8A486
330
1F
100
AcDbEntity
  8
cut
100
AcDbLine
 10
46.3186150785
 20
16.0028325242
 30
0.0
 11
46.29790365609999
 21
15.9839683752
 31
0.0
  0
ARC
  5
8A487
330
1F
100
AcDbEntity
  8
nocut
100
AcDbCircle
 10
13.6050425073
 20
25.2249999989
 30
0.0
 40
3.0
100
AcDbArc
 50
270.0
 51
284.9999999999996
  0
ARC
  5
8A488
330
1F
100
AcDbEntity
  8
nocut
100
AcDbCircle
 10
23.35187943099999
 20
21.62499999890001
 30
0.0
 40
3.0
100
AcDbArc
 50
90.0
 51
104.9999999999995
  0
ARC
  5
8A489
330
1F
100
AcDbEntity
  8
1
100
AcDbCircle
 10
13.60504250719998
 20
-25.2250000011
 30
0.0
 40
3.0
100
AcDbArc
 50
75.00000000000047
 51
90.0
  0
ARC
  5
8A48A
330
1F
100
AcDbEntity
  8
1
100
AcDbCircle
 10
13.60504250719998
 20
25.2249999989
 30
0.0
 40
3.0
100
AcDbArc
 50
270.0
 51
284.9999999999996
  0
ARC
  5
8A48B
330
1F
100
AcDbEntity
  8
1
100
AcDbCircle
 10
23.3518794309
 20
21.62499999890001
 30
0.0
 40
3.0
100
AcDbArc
 50
90.0
 51
104.9999999999995
  0
ARC
  5
8A48C
330
1F
100
AcDbEntity
  8
1
100
AcDbCircle
 10
23.3518794309
 20
-21.6250000011
 30
0.0
 40
3.0
100
AcDbArc
 50
255.0000000000005
 51
270.0
  0
ARC
  5
8A48D
330
1F
100
AcDbEntity
  8
nocut
100
AcDbCircle
 10
45.52721972519996
 20
21.63324689350002
 30
0.0
 40
2.7
100
AcDbArc
 50
0.0
 51
78.99999999999931
  0
ARC
  5
8A48E
330
1F
100
AcDbEntity
  8
1
100
AcDbCircle
 10
45.52721972519996
 20
-21.6332468956
 30
0.0
 40
2.7
100
AcDbArc
 50
281.0000000000007
 51
0.0
  0
ARC
  5
8A48F
330
1F
100
AcDbEntity
  8
nocut
100
AcDbCircle
 10
1.5
 20
20.7249999989
 30
0.0
 40
1.5
100
AcDbArc
 50
90.0
 51
180.0
  0
ARC
  5
8A490
330
1F
100
AcDbEntity
  8
1
100
AcDbCircle
 10
1.5
 20
20.7249999989
 30
0.0
 40
1.5
100
AcDbArc
 50
90.0
 51
180.0
  0
ARC
  5
8A491
330
1F
100
AcDbEntity
  8
1
100
AcDbCircle
 10
1.5
 20
-20.7250000011
 30
0.0
 40
1.5
100
AcDbArc
 50
180.0
 51
270.0
  0
ARC
  5
8A492
330
1F
100
AcDbEntity
  8
sk3
100
AcDbCircle
 10
45.46117665409997
 20
18.61695435899999
 30
0.0
 40
1.0
100
AcDbArc
 50
280.0000000000002
 51
330.0500000000007
  0
ARC
  5
8A493
330
1F
100
AcDbEntity
  8
sk3
100
AcDbCircle
 10
45.10067568639999
 20
16.522535088
 30
0.0
 40
1.0
100
AcDbArc
 50
100.0000000000001
 51
180.0
  0
ARC
  5
8A494
330
1F
100
AcDbEntity
  8
sk3
100
AcDbCircle
 10
45.46117665409997
 20
-18.61695435899999
 30
0.0
 40
1.0
100
AcDbArc
 50
29.94999999999932
 51
79.9999999999998
  0
ARC
  5
8A495
330
1F
100
AcDbEntity
  8
sk3
100
AcDbCircle
 10
45.10067568639999
 20
-16.522535088
 30
0.0
 40
1.0
100
AcDbArc
 50
180.0
 51
259.9999999999998
  0
ARC
  5
8A497
330
1F
100
AcDbEntity
  8
sk3
100
AcDbCircle
 10
18.19999999999999
 20
9.199999998900002
 30
0.0
 40
0.8
100
AcDbArc
 50
0.0
 51
90.0
  0
ARC
  5
8A498
330
1F
100
AcDbEntity
  8
sk3
100
AcDbCircle
 10
12.1773557301
 20
9.199999998900002
 30
0.0
 40
0.8
100
AcDbArc
 50
90.0
 51
114.9999999999997
  0
ARC
  5
8A499
330
1F
100
AcDbEntity
  8
sk3
100
AcDbCircle
 10
18.19999999999999
 20
-9.199999998899992
 30
0.0
 40
0.8
100
AcDbArc
 50
270.0
 51
0.0
  0
ARC
  5
8A49A
330
1F
100
AcDbEntity
  8
sk3
100
AcDbCircle
 10
12.1773557301
 20
-9.199999998899992
 30
0.0
 40
0.8
100
AcDbArc
 50
245.0000000000003
 51
270.0
  0
ARC
  5
8A49B
330
1F
100
AcDbEntity
  8
cut
100
AcDbCircle
 10
50.39999999999999
 20
24.99999999890001
 30
0.0
 40
0.4
100
AcDbArc
 50
0.0
 51
90.0
  0
ARC
  5
8A49C
330
1F
100
AcDbEntity
  8
sk3
100
AcDbCircle
 10
47.8272197252
 20
21.52151572080001
 30
0.0
 40
0.4
100
AcDbArc
 50
330.0500000000007
 51
0.0
  0
ARC
  5
8A49D
330
1F
100
AcDbEntity
  8
sk3
100
AcDbCircle
 10
34.39999999999999
 20
7.599999998900003
 30
0.0
 40
0.4
100
AcDbArc
 50
90.0
 51
180.0
  0
ARC
  5
8A49E
330
1F
100
AcDbEntity
  8
sk3
100
AcDbCircle
 10
19.39999999999997
 20
5.649999998900008
 30
0.0
 40
0.4
100
AcDbArc
 50
180.0
 51
270.0
  0
ARC
  5
8A49F
330
1F
100
AcDbEntity
  8
sk3
100
AcDbCircle
 10
47.8272197252
 20
-21.5215157208
 30
0.0
 40
0.4
100
AcDbArc
 50
0.0
 51
29.94999999999932
  0
ARC
  5
8A4A0
330
1F
100
AcDbEntity
  8
sk3
100
AcDbCircle
 10
34.39999999999999
 20
-7.599999998899996
 30
0.0
 40
0.4
100
AcDbArc
 50
180.0
 51
270.0
  0
ARC
  5
8A4A1
330
1F
100
AcDbEntity
  8
sk3
100
AcDbCircle
 10
19.39999999999997
 20
-5.649999998899992
 30
0.0
 40
0.4
100
AcDbArc
 50
90.0
 51
180.0
  0
SPLINE
  5
8A4A2
330
1F
100
AcDbEntity
  8
1
100
AcDbSpline
210
0.0
220
0.0
230
1.0
 70
     8
 71
     3
 72
     9
 73
     5
 74
     0
 42
0.000000001
 43
0.0000001
 40
0.0
 40
0.0
 40
0.0
 40
0.0
 40
0.7498240786000001
 40
1.0
 40
1.0
 40
1.0
 40
1.0
 10
44.04825238459999
 20
22.2143960001
 30
0.0
 10
43.9593248466
 20
22.2467619869
 30
0.0
 10
43.8376986184
 20
22.282250303
 30
0.0
 10
43.7139226335
 20
22.3069880982
 30
0.0
 10
43.682833349
 20
22.31250160390001
 30
0.0
  0
SPLINE
  5
8A4A3
330
1F
100
AcDbEntity
  8
1
100
AcDbSpline
210
0.0
220
0.0
230
1.0
 70
     8
 71
     3
 72
    27
 73
    23
 74
     0
 42
0.000000001
 43
0.0000001
 40
0.0
 40
0.0
 40
0.0
 40
0.0
 40
0.0623711143
 40
0.0935993453
 40
0.1248355552
 40
0.1872761326
 40
0.2497612868
 40
0.2810543657
 40
0.3123578763
 40
0.3749242607999999
 40
0.4375152467000003
 40
0.5001152046000003
 40
0.5627073079000004
 40
0.6252757982000002
 40
0.6878081044
 40
0.7190916704000001
 40
0.7503637431
 40
0.8128066417000001
 40
0.8752082838999999
 40
0.9064308278
 40
0.9376475098
 40
1.0
 40
1.0
 40
1.0
 40
1.0
 10
44.04825238459999
 20
22.2143960001
 30
0.0
 10
44.1754631922
 20
22.1680964689
 30
0.0
 10
44.36047266859996
 20
22.08049772250001
 30
0.0
 10
44.58706442399999
 20
21.93142657320001
 30
0.0
 10
44.79904400739997
 20
21.7618541709
 30
0.0
 10
45.03317081859997
 20
21.5139108667
 30
0.0
 10
45.21749567939997
 20
21.2268543899
 30
0.0
 10
45.33127799009998
 20
20.9799880737
 30
0.0
 10
45.4218470637
 20
20.7235130686
 30
0.0
 10
45.48993406299999
 20
20.3886621237
 30
0.0
 10
45.49630563969996
 20
19.9789137375
 30
0.0
 10
45.42728755379999
 20
19.5748533308
 30
0.0
 10
45.28519755189996
 20
19.1904061889
 30
0.0
 10
45.07498231069999
 20
18.8387940946
 30
0.0
 10
44.84873484479999
 20
18.5829378977
 30
0.0
 10
44.64217438439999
 20
18.4062269767
 30
0.0
 10
44.42032612539998
 20
18.24946290399999
 30
0.0
 10
44.11730161759999
 20
18.0932418645
 30
0.0
 10
43.79070605459998
 20
17.9958323732
 30
0.0
 10
43.52244510809995
 20
17.95519862309999
 30
0.0
 10
43.2517563861
 20
17.9396389854
 30
0.0
 10
43.0478137021
 20
17.95646033019998
 30
0.0
 10
42.91455896939999
 20
17.98009229
 30
0.0
  0
SPLINE
  5
8A4A4
330
1F
100
AcDbEntity
  8
1
100
AcDbSpline
210
0.0
220
0.0
230
1.0
 70
     8
 71
     3
 72
    27
 73
    23
 74
     0
 42
0.000000001
 43
0.0000001
 40
0.0
 40
0.0
 40
0.0
 40
0.0
 40
0.0623524902
 40
0.0935691722
 40
0.1247917161
 40
0.1871933583
 40
0.2496362569
 40
0.2809083296
 40
0.3121918956
 40
0.3747242018
 40
0.4372926921
 40
0.4998847954
 40
0.5624847533000003
 40
0.6250757392000002
 40
0.6876421237
 40
0.7189456343
 40
0.7502387131999999
 40
0.8127238673999999
 40
0.8751644448
 40
0.9064006546999999
 40
0.9376288856999998
 40
1.0
 40
1.0
 40
1.0
 40
1.0
 10
43.60405469789998
 20
22.3264715719
 30
0.0
 10
43.4707999652
 20
22.35010353170001
 30
0.0
 10
43.26685728119996
 20
22.3669248764
 30
0.0
 10
42.99616855919999
 20
22.35136523880001
 30
0.0
 10
42.72790761279998
 20
22.3107314886
 30
0.0
 10
42.40131204969998
 20
22.2133219973
 30
0.0
 10
42.09828754189999
 20
22.0571009578
 30
0.0
 10
41.87643928289997
 20
21.9003368851
 30
0.0
 10
41.66987882249997
 20
21.7236259641
 30
0.0
 10
41.44363135659999
 20
21.4677697673
 30
0.0
 10
41.23341611549999
 20
21.1161576729
 30
0.0
 10
41.09132611349999
 20
20.73171053100001
 30
0.0
 10
41.02230802759999
 20
20.3276501244
 30
0.0
 10
41.02867960430001
 20
19.9179017381
 30
0.0
 10
41.09676660359997
 20
19.5830507933
 30
0.0
 10
41.18733567719999
 20
19.3265757882
 30
0.0
 10
41.30111798789999
 20
19.079709472
 30
0.0
 10
41.48544284869998
 20
18.7926529952
 30
0.0
 10
41.71956965989999
 20
18.54470969090001
 30
0.0
 10
41.93154924329999
 20
18.3751372887
 30
0.0
 10
42.15814099869999
 20
18.22606613939999
 30
0.0
 10
42.3431504751
 20
18.1384673929
 30
0.0
 10
42.47036128269995
 20
18.0921678617
 30
0.0
  0
SPLINE
  5
8A4A5
330
1F
100
AcDbEntity
  8
1
100
AcDbSpline
210
0.0
220
0.0
230
1.0
 70
     8
 71
     3
 72
     9
 73
     5
 74
     0
 42
0.000000001
 43
0.0000001
 40
0.0
 40
0.0
 40
0.0
 40
0.0
 40
0.2501759214
 40
1.0
 40
1.0
 40
1.0
 40
1.0
 10
42.83578031830001
 20
17.9940622579
 30
0.0
 10
42.80469103379997
 20
17.9995757636
 30
0.0
 10
42.6809150489
 20
18.0243135588
 30
0.0
 10
42.55928882069997
 20
18.0598018749
 30
0.0
 10
42.47036128269995
 20
18.0921678617
 30
0.0
  0
SPLINE
  5
8A4A6
330
1F
100
AcDbEntity
  8
1
100
AcDbSpline
210
0.0
220
0.0
230
1.0
 70
     8
 71
     3
 72
    27
 73
    23
 74
     0
 42
0.000000001
 43
0.0000001
 40
0.0
 40
0.0
 40
0.0
 40
0.0
 40
0.0623711143
 40
0.0935993453
 40
0.1248355552
 40
0.1872761326
 40
0.2497612868
 40
0.2810543657
 40
0.3123578763
 40
0.3749242607999999
 40
0.4375152467000003
 40
0.5001152046000003
 40
0.5627073079000004
 40
0.6252757982000002
 40
0.6878081044
 40
0.7190916704000001
 40
0.7503637431
 40
0.8128066417000001
 40
0.8752082838999999
 40
0.9064308278
 40
0.9376475098
 40
1.0
 40
1.0
 40
1.0
 40
1.0
 10
43.96947373359999
 20
22.2283659681
 30
0.0
 10
44.0966845411
 20
22.1820664369
 30
0.0
 10
44.28169401759999
 20
22.0944676904
 30
0.0
 10
44.50828577300001
 20
21.9453965411
 30
0.0
 10
44.72026535639996
 20
21.77582413890001
 30
0.0
 10
44.95439216749995
 20
21.5278808346
 30
0.0
 10
45.13871702829999
 20
21.2408243578
 30
0.0
 10
45.25249933909996
 20
20.9939580416
 30
0.0
 10
45.34306841270001
 20
20.7374830365
 30
0.0
 10
45.41115541199999
 20
20.40263209170001
 30
0.0
 10
45.41752698869998
 20
19.9928837054
 30
0.0
 10
45.3485089028
 20
19.5888232988
 30
0.0
 10
45.20641890079995
 20
19.2043761569
 30
0.0
 10
44.9962036597
 20
18.8527640625
 30
0.0
 10
44.76995619370001
 20
18.5969078657
 30
0.0
 10
44.5633957334
 20
18.4201969447
 30
0.0
 10
44.3415474743
 20
18.263432872
 30
0.0
 10
44.0385229665
 20
18.1072118325
 30
0.0
 10
43.71192740349999
 20
18.0098023412
 30
0.0
 10
43.44366645709999
 20
17.969168591
 30
0.0
 10
43.17297773499999
 20
17.95360895340001
 30
0.0
 10
42.96903505099999
 20
17.9704302981
 30
0.0
 10
42.83578031830001
 20
17.9940622579
 30
0.0
  0
SPLINE
  5
8A4A7
330
1F
100
AcDbEntity
  8
1
100
AcDbSpline
210
0.0
220
0.0
230
1.0
 70
     8
 71
     3
 72
     9
 73
     5
 74
     0
 42
0.000000001
 43
0.0000001
 40
0.0
 40
0.0
 40
0.0
 40
0.0
 40
0.2480690647
 40
1.0
 40
1.0
 40
1.0
 40
1.0
 10
44.31904292460001
 20
19.4500190549
 30
0.0
 10
44.3157968795
 20
19.4517893618
 30
0.0
 10
44.30237702609995
 20
19.4583098793
 30
0.0
 10
44.28786100349998
 20
19.46244231840001
 30
0.0
 10
44.27682593340001
 20
19.4643997447
 30
0.0
  0
SPLINE
  5
8A4A8
330
1F
100
AcDbEntity
  8
1
100
AcDbSpline
210
0.0
220
0.0
230
1.0
 70
     8
 71
     3
 72
    15
 73
    11
 74
     0
 42
0.000000001
 43
0.0000001
 40
0.0
 40
0.0
 40
0.0
 40
0.0
 40
0.0590197156
 40
0.1177723577
 40
0.2361015293
 40
0.3578712751
 40
0.4828034566
 40
0.6101965329
 40
0.7393564717000001
 40
1.0
 40
1.0
 40
1.0
 40
1.0
 10
43.21553467299997
 20
18.8865948046
 30
0.0
 10
43.21928881689999
 20
18.8957376321
 30
0.0
 10
43.22439001160001
 20
18.91506084390001
 30
0.0
 10
43.22473309970003
 20
18.9549372447
 30
0.0
 10
43.2087287448
 20
19.0036626642
 30
0.0
 10
43.1735877813
 20
19.0542769912
 30
0.0
 10
43.12811948269998
 20
19.0978423055
 30
0.0
 10
43.07550003590001
 20
19.134460389
 30
0.0
 10
42.99840570229997
 20
19.1742565431
 30
0.0
 10
42.93520332909998
 20
19.193646048
 30
0.0
 10
42.8922264807
 20
19.2012704328
 30
0.0
  0
SPLINE
  5
8A4A9
330
1F
100
AcDbEntity
  8
1
100
AcDbSpline
210
0.0
220
0.0
230
1.0
 70
     8
 71
     3
 72
     8
 73
     4
 74
     0
 42
0.000000001
 43
0.0000001
 40
0.0
 40
0.0
 40
0.0
 40
0.0
 40
1.0
 40
1.0
 40
1.0
 40
1.0
 10
42.40821235379999
 20
19.1052584961
 30
0.0
 10
42.39227228129999
 20
19.11221803430001
 30
0.0
 10
42.37682278879996
 20
19.1203797926
 30
0.0
 10
42.36196638119998
 20
19.1294245831
 30
0.0
  0
SPLINE
  5
8A4AA
330
1F
100
AcDbEntity
  8
1
100
AcDbSpline
210
0.0
220
0.0
230
1.0
 70
     8
 71
     3
 72
    17
 73
    13
 74
     0
 42
0.000000001
 43
0.0000001
 40
0.0
 40
0.0
 40
0.0
 40
0.0
 40
0.1276546735
 40
0.2552452842
 40
0.3825401217
 40
0.5092899983
 40
0.635133918
 40
0.7593637193000001
 40
0.8207209585999999
 40
0.8812315733
 40
0.9409087237999999
 40
1.0
 40
1.0
 40
1.0
 40
1.0
 10
42.36196638119998
 20
19.1294245831
 30
0.0
 10
42.34111922019996
 20
19.1421166289
 30
0.0
 10
42.30155232559996
 20
19.1710911021
 30
0.0
 10
42.24923668979999
 20
19.2225086401
 30
0.0
 10
42.20445557649997
 20
19.2804041966
 30
0.0
 10
42.16836055919997
 20
19.3437463326
 30
0.0
 10
42.14297359429999
 20
19.4115195776
 30
0.0
 10
42.1336547418
 20
19.47102684
 30
0.0
 10
42.13679700569996
 20
19.5181787242
 30
0.0
 10
42.14555120599999
 20
19.5520309667
 30
0.0
 10
42.16167001489997
 20
19.5826818728
 30
0.0
 10
42.17754127910001
 20
19.59942471720001
 30
0.0
 10
42.18640631799996
 20
19.60642854100001
 30
0.0
  0
SPLINE
  5
8A4AB
330
1F
100
AcDbEntity
  8
1
100
AcDbSpline
210
0.0
220
0.0
230
1.0
 70
     8
 71
     3
 72
    22
 73
    18
 74
     0
 42
0.000000001
 43
0.0000001
 40
0.0
 40
0.0
 40
0.0
 40
0.0
 40
0.0595740225
 40
0.1195259546
 40
0.1804185558
 40
0.2422672325
 40
0.3049200939999999
 40
0.3681979286
 40
0.4958170485000001
 40
0.5600119014000004
 40
0.6242195171000004
 40
0.6882888294000003
 40
0.7520523539
 40
0.81532204
 40
0.8778768099999998
 40
0.9394796044999999
 40
1.0
 40
1.0
 40
1.0
 40
1.0
 10
42.18640631799996
 20
19.60642854100001
 30
0.0
 10
42.20201099909999
 20
19.60898273019999
 30
0.0
 10
42.2325279145
 20
19.62061223899999
 30
0.0
 10
42.2691377054
 20
19.6525579663
 30
0.0
 10
42.29652405129999
 20
19.6930565338
 30
0.0
 10
42.31582820529999
 20
19.7385696441
 30
0.0
 10
42.32821474209996
 20
19.78700958140001
 30
0.0
 10
42.33664308739998
 20
19.8539041471
 30
0.0
 10
42.33409403830001
 20
19.922117284
 30
0.0
 10
42.32196359249999
 20
19.9890466712
 30
0.0
 10
42.30806600770001
 20
20.0382976023
 30
0.0
 10
42.2893701978
 20
20.0858126867
 30
0.0
 10
42.26572139479997
 20
20.1308139569
 30
0.0
 10
42.2368653133
 20
20.172224371
 30
0.0
 10
42.20242428199997
 20
20.20846177460001
 30
0.0
 10
42.16216302629999
 20
20.23704938680001
 30
0.0
 10
42.13115898249998
 20
20.2484728359
 30
0.0
 10
42.11534142619997
 20
20.251273148
 30
0.0
  0
SPLINE
  5
8A4AC
330
1F
100
AcDbEntity
  8
1
100
AcDbSpline
210
0.0
220
0.0
230
1.0
 70
     8
 71
     3
 72
    13
 73
     9
 74
     0
 42
0.000000001
 43
0.0000001
 40
0.0
 40
0.0
 40
0.0
 40
0.0
 40
0.1204895804
 40
0.243309549
 40
0.3679100212
 40
0.4936112961
 40
0.7462744678000001
 40
1.0
 40
1.0
 40
1.0
 40
1.0
 10
42.04970655779999
 20
20.2628823644
 30
0.0
 10
42.03635989610001
 20
20.27106234220001
 30
0.0
 10
42.01243347219999
 20
20.29282548180001
 30
0.0
 10
41.9879490853
 20
20.3344366044
 30
0.0
 10
41.972990068
 20
20.3808639445
 30
0.0
 10
41.96363669979999
 20
20.4457623569
 30
0.0
 10
41.9683094351
 20
20.52854352920001
 30
0.0
 10
41.98508916989999
 20
20.5925840876
 30
0.0
 10
41.9963215107
 20
20.6235752176
 30
0.0
  0
SPLINE
  5
8A4AD
330
1F
100
AcDbEntity
  8
1
100
AcDbSpline
210
0.0
220
0.0
230
1.0
 70
     8
 71
     3
 72
    11
 73
     7
 74
     0
 42
0.000000001
 43
0.0000001
 40
0.0
 40
0.0
 40
0.0
 40
0.0
 40
0.2516529989
 40
0.5029972071
 40
0.7531688041
 40
1.0
 40
1.0
 40
1.0
 40
1.0
 10
41.99632151119999
 20
20.6235752174
 30
0.0
 10
42.0053855776
 20
20.6485838657
 30
0.0
 10
42.02724789839999
 20
20.6973036623
 30
0.0
 10
42.07103883119997
 20
20.7642516495
 30
0.0
 10
42.12612274759999
 20
20.8216710145
 30
0.0
 10
42.171839947
 20
20.849769874
 30
0.0
 10
42.19633741249999
 20
20.8587480791
 30
0.0
  0
SPLINE
  5
8A4AE
330
1F
100
AcDbEntity
  8
1
100
AcDbSpline
210
0.0
220
0.0
230
1.0
 70
     8
 71
     3
 72
    15
 73
    11
 74
     0
 42
0.000000001
 43
0.0000001
 40
0.0
 40
0.0
 40
0.0
 40
0.0
 40
0.0588703847
 40
0.1182236114
 40
0.2388838602
 40
0.3627516422999999
 40
0.4886120104
 40
0.6156764876
 40
0.7435153745000001
 40
1.0
 40
1.0
 40
1.0
 40
1.0
 10
42.79432431179997
 20
21.2837338382
 30
0.0
 10
42.79217125909997
 20
21.2936570294
 30
0.0
 10
42.7904825288
 20
21.31425577260001
 30
0.0
 10
42.7976184101
 20
21.35521219840001
 30
0.0
 10
42.82358937199997
 20
21.4022807795
 30
0.0
 10
42.8696663806
 20
21.4472749427
 30
0.0
 10
42.92455572029999
 20
21.4826975899
 30
0.0
 10
42.9848378705
 20
21.50934578300001
 30
0.0
 10
43.06967239819999
 20
21.5340335654
 30
0.0
 10
43.13656137659999
 20
21.5407108858
 30
0.0
 10
43.18077765279997
 20
21.5392938155
 30
0.0
  0
SPLINE
  5
8A4AF
330
1F
100
AcDbEntity
  8
1
100
AcDbSpline
210
0.0
220
0.0
230
1.0
 70
     8
 71
     3
 72
     9
 73
     5
 74
     0
 42
0.000000001
 43
0.0000001
 40
0.0
 40
0.0
 40
0.0
 40
0.0
 40
0.4954777384000001
 40
1.0
 40
1.0
 40
1.0
 40
1.0
 10
44.04456492859996
 20
21.1739704923
 30
0.0
 10
44.05277530199998
 20
21.1813879507
 30
0.0
 10
44.07182972909999
 20
21.1938051753
 30
0.0
 10
44.09358417649996
 20
21.2000506504
 30
0.0
 10
44.10470549439998
 20
21.2018549994
 30
0.0
  0
SPLINE
  5
8A4B0
330
1F
100
AcDbEntity
  8
1
100
AcDbSpline
210
0.0
220
0.0
230
1.0
 70
     8
 71
     3
 72
    27
 73
    23
 74
     0
 42
0.000000001
 43
0.0000001
 40
0.0
 40
0.0
 40
0.0
 40
0.0
 40
0.0623606158
 40
0.0935766004
 40
0.1247945065
 40
0.1871766845
 40
0.249593738
 40
0.2808567593
 40
0.3121318869
 40
0.3746429342
 40
0.4371976939000001
 40
0.4997849417000002
 40
0.5623885472
 40
0.6249899033
 40
0.6875707237000001
 40
0.7188860713
 40
0.7501909342000001
 40
0.8126904059999999
 40
0.8751425023999999
 40
0.9063871247999999
 40
0.9376229653999999
 40
1.0
 40
1.0
 40
1.0
 40
1.0
 10
43.8410019707
 20
21.95100911680001
 30
0.0
 10
43.7247895113
 20
21.9933056991
 30
0.0
 10
43.54347204949998
 20
22.03969996550001
 30
0.0
 10
43.29699955499999
 20
22.06505163300001
 30
0.0
 10
43.04910717600001
 20
22.0660849379
 30
0.0
 10
42.74077953159999
 20
22.0215243386
 30
0.0
 10
42.44707462449997
 20
21.917373489
 30
0.0
 10
42.22790483749998
 20
21.8009906528
 30
0.0
 10
42.0210230086
 20
21.66362231969999
 30
0.0
 10
41.7890865728
 20
21.454618104
 30
0.0
 10
41.56509327679997
 20
21.1545152131
 30
0.0
 10
41.40361538899997
 20
20.81637318930001
 30
0.0
 10
41.3109311435
 20
20.45320312050001
 30
0.0
 10
41.29054865469997
 20
20.0790207616
 30
0.0
 10
41.3345819726
 20
19.7696222752
 30
0.0
 10
41.40526864599999
 20
19.53124770559998
 30
0.0
 10
41.49882107469998
 20
19.3010529949
 30
0.0
 10
41.65735123309997
 20
19.032328793
 30
0.0
 10
41.86527000189999
 20
18.7998672811
 30
0.0
 10
42.05605802819997
 20
18.64122958850001
 30
0.0
 10
42.261288593
 20
18.50218571640001
 30
0.0
 10
42.43007088819999
 20
18.4211457434
 30
0.0
 10
42.54631394489999
 20
18.378838025
 30
0.0
  0
SPLINE
  5
8A4B1
330
1F
100
AcDbEntity
  8
1
100
AcDbSpline
210
0.0
220
0.0
230
1.0
 70
     8
 71
     3
 72
     9
 73
     5
 74
     0
 42
0.000000001
 43
0.0000001
 40
0.0
 40
0.0
 40
0.0
 40
0.0
 40
0.2525796354
 40
1.0
 40
1.0
 40
1.0
 40
1.0
 10
43.33074005399999
 20
18.7687863376
 30
0.0
 10
43.32610263569999
 20
18.7704833555
 30
0.0
 10
43.3079178085
 20
18.7776559441
 30
0.0
 10
43.29047212899999
 20
18.786825737
 30
0.0
 10
43.27833997729999
 20
18.7949709185
 30
0.0
  0
SPLINE
  5
8A4B2
330
1F
100
AcDbEntity
  8
1
100
AcDbSpline
210
0.0
220
0.0
230
1.0
 70
     8
 71
     3
 72
    10
 73
     6
 74
     0
 42
0.000000001
 43
0.0000001
 40
0.0
 40
0.0
 40
0.0
 40
0.0
 40
0.5067431510000004
 40
0.7546151981
 40
1.0
 40
1.0
 40
1.0
 40
1.0
 10
43.27833997729999
 20
18.7949709185
 30
0.0
 10
43.26233791419997
 20
18.8057142486
 30
0.0
 10
43.24039330299997
 20
18.8255233663
 30
0.0
 10
43.22169257219999
 20
18.8589849062
 30
0.0
 10
43.21677263429999
 20
18.8773440722
 30
0.0
 10
43.21553467299997
 20
18.8865948046
 30
0.0
  0
SPLINE
  5
8A4B3
330
1F
100
AcDbEntity
  8
1
100
AcDbSpline
210
0.0
220
0.0
230
1.0
 70
     8
 71
     3
 72
    27
 73
    23
 74
     0
 42
0.000000001
 43
0.0000001
 40
0.0
 40
0.0
 40
0.0
 40
0.0
 40
0.0623770346
 40
0.0936128752
 40
0.1248574976
 40
0.187309594
 40
0.2498090658
 40
0.2811139287
 40
0.3124292763
 40
0.3750100967
 40
0.4376114528000001
 40
0.5002150583000004
 40
0.5628023061000002
 40
0.6253570658
 40
0.6878681131000001
 40
0.7191432406999999
 40
0.7504062620000001
 40
0.8128233155
 40
0.8752054935
 40
0.9064233995999998
 40
0.9376393842
 40
1.0
 40
1.0
 40
1.0
 40
1.0
 10
43.8410019707
 20
21.95100911680001
 30
0.0
 10
43.9572450273
 20
21.90870139840001
 30
0.0
 10
44.1260273226
 20
21.8276614254
 30
0.0
 10
44.33125788739999
 20
21.6886175533
 30
0.0
 10
44.5220459137
 20
21.5299798607
 30
0.0
 10
44.72996468249998
 20
21.2975183488
 30
0.0
 10
44.88849484079998
 20
21.0287941469
 30
0.0
 10
44.9820472696
 20
20.7985994361
 30
0.0
 10
45.05273394299999
 20
20.5602248666
 30
0.0
 10
45.09676726089997
 20
20.2508263802
 30
0.0
 10
45.0763847721
 20
19.8766440213
 30
0.0
 10
44.98370052659999
 20
19.5134739525
 30
0.0
 10
44.82222263879997
 20
19.1753319287
 30
0.0
 10
44.59822934279997
 20
18.87522903769999
 30
0.0
 10
44.366292907
 20
18.6662248221
 30
0.0
 10
44.15941107800001
 20
18.528856489
 30
0.0
 10
43.940241291
 20
18.4124736528
 30
0.0
 10
43.64653638399999
 20
18.3083228032
 30
0.0
 10
43.33820873959999
 20
18.26376220390001
 30
0.0
 10
43.0903163605
 20
18.2647955088
 30
0.0
 10
42.84384386609996
 20
18.29014717619999
 30
0.0
 10
42.66252640419998
 20
18.33654144269999
 30
0.0
 10
42.54631394489999
 20
18.378838025
 30
0.0
  0
SPLINE
  5
8A4B4
330
1F
100
AcDbEntity
  8
1
100
AcDbSpline
210
0.0
220
0.0
230
1.0
 70
     8
 71
     3
 72
     9
 73
     5
 74
     0
 42
0.000000001
 43
0.0000001
 40
0.0
 40
0.0
 40
0.0
 40
0.0
 40
0.7498240786000001
 40
1.0
 40
1.0
 40
1.0
 40
1.0
 10
43.96947373359999
 20
22.2283659681
 30
0.0
 10
43.8805461955
 20
22.2607319549
 30
0.0
 10
43.7589199673
 20
22.29622027100001
 30
0.0
 10
43.63514398249998
 20
22.3209580662
 30
0.0
 10
43.60405469789998
 20
22.3264715719
 30
0.0
  0
SPLINE
  5
8A4B5
330
1F
100
AcDbEntity
  8
1
100
AcDbSpline
210
0.0
220
0.0
230
1.0
 70
     8
 71
     3
 72
    13
 73
     9
 74
     0
 42
0.000000001
 43
0.0000001
 40
0.0
 40
0.0
 40
0.0
 40
0.0
 40
0.2618371462
 40
0.5160332993
 40
0.6398280026
 40
0.7610706261
 40
0.8804883335999999
 40
1.0
 40
1.0
 40
1.0
 40
1.0
 10
43.77171015889999
 20
21.07952303010002
 30
0.0
 10
43.79857317709999
 20
21.0747573109
 30
0.0
 10
43.85237561399995
 20
21.0696041281
 30
0.0
 10
43.91942055499998
 20
21.0767653098
 30
0.0
 10
43.9688501617
 20
21.09371235850001
 30
0.0
 10
44.00200149189998
 20
21.1128630881
 30
0.0
 10
44.02915603510002
 20
21.1394698722
 30
0.0
 10
44.0408232936
 20
21.1620932252
 30
0.0
 10
44.04456492859996
 20
21.1739704923
 30
0.0
  0
SPLINE
  5
8A4B6
330
1F
100
AcDbEntity
  8
1
100
AcDbSpline
210
0.0
220
0.0
230
1.0
 70
     8
 71
     3
 72
    17
 73
    13
 74
     0
 42
0.000000001
 43
0.0000001
 40
0.0
 40
0.0
 40
0.0
 40
0.0
 40
0.1243108893
 40
0.2515985418
 40
0.380032132
 40
0.5083250919
 40
0.635367513
 40
0.7599600106000001
 40
0.8211313957999999
 40
0.8813428684999998
 40
0.9407366667999999
 40
1.0
 40
1.0
 40
1.0
 40
1.0
 10
42.37721650649999
 20
20.81814827540001
 30
0.0
 10
42.40741486569999
 20
20.81279172850001
 30
0.0
 10
42.47106375620001
 20
20.8163285337
 30
0.0
 10
42.5603259901
 20
20.8468736374
 30
0.0
 10
42.64259300679998
 20
20.8950239845
 30
0.0
 10
42.71498950769998
 20
20.9567887503
 30
0.0
 10
42.77467402319999
 20
21.02970980890001
 30
0.0
 10
42.81043342869997
 20
21.09913887200001
 30
0.0
 10
42.82557296009996
 20
21.1581868154
 30
0.0
 10
42.82815084609999
 20
21.2030813478
 30
0.0
 10
42.81934485679999
 20
21.24694884250001
 30
0.0
 10
42.80400497229999
 20
21.2727762681
 30
0.0
 10
42.79432431179997
 20
21.2837338382
 30
0.0
  0
SPLINE
  5
8A4B7
330
1F
100
AcDbEntity
  8
1
100
AcDbSpline
210
0.0
220
0.0
230
1.0
 70
     8
 71
     3
 72
    11
 73
     7
 74
     0
 42
0.000000001
 43
0.0000001
 40
0.0
 40
0.0
 40
0.0
 40
0.0
 40
0.2503056302
 40
0.500364449
 40
0.7502365454000001
 40
1.0
 40
1.0
 40
1.0
 40
1.0
 10
37.81484521850001
 20
21.1993130444
 30
0.0
 10
37.74109198740001
 20
21.35796651920001
 30
0.0
 10
37.55487011049999
 20
21.6586692699
 30
0.0
 10
37.17716699609997
 20
22.02945301760001
 30
0.0
 10
36.72255496
 20
22.29977864050001
 30
0.0
 10
36.3846564314
 20
22.4026707137
 30
0.0
 10
36.21275808970001
 20
22.43314955970001
 30
0.0
  0
SPLINE
  5
8A4B8
330
1F
100
AcDbEntity
  8
1
100
AcDbSpline
210
0.0
220
0.0
230
1.0
 70
     8
 71
     3
 72
    21
 73
    17
 74
     0
 42
0.000000001
 43
0.0000001
 40
0.0
 40
0.0
 40
0.0
 40
0.0
 40
0.0625639922
 40
0.1251631699
 40
0.1877763968
 40
0.2504060547
 40
0.3130391257
 40
0.3756678583
 40
0.5005874806000003
 40
0.6253980500000002
 40
0.6878988601
 40
0.7503666213
 40
0.8128044443
 40
0.8752176523000001
 40
0.9376133739
 40
1.0
 40
1.0
 40
1.0
 40
1.0
 10
37.81484521850001
 20
21.1993130444
 30
0.0
 10
37.85694948060001
 20
21.10874091100001
 30
0.0
 10
37.928911587
 20
20.9215486282
 30
0.0
 10
37.99770743889999
 20
20.62886758680001
 30
0.0
 10
38.02618246499998
 20
20.32939817050001
 30
0.0
 10
38.0138250611
 20
20.0288051305
 30
0.0
 10
37.96080734419999
 20
19.732588351
 30
0.0
 10
37.83759782199999
 20
19.3515850915
 30
0.0
 10
37.58815449449997
 20
18.9121955678
 30
0.0
 10
37.2295113898
 20
18.5565542261
 30
0.0
 10
36.89440588100001
 20
18.3385120985
 30
0.0
 10
36.62290529069998
 20
18.2105223708
 30
0.0
 10
36.33666900470001
 20
18.1208072134
 30
0.0
 10
36.04095760669998
 20
18.0709866078
 30
0.0
 10
35.7413533587
 20
18.0619888638
 30
0.0
 10
35.54255177279998
 20
18.08335484869999
 30
0.0
 10
35.44448419060001
 20
18.1007429555
 30
0.0
  0
SPLINE
  5
8A4B9
330
1F
100
AcDbEntity
  8
1
100
AcDbSpline
210
0.0
220
0.0
230
1.0
 70
     8
 71
     3
 72
    21
 73
    17
 74
     0
 42
0.000000001
 43
0.0000001
 40
0.0
 40
0.0
 40
0.0
 40
0.0
 40
0.0623866261
 40
0.1247823477
 40
0.1871955557
 40
0.2496333787
 40
0.3121011399
 40
0.37460195
 40
0.4994125194
 40
0.6243321417000001
 40
0.6869608743000001
 40
0.7495939453
 40
0.8122236031999998
 40
0.8748368300999999
 40
0.9374360078
 40
1.0
 40
1.0
 40
1.0
 40
1.0
 10
36.13397943870001
 20
22.4471195277
 30
0.0
 10
36.03591185649998
 20
22.4645076345
 30
0.0
 10
35.8371102706
 20
22.4858736194
 30
0.0
 10
35.53750602259999
 20
22.47687587540001
 30
0.0
 10
35.24179462460001
 20
22.4270552698
 30
0.0
 10
34.95555833859999
 20
22.3373401124
 30
0.0
 10
34.68405774830002
 20
22.20935038470001
 30
0.0
 10
34.34895223949999
 20
21.9913082571
 30
0.0
 10
33.99030913479999
 20
21.6356669154
 30
0.0
 10
33.7408658073
 20
21.1962773917
 30
0.0
 10
33.61765628510001
 20
20.8152741322
 30
0.0
 10
33.5646385682
 20
20.5190573527
 30
0.0
 10
33.55228116429998
 20
20.2184643127
 30
0.0
 10
33.5807561904
 20
19.91899489640001
 30
0.0
 10
33.6495520423
 20
19.62631385500001
 30
0.0
 10
33.72151414870001
 20
19.43912157220001
 30
0.0
 10
33.76361841080001
 20
19.3485494388
 30
0.0
  0
SPLINE
  5
8A4BA
330
1F
100
AcDbEntity
  8
1
100
AcDbSpline
210
0.0
220
0.0
230
1.0
 70
     8
 71
     3
 72
    11
 73
     7
 74
     0
 42
0.000000001
 43
0.0000001
 40
0.0
 40
0.0
 40
0.0
 40
0.0
 40
0.2497634546
 40
0.499635551
 40
0.7496943698000002
 40
1.0
 40
1.0
 40
1.0
 40
1.0
 10
35.36570553960002
 20
18.11471292350001
 30
0.0
 10
35.19380719790002
 20
18.1451917695
 30
0.0
 10
34.85590866929999
 20
18.24808384269999
 30
0.0
 10
34.40129663319999
 20
18.5184094656
 30
0.0
 10
34.0235935188
 20
18.8891932133
 30
0.0
 10
33.83737164190002
 20
19.189895964
 30
0.0
 10
33.76361841080001
 20
19.3485494388
 30
0.0
  0
SPLINE
  5
8A4BB
330
1F
100
AcDbEntity
  8
1
100
AcDbSpline
210
0.0
220
0.0
230
1.0
 70
     8
 71
     3
 72
    21
 73
    17
 74
     0
 42
0.000000001
 43
0.0000001
 40
0.0
 40
0.0
 40
0.0
 40
0.0
 40
0.0625639922
 40
0.1251631699
 40
0.1877763968
 40
0.2504060547
 40
0.3130391257
 40
0.3756678583
 40
0.5005874806000003
 40
0.6253980500000002
 40
0.6878988601
 40
0.7503666213
 40
0.8128044443
 40
0.8752176523000001
 40
0.9376133739
 40
1.0
 40
1.0
 40
1.0
 40
1.0
 10
37.73606656749999
 20
21.2132830124
 30
0.0
 10
37.77817082960002
 20
21.12271087899999
 30
0.0
 10
37.85013293589998
 20
20.9355185961
 30
0.0
 10
37.91892878779999
 20
20.64283755470001
 30
0.0
 10
37.94740381399999
 20
20.3433681384
 30
0.0
 10
37.93504640999998
 20
20.04277509840001
 30
0.0
 10
37.88202869309998
 20
19.7465583189
 30
0.0
 10
37.758819171
 20
19.3655550595
 30
0.0
 10
37.50937584349998
 20
18.9261655357
 30
0.0
 10
37.15073273870002
 20
18.570524194
 30
0.0
 10
36.81562722989998
 20
18.35248206640001
 30
0.0
 10
36.5441266396
 20
18.2244923387
 30
0.0
 10
36.25789035359998
 20
18.1347771813
 30
0.0
 10
35.96217895560001
 20
18.0849565758
 30
0.0
 10
35.6625747077
 20
18.07595883170001
 30
0.0
 10
35.4637731218
 20
18.0973248166
 30
0.0
 10
35.36570553960002
 20
18.11471292350001
 30
0.0
  0
SPLINE
  5
8A4BC
330
1F
100
AcDbEntity
  8
1
100
AcDbSpline
210
0.0
220
0.0
230
1.0
 70
     8
 71
     3
 72
    13
 73
     9
 74
     0
 42
0.000000001
 43
0.0000001
 40
0.0
 40
0.0
 40
0.0
 40
0.0
 40
0.1187214054
 40
0.2376422028
 40
0.3588819359
 40
0.4829186191
 40
0.7378344916
 40
1.0
 40
1.0
 40
1.0
 40
1.0
 10
36.072791951
 20
19.0224759056
 30
0.0
 10
36.07462116810001
 20
19.0364921779
 30
0.0
 10
36.07276581629998
 20
19.065527107
 30
0.0
 10
36.05518285199997
 20
19.1051799999
 30
0.0
 10
36.027624535
 20
19.13914122920001
 30
0.0
 10
35.9815589296
 20
19.1773167132
 30
0.0
 10
35.91259849879998
 20
19.2120530611
 30
0.0
 10
35.85277809280001
 20
19.22802691220001
 30
0.0
 10
35.8220434923
 20
19.2334752479
 30
0.0
  0
SPLINE
  5
8A4BD
330
1F
100
AcDbEntity
  8
1
100
AcDbSpline
210
0.0
220
0.0
230
1.0
 70
     8
 71
     3
 72
    17
 73
    13
 74
     0
 42
0.000000001
 43
0.0000001
 40
0.0
 40
0.0
 40
0.0
 40
0.0
 40
0.0593844552
 40
0.1189571671
 40
0.1793686828
 40
0.2407369992
 40
0.3656666699
 40
0.4928991249
 40
0.621229475
 40
0.7495278558000003
 40
0.8764445173999998
 40
1.0
 40
1.0
 40
1.0
 40
1.0
 10
34.89275284069999
 20
19.4501754153
 30
0.0
 10
34.90643636239997
 20
19.45620339960001
 30
0.0
 10
34.93171221429998
 20
19.4737368768
 30
0.0
 10
34.9583935677
 20
19.5109637275
 30
0.0
 10
34.97483762010001
 20
19.5539666913
 30
0.0
 10
34.98549539440001
 20
19.6154463583
 30
0.0
 10
34.98124954420001
 20
19.69522374220001
 30
0.0
 10
34.95609077009999
 20
19.7882021688
 30
0.0
 10
34.91423036570001
 20
19.8758859504
 30
0.0
 10
34.85714548829998
 20
19.95457445380001
 30
0.0
 10
34.78586090170001
 20
20.01890029350001
 30
0.0
 10
34.7267668911
 20
20.04637087970001
 30
0.0
 10
34.69613445969998
 20
20.05180149800001
 30
0.0
  0
SPLINE
  5
8A4BE
330
1F
100
AcDbEntity
  8
1
100
AcDbSpline
210
0.0
220
0.0
230
1.0
 70
     8
 71
     3
 72
    15
 73
    11
 74
     0
 42
0.000000001
 43
0.0000001
 40
0.0
 40
0.0
 40
0.0
 40
0.0
 40
0.1231405982
 40
0.248404584
 40
0.3744177788
 40
0.5006671242000002
 40
0.6268584322000002
 40
0.7526871474
 40
0.8775656573999999
 40
1.0
 40
1.0
 40
1.0
 40
1.0
 10
34.54029375030001
 20
20.0773787808
 30
0.0
 10
34.51922377459999
 20
20.0951927318
 30
0.0
 10
34.48526672100002
 20
20.14127181470001
 30
0.0
 10
34.456348655
 20
20.2206215737
 30
0.0
 10
34.44362706630001
 20
20.3047439951
 30
0.0
 10
34.44510790699999
 20
20.389879118
 30
0.0
 10
34.45991094800002
 20
20.4736935248
 30
0.0
 10
34.48865110439998
 20
20.55364662390001
 30
0.0
 10
34.5327352086
 20
20.6254006361
 30
0.0
 10
34.57583449559999
 20
20.6630043177
 30
0.0
 10
34.60032217079998
 20
20.6753706873
 30
0.0
  0
SPLINE
  5
8A4BF
330
1F
100
AcDbEntity
  8
1
100
AcDbSpline
210
0.0
220
0.0
230
1.0
 70
     8
 71
     3
 72
     8
 73
     4
 74
     0
 42
0.000000001
 43
0.0000001
 40
0.0
 40
0.0
 40
0.0
 40
0.0
 40
1.0
 40
1.0
 40
1.0
 40
1.0
 10
34.60786360409997
 20
20.6789350407
 30
0.0
 10
34.61537697519998
 20
20.6822452496
 30
0.0
 10
34.62318651409999
 20
20.68496844390001
 30
0.0
 10
34.63115463829999
 20
20.6869476415
 30
0.0
  0
SPLINE
  5
8A4C0
330
1F
100
AcDbEntity
  8
1
100
AcDbSpline
210
0.0
220
0.0
230
1.0
 70
     8
 71
     3
 72
    14
 73
    10
 74
     0
 42
0.000000001
 43
0.0000001
 40
0.0
 40
0.0
 40
0.0
 40
0.0
 40
0.1189074491
 40
0.2400028076
 40
0.3636832344
 40
0.4892474711000001
 40
0.6160490055
 40
0.7436507411
 40
1.0
 40
1.0
 40
1.0
 40
1.0
 10
35.04766636059998
 20
21.2276638624
 30
0.0
 10
35.04030258609998
 20
21.2421789771
 30
0.0
 10
35.03163842250001
 20
21.2749815737
 30
0.0
 10
35.03766670249999
 20
21.3252428207
 30
0.0
 10
35.05723780279999
 20
21.3724933976
 30
0.0
 10
35.0861206164
 20
21.4154031491
 30
0.0
 10
35.12152872269999
 20
21.4537314889
 30
0.0
 10
35.1751357597
 20
21.4987960641
 30
0.0
 10
35.2207591358
 20
21.525857448
 30
0.0
 10
35.2525229513
 20
21.5407679147
 30
0.0
  0
SPLINE
  5
8A4C1
330
1F
100
AcDbEntity
  8
1
100
AcDbSpline
210
0.0
220
0.0
230
1.0
 70
     8
 71
     3
 72
     9
 73
     5
 74
     0
 42
0.000000001
 43
0.0000001
 40
0.0
 40
0.0
 40
0.0
 40
0.0
 40
0.4998797037
 40
1.0
 40
1.0
 40
1.0
 40
1.0
 10
35.2525229516
 20
21.5407679142
 30
0.0
 10
35.28164718080001
 20
21.5544393148
 30
0.0
 10
35.34244961209998
 20
21.57664443300001
 30
0.0
 10
35.4065928733
 20
21.5868832463
 30
0.0
 10
35.43876185649998
 20
21.5880151032
 30
0.0
  0
SPLINE
  5
8A4C2
330
1F
100
AcDbEntity
  8
1
100
AcDbSpline
210
0.0
220
0.0
230
1.0
 70
     8
 71
     3
 72
    11
 73
     7
 74
     0
 42
0.000000001
 43
0.0000001
 40
0.0
 40
0.0
 40
0.0
 40
0.0
 40
0.2428285996
 40
0.4894711318000002
 40
0.7419022784
 40
1.0
 40
1.0
 40
1.0
 40
1.0
 10
36.2840507002
 20
21.44647341260001
 30
0.0
 10
36.29021080090003
 20
21.4561050348
 30
0.0
 10
36.30584634109999
 20
21.47364176840001
 30
0.0
 10
36.3361576344
 20
21.49184110630001
 30
0.0
 10
36.3705224016
 20
21.5023101452
 30
0.0
 10
36.39455599510001
 20
21.5048364884
 30
0.0
 10
36.4067021793
 20
21.5052117382
 30
0.0
  0
SPLINE
  5
8A4C3
330
1F
100
AcDbEntity
  8
1
100
AcDbSpline
210
0.0
220
0.0
230
1.0
 70
     8
 71
     3
 72
    27
 73
    23
 74
     0
 42
0.000000001
 43
0.0000001
 40
0.0
 40
0.0
 40
0.0
 40
0.0
 40
0.0625472497
 40
0.0938707291
 40
0.1252004034
 40
0.1878025792
 40
0.2504060854
 40
0.2817403136
 40
0.3130683574
 40
0.3756231712
 40
0.4381342526
 40
0.5005970209
 40
0.5630142656000002
 40
0.6253957186
 40
0.6877565629000002
 40
0.7189728706000002
 40
0.7501909137000001
 40
0.8125657329999999
 40
0.8749740829
 40
0.9062297359
 40
0.9374982167
 40
1.0
 40
1.0
 40
1.0
 40
1.0
 10
37.43895827919999
 20
21.09079874290001
 30
0.0
 10
37.4912471088
 20
20.9783181858
 30
0.0
 10
37.5533321929
 20
20.8011536887
 30
0.0
 10
37.60029841250001
 20
20.5570569958
 30
0.0
 10
37.62326258130001
 20
20.3093575798
 30
0.0
 10
37.60634076790001
 20
19.99728145489999
 30
0.0
 10
37.5289940217
 20
19.6944498649
 30
0.0
 10
37.43287234579998
 20
19.4650023704
 30
0.0
 10
37.3148967403
 20
19.2461053708
 30
0.0
 10
37.12809734849998
 20
18.9958161737
 30
0.0
 10
36.85009362649998
 20
18.7452804896
 30
0.0
 10
36.5287568712
 20
18.5538583858
 30
0.0
 10
36.17644624109999
 20
18.4290024399
 30
0.0
 10
35.8067792487
 20
18.37548098840001
 30
0.0
 10
35.49575376669998
 20
18.3921255975
 30
0.0
 10
35.25292853140002
 20
18.44169098140001
 30
0.0
 10
35.01610921369999
 20
18.5148644931
 30
0.0
 10
34.73526705979998
 20
18.64964595720001
 30
0.0
 10
34.48624625299999
 20
18.836899809
 30
0.0
 10
34.31198102669998
 20
19.0135256199
 30
0.0
 10
34.1557745234
 20
19.2064455743
 30
0.0
 10
34.06045841859999
 20
19.3679482268
 30
0.0
 10
34.00820759839998
 20
19.4803470202
 30
0.0
  0
SPLINE
  5
8A4C4
330
1F
100
AcDbEntity
  8
1
100
AcDbSpline
210
0.0
220
0.0
230
1.0
 70
     8
 71
     3
 72
     8
 73
     4
 74
     0
 42
0.000000001
 43
0.0000001
 40
0.0
 40
0.0
 40
0.0
 40
0.0
 40
1.0
 40
1.0
 40
1.0
 40
1.0
 10
35.16419724189999
 20
19.0437350869
 30
0.0
 10
35.14693822979999
 20
19.04978627890001
 30
0.0
 10
35.13002050630002
 20
19.0568890492
 30
0.0
 10
35.113559614
 20
19.0648595855
 30
0.0
  0
SPLINE
  5
8A4C5
330
1F
100
AcDbEntity
  8
1
100
AcDbSpline
210
0.0
220
0.0
230
1.0
 70
     8
 71
     3
 72
    15
 73
    11
 74
     0
 42
0.000000001
 43
0.0000001
 40
0.0
 40
0.0
 40
0.0
 40
0.0
 40
0.2563764671
 40
0.3841150356
 40
0.5110783627000001
 40
0.6368476284000001
 40
0.7606720897
 40
0.8814433074
 40
0.9409458509
 40
1.0
 40
1.0
 40
1.0
 40
1.0
 10
35.113559614
 20
19.0648595855
 30
0.0
 10
35.07555543920001
 20
19.0832616047
 30
0.0
 10
35.02170359859997
 20
19.1179580899
 30
0.0
 10
34.96004143159999
 20
19.1754675541
 30
0.0
 10
34.92005488619998
 20
19.2239969354
 30
0.0
 10
34.8883685349
 20
19.27768070970001
 30
0.0
 10
34.86827136119999
 20
19.3358019304
 30
0.0
 10
34.86610120399999
 20
19.3870695659
 30
0.0
 10
34.87704609470001
 20
19.4252744433
 30
0.0
 10
34.88689052010001
 20
19.4424145096
 30
0.0
 10
34.89275284069999
 20
19.4501754153
 30
0.0
  0
SPLINE
  5
8A4C6
330
1F
100
AcDbEntity
  8
1
100
AcDbSpline
210
0.0
220
0.0
230
1.0
 70
     8
 71
     3
 72
     9
 73
     5
 74
     0
 42
0.000000001
 43
0.0000001
 40
0.0
 40
0.0
 40
0.0
 40
0.0
 40
0.5065363892
 40
1.0
 40
1.0
 40
1.0
 40
1.0
 10
36.13298556850001
 20
18.9613702685
 30
0.0
 10
36.11983488829998
 20
18.9679778358
 30
0.0
 10
36.09536042249999
 20
18.9846271433
 30
0.0
 10
36.078363148
 20
19.0092650672
 30
0.0
 10
36.072791951
 20
19.0224759056
 30
0.0
  0
SPLINE
  5
8A4C7
330
1F
100
AcDbEntity
  8
1
100
AcDbSpline
210
0.0
220
0.0
230
1.0
 70
     8
 71
     3
 72
    27
 73
    23
 74
     0
 42
0.000000001
 43
0.0000001
 40
0.0
 40
0.0
 40
0.0
 40
0.0
 40
0.0625017833
 40
0.0937702641
 40
0.1250259171
 40
0.187434267
 40
0.2498090863
 40
0.2810271294
 40
0.3122434371
 40
0.3746042814
 40
0.4369857344
 40
0.4994029791
 40
0.5618657474000001
 40
0.6243768288
 40
0.6869316426000001
 40
0.7182596864000002
 40
0.7495939146
 40
0.8121974208000001
 40
0.8747995965999999
 40
0.9061292708999999
 40
0.9374527502999999
 40
1.0
 40
1.0
 40
1.0
 40
1.0
 10
37.43895827919999
 20
21.09079874290001
 30
0.0
 10
37.38670745889999
 20
21.2031975364
 30
0.0
 10
37.2913913541
 20
21.36470018880001
 30
0.0
 10
37.13518485089998
 20
21.5576201432
 30
0.0
 10
36.96091962449997
 20
21.73424595410001
 30
0.0
 10
36.71189881779998
 20
21.9214998059
 30
0.0
 10
36.43105666380001
 20
22.05628127000001
 30
0.0
 10
36.19423734610001
 20
22.1294547817
 30
0.0
 10
35.9514121108
 20
22.1790201656
 30
0.0
 10
35.6403866289
 20
22.1956647748
 30
0.0
 10
35.27071963649999
 20
22.1421433232
 30
0.0
 10
34.9184090064
 20
22.0172873773
 30
0.0
 10
34.59707225109998
 20
21.82586527350002
 30
0.0
 10
34.31906852899999
 20
21.5753295894
 30
0.0
 10
34.1322691373
 20
21.3250403924
 30
0.0
 10
34.01429353169998
 20
21.1061433927
 30
0.0
 10
33.9181718559
 20
20.8766958982
 30
0.0
 10
33.84082510959999
 20
20.5738643082
 30
0.0
 10
33.8239032962
 20
20.2617881833
 30
0.0
 10
33.84686746509999
 20
20.01408876740001
 30
0.0
 10
33.89383368469998
 20
19.7699920744
 30
0.0
 10
33.95591876869997
 20
19.5928275773
 30
0.0
 10
34.00820759839998
 20
19.4803470202
 30
0.0
  0
SPLINE
  5
8A4C8
330
1F
100
AcDbEntity
  8
1
100
AcDbSpline
210
0.0
220
0.0
230
1.0
 70
     8
 71
     3
 72
     8
 73
     4
 74
     0
 42
0.000000001
 43
0.0000001
 40
0.0
 40
0.0
 40
0.0
 40
0.0
 40
1.0
 40
1.0
 40
1.0
 40
1.0
 10
37.01669720289999
 20
20.4722332465
 30
0.0
 10
37.02248279380001
 20
20.47120758050001
 30
0.0
 10
37.02834243749999
 20
20.47052235
 30
0.0
 10
37.0342113781
 20
20.47023846890001
 30
0.0
  0
SPLINE
  5
8A4C9
330
1F
100
AcDbEntity
  8
1
100
AcDbSpline
210
0.0
220
0.0
230
1.0
 70
     8
 71
     3
 72
    11
 73
     7
 74
     0
 42
0.000000001
 43
0.0000001
 40
0.0
 40
0.0
 40
0.0
 40
0.0
 40
0.2503056302
 40
0.500364449
 40
0.7502365454000001
 40
1.0
 40
1.0
 40
1.0
 40
1.0
 10
37.73606656749999
 20
21.2132830124
 30
0.0
 10
37.66231333640003
 20
21.3719364871
 30
0.0
 10
37.4760914595
 20
21.6726392378
 30
0.0
 10
37.09838834509998
 20
22.0434229856
 30
0.0
 10
36.64377630899998
 20
22.3137486084
 30
0.0
 10
36.3058777803
 20
22.4166406817
 30
0.0
 10
36.13397943870001
 20
22.4471195277
 30
0.0
  0
SPLINE
  5
8A4CA
330
1F
100
AcDbEntity
  8
1
100
AcDbSpline
210
0.0
220
0.0
230
1.0
 70
     8
 71
     3
 72
    15
 73
    11
 74
     0
 42
0.000000001
 43
0.0000001
 40
0.0
 40
0.0
 40
0.0
 40
0.0
 40
0.2613790309
 40
0.3904723579
 40
0.5176196153000002
 40
0.6422091798
 40
0.7636710586
 40
0.8819671723999999
 40
0.9408321525999999
 40
1.0
 40
1.0
 40
1.0
 40
1.0
 10
35.90235519729997
 20
21.28850829370001
 30
0.0
 10
35.94156165549998
 20
21.2815581253
 30
0.0
 10
36.00153221419998
 20
21.27739930890001
 30
0.0
 10
36.08012163209997
 20
21.2853326586
 30
0.0
 10
36.13681719840001
 20
21.2985103613
 30
0.0
 10
36.1898257037
 20
21.3198434351
 30
0.0
 10
36.23657586610001
 20
21.3505884445
 30
0.0
 10
36.26669517599999
 20
21.38606149840001
 30
0.0
 10
36.28066575919999
 20
21.4195322371
 30
0.0
 10
36.28365048249998
 20
21.4374688437
 30
0.0
 10
36.2840507002
 20
21.44647341260001
 30
0.0
  0
SPLINE
  5
8A4CB
330
1F
100
AcDbEntity
  8
1
100
AcDbSpline
210
0.0
220
0.0
230
1.0
 70
     8
 71
     3
 72
    18
 73
    14
 74
     0
 42
0.000000001
 43
0.0000001
 40
0.0
 40
0.0
 40
0.0
 40
0.0
 40
0.1219316545
 40
0.1848035995
 40
0.2483294387
 40
0.3763301434000001
 40
0.5047606281000001
 40
0.6323966105
 40
0.7579677315000001
 40
0.8197294612999998
 40
0.8805327022
 40
0.9404237006
 40
1.0
 40
1.0
 40
1.0
 40
1.0
 10
34.72285151699998
 20
20.67054710689999
 30
0.0
 10
34.75420326350002
 20
20.6649946756
 30
0.0
 10
34.8045104661
 20
20.6723079998
 30
0.0
 10
34.863859975
 20
20.698248728
 30
0.0
 10
34.92061892449999
 20
20.7332468354
 30
0.0
 10
34.98332052500001
 20
20.7894521145
 30
0.0
 10
35.04423620630002
 20
20.86982897590001
 30
0.0
 10
35.0889018238
 20
20.9595486049
 30
0.0
 10
35.1093918341
 20
21.04022167220001
 30
0.0
 10
35.11098204839999
 20
21.1052858136
 30
0.0
 10
35.10288088380001
 20
21.15263672960001
 30
0.0
 10
35.08307684120001
 20
21.1960916703
 30
0.0
 10
35.06055671399997
 20
21.2189542104
 30
0.0
 10
35.04766636059998
 20
21.2276638624
 30
0.0
  0
SPLINE
  5
8A4CC
330
1F
100
AcDbEntity
  8
1
100
AcDbSpline
210
0.0
220
0.0
230
1.0
 70
     8
 71
     3
 72
     9
 73
     5
 74
     0
 42
0.000000001
 43
0.0000001
 40
0.0
 40
0.0
 40
0.0
 40
0.0
 40
0.2871030726
 40
1.0
 40
1.0
 40
1.0
 40
1.0
 10
50.3911794563
 20
21.9927235681
 30
0.0
 10
50.3747049909
 20
21.9653961158
 30
0.0
 10
50.31689411189997
 20
21.8704715188
 30
0.0
 10
50.2574206651
 20
21.7765634103
 30
0.0
 10
50.21424942269999
 20
21.7101248758
 30
0.0
  0
SPLINE
  5
8A4CD
330
1F
100
AcDbEntity
  8
1
100
AcDbSpline
210
0.0
220
0.0
230
1.0
 70
     8
 71
     3
 72
     8
 73
     4
 74
     0
 42
0.000000001
 43
0.0000001
 40
0.0
 40
0.0
 40
0.0
 40
0.0
 40
1.0
 40
1.0
 40
1.0
 40
1.0
 10
50.70604227460001
 20
22.5169268841
 30
0.0
 10
50.70189471879999
 20
22.5091253816
 30
0.0
 10
50.6975711888
 20
22.5014150281
 30
0.0
 10
50.6930818068
 20
22.4938050932
 30
0.0
  0
SPLINE
  5
8A4CE
330
1F
100
AcDbEntity
  8
1
100
AcDbSpline
210
0.0
220
0.0
230
1.0
 70
     8
 71
     3
 72
     9
 73
     5
 74
     0
 42
0.000000001
 43
0.0000001
 40
0.0
 40
0.0
 40
0.0
 40
0.0
 40
0.5000324386
 40
1.0
 40
1.0
 40
1.0
 40
1.0
 10
50.79999829680001
 20
22.89385820000001
 30
0.0
 10
50.79999824769998
 20
22.8286232003
 30
0.0
 10
50.78401097979996
 20
22.69766387880001
 30
0.0
 10
50.73666231329998
 20
22.57451966750001
 30
0.0
 10
50.70604134839999
 20
22.51692750260001
 30
0.0
  0
SPLINE
  5
8A4CF
330
1F
100
AcDbEntity
  8
1
100
AcDbSpline
210
0.0
220
0.0
230
1.0
 70
     8
 71
     3
 72
     9
 73
     5
 74
     0
 42
0.000000001
 43
0.0000001
 40
0.0
 40
0.0
 40
0.0
 40
0.0
 40
0.2861744928
 40
1.0
 40
1.0
 40
1.0
 40
1.0
 10
28.30475896269999
 20
18.49701687340001
 30
0.0
 10
28.32167093679999
 20
18.524302243
 30
0.0
 10
28.381449632
 20
18.6192246138
 30
0.0
 10
28.44385216000001
 20
18.7124837289
 30
0.0
 10
28.48957849889999
 20
18.7782165051
 30
0.0
  0
SPLINE
  5
8A4D0
330
1F
100
AcDbEntity
  8
1
100
AcDbSpline
210
0.0
220
0.0
230
1.0
 70
     8
 71
     3
 72
     8
 73
     4
 74
     0
 42
0.000000001
 43
0.0000001
 40
0.0
 40
0.0
 40
0.0
 40
0.0
 40
1.0
 40
1.0
 40
1.0
 40
1.0
 10
27.98223849519999
 20
17.9741715029
 30
0.0
 10
27.98639085720001
 20
17.9819824996
 30
0.0
 10
27.99074786279999
 20
17.9896878613
 30
0.0
 10
27.99529398120002
 20
17.997276444
 30
0.0
  0
SPLINE
  5
8A4D1
330
1F
100
AcDbEntity
  8
1
100
AcDbSpline
210
0.0
220
0.0
230
1.0
 70
     8
 71
     3
 72
     9
 73
     5
 74
     0
 42
0.000000001
 43
0.0000001
 40
0.0
 40
0.0
 40
0.0
 40
0.0
 40
0.5000324386
 40
1.0
 40
1.0
 40
1.0
 40
1.0
 10
27.8882831631
 20
17.5972400646
 30
0.0
 10
27.88828321220001
 20
17.6624750643
 30
0.0
 10
27.90427048010001
 20
17.79343438579999
 30
0.0
 10
27.95161914649999
 20
17.9165785971
 30
0.0
 10
27.98224011139999
 20
17.974170762
 30
0.0
  0
SPLINE
  5
8A4D2
330
1F
100
AcDbEntity
  8
1
100
AcDbSpline
210
0.0
220
0.0
230
1.0
 70
     8
 71
     3
 72
     9
 73
     5
 74
     0
 42
0.000000001
 43
0.0000001
 40
0.0
 40
0.0
 40
0.0
 40
0.0
 40
0.4970058927000001
 40
1.0
 40
1.0
 40
1.0
 40
1.0
 10
46.4601270839
 20
15.9327051739
 30
0.0
 10
46.42271530729999
 20
15.8751301895
 30
0.0
 10
46.3331338479
 20
15.7680437803
 30
0.0
 10
46.22123972479999
 20
15.68467550890001
 30
0.0
 10
46.1611518105
 20
15.6497720228
 30
0.0
  0
SPLINE
  5
8A4D3
330
1F
100
AcDbEntity
  8
1
100
AcDbSpline
210
0.0
220
0.0
230
1.0
 70
     8
 71
     3
 72
     9
 73
     5
 74
     0
 42
0.000000001
 43
0.0000001
 40
0.0
 40
0.0
 40
0.0
 40
0.0
 40
0.4987715657000001
 40
1.0
 40
1.0
 40
1.0
 40
1.0
 10
32.47949458289998
 20
24.513822454
 30
0.0
 10
32.5192258818
 20
24.5709372077
 30
0.0
 10
32.61187543
 20
24.67689361260001
 30
0.0
 10
32.72517506840002
 20
24.7603668731
 30
0.0
 10
32.7856330775
 20
24.7954853374
 30
0.0
  0
SPLINE
  5
8A4D4
330
1F
100
AcDbEntity
  8
1
100
AcDbSpline
210
0.0
220
0.0
230
1.0
 70
     8
 71
     3
 72
     8
 73
     4
 74
     0
 42
0.000000001
 43
0.0000001
 40
0.0
 40
0.0
 40
0.0
 40
0.0
 40
1.0
 40
1.0
 40
1.0
 40
1.0
 10
50.79999934549999
 20
24.61070615800001
 30
0.0
 10
50.79999934109998
 20
24.63196149550001
 30
0.0
 10
50.79828347349999
 20
24.6532826191
 30
0.0
 10
50.794912536
 20
24.6742689517
 30
0.0
  0
SPLINE
  5
8A4D5
330
1F
100
AcDbEntity
  8
1
100
AcDbSpline
210
0.0
220
0.0
230
1.0
 70
     8
 71
     3
 72
     9
 73
     5
 74
     0
 42
0.000000001
 43
0.0000001
 40
0.0
 40
0.0
 40
0.0
 40
0.0
 40
0.5003151316
 40
1.0
 40
1.0
 40
1.0
 40
1.0
 10
50.7949117335
 20
24.67426867420001
 30
0.0
 10
50.78798705610001
 20
24.71735745059999
 30
0.0
 10
50.75986146849999
 20
24.80180032540002
 30
0.0
 10
50.70578870520001
 20
24.8725313377
 30
0.0
 10
50.67400544619999
 20
24.9023578816
 30
0.0
  0
SPLINE
  5
8A4D6
330
1F
100
AcDbEntity
  8
1
100
AcDbSpline
210
0.0
220
0.0
230
1.0
 70
     8
 71
     3
 72
     9
 73
     5
 74
     0
 42
0.000000001
 43
0.0000001
 40
0.0
 40
0.0
 40
0.0
 40
0.0
 40
0.5001461484
 40
1.0
 40
1.0
 40
1.0
 40
1.0
 10
50.67400544589997
 20
24.90235788120001
 30
0.0
 10
50.63989772520001
 20
24.9343657829
 30
0.0
 10
50.55973543159999
 20
24.98673549269999
 30
0.0
 10
50.46628042819998
 20
25.007661809
 30
0.0
 10
50.4195790068
 20
25.0097265415
 30
0.0
  0
SPLINE
  5
8A4D7
330
1F
100
AcDbEntity
  8
1
100
AcDbSpline
210
0.0
220
0.0
230
1.0
 70
     8
 71
     3
 72
     8
 73
     4
 74
     0
 42
0.000000001
 43
0.0000001
 40
0.0
 40
0.0
 40
0.0
 40
0.0
 40
1.0
 40
1.0
 40
1.0
 40
1.0
 10
27.8882814474
 20
15.880392225
 30
0.0
 10
27.88828145169998
 20
15.8591368874
 30
0.0
 10
27.8899973193
 20
15.8378157639
 30
0.0
 10
27.89336825679999
 20
15.81682943130001
 30
0.0
  0
SPLINE
  5
8A4D8
330
1F
100
AcDbEntity
  8
1
100
AcDbSpline
210
0.0
220
0.0
230
1.0
 70
     8
 71
     3
 72
     9
 73
     5
 74
     0
 42
0.000000001
 43
0.0000001
 40
0.0
 40
0.0
 40
0.0
 40
0.0
 40
0.4997050707
 40
1.0
 40
1.0
 40
1.0
 40
1.0
 10
28.0142752228
 20
15.5887405232
 30
0.0
 10
27.9824900825
 20
15.6185680684
 30
0.0
 10
27.9284070217
 20
15.68929388350001
 30
0.0
 10
27.90029439949999
 20
15.7737423571
 30
0.0
 10
27.8933695552
 20
15.8168296207
 30
0.0
  0
SPLINE
  5
8A4D9
330
1F
100
AcDbEntity
  8
1
100
AcDbSpline
210
0.0
220
0.0
230
1.0
 70
     8
 71
     3
 72
     9
 73
     5
 74
     0
 42
0.000000001
 43
0.0000001
 40
0.0
 40
0.0
 40
0.0
 40
0.0
 40
0.5001466495
 40
1.0
 40
1.0
 40
1.0
 40
1.0
 10
28.01427522309999
 20
15.5887405237
 30
0.0
 10
28.0483833413
 20
15.55673306899999
 30
0.0
 10
28.1285448793
 20
15.5043627306
 30
0.0
 10
28.22199996749998
 20
15.4834366352
 30
0.0
 10
28.26870128039999
 20
15.4813719311
 30
0.0
  0
SPLINE
  5
8A4DA
330
1F
100
AcDbEntity
  8
1
100
AcDbSpline
210
0.0
220
0.0
230
1.0
 70
     8
 71
     3
 72
     9
 73
     5
 74
     0
 42
0.000000001
 43
0.0000001
 40
0.0
 40
0.0
 40
0.0
 40
0.0
 40
0.3467859311
 40
1.0
 40
1.0
 40
1.0
 40
1.0
 10
48.22721972519996
 20
13.5335805293
 30
0.0
 10
48.22721972519996
 20
13.5343026245
 30
0.0
 10
48.225472835
 20
13.5360233809
 30
0.0
 10
48.22357932239999
 20
13.53664814260001
 30
0.0
 10
48.22229300179998
 20
13.5370901853
 30
0.0
  0
SPLINE
  5
8A4DB
330
1F
100
AcDbEntity
  8
1
100
AcDbSpline
210
0.0
220
0.0
230
1.0
 70
     8
 71
     3
 72
    20
 73
    16
 74
     0
 42
0.000000001
 43
0.0000001
 40
0.0
 40
0.0
 40
0.0
 40
0.0
 40
0.0037494393
 40
0.009177728
 40
0.0251976335
 40
0.0482420507
 40
0.0784466855
 40
0.1159327509
 40
0.160805146
 40
0.2131440146
 40
0.2729924644
 40
0.4151075631000002
 40
0.5860745702
 40
0.7829091894
 40
1.0
 40
1.0
 40
1.0
 40
1.0
 10
48.22229300179998
 20
13.5370901853
 30
0.0
 10
48.21971534189998
 20
13.5379759953
 30
0.0
 10
48.21319011149999
 20
13.539474911
 30
0.0
 10
48.19510117490001
 20
13.5423322045
 30
0.0
 10
48.16285986039996
 20
13.5452711926
 30
0.0
 10
48.11260494489999
 20
13.54832060350001
 30
0.0
 10
48.04669102
 20
13.5509578557
 30
0.0
 10
47.96489547359999
 20
13.5531974937
 30
0.0
 10
47.86699292479999
 20
13.55496910769999
 30
0.0
 10
47.75282662859999
 20
13.5562473705
 30
0.0
 10
47.56796622190001
 20
13.5573015042
 30
0.0
 10
47.2968653671
 20
13.5569702556
 30
0.0
 10
46.92619522680002
 20
13.5541999712
 30
0.0
 10
46.50104535049999
 20
13.5488728437
 30
0.0
 10
46.20018816649997
 20
13.5438015074
 30
0.0
 10
46.0424040127
 20
13.540837691
 30
0.0
  0
SPLINE
  5
8A4DC
330
1F
100
AcDbEntity
  8
1
100
AcDbSpline
210
0.0
220
0.0
230
1.0
 70
     8
 71
     3
 72
    18
 73
    14
 74
     0
 42
0.000000001
 43
0.0000001
 40
0.0
 40
0.0
 40
0.0
 40
0.0
 40
0.0103335284
 40
0.0280786331
 40
0.053148132
 40
0.085445539
 40
0.1248716142
 40
0.1713262832
 40
0.284920502
 40
0.4254227090000002
 40
0.5920132203000003
 40
0.7838410326
 40
1.0
 40
1.0
 40
1.0
 40
1.0
 10
26.80067549379999
 20
24.6249181913
 30
0.0
 10
26.80509984769998
 20
24.6245965581
 30
0.0
 10
26.81701984099999
 20
24.6226568182
 30
0.0
 10
26.8394474486
 20
24.6185369474
 30
0.0
 10
26.87104688419998
 20
24.61208108200001
 30
0.0
 10
26.91169069590001
 20
24.60345445510001
 30
0.0
 10
26.96125880229999
 20
24.59264384790002
 30
0.0
 10
27.0448695957
 20
24.57415224430001
 30
0.0
 10
27.17078681729999
 20
24.54601620700001
 30
0.0
 10
27.3470960928
 20
24.5069076157
 30
0.0
 10
27.55639536479999
 20
24.46144293790001
 30
0.0
 10
27.79778732259999
 20
24.41073816630001
 30
0.0
 10
27.9695111858
 20
24.37628358890001
 30
0.0
 10
28.06058626149999
 20
24.35850656860001
 30
0.0
  0
SPLINE
  5
8A4DD
330
1F
100
AcDbEntity
  8
1
100
AcDbSpline
210
0.0
220
0.0
230
1.0
 70
     8
 71
     3
 72
     9
 73
     5
 74
     0
 42
0.000000001
 43
0.0000001
 40
0.0
 40
0.0
 40
0.0
 40
0.0
 40
0.2440091349
 40
1.0
 40
1.0
 40
1.0
 40
1.0
 10
28.06058626149999
 20
24.35850656860001
 30
0.0
 10
28.0763938028
 20
24.35542108140002
 30
0.0
 10
28.14118784420001
 20
24.3428349223
 30
0.0
 10
28.20602936519998
 20
24.3304930394
 30
0.0
 10
28.25507579160002
 20
24.3213068474
 30
0.0
  0
SPLINE
  5
8A4DE
330
1F
100
AcDbEntity
  8
1
100
AcDbSpline
210
0.0
220
0.0
230
1.0
 70
     8
 71
     3
 72
    11
 73
     7
 74
     0
 42
0.000000001
 43
0.0000001
 40
0.0
 40
0.0
 40
0.0
 40
0.0
 40
0.2464818384
 40
0.502975063
 40
0.7584078472
 40
1.0
 40
1.0
 40
1.0
 40
1.0
 10
26.80067549379999
 20
24.6249181913
 30
0.0
 10
26.57925733479999
 20
24.62468057450001
 30
0.0
 10
26.12742909119999
 20
24.6233830079
 30
0.0
 10
25.4461398549
 20
24.6224872702
 30
0.0
 10
24.76924395979998
 20
24.6236705648
 30
0.0
 10
24.32276037399998
 20
24.6250001482
 30
0.0
 10
24.1057345646
 20
24.62500005680001
 30
0.0
  0
SPLINE
  5
8A4DF
330
1F
100
AcDbEntity
  8
1
100
AcDbSpline
210
0.0
220
0.0
230
1.0
 70
     8
 71
     3
 72
     9
 73
     5
 74
     0
 42
0.000000001
 43
0.0000001
 40
0.0
 40
0.0
 40
0.0
 40
0.0
 40
0.2586416813
 40
1.0
 40
1.0
 40
1.0
 40
1.0
 10
26.0078631733
 20
19.4093506557
 30
0.0
 10
25.97453362959999
 20
19.4577803732
 30
0.0
 10
25.84868016499999
 20
19.6470756283
 30
0.0
 10
25.73488088490001
 20
19.8444243139
 30
0.0
 10
25.6583373613
 20
19.9945507383
 30
0.0
  0
SPLINE
  5
8A4E0
330
1F
100
AcDbEntity
  8
1
100
AcDbSpline
210
0.0
220
0.0
230
1.0
 70
     8
 71
     3
 72
     9
 73
     5
 74
     0
 42
0.000000001
 43
0.0000001
 40
0.0
 40
0.0
 40
0.0
 40
0.0
 40
0.2506037644
 40
1.0
 40
1.0
 40
1.0
 40
1.0
 10
29.77772556970002
 20
14.1856597275
 30
0.0
 10
29.74605910309998
 20
14.1876690132
 30
0.0
 10
29.61981633879998
 20
14.1974430555
 30
0.0
 10
29.49411629790001
 20
14.21426473300001
 30
0.0
 10
29.40068927069999
 20
14.2308324745
 30
0.0
  0
SPLINE
  5
8A4E1
330
1F
100
AcDbEntity
  8
1
100
AcDbSpline
210
0.0
220
0.0
230
1.0
 70
     8
 71
     3
 72
     8
 73
     4
 74
     0
 42
0.000000001
 43
0.0000001
 40
0.0
 40
0.0
 40
0.0
 40
0.0
 40
1.0
 40
1.0
 40
1.0
 40
1.0
 10
41.63628744369996
 20
13.4472200372
 30
0.0
 10
41.52697126449999
 20
13.44472010059999
 30
0.0
 10
41.41744491639999
 20
13.4469058517
 30
0.0
 10
41.30831983669998
 20
13.4538336015
 30
0.0
  0
SPLINE
  5
8A4E2
330
1F
100
AcDbEntity
  8
1
100
AcDbSpline
210
0.0
220
0.0
230
1.0
 70
     8
 71
     3
 72
     9
 73
     5
 74
     0
 42
0.000000001
 43
0.0000001
 40
0.0
 40
0.0
 40
0.0
 40
0.0
 40
0.2504786903
 40
1.0
 40
1.0
 40
1.0
 40
1.0
 10
30.4591650287
 20
14.7162781064
 30
0.0
 10
30.39881194380001
 20
14.7177816575
 30
0.0
 10
30.1578678329
 20
14.7240405406
 30
0.0
 10
29.91695077470001
 20
14.7314682279
 30
0.0
 10
29.73642315769999
 20
14.7382224967
 30
0.0
  0
SPLINE
  5
8A4E3
330
1F
100
AcDbEntity
  8
1
100
AcDbSpline
210
0.0
220
0.0
230
1.0
 70
     8
 71
     3
 72
    11
 73
     7
 74
     0
 42
0.000000001
 43
0.0000001
 40
0.0
 40
0.0
 40
0.0
 40
0.0
 40
0.3064228362
 40
0.5732741185
 40
0.8032953884000001
 40
1.0
 40
1.0
 40
1.0
 40
1.0
 10
23.3518794309
 20
23.7764127333
 30
0.0
 10
23.29348744859998
 20
23.846411445
 30
0.0
 10
23.1806392359
 20
23.9744540004
 30
0.0
 10
23.00981638809998
 20
24.1419558544
 30
0.0
 10
22.84944750509999
 20
24.2722989554
 30
0.0
 10
22.74145648609999
 20
24.3400279035
 30
0.0
 10
22.68934728069999
 20
24.36665172340001
 30
0.0
  0
SPLINE
  5
8A4E4
330
1F
100
AcDbEntity
  8
1
100
AcDbSpline
210
0.0
220
0.0
230
1.0
 70
     8
 71
     3
 72
    10
 73
     6
 74
     0
 42
0.000000001
 43
0.0000001
 40
0.0
 40
0.0
 40
0.0
 40
0.0
 40
0.3130419465
 40
0.5797109103000003
 40
1.0
 40
1.0
 40
1.0
 40
1.0
 10
22.68934728069999
 20
24.36665172340001
 30
0.0
 10
22.6838574647
 20
24.3694565997
 30
0.0
 10
22.67387509240001
 20
24.3751018742
 30
0.0
 10
22.6580859975
 20
24.386759478
 30
0.0
 10
22.649064767
 20
24.39780391220001
 30
0.0
 10
22.6463337699
 20
24.40561729260001
 30
0.0
  0
SPLINE
  5
8A4E5
330
1F
100
AcDbEntity
  8
1
100
AcDbSpline
210
0.0
220
0.0
230
1.0
 70
     8
 71
     3
 72
     9
 73
     5
 74
     0
 42
0.000000001
 43
0.0000001
 40
0.0
 40
0.0
 40
0.0
 40
0.0
 40
0.2411935566
 40
1.0
 40
1.0
 40
1.0
 40
1.0
 10
28.27720623080002
 20
24.31766553110001
 30
0.0
 10
28.25972786459999
 20
24.3205270963
 30
0.0
 10
28.18728121409998
 20
24.3325100277
 30
0.0
 10
28.11491465500001
 20
24.34497713809999
 30
0.0
 10
28.0600507721
 20
24.354706315
 30
0.0
  0
SPLINE
  5
8A4E6
330
1F
100
AcDbEntity
  8
1
100
AcDbSpline
210
0.0
220
0.0
230
1.0
 70
     8
 71
     3
 72
     9
 73
     5
 74
     0
 42
0.000000001
 43
0.0000001
 40
0.0
 40
0.0
 40
0.0
 40
0.0
 40
0.7496588378000001
 40
1.0
 40
1.0
 40
1.0
 40
1.0
 10
29.59193866800001
 20
14.6967898335
 30
0.0
 10
29.5501933223
 20
14.6825956394
 30
0.0
 10
29.49376659309999
 20
14.6657363585
 30
0.0
 10
29.43664575700001
 20
14.6517050725
 30
0.0
 10
29.42230432330001
 20
14.6483693553
 30
0.0
  0
SPLINE
  5
8A4E7
330
1F
100
AcDbEntity
  8
1
100
AcDbSpline
210
0.0
220
0.0
230
1.0
 70
     8
 71
     3
 72
     9
 73
     5
 74
     0
 42
0.000000001
 43
0.0000001
 40
0.0
 40
0.0
 40
0.0
 40
0.0
 40
0.2487888348
 40
1.0
 40
1.0
 40
1.0
 40
1.0
 10
29.42230432330001
 20
14.6483693553
 30
0.0
 10
29.38775396079999
 20
14.6403331826
 30
0.0
 10
29.24794576619999
 20
14.6121537988
 30
0.0
 10
29.1048424137
 20
14.60061636309999
 30
0.0
 10
28.99773470529999
 20
14.6010663815
 30
0.0
  0
SPLINE
  5
8A4E8
330
1F
100
AcDbEntity
  8
1
100
AcDbSpline
210
0.0
220
0.0
230
1.0
 70
     8
 71
     3
 72
     9
 73
     5
 74
     0
 42
0.000000001
 43
0.0000001
 40
0.0
 40
0.0
 40
0.0
 40
0.0
 40
0.2507744239
 40
1.0
 40
1.0
 40
1.0
 40
1.0
 10
26.9446620112
 20
16.2566886531
 30
0.0
 10
26.94296163889999
 20
16.2662860125
 30
0.0
 10
26.93652426369999
 20
16.3046168407
 30
0.0
 10
26.9314679979
 20
16.3431800464
 30
0.0
 10
26.92847638960001
 20
16.37214604269999
 30
0.0
  0
SPLINE
  5
8A4E9
330
1F
100
AcDbEntity
  8
1
100
AcDbSpline
210
0.0
220
0.0
230
1.0
 70
     8
 71
     3
 72
     9
 73
     5
 74
     0
 42
0.000000001
 43
0.0000001
 40
0.0
 40
0.0
 40
0.0
 40
0.0
 40
0.2414123456
 40
1.0
 40
1.0
 40
1.0
 40
1.0
 10
29.28924991470001
 20
14.44304224359999
 30
0.0
 10
29.3368757909
 20
14.4173737517
 30
0.0
 10
29.53632728119999
 20
14.3151469812
 30
0.0
 10
29.74479499609998
 20
14.2303365116
 30
0.0
 10
29.9063482464
 20
14.1773964194
 30
0.0
  0
SPLINE
  5
8A4EA
330
1F
100
AcDbEntity
  8
1
100
AcDbSpline
210
0.0
220
0.0
230
1.0
 70
     8
 71
     3
 72
    13
 73
     9
 74
     0
 42
0.000000001
 43
0.0000001
 40
0.0
 40
0.0
 40
0.0
 40
0.0
 40
0.1742826433
 40
0.3905602211
 40
0.5200318979000002
 40
0.6662907242000001
 40
0.8285738359999999
 40
1.0
 40
1.0
 40
1.0
 40
1.0
 10
26.25795770259998
 20
17.9728372224
 30
0.0
 10
26.29742382390001
 20
17.7611927349
 30
0.0
 10
26.4171490631
 20
17.2922545871
 30
0.0
 10
26.67005048529998
 20
16.6978865299
 30
0.0
 10
26.98607243250001
 20
16.17747552510001
 30
0.0
 10
27.32106099059999
 20
15.7505389168
 30
0.0
 10
27.7505536804
 20
15.3386722799
 30
0.0
 10
28.09240949380001
 20
15.103888446
 30
0.0
 10
28.27700079689999
 20
15.0001094101
 30
0.0
  0
SPLINE
  5
8A4EB
330
1F
100
AcDbEntity
  8
1
100
AcDbSpline
210
0.0
220
0.0
230
1.0
 70
     8
 71
     3
 72
    10
 73
     6
 74
     0
 42
0.000000001
 43
0.0000001
 40
0.0
 40
0.0
 40
0.0
 40
0.0
 40
0.1760062213
 40
0.4055102292
 40
1.0
 40
1.0
 40
1.0
 40
1.0
 10
29.7489244686
 20
14.737767684
 30
0.0
 10
29.75963909000001
 20
14.7397394349
 30
0.0
 10
29.78414591999999
 20
14.7452261153
 30
0.0
 10
29.84413028309999
 20
14.7604972708
 30
0.0
 10
29.89321093300001
 20
14.7744140441
 30
0.0
 10
29.92852705899998
 20
14.7847518193
 30
0.0
  0
SPLINE
  5
8A4EC
330
1F
100
AcDbEntity
  8
1
100
AcDbSpline
210
0.0
220
0.0
230
1.0
 70
     8
 71
     3
 72
    11
 73
     7
 74
     0
 42
0.000000001
 43
0.0000001
 40
0.0
 40
0.0
 40
0.0
 40
0.0
 40
0.248893956
 40
0.4965514776
 40
0.7460074041000003
 40
1.0
 40
1.0
 40
1.0
 40
1.0
 10
26.92847638960001
 20
16.37214604269999
 30
0.0
 10
26.919399046
 20
16.4600366607
 30
0.0
 10
26.91596577679999
 20
16.6372859971
 30
0.0
 10
26.9564551972
 20
16.9002807889
 30
0.0
 10
27.04139513249999
 20
17.1543096983
 30
0.0
 10
27.12523100929999
 20
17.3131313911
 30
0.0
 10
27.17318229329999
 20
17.38949219090001
 30
0.0
  0
SPLINE
  5
8A4ED
330
1F
100
AcDbEntity
  8
1
100
AcDbSpline
210
0.0
220
0.0
230
1.0
 70
     8
 71
     3
 72
    15
 73
    11
 74
     0
 42
0.000000001
 43
0.0000001
 40
0.0
 40
0.0
 40
0.0
 40
0.0
 40
0.1450684683
 40
0.2835559539
 40
0.4154904128
 40
0.5413557902
 40
0.6618925550000001
 40
0.7779466059000001
 40
0.8903742301999999
 40
1.0
 40
1.0
 40
1.0
 40
1.0
 10
27.39855138019999
 20
15.1558865151
 30
0.0
 10
27.25444006659998
 20
15.2386083371
 30
0.0
 10
26.98509807189998
 20
15.4230892741
 30
0.0
 10
26.63874170079998
 20
15.7521927737
 30
0.0
 10
26.36060980089999
 20
16.1131515015
 30
0.0
 10
26.14913214859999
 20
16.4931508674
 30
0.0
 10
26.00020825280001
 20
16.8821157567
 30
0.0
 10
25.90876390509999
 20
17.27249994380001
 30
0.0
 10
25.86957010570001
 20
17.6587728874
 30
0.0
 10
25.87511107979998
 20
17.9137723546
 30
0.0
 10
25.88524378540002
 20
18.0389312898
 30
0.0
  0
SPLINE
  5
8A4EE
330
1F
100
AcDbEntity
  8
1
100
AcDbSpline
210
0.0
220
0.0
230
1.0
 70
     8
 71
     3
 72
    12
 73
     8
 74
     0
 42
0.000000001
 43
0.0000001
 40
0.0
 40
0.0
 40
0.0
 40
0.0
 40
0.2431202594
 40
0.3662146343999999
 40
0.4904568183000002
 40
0.7425186409000001
 40
1.0
 40
1.0
 40
1.0
 40
1.0
 10
30.4297064422
 20
14.9422744161
 30
0.0
 10
30.31415391579998
 20
14.9370489227
 30
0.0
 10
30.13856239379999
 20
14.9479840716
 30
0.0
 10
29.91046084109999
 20
14.9984958149
 30
0.0
 10
29.68453338000001
 20
15.0733079609
 30
0.0
 10
29.413984408
 20
15.21099652559999
 30
0.0
 10
29.22162382720001
 20
15.36121287439999
 30
0.0
 10
29.1323162905
 20
15.445065224
 30
0.0
  0
SPLINE
  5
8A4EF
330
1F
100
AcDbEntity
  8
1
100
AcDbSpline
210
0.0
220
0.0
230
1.0
 70
     8
 71
     3
 72
     8
 73
     4
 74
     0
 42
0.000000001
 43
0.0000001
 40
0.0
 40
0.0
 40
0.0
 40
0.0
 40
1.0
 40
1.0
 40
1.0
 40
1.0
 10
27.3033950128
 20
15.7902897912
 30
0.0
 10
27.28238120359999
 20
15.83799539420001
 30
0.0
 10
27.26303925349998
 20
15.88647245609999
 30
0.0
 10
27.24543175970001
 20
15.9355375241
 30
0.0
  0
SPLINE
  5
8A4F0
330
1F
100
AcDbEntity
  8
1
100
AcDbSpline
210
0.0
220
0.0
230
1.0
 70
     8
 71
     3
 72
     9
 73
     5
 74
     0
 42
0.000000001
 43
0.0000001
 40
0.0
 40
0.0
 40
0.0
 40
0.0
 40
0.2252569493
 40
1.0
 40
1.0
 40
1.0
 40
1.0
 10
28.0600507721
 20
24.354706315
 30
0.0
 10
27.96481291890001
 20
24.3715951291
 30
0.0
 10
27.54266248149998
 20
24.4501697342
 30
0.0
 10
27.1233471983
 20
24.5439753527
 30
0.0
 10
26.80067549379999
 20
24.6249181913
 30
0.0
  0
SPLINE
  5
8A4F1
330
1F
100
AcDbEntity
  8
1
100
AcDbSpline
210
0.0
220
0.0
230
1.0
 70
     8
 71
     3
 72
     9
 73
     5
 74
     0
 42
0.000000001
 43
0.0000001
 40
0.0
 40
0.0
 40
0.0
 40
0.0
 40
0.5317106976
 40
1.0
 40
1.0
 40
1.0
 40
1.0
 10
24.1057345646
 20
24.62500005680001
 30
0.0
 10
23.97211670819999
 20
24.62500000050001
 30
0.0
 10
23.72081952689999
 20
24.62451231180001
 30
0.0
 10
23.4695259568
 20
24.62145428800001
 30
0.0
 10
23.3518794309
 20
24.6186399203
 30
0.0
  0
SPLINE
  5
8A4F2
330
1F
100
AcDbEntity
  8
1
100
AcDbSpline
210
0.0
220
0.0
230
1.0
 70
     8
 71
     3
 72
     9
 73
     5
 74
     0
 42
0.000000001
 43
0.0000001
 40
0.0
 40
0.0
 40
0.0
 40
0.0
 40
0.5100851597000001
 40
1.0
 40
1.0
 40
1.0
 40
1.0
 10
29.03797496039999
 20
19.5664389046
 30
0.0
 10
29.11296663529999
 20
19.7349151213
 30
0.0
 10
29.25221236229999
 20
20.0686992896
 30
0.0
 10
29.37930868799999
 20
20.4072021572
 30
0.0
 10
29.43986931769999
 20
20.5736473887
 30
0.0
  0
SPLINE
  5
8A4F3
330
1F
100
AcDbEntity
  8
1
100
AcDbSpline
210
0.0
220
0.0
230
1.0
 70
     8
 71
     3
 72
     9
 73
     5
 74
     0
 42
0.000000001
 43
0.0000001
 40
0.0
 40
0.0
 40
0.0
 40
0.0
 40
0.5069807670000001
 40
1.0
 40
1.0
 40
1.0
 40
1.0
 10
29.40068927069999
 20
14.2308324745
 30
0.0
 10
29.21438593509999
 20
14.2638702966
 30
0.0
 10
28.851717815
 20
14.360385248
 30
0.0
 10
28.51104627460001
 20
14.51785550439999
 30
0.0
 10
28.35140830669999
 20
14.6093514787
 30
0.0
  0
SPLINE
  5
8A4F4
330
1F
100
AcDbEntity
  8
1
100
AcDbSpline
210
0.0
220
0.0
230
1.0
 70
     8
 71
     3
 72
     9
 73
     5
 74
     0
 42
0.000000001
 43
0.0000001
 40
0.0
 40
0.0
 40
0.0
 40
0.0
 40
0.4914041891
 40
1.0
 40
1.0
 40
1.0
 40
1.0
 10
27.31745622829999
 20
17.5884243322
 30
0.0
 10
27.44436520580002
 20
17.7416414677
 30
0.0
 10
27.72560733890002
 20
18.0350585117
 30
0.0
 10
28.0538014645
 20
18.277561935
 30
0.0
 10
28.23229487499998
 20
18.380223567
 30
0.0
  0
SPLINE
  5
8A4F5
330
1F
100
AcDbEntity
  8
1
100
AcDbSpline
210
0.0
220
0.0
230
1.0
 70
     8
 71
     3
 72
     9
 73
     5
 74
     0
 42
0.000000001
 43
0.0000001
 40
0.0
 40
0.0
 40
0.0
 40
0.0
 40
0.2479498022
 40
1.0
 40
1.0
 40
1.0
 40
1.0
 10
27.17318229329999
 20
17.38949219090001
 30
0.0
 10
27.18398780839999
 20
17.4066996087
 30
0.0
 10
27.22875393519999
 20
17.4753485208
 30
0.0
 10
27.2781439334
 20
17.5409626211
 30
0.0
 10
27.31745622829999
 20
17.5884243322
 30
0.0
  0
SPLINE
  5
8A4F6
330
1F
100
AcDbEntity
  8
1
100
AcDbSpline
210
0.0
220
0.0
230
1.0
 70
     8
 71
     3
 72
     9
 73
     5
 74
     0
 42
0.000000001
 43
0.0000001
 40
0.0
 40
0.0
 40
0.0
 40
0.0
 40
0.5173494118999999
 40
1.0
 40
1.0
 40
1.0
 40
1.0
 10
27.17318229329999
 20
17.38949219090001
 30
0.0
 10
27.05085946149998
 20
17.3578487508
 30
0.0
 10
26.81336037939999
 20
17.3006811038
 30
0.0
 10
26.5737911766
 20
17.2527853083
 30
0.0
 10
26.45768475289998
 20
17.232442078
 30
0.0
  0
SPLINE
  5
8A4F7
330
1F
100
AcDbEntity
  8
1
100
AcDbSpline
210
0.0
220
0.0
230
1.0
 70
     8
 71
     3
 72
     9
 73
     5
 74
     0
 42
0.000000001
 43
0.0000001
 40
0.0
 40
0.0
 40
0.0
 40
0.0
 40
0.2501678003
 40
1.0
 40
1.0
 40
1.0
 40
1.0
 10
31.00943185080001
 20
14.7040342195
 30
0.0
 10
30.96354334579999
 20
14.7049542722
 30
0.0
 10
30.78011412729998
 20
14.7087137676
 30
0.0
 10
30.59669239670001
 20
14.7128519447
 30
0.0
 10
30.4591650287
 20
14.7162781064
 30
0.0
  0
SPLINE
  5
8A4F8
330
1F
100
AcDbEntity
  8
1
100
AcDbSpline
210
0.0
220
0.0
230
1.0
 70
     8
 71
     3
 72
    19
 73
    15
 74
     0
 42
0.000000001
 43
0.0000001
 40
0.0
 40
0.0
 40
0.0
 40
0.0
 40
0.0177837322
 40
0.036969051
 40
0.0601004216
 40
0.0887146888
 40
0.1236627521
 40
0.1654343644
 40
0.2143420937
 40
0.2706063273
 40
0.4058106515000003
 40
0.5721150611
 40
0.7701553732999999
 40
1.0
 40
1.0
 40
1.0
 40
1.0
 10
22.6463337699
 20
24.40561729260001
 30
0.0
 10
22.64482440859999
 20
24.40993557400001
 30
0.0
 10
22.6435546397
 20
24.41971481119999
 30
0.0
 10
22.64833071369998
 20
24.4347954599
 30
0.0
 10
22.65898857689998
 20
24.44982790350001
 30
0.0
 10
22.67533198960001
 20
24.4651404084
 30
0.0
 10
22.6974998831
 20
24.4808222807
 30
0.0
 10
22.72563199210001
 20
24.49680194920001
 30
0.0
 10
22.75984645849999
 20
24.51293446710001
 30
0.0
 10
22.81732668749999
 20
24.53580418040001
 30
0.0
 10
22.90548687899999
 20
24.5627389741
 30
0.0
 10
23.03120103699999
 20
24.58993062170001
 30
0.0
 10
23.1827820842
 20
24.61062352480001
 30
0.0
 10
23.29277398670001
 20
24.61722598600001
 30
0.0
 10
23.3518794309
 20
24.6186399203
 30
0.0
  0
SPLINE
  5
8A4F9
330
1F
100
AcDbEntity
  8
1
100
AcDbSpline
210
0.0
220
0.0
230
1.0
 70
     8
 71
     3
 72
     9
 73
     5
 74
     0
 42
0.000000001
 43
0.0000001
 40
0.0
 40
0.0
 40
0.0
 40
0.0
 40
0.2634846609
 40
1.0
 40
1.0
 40
1.0
 40
1.0
 10
31.00943185080001
 20
14.7040342195
 30
0.0
 10
31.00880594450001
 20
14.6516469887
 30
0.0
 10
31.00676823020001
 20
14.4528187954
 30
0.0
 10
31.0060940905
 20
14.25397440269999
 30
0.0
 10
31.0066491126
 20
14.1075276395
 30
0.0
  0
SPLINE
  5
8A4FA
330
1F
100
AcDbEntity
  8
1
100
AcDbSpline
210
0.0
220
0.0
230
1.0
 70
     8
 71
     3
 72
    11
 73
     7
 74
     0
 42
0.000000001
 43
0.0000001
 40
0.0
 40
0.0
 40
0.0
 40
0.0
 40
0.2498562944
 40
0.4997447842
 40
0.7497895973000001
 40
1.0
 40
1.0
 40
1.0
 40
1.0
 10
41.21147275869996
 20
15.12284402809999
 30
0.0
 10
40.36722348889997
 20
15.0150105087
 30
0.0
 10
38.67227935619999
 20
14.84702617769999
 30
0.0
 10
36.12104286279998
 20
14.7137609309
 30
0.0
 10
33.56573275580001
 20
14.6704824523
 30
0.0
 10
31.8615748627
 20
14.6869489718
 30
0.0
 10
31.00943185080001
 20
14.7040342195
 30
0.0
  0
SPLINE
  5
8A4FB
330
1F
100
AcDbEntity
  8
1
100
AcDbSpline
210
0.0
220
0.0
230
1.0
 70
     8
 71
     3
 72
    12
 73
     8
 74
     0
 42
0.000000001
 43
0.0000001
 40
0.0
 40
0.0
 40
0.0
 40
0.0
 40
0.2537905057
 40
0.5063288694
 40
0.6316000076
 40
0.7558000357
 40
1.0
 40
1.0
 40
1.0
 40
1.0
 10
27.24543175970001
 20
15.9355375241
 30
0.0
 10
27.19696403149999
 20
16.0705977663
 30
0.0
 10
27.1261256414
 20
16.3500872779
 30
0.0
 10
27.10630710909999
 20
16.7089898264
 30
0.0
 10
27.13262295319998
 20
16.9920523186
 30
0.0
 10
27.1860752314
 20
17.2663269969
 30
0.0
 10
27.2571112178
 20
17.4642386484
 30
0.0
 10
27.31745622829999
 20
17.5884243322
 30
0.0
  0
SPLINE
  5
8A4FC
330
1F
100
AcDbEntity
  8
1
100
AcDbSpline
210
0.0
220
0.0
230
1.0
 70
     8
 71
     3
 72
     9
 73
     5
 74
     0
 42
0.000000001
 43
0.0000001
 40
0.0
 40
0.0
 40
0.0
 40
0.0
 40
0.2664103292
 40
1.0
 40
1.0
 40
1.0
 40
1.0
 10
31.25096883329999
 20
15.3530374405
 30
0.0
 10
31.24364575760001
 20
15.33648020970001
 30
0.0
 10
31.21422415159998
 20
15.2752466991
 30
0.0
 10
31.17632809279999
 20
15.2177645997
 30
0.0
 10
31.14328000680001
 20
15.1804404991
 30
0.0
  0
SPLINE
  5
8A4FD
330
1F
100
AcDbEntity
  8
1
100
AcDbSpline
210
0.0
220
0.0
230
1.0
 70
     8
 71
     3
 72
     9
 73
     5
 74
     0
 42
0.000000001
 43
0.0000001
 40
0.0
 40
0.0
 40
0.0
 40
0.0
 40
0.5001424405
 40
1.0
 40
1.0
 40
1.0
 40
1.0
 10
33.55685846839998
 20
20.30194298720001
 30
0.0
 10
33.55400439749999
 20
20.1378193819
 30
0.0
 10
33.58361617700001
 20
19.8080953138
 30
0.0
 10
33.68300178350001
 20
19.49230623300001
 30
0.0
 10
33.74872047139999
 20
19.34198966399999
 30
0.0
  0
ELLIPSE
  5
8A4FE
330
1F
100
AcDbEntity
  8
1
100
AcDbEllipse
 10
43.60817308559997
 20
21.3086114147
 30
0.0
 11
0.3067078067000004
 21
-0.1118745319000001
 31
0.0
210
0.0
220
0.0
230
1.0
 40
0.5869011493000002
 41
3.142796325799918
 42
6.284388979400095
  0
ELLIPSE
  5
8A4FF
330
1F
100
AcDbEntity
  8
1
100
AcDbEllipse
 10
42.77914283000001
 20
19.021235727
 30
0.0
 11
0.3067078067000004
 21
-0.1118745319000001
 31
0.0
210
0.0
220
0.0
230
1.0
 40
0.5869011493000002
 41
0.001203672200077
 42
3.142796325799918
  0
ELLIPSE
  5
8A500
330
1F
100
AcDbEntity
  8
1
100
AcDbEllipse
 10
42.41462434419998
 20
21.0957371433
 30
0.0
 11
0.2496681855
 21
0.2114864395
 31
0.0
210
0.0
220
0.0
230
1.0
 40
0.5842965262
 41
3.138128609200113
 42
6.279721262799867
  0
ELLIPSE
  5
8A501
330
1F
100
AcDbEntity
  8
1
100
AcDbEllipse
 10
43.97269157139999
 20
19.23410999850001
 30
0.0
 11
0.2496681855
 21
0.2114864395
 31
0.0
210
0.0
220
0.0
230
1.0
 40
0.5842965262
 41
6.279721262799987
 42
9.421313916399974
  0
ELLIPSE
  5
8A502
330
1F
100
AcDbEntity
  8
1
100
AcDbEllipse
 10
43.40426313839997
 20
18.9663540541
 30
0.0
 11
0.3182542762
 21
0.0572228713
 31
0.0
210
0.0
220
0.0
230
1.0
 40
0.5950350855
 41
3.139234315900011
 42
6.280826969499869
  0
ELLIPSE
  5
8A503
330
1F
100
AcDbEntity
  8
1
100
AcDbEllipse
 10
42.2645786525
 20
19.3811525952
 30
0.0
 11
-0.2072504368000001
 21
0.2487010554000001
 31
0.0
210
0.0
220
0.0
230
1.0
 40
0.5936456923
 41
0.0035793254000063
 42
3.145171978999853
  0
ELLIPSE
  5
8A504
330
1F
100
AcDbEntity
  8
1
100
AcDbEllipse
 10
44.33334244359996
 20
19.75012502970001
 30
0.0
 11
0.1103359944
 21
0.3051150585
 31
0.0
210
0.0
220
0.0
230
1.0
 40
0.5910275186999999
 41
3.140371464100399
 42
6.281964117700011
  0
ELLIPSE
  5
8A505
330
1F
100
AcDbEntity
  8
1
100
AcDbEllipse
 10
44.12273726309999
 20
20.9486945465
 30
0.0
 11
-0.2072504368000001
 21
0.2487010554000001
 31
0.0
210
0.0
220
0.0
230
1.0
 40
0.5936456923
 41
3.145171979000002
 42
6.286764632600222
  0
ELLIPSE
  5
8A506
330
1F
100
AcDbEntity
  8
1
100
AcDbEllipse
 10
44.38720669919999
 20
20.3777978423
 30
0.0
 11
-0.0562667565
 21
0.3227125888
 31
0.0
210
0.0
220
0.0
230
1.0
 40
0.5829426562
 41
0.0022605588000541
 42
3.143853212400002
  0
ELLIPSE
  5
8A507
330
1F
100
AcDbEntity
  8
1
100
AcDbEllipse
 10
42.98305277719999
 20
21.3634930877
 30
0.0
 11
0.3182542762
 21
0.0572228713
 31
0.0
210
0.0
220
0.0
230
1.0
 40
0.5950350855
 41
6.280826969499932
 42
9.422419623000063
  0
ELLIPSE
  5
8A508
330
1F
100
AcDbEntity
  8
1
100
AcDbEllipse
 10
42.00010921639999
 20
19.9520492995
 30
0.0
 11
-0.0562667565
 21
0.3227125888
 31
0.0
210
0.0
220
0.0
230
1.0
 40
0.5829426562
 41
3.143853212399521
 42
6.285445866000213
  0
ELLIPSE
  5
8A509
330
1F
100
AcDbEntity
  8
1
100
AcDbEllipse
 10
42.05397347189999
 20
20.579722112
 30
0.0
 11
0.1103359944
 21
0.3051150585
 31
0.0
210
0.0
220
0.0
230
1.0
 40
0.5910275186999999
 41
6.281964117700344
 42
9.423556771199651
  0
ELLIPSE
  5
8A50A
330
1F
100
AcDbEntity
  8
1
100
AcDbEllipse
 10
36.93179466379999
 20
20.1811279018
 30
0.0
 11
0.0282943443000001
 21
0.3232439408000006
 31
0.0
210
0.0
220
0.0
230
1.0
 40
0.5909265622999999
 41
3.142229906899923
 42
6.230998265100279
  0
ELLIPSE
  5
8A50B
330
1F
100
AcDbEntity
  8
1
100
AcDbEllipse
 10
36.8219927708
 20
20.8011848192
 30
0.0
 11
-0.1374016179999999
 21
0.2970693342999999
 31
0.0
210
0.0
220
0.0
230
1.0
 40
0.5839219533000002
 41
0.0033069550001138
 42
3.144899608599758
  0
ELLIPSE
  5
8A50C
330
1F
100
AcDbEntity
  8
1
100
AcDbEllipse
 10
34.62517310679999
 20
19.76996094390001
 30
0.0
 11
-0.1374016179999999
 21
0.2970693342999999
 31
0.0
210
0.0
220
0.0
230
1.0
 40
0.5839219533000002
 41
3.144899608599758
 42
6.286492262200257
  0
ELLIPSE
  5
8A50D
330
1F
100
AcDbEntity
  8
1
100
AcDbEllipse
 10
35.82921231339998
 20
21.49757163510001
 30
0.0
 11
0.3252435541000004
 21
-0.0279950831
 31
0.0
210
0.0
220
0.0
230
1.0
 40
0.5870030098000002
 41
3.140964095100051
 42
6.282556748700042
  0
ELLIPSE
  5
8A50E
330
1F
100
AcDbEntity
  8
1
100
AcDbEllipse
 10
35.61795356419998
 20
19.073574128
 30
0.0
 11
0.3252435541000004
 21
-0.0279950831
 31
0.0
210
0.0
220
0.0
230
1.0
 40
0.5870030098000002
 41
6.282556748700024
 42
9.424149402299995
  0
ELLIPSE
  5
8A50F
330
1F
100
AcDbEntity
  8
1
100
AcDbEllipse
 10
35.02793400899999
 20
19.2874238829
 30
0.0
 11
0.2644786101
 21
-0.186174097
 31
0.0
210
0.0
220
0.0
230
1.0
 40
0.5947535894
 41
3.144381598400061
 42
6.285974251999973
  0
ELLIPSE
  5
8A510
330
1F
100
AcDbEntity
  8
1
100
AcDbEllipse
 10
36.7163633962
 20
19.5891860657
 30
0.0
 11
0.1868391373
 21
0.2689801407
 31
0.0
210
0.0
220
0.0
230
1.0
 40
0.5832153985000002
 41
6.280506800499892
 42
9.422099454100008
  0
ELLIPSE
  5
8A511
330
1F
100
AcDbEntity
  8
1
100
AcDbEllipse
 10
34.51537121379999
 20
20.3900178613
 30
0.0
 11
0.0282943443000001
 21
0.3232439408000006
 31
0.0
210
0.0
220
0.0
230
1.0
 40
0.5909265622999999
 41
0.0006372533001635
 42
3.089405611500021
  0
ELLIPSE
  5
8A512
330
1F
100
AcDbEntity
  8
1
100
AcDbEllipse
 10
36.23614573399999
 20
19.1829789031
 30
0.0
 11
0.2926796349
 21
0.1381163237
 31
0.0
210
0.0
220
0.0
230
1.0
 40
0.5940281134000003
 41
3.138166574700102
 42
6.279759228300108
  0
ELLIPSE
  5
8A513
330
1F
100
AcDbEntity
  8
1
100
AcDbEllipse
 10
34.73080248140002
 20
20.9819596974
 30
0.0
 11
0.1868391373
 21
0.2689801407
 31
0.0
210
0.0
220
0.0
230
1.0
 40
0.5832153985000002
 41
3.138914146899963
 42
6.280506800399918
  0
ELLIPSE
  5
8A514
330
1F
100
AcDbEntity
  8
1
100
AcDbEllipse
 10
36.41923186859998
 20
21.2837218802
 30
0.0
 11
0.2644786101
 21
-0.186174097
 31
0.0
210
0.0
220
0.0
230
1.0
 40
0.5947535894
 41
6.285974251900022
 42
9.427566905500118
  0
ELLIPSE
  5
8A515
330
1F
100
AcDbEntity
  8
1
100
AcDbEllipse
 10
35.2110201436
 20
21.38816686000001
 30
0.0
 11
0.2926796349
 21
0.1381163237
 31
0.0
210
0.0
220
0.0
230
1.0
 40
0.5940281134000003
 41
6.279759228300108
 42
9.421351881899898
  0
ELLIPSE
  5
8A516
330
1F
100
AcDbEntity
  8
1
100
AcDbEllipse
 10
29.95247653019999
 20
-0.0000000010999983
 30
0.0
 11
-7.898357827699999
 21
24.60455951820001
 31
0.0
210
0.0
220
0.0
230
1.0
 40
0.1270052676
 41
5.619145954300011
 42
5.979150158000022
  0
ELLIPSE
  5
8A517
330
1F
100
AcDbEntity
  8
1
100
AcDbEllipse
 10
248.6446493081
 20
-0.0000000010999983
 30
0.0
 11
385.4031698386007
 21
-24.62378648750004
 31
0.0
210
0.0
220
0.0
230
1.0
 40
0.0006343145
 41
2.13886697319999
 42
2.174777970299991
  0
ELLIPSE
  5
8A518
330
1F
100
AcDbEntity
  8
1
100
AcDbEllipse
 10
31.85560607939999
 20
43.99366516869998
 30
0.0
 11
16.11030175079999
 21
12.1070057284
 31
0.0
210
0.0
220
0.0
230
1.0
 40
0.9836751634999995
 41
3.896233721299998
 42
4.034222341199998
  0
ELLIPSE
  5
8A519
330
1F
100
AcDbEntity
  8
1
100
AcDbEllipse
 10
34.10825912389999
 20
23.99913242460001
 30
0.0
 11
2.841282303000003
 21
-0.0733678427000002
 31
0.0
210
0.0
220
0.0
230
1.0
 40
0.0116962053
 41
3.833818949399926
 42
3.947430523299923
  0
ELLIPSE
  5
8A51A
330
1F
100
AcDbEntity
  8
1
100
AcDbEllipse
 10
30.25269515349999
 20
14.6784067888
 30
0.0
 11
5.9739274918
 21
-3.136548278099998
 31
0.0
210
0.0
220
0.0
230
1.0
 40
0.0978585058
 41
4.427119149400009
 42
4.601956250100004
  0
ELLIPSE
  5
8A51B
330
1F
100
AcDbEntity
  8
1
100
AcDbEllipse
 10
29.62835677909999
 20
11.7573294337
 30
0.0
 11
-3.582356824600002
 21
13.2806422882
 31
0.0
210
0.0
220
0.0
230
1.0
 40
0.1372890746
 41
0.9202179507999968
 42
1.047102725299994
  0
ELLIPSE
  5
8A51C
330
1F
100
AcDbEntity
  8
1
100
AcDbEllipse
 10
36.16942332420001
 20
17.0747859874
 30
0.0
 11
6.4541589849
 21
2.337832324699999
 31
0.0
210
0.0
220
0.0
230
1.0
 40
0.0161782067
 41
3.393581658399893
 42
3.92720965199989
  0
ELLIPSE
  5
8A51D
330
1F
100
AcDbEntity
  8
1
100
AcDbEllipse
 10
27.59634152679999
 20
-0.0000000010999983
 30
0.0
 11
-0.332217092
 21
24.6249827815
 31
0.0
210
0.0
220
0.0
230
1.0
 40
0.0876553108
 41
0.6617400113999956
 42
0.7475599636999848
  0
ELLIPSE
  5
8A51E
330
1F
100
AcDbEntity
  8
1
100
AcDbEllipse
 10
55.676552447
 20
-0.0000000010999983
 30
0.0
 11
44.07684213329999
 21
-24.6169602403
 31
0.0
210
0.0
220
0.0
230
1.0
 40
0.0142750859
 41
4.023855955000011
 42
4.051716096800017
  0
ELLIPSE
  5
8A51F
330
1F
100
AcDbEntity
  8
1
100
AcDbEllipse
 10
29.8375379517
 20
16.5685789787
 30
0.0
 11
7.0803521964
 21
11.7111636653
 31
0.0
210
0.0
220
0.0
230
1.0
 40
0.1813788431
 41
0.9936944606000087
 42
1.333155114400001
  0
ELLIPSE
  5
8A520
330
1F
100
AcDbEntity
  8
1
100
AcDbEllipse
 10
10.81398496029999
 20
67.35092500190001
 30
0.0
 11
-24.6626840454
 21
70.908320013
 31
0.0
210
0.0
220
0.0
230
1.0
 40
0.0399310235
 41
3.978184226199988
 42
4.046438507299991
  0
VIEWPORT
  5
71
102
{ACAD_XDICTIONARY
360
8769D
102
}
330
55
100
AcDbEntity
 67
     1
  8
0
100
AcDbViewport
 10
150.1652135264906
 20
103.6581106594891
 30
0.0
 40
339.1973820494347
 41
168.6522697578383
 68
     1
 69
    -1
 12
150.1652135264906
 22
103.6581106594891
 13
0.0
 23
0.0
 14
10.0
 24
10.0
 15
10.0
 25
10.0
 16
0.0
 26
0.0
 36
1.0
 17
0.0
 27
0.0
 37
0.0
 42
50.0
 43
0.0
 44
0.0
 45
168.6522697578383
 50
0.0
 51
0.0
 72
  1000
 90
    32864
  1

281
     0
 71
     1
 74
     0
110
0.0
120
0.0
130
0.0
111
1.0
121
0.0
131
0.0
112
0.0
122
1.0
132
0.0
 79
     0
146
0.0
  0
VIEWPORT
  5
73
102
{ACAD_XDICTIONARY
360
8769F
102
}
330
55
100
AcDbEntity
 67
     1
  8
0
100
AcDbViewport
 10
133.3499939441681
 20
101.5999939441681
 30
0.0
 40
213.3599903106689
 41
162.5599903106689
 68
     2
 69
    -1
 12
210.0
 22
148.5
 13
0.0
 23
0.0
 14
10.0
 24
10.0
 15
10.0
 25
10.0
 16
0.0
 26
0.0
 36
1.0
 17
0.0
 27
0.0
 37
0.0
 42
50.0
 43
0.0
 44
0.0
 45
324.0677920111345
 50
0.0
 51
0.0
 72
   100
 90
    32864
  1

281
     0
 71
     1
 74
     0
110
0.0
120
0.0
130
0.0
111
1.0
121
0.0
131
0.0
112
0.0
122
1.0
132
0.0
 79
     0
146
0.0
  0
ENDSEC
  0
SECTION
  2
OBJECTS
  0
DICTIONARY
  5
C
330
0
100
AcDbDictionary
281
     1
  3
ACAD_CIP_PREVIOUS_PRODUCT_INFO
350
4A3C3
  3
ACAD_COLOR
350
85
  3
ACAD_DETAILVIEWSTYLE
350
4A3BB
  3
ACAD_GROUP
350
D
  3
ACAD_LAYOUT
350
1A
  3
ACAD_MATERIAL
350
84
  3
ACAD_MLEADERSTYLE
350
4A3B7
  3
ACAD_MLINESTYLE
350
17
  3
ACAD_PLOTSETTINGS
350
19
  3
ACAD_PLOTSTYLENAME
350
E
  3
ACAD_SCALELIST
350
4A3A5
  3
ACAD_SECTIONVIEWSTYLE
350
4A3B9
  3
ACAD_TABLESTYLE
350
A1
  3
ACAD_VISUALSTYLE
350
4A38C
  3
ACDB_RECOMPOSE_DATA
350
8A9B3
  3
ACDBHEADERROUNDTRIPXREC
350
8AD6B
  3
AcDbVariableDictionary
350
5E
  3
ASE_INDEX_DICTIONARY
350
349E9
  3
DWGPROPS
350
8AD6E
  0
DICTIONARY
  5
87DC4
330
8
100
AcDbDictionary
280
     1
281
     1
  3
ACAD_XREC_ROUNDTRIP
360
8AD73
  0
DICTIONARY
  5
E2
330
2
100
AcDbDictionary
280
     1
281
     1
  3
ACAD_LAYERFILTERS
360
4A339
  3
ACAD_LAYERSTATES
360
3759A
  3
ACLYDICTIONARY
360
4A338
  0
DICTIONARY
  5
4A86C
330
10
100
AcDbDictionary
280
     1
281
     1
  3
ADSK_XREC_LAYER_RECONCILED
360
4A86D
  0
DICTIONARY
  5
4A773
330
4A772
100
AcDbDictionary
280
     1
281
     1
  3
ADSK_XREC_LAYER_RECONCILED
360
4A86E
  0
DICTIONARY
  5
4A775
330
4A774
100
AcDbDictionary
280
     1
281
     1
  3
ADSK_XREC_LAYER_RECONCILED
360
4A86F
  0
DICTIONARY
  5
4A777
330
4A776
100
AcDbDictionary
280
     1
281
     1
  3
ADSK_XREC_LAYER_RECONCILED
360
4A870
  0
DICTIONARY
  5
4A779
330
4A778
100
AcDbDictionary
280
     1
281
     1
  3
ADSK_XREC_LAYER_RECONCILED
360
4A871
  0
DICTIONARY
  5
4A77B
330
4A77A
100
AcDbDictionary
280
     1
281
     1
  3
ADSK_XREC_LAYER_RECONCILED
360
4A872
  0
DICTIONARY
  5
4A77F
330
4A77E
100
AcDbDictionary
280
     1
281
     1
  3
ADSK_XREC_LAYER_RECONCILED
360
4A874
  0
DICTIONARY
  5
4A783
330
4A782
100
AcDbDictionary
280
     1
281
     1
  3
ADSK_XREC_LAYER_RECONCILED
360
4A876
  0
DICTIONARY
  5
31EE
330
1F
100
AcDbDictionary
280
     1
281
     1
  3
ACAD_SORTENTS
360
31EF
  0
DICTIONARY
  5
87699
330
6B
100
AcDbDictionary
280
     1
281
     1
  3
ACAD_XREC_ROUNDTRIP
360
8AD71
  0
DICTIONARY
  5
8769B
330
6D
100
AcDbDictionary
280
     1
281
     1
  3
ACAD_XREC_ROUNDTRIP
360
8AD72
  0
DICTIONARY
  5
8769D
330
71
100
AcDbDictionary
280
     1
281
     1
  3
ACAD_XREC_ROUNDTRIP
360
8AD6F
  0
DICTIONARY
  5
8769F
330
73
100
AcDbDictionary
280
     1
281
     1
  3
ACAD_XREC_ROUNDTRIP
360
8AD70
  0
XRECORD
  5
4A3C3
102
{ACAD_REACTORS
330
C
102
}
330
C
100
AcDbXrecord
280
     1
300
ACDLT
300
2020
300

  0
DICTIONARY
  5
85
102
{ACAD_REACTORS
330
C
102
}
330
C
100
AcDbDictionary
281
     1
  0
DICTIONARY
  5
4A3BB
102
{ACAD_REACTORS
330
C
102
}
330
C
100
AcDbDictionary
281
     1
  3
Metric50
350
4A3BC
  0
DICTIONARY
  5
D
102
{ACAD_REACTORS
330
C
102
}
330
C
100
AcDbDictionary
281
     1
  0
DICTIONARY
  5
1A
102
{ACAD_REACTORS
330
C
102
}
330
C
100
AcDbDictionary
281
     1
  3
Model
350
22
  3
レイアウト1
350
51
  3
レイアウト2
350
56
  0
DICTIONARY
  5
84
102
{ACAD_REACTORS
330
C
102
}
330
C
100
AcDbDictionary
281
     1
  3
ByBlock
350
4A37C
  3
ByLayer
350
4A374
  3
Global
350
4A384
  0
DICTIONARY
  5
4A3B7
102
{ACAD_REACTORS
330
C
102
}
330
C
100
AcDbDictionary
281
     1
  3
Standard
350
4A3B8
  0
DICTIONARY
  5
17
102
{ACAD_REACTORS
330
C
102
}
330
C
100
AcDbDictionary
281
     1
  3
Standard
350
18
  0
DICTIONARY
  5
19
102
{ACAD_REACTORS
330
C
102
}
330
C
100
AcDbDictionary
281
     1
  0
ACDBDICTIONARYWDFLT
  5
E
102
{ACAD_REACTORS
330
C
102
}
330
C
100
AcDbDictionary
281
     1
  3
Normal
350
F
100
AcDbDictionaryWithDefault
340
F
  0
DICTIONARY
  5
4A3A5
102
{ACAD_REACTORS
330
C
102
}
330
C
100
AcDbDictionary
281
     1
  3
A0
350
4A3A6
  3
A1
350
4A3A7
  3
A2
350
4A3A8
  3
A3
350
4A3A9
  3
A4
350
4A3AA
  3
A5
350
4A3AB
  3
A6
350
4A3AC
  3
A7
350
4A3AD
  3
A8
350
4A3AE
  3
A9
350
4A3AF
  3
B0
350
4A3B0
  3
B1
350
4A3B1
  3
B2
350
4A3B2
  3
B3
350
4A3B3
  3
B4
350
4A3B4
  3
B5
350
4A3B5
  3
B6
350
4A3B6
  0
DICTIONARY
  5
4A3B9
102
{ACAD_REACTORS
330
C
102
}
330
C
100
AcDbDictionary
281
     1
  3
Metric50
350
4A3BA
  0
DICTIONARY
  5
A1
102
{ACAD_REACTORS
330
C
102
}
330
C
100
AcDbDictionary
281
     1
  3
Standard
350
A2
  0
DICTIONARY
  5
4A38C
102
{ACAD_REACTORS
330
C
102
}
330
C
100
AcDbDictionary
281
     1
  3
2dWireframe
350
4A392
  3
Basic
350
4A391
  3
Brighten
350
4A398
  3
ColorChange
350
4A39C
  3
Conceptual
350
4A395
  3
Dim
350
4A397
  3
EdgeColorOff
350
4A3A4
  3
Facepattern
350
4A39B
  3
Flat
350
4A38D
  3
FlatWithEdges
350
4A38E
  3
Gouraud
350
4A38F
  3
GouraudWithEdges
350
4A390
  3
Hidden
350
4A394
  3
JitterOff
350
4A3A2
  3
Linepattern
350
4A39A
  3
OverhangOff
350
4A3A3
  3
Realistic
350
4A396
  3
Shaded
350
4A3A1
  3
Shaded with edges
350
4A3A0
  3
Shades of Gray
350
4A39D
  3
Sketchy
350
4A39E
  3
Thicken
350
4A399
  3
Wireframe
350
4A393
  3
X-Ray
350
4A39F
  0
XRECORD
  5
8A9B3
102
{ACAD_REACTORS
330
C
102
}
330
C
100
AcDbXrecord
280
     1
 90
        1
330
A2
  0
DICTIONARY
  5
8AD6B
102
{ACAD_REACTORS
330
C
102
}
330
C
100
AcDbDictionary
281
     1
  3
COLORDICT
350
8AD6C
  3
MATERIALDICT
350
8AD6D
  0
DICTIONARY
  5
5E
102
{ACAD_REACTORS
330
C
102
}
330
C
100
AcDbDictionary
281
     1
  3
CANNOSCALE
350
8AA85
  3
CMLEADERSTYLE
350
4A6CE
  3
CTABLESTYLE
350
B8
  3
CVIEWDETAILSTYLE
350
4A6CF
  3
CVIEWSECTIONSTYLE
350
4A6D0
  3
DIMASSOC
350
5F
  3
HIDETEXT
350
63
  3
INDEXCTL
350
4A879
  3
LAYEREVAL
350
4A6D4
  3
LAYERNOTIFY
350
4A6D5
  3
LIGHTINGUNITS
350
4A6D3
  3
MSLTSCALE
350
4A6D1
  3
PROJECTNAME
350
31CE
  3
SORTENTS
350
4A878
  3
XCLIPFRAME
350
5A559
  0
DICTIONARY
  5
349E9
102
{ACAD_REACTORS
330
C
102
}
330
C
100
AcDbDictionary
281
     1
  3
ASEBlockHierarchyIndexRecord
350
349EA
1001
DCO15
1040
1842496176.844
  0
XRECORD
  5
8AD6E
102
{ACAD_REACTORS
330
C
102
}
330
C
100
AcDbXrecord
280
     1
  1
DWGPROPS COOKIE
  2

  3

  4

  6

  7

  8
zhangnw
  9

300
=
301
=
302
=
303
=
304
=
305
=
306
=
307
=
308
=
309
=
 40
0.0
 41
2455489.391063368
 42
2458925.714415243
  1

 90
        0
  0
XRECORD
  5
8AD73
102
{ACAD_REACTORS
330
87DC4
102
}
330
87DC4
100
AcDbXrecord
280
     1
102
VTR_0.000_0.000_1.000_1.000_VISUALSTYLE
340
4A392
102
VTR_0.000_0.000_1.000_1.000_GRIDDISPLAY
 70
     3
102
VTR_0.000_0.000_1.000_1.000_GRIDMAJOR
 70
     5
102
VTR_0.000_0.000_1.000_1.000_DEFAULTLIGHTING
280
     1
102
VTR_0.000_0.000_1.000_1.000_DEFAULTLIGHTINGTYPE
 70
     1
102
VTR_0.000_0.000_1.000_1.000_BRIGHTNESS
141
0.0
102
VTR_0.000_0.000_1.000_1.000_CONTRAST
142
0.0
  0
DICTIONARY
  5
4A339
102
{ACAD_REACTORS
330
E2
102
}
330
E2
100
AcDbDictionary
281
     1
  0
DICTIONARY
  5
3759A
102
{ACAD_REACTORS
330
E2
102
}
330
E2
100
AcDbDictionary
281
     1
  0
DICTIONARY
  5
4A338
102
{ACAD_REACTORS
330
E2
102
}
330
E2
100
AcDbDictionary
281
     1
1001
ACAD
1000
<All
  0
XRECORD
  5
4A86D
102
{ACAD_REACTORS
330
4A86C
102
}
330
4A86C
100
AcDbXrecord
280
     1
290
     1
  0
XRECORD
  5
4A86E
102
{ACAD_REACTORS
330
4A773
102
}
330
4A773
100
AcDbXrecord
280
     1
290
     1
  0
XRECORD
  5
4A86F
102
{ACAD_REACTORS
330
4A775
102
}
330
4A775
100
AcDbXrecord
280
     1
290
     1
  0
XRECORD
  5
4A870
102
{ACAD_REACTORS
330
4A777
102
}
330
4A777
100
AcDbXrecord
280
     1
290
     1
  0
XRECORD
  5
4A871
102
{ACAD_REACTORS
330
4A779
102
}
330
4A779
100
AcDbXrecord
280
     1
290
     1
  0
XRECORD
  5
4A872
102
{ACAD_REACTORS
330
4A77B
102
}
330
4A77B
100
AcDbXrecord
280
     1
290
     1
  0
XRECORD
  5
4A874
102
{ACAD_REACTORS
330
4A77F
102
}
330
4A77F
100
AcDbXrecord
280
     1
290
     1
  0
XRECORD
  5
4A876
102
{ACAD_REACTORS
330
4A783
102
}
330
4A783
100
AcDbXrecord
280
     1
290
     1
  0
SORTENTSTABLE
  5
31EF
102
{ACAD_REACTORS
330
31EE
102
}
330
31EE
100
AcDbSortentsTable
330
1F
  0
XRECORD
  5
8AD71
102
{ACAD_REACTORS
330
87699
102
}
330
87699
100
AcDbXrecord
280
     1
102
GRIDDISPLAY
 70
     0
102
GRIDMAJOR
 70
     5
102
DEFAULTLIGHTING
280
     1
102
DEFAULTLIGHTINGTYPE
 70
     1
102
BRIGHTNESS
141
0.0
102
CONTRAST
142
0.0
  0
XRECORD
  5
8AD72
102
{ACAD_REACTORS
330
8769B
102
}
330
8769B
100
AcDbXrecord
280
     1
102
GRIDDISPLAY
 70
     0
102
GRIDMAJOR
 70
     5
102
DEFAULTLIGHTING
280
     1
102
DEFAULTLIGHTINGTYPE
 70
     1
102
BRIGHTNESS
141
0.0
102
CONTRAST
142
0.0
  0
XRECORD
  5
8AD6F
102
{ACAD_REACTORS
330
8769D
102
}
330
8769D
100
AcDbXrecord
280
     1
102
GRIDDISPLAY
 70
     0
102
GRIDMAJOR
 70
     5
102
DEFAULTLIGHTING
280
     1
102
DEFAULTLIGHTINGTYPE
 70
     1
102
BRIGHTNESS
141
0.0
102
CONTRAST
142
0.0
  0
XRECORD
  5
8AD70
102
{ACAD_REACTORS
330
8769F
102
}
330
8769F
100
AcDbXrecord
280
     1
102
GRIDDISPLAY
 70
     0
102
GRIDMAJOR
 70
     5
102
DEFAULTLIGHTING
280
     1
102
DEFAULTLIGHTINGTYPE
 70
     1
102
BRIGHTNESS
141
0.0
102
CONTRAST
142
0.0
  0
ACDBDETAILVIEWSTYLE
  5
4A3BC
102
{ACAD_XDICTIONARY
360
876D4
102
}
102
{ACAD_REACTORS
330
4A3BB
102
}
330
4A3BB
100
AcDbModelDocViewStyle
 70
     0
  3
Metric50
290
     0
100
AcDbDetailViewStyle
 70
     0
 71
     0
 90
        3
 71
     1
340
11
 40
5.0
340
0
 40
5.0
300

 40
0.0
280
     1
 71
     2
340
16
 90
       25
 71
     3
340
11
 40
5.0
 90
        0
 40
15.0
 90
        1
300
%<\AcVar ViewDetailId>% (%<\AcVar ViewScale \f "%sn">%)
 71
     4
340
16
 90
       25
340
16
 90
       25
280
     0
  0
LAYOUT
  5
22
102
{ACAD_REACTORS
330
1A
102
}
330
1A
100
AcDbPlotSettings
  1

  2
none_device
  4
ANSI_A_(8.50_x_11.00_Inches)
  6

 40
6.349999904632567
 41
19.04999923706055
 42
6.350006103515625
 43
19.04998779296875
 44
215.8999938964844
 45
279.3999938964844
 46
0.0
 47
0.0
 48
0.0
 49
0.0
140
0.0
141
0.0
142
1.0
143
78.436453180766
 70
 11952
 72
     0
 73
     1
 74
     0
  7

 75
     0
147
0.0127491741332998
148
0.0
149
0.0
100
AcDbLayout
  1
Model
 70
     1
 71
     0
 10
0.0
 20
0.0
 11
12.0
 21
9.0
 12
0.0
 22
0.0
 32
0.0
 14
0.0
 24
0.0
 34
0.0
 15
0.0
 25
0.0
 35
0.0
146
0.0
 13
0.0
 23
0.0
 33
0.0
 16
1.0
 26
0.0
 36
0.0
 17
0.0
 27
1.0
 37
0.0
 76
     0
330
1F
331
4A360
  0
LAYOUT
  5
51
102
{ACAD_REACTORS
330
1A
102
}
330
1A
100
AcDbPlotSettings
  1

  2
none_device
  4
Letter_(8.50_x_11.00_Inches)
  6

 40
6.349999904632567
 41
6.349999904632567
 42
6.350006103515625
 43
6.350006103515625
 44
215.8999938964844
 45
279.3999938964844
 46
0.0
 47
0.0
 48
0.0
 49
0.0
140
0.0
141
0.0
142
1.0
143
1.0
 70
   688
 72
     1
 73
     1
 74
     5
  7

 75
    16
147
1.0
148
0.0
149
0.0
100
AcDbLayout
  1
レイアウト1
 70
     1
 71
     1
 10
-6.350006103515625
 20
-6.349999904632567
 11
273.0499877929688
 21
209.5499939918518
 12
0.0
 22
0.0
 32
0.0
 14
26.66999878883364
 24
20.31999878883365
 34
0.0
 15
240.0299890995025
 25
182.8799890995025
 35
0.0
146
0.0
 13
0.0
 23
0.0
 33
0.0
 16
1.0
 26
0.0
 36
0.0
 17
0.0
 27
1.0
 37
0.0
 76
     0
330
50
331
6B
  0
LAYOUT
  5
56
102
{ACAD_REACTORS
330
1A
102
}
330
1A
100
AcDbPlotSettings
  1

  2
none_device
  4
Letter_(8.50_x_11.00_Inches)
  6

 40
6.349999904632567
 41
6.349999904632567
 42
6.350006103515625
 43
6.350006103515625
 44
215.8999938964844
 45
279.3999938964844
 46
0.0
 47
0.0
 48
0.0
 49
0.0
140
0.0
141
0.0
142
1.0
143
1.0
 70
   688
 72
     1
 73
     1
 74
     5
  7

 75
    16
147
1.0
148
0.0
149
0.0
100
AcDbLayout
  1
レイアウト2
 70
     1
 71
     2
 10
-6.350006103515625
 20
-6.349999904632567
 11
273.0499877929688
 21
209.5499939918518
 12
0.0
 22
0.0
 32
0.0
 14
26.66999878883364
 24
20.31999878883365
 34
0.0
 15
240.0299890995025
 25
182.8799890995025
 35
0.0
146
0.0
 13
0.0
 23
0.0
 33
0.0
 16
1.0
 26
0.0
 36
0.0
 17
0.0
 27
1.0
 37
0.0
 76
     0
330
55
331
71
  0
MATERIAL
  5
4A37C
102
{ACAD_XDICTIONARY
360
4A37D
102
}
102
{ACAD_REACTORS
330
84
102
}
330
84
100
AcDbMaterial
  1
ByBlock
 72
     0
 73
     2
 43
0.0008202099737533
 43
0.0
 43
0.0
 43
0.0
 43
0.0
 43
0.0008202099737533
 43
0.0
 43
0.0
 43
0.0
 43
0.0
 43
1.0
 43
0.0
 43
0.0
 43
0.0
 43
0.0
 43
1.0
 77
     0
 78
     2
 47
0.0008202099737533
 47
0.0
 47
0.0
 47
0.0
 47
0.0
 47
0.0008202099737533
 47
0.0
 47
0.0
 47
0.0
 47
0.0
 47
1.0
 47
0.0
 47
0.0
 47
0.0
 47
0.0
 47
1.0
171
     0
172
     2
 49
0.0008202099737533
 49
0.0
 49
0.0
 49
0.0
 49
0.0
 49
0.0008202099737533
 49
0.0
 49
0.0
 49
0.0
 49
0.0
 49
1.0
 49
0.0
 49
0.0
 49
0.0
 49
0.0
 49
1.0
175
     0
176
     2
142
0.0008202099737533
142
0.0
142
0.0
142
0.0
142
0.0
142
0.0008202099737533
142
0.0
142
0.0
142
0.0
142
0.0
142
1.0
142
0.0
142
0.0
142
0.0
142
0.0
142
1.0
179
     0
270
     2
144
0.0008202099737533
144
0.0
144
0.0
144
0.0
144
0.0
144
0.0008202099737533
144
0.0
144
0.0
144
0.0
144
0.0
144
1.0
144
0.0
144
0.0
144
0.0
144
0.0
144
1.0
274
     2
147
0.0008202099737533
147
0.0
147
0.0
147
0.0
147
0.0
147
0.0008202099737533
147
0.0
147
0.0
147
0.0
147
0.0
147
1.0
147
0.0
147
0.0
147
0.0
147
0.0
147
1.0
  0
MATERIAL
  5
4A374
102
{ACAD_XDICTIONARY
360
4A375
102
}
102
{ACAD_REACTORS
330
84
102
}
330
84
100
AcDbMaterial
  1
ByLayer
 72
     0
 73
     2
 43
0.0008202099737533
 43
0.0
 43
0.0
 43
0.0
 43
0.0
 43
0.0008202099737533
 43
0.0
 43
0.0
 43
0.0
 43
0.0
 43
1.0
 43
0.0
 43
0.0
 43
0.0
 43
0.0
 43
1.0
 77
     0
 78
     2
 47
0.0008202099737533
 47
0.0
 47
0.0
 47
0.0
 47
0.0
 47
0.0008202099737533
 47
0.0
 47
0.0
 47
0.0
 47
0.0
 47
1.0
 47
0.0
 47
0.0
 47
0.0
 47
0.0
 47
1.0
171
     0
172
     2
 49
0.0008202099737533
 49
0.0
 49
0.0
 49
0.0
 49
0.0
 49
0.0008202099737533
 49
0.0
 49
0.0
 49
0.0
 49
0.0
 49
1.0
 49
0.0
 49
0.0
 49
0.0
 49
0.0
 49
1.0
175
     0
176
     2
142
0.0008202099737533
142
0.0
142
0.0
142
0.0
142
0.0
142
0.0008202099737533
142
0.0
142
0.0
142
0.0
142
0.0
142
1.0
142
0.0
142
0.0
142
0.0
142
0.0
142
1.0
179
     0
270
     2
144
0.0008202099737533
144
0.0
144
0.0
144
0.0
144
0.0
144
0.0008202099737533
144
0.0
144
0.0
144
0.0
144
0.0
144
1.0
144
0.0
144
0.0
144
0.0
144
0.0
144
1.0
274
     2
147
0.0008202099737533
147
0.0
147
0.0
147
0.0
147
0.0
147
0.0008202099737533
147
0.0
147
0.0
147
0.0
147
0.0
147
1.0
147
0.0
147
0.0
147
0.0
147
0.0
147
1.0
  0
MATERIAL
  5
4A384
102
{ACAD_XDICTIONARY
360
4A385
102
}
102
{ACAD_REACTORS
330
84
102
}
330
84
100
AcDbMaterial
  1
Global
 72
     0
 73
     2
 43
0.0008202099737533
 43
0.0
 43
0.0
 43
0.0
 43
0.0
 43
0.0008202099737533
 43
0.0
 43
0.0
 43
0.0
 43
0.0
 43
1.0
 43
0.0
 43
0.0
 43
0.0
 43
0.0
 43
1.0
 77
     0
 78
     2
 47
0.0008202099737533
 47
0.0
 47
0.0
 47
0.0
 47
0.0
 47
0.0008202099737533
 47
0.0
 47
0.0
 47
0.0
 47
0.0
 47
1.0
 47
0.0
 47
0.0
 47
0.0
 47
0.0
 47
1.0
171
     0
172
     2
 49
0.0008202099737533
 49
0.0
 49
0.0
 49
0.0
 49
0.0
 49
0.0008202099737533
 49
0.0
 49
0.0
 49
0.0
 49
0.0
 49
1.0
 49
0.0
 49
0.0
 49
0.0
 49
0.0
 49
1.0
175
     0
176
     2
142
0.0008202099737533
142
0.0
142
0.0
142
0.0
142
0.0
142
0.0008202099737533
142
0.0
142
0.0
142
0.0
142
0.0
142
1.0
142
0.0
142
0.0
142
0.0
142
0.0
142
1.0
179
     0
270
     2
144
0.0008202099737533
144
0.0
144
0.0
144
0.0
144
0.0
144
0.0008202099737533
144
0.0
144
0.0
144
0.0
144
0.0
144
1.0
144
0.0
144
0.0
144
0.0
144
0.0
144
1.0
274
     2
147
0.0008202099737533
147
0.0
147
0.0
147
0.0
147
0.0
147
0.0008202099737533
147
0.0
147
0.0
147
0.0
147
0.0
147
1.0
147
0.0
147
0.0
147
0.0
147
0.0
147
1.0
  0
MLEADERSTYLE
  5
4A3B8
102
{ACAD_XDICTIONARY
360
87DC9
102
}
102
{ACAD_REACTORS
330
4A3B7
102
}
330
4A3B7
100
AcDbMLeaderStyle
170
     2
171
     1
172
     0
 90
        2
 40
0.0
 41
0.0
173
     1
 91
-1056964608
340
14
 92
       -2
290
     1
 42
2.0
291
     1
 43
0.36
  3
Standard
 44
4.0
300

342
11
174
     1
178
     6
175
     1
176
     0
 93
-1056964608
 45
4.0
292
     0
297
     0
 46
4.0
 94
-1056964608
 47
1.0
 49
1.0
140
1.0
293
     1
141
0.0
294
     1
177
     0
142
1.0
295
     0
296
     0
143
0.125
1001
ACAD_MLEADERVER
1070
     2
  0
MLINESTYLE
  5
18
102
{ACAD_REACTORS
330
17
102
}
330
17
100
AcDbMlineStyle
  2
STANDARD
 70
     0
  3

 62
   256
 51
90.0
 52
90.0
 71
     2
 49
0.5
 62
   256
  6
BYLAYER
 49
-0.5
 62
   256
  6
BYLAYER
  0
ACDBPLACEHOLDER
  5
F
102
{ACAD_REACTORS
330
E
102
}
330
E
  0
SCALE
  5
4A3A6
102
{ACAD_REACTORS
330
4A3A5
102
}
330
4A3A5
100
AcDbScale
 70
     0
300
1:1
140
1.0
141
1.0
290
     1
  0
SCALE
  5
4A3A7
102
{ACAD_REACTORS
330
4A3A5
102
}
330
4A3A5
100
AcDbScale
 70
     0
300
1:2
140
1.0
141
2.0
290
     0
  0
SCALE
  5
4A3A8
102
{ACAD_REACTORS
330
4A3A5
102
}
330
4A3A5
100
AcDbScale
 70
     0
300
1:4
140
1.0
141
4.0
290
     0
  0
SCALE
  5
4A3A9
102
{ACAD_REACTORS
330
4A3A5
102
}
330
4A3A5
100
AcDbScale
 70
     0
300
1:5
140
1.0
141
5.0
290
     0
  0
SCALE
  5
4A3AA
102
{ACAD_REACTORS
330
4A3A5
102
}
330
4A3A5
100
AcDbScale
 70
     0
300
1:8
140
1.0
141
8.0
290
     0
  0
SCALE
  5
4A3AB
102
{ACAD_REACTORS
330
4A3A5
102
}
330
4A3A5
100
AcDbScale
 70
     0
300
1:10
140
1.0
141
10.0
290
     0
  0
SCALE
  5
4A3AC
102
{ACAD_REACTORS
330
4A3A5
102
}
330
4A3A5
100
AcDbScale
 70
     0
300
1:16
140
1.0
141
16.0
290
     0
  0
SCALE
  5
4A3AD
102
{ACAD_REACTORS
330
4A3A5
102
}
330
4A3A5
100
AcDbScale
 70
     0
300
1:20
140
1.0
141
20.0
290
     0
  0
SCALE
  5
4A3AE
102
{ACAD_REACTORS
330
4A3A5
102
}
330
4A3A5
100
AcDbScale
 70
     0
300
1:30
140
1.0
141
30.0
290
     0
  0
SCALE
  5
4A3AF
102
{ACAD_REACTORS
330
4A3A5
102
}
330
4A3A5
100
AcDbScale
 70
     0
300
1:40
140
1.0
141
40.0
290
     0
  0
SCALE
  5
4A3B0
102
{ACAD_REACTORS
330
4A3A5
102
}
330
4A3A5
100
AcDbScale
 70
     0
300
1:50
140
1.0
141
50.0
290
     0
  0
SCALE
  5
4A3B1
102
{ACAD_REACTORS
330
4A3A5
102
}
330
4A3A5
100
AcDbScale
 70
     0
300
1:100
140
1.0
141
100.0
290
     0
  0
SCALE
  5
4A3B2
102
{ACAD_REACTORS
330
4A3A5
102
}
330
4A3A5
100
AcDbScale
 70
     0
300
2:1
140
2.0
141
1.0
290
     0
  0
SCALE
  5
4A3B3
102
{ACAD_REACTORS
330
4A3A5
102
}
330
4A3A5
100
AcDbScale
 70
     0
300
4:1
140
4.0
141
1.0
290
     0
  0
SCALE
  5
4A3B4
102
{ACAD_REACTORS
330
4A3A5
102
}
330
4A3A5
100
AcDbScale
 70
     0
300
8:1
140
8.0
141
1.0
290
     0
  0
SCALE
  5
4A3B5
102
{ACAD_REACTORS
330
4A3A5
102
}
330
4A3A5
100
AcDbScale
 70
     0
300
10:1
140
10.0
141
1.0
290
     0
  0
SCALE
  5
4A3B6
102
{ACAD_REACTORS
330
4A3A5
102
}
330
4A3A5
100
AcDbScale
 70
     0
300
100:1
140
100.0
141
1.0
290
     0
  0
ACDBSECTIONVIEWSTYLE
  5
4A3BA
102
{ACAD_XDICTIONARY
360
876D2
102
}
102
{ACAD_REACTORS
330
4A3B9
102
}
330
4A3B9
100
AcDbModelDocViewStyle
 70
     0
  3
Metric50
290
     0
100
AcDbSectionViewStyle
 70
     0
 71
     0
 90
      102
 71
     1
340
11
 40
5.0
340
0
340
0
 40
5.0
300
I, O, Q, S, X, Z
 40
10.0
 90
        0
 40
2.5
 90
        0
 71
     2
340
16
 90
       25
340
16
 90
       50
 40
5.0
 40
2.5
 40
5.0
 71
     3
340
11
 40
5.0
 90
        0
 40
15.0
 90
        1
300
%<\AcVar ViewSectionStartId>%-%<\AcVar ViewSectionEndId>% (%<\AcVar ViewScale \f "%sn">%)
 71
     4
300
ANSI31
 40
1.0
 90
        0
290
     0
290
     0
 90
        6
 40
0.0
 40
1.570796326794896
 40
0.2617993877991494
 40
1.308996938995747
 40
-0.2617993877991494
 40
1.832595714594044
  0
TABLESTYLE
  5
A2
102
{ACAD_XDICTIONARY
360
4CD9A
102
}
102
{ACAD_REACTORS
330
A1
102
}
330
A1
100
AcDbTableStyle
  3
Standard
 70
     0
 71
     0
 40
1.5
 41
1.5
280
     0
281
     0
  7
Standard
140
4.5
170
     2
 62
     0
 63
   257
283
     0
274
    -2
284
     1
 64
     0
275
    -2
285
     1
 65
     0
276
    -2
286
     1
 66
     0
277
    -2
287
     1
 67
     0
278
    -2
288
     1
 68
     0
279
    -2
289
     1
 69
     0
  7
Standard
140
6.0
170
     5
 62
     0
 63
   257
283
     0
274
    -2
284
     1
 64
     0
275
    -2
285
     1
 65
     0
276
    -2
286
     1
 66
     0
277
    -2
287
     1
 67
     0
278
    -2
288
     1
 68
     0
279
    -2
289
     1
 69
     0
  7
Standard
140
4.5
170
     5
 62
     0
 63
   257
283
     0
274
    -2
284
     1
 64
     0
275
    -2
285
     1
 65
     0
276
    -2
286
     1
 66
     0
277
    -2
287
     1
 67
     0
278
    -2
288
     1
 68
     0
279
    -2
289
     1
 69
     0
  0
VISUALSTYLE
  5
4A392
102
{ACAD_XDICTIONARY
360
876AC
102
}
102
{ACAD_REACTORS
330
4A38C
102
}
330
4A38C
100
AcDbVisualStyle
  2

 70
     4
 71
     0
 72
     2
 73
     0
 90
        0
 40
-0.6
 41
-30.0
 62
     5
 63
     7
 74
     1
 91
        4
 64
     7
 65
   257
 75
     1
175
     1
 42
1.0
 92
        0
 66
   257
 43
1.0
 76
     1
 77
     6
 78
     2
 67
     7
 79
     5
170
     0
171
     0
290
     0
174
     0
 93
        1
 44
0.0
173
     0
291
     0
 45
0.0
1001
ACAD
1000
AcDbSavedByObjectVersion
1070
     0
  0
VISUALSTYLE
  5
4A391
102
{ACAD_XDICTIONARY
360
876AA
102
}
102
{ACAD_REACTORS
330
4A38C
102
}
330
4A38C
100
AcDbVisualStyle
  2

 70
     7
 71
     1
 72
     0
 73
     1
 90
        0
 40
-0.6
 41
-30.0
 62
     5
 63
     7
 74
     0
 91
        4
 64
     7
 65
   257
 75
     1
175
     1
 42
1.0
 92
        8
 66
     7
 43
1.0
 76
     1
 77
     6
 78
     2
 67
     7
 79
     5
170
     0
171
     0
290
     0
174
     0
 93
        1
 44
0.0
173
     0
291
     1
 45
0.0
1001
ACAD
1000
AcDbSavedByObjectVersion
1070
     0
  0
VISUALSTYLE
  5
4A398
102
{ACAD_XDICTIONARY
360
876B8
102
}
102
{ACAD_REACTORS
330
4A38C
102
}
330
4A38C
100
AcDbVisualStyle
  2

 70
    12
 71
     2
 72
     2
 73
     0
 90
        0
 40
-0.6
 41
-30.0
 62
     5
 63
     7
 74
     1
 91
        4
 64
     7
 65
   257
 75
     1
175
     1
 42
1.0
 92
        8
 66
     7
 43
1.0
 76
     1
 77
     6
 78
     2
 67
     7
 79
     5
170
     0
171
     0
290
     0
174
     0
 93
        1
 44
50.0
173
     0
291
     1
 45
0.0
1001
ACAD
1000
AcDbSavedByObjectVersion
1070
     0
  0
VISUALSTYLE
  5
4A39C
102
{ACAD_XDICTIONARY
360
876C0
102
}
102
{ACAD_REACTORS
330
4A38C
102
}
330
4A38C
100
AcDbVisualStyle
  2

 70
    16
 71
     2
 72
     2
 73
     3
 90
        0
 40
-0.6
 41
-30.0
 62
     5
 63
     8
 74
     1
 91
        4
 64
     7
 65
   257
 75
     1
175
     1
 42
1.0
 92
        8
 66
     8
 43
1.0
 76
     1
 77
     6
 78
     2
 67
     7
 79
     5
170
     0
171
     0
290
     0
174
     0
 93
        1
 44
0.0
173
     0
291
     1
 45
0.0
1001
ACAD
1000
AcDbSavedByObjectVersion
1070
     0
  0
VISUALSTYLE
  5
4A395
102
{ACAD_XDICTIONARY
360
876B2
102
}
102
{ACAD_REACTORS
330
4A38C
102
}
330
4A38C
100
AcDbVisualStyle
  2

 70
     9
 71
     3
 72
     2
 73
     0
 90
        0
 40
-0.6
 41
-30.0
 62
     5
 63
     7
 74
     2
 91
        2
 64
     7
 65
   257
 75
     1
175
     1
 42
179.0
 92
        8
 66
     7
 43
1.0
 76
     1
 77
     6
 78
     2
 67
     7
 79
     3
170
     0
171
     0
290
     0
174
     0
 93
        1
 44
0.0
173
     0
291
     0
 45
0.0
1001
ACAD
1000
AcDbSavedByObjectVersion
1070
     0
  0
VISUALSTYLE
  5
4A397
102
{ACAD_XDICTIONARY
360
876B6
102
}
102
{ACAD_REACTORS
330
4A38C
102
}
330
4A38C
100
AcDbVisualStyle
  2

 70
    11
 71
     2
 72
     2
 73
     0
 90
        0
 40
-0.6
 41
-30.0
 62
     5
 63
     7
 74
     1
 91
        4
 64
     7
 65
   257
 75
     1
175
     1
 42
1.0
 92
        8
 66
     7
 43
1.0
 76
     1
 77
     6
 78
     2
 67
     7
 79
     5
170
     0
171
     0
290
     0
174
     0
 93
        1
 44
-50.0
173
     0
291
     1
 45
0.0
1001
ACAD
1000
AcDbSavedByObjectVersion
1070
     0
  0
VISUALSTYLE
  5
4A3A4
102
{ACAD_XDICTIONARY
360
876D0
102
}
102
{ACAD_REACTORS
330
4A38C
102
}
330
4A38C
100
AcDbVisualStyle
  2

 70
    22
 71
     2
 72
     2
 73
     0
 90
        0
 40
-0.6
 41
-30.0
 62
     5
 63
     7
 74
     1
 91
        4
 64
     7
 65
   257
 75
     1
175
     1
 42
1.0
 92
        8
 66
     7
 43
1.0
 76
     1
 77
     6
 78
     2
 67
     7
 79
     5
170
     0
171
     0
290
     0
174
     0
 93
        1
 44
0.0
173
     0
291
     1
 45
0.0
1001
ACAD
1000
AcDbSavedByObjectVersion
1070
     0
  0
VISUALSTYLE
  5
4A39B
102
{ACAD_XDICTIONARY
360
876BE
102
}
102
{ACAD_REACTORS
330
4A38C
102
}
330
4A38C
100
AcDbVisualStyle
  2

 70
    15
 71
     2
 72
     2
 73
     0
 90
        0
 40
-0.6
 41
-30.0
 62
     5
 63
     7
 74
     1
 91
        4
 64
     7
 65
   257
 75
     1
175
     1
 42
1.0
 92
        8
 66
     7
 43
1.0
 76
     1
 77
     6
 78
     2
 67
     7
 79
     5
170
     0
171
     0
290
     0
174
     0
 93
        1
 44
0.0
173
     0
291
     1
 45
0.0
1001
ACAD
1000
AcDbSavedByObjectVersion
1070
     0
  0
VISUALSTYLE
  5
4A38D
102
{ACAD_XDICTIONARY
360
876A2
102
}
102
{ACAD_REACTORS
330
4A38C
102
}
330
4A38C
100
AcDbVisualStyle
  2

 70
     0
 71
     2
 72
     1
 73
     1
 90
        2
 40
-0.6
 41
30.0
 62
     5
 63
     7
 74
     0
 91
        0
 64
     7
 65
   257
 75
     1
175
     1
 42
1.0
 92
        8
 66
     7
 43
1.0
 76
     1
 77
     6
 78
     2
 67
     7
 79
     5
170
     0
171
     0
290
     0
174
     0
 93
       13
 44
0.0
173
     0
291
     1
 45
0.0
1001
ACAD
1000
AcDbSavedByObjectVersion
1070
     0
  0
VISUALSTYLE
  5
4A38E
102
{ACAD_XDICTIONARY
360
876A4
102
}
102
{ACAD_REACTORS
330
4A38C
102
}
330
4A38C
100
AcDbVisualStyle
  2

 70
     1
 71
     2
 72
     1
 73
     1
 90
        2
 40
-0.6
 41
30.0
 62
     5
 63
     7
 74
     1
 91
        0
 64
     7
 65
   257
 75
     1
175
     1
 42
1.0
 92
        0
 66
   257
 43
1.0
 76
     1
 77
     6
 78
     2
 67
     7
 79
     5
170
     0
171
     0
290
     0
174
     0
 93
       13
 44
0.0
173
     0
291
     1
 45
0.0
1001
ACAD
1000
AcDbSavedByObjectVersion
1070
     0
  0
VISUALSTYLE
  5
4A38F
102
{ACAD_XDICTIONARY
360
876A6
102
}
102
{ACAD_REACTORS
330
4A38C
102
}
330
4A38C
100
AcDbVisualStyle
  2

 70
     2
 71
     2
 72
     2
 73
     1
 90
        2
 40
-0.6
 41
30.0
 62
     5
 63
     7
 74
     0
 91
        0
 64
     7
 65
   257
 75
     1
175
     1
 42
1.0
 92
        0
 66
     7
 43
1.0
 76
     1
 77
     6
 78
     2
 67
     7
 79
     5
170
     0
171
     0
290
     0
174
     0
 93
       13
 44
0.0
173
     0
291
     1
 45
0.0
1001
ACAD
1000
AcDbSavedByObjectVersion
1070
     0
  0
VISUALSTYLE
  5
4A390
102
{ACAD_XDICTIONARY
360
876A8
102
}
102
{ACAD_REACTORS
330
4A38C
102
}
330
4A38C
100
AcDbVisualStyle
  2

 70
     3
 71
     2
 72
     2
 73
     1
 90
        2
 40
-0.6
 41
30.0
 62
     5
 63
     7
 74
     1
 91
        0
 64
     7
 65
   257
 75
     1
175
     1
 42
1.0
 92
        0
 66
   257
 43
1.0
 76
     1
 77
     6
 78
     2
 67
     7
 79
     5
170
     0
171
     0
290
     0
174
     0
 93
       13
 44
0.0
173
     0
291
     1
 45
0.0
1001
ACAD
1000
AcDbSavedByObjectVersion
1070
     0
  0
VISUALSTYLE
  5
4A394
102
{ACAD_XDICTIONARY
360
876B0
102
}
102
{ACAD_REACTORS
330
4A38C
102
}
330
4A38C
100
AcDbVisualStyle
  2

 70
     6
 71
     1
 72
     2
 73
     2
 90
        0
 40
-0.6
 41
-30.0
 62
     5
 63
     7
 74
     2
 91
        2
 64
     7
 65
   257
 75
     2
175
     1
 42
40.0
 92
        0
 66
   257
 43
1.0
 76
     1
 77
     6
 78
     2
 67
     7
 79
     3
170
     0
171
     0
290
     0
174
     0
 93
        1
 44
0.0
173
     0
291
     0
 45
0.0
1001
ACAD
1000
AcDbSavedByObjectVersion
1070
     0
  0
VISUALSTYLE
  5
4A3A2
102
{ACAD_XDICTIONARY
360
876CC
102
}
102
{ACAD_REACTORS
330
4A38C
102
}
330
4A38C
100
AcDbVisualStyle
  2

 70
    20
 71
     2
 72
     2
 73
     0
 90
        0
 40
-0.6
 41
-30.0
 62
     5
 63
     7
 74
     1
 91
        4
 64
     7
 65
   257
 75
     1
175
     1
 42
1.0
 92
       10
 66
     7
 43
1.0
 76
     1
 77
     6
 78
     2
 67
     7
 79
     5
170
     0
171
     0
290
     0
174
     0
 93
        1
 44
0.0
173
     0
291
     1
 45
0.0
1001
ACAD
1000
AcDbSavedByObjectVersion
1070
     0
  0
VISUALSTYLE
  5
4A39A
102
{ACAD_XDICTIONARY
360
876BC
102
}
102
{ACAD_REACTORS
330
4A38C
102
}
330
4A38C
100
AcDbVisualStyle
  2

 70
    14
 71
     2
 72
     2
 73
     0
 90
        0
 40
-0.6
 41
-30.0
 62
     5
 63
     7
 74
     1
 91
        4
 64
     7
 65
   257
 75
     7
175
     7
 42
1.0
 92
        8
 66
     7
 43
1.0
 76
     1
 77
     6
 78
     2
 67
     7
 79
     5
170
     0
171
     0
290
     0
174
     0
 93
        1
 44
0.0
173
     0
291
     1
 45
0.0
1001
ACAD
1000
AcDbSavedByObjectVersion
1070
     0
  0
VISUALSTYLE
  5
4A3A3
102
{ACAD_XDICTIONARY
360
876CE
102
}
102
{ACAD_REACTORS
330
4A38C
102
}
330
4A38C
100
AcDbVisualStyle
  2

 70
    21
 71
     2
 72
     2
 73
     0
 90
        0
 40
-0.6
 41
-30.0
 62
     5
 63
     7
 74
     1
 91
        4
 64
     7
 65
   257
 75
     1
175
     1
 42
1.0
 92
        9
 66
     7
 43
1.0
 76
     1
 77
     6
 78
     2
 67
     7
 79
     5
170
     0
171
     0
290
     0
174
     0
 93
        1
 44
0.0
173
     0
291
     1
 45
0.0
1001
ACAD
1000
AcDbSavedByObjectVersion
1070
     0
  0
VISUALSTYLE
  5
4A396
102
{ACAD_XDICTIONARY
360
876B4
102
}
102
{ACAD_REACTORS
330
4A38C
102
}
330
4A38C
100
AcDbVisualStyle
  2

 70
     8
 71
     2
 72
     3
 73
     0
 90
        2
 40
-0.6
 41
30.0
 62
     5
 63
     7
 74
     0
 91
        0
 64
     7
 65
   257
 75
     1
175
     1
 42
1.0
 92
        8
 66
   257
 43
1.0
 76
     1
 77
     6
 78
     2
 67
     7
 79
     3
170
     0
171
     0
290
     0
174
     0
 93
       13
 44
0.0
173
     0
291
     0
 45
0.0
1001
ACAD
1000
AcDbSavedByObjectVersion
1070
     0
  0
VISUALSTYLE
  5
4A3A1
102
{ACAD_XDICTIONARY
360
876CA
102
}
102
{ACAD_REACTORS
330
4A38C
102
}
330
4A38C
100
AcDbVisualStyle
  2

 70
    27
 71
     2
 72
     2
 73
     1
 90
        2
 40
-0.6
 41
30.0
 62
     5
 63
     7
 74
     0
 91
        4
 64
     7
 65
   257
 75
     1
175
     1
 42
1.0
 92
        8
 66
   257
 43
1.0
 76
     1
 77
     6
 78
     2
 67
     8
 79
     3
170
     0
171
     0
290
     0
174
     0
 93
        5
 44
0.0
173
     0
291
     0
 45
0.0
1001
ACAD
1000
AcDbSavedByObjectVersion
1070
     0
  0
VISUALSTYLE
  5
4A3A0
102
{ACAD_XDICTIONARY
360
876C8
102
}
102
{ACAD_REACTORS
330
4A38C
102
}
330
4A38C
100
AcDbVisualStyle
  2

 70
    26
 71
     2
 72
     2
 73
     1
 90
        2
 40
-0.6
 41
30.0
 62
     5
 63
     7
 74
     1
 91
        2
 64
     7
 65
   257
 75
     2
175
     1
 42
1.0
 92
        8
 66
   257
 43
1.0
 76
     1
 77
     6
 78
     2
 67
     7
 79
     3
170
     0
171
     0
290
     0
174
     0
 93
        5
 44
0.0
173
     0
291
     0
 45
0.0
1001
ACAD
1000
AcDbSavedByObjectVersion
1070
     0
  0
VISUALSTYLE
  5
4A39D
102
{ACAD_XDICTIONARY
360
876C2
102
}
102
{ACAD_REACTORS
330
4A38C
102
}
330
4A38C
100
AcDbVisualStyle
  2

 70
    23
 71
     2
 72
     2
 73
     3
 90
        0
 40
-0.6
 41
-30.0
 62
     5
 63
     7
 74
     2
 91
        2
 64
     7
 65
     7
 75
     1
175
     1
 42
40.0
 92
        8
 66
     7
 43
1.0
 76
     1
 77
     6
 78
     2
 67
     7
 79
     3
170
     0
171
     0
290
     0
174
     0
 93
        1
 44
0.0
173
     0
291
     0
 45
0.0
1001
ACAD
1000
AcDbSavedByObjectVersion
1070
     0
  0
VISUALSTYLE
  5
4A39E
102
{ACAD_XDICTIONARY
360
876C4
102
}
102
{ACAD_REACTORS
330
4A38C
102
}
330
4A38C
100
AcDbVisualStyle
  2

 70
    24
 71
     1
 72
     2
 73
     2
 90
        0
 40
-0.6
 41
-30.0
 62
     5
 63
     7
 74
     2
 91
        2
 64
     7
 65
     7
 75
     1
175
     1
 42
40.0
 92
       11
 66
     7
 43
1.0
 76
     1
 77
     6
 78
     2
 67
     7
 79
     6
170
     0
171
     0
290
     0
174
     0
 93
        1
 44
0.0
173
     0
291
     0
 45
0.0
1001
ACAD
1000
AcDbSavedByObjectVersion
1070
     0
  0
VISUALSTYLE
  5
4A399
102
{ACAD_XDICTIONARY
360
876BA
102
}
102
{ACAD_REACTORS
330
4A38C
102
}
330
4A38C
100
AcDbVisualStyle
  2

 70
    13
 71
     2
 72
     2
 73
     0
 90
        0
 40
-0.6
 41
-30.0
 62
     5
 63
     7
 74
     1
 91
        4
 64
     7
 65
   257
 75
     1
175
     1
 42
1.0
 92
       12
 66
     7
 43
1.0
 76
     1
 77
     6
 78
     2
 67
     7
 79
     5
170
     0
171
     0
290
     0
174
     0
 93
        1
 44
0.0
173
     0
291
     1
 45
0.0
1001
ACAD
1000
AcDbSavedByObjectVersion
1070
     0
  0
VISUALSTYLE
  5
4A393
102
{ACAD_XDICTIONARY
360
876AE
102
}
102
{ACAD_REACTORS
330
4A38C
102
}
330
4A38C
100
AcDbVisualStyle
  2

 70
     5
 71
     0
 72
     2
 73
     0
 90
        0
 40
-0.6
 41
-30.0
 62
     5
 63
     7
 74
     1
 91
        4
 64
     7
 65
   257
 75
     1
175
     1
 42
1.0
 92
        0
 66
   257
 43
1.0
 76
     1
 77
     6
 78
     2
 67
     7
 79
     3
170
     0
171
     0
290
     0
174
     0
 93
        1
 44
0.0
173
     0
291
     0
 45
0.0
1001
ACAD
1000
AcDbSavedByObjectVersion
1070
     0
  0
VISUALSTYLE
  5
4A39F
102
{ACAD_XDICTIONARY
360
876C6
102
}
102
{ACAD_REACTORS
330
4A38C
102
}
330
4A38C
100
AcDbVisualStyle
  2

 70
    25
 71
     2
 72
     2
 73
     1
 90
        1
 40
0.5
 41
-30.0
 62
     5
 63
     7
 74
     1
 91
        0
 64
     7
 65
   257
 75
     1
175
     1
 42
1.0
 92
        8
 66
     7
 43
1.0
 76
     1
 77
     6
 78
     2
 67
     7
 79
     3
170
     0
171
     0
290
     0
174
     0
 93
       13
 44
0.0
173
     0
291
     0
 45
0.0
1001
ACAD
1000
AcDbSavedByObjectVersion
1070
     0
  0
XRECORD
  5
8AD6C
102
{ACAD_REACTORS
330
8AD6B
102
}
330
8AD6B
100
AcDbXrecord
280
     1
340
85
  0
XRECORD
  5
8AD6D
102
{ACAD_REACTORS
330
8AD6B
102
}
330
8AD6B
100
AcDbXrecord
280
     1
340
84
  0
DICTIONARYVAR
  5
8AA85
102
{ACAD_REACTORS
330
5E
102
}
330
5E
100
DictionaryVariables
280
     0
  1
1:1
  0
DICTIONARYVAR
  5
4A6CE
102
{ACAD_REACTORS
330
5E
102
}
330
5E
100
DictionaryVariables
280
     0
  1
STANDARD
  0
DICTIONARYVAR
  5
B8
102
{ACAD_REACTORS
330
5E
102
}
330
5E
100
DictionaryVariables
280
     0
  1
STANDARD
  0
DICTIONARYVAR
  5
4A6CF
102
{ACAD_REACTORS
330
5E
102
}
330
5E
100
DictionaryVariables
280
     0
  1
Metric50
  0
DICTIONARYVAR
  5
4A6D0
102
{ACAD_REACTORS
330
5E
102
}
330
5E
100
DictionaryVariables
280
     0
  1
Metric50
  0
DICTIONARYVAR
  5
5F
102
{ACAD_REACTORS
330
5E
102
}
330
5E
100
DictionaryVariables
280
     0
  1
2
  0
DICTIONARYVAR
  5
63
102
{ACAD_REACTORS
330
5E
102
}
330
5E
100
DictionaryVariables
280
     0
  1
1
  0
DICTIONARYVAR
  5
4A879
102
{ACAD_REACTORS
330
5E
102
}
330
5E
100
DictionaryVariables
280
     0
  1
0
  0
DICTIONARYVAR
  5
4A6D4
102
{ACAD_REACTORS
330
5E
102
}
330
5E
100
DictionaryVariables
280
     0
  1
1
  0
DICTIONARYVAR
  5
4A6D5
102
{ACAD_REACTORS
330
5E
102
}
330
5E
100
DictionaryVariables
280
     0
  1
15
  0
DICTIONARYVAR
  5
4A6D3
102
{ACAD_REACTORS
330
5E
102
}
330
5E
100
DictionaryVariables
280
     0
  1
0
  0
DICTIONARYVAR
  5
4A6D1
102
{ACAD_REACTORS
330
5E
102
}
330
5E
100
DictionaryVariables
280
     0
  1
0
  0
DICTIONARYVAR
  5
31CE
102
{ACAD_REACTORS
330
5E
102
}
330
5E
100
DictionaryVariables
280
     0
  1

  0
DICTIONARYVAR
  5
4A878
102
{ACAD_REACTORS
330
5E
102
}
330
5E
100
DictionaryVariables
280
     0
  1
127
  0
DICTIONARYVAR
  5
5A559
102
{ACAD_REACTORS
330
5E
102
}
330
5E
100
DictionaryVariables
280
     0
  1
2
  0
XRECORD
  5
349EA
102
{ACAD_REACTORS
330
349E9
102
}
330
349E9
100
AcDbXrecord
280
     1
330
0
330
0
330
0
330
0
330
0
330
0
330
0
330
0
330
0
330
0
330
0
330
0
330
0
330
0
330
0
330
0
330
0
330
0
330
0
330
0
330
0
330
0
330
0
330
0
330
0
330
0
330
0
330
0
330
0
330
0
330
0
330
0
330
0
330
0
330
0
330
0
330
0
330
0
330
0
330
0
330
0
330
0
330
0
330
0
330
0
330
0
330
0
330
0
330
0
330
0
330
0
330
0
330
0
330
0
330
0
330
0
330
0
330
0
330
0
330
0
330
0
330
0
330
0
330
0
330
0
330
0
330
0
330
0
330
0
330
0
330
0
330
0
330
0
330
0
330
0
330
0
330
0
330
0
330
0
330
0
330
0
330
0
330
0
330
0
330
0
330
0
330
0
330
0
330
0
330
0
330
0
330
0
330
0
330
0
330
0
330
0
330
0
330
0
330
0
330
0
330
0
330
0
330
0
330
0
330
0
330
0
330
0
330
0
330
0
330
0
  0
DICTIONARY
  5
876D4
330
4A3BC
100
AcDbDictionary
280
     1
281
     1
  3
ACAD_XREC_ROUNDTRIP
360
876D5
  0
DICTIONARY
  5
4A37D
330
4A37C
100
AcDbDictionary
280
     1
281
     1
  3
ACAD_XREC_ROUNDTRIP
360
8AD74
  0
DICTIONARY
  5
4A375
330
4A374
100
AcDbDictionary
280
     1
281
     1
  3
ACAD_XREC_ROUNDTRIP
360
8AD75
  0
DICTIONARY
  5
4A385
330
4A384
100
AcDbDictionary
280
     1
281
     1
  3
ACAD_XREC_ROUNDTRIP
360
8AD76
  0
DICTIONARY
  5
87DC9
330
4A3B8
100
AcDbDictionary
280
     1
281
     1
  3
ACAD_XREC_ROUNDTRIP
360
8AD77
  0
DICTIONARY
  5
876D2
330
4A3BA
100
AcDbDictionary
280
     1
281
     1
  3
ACAD_XREC_ROUNDTRIP
360
876D3
  0
DICTIONARY
  5
4CD9A
330
A2
100
AcDbDictionary
280
     1
281
     1
  3
ACAD_ROUNDTRIP_2008_TABLESTYLE_CELLSTYLEMAP
360
8AD79
  3
ACAD_XREC_ROUNDTRIP
360
8AD78
  0
DICTIONARY
  5
876AC
330
4A392
100
AcDbDictionary
280
     1
281
     1
  3
ACAD_XREC_ROUNDTRIP
360
8AD7A
  0
DICTIONARY
  5
876AA
330
4A391
100
AcDbDictionary
280
     1
281
     1
  3
ACAD_XREC_ROUNDTRIP
360
8AD7B
  0
DICTIONARY
  5
876B8
330
4A398
100
AcDbDictionary
280
     1
281
     1
  3
ACAD_XREC_ROUNDTRIP
360
8AD7C
  0
DICTIONARY
  5
876C0
330
4A39C
100
AcDbDictionary
280
     1
281
     1
  3
ACAD_XREC_ROUNDTRIP
360
8AD7D
  0
DICTIONARY
  5
876B2
330
4A395
100
AcDbDictionary
280
     1
281
     1
  3
ACAD_XREC_ROUNDTRIP
360
8AD7E
  0
DICTIONARY
  5
876B6
330
4A397
100
AcDbDictionary
280
     1
281
     1
  3
ACAD_XREC_ROUNDTRIP
360
8AD7F
  0
DICTIONARY
  5
876D0
330
4A3A4
100
AcDbDictionary
280
     1
281
     1
  3
ACAD_XREC_ROUNDTRIP
360
8AD80
  0
DICTIONARY
  5
876BE
330
4A39B
100
AcDbDictionary
280
     1
281
     1
  3
ACAD_XREC_ROUNDTRIP
360
8AD81
  0
DICTIONARY
  5
876A2
330
4A38D
100
AcDbDictionary
280
     1
281
     1
  3
ACAD_XREC_ROUNDTRIP
360
8AD82
  0
DICTIONARY
  5
876A4
330
4A38E
100
AcDbDictionary
280
     1
281
     1
  3
ACAD_XREC_ROUNDTRIP
360
8AD83
  0
DICTIONARY
  5
876A6
330
4A38F
100
AcDbDictionary
280
     1
281
     1
  3
ACAD_XREC_ROUNDTRIP
360
8AD84
  0
DICTIONARY
  5
876A8
330
4A390
100
AcDbDictionary
280
     1
281
     1
  3
ACAD_XREC_ROUNDTRIP
360
8AD85
  0
DICTIONARY
  5
876B0
330
4A394
100
AcDbDictionary
280
     1
281
     1
  3
ACAD_XREC_ROUNDTRIP
360
8AD86
  0
DICTIONARY
  5
876CC
330
4A3A2
100
AcDbDictionary
280
     1
281
     1
  3
ACAD_XREC_ROUNDTRIP
360
8AD87
  0
DICTIONARY
  5
876BC
330
4A39A
100
AcDbDictionary
280
     1
281
     1
  3
ACAD_XREC_ROUNDTRIP
360
8AD88
  0
DICTIONARY
  5
876CE
330
4A3A3
100
AcDbDictionary
280
     1
281
     1
  3
ACAD_XREC_ROUNDTRIP
360
8AD89
  0
DICTIONARY
  5
876B4
330
4A396
100
AcDbDictionary
280
     1
281
     1
  3
ACAD_XREC_ROUNDTRIP
360
8AD8A
  0
DICTIONARY
  5
876CA
330
4A3A1
100
AcDbDictionary
280
     1
281
     1
  3
ACAD_XREC_ROUNDTRIP
360
8AD8B
  0
DICTIONARY
  5
876C8
330
4A3A0
100
AcDbDictionary
280
     1
281
     1
  3
ACAD_XREC_ROUNDTRIP
360
8AD8C
  0
DICTIONARY
  5
876C2
330
4A39D
100
AcDbDictionary
280
     1
281
     1
  3
ACAD_XREC_ROUNDTRIP
360
8AD8D
  0
DICTIONARY
  5
876C4
330
4A39E
100
AcDbDictionary
280
     1
281
     1
  3
ACAD_XREC_ROUNDTRIP
360
8AD8E
  0
DICTIONARY
  5
876BA
330
4A399
100
AcDbDictionary
280
     1
281
     1
  3
ACAD_XREC_ROUNDTRIP
360
8AD8F
  0
DICTIONARY
  5
876AE
330
4A393
100
AcDbDictionary
280
     1
281
     1
  3
ACAD_XREC_ROUNDTRIP
360
8AD90
  0
DICTIONARY
  5
876C6
330
4A39F
100
AcDbDictionary
280
     1
281
     1
  3
ACAD_XREC_ROUNDTRIP
360
8AD91
  0
XRECORD
  5
876D5
102
{ACAD_REACTORS
330
876D4
102
}
330
876D4
100
AcDbXrecord
280
     1
102
DISPLAYNAME
  1
Metric50
102
FLAGS
 90
        0
  0
XRECORD
  5
8AD74
102
{ACAD_REACTORS
330
4A37D
102
}
330
4A37D
100
AcDbXrecord
280
     1
102
MATERIAL
148
0.0
149
0.0
149
0.0
 93
        0
 94
      127
282
     0
 72
     0
 77
     0
171
     0
175
     0
179
     0
273
     0
  0
XRECORD
  5
8AD75
102
{ACAD_REACTORS
330
4A375
102
}
330
4A375
100
AcDbXrecord
280
     1
102
MATERIAL
148
0.0
149
0.0
149
0.0
 93
        0
 94
      127
282
     0
 72
     0
 77
     0
171
     0
175
     0
179
     0
273
     0
  0
XRECORD
  5
8AD76
102
{ACAD_REACTORS
330
4A385
102
}
330
4A385
100
AcDbXrecord
280
     1
102
MATERIAL
148
0.0
149
0.0
149
0.0
 93
        0
 94
      127
282
     0
 72
     0
 77
     0
171
     0
175
     0
179
     0
273
     0
  0
XRECORD
  5
8AD77
102
{ACAD_REACTORS
330
87DC9
102
}
330
87DC9
100
AcDbXrecord
280
     1
102
ACAD_ROUNDTRIP_2010_MLEADER_STYLE
  0
XRECORD
  5
876D3
102
{ACAD_REACTORS
330
876D2
102
}
330
876D2
100
AcDbXrecord
280
     1
102
DISPLAYNAME
  1
Metric50
102
FLAGS
 90
        0
  0
CELLSTYLEMAP
  5
8AD79
102
{ACAD_REACTORS
330
4CD9A
102
}
330
4CD9A
100
AcDbCellStyleMap
 90
        3
300
CELLSTYLE
  1
TABLEFORMAT_BEGIN
 90
        5
170
     1
 91
        0
 92
    32768
 62
   257
 93
        1
300
CONTENTFORMAT
  1
CONTENTFORMAT_BEGIN
 90
        0
 91
        0
 92
        4
 93
        0
300

 40
0.0
140
1.0
 94
        5
 62
     0
340
11
144
6.0
309
CONTENTFORMAT_END
171
     1
301
MARGIN
  1
CELLMARGIN_BEGIN
 40
1.5
 40
1.5
 40
1.5
 40
1.5
 40
0.18
 40
0.18
309
CELLMARGIN_END
 94
        6
 95
        1
302
GRIDFORMAT
  1
GRIDFORMAT_BEGIN
 90
        0
 91
        1
 62
     0
 92
       -2
340
0
 93
        0
 40
0.045
309
GRIDFORMAT_END
 95
        2
302
GRIDFORMAT
  1
GRIDFORMAT_BEGIN
 90
        0
 91
        1
 62
     0
 92
       -2
340
0
 93
        0
 40
0.045
309
GRIDFORMAT_END
 95
        4
302
GRIDFORMAT
  1
GRIDFORMAT_BEGIN
 90
        0
 91
        1
 62
     0
 92
       -2
340
0
 93
        0
 40
0.045
309
GRIDFORMAT_END
 95
        8
302
GRIDFORMAT
  1
GRIDFORMAT_BEGIN
 90
        0
 91
        1
 62
     0
 92
       -2
340
0
 93
        0
 40
0.045
309
GRIDFORMAT_END
 95
       16
302
GRIDFORMAT
  1
GRIDFORMAT_BEGIN
 90
        0
 91
        1
 62
     0
 92
       -2
340
0
 93
        0
 40
0.045
309
GRIDFORMAT_END
 95
       32
302
GRIDFORMAT
  1
GRIDFORMAT_BEGIN
 90
        0
 91
        1
 62
     0
 92
       -2
340
0
 93
        0
 40
0.045
309
GRIDFORMAT_END
309
TABLEFORMAT_END
  1
CELLSTYLE_BEGIN
 90
        1
 91
        1
300
_TITLE
309
CELLSTYLE_END
300
CELLSTYLE
  1
TABLEFORMAT_BEGIN
 90
        5
170
     1
 91
        0
 92
        0
 62
   257
 93
        1
300
CONTENTFORMAT
  1
CONTENTFORMAT_BEGIN
 90
        0
 91
        0
 92
        4
 93
        0
300

 40
0.0
140
1.0
 94
        5
 62
     0
340
11
144
4.5
309
CONTENTFORMAT_END
171
     1
301
MARGIN
  1
CELLMARGIN_BEGIN
 40
1.5
 40
1.5
 40
1.5
 40
1.5
 40
0.18
 40
0.18
309
CELLMARGIN_END
 94
        6
 95
        1
302
GRIDFORMAT
  1
GRIDFORMAT_BEGIN
 90
        0
 91
        1
 62
     0
 92
       -2
340
0
 93
        0
 40
0.045
309
GRIDFORMAT_END
 95
        2
302
GRIDFORMAT
  1
GRIDFORMAT_BEGIN
 90
        0
 91
        1
 62
     0
 92
       -2
340
0
 93
        0
 40
0.045
309
GRIDFORMAT_END
 95
        4
302
GRIDFORMAT
  1
GRIDFORMAT_BEGIN
 90
        0
 91
        1
 62
     0
 92
       -2
340
0
 93
        0
 40
0.045
309
GRIDFORMAT_END
 95
        8
302
GRIDFORMAT
  1
GRIDFORMAT_BEGIN
 90
        0
 91
        1
 62
     0
 92
       -2
340
0
 93
        0
 40
0.045
309
GRIDFORMAT_END
 95
       16
302
GRIDFORMAT
  1
GRIDFORMAT_BEGIN
 90
        0
 91
        1
 62
     0
 92
       -2
340
0
 93
        0
 40
0.045
309
GRIDFORMAT_END
 95
       32
302
GRIDFORMAT
  1
GRIDFORMAT_BEGIN
 90
        0
 91
        1
 62
     0
 92
       -2
340
0
 93
        0
 40
0.045
309
GRIDFORMAT_END
309
TABLEFORMAT_END
  1
CELLSTYLE_BEGIN
 90
        2
 91
        1
300
_HEADER
309
CELLSTYLE_END
300
CELLSTYLE
  1
TABLEFORMAT_BEGIN
 90
        5
170
     1
 91
        0
 92
        0
 62
   257
 93
        1
300
CONTENTFORMAT
  1
CONTENTFORMAT_BEGIN
 90
        0
 91
        0
 92
        4
 93
        0
300

 40
0.0
140
1.0
 94
        2
 62
     0
340
11
144
4.5
309
CONTENTFORMAT_END
171
     1
301
MARGIN
  1
CELLMARGIN_BEGIN
 40
1.5
 40
1.5
 40
1.5
 40
1.5
 40
0.18
 40
0.18
309
CELLMARGIN_END
 94
        6
 95
        1
302
GRIDFORMAT
  1
GRIDFORMAT_BEGIN
 90
        0
 91
        1
 62
     0
 92
       -2
340
0
 93
        0
 40
0.045
309
GRIDFORMAT_END
 95
        2
302
GRIDFORMAT
  1
GRIDFORMAT_BEGIN
 90
        0
 91
        1
 62
     0
 92
       -2
340
0
 93
        0
 40
0.045
309
GRIDFORMAT_END
 95
        4
302
GRIDFORMAT
  1
GRIDFORMAT_BEGIN
 90
        0
 91
        1
 62
     0
 92
       -2
340
0
 93
        0
 40
0.045
309
GRIDFORMAT_END
 95
        8
302
GRIDFORMAT
  1
GRIDFORMAT_BEGIN
 90
        0
 91
        1
 62
     0
 92
       -2
340
0
 93
        0
 40
0.045
309
GRIDFORMAT_END
 95
       16
302
GRIDFORMAT
  1
GRIDFORMAT_BEGIN
 90
        0
 91
        1
 62
     0
 92
       -2
340
0
 93
        0
 40
0.045
309
GRIDFORMAT_END
 95
       32
302
GRIDFORMAT
  1
GRIDFORMAT_BEGIN
 90
        0
 91
        1
 62
     0
 92
       -2
340
0
 93
        0
 40
0.045
309
GRIDFORMAT_END
309
TABLEFORMAT_END
  1
CELLSTYLE_BEGIN
 90
        3
 91
        2
300
_DATA
309
CELLSTYLE_END
  0
XRECORD
  5
8AD78
102
{ACAD_REACTORS
330
4CD9A
102
}
330
4CD9A
100
AcDbXrecord
280
     1
102
ACAD_ROUNDTRIP_PRE2007_TABLESTYLE
 90
        4
 91
        0
  1

 92
        4
 93
        0
  2

 94
        4
 95
        0
  3

  0
XRECORD
  5
8AD7A
102
{ACAD_REACTORS
330
876AC
102
}
330
876AC
100
AcDbXrecord
280
     1
102
RTVSPropertyOp0
 70
     1
102
RTVSPropertyOp1
 70
     1
102
RTVSPropertyOp2
 70
     1
102
RTVSPropertyOp3
 70
     1
102
RTVSPropertyOp4
 70
     1
102
RTVSPropertyOp5
 70
     1
102
RTVSPropertyOp6
 70
     1
102
RTVSPropertyOp7
 70
     1
102
RTVSPropertyOp8
 70
     1
102
RTVSPropertyOp9
 70
     1
102
RTVSPropertyOp10
 70
     1
102
RTVSPropertyOp11
 70
     1
102
RTVSPropertyOp12
 70
     1
102
RTVSPropertyOp13
 70
     1
102
RTVSPropertyOp14
 70
     1
102
RTVSPropertyOp15
 70
     1
102
RTVSPropertyOp16
 70
     1
102
RTVSPropertyOp17
 70
     1
102
RTVSPropertyOp18
 70
     1
102
RTVSPropertyOp19
 70
     1
102
RTVSPropertyOp20
 70
     1
102
RTVSPropertyOp21
 70
     1
102
RTVSPropertyOp22
 70
     1
102
RTVSPropertyOp23
 70
     1
102
RTVSPropertyOp24
 70
     1
102
RTVSPropertyOp25
 70
     1
102
RTVSPropertyOp26
 70
     1
102
RTVSPropertyOp27
 70
     1
102
RTVSPropertyOp28
 70
     1
102
RTVSPropertyOp29
 70
     1
102
RTVSPropertyOp30
 70
     1
102
RTVSPropertyOp31
 70
     1
102
RTVSPropertyOp32
 70
     1
102
RTVSPropertyOp33
 70
     1
102
RTVSPropertyOp34
 70
     1
102
RTVSPropertyOp35
 70
     1
102
RTVSPropertyOp36
 70
     1
102
RTVSPropertyOp37
 70
     1
102
RTVSPropertyOp38
 70
     1
102
RTVSPropertyOp39
 70
     1
102
RTVSPropertyOp40
 70
     1
102
RTVSPropertyOp41
 70
     1
102
RTVSPropertyOp42
 70
     1
102
RTVSPropertyOp43
 70
     1
102
RTVSPropertyOp44
 70
     1
102
RTVSPropertyOp45
 70
     1
102
RTVSPropertyOp46
 70
     1
102
RTVSPropertyOp47
 70
     1
102
RTVSPropertyOp48
 70
     1
102
RTVSPropertyOp49
 70
     1
102
RTVSPropertyOp50
 70
     1
102
RTVSPropertyOp51
 70
     0
102
RTVSPropertyOp52
 70
     0
102
RTVSPropertyOp53
 70
     1
102
RTVSPropertyOp54
 70
     1
102
RTVSPropertyOp55
 70
     1
102
RTVSPropertyOp56
 70
     1
102
RTVSPropertyOp57
 70
     1
102
RTVSPost2010Prop28
280
     1
102
RTVSPost2010PropOp28
 70
     1
102
RTVSPost2010Prop29
280
     1
102
RTVSPost2010PropOp29
 70
     1
102
RTVSPost2010Prop30
280
     0
102
RTVSPost2010PropOp30
 70
     1
102
RTVSPost2010Prop31
280
     0
102
RTVSPost2010PropOp31
 70
     1
102
RTVSPost2010Prop32
280
     0
102
RTVSPost2010PropOp32
 70
     1
102
RTVSPost2010Prop33
280
     0
102
RTVSPost2010PropOp33
 70
     1
102
RTVSPost2010Prop34
280
     0
102
RTVSPost2010PropOp34
 70
     1
102
RTVSPost2010Prop35
280
     0
102
RTVSPost2010PropOp35
 70
     1
102
RTVSPost2010Prop36
280
     0
102
RTVSPost2010PropOp36
 70
     1
102
RTVSPost2010Prop37
 90
       50
102
RTVSPost2010PropOp37
 70
     1
102
RTVSPost2010Prop38
140
0.0
102
RTVSPost2010PropOp38
 70
     1
102
RTVSPost2010Prop39
140
1.0
102
RTVSPost2010PropOp39
 70
     1
102
RTVSPost2010Prop40
 90
        0
102
RTVSPost2010PropOp40
 70
     1
102
RTVSPost2010Prop41ColorIndex
 90
       18
102
RTVSPost2010Prop41ColorRGB
 90
        0
102
RTVSPost2010PropOp41
 70
     1
102
RTVSPost2010Prop42
 90
       50
102
RTVSPost2010PropOp42
 70
     1
102
RTVSPost2010Prop43
 90
        3
102
RTVSPost2010PropOp43
 70
     1
102
RTVSPost2010Prop44ColorIndex
 90
        5
102
RTVSPost2010Prop44ColorRGB
 90
      255
102
RTVSPost2010PropOp44
 70
     1
102
RTVSPost2010Prop45
280
     0
102
RTVSPost2010PropOp45
 70
     1
102
RTVSPost2010Prop46
 90
       50
102
RTVSPost2010PropOp46
 70
     1
102
RTVSPost2010Prop47
 90
       50
102
RTVSPost2010PropOp47
 70
     1
102
RTVSPost2010Prop48
 90
       50
102
RTVSPost2010PropOp48
 70
     1
102
RTVSPost2010Prop49
280
     0
102
RTVSPost2010PropOp49
 70
     1
102
RTVSPost2010Prop50
 90
       50
102
RTVSPost2010PropOp50
 70
     1
102
RTVSPost2010Prop51ColorIndex
 90
      256
102
RTVSPost2010Prop51ColorRGB
 90
-16777216
102
RTVSPost2010PropOp51
 70
     0
102
RTVSPost2010Prop52
140
1.0
102
RTVSPost2010PropOp52
 70
     0
102
RTVSPost2010Prop53
 90
        2
102
RTVSPost2010PropOp53
 70
     1
102
RTVSPost2010Prop54
  1
strokes_ogs.tif
102
RTVSPost2010PropOp54
 70
     1
102
RTVSPost2010Prop55
280
     0
102
RTVSPost2010PropOp55
 70
     1
102
RTVSPost2010Prop56
140
1.0
102
RTVSPost2010PropOp56
 70
     1
102
RTVSPost2010Prop57
140
1.0
102
RTVSPost2010PropOp57
 70
     1
  0
XRECORD
  5
8AD7B
102
{ACAD_REACTORS
330
876AA
102
}
330
876AA
100
AcDbXrecord
280
     1
102
RTVSPropertyOp0
 70
     1
102
RTVSPropertyOp1
 70
     1
102
RTVSPropertyOp2
 70
     1
102
RTVSPropertyOp3
 70
     1
102
RTVSPropertyOp4
 70
     1
102
RTVSPropertyOp5
 70
     1
102
RTVSPropertyOp6
 70
     1
102
RTVSPropertyOp7
 70
     1
102
RTVSPropertyOp8
 70
     1
102
RTVSPropertyOp9
 70
     1
102
RTVSPropertyOp10
 70
     1
102
RTVSPropertyOp11
 70
     1
102
RTVSPropertyOp12
 70
     1
102
RTVSPropertyOp13
 70
     1
102
RTVSPropertyOp14
 70
     1
102
RTVSPropertyOp15
 70
     1
102
RTVSPropertyOp16
 70
     1
102
RTVSPropertyOp17
 70
     1
102
RTVSPropertyOp18
 70
     1
102
RTVSPropertyOp19
 70
     1
102
RTVSPropertyOp20
 70
     1
102
RTVSPropertyOp21
 70
     1
102
RTVSPropertyOp22
 70
     1
102
RTVSPropertyOp23
 70
     1
102
RTVSPropertyOp24
 70
     1
102
RTVSPropertyOp25
 70
     1
102
RTVSPropertyOp26
 70
     1
102
RTVSPropertyOp27
 70
     1
102
RTVSPropertyOp28
 70
     1
102
RTVSPropertyOp29
 70
     1
102
RTVSPropertyOp30
 70
     1
102
RTVSPropertyOp31
 70
     1
102
RTVSPropertyOp32
 70
     1
102
RTVSPropertyOp33
 70
     1
102
RTVSPropertyOp34
 70
     1
102
RTVSPropertyOp35
 70
     1
102
RTVSPropertyOp36
 70
     1
102
RTVSPropertyOp37
 70
     1
102
RTVSPropertyOp38
 70
     1
102
RTVSPropertyOp39
 70
     1
102
RTVSPropertyOp40
 70
     1
102
RTVSPropertyOp41
 70
     1
102
RTVSPropertyOp42
 70
     1
102
RTVSPropertyOp43
 70
     1
102
RTVSPropertyOp44
 70
     1
102
RTVSPropertyOp45
 70
     1
102
RTVSPropertyOp46
 70
     1
102
RTVSPropertyOp47
 70
     1
102
RTVSPropertyOp48
 70
     1
102
RTVSPropertyOp49
 70
     1
102
RTVSPropertyOp50
 70
     1
102
RTVSPropertyOp51
 70
     0
102
RTVSPropertyOp52
 70
     0
102
RTVSPropertyOp53
 70
     1
102
RTVSPropertyOp54
 70
     1
102
RTVSPropertyOp55
 70
     1
102
RTVSPropertyOp56
 70
     1
102
RTVSPropertyOp57
 70
     1
102
RTVSPost2010Prop28
280
     0
102
RTVSPost2010PropOp28
 70
     1
102
RTVSPost2010Prop29
280
     1
102
RTVSPost2010PropOp29
 70
     1
102
RTVSPost2010Prop30
280
     1
102
RTVSPost2010PropOp30
 70
     1
102
RTVSPost2010Prop31
280
     0
102
RTVSPost2010PropOp31
 70
     1
102
RTVSPost2010Prop32
280
     0
102
RTVSPost2010PropOp32
 70
     1
102
RTVSPost2010Prop33
280
     0
102
RTVSPost2010PropOp33
 70
     1
102
RTVSPost2010Prop34
280
     0
102
RTVSPost2010PropOp34
 70
     1
102
RTVSPost2010Prop35
280
     0
102
RTVSPost2010PropOp35
 70
     1
102
RTVSPost2010Prop36
280
     0
102
RTVSPost2010PropOp36
 70
     1
102
RTVSPost2010Prop37
 90
       50
102
RTVSPost2010PropOp37
 70
     1
102
RTVSPost2010Prop38
140
0.0
102
RTVSPost2010PropOp38
 70
     1
102
RTVSPost2010Prop39
140
1.0
102
RTVSPost2010PropOp39
 70
     1
102
RTVSPost2010Prop40
 90
        0
102
RTVSPost2010PropOp40
 70
     1
102
RTVSPost2010Prop41ColorIndex
 90
       18
102
RTVSPost2010Prop41ColorRGB
 90
        0
102
RTVSPost2010PropOp41
 70
     1
102
RTVSPost2010Prop42
 90
       50
102
RTVSPost2010PropOp42
 70
     1
102
RTVSPost2010Prop43
 90
        3
102
RTVSPost2010PropOp43
 70
     1
102
RTVSPost2010Prop44ColorIndex
 90
        5
102
RTVSPost2010Prop44ColorRGB
 90
      255
102
RTVSPost2010PropOp44
 70
     1
102
RTVSPost2010Prop45
280
     0
102
RTVSPost2010PropOp45
 70
     1
102
RTVSPost2010Prop46
 90
       50
102
RTVSPost2010PropOp46
 70
     1
102
RTVSPost2010Prop47
 90
       50
102
RTVSPost2010PropOp47
 70
     1
102
RTVSPost2010Prop48
 90
       50
102
RTVSPost2010PropOp48
 70
     1
102
RTVSPost2010Prop49
280
     0
102
RTVSPost2010PropOp49
 70
     1
102
RTVSPost2010Prop50
 90
       50
102
RTVSPost2010PropOp50
 70
     1
102
RTVSPost2010Prop51ColorIndex
 90
      256
102
RTVSPost2010Prop51ColorRGB
 90
-16777216
102
RTVSPost2010PropOp51
 70
     0
102
RTVSPost2010Prop52
140
1.0
102
RTVSPost2010PropOp52
 70
     0
102
RTVSPost2010Prop53
 90
        2
102
RTVSPost2010PropOp53
 70
     1
102
RTVSPost2010Prop54
  1
strokes_ogs.tif
102
RTVSPost2010PropOp54
 70
     1
102
RTVSPost2010Prop55
280
     0
102
RTVSPost2010PropOp55
 70
     1
102
RTVSPost2010Prop56
140
1.0
102
RTVSPost2010PropOp56
 70
     1
102
RTVSPost2010Prop57
140
1.0
102
RTVSPost2010PropOp57
 70
     1
  0
XRECORD
  5
8AD7C
102
{ACAD_REACTORS
330
876B8
102
}
330
876B8
100
AcDbXrecord
280
     1
102
RTVSPropertyOp0
 70
     1
102
RTVSPropertyOp1
 70
     1
102
RTVSPropertyOp2
 70
     1
102
RTVSPropertyOp3
 70
     1
102
RTVSPropertyOp4
 70
     1
102
RTVSPropertyOp5
 70
     1
102
RTVSPropertyOp6
 70
     1
102
RTVSPropertyOp7
 70
     1
102
RTVSPropertyOp8
 70
     1
102
RTVSPropertyOp9
 70
     1
102
RTVSPropertyOp10
 70
     1
102
RTVSPropertyOp11
 70
     1
102
RTVSPropertyOp12
 70
     1
102
RTVSPropertyOp13
 70
     1
102
RTVSPropertyOp14
 70
     1
102
RTVSPropertyOp15
 70
     1
102
RTVSPropertyOp16
 70
     1
102
RTVSPropertyOp17
 70
     1
102
RTVSPropertyOp18
 70
     1
102
RTVSPropertyOp19
 70
     1
102
RTVSPropertyOp20
 70
     1
102
RTVSPropertyOp21
 70
     1
102
RTVSPropertyOp22
 70
     1
102
RTVSPropertyOp23
 70
     1
102
RTVSPropertyOp24
 70
     1
102
RTVSPropertyOp25
 70
     1
102
RTVSPropertyOp26
 70
     1
102
RTVSPropertyOp27
 70
     1
102
RTVSPropertyOp28
 70
     1
102
RTVSPropertyOp29
 70
     1
102
RTVSPropertyOp30
 70
     1
102
RTVSPropertyOp31
 70
     1
102
RTVSPropertyOp32
 70
     1
102
RTVSPropertyOp33
 70
     1
102
RTVSPropertyOp34
 70
     1
102
RTVSPropertyOp35
 70
     1
102
RTVSPropertyOp36
 70
     1
102
RTVSPropertyOp37
 70
     1
102
RTVSPropertyOp38
 70
     1
102
RTVSPropertyOp39
 70
     1
102
RTVSPropertyOp40
 70
     1
102
RTVSPropertyOp41
 70
     1
102
RTVSPropertyOp42
 70
     1
102
RTVSPropertyOp43
 70
     1
102
RTVSPropertyOp44
 70
     1
102
RTVSPropertyOp45
 70
     1
102
RTVSPropertyOp46
 70
     1
102
RTVSPropertyOp47
 70
     1
102
RTVSPropertyOp48
 70
     1
102
RTVSPropertyOp49
 70
     1
102
RTVSPropertyOp50
 70
     1
102
RTVSPropertyOp51
 70
     0
102
RTVSPropertyOp52
 70
     0
102
RTVSPropertyOp53
 70
     1
102
RTVSPropertyOp54
 70
     1
102
RTVSPropertyOp55
 70
     1
102
RTVSPropertyOp56
 70
     1
102
RTVSPropertyOp57
 70
     1
102
RTVSPost2010Prop28
280
     0
102
RTVSPost2010PropOp28
 70
     1
102
RTVSPost2010Prop29
280
     1
102
RTVSPost2010PropOp29
 70
     1
102
RTVSPost2010Prop30
280
     1
102
RTVSPost2010PropOp30
 70
     1
102
RTVSPost2010Prop31
280
     0
102
RTVSPost2010PropOp31
 70
     1
102
RTVSPost2010Prop32
280
     0
102
RTVSPost2010PropOp32
 70
     1
102
RTVSPost2010Prop33
280
     0
102
RTVSPost2010PropOp33
 70
     1
102
RTVSPost2010Prop34
280
     0
102
RTVSPost2010PropOp34
 70
     1
102
RTVSPost2010Prop35
280
     0
102
RTVSPost2010PropOp35
 70
     1
102
RTVSPost2010Prop36
280
     0
102
RTVSPost2010PropOp36
 70
     1
102
RTVSPost2010Prop37
 90
       50
102
RTVSPost2010PropOp37
 70
     1
102
RTVSPost2010Prop38
140
0.0
102
RTVSPost2010PropOp38
 70
     1
102
RTVSPost2010Prop39
140
1.0
102
RTVSPost2010PropOp39
 70
     1
102
RTVSPost2010Prop40
 90
        0
102
RTVSPost2010PropOp40
 70
     1
102
RTVSPost2010Prop41ColorIndex
 90
       18
102
RTVSPost2010Prop41ColorRGB
 90
        0
102
RTVSPost2010PropOp41
 70
     1
102
RTVSPost2010Prop42
 90
       50
102
RTVSPost2010PropOp42
 70
     1
102
RTVSPost2010Prop43
 90
        3
102
RTVSPost2010PropOp43
 70
     1
102
RTVSPost2010Prop44ColorIndex
 90
        5
102
RTVSPost2010Prop44ColorRGB
 90
      255
102
RTVSPost2010PropOp44
 70
     1
102
RTVSPost2010Prop45
280
     0
102
RTVSPost2010PropOp45
 70
     1
102
RTVSPost2010Prop46
 90
       50
102
RTVSPost2010PropOp46
 70
     1
102
RTVSPost2010Prop47
 90
       50
102
RTVSPost2010PropOp47
 70
     1
102
RTVSPost2010Prop48
 90
       50
102
RTVSPost2010PropOp48
 70
     1
102
RTVSPost2010Prop49
280
     0
102
RTVSPost2010PropOp49
 70
     1
102
RTVSPost2010Prop50
 90
       50
102
RTVSPost2010PropOp50
 70
     1
102
RTVSPost2010Prop51ColorIndex
 90
      256
102
RTVSPost2010Prop51ColorRGB
 90
-16777216
102
RTVSPost2010PropOp51
 70
     0
102
RTVSPost2010Prop52
140
1.0
102
RTVSPost2010PropOp52
 70
     0
102
RTVSPost2010Prop53
 90
        2
102
RTVSPost2010PropOp53
 70
     1
102
RTVSPost2010Prop54
  1
strokes_ogs.tif
102
RTVSPost2010PropOp54
 70
     1
102
RTVSPost2010Prop55
280
     0
102
RTVSPost2010PropOp55
 70
     1
102
RTVSPost2010Prop56
140
1.0
102
RTVSPost2010PropOp56
 70
     1
102
RTVSPost2010Prop57
140
1.0
102
RTVSPost2010PropOp57
 70
     1
  0
XRECORD
  5
8AD7D
102
{ACAD_REACTORS
330
876C0
102
}
330
876C0
100
AcDbXrecord
280
     1
102
RTVSPropertyOp0
 70
     1
102
RTVSPropertyOp1
 70
     1
102
RTVSPropertyOp2
 70
     1
102
RTVSPropertyOp3
 70
     1
102
RTVSPropertyOp4
 70
     1
102
RTVSPropertyOp5
 70
     1
102
RTVSPropertyOp6
 70
     1
102
RTVSPropertyOp7
 70
     1
102
RTVSPropertyOp8
 70
     1
102
RTVSPropertyOp9
 70
     1
102
RTVSPropertyOp10
 70
     1
102
RTVSPropertyOp11
 70
     1
102
RTVSPropertyOp12
 70
     1
102
RTVSPropertyOp13
 70
     1
102
RTVSPropertyOp14
 70
     1
102
RTVSPropertyOp15
 70
     1
102
RTVSPropertyOp16
 70
     1
102
RTVSPropertyOp17
 70
     1
102
RTVSPropertyOp18
 70
     1
102
RTVSPropertyOp19
 70
     1
102
RTVSPropertyOp20
 70
     1
102
RTVSPropertyOp21
 70
     1
102
RTVSPropertyOp22
 70
     1
102
RTVSPropertyOp23
 70
     1
102
RTVSPropertyOp24
 70
     1
102
RTVSPropertyOp25
 70
     1
102
RTVSPropertyOp26
 70
     1
102
RTVSPropertyOp27
 70
     1
102
RTVSPropertyOp28
 70
     1
102
RTVSPropertyOp29
 70
     1
102
RTVSPropertyOp30
 70
     1
102
RTVSPropertyOp31
 70
     1
102
RTVSPropertyOp32
 70
     1
102
RTVSPropertyOp33
 70
     1
102
RTVSPropertyOp34
 70
     1
102
RTVSPropertyOp35
 70
     1
102
RTVSPropertyOp36
 70
     1
102
RTVSPropertyOp37
 70
     1
102
RTVSPropertyOp38
 70
     1
102
RTVSPropertyOp39
 70
     1
102
RTVSPropertyOp40
 70
     1
102
RTVSPropertyOp41
 70
     1
102
RTVSPropertyOp42
 70
     1
102
RTVSPropertyOp43
 70
     1
102
RTVSPropertyOp44
 70
     1
102
RTVSPropertyOp45
 70
     1
102
RTVSPropertyOp46
 70
     1
102
RTVSPropertyOp47
 70
     1
102
RTVSPropertyOp48
 70
     1
102
RTVSPropertyOp49
 70
     1
102
RTVSPropertyOp50
 70
     1
102
RTVSPropertyOp51
 70
     0
102
RTVSPropertyOp52
 70
     0
102
RTVSPropertyOp53
 70
     1
102
RTVSPropertyOp54
 70
     1
102
RTVSPropertyOp55
 70
     1
102
RTVSPropertyOp56
 70
     1
102
RTVSPropertyOp57
 70
     1
102
RTVSPost2010Prop28
280
     0
102
RTVSPost2010PropOp28
 70
     1
102
RTVSPost2010Prop29
280
     1
102
RTVSPost2010PropOp29
 70
     1
102
RTVSPost2010Prop30
280
     1
102
RTVSPost2010PropOp30
 70
     1
102
RTVSPost2010Prop31
280
     0
102
RTVSPost2010PropOp31
 70
     1
102
RTVSPost2010Prop32
280
     0
102
RTVSPost2010PropOp32
 70
     1
102
RTVSPost2010Prop33
280
     0
102
RTVSPost2010PropOp33
 70
     1
102
RTVSPost2010Prop34
280
     0
102
RTVSPost2010PropOp34
 70
     1
102
RTVSPost2010Prop35
280
     0
102
RTVSPost2010PropOp35
 70
     1
102
RTVSPost2010Prop36
280
     0
102
RTVSPost2010PropOp36
 70
     1
102
RTVSPost2010Prop37
 90
       50
102
RTVSPost2010PropOp37
 70
     1
102
RTVSPost2010Prop38
140
0.0
102
RTVSPost2010PropOp38
 70
     1
102
RTVSPost2010Prop39
140
1.0
102
RTVSPost2010PropOp39
 70
     1
102
RTVSPost2010Prop40
 90
        0
102
RTVSPost2010PropOp40
 70
     1
102
RTVSPost2010Prop41ColorIndex
 90
       18
102
RTVSPost2010Prop41ColorRGB
 90
        0
102
RTVSPost2010PropOp41
 70
     1
102
RTVSPost2010Prop42
 90
       50
102
RTVSPost2010PropOp42
 70
     1
102
RTVSPost2010Prop43
 90
        3
102
RTVSPost2010PropOp43
 70
     1
102
RTVSPost2010Prop44ColorIndex
 90
        5
102
RTVSPost2010Prop44ColorRGB
 90
      255
102
RTVSPost2010PropOp44
 70
     1
102
RTVSPost2010Prop45
280
     0
102
RTVSPost2010PropOp45
 70
     1
102
RTVSPost2010Prop46
 90
       50
102
RTVSPost2010PropOp46
 70
     1
102
RTVSPost2010Prop47
 90
       50
102
RTVSPost2010PropOp47
 70
     1
102
RTVSPost2010Prop48
 90
       50
102
RTVSPost2010PropOp48
 70
     1
102
RTVSPost2010Prop49
280
     0
102
RTVSPost2010PropOp49
 70
     1
102
RTVSPost2010Prop50
 90
       50
102
RTVSPost2010PropOp50
 70
     1
102
RTVSPost2010Prop51ColorIndex
 90
      256
102
RTVSPost2010Prop51ColorRGB
 90
-16777216
102
RTVSPost2010PropOp51
 70
     0
102
RTVSPost2010Prop52
140
1.0
102
RTVSPost2010PropOp52
 70
     0
102
RTVSPost2010Prop53
 90
        2
102
RTVSPost2010PropOp53
 70
     1
102
RTVSPost2010Prop54
  1
strokes_ogs.tif
102
RTVSPost2010PropOp54
 70
     1
102
RTVSPost2010Prop55
280
     0
102
RTVSPost2010PropOp55
 70
     1
102
RTVSPost2010Prop56
140
1.0
102
RTVSPost2010PropOp56
 70
     1
102
RTVSPost2010Prop57
140
1.0
102
RTVSPost2010PropOp57
 70
     1
  0
XRECORD
  5
8AD7E
102
{ACAD_REACTORS
330
876B2
102
}
330
876B2
100
AcDbXrecord
280
     1
102
RTVSPropertyOp0
 70
     1
102
RTVSPropertyOp1
 70
     1
102
RTVSPropertyOp2
 70
     1
102
RTVSPropertyOp3
 70
     1
102
RTVSPropertyOp4
 70
     1
102
RTVSPropertyOp5
 70
     1
102
RTVSPropertyOp6
 70
     1
102
RTVSPropertyOp7
 70
     1
102
RTVSPropertyOp8
 70
     1
102
RTVSPropertyOp9
 70
     1
102
RTVSPropertyOp10
 70
     1
102
RTVSPropertyOp11
 70
     1
102
RTVSPropertyOp12
 70
     1
102
RTVSPropertyOp13
 70
     1
102
RTVSPropertyOp14
 70
     1
102
RTVSPropertyOp15
 70
     1
102
RTVSPropertyOp16
 70
     1
102
RTVSPropertyOp17
 70
     1
102
RTVSPropertyOp18
 70
     1
102
RTVSPropertyOp19
 70
     1
102
RTVSPropertyOp20
 70
     1
102
RTVSPropertyOp21
 70
     1
102
RTVSPropertyOp22
 70
     1
102
RTVSPropertyOp23
 70
     1
102
RTVSPropertyOp24
 70
     1
102
RTVSPropertyOp25
 70
     1
102
RTVSPropertyOp26
 70
     1
102
RTVSPropertyOp27
 70
     1
102
RTVSPropertyOp28
 70
     1
102
RTVSPropertyOp29
 70
     1
102
RTVSPropertyOp30
 70
     1
102
RTVSPropertyOp31
 70
     1
102
RTVSPropertyOp32
 70
     1
102
RTVSPropertyOp33
 70
     1
102
RTVSPropertyOp34
 70
     1
102
RTVSPropertyOp35
 70
     1
102
RTVSPropertyOp36
 70
     1
102
RTVSPropertyOp37
 70
     1
102
RTVSPropertyOp38
 70
     1
102
RTVSPropertyOp39
 70
     1
102
RTVSPropertyOp40
 70
     1
102
RTVSPropertyOp41
 70
     1
102
RTVSPropertyOp42
 70
     1
102
RTVSPropertyOp43
 70
     1
102
RTVSPropertyOp44
 70
     1
102
RTVSPropertyOp45
 70
     1
102
RTVSPropertyOp46
 70
     1
102
RTVSPropertyOp47
 70
     1
102
RTVSPropertyOp48
 70
     1
102
RTVSPropertyOp49
 70
     1
102
RTVSPropertyOp50
 70
     1
102
RTVSPropertyOp51
 70
     0
102
RTVSPropertyOp52
 70
     0
102
RTVSPropertyOp53
 70
     1
102
RTVSPropertyOp54
 70
     1
102
RTVSPropertyOp55
 70
     1
102
RTVSPropertyOp56
 70
     1
102
RTVSPropertyOp57
 70
     1
102
RTVSPost2010Prop28
280
     0
102
RTVSPost2010PropOp28
 70
     1
102
RTVSPost2010Prop29
280
     1
102
RTVSPost2010PropOp29
 70
     1
102
RTVSPost2010Prop30
280
     1
102
RTVSPost2010PropOp30
 70
     1
102
RTVSPost2010Prop31
280
     0
102
RTVSPost2010PropOp31
 70
     1
102
RTVSPost2010Prop32
280
     0
102
RTVSPost2010PropOp32
 70
     1
102
RTVSPost2010Prop33
280
     0
102
RTVSPost2010PropOp33
 70
     1
102
RTVSPost2010Prop34
280
     0
102
RTVSPost2010PropOp34
 70
     1
102
RTVSPost2010Prop35
280
     0
102
RTVSPost2010PropOp35
 70
     1
102
RTVSPost2010Prop36
280
     0
102
RTVSPost2010PropOp36
 70
     1
102
RTVSPost2010Prop37
 90
       50
102
RTVSPost2010PropOp37
 70
     1
102
RTVSPost2010Prop38
140
0.0
102
RTVSPost2010PropOp38
 70
     1
102
RTVSPost2010Prop39
140
1.0
102
RTVSPost2010PropOp39
 70
     1
102
RTVSPost2010Prop40
 90
        0
102
RTVSPost2010PropOp40
 70
     1
102
RTVSPost2010Prop41ColorIndex
 90
       18
102
RTVSPost2010Prop41ColorRGB
 90
        0
102
RTVSPost2010PropOp41
 70
     1
102
RTVSPost2010Prop42
 90
       50
102
RTVSPost2010PropOp42
 70
     1
102
RTVSPost2010Prop43
 90
        3
102
RTVSPost2010PropOp43
 70
     1
102
RTVSPost2010Prop44ColorIndex
 90
        5
102
RTVSPost2010Prop44ColorRGB
 90
      255
102
RTVSPost2010PropOp44
 70
     1
102
RTVSPost2010Prop45
280
     0
102
RTVSPost2010PropOp45
 70
     1
102
RTVSPost2010Prop46
 90
       50
102
RTVSPost2010PropOp46
 70
     1
102
RTVSPost2010Prop47
 90
       50
102
RTVSPost2010PropOp47
 70
     1
102
RTVSPost2010Prop48
 90
       50
102
RTVSPost2010PropOp48
 70
     1
102
RTVSPost2010Prop49
280
     0
102
RTVSPost2010PropOp49
 70
     1
102
RTVSPost2010Prop50
 90
       50
102
RTVSPost2010PropOp50
 70
     1
102
RTVSPost2010Prop51ColorIndex
 90
      256
102
RTVSPost2010Prop51ColorRGB
 90
-16777216
102
RTVSPost2010PropOp51
 70
     0
102
RTVSPost2010Prop52
140
1.0
102
RTVSPost2010PropOp52
 70
     0
102
RTVSPost2010Prop53
 90
        2
102
RTVSPost2010PropOp53
 70
     1
102
RTVSPost2010Prop54
  1
strokes_ogs.tif
102
RTVSPost2010PropOp54
 70
     1
102
RTVSPost2010Prop55
280
     0
102
RTVSPost2010PropOp55
 70
     1
102
RTVSPost2010Prop56
140
1.0
102
RTVSPost2010PropOp56
 70
     1
102
RTVSPost2010Prop57
140
1.0
102
RTVSPost2010PropOp57
 70
     1
  0
XRECORD
  5
8AD7F
102
{ACAD_REACTORS
330
876B6
102
}
330
876B6
100
AcDbXrecord
280
     1
102
RTVSPropertyOp0
 70
     1
102
RTVSPropertyOp1
 70
     1
102
RTVSPropertyOp2
 70
     1
102
RTVSPropertyOp3
 70
     1
102
RTVSPropertyOp4
 70
     1
102
RTVSPropertyOp5
 70
     1
102
RTVSPropertyOp6
 70
     1
102
RTVSPropertyOp7
 70
     1
102
RTVSPropertyOp8
 70
     1
102
RTVSPropertyOp9
 70
     1
102
RTVSPropertyOp10
 70
     1
102
RTVSPropertyOp11
 70
     1
102
RTVSPropertyOp12
 70
     1
102
RTVSPropertyOp13
 70
     1
102
RTVSPropertyOp14
 70
     1
102
RTVSPropertyOp15
 70
     1
102
RTVSPropertyOp16
 70
     1
102
RTVSPropertyOp17
 70
     1
102
RTVSPropertyOp18
 70
     1
102
RTVSPropertyOp19
 70
     1
102
RTVSPropertyOp20
 70
     1
102
RTVSPropertyOp21
 70
     1
102
RTVSPropertyOp22
 70
     1
102
RTVSPropertyOp23
 70
     1
102
RTVSPropertyOp24
 70
     1
102
RTVSPropertyOp25
 70
     1
102
RTVSPropertyOp26
 70
     1
102
RTVSPropertyOp27
 70
     1
102
RTVSPropertyOp28
 70
     1
102
RTVSPropertyOp29
 70
     1
102
RTVSPropertyOp30
 70
     1
102
RTVSPropertyOp31
 70
     1
102
RTVSPropertyOp32
 70
     1
102
RTVSPropertyOp33
 70
     1
102
RTVSPropertyOp34
 70
     1
102
RTVSPropertyOp35
 70
     1
102
RTVSPropertyOp36
 70
     1
102
RTVSPropertyOp37
 70
     1
102
RTVSPropertyOp38
 70
     1
102
RTVSPropertyOp39
 70
     1
102
RTVSPropertyOp40
 70
     1
102
RTVSPropertyOp41
 70
     1
102
RTVSPropertyOp42
 70
     1
102
RTVSPropertyOp43
 70
     1
102
RTVSPropertyOp44
 70
     1
102
RTVSPropertyOp45
 70
     1
102
RTVSPropertyOp46
 70
     1
102
RTVSPropertyOp47
 70
     1
102
RTVSPropertyOp48
 70
     1
102
RTVSPropertyOp49
 70
     1
102
RTVSPropertyOp50
 70
     1
102
RTVSPropertyOp51
 70
     0
102
RTVSPropertyOp52
 70
     0
102
RTVSPropertyOp53
 70
     1
102
RTVSPropertyOp54
 70
     1
102
RTVSPropertyOp55
 70
     1
102
RTVSPropertyOp56
 70
     1
102
RTVSPropertyOp57
 70
     1
102
RTVSPost2010Prop28
280
     0
102
RTVSPost2010PropOp28
 70
     1
102
RTVSPost2010Prop29
280
     1
102
RTVSPost2010PropOp29
 70
     1
102
RTVSPost2010Prop30
280
     1
102
RTVSPost2010PropOp30
 70
     1
102
RTVSPost2010Prop31
280
     0
102
RTVSPost2010PropOp31
 70
     1
102
RTVSPost2010Prop32
280
     0
102
RTVSPost2010PropOp32
 70
     1
102
RTVSPost2010Prop33
280
     0
102
RTVSPost2010PropOp33
 70
     1
102
RTVSPost2010Prop34
280
     0
102
RTVSPost2010PropOp34
 70
     1
102
RTVSPost2010Prop35
280
     0
102
RTVSPost2010PropOp35
 70
     1
102
RTVSPost2010Prop36
280
     0
102
RTVSPost2010PropOp36
 70
     1
102
RTVSPost2010Prop37
 90
       50
102
RTVSPost2010PropOp37
 70
     1
102
RTVSPost2010Prop38
140
0.0
102
RTVSPost2010PropOp38
 70
     1
102
RTVSPost2010Prop39
140
1.0
102
RTVSPost2010PropOp39
 70
     1
102
RTVSPost2010Prop40
 90
        0
102
RTVSPost2010PropOp40
 70
     1
102
RTVSPost2010Prop41ColorIndex
 90
       18
102
RTVSPost2010Prop41ColorRGB
 90
        0
102
RTVSPost2010PropOp41
 70
     1
102
RTVSPost2010Prop42
 90
       50
102
RTVSPost2010PropOp42
 70
     1
102
RTVSPost2010Prop43
 90
        3
102
RTVSPost2010PropOp43
 70
     1
102
RTVSPost2010Prop44ColorIndex
 90
        5
102
RTVSPost2010Prop44ColorRGB
 90
      255
102
RTVSPost2010PropOp44
 70
     1
102
RTVSPost2010Prop45
280
     0
102
RTVSPost2010PropOp45
 70
     1
102
RTVSPost2010Prop46
 90
       50
102
RTVSPost2010PropOp46
 70
     1
102
RTVSPost2010Prop47
 90
       50
102
RTVSPost2010PropOp47
 70
     1
102
RTVSPost2010Prop48
 90
       50
102
RTVSPost2010PropOp48
 70
     1
102
RTVSPost2010Prop49
280
     0
102
RTVSPost2010PropOp49
 70
     1
102
RTVSPost2010Prop50
 90
       50
102
RTVSPost2010PropOp50
 70
     1
102
RTVSPost2010Prop51ColorIndex
 90
      256
102
RTVSPost2010Prop51ColorRGB
 90
-16777216
102
RTVSPost2010PropOp51
 70
     0
102
RTVSPost2010Prop52
140
1.0
102
RTVSPost2010PropOp52
 70
     0
102
RTVSPost2010Prop53
 90
        2
102
RTVSPost2010PropOp53
 70
     1
102
RTVSPost2010Prop54
  1
strokes_ogs.tif
102
RTVSPost2010PropOp54
 70
     1
102
RTVSPost2010Prop55
280
     0
102
RTVSPost2010PropOp55
 70
     1
102
RTVSPost2010Prop56
140
1.0
102
RTVSPost2010PropOp56
 70
     1
102
RTVSPost2010Prop57
140
1.0
102
RTVSPost2010PropOp57
 70
     1
  0
XRECORD
  5
8AD80
102
{ACAD_REACTORS
330
876D0
102
}
330
876D0
100
AcDbXrecord
280
     1
102
RTVSPropertyOp0
 70
     0
102
RTVSPropertyOp1
 70
     0
102
RTVSPropertyOp2
 70
     0
102
RTVSPropertyOp3
 70
     0
102
RTVSPropertyOp4
 70
     0
102
RTVSPropertyOp5
 70
     0
102
RTVSPropertyOp6
 70
     0
102
RTVSPropertyOp7
 70
     0
102
RTVSPropertyOp8
 70
     0
102
RTVSPropertyOp9
 70
     0
102
RTVSPropertyOp10
 70
     0
102
RTVSPropertyOp11
 70
     0
102
RTVSPropertyOp12
 70
     0
102
RTVSPropertyOp13
 70
     0
102
RTVSPropertyOp14
 70
     2
102
RTVSPropertyOp15
 70
     0
102
RTVSPropertyOp16
 70
     0
102
RTVSPropertyOp17
 70
     0
102
RTVSPropertyOp18
 70
     0
102
RTVSPropertyOp19
 70
     0
102
RTVSPropertyOp20
 70
     0
102
RTVSPropertyOp21
 70
     0
102
RTVSPropertyOp22
 70
     0
102
RTVSPropertyOp23
 70
     0
102
RTVSPropertyOp24
 70
     0
102
RTVSPropertyOp25
 70
     0
102
RTVSPropertyOp26
 70
     0
102
RTVSPropertyOp27
 70
     0
102
RTVSPropertyOp28
 70
     1
102
RTVSPropertyOp29
 70
     1
102
RTVSPropertyOp30
 70
     1
102
RTVSPropertyOp31
 70
     1
102
RTVSPropertyOp32
 70
     1
102
RTVSPropertyOp33
 70
     1
102
RTVSPropertyOp34
 70
     1
102
RTVSPropertyOp35
 70
     1
102
RTVSPropertyOp36
 70
     1
102
RTVSPropertyOp37
 70
     0
102
RTVSPropertyOp38
 70
     0
102
RTVSPropertyOp39
 70
     0
102
RTVSPropertyOp40
 70
     0
102
RTVSPropertyOp41
 70
     0
102
RTVSPropertyOp42
 70
     0
102
RTVSPropertyOp43
 70
     0
102
RTVSPropertyOp44
 70
     0
102
RTVSPropertyOp45
 70
     1
102
RTVSPropertyOp46
 70
     0
102
RTVSPropertyOp47
 70
     0
102
RTVSPropertyOp48
 70
     0
102
RTVSPropertyOp49
 70
     1
102
RTVSPropertyOp50
 70
     0
102
RTVSPropertyOp51
 70
     0
102
RTVSPropertyOp52
 70
     0
102
RTVSPropertyOp53
 70
     0
102
RTVSPropertyOp54
 70
     0
102
RTVSPropertyOp55
 70
     1
102
RTVSPropertyOp56
 70
     0
102
RTVSPropertyOp57
 70
     0
102
RTVSPost2010Prop28
280
     0
102
RTVSPost2010PropOp28
 70
     1
102
RTVSPost2010Prop29
280
     1
102
RTVSPost2010PropOp29
 70
     1
102
RTVSPost2010Prop30
280
     1
102
RTVSPost2010PropOp30
 70
     1
102
RTVSPost2010Prop31
280
     0
102
RTVSPost2010PropOp31
 70
     1
102
RTVSPost2010Prop32
280
     0
102
RTVSPost2010PropOp32
 70
     1
102
RTVSPost2010Prop33
280
     0
102
RTVSPost2010PropOp33
 70
     1
102
RTVSPost2010Prop34
280
     0
102
RTVSPost2010PropOp34
 70
     1
102
RTVSPost2010Prop35
280
     0
102
RTVSPost2010PropOp35
 70
     1
102
RTVSPost2010Prop36
280
     0
102
RTVSPost2010PropOp36
 70
     1
102
RTVSPost2010Prop37
 90
       50
102
RTVSPost2010PropOp37
 70
     0
102
RTVSPost2010Prop38
140
0.0
102
RTVSPost2010PropOp38
 70
     0
102
RTVSPost2010Prop39
140
1.0
102
RTVSPost2010PropOp39
 70
     0
102
RTVSPost2010Prop40
 90
        0
102
RTVSPost2010PropOp40
 70
     0
102
RTVSPost2010Prop41ColorIndex
 90
       18
102
RTVSPost2010Prop41ColorRGB
 90
        0
102
RTVSPost2010PropOp41
 70
     0
102
RTVSPost2010Prop42
 90
       50
102
RTVSPost2010PropOp42
 70
     0
102
RTVSPost2010Prop43
 90
        3
102
RTVSPost2010PropOp43
 70
     0
102
RTVSPost2010Prop44ColorIndex
 90
        5
102
RTVSPost2010Prop44ColorRGB
 90
      255
102
RTVSPost2010PropOp44
 70
     0
102
RTVSPost2010Prop45
280
     0
102
RTVSPost2010PropOp45
 70
     1
102
RTVSPost2010Prop46
 90
       50
102
RTVSPost2010PropOp46
 70
     0
102
RTVSPost2010Prop47
 90
       50
102
RTVSPost2010PropOp47
 70
     0
102
RTVSPost2010Prop48
 90
       50
102
RTVSPost2010PropOp48
 70
     0
102
RTVSPost2010Prop49
280
     0
102
RTVSPost2010PropOp49
 70
     1
102
RTVSPost2010Prop50
 90
       50
102
RTVSPost2010PropOp50
 70
     0
102
RTVSPost2010Prop51ColorIndex
 90
      256
102
RTVSPost2010Prop51ColorRGB
 90
-16777216
102
RTVSPost2010PropOp51
 70
     0
102
RTVSPost2010Prop52
140
1.0
102
RTVSPost2010PropOp52
 70
     0
102
RTVSPost2010Prop53
 90
        2
102
RTVSPost2010PropOp53
 70
     0
102
RTVSPost2010Prop54
  1
strokes_ogs.tif
102
RTVSPost2010PropOp54
 70
     0
102
RTVSPost2010Prop55
280
     0
102
RTVSPost2010PropOp55
 70
     1
102
RTVSPost2010Prop56
140
1.0
102
RTVSPost2010PropOp56
 70
     0
102
RTVSPost2010Prop57
140
1.0
102
RTVSPost2010PropOp57
 70
     0
  0
XRECORD
  5
8AD81
102
{ACAD_REACTORS
330
876BE
102
}
330
876BE
100
AcDbXrecord
280
     1
102
RTVSPropertyOp0
 70
     1
102
RTVSPropertyOp1
 70
     1
102
RTVSPropertyOp2
 70
     1
102
RTVSPropertyOp3
 70
     1
102
RTVSPropertyOp4
 70
     1
102
RTVSPropertyOp5
 70
     1
102
RTVSPropertyOp6
 70
     1
102
RTVSPropertyOp7
 70
     1
102
RTVSPropertyOp8
 70
     1
102
RTVSPropertyOp9
 70
     1
102
RTVSPropertyOp10
 70
     1
102
RTVSPropertyOp11
 70
     1
102
RTVSPropertyOp12
 70
     1
102
RTVSPropertyOp13
 70
     1
102
RTVSPropertyOp14
 70
     1
102
RTVSPropertyOp15
 70
     1
102
RTVSPropertyOp16
 70
     1
102
RTVSPropertyOp17
 70
     1
102
RTVSPropertyOp18
 70
     1
102
RTVSPropertyOp19
 70
     1
102
RTVSPropertyOp20
 70
     1
102
RTVSPropertyOp21
 70
     1
102
RTVSPropertyOp22
 70
     1
102
RTVSPropertyOp23
 70
     1
102
RTVSPropertyOp24
 70
     1
102
RTVSPropertyOp25
 70
     1
102
RTVSPropertyOp26
 70
     1
102
RTVSPropertyOp27
 70
     1
102
RTVSPropertyOp28
 70
     1
102
RTVSPropertyOp29
 70
     1
102
RTVSPropertyOp30
 70
     1
102
RTVSPropertyOp31
 70
     1
102
RTVSPropertyOp32
 70
     1
102
RTVSPropertyOp33
 70
     1
102
RTVSPropertyOp34
 70
     1
102
RTVSPropertyOp35
 70
     1
102
RTVSPropertyOp36
 70
     1
102
RTVSPropertyOp37
 70
     1
102
RTVSPropertyOp38
 70
     1
102
RTVSPropertyOp39
 70
     1
102
RTVSPropertyOp40
 70
     1
102
RTVSPropertyOp41
 70
     1
102
RTVSPropertyOp42
 70
     1
102
RTVSPropertyOp43
 70
     1
102
RTVSPropertyOp44
 70
     1
102
RTVSPropertyOp45
 70
     1
102
RTVSPropertyOp46
 70
     1
102
RTVSPropertyOp47
 70
     1
102
RTVSPropertyOp48
 70
     1
102
RTVSPropertyOp49
 70
     1
102
RTVSPropertyOp50
 70
     1
102
RTVSPropertyOp51
 70
     0
102
RTVSPropertyOp52
 70
     0
102
RTVSPropertyOp53
 70
     1
102
RTVSPropertyOp54
 70
     1
102
RTVSPropertyOp55
 70
     1
102
RTVSPropertyOp56
 70
     1
102
RTVSPropertyOp57
 70
     1
102
RTVSPost2010Prop28
280
     0
102
RTVSPost2010PropOp28
 70
     1
102
RTVSPost2010Prop29
280
     1
102
RTVSPost2010PropOp29
 70
     1
102
RTVSPost2010Prop30
280
     1
102
RTVSPost2010PropOp30
 70
     1
102
RTVSPost2010Prop31
280
     0
102
RTVSPost2010PropOp31
 70
     1
102
RTVSPost2010Prop32
280
     0
102
RTVSPost2010PropOp32
 70
     1
102
RTVSPost2010Prop33
280
     0
102
RTVSPost2010PropOp33
 70
     1
102
RTVSPost2010Prop34
280
     0
102
RTVSPost2010PropOp34
 70
     1
102
RTVSPost2010Prop35
280
     0
102
RTVSPost2010PropOp35
 70
     1
102
RTVSPost2010Prop36
280
     0
102
RTVSPost2010PropOp36
 70
     1
102
RTVSPost2010Prop37
 90
       50
102
RTVSPost2010PropOp37
 70
     1
102
RTVSPost2010Prop38
140
0.0
102
RTVSPost2010PropOp38
 70
     1
102
RTVSPost2010Prop39
140
1.0
102
RTVSPost2010PropOp39
 70
     1
102
RTVSPost2010Prop40
 90
        0
102
RTVSPost2010PropOp40
 70
     1
102
RTVSPost2010Prop41ColorIndex
 90
       18
102
RTVSPost2010Prop41ColorRGB
 90
        0
102
RTVSPost2010PropOp41
 70
     1
102
RTVSPost2010Prop42
 90
       50
102
RTVSPost2010PropOp42
 70
     1
102
RTVSPost2010Prop43
 90
        3
102
RTVSPost2010PropOp43
 70
     1
102
RTVSPost2010Prop44ColorIndex
 90
        5
102
RTVSPost2010Prop44ColorRGB
 90
      255
102
RTVSPost2010PropOp44
 70
     1
102
RTVSPost2010Prop45
280
     0
102
RTVSPost2010PropOp45
 70
     1
102
RTVSPost2010Prop46
 90
       50
102
RTVSPost2010PropOp46
 70
     1
102
RTVSPost2010Prop47
 90
       50
102
RTVSPost2010PropOp47
 70
     1
102
RTVSPost2010Prop48
 90
       50
102
RTVSPost2010PropOp48
 70
     1
102
RTVSPost2010Prop49
280
     0
102
RTVSPost2010PropOp49
 70
     1
102
RTVSPost2010Prop50
 90
       50
102
RTVSPost2010PropOp50
 70
     1
102
RTVSPost2010Prop51ColorIndex
 90
      256
102
RTVSPost2010Prop51ColorRGB
 90
-16777216
102
RTVSPost2010PropOp51
 70
     0
102
RTVSPost2010Prop52
140
1.0
102
RTVSPost2010PropOp52
 70
     0
102
RTVSPost2010Prop53
 90
        2
102
RTVSPost2010PropOp53
 70
     1
102
RTVSPost2010Prop54
  1
strokes_ogs.tif
102
RTVSPost2010PropOp54
 70
     1
102
RTVSPost2010Prop55
280
     0
102
RTVSPost2010PropOp55
 70
     1
102
RTVSPost2010Prop56
140
1.0
102
RTVSPost2010PropOp56
 70
     1
102
RTVSPost2010Prop57
140
1.0
102
RTVSPost2010PropOp57
 70
     1
  0
XRECORD
  5
8AD82
102
{ACAD_REACTORS
330
876A2
102
}
330
876A2
100
AcDbXrecord
280
     1
102
RTVSPropertyOp0
 70
     1
102
RTVSPropertyOp1
 70
     1
102
RTVSPropertyOp2
 70
     1
102
RTVSPropertyOp3
 70
     1
102
RTVSPropertyOp4
 70
     1
102
RTVSPropertyOp5
 70
     1
102
RTVSPropertyOp6
 70
     1
102
RTVSPropertyOp7
 70
     1
102
RTVSPropertyOp8
 70
     1
102
RTVSPropertyOp9
 70
     1
102
RTVSPropertyOp10
 70
     1
102
RTVSPropertyOp11
 70
     1
102
RTVSPropertyOp12
 70
     1
102
RTVSPropertyOp13
 70
     1
102
RTVSPropertyOp14
 70
     1
102
RTVSPropertyOp15
 70
     1
102
RTVSPropertyOp16
 70
     1
102
RTVSPropertyOp17
 70
     1
102
RTVSPropertyOp18
 70
     1
102
RTVSPropertyOp19
 70
     1
102
RTVSPropertyOp20
 70
     1
102
RTVSPropertyOp21
 70
     1
102
RTVSPropertyOp22
 70
     1
102
RTVSPropertyOp23
 70
     1
102
RTVSPropertyOp24
 70
     1
102
RTVSPropertyOp25
 70
     1
102
RTVSPropertyOp26
 70
     1
102
RTVSPropertyOp27
 70
     1
102
RTVSPropertyOp28
 70
     1
102
RTVSPropertyOp29
 70
     1
102
RTVSPropertyOp30
 70
     1
102
RTVSPropertyOp31
 70
     1
102
RTVSPropertyOp32
 70
     1
102
RTVSPropertyOp33
 70
     1
102
RTVSPropertyOp34
 70
     1
102
RTVSPropertyOp35
 70
     1
102
RTVSPropertyOp36
 70
     1
102
RTVSPropertyOp37
 70
     1
102
RTVSPropertyOp38
 70
     1
102
RTVSPropertyOp39
 70
     1
102
RTVSPropertyOp40
 70
     1
102
RTVSPropertyOp41
 70
     1
102
RTVSPropertyOp42
 70
     1
102
RTVSPropertyOp43
 70
     1
102
RTVSPropertyOp44
 70
     1
102
RTVSPropertyOp45
 70
     1
102
RTVSPropertyOp46
 70
     1
102
RTVSPropertyOp47
 70
     1
102
RTVSPropertyOp48
 70
     1
102
RTVSPropertyOp49
 70
     1
102
RTVSPropertyOp50
 70
     1
102
RTVSPropertyOp51
 70
     0
102
RTVSPropertyOp52
 70
     0
102
RTVSPropertyOp53
 70
     1
102
RTVSPropertyOp54
 70
     1
102
RTVSPropertyOp55
 70
     1
102
RTVSPropertyOp56
 70
     1
102
RTVSPropertyOp57
 70
     1
102
RTVSPost2010Prop28
280
     0
102
RTVSPost2010PropOp28
 70
     1
102
RTVSPost2010Prop29
280
     1
102
RTVSPost2010PropOp29
 70
     1
102
RTVSPost2010Prop30
280
     1
102
RTVSPost2010PropOp30
 70
     1
102
RTVSPost2010Prop31
280
     0
102
RTVSPost2010PropOp31
 70
     1
102
RTVSPost2010Prop32
280
     0
102
RTVSPost2010PropOp32
 70
     1
102
RTVSPost2010Prop33
280
     0
102
RTVSPost2010PropOp33
 70
     1
102
RTVSPost2010Prop34
280
     0
102
RTVSPost2010PropOp34
 70
     1
102
RTVSPost2010Prop35
280
     0
102
RTVSPost2010PropOp35
 70
     1
102
RTVSPost2010Prop36
280
     0
102
RTVSPost2010PropOp36
 70
     1
102
RTVSPost2010Prop37
 90
       50
102
RTVSPost2010PropOp37
 70
     1
102
RTVSPost2010Prop38
140
0.0
102
RTVSPost2010PropOp38
 70
     1
102
RTVSPost2010Prop39
140
1.0
102
RTVSPost2010PropOp39
 70
     1
102
RTVSPost2010Prop40
 90
        0
102
RTVSPost2010PropOp40
 70
     1
102
RTVSPost2010Prop41ColorIndex
 90
       18
102
RTVSPost2010Prop41ColorRGB
 90
        0
102
RTVSPost2010PropOp41
 70
     1
102
RTVSPost2010Prop42
 90
       50
102
RTVSPost2010PropOp42
 70
     1
102
RTVSPost2010Prop43
 90
        3
102
RTVSPost2010PropOp43
 70
     1
102
RTVSPost2010Prop44ColorIndex
 90
        5
102
RTVSPost2010Prop44ColorRGB
 90
      255
102
RTVSPost2010PropOp44
 70
     1
102
RTVSPost2010Prop45
280
     0
102
RTVSPost2010PropOp45
 70
     1
102
RTVSPost2010Prop46
 90
       50
102
RTVSPost2010PropOp46
 70
     1
102
RTVSPost2010Prop47
 90
       50
102
RTVSPost2010PropOp47
 70
     1
102
RTVSPost2010Prop48
 90
       50
102
RTVSPost2010PropOp48
 70
     1
102
RTVSPost2010Prop49
280
     0
102
RTVSPost2010PropOp49
 70
     1
102
RTVSPost2010Prop50
 90
       50
102
RTVSPost2010PropOp50
 70
     1
102
RTVSPost2010Prop51ColorIndex
 90
      256
102
RTVSPost2010Prop51ColorRGB
 90
-16777216
102
RTVSPost2010PropOp51
 70
     0
102
RTVSPost2010Prop52
140
1.0
102
RTVSPost2010PropOp52
 70
     0
102
RTVSPost2010Prop53
 90
        2
102
RTVSPost2010PropOp53
 70
     1
102
RTVSPost2010Prop54
  1
strokes_ogs.tif
102
RTVSPost2010PropOp54
 70
     1
102
RTVSPost2010Prop55
280
     0
102
RTVSPost2010PropOp55
 70
     1
102
RTVSPost2010Prop56
140
1.0
102
RTVSPost2010PropOp56
 70
     1
102
RTVSPost2010Prop57
140
1.0
102
RTVSPost2010PropOp57
 70
     1
  0
XRECORD
  5
8AD83
102
{ACAD_REACTORS
330
876A4
102
}
330
876A4
100
AcDbXrecord
280
     1
102
RTVSPropertyOp0
 70
     1
102
RTVSPropertyOp1
 70
     1
102
RTVSPropertyOp2
 70
     1
102
RTVSPropertyOp3
 70
     1
102
RTVSPropertyOp4
 70
     1
102
RTVSPropertyOp5
 70
     1
102
RTVSPropertyOp6
 70
     1
102
RTVSPropertyOp7
 70
     1
102
RTVSPropertyOp8
 70
     1
102
RTVSPropertyOp9
 70
     1
102
RTVSPropertyOp10
 70
     1
102
RTVSPropertyOp11
 70
     1
102
RTVSPropertyOp12
 70
     1
102
RTVSPropertyOp13
 70
     1
102
RTVSPropertyOp14
 70
     1
102
RTVSPropertyOp15
 70
     1
102
RTVSPropertyOp16
 70
     1
102
RTVSPropertyOp17
 70
     1
102
RTVSPropertyOp18
 70
     1
102
RTVSPropertyOp19
 70
     1
102
RTVSPropertyOp20
 70
     1
102
RTVSPropertyOp21
 70
     1
102
RTVSPropertyOp22
 70
     1
102
RTVSPropertyOp23
 70
     1
102
RTVSPropertyOp24
 70
     1
102
RTVSPropertyOp25
 70
     1
102
RTVSPropertyOp26
 70
     1
102
RTVSPropertyOp27
 70
     1
102
RTVSPropertyOp28
 70
     1
102
RTVSPropertyOp29
 70
     1
102
RTVSPropertyOp30
 70
     1
102
RTVSPropertyOp31
 70
     1
102
RTVSPropertyOp32
 70
     1
102
RTVSPropertyOp33
 70
     1
102
RTVSPropertyOp34
 70
     1
102
RTVSPropertyOp35
 70
     1
102
RTVSPropertyOp36
 70
     1
102
RTVSPropertyOp37
 70
     1
102
RTVSPropertyOp38
 70
     1
102
RTVSPropertyOp39
 70
     1
102
RTVSPropertyOp40
 70
     1
102
RTVSPropertyOp41
 70
     1
102
RTVSPropertyOp42
 70
     1
102
RTVSPropertyOp43
 70
     1
102
RTVSPropertyOp44
 70
     1
102
RTVSPropertyOp45
 70
     1
102
RTVSPropertyOp46
 70
     1
102
RTVSPropertyOp47
 70
     1
102
RTVSPropertyOp48
 70
     1
102
RTVSPropertyOp49
 70
     1
102
RTVSPropertyOp50
 70
     1
102
RTVSPropertyOp51
 70
     0
102
RTVSPropertyOp52
 70
     0
102
RTVSPropertyOp53
 70
     1
102
RTVSPropertyOp54
 70
     1
102
RTVSPropertyOp55
 70
     1
102
RTVSPropertyOp56
 70
     1
102
RTVSPropertyOp57
 70
     1
102
RTVSPost2010Prop28
280
     0
102
RTVSPost2010PropOp28
 70
     1
102
RTVSPost2010Prop29
280
     1
102
RTVSPost2010PropOp29
 70
     1
102
RTVSPost2010Prop30
280
     1
102
RTVSPost2010PropOp30
 70
     1
102
RTVSPost2010Prop31
280
     0
102
RTVSPost2010PropOp31
 70
     1
102
RTVSPost2010Prop32
280
     0
102
RTVSPost2010PropOp32
 70
     1
102
RTVSPost2010Prop33
280
     0
102
RTVSPost2010PropOp33
 70
     1
102
RTVSPost2010Prop34
280
     0
102
RTVSPost2010PropOp34
 70
     1
102
RTVSPost2010Prop35
280
     0
102
RTVSPost2010PropOp35
 70
     1
102
RTVSPost2010Prop36
280
     0
102
RTVSPost2010PropOp36
 70
     1
102
RTVSPost2010Prop37
 90
       50
102
RTVSPost2010PropOp37
 70
     1
102
RTVSPost2010Prop38
140
0.0
102
RTVSPost2010PropOp38
 70
     1
102
RTVSPost2010Prop39
140
1.0
102
RTVSPost2010PropOp39
 70
     1
102
RTVSPost2010Prop40
 90
        0
102
RTVSPost2010PropOp40
 70
     1
102
RTVSPost2010Prop41ColorIndex
 90
       18
102
RTVSPost2010Prop41ColorRGB
 90
        0
102
RTVSPost2010PropOp41
 70
     1
102
RTVSPost2010Prop42
 90
       50
102
RTVSPost2010PropOp42
 70
     1
102
RTVSPost2010Prop43
 90
        3
102
RTVSPost2010PropOp43
 70
     1
102
RTVSPost2010Prop44ColorIndex
 90
        5
102
RTVSPost2010Prop44ColorRGB
 90
      255
102
RTVSPost2010PropOp44
 70
     1
102
RTVSPost2010Prop45
280
     0
102
RTVSPost2010PropOp45
 70
     1
102
RTVSPost2010Prop46
 90
       50
102
RTVSPost2010PropOp46
 70
     1
102
RTVSPost2010Prop47
 90
       50
102
RTVSPost2010PropOp47
 70
     1
102
RTVSPost2010Prop48
 90
       50
102
RTVSPost2010PropOp48
 70
     1
102
RTVSPost2010Prop49
280
     0
102
RTVSPost2010PropOp49
 70
     1
102
RTVSPost2010Prop50
 90
       50
102
RTVSPost2010PropOp50
 70
     1
102
RTVSPost2010Prop51ColorIndex
 90
      256
102
RTVSPost2010Prop51ColorRGB
 90
-16777216
102
RTVSPost2010PropOp51
 70
     0
102
RTVSPost2010Prop52
140
1.0
102
RTVSPost2010PropOp52
 70
     0
102
RTVSPost2010Prop53
 90
        2
102
RTVSPost2010PropOp53
 70
     1
102
RTVSPost2010Prop54
  1
strokes_ogs.tif
102
RTVSPost2010PropOp54
 70
     1
102
RTVSPost2010Prop55
280
     0
102
RTVSPost2010PropOp55
 70
     1
102
RTVSPost2010Prop56
140
1.0
102
RTVSPost2010PropOp56
 70
     1
102
RTVSPost2010Prop57
140
1.0
102
RTVSPost2010PropOp57
 70
     1
  0
XRECORD
  5
8AD84
102
{ACAD_REACTORS
330
876A6
102
}
330
876A6
100
AcDbXrecord
280
     1
102
RTVSPropertyOp0
 70
     1
102
RTVSPropertyOp1
 70
     1
102
RTVSPropertyOp2
 70
     1
102
RTVSPropertyOp3
 70
     1
102
RTVSPropertyOp4
 70
     1
102
RTVSPropertyOp5
 70
     1
102
RTVSPropertyOp6
 70
     1
102
RTVSPropertyOp7
 70
     1
102
RTVSPropertyOp8
 70
     1
102
RTVSPropertyOp9
 70
     1
102
RTVSPropertyOp10
 70
     1
102
RTVSPropertyOp11
 70
     1
102
RTVSPropertyOp12
 70
     1
102
RTVSPropertyOp13
 70
     1
102
RTVSPropertyOp14
 70
     1
102
RTVSPropertyOp15
 70
     1
102
RTVSPropertyOp16
 70
     1
102
RTVSPropertyOp17
 70
     1
102
RTVSPropertyOp18
 70
     1
102
RTVSPropertyOp19
 70
     1
102
RTVSPropertyOp20
 70
     1
102
RTVSPropertyOp21
 70
     1
102
RTVSPropertyOp22
 70
     1
102
RTVSPropertyOp23
 70
     1
102
RTVSPropertyOp24
 70
     1
102
RTVSPropertyOp25
 70
     1
102
RTVSPropertyOp26
 70
     1
102
RTVSPropertyOp27
 70
     1
102
RTVSPropertyOp28
 70
     1
102
RTVSPropertyOp29
 70
     1
102
RTVSPropertyOp30
 70
     1
102
RTVSPropertyOp31
 70
     1
102
RTVSPropertyOp32
 70
     1
102
RTVSPropertyOp33
 70
     1
102
RTVSPropertyOp34
 70
     1
102
RTVSPropertyOp35
 70
     1
102
RTVSPropertyOp36
 70
     1
102
RTVSPropertyOp37
 70
     1
102
RTVSPropertyOp38
 70
     1
102
RTVSPropertyOp39
 70
     1
102
RTVSPropertyOp40
 70
     1
102
RTVSPropertyOp41
 70
     1
102
RTVSPropertyOp42
 70
     1
102
RTVSPropertyOp43
 70
     1
102
RTVSPropertyOp44
 70
     1
102
RTVSPropertyOp45
 70
     1
102
RTVSPropertyOp46
 70
     1
102
RTVSPropertyOp47
 70
     1
102
RTVSPropertyOp48
 70
     1
102
RTVSPropertyOp49
 70
     1
102
RTVSPropertyOp50
 70
     1
102
RTVSPropertyOp51
 70
     0
102
RTVSPropertyOp52
 70
     0
102
RTVSPropertyOp53
 70
     1
102
RTVSPropertyOp54
 70
     1
102
RTVSPropertyOp55
 70
     1
102
RTVSPropertyOp56
 70
     1
102
RTVSPropertyOp57
 70
     1
102
RTVSPost2010Prop28
280
     0
102
RTVSPost2010PropOp28
 70
     1
102
RTVSPost2010Prop29
280
     1
102
RTVSPost2010PropOp29
 70
     1
102
RTVSPost2010Prop30
280
     1
102
RTVSPost2010PropOp30
 70
     1
102
RTVSPost2010Prop31
280
     0
102
RTVSPost2010PropOp31
 70
     1
102
RTVSPost2010Prop32
280
     0
102
RTVSPost2010PropOp32
 70
     1
102
RTVSPost2010Prop33
280
     0
102
RTVSPost2010PropOp33
 70
     1
102
RTVSPost2010Prop34
280
     0
102
RTVSPost2010PropOp34
 70
     1
102
RTVSPost2010Prop35
280
     0
102
RTVSPost2010PropOp35
 70
     1
102
RTVSPost2010Prop36
280
     0
102
RTVSPost2010PropOp36
 70
     1
102
RTVSPost2010Prop37
 90
       50
102
RTVSPost2010PropOp37
 70
     1
102
RTVSPost2010Prop38
140
0.0
102
RTVSPost2010PropOp38
 70
     1
102
RTVSPost2010Prop39
140
1.0
102
RTVSPost2010PropOp39
 70
     1
102
RTVSPost2010Prop40
 90
        0
102
RTVSPost2010PropOp40
 70
     1
102
RTVSPost2010Prop41ColorIndex
 90
       18
102
RTVSPost2010Prop41ColorRGB
 90
        0
102
RTVSPost2010PropOp41
 70
     1
102
RTVSPost2010Prop42
 90
       50
102
RTVSPost2010PropOp42
 70
     1
102
RTVSPost2010Prop43
 90
        3
102
RTVSPost2010PropOp43
 70
     1
102
RTVSPost2010Prop44ColorIndex
 90
        5
102
RTVSPost2010Prop44ColorRGB
 90
      255
102
RTVSPost2010PropOp44
 70
     1
102
RTVSPost2010Prop45
280
     0
102
RTVSPost2010PropOp45
 70
     1
102
RTVSPost2010Prop46
 90
       50
102
RTVSPost2010PropOp46
 70
     1
102
RTVSPost2010Prop47
 90
       50
102
RTVSPost2010PropOp47
 70
     1
102
RTVSPost2010Prop48
 90
       50
102
RTVSPost2010PropOp48
 70
     1
102
RTVSPost2010Prop49
280
     0
102
RTVSPost2010PropOp49
 70
     1
102
RTVSPost2010Prop50
 90
       50
102
RTVSPost2010PropOp50
 70
     1
102
RTVSPost2010Prop51ColorIndex
 90
      256
102
RTVSPost2010Prop51ColorRGB
 90
-16777216
102
RTVSPost2010PropOp51
 70
     0
102
RTVSPost2010Prop52
140
1.0
102
RTVSPost2010PropOp52
 70
     0
102
RTVSPost2010Prop53
 90
        2
102
RTVSPost2010PropOp53
 70
     1
102
RTVSPost2010Prop54
  1
strokes_ogs.tif
102
RTVSPost2010PropOp54
 70
     1
102
RTVSPost2010Prop55
280
     0
102
RTVSPost2010PropOp55
 70
     1
102
RTVSPost2010Prop56
140
1.0
102
RTVSPost2010PropOp56
 70
     1
102
RTVSPost2010Prop57
140
1.0
102
RTVSPost2010PropOp57
 70
     1
  0
XRECORD
  5
8AD85
102
{ACAD_REACTORS
330
876A8
102
}
330
876A8
100
AcDbXrecord
280
     1
102
RTVSPropertyOp0
 70
     1
102
RTVSPropertyOp1
 70
     1
102
RTVSPropertyOp2
 70
     1
102
RTVSPropertyOp3
 70
     1
102
RTVSPropertyOp4
 70
     1
102
RTVSPropertyOp5
 70
     1
102
RTVSPropertyOp6
 70
     1
102
RTVSPropertyOp7
 70
     1
102
RTVSPropertyOp8
 70
     1
102
RTVSPropertyOp9
 70
     1
102
RTVSPropertyOp10
 70
     1
102
RTVSPropertyOp11
 70
     1
102
RTVSPropertyOp12
 70
     1
102
RTVSPropertyOp13
 70
     1
102
RTVSPropertyOp14
 70
     1
102
RTVSPropertyOp15
 70
     1
102
RTVSPropertyOp16
 70
     1
102
RTVSPropertyOp17
 70
     1
102
RTVSPropertyOp18
 70
     1
102
RTVSPropertyOp19
 70
     1
102
RTVSPropertyOp20
 70
     1
102
RTVSPropertyOp21
 70
     1
102
RTVSPropertyOp22
 70
     1
102
RTVSPropertyOp23
 70
     1
102
RTVSPropertyOp24
 70
     1
102
RTVSPropertyOp25
 70
     1
102
RTVSPropertyOp26
 70
     1
102
RTVSPropertyOp27
 70
     1
102
RTVSPropertyOp28
 70
     1
102
RTVSPropertyOp29
 70
     1
102
RTVSPropertyOp30
 70
     1
102
RTVSPropertyOp31
 70
     1
102
RTVSPropertyOp32
 70
     1
102
RTVSPropertyOp33
 70
     1
102
RTVSPropertyOp34
 70
     1
102
RTVSPropertyOp35
 70
     1
102
RTVSPropertyOp36
 70
     1
102
RTVSPropertyOp37
 70
     1
102
RTVSPropertyOp38
 70
     1
102
RTVSPropertyOp39
 70
     1
102
RTVSPropertyOp40
 70
     1
102
RTVSPropertyOp41
 70
     1
102
RTVSPropertyOp42
 70
     1
102
RTVSPropertyOp43
 70
     1
102
RTVSPropertyOp44
 70
     1
102
RTVSPropertyOp45
 70
     1
102
RTVSPropertyOp46
 70
     1
102
RTVSPropertyOp47
 70
     1
102
RTVSPropertyOp48
 70
     1
102
RTVSPropertyOp49
 70
     1
102
RTVSPropertyOp50
 70
     1
102
RTVSPropertyOp51
 70
     0
102
RTVSPropertyOp52
 70
     0
102
RTVSPropertyOp53
 70
     1
102
RTVSPropertyOp54
 70
     1
102
RTVSPropertyOp55
 70
     1
102
RTVSPropertyOp56
 70
     1
102
RTVSPropertyOp57
 70
     1
102
RTVSPost2010Prop28
280
     0
102
RTVSPost2010PropOp28
 70
     1
102
RTVSPost2010Prop29
280
     1
102
RTVSPost2010PropOp29
 70
     1
102
RTVSPost2010Prop30
280
     1
102
RTVSPost2010PropOp30
 70
     1
102
RTVSPost2010Prop31
280
     0
102
RTVSPost2010PropOp31
 70
     1
102
RTVSPost2010Prop32
280
     0
102
RTVSPost2010PropOp32
 70
     1
102
RTVSPost2010Prop33
280
     0
102
RTVSPost2010PropOp33
 70
     1
102
RTVSPost2010Prop34
280
     0
102
RTVSPost2010PropOp34
 70
     1
102
RTVSPost2010Prop35
280
     0
102
RTVSPost2010PropOp35
 70
     1
102
RTVSPost2010Prop36
280
     0
102
RTVSPost2010PropOp36
 70
     1
102
RTVSPost2010Prop37
 90
       50
102
RTVSPost2010PropOp37
 70
     1
102
RTVSPost2010Prop38
140
0.0
102
RTVSPost2010PropOp38
 70
     1
102
RTVSPost2010Prop39
140
1.0
102
RTVSPost2010PropOp39
 70
     1
102
RTVSPost2010Prop40
 90
        0
102
RTVSPost2010PropOp40
 70
     1
102
RTVSPost2010Prop41ColorIndex
 90
       18
102
RTVSPost2010Prop41ColorRGB
 90
        0
102
RTVSPost2010PropOp41
 70
     1
102
RTVSPost2010Prop42
 90
       50
102
RTVSPost2010PropOp42
 70
     1
102
RTVSPost2010Prop43
 90
        3
102
RTVSPost2010PropOp43
 70
     1
102
RTVSPost2010Prop44ColorIndex
 90
        5
102
RTVSPost2010Prop44ColorRGB
 90
      255
102
RTVSPost2010PropOp44
 70
     1
102
RTVSPost2010Prop45
280
     0
102
RTVSPost2010PropOp45
 70
     1
102
RTVSPost2010Prop46
 90
       50
102
RTVSPost2010PropOp46
 70
     1
102
RTVSPost2010Prop47
 90
       50
102
RTVSPost2010PropOp47
 70
     1
102
RTVSPost2010Prop48
 90
       50
102
RTVSPost2010PropOp48
 70
     1
102
RTVSPost2010Prop49
280
     0
102
RTVSPost2010PropOp49
 70
     1
102
RTVSPost2010Prop50
 90
       50
102
RTVSPost2010PropOp50
 70
     1
102
RTVSPost2010Prop51ColorIndex
 90
      256
102
RTVSPost2010Prop51ColorRGB
 90
-16777216
102
RTVSPost2010PropOp51
 70
     0
102
RTVSPost2010Prop52
140
1.0
102
RTVSPost2010PropOp52
 70
     0
102
RTVSPost2010Prop53
 90
        2
102
RTVSPost2010PropOp53
 70
     1
102
RTVSPost2010Prop54
  1
strokes_ogs.tif
102
RTVSPost2010PropOp54
 70
     1
102
RTVSPost2010Prop55
280
     0
102
RTVSPost2010PropOp55
 70
     1
102
RTVSPost2010Prop56
140
1.0
102
RTVSPost2010PropOp56
 70
     1
102
RTVSPost2010Prop57
140
1.0
102
RTVSPost2010PropOp57
 70
     1
  0
XRECORD
  5
8AD86
102
{ACAD_REACTORS
330
876B0
102
}
330
876B0
100
AcDbXrecord
280
     1
102
RTVSPropertyOp0
 70
     1
102
RTVSPropertyOp1
 70
     1
102
RTVSPropertyOp2
 70
     1
102
RTVSPropertyOp3
 70
     1
102
RTVSPropertyOp4
 70
     1
102
RTVSPropertyOp5
 70
     1
102
RTVSPropertyOp6
 70
     1
102
RTVSPropertyOp7
 70
     1
102
RTVSPropertyOp8
 70
     1
102
RTVSPropertyOp9
 70
     1
102
RTVSPropertyOp10
 70
     1
102
RTVSPropertyOp11
 70
     1
102
RTVSPropertyOp12
 70
     1
102
RTVSPropertyOp13
 70
     1
102
RTVSPropertyOp14
 70
     1
102
RTVSPropertyOp15
 70
     1
102
RTVSPropertyOp16
 70
     1
102
RTVSPropertyOp17
 70
     1
102
RTVSPropertyOp18
 70
     1
102
RTVSPropertyOp19
 70
     1
102
RTVSPropertyOp20
 70
     1
102
RTVSPropertyOp21
 70
     1
102
RTVSPropertyOp22
 70
     1
102
RTVSPropertyOp23
 70
     1
102
RTVSPropertyOp24
 70
     1
102
RTVSPropertyOp25
 70
     1
102
RTVSPropertyOp26
 70
     1
102
RTVSPropertyOp27
 70
     1
102
RTVSPropertyOp28
 70
     1
102
RTVSPropertyOp29
 70
     1
102
RTVSPropertyOp30
 70
     1
102
RTVSPropertyOp31
 70
     1
102
RTVSPropertyOp32
 70
     1
102
RTVSPropertyOp33
 70
     1
102
RTVSPropertyOp34
 70
     1
102
RTVSPropertyOp35
 70
     1
102
RTVSPropertyOp36
 70
     1
102
RTVSPropertyOp37
 70
     1
102
RTVSPropertyOp38
 70
     1
102
RTVSPropertyOp39
 70
     1
102
RTVSPropertyOp40
 70
     1
102
RTVSPropertyOp41
 70
     1
102
RTVSPropertyOp42
 70
     1
102
RTVSPropertyOp43
 70
     1
102
RTVSPropertyOp44
 70
     1
102
RTVSPropertyOp45
 70
     1
102
RTVSPropertyOp46
 70
     1
102
RTVSPropertyOp47
 70
     1
102
RTVSPropertyOp48
 70
     1
102
RTVSPropertyOp49
 70
     1
102
RTVSPropertyOp50
 70
     1
102
RTVSPropertyOp51
 70
     0
102
RTVSPropertyOp52
 70
     0
102
RTVSPropertyOp53
 70
     1
102
RTVSPropertyOp54
 70
     1
102
RTVSPropertyOp55
 70
     1
102
RTVSPropertyOp56
 70
     1
102
RTVSPropertyOp57
 70
     1
102
RTVSPost2010Prop28
280
     0
102
RTVSPost2010PropOp28
 70
     1
102
RTVSPost2010Prop29
280
     1
102
RTVSPost2010PropOp29
 70
     1
102
RTVSPost2010Prop30
280
     1
102
RTVSPost2010PropOp30
 70
     1
102
RTVSPost2010Prop31
280
     0
102
RTVSPost2010PropOp31
 70
     1
102
RTVSPost2010Prop32
280
     0
102
RTVSPost2010PropOp32
 70
     1
102
RTVSPost2010Prop33
280
     0
102
RTVSPost2010PropOp33
 70
     1
102
RTVSPost2010Prop34
280
     0
102
RTVSPost2010PropOp34
 70
     1
102
RTVSPost2010Prop35
280
     0
102
RTVSPost2010PropOp35
 70
     1
102
RTVSPost2010Prop36
280
     0
102
RTVSPost2010PropOp36
 70
     1
102
RTVSPost2010Prop37
 90
       50
102
RTVSPost2010PropOp37
 70
     1
102
RTVSPost2010Prop38
140
0.0
102
RTVSPost2010PropOp38
 70
     1
102
RTVSPost2010Prop39
140
1.0
102
RTVSPost2010PropOp39
 70
     1
102
RTVSPost2010Prop40
 90
        0
102
RTVSPost2010PropOp40
 70
     1
102
RTVSPost2010Prop41ColorIndex
 90
       18
102
RTVSPost2010Prop41ColorRGB
 90
        0
102
RTVSPost2010PropOp41
 70
     1
102
RTVSPost2010Prop42
 90
       50
102
RTVSPost2010PropOp42
 70
     1
102
RTVSPost2010Prop43
 90
        3
102
RTVSPost2010PropOp43
 70
     1
102
RTVSPost2010Prop44ColorIndex
 90
        5
102
RTVSPost2010Prop44ColorRGB
 90
      255
102
RTVSPost2010PropOp44
 70
     1
102
RTVSPost2010Prop45
280
     0
102
RTVSPost2010PropOp45
 70
     1
102
RTVSPost2010Prop46
 90
       50
102
RTVSPost2010PropOp46
 70
     1
102
RTVSPost2010Prop47
 90
       50
102
RTVSPost2010PropOp47
 70
     1
102
RTVSPost2010Prop48
 90
       50
102
RTVSPost2010PropOp48
 70
     1
102
RTVSPost2010Prop49
280
     0
102
RTVSPost2010PropOp49
 70
     1
102
RTVSPost2010Prop50
 90
       50
102
RTVSPost2010PropOp50
 70
     1
102
RTVSPost2010Prop51ColorIndex
 90
      256
102
RTVSPost2010Prop51ColorRGB
 90
-16777216
102
RTVSPost2010PropOp51
 70
     0
102
RTVSPost2010Prop52
140
1.0
102
RTVSPost2010PropOp52
 70
     0
102
RTVSPost2010Prop53
 90
        2
102
RTVSPost2010PropOp53
 70
     1
102
RTVSPost2010Prop54
  1
strokes_ogs.tif
102
RTVSPost2010PropOp54
 70
     1
102
RTVSPost2010Prop55
280
     0
102
RTVSPost2010PropOp55
 70
     1
102
RTVSPost2010Prop56
140
1.0
102
RTVSPost2010PropOp56
 70
     1
102
RTVSPost2010Prop57
140
1.0
102
RTVSPost2010PropOp57
 70
     1
  0
XRECORD
  5
8AD87
102
{ACAD_REACTORS
330
876CC
102
}
330
876CC
100
AcDbXrecord
280
     1
102
RTVSPropertyOp0
 70
     0
102
RTVSPropertyOp1
 70
     0
102
RTVSPropertyOp2
 70
     0
102
RTVSPropertyOp3
 70
     0
102
RTVSPropertyOp4
 70
     0
102
RTVSPropertyOp5
 70
     0
102
RTVSPropertyOp6
 70
     0
102
RTVSPropertyOp7
 70
     0
102
RTVSPropertyOp8
 70
     0
102
RTVSPropertyOp9
 70
     0
102
RTVSPropertyOp10
 70
     0
102
RTVSPropertyOp11
 70
     0
102
RTVSPropertyOp12
 70
     0
102
RTVSPropertyOp13
 70
     0
102
RTVSPropertyOp14
 70
     2
102
RTVSPropertyOp15
 70
     0
102
RTVSPropertyOp16
 70
     0
102
RTVSPropertyOp17
 70
     0
102
RTVSPropertyOp18
 70
     0
102
RTVSPropertyOp19
 70
     0
102
RTVSPropertyOp20
 70
     0
102
RTVSPropertyOp21
 70
     0
102
RTVSPropertyOp22
 70
     0
102
RTVSPropertyOp23
 70
     0
102
RTVSPropertyOp24
 70
     0
102
RTVSPropertyOp25
 70
     0
102
RTVSPropertyOp26
 70
     0
102
RTVSPropertyOp27
 70
     0
102
RTVSPropertyOp28
 70
     1
102
RTVSPropertyOp29
 70
     1
102
RTVSPropertyOp30
 70
     1
102
RTVSPropertyOp31
 70
     1
102
RTVSPropertyOp32
 70
     1
102
RTVSPropertyOp33
 70
     1
102
RTVSPropertyOp34
 70
     1
102
RTVSPropertyOp35
 70
     1
102
RTVSPropertyOp36
 70
     1
102
RTVSPropertyOp37
 70
     0
102
RTVSPropertyOp38
 70
     0
102
RTVSPropertyOp39
 70
     0
102
RTVSPropertyOp40
 70
     0
102
RTVSPropertyOp41
 70
     0
102
RTVSPropertyOp42
 70
     0
102
RTVSPropertyOp43
 70
     0
102
RTVSPropertyOp44
 70
     0
102
RTVSPropertyOp45
 70
     1
102
RTVSPropertyOp46
 70
     0
102
RTVSPropertyOp47
 70
     0
102
RTVSPropertyOp48
 70
     0
102
RTVSPropertyOp49
 70
     1
102
RTVSPropertyOp50
 70
     0
102
RTVSPropertyOp51
 70
     0
102
RTVSPropertyOp52
 70
     0
102
RTVSPropertyOp53
 70
     0
102
RTVSPropertyOp54
 70
     0
102
RTVSPropertyOp55
 70
     1
102
RTVSPropertyOp56
 70
     0
102
RTVSPropertyOp57
 70
     0
102
RTVSPost2010Prop28
280
     0
102
RTVSPost2010PropOp28
 70
     1
102
RTVSPost2010Prop29
280
     1
102
RTVSPost2010PropOp29
 70
     1
102
RTVSPost2010Prop30
280
     1
102
RTVSPost2010PropOp30
 70
     1
102
RTVSPost2010Prop31
280
     0
102
RTVSPost2010PropOp31
 70
     1
102
RTVSPost2010Prop32
280
     0
102
RTVSPost2010PropOp32
 70
     1
102
RTVSPost2010Prop33
280
     0
102
RTVSPost2010PropOp33
 70
     1
102
RTVSPost2010Prop34
280
     0
102
RTVSPost2010PropOp34
 70
     1
102
RTVSPost2010Prop35
280
     0
102
RTVSPost2010PropOp35
 70
     1
102
RTVSPost2010Prop36
280
     0
102
RTVSPost2010PropOp36
 70
     1
102
RTVSPost2010Prop37
 90
       50
102
RTVSPost2010PropOp37
 70
     0
102
RTVSPost2010Prop38
140
0.0
102
RTVSPost2010PropOp38
 70
     0
102
RTVSPost2010Prop39
140
1.0
102
RTVSPost2010PropOp39
 70
     0
102
RTVSPost2010Prop40
 90
        0
102
RTVSPost2010PropOp40
 70
     0
102
RTVSPost2010Prop41ColorIndex
 90
       18
102
RTVSPost2010Prop41ColorRGB
 90
        0
102
RTVSPost2010PropOp41
 70
     0
102
RTVSPost2010Prop42
 90
       50
102
RTVSPost2010PropOp42
 70
     0
102
RTVSPost2010Prop43
 90
        3
102
RTVSPost2010PropOp43
 70
     0
102
RTVSPost2010Prop44ColorIndex
 90
        5
102
RTVSPost2010Prop44ColorRGB
 90
      255
102
RTVSPost2010PropOp44
 70
     0
102
RTVSPost2010Prop45
280
     0
102
RTVSPost2010PropOp45
 70
     1
102
RTVSPost2010Prop46
 90
       50
102
RTVSPost2010PropOp46
 70
     0
102
RTVSPost2010Prop47
 90
       50
102
RTVSPost2010PropOp47
 70
     0
102
RTVSPost2010Prop48
 90
       50
102
RTVSPost2010PropOp48
 70
     0
102
RTVSPost2010Prop49
280
     0
102
RTVSPost2010PropOp49
 70
     1
102
RTVSPost2010Prop50
 90
       50
102
RTVSPost2010PropOp50
 70
     0
102
RTVSPost2010Prop51ColorIndex
 90
      256
102
RTVSPost2010Prop51ColorRGB
 90
-16777216
102
RTVSPost2010PropOp51
 70
     0
102
RTVSPost2010Prop52
140
1.0
102
RTVSPost2010PropOp52
 70
     0
102
RTVSPost2010Prop53
 90
        2
102
RTVSPost2010PropOp53
 70
     0
102
RTVSPost2010Prop54
  1
strokes_ogs.tif
102
RTVSPost2010PropOp54
 70
     0
102
RTVSPost2010Prop55
280
     0
102
RTVSPost2010PropOp55
 70
     1
102
RTVSPost2010Prop56
140
1.0
102
RTVSPost2010PropOp56
 70
     0
102
RTVSPost2010Prop57
140
1.0
102
RTVSPost2010PropOp57
 70
     0
  0
XRECORD
  5
8AD88
102
{ACAD_REACTORS
330
876BC
102
}
330
876BC
100
AcDbXrecord
280
     1
102
RTVSPropertyOp0
 70
     1
102
RTVSPropertyOp1
 70
     1
102
RTVSPropertyOp2
 70
     1
102
RTVSPropertyOp3
 70
     1
102
RTVSPropertyOp4
 70
     1
102
RTVSPropertyOp5
 70
     1
102
RTVSPropertyOp6
 70
     1
102
RTVSPropertyOp7
 70
     1
102
RTVSPropertyOp8
 70
     1
102
RTVSPropertyOp9
 70
     1
102
RTVSPropertyOp10
 70
     1
102
RTVSPropertyOp11
 70
     1
102
RTVSPropertyOp12
 70
     1
102
RTVSPropertyOp13
 70
     1
102
RTVSPropertyOp14
 70
     1
102
RTVSPropertyOp15
 70
     1
102
RTVSPropertyOp16
 70
     1
102
RTVSPropertyOp17
 70
     1
102
RTVSPropertyOp18
 70
     1
102
RTVSPropertyOp19
 70
     1
102
RTVSPropertyOp20
 70
     1
102
RTVSPropertyOp21
 70
     1
102
RTVSPropertyOp22
 70
     1
102
RTVSPropertyOp23
 70
     1
102
RTVSPropertyOp24
 70
     1
102
RTVSPropertyOp25
 70
     1
102
RTVSPropertyOp26
 70
     1
102
RTVSPropertyOp27
 70
     1
102
RTVSPropertyOp28
 70
     1
102
RTVSPropertyOp29
 70
     1
102
RTVSPropertyOp30
 70
     1
102
RTVSPropertyOp31
 70
     1
102
RTVSPropertyOp32
 70
     1
102
RTVSPropertyOp33
 70
     1
102
RTVSPropertyOp34
 70
     1
102
RTVSPropertyOp35
 70
     1
102
RTVSPropertyOp36
 70
     1
102
RTVSPropertyOp37
 70
     1
102
RTVSPropertyOp38
 70
     1
102
RTVSPropertyOp39
 70
     1
102
RTVSPropertyOp40
 70
     1
102
RTVSPropertyOp41
 70
     1
102
RTVSPropertyOp42
 70
     1
102
RTVSPropertyOp43
 70
     1
102
RTVSPropertyOp44
 70
     1
102
RTVSPropertyOp45
 70
     1
102
RTVSPropertyOp46
 70
     1
102
RTVSPropertyOp47
 70
     1
102
RTVSPropertyOp48
 70
     1
102
RTVSPropertyOp49
 70
     1
102
RTVSPropertyOp50
 70
     1
102
RTVSPropertyOp51
 70
     0
102
RTVSPropertyOp52
 70
     0
102
RTVSPropertyOp53
 70
     1
102
RTVSPropertyOp54
 70
     1
102
RTVSPropertyOp55
 70
     1
102
RTVSPropertyOp56
 70
     1
102
RTVSPropertyOp57
 70
     1
102
RTVSPost2010Prop28
280
     0
102
RTVSPost2010PropOp28
 70
     1
102
RTVSPost2010Prop29
280
     1
102
RTVSPost2010PropOp29
 70
     1
102
RTVSPost2010Prop30
280
     1
102
RTVSPost2010PropOp30
 70
     1
102
RTVSPost2010Prop31
280
     0
102
RTVSPost2010PropOp31
 70
     1
102
RTVSPost2010Prop32
280
     0
102
RTVSPost2010PropOp32
 70
     1
102
RTVSPost2010Prop33
280
     0
102
RTVSPost2010PropOp33
 70
     1
102
RTVSPost2010Prop34
280
     0
102
RTVSPost2010PropOp34
 70
     1
102
RTVSPost2010Prop35
280
     0
102
RTVSPost2010PropOp35
 70
     1
102
RTVSPost2010Prop36
280
     0
102
RTVSPost2010PropOp36
 70
     1
102
RTVSPost2010Prop37
 90
       50
102
RTVSPost2010PropOp37
 70
     1
102
RTVSPost2010Prop38
140
0.0
102
RTVSPost2010PropOp38
 70
     1
102
RTVSPost2010Prop39
140
1.0
102
RTVSPost2010PropOp39
 70
     1
102
RTVSPost2010Prop40
 90
        0
102
RTVSPost2010PropOp40
 70
     1
102
RTVSPost2010Prop41ColorIndex
 90
       18
102
RTVSPost2010Prop41ColorRGB
 90
        0
102
RTVSPost2010PropOp41
 70
     1
102
RTVSPost2010Prop42
 90
       50
102
RTVSPost2010PropOp42
 70
     1
102
RTVSPost2010Prop43
 90
        3
102
RTVSPost2010PropOp43
 70
     1
102
RTVSPost2010Prop44ColorIndex
 90
        5
102
RTVSPost2010Prop44ColorRGB
 90
      255
102
RTVSPost2010PropOp44
 70
     1
102
RTVSPost2010Prop45
280
     0
102
RTVSPost2010PropOp45
 70
     1
102
RTVSPost2010Prop46
 90
       50
102
RTVSPost2010PropOp46
 70
     1
102
RTVSPost2010Prop47
 90
       50
102
RTVSPost2010PropOp47
 70
     1
102
RTVSPost2010Prop48
 90
       50
102
RTVSPost2010PropOp48
 70
     1
102
RTVSPost2010Prop49
280
     0
102
RTVSPost2010PropOp49
 70
     1
102
RTVSPost2010Prop50
 90
       50
102
RTVSPost2010PropOp50
 70
     1
102
RTVSPost2010Prop51ColorIndex
 90
      256
102
RTVSPost2010Prop51ColorRGB
 90
-16777216
102
RTVSPost2010PropOp51
 70
     0
102
RTVSPost2010Prop52
140
1.0
102
RTVSPost2010PropOp52
 70
     0
102
RTVSPost2010Prop53
 90
        2
102
RTVSPost2010PropOp53
 70
     1
102
RTVSPost2010Prop54
  1
strokes_ogs.tif
102
RTVSPost2010PropOp54
 70
     1
102
RTVSPost2010Prop55
280
     0
102
RTVSPost2010PropOp55
 70
     1
102
RTVSPost2010Prop56
140
1.0
102
RTVSPost2010PropOp56
 70
     1
102
RTVSPost2010Prop57
140
1.0
102
RTVSPost2010PropOp57
 70
     1
  0
XRECORD
  5
8AD89
102
{ACAD_REACTORS
330
876CE
102
}
330
876CE
100
AcDbXrecord
280
     1
102
RTVSPropertyOp0
 70
     0
102
RTVSPropertyOp1
 70
     0
102
RTVSPropertyOp2
 70
     0
102
RTVSPropertyOp3
 70
     0
102
RTVSPropertyOp4
 70
     0
102
RTVSPropertyOp5
 70
     0
102
RTVSPropertyOp6
 70
     0
102
RTVSPropertyOp7
 70
     0
102
RTVSPropertyOp8
 70
     0
102
RTVSPropertyOp9
 70
     0
102
RTVSPropertyOp10
 70
     0
102
RTVSPropertyOp11
 70
     0
102
RTVSPropertyOp12
 70
     0
102
RTVSPropertyOp13
 70
     0
102
RTVSPropertyOp14
 70
     2
102
RTVSPropertyOp15
 70
     0
102
RTVSPropertyOp16
 70
     0
102
RTVSPropertyOp17
 70
     0
102
RTVSPropertyOp18
 70
     0
102
RTVSPropertyOp19
 70
     0
102
RTVSPropertyOp20
 70
     0
102
RTVSPropertyOp21
 70
     0
102
RTVSPropertyOp22
 70
     0
102
RTVSPropertyOp23
 70
     0
102
RTVSPropertyOp24
 70
     0
102
RTVSPropertyOp25
 70
     0
102
RTVSPropertyOp26
 70
     0
102
RTVSPropertyOp27
 70
     0
102
RTVSPropertyOp28
 70
     1
102
RTVSPropertyOp29
 70
     1
102
RTVSPropertyOp30
 70
     1
102
RTVSPropertyOp31
 70
     1
102
RTVSPropertyOp32
 70
     1
102
RTVSPropertyOp33
 70
     1
102
RTVSPropertyOp34
 70
     1
102
RTVSPropertyOp35
 70
     1
102
RTVSPropertyOp36
 70
     1
102
RTVSPropertyOp37
 70
     0
102
RTVSPropertyOp38
 70
     0
102
RTVSPropertyOp39
 70
     0
102
RTVSPropertyOp40
 70
     0
102
RTVSPropertyOp41
 70
     0
102
RTVSPropertyOp42
 70
     0
102
RTVSPropertyOp43
 70
     0
102
RTVSPropertyOp44
 70
     0
102
RTVSPropertyOp45
 70
     1
102
RTVSPropertyOp46
 70
     0
102
RTVSPropertyOp47
 70
     0
102
RTVSPropertyOp48
 70
     0
102
RTVSPropertyOp49
 70
     1
102
RTVSPropertyOp50
 70
     0
102
RTVSPropertyOp51
 70
     0
102
RTVSPropertyOp52
 70
     0
102
RTVSPropertyOp53
 70
     0
102
RTVSPropertyOp54
 70
     0
102
RTVSPropertyOp55
 70
     1
102
RTVSPropertyOp56
 70
     0
102
RTVSPropertyOp57
 70
     0
102
RTVSPost2010Prop28
280
     0
102
RTVSPost2010PropOp28
 70
     1
102
RTVSPost2010Prop29
280
     1
102
RTVSPost2010PropOp29
 70
     1
102
RTVSPost2010Prop30
280
     1
102
RTVSPost2010PropOp30
 70
     1
102
RTVSPost2010Prop31
280
     0
102
RTVSPost2010PropOp31
 70
     1
102
RTVSPost2010Prop32
280
     0
102
RTVSPost2010PropOp32
 70
     1
102
RTVSPost2010Prop33
280
     0
102
RTVSPost2010PropOp33
 70
     1
102
RTVSPost2010Prop34
280
     0
102
RTVSPost2010PropOp34
 70
     1
102
RTVSPost2010Prop35
280
     0
102
RTVSPost2010PropOp35
 70
     1
102
RTVSPost2010Prop36
280
     0
102
RTVSPost2010PropOp36
 70
     1
102
RTVSPost2010Prop37
 90
       50
102
RTVSPost2010PropOp37
 70
     0
102
RTVSPost2010Prop38
140
0.0
102
RTVSPost2010PropOp38
 70
     0
102
RTVSPost2010Prop39
140
1.0
102
RTVSPost2010PropOp39
 70
     0
102
RTVSPost2010Prop40
 90
        0
102
RTVSPost2010PropOp40
 70
     0
102
RTVSPost2010Prop41ColorIndex
 90
       18
102
RTVSPost2010Prop41ColorRGB
 90
        0
102
RTVSPost2010PropOp41
 70
     0
102
RTVSPost2010Prop42
 90
       50
102
RTVSPost2010PropOp42
 70
     0
102
RTVSPost2010Prop43
 90
        3
102
RTVSPost2010PropOp43
 70
     0
102
RTVSPost2010Prop44ColorIndex
 90
        5
102
RTVSPost2010Prop44ColorRGB
 90
      255
102
RTVSPost2010PropOp44
 70
     0
102
RTVSPost2010Prop45
280
     0
102
RTVSPost2010PropOp45
 70
     1
102
RTVSPost2010Prop46
 90
       50
102
RTVSPost2010PropOp46
 70
     0
102
RTVSPost2010Prop47
 90
       50
102
RTVSPost2010PropOp47
 70
     0
102
RTVSPost2010Prop48
 90
       50
102
RTVSPost2010PropOp48
 70
     0
102
RTVSPost2010Prop49
280
     0
102
RTVSPost2010PropOp49
 70
     1
102
RTVSPost2010Prop50
 90
       50
102
RTVSPost2010PropOp50
 70
     0
102
RTVSPost2010Prop51ColorIndex
 90
      256
102
RTVSPost2010Prop51ColorRGB
 90
-16777216
102
RTVSPost2010PropOp51
 70
     0
102
RTVSPost2010Prop52
140
1.0
102
RTVSPost2010PropOp52
 70
     0
102
RTVSPost2010Prop53
 90
        2
102
RTVSPost2010PropOp53
 70
     0
102
RTVSPost2010Prop54
  1
strokes_ogs.tif
102
RTVSPost2010PropOp54
 70
     0
102
RTVSPost2010Prop55
280
     0
102
RTVSPost2010PropOp55
 70
     1
102
RTVSPost2010Prop56
140
1.0
102
RTVSPost2010PropOp56
 70
     0
102
RTVSPost2010Prop57
140
1.0
102
RTVSPost2010PropOp57
 70
     0
  0
XRECORD
  5
8AD8A
102
{ACAD_REACTORS
330
876B4
102
}
330
876B4
100
AcDbXrecord
280
     1
102
RTVSPropertyOp0
 70
     1
102
RTVSPropertyOp1
 70
     1
102
RTVSPropertyOp2
 70
     1
102
RTVSPropertyOp3
 70
     1
102
RTVSPropertyOp4
 70
     1
102
RTVSPropertyOp5
 70
     1
102
RTVSPropertyOp6
 70
     1
102
RTVSPropertyOp7
 70
     1
102
RTVSPropertyOp8
 70
     1
102
RTVSPropertyOp9
 70
     1
102
RTVSPropertyOp10
 70
     1
102
RTVSPropertyOp11
 70
     1
102
RTVSPropertyOp12
 70
     1
102
RTVSPropertyOp13
 70
     1
102
RTVSPropertyOp14
 70
     1
102
RTVSPropertyOp15
 70
     1
102
RTVSPropertyOp16
 70
     1
102
RTVSPropertyOp17
 70
     1
102
RTVSPropertyOp18
 70
     1
102
RTVSPropertyOp19
 70
     1
102
RTVSPropertyOp20
 70
     1
102
RTVSPropertyOp21
 70
     1
102
RTVSPropertyOp22
 70
     1
102
RTVSPropertyOp23
 70
     1
102
RTVSPropertyOp24
 70
     1
102
RTVSPropertyOp25
 70
     1
102
RTVSPropertyOp26
 70
     1
102
RTVSPropertyOp27
 70
     1
102
RTVSPropertyOp28
 70
     1
102
RTVSPropertyOp29
 70
     1
102
RTVSPropertyOp30
 70
     1
102
RTVSPropertyOp31
 70
     1
102
RTVSPropertyOp32
 70
     1
102
RTVSPropertyOp33
 70
     1
102
RTVSPropertyOp34
 70
     1
102
RTVSPropertyOp35
 70
     1
102
RTVSPropertyOp36
 70
     1
102
RTVSPropertyOp37
 70
     1
102
RTVSPropertyOp38
 70
     1
102
RTVSPropertyOp39
 70
     1
102
RTVSPropertyOp40
 70
     1
102
RTVSPropertyOp41
 70
     1
102
RTVSPropertyOp42
 70
     1
102
RTVSPropertyOp43
 70
     1
102
RTVSPropertyOp44
 70
     1
102
RTVSPropertyOp45
 70
     1
102
RTVSPropertyOp46
 70
     1
102
RTVSPropertyOp47
 70
     1
102
RTVSPropertyOp48
 70
     1
102
RTVSPropertyOp49
 70
     1
102
RTVSPropertyOp50
 70
     1
102
RTVSPropertyOp51
 70
     0
102
RTVSPropertyOp52
 70
     0
102
RTVSPropertyOp53
 70
     1
102
RTVSPropertyOp54
 70
     1
102
RTVSPropertyOp55
 70
     1
102
RTVSPropertyOp56
 70
     1
102
RTVSPropertyOp57
 70
     1
102
RTVSPost2010Prop28
280
     0
102
RTVSPost2010PropOp28
 70
     1
102
RTVSPost2010Prop29
280
     1
102
RTVSPost2010PropOp29
 70
     1
102
RTVSPost2010Prop30
280
     1
102
RTVSPost2010PropOp30
 70
     1
102
RTVSPost2010Prop31
280
     0
102
RTVSPost2010PropOp31
 70
     1
102
RTVSPost2010Prop32
280
     0
102
RTVSPost2010PropOp32
 70
     1
102
RTVSPost2010Prop33
280
     0
102
RTVSPost2010PropOp33
 70
     1
102
RTVSPost2010Prop34
280
     0
102
RTVSPost2010PropOp34
 70
     1
102
RTVSPost2010Prop35
280
     0
102
RTVSPost2010PropOp35
 70
     1
102
RTVSPost2010Prop36
280
     0
102
RTVSPost2010PropOp36
 70
     1
102
RTVSPost2010Prop37
 90
       50
102
RTVSPost2010PropOp37
 70
     1
102
RTVSPost2010Prop38
140
0.0
102
RTVSPost2010PropOp38
 70
     1
102
RTVSPost2010Prop39
140
1.0
102
RTVSPost2010PropOp39
 70
     1
102
RTVSPost2010Prop40
 90
        0
102
RTVSPost2010PropOp40
 70
     1
102
RTVSPost2010Prop41ColorIndex
 90
       18
102
RTVSPost2010Prop41ColorRGB
 90
        0
102
RTVSPost2010PropOp41
 70
     1
102
RTVSPost2010Prop42
 90
       50
102
RTVSPost2010PropOp42
 70
     1
102
RTVSPost2010Prop43
 90
        3
102
RTVSPost2010PropOp43
 70
     1
102
RTVSPost2010Prop44ColorIndex
 90
        5
102
RTVSPost2010Prop44ColorRGB
 90
      255
102
RTVSPost2010PropOp44
 70
     1
102
RTVSPost2010Prop45
280
     0
102
RTVSPost2010PropOp45
 70
     1
102
RTVSPost2010Prop46
 90
       50
102
RTVSPost2010PropOp46
 70
     1
102
RTVSPost2010Prop47
 90
       50
102
RTVSPost2010PropOp47
 70
     1
102
RTVSPost2010Prop48
 90
       50
102
RTVSPost2010PropOp48
 70
     1
102
RTVSPost2010Prop49
280
     0
102
RTVSPost2010PropOp49
 70
     1
102
RTVSPost2010Prop50
 90
       50
102
RTVSPost2010PropOp50
 70
     1
102
RTVSPost2010Prop51ColorIndex
 90
      256
102
RTVSPost2010Prop51ColorRGB
 90
-16777216
102
RTVSPost2010PropOp51
 70
     0
102
RTVSPost2010Prop52
140
1.0
102
RTVSPost2010PropOp52
 70
     0
102
RTVSPost2010Prop53
 90
        2
102
RTVSPost2010PropOp53
 70
     1
102
RTVSPost2010Prop54
  1
strokes_ogs.tif
102
RTVSPost2010PropOp54
 70
     1
102
RTVSPost2010Prop55
280
     0
102
RTVSPost2010PropOp55
 70
     1
102
RTVSPost2010Prop56
140
1.0
102
RTVSPost2010PropOp56
 70
     1
102
RTVSPost2010Prop57
140
1.0
102
RTVSPost2010PropOp57
 70
     1
  0
XRECORD
  5
8AD8B
102
{ACAD_REACTORS
330
876CA
102
}
330
876CA
100
AcDbXrecord
280
     1
102
RTVSPropertyOp0
 70
     1
102
RTVSPropertyOp1
 70
     1
102
RTVSPropertyOp2
 70
     1
102
RTVSPropertyOp3
 70
     1
102
RTVSPropertyOp4
 70
     1
102
RTVSPropertyOp5
 70
     1
102
RTVSPropertyOp6
 70
     1
102
RTVSPropertyOp7
 70
     1
102
RTVSPropertyOp8
 70
     1
102
RTVSPropertyOp9
 70
     1
102
RTVSPropertyOp10
 70
     1
102
RTVSPropertyOp11
 70
     1
102
RTVSPropertyOp12
 70
     1
102
RTVSPropertyOp13
 70
     1
102
RTVSPropertyOp14
 70
     1
102
RTVSPropertyOp15
 70
     1
102
RTVSPropertyOp16
 70
     1
102
RTVSPropertyOp17
 70
     1
102
RTVSPropertyOp18
 70
     1
102
RTVSPropertyOp19
 70
     1
102
RTVSPropertyOp20
 70
     1
102
RTVSPropertyOp21
 70
     1
102
RTVSPropertyOp22
 70
     1
102
RTVSPropertyOp23
 70
     1
102
RTVSPropertyOp24
 70
     1
102
RTVSPropertyOp25
 70
     1
102
RTVSPropertyOp26
 70
     1
102
RTVSPropertyOp27
 70
     1
102
RTVSPropertyOp28
 70
     1
102
RTVSPropertyOp29
 70
     1
102
RTVSPropertyOp30
 70
     1
102
RTVSPropertyOp31
 70
     1
102
RTVSPropertyOp32
 70
     1
102
RTVSPropertyOp33
 70
     1
102
RTVSPropertyOp34
 70
     1
102
RTVSPropertyOp35
 70
     1
102
RTVSPropertyOp36
 70
     1
102
RTVSPropertyOp37
 70
     1
102
RTVSPropertyOp38
 70
     1
102
RTVSPropertyOp39
 70
     1
102
RTVSPropertyOp40
 70
     1
102
RTVSPropertyOp41
 70
     1
102
RTVSPropertyOp42
 70
     1
102
RTVSPropertyOp43
 70
     1
102
RTVSPropertyOp44
 70
     1
102
RTVSPropertyOp45
 70
     1
102
RTVSPropertyOp46
 70
     1
102
RTVSPropertyOp47
 70
     1
102
RTVSPropertyOp48
 70
     1
102
RTVSPropertyOp49
 70
     1
102
RTVSPropertyOp50
 70
     1
102
RTVSPropertyOp51
 70
     0
102
RTVSPropertyOp52
 70
     0
102
RTVSPropertyOp53
 70
     1
102
RTVSPropertyOp54
 70
     1
102
RTVSPropertyOp55
 70
     1
102
RTVSPropertyOp56
 70
     1
102
RTVSPropertyOp57
 70
     1
102
RTVSPost2010Prop28
280
     0
102
RTVSPost2010PropOp28
 70
     1
102
RTVSPost2010Prop29
280
     1
102
RTVSPost2010PropOp29
 70
     1
102
RTVSPost2010Prop30
280
     1
102
RTVSPost2010PropOp30
 70
     1
102
RTVSPost2010Prop31
280
     0
102
RTVSPost2010PropOp31
 70
     1
102
RTVSPost2010Prop32
280
     0
102
RTVSPost2010PropOp32
 70
     1
102
RTVSPost2010Prop33
280
     0
102
RTVSPost2010PropOp33
 70
     1
102
RTVSPost2010Prop34
280
     0
102
RTVSPost2010PropOp34
 70
     1
102
RTVSPost2010Prop35
280
     0
102
RTVSPost2010PropOp35
 70
     1
102
RTVSPost2010Prop36
280
     0
102
RTVSPost2010PropOp36
 70
     1
102
RTVSPost2010Prop37
 90
       50
102
RTVSPost2010PropOp37
 70
     1
102
RTVSPost2010Prop38
140
0.0
102
RTVSPost2010PropOp38
 70
     1
102
RTVSPost2010Prop39
140
1.0
102
RTVSPost2010PropOp39
 70
     1
102
RTVSPost2010Prop40
 90
        0
102
RTVSPost2010PropOp40
 70
     1
102
RTVSPost2010Prop41ColorIndex
 90
       18
102
RTVSPost2010Prop41ColorRGB
 90
        0
102
RTVSPost2010PropOp41
 70
     1
102
RTVSPost2010Prop42
 90
       50
102
RTVSPost2010PropOp42
 70
     1
102
RTVSPost2010Prop43
 90
        3
102
RTVSPost2010PropOp43
 70
     1
102
RTVSPost2010Prop44ColorIndex
 90
        5
102
RTVSPost2010Prop44ColorRGB
 90
      255
102
RTVSPost2010PropOp44
 70
     1
102
RTVSPost2010Prop45
280
     0
102
RTVSPost2010PropOp45
 70
     1
102
RTVSPost2010Prop46
 90
       50
102
RTVSPost2010PropOp46
 70
     1
102
RTVSPost2010Prop47
 90
       50
102
RTVSPost2010PropOp47
 70
     1
102
RTVSPost2010Prop48
 90
       50
102
RTVSPost2010PropOp48
 70
     1
102
RTVSPost2010Prop49
280
     0
102
RTVSPost2010PropOp49
 70
     1
102
RTVSPost2010Prop50
 90
       50
102
RTVSPost2010PropOp50
 70
     1
102
RTVSPost2010Prop51ColorIndex
 90
      256
102
RTVSPost2010Prop51ColorRGB
 90
-16777216
102
RTVSPost2010PropOp51
 70
     0
102
RTVSPost2010Prop52
140
1.0
102
RTVSPost2010PropOp52
 70
     0
102
RTVSPost2010Prop53
 90
        2
102
RTVSPost2010PropOp53
 70
     1
102
RTVSPost2010Prop54
  1
strokes_ogs.tif
102
RTVSPost2010PropOp54
 70
     1
102
RTVSPost2010Prop55
280
     0
102
RTVSPost2010PropOp55
 70
     1
102
RTVSPost2010Prop56
140
1.0
102
RTVSPost2010PropOp56
 70
     1
102
RTVSPost2010Prop57
140
1.0
102
RTVSPost2010PropOp57
 70
     1
  0
XRECORD
  5
8AD8C
102
{ACAD_REACTORS
330
876C8
102
}
330
876C8
100
AcDbXrecord
280
     1
102
RTVSPropertyOp0
 70
     1
102
RTVSPropertyOp1
 70
     1
102
RTVSPropertyOp2
 70
     1
102
RTVSPropertyOp3
 70
     1
102
RTVSPropertyOp4
 70
     1
102
RTVSPropertyOp5
 70
     1
102
RTVSPropertyOp6
 70
     1
102
RTVSPropertyOp7
 70
     1
102
RTVSPropertyOp8
 70
     1
102
RTVSPropertyOp9
 70
     1
102
RTVSPropertyOp10
 70
     1
102
RTVSPropertyOp11
 70
     1
102
RTVSPropertyOp12
 70
     1
102
RTVSPropertyOp13
 70
     1
102
RTVSPropertyOp14
 70
     1
102
RTVSPropertyOp15
 70
     1
102
RTVSPropertyOp16
 70
     1
102
RTVSPropertyOp17
 70
     1
102
RTVSPropertyOp18
 70
     1
102
RTVSPropertyOp19
 70
     1
102
RTVSPropertyOp20
 70
     1
102
RTVSPropertyOp21
 70
     1
102
RTVSPropertyOp22
 70
     1
102
RTVSPropertyOp23
 70
     1
102
RTVSPropertyOp24
 70
     1
102
RTVSPropertyOp25
 70
     1
102
RTVSPropertyOp26
 70
     1
102
RTVSPropertyOp27
 70
     1
102
RTVSPropertyOp28
 70
     1
102
RTVSPropertyOp29
 70
     1
102
RTVSPropertyOp30
 70
     1
102
RTVSPropertyOp31
 70
     1
102
RTVSPropertyOp32
 70
     1
102
RTVSPropertyOp33
 70
     1
102
RTVSPropertyOp34
 70
     1
102
RTVSPropertyOp35
 70
     1
102
RTVSPropertyOp36
 70
     1
102
RTVSPropertyOp37
 70
     1
102
RTVSPropertyOp38
 70
     1
102
RTVSPropertyOp39
 70
     1
102
RTVSPropertyOp40
 70
     1
102
RTVSPropertyOp41
 70
     1
102
RTVSPropertyOp42
 70
     1
102
RTVSPropertyOp43
 70
     1
102
RTVSPropertyOp44
 70
     1
102
RTVSPropertyOp45
 70
     1
102
RTVSPropertyOp46
 70
     1
102
RTVSPropertyOp47
 70
     1
102
RTVSPropertyOp48
 70
     1
102
RTVSPropertyOp49
 70
     1
102
RTVSPropertyOp50
 70
     1
102
RTVSPropertyOp51
 70
     0
102
RTVSPropertyOp52
 70
     0
102
RTVSPropertyOp53
 70
     1
102
RTVSPropertyOp54
 70
     1
102
RTVSPropertyOp55
 70
     1
102
RTVSPropertyOp56
 70
     1
102
RTVSPropertyOp57
 70
     1
102
RTVSPost2010Prop28
280
     0
102
RTVSPost2010PropOp28
 70
     1
102
RTVSPost2010Prop29
280
     1
102
RTVSPost2010PropOp29
 70
     1
102
RTVSPost2010Prop30
280
     1
102
RTVSPost2010PropOp30
 70
     1
102
RTVSPost2010Prop31
280
     0
102
RTVSPost2010PropOp31
 70
     1
102
RTVSPost2010Prop32
280
     0
102
RTVSPost2010PropOp32
 70
     1
102
RTVSPost2010Prop33
280
     0
102
RTVSPost2010PropOp33
 70
     1
102
RTVSPost2010Prop34
280
     0
102
RTVSPost2010PropOp34
 70
     1
102
RTVSPost2010Prop35
280
     0
102
RTVSPost2010PropOp35
 70
     1
102
RTVSPost2010Prop36
280
     0
102
RTVSPost2010PropOp36
 70
     1
102
RTVSPost2010Prop37
 90
       50
102
RTVSPost2010PropOp37
 70
     1
102
RTVSPost2010Prop38
140
0.0
102
RTVSPost2010PropOp38
 70
     1
102
RTVSPost2010Prop39
140
1.0
102
RTVSPost2010PropOp39
 70
     1
102
RTVSPost2010Prop40
 90
        0
102
RTVSPost2010PropOp40
 70
     1
102
RTVSPost2010Prop41ColorIndex
 90
       18
102
RTVSPost2010Prop41ColorRGB
 90
        0
102
RTVSPost2010PropOp41
 70
     1
102
RTVSPost2010Prop42
 90
       50
102
RTVSPost2010PropOp42
 70
     1
102
RTVSPost2010Prop43
 90
        3
102
RTVSPost2010PropOp43
 70
     1
102
RTVSPost2010Prop44ColorIndex
 90
        5
102
RTVSPost2010Prop44ColorRGB
 90
      255
102
RTVSPost2010PropOp44
 70
     1
102
RTVSPost2010Prop45
280
     0
102
RTVSPost2010PropOp45
 70
     1
102
RTVSPost2010Prop46
 90
       50
102
RTVSPost2010PropOp46
 70
     1
102
RTVSPost2010Prop47
 90
       50
102
RTVSPost2010PropOp47
 70
     1
102
RTVSPost2010Prop48
 90
       50
102
RTVSPost2010PropOp48
 70
     1
102
RTVSPost2010Prop49
280
     0
102
RTVSPost2010PropOp49
 70
     1
102
RTVSPost2010Prop50
 90
       50
102
RTVSPost2010PropOp50
 70
     1
102
RTVSPost2010Prop51ColorIndex
 90
      256
102
RTVSPost2010Prop51ColorRGB
 90
-16777216
102
RTVSPost2010PropOp51
 70
     0
102
RTVSPost2010Prop52
140
1.0
102
RTVSPost2010PropOp52
 70
     0
102
RTVSPost2010Prop53
 90
        2
102
RTVSPost2010PropOp53
 70
     1
102
RTVSPost2010Prop54
  1
strokes_ogs.tif
102
RTVSPost2010PropOp54
 70
     1
102
RTVSPost2010Prop55
280
     0
102
RTVSPost2010PropOp55
 70
     1
102
RTVSPost2010Prop56
140
1.0
102
RTVSPost2010PropOp56
 70
     1
102
RTVSPost2010Prop57
140
1.0
102
RTVSPost2010PropOp57
 70
     1
  0
XRECORD
  5
8AD8D
102
{ACAD_REACTORS
330
876C2
102
}
330
876C2
100
AcDbXrecord
280
     1
102
RTVSPropertyOp0
 70
     1
102
RTVSPropertyOp1
 70
     1
102
RTVSPropertyOp2
 70
     1
102
RTVSPropertyOp3
 70
     1
102
RTVSPropertyOp4
 70
     1
102
RTVSPropertyOp5
 70
     1
102
RTVSPropertyOp6
 70
     1
102
RTVSPropertyOp7
 70
     1
102
RTVSPropertyOp8
 70
     1
102
RTVSPropertyOp9
 70
     1
102
RTVSPropertyOp10
 70
     1
102
RTVSPropertyOp11
 70
     1
102
RTVSPropertyOp12
 70
     1
102
RTVSPropertyOp13
 70
     1
102
RTVSPropertyOp14
 70
     1
102
RTVSPropertyOp15
 70
     1
102
RTVSPropertyOp16
 70
     1
102
RTVSPropertyOp17
 70
     1
102
RTVSPropertyOp18
 70
     1
102
RTVSPropertyOp19
 70
     1
102
RTVSPropertyOp20
 70
     1
102
RTVSPropertyOp21
 70
     1
102
RTVSPropertyOp22
 70
     1
102
RTVSPropertyOp23
 70
     1
102
RTVSPropertyOp24
 70
     1
102
RTVSPropertyOp25
 70
     1
102
RTVSPropertyOp26
 70
     1
102
RTVSPropertyOp27
 70
     1
102
RTVSPropertyOp28
 70
     1
102
RTVSPropertyOp29
 70
     1
102
RTVSPropertyOp30
 70
     1
102
RTVSPropertyOp31
 70
     1
102
RTVSPropertyOp32
 70
     1
102
RTVSPropertyOp33
 70
     1
102
RTVSPropertyOp34
 70
     1
102
RTVSPropertyOp35
 70
     1
102
RTVSPropertyOp36
 70
     1
102
RTVSPropertyOp37
 70
     1
102
RTVSPropertyOp38
 70
     1
102
RTVSPropertyOp39
 70
     1
102
RTVSPropertyOp40
 70
     1
102
RTVSPropertyOp41
 70
     1
102
RTVSPropertyOp42
 70
     1
102
RTVSPropertyOp43
 70
     1
102
RTVSPropertyOp44
 70
     1
102
RTVSPropertyOp45
 70
     1
102
RTVSPropertyOp46
 70
     1
102
RTVSPropertyOp47
 70
     1
102
RTVSPropertyOp48
 70
     1
102
RTVSPropertyOp49
 70
     1
102
RTVSPropertyOp50
 70
     1
102
RTVSPropertyOp51
 70
     0
102
RTVSPropertyOp52
 70
     0
102
RTVSPropertyOp53
 70
     1
102
RTVSPropertyOp54
 70
     1
102
RTVSPropertyOp55
 70
     1
102
RTVSPropertyOp56
 70
     1
102
RTVSPropertyOp57
 70
     1
102
RTVSPost2010Prop28
280
     0
102
RTVSPost2010PropOp28
 70
     1
102
RTVSPost2010Prop29
280
     1
102
RTVSPost2010PropOp29
 70
     1
102
RTVSPost2010Prop30
280
     1
102
RTVSPost2010PropOp30
 70
     1
102
RTVSPost2010Prop31
280
     0
102
RTVSPost2010PropOp31
 70
     1
102
RTVSPost2010Prop32
280
     0
102
RTVSPost2010PropOp32
 70
     1
102
RTVSPost2010Prop33
280
     0
102
RTVSPost2010PropOp33
 70
     1
102
RTVSPost2010Prop34
280
     0
102
RTVSPost2010PropOp34
 70
     1
102
RTVSPost2010Prop35
280
     0
102
RTVSPost2010PropOp35
 70
     1
102
RTVSPost2010Prop36
280
     0
102
RTVSPost2010PropOp36
 70
     1
102
RTVSPost2010Prop37
 90
       50
102
RTVSPost2010PropOp37
 70
     1
102
RTVSPost2010Prop38
140
0.0
102
RTVSPost2010PropOp38
 70
     1
102
RTVSPost2010Prop39
140
1.0
102
RTVSPost2010PropOp39
 70
     1
102
RTVSPost2010Prop40
 90
        0
102
RTVSPost2010PropOp40
 70
     1
102
RTVSPost2010Prop41ColorIndex
 90
       18
102
RTVSPost2010Prop41ColorRGB
 90
        0
102
RTVSPost2010PropOp41
 70
     1
102
RTVSPost2010Prop42
 90
       50
102
RTVSPost2010PropOp42
 70
     1
102
RTVSPost2010Prop43
 90
        3
102
RTVSPost2010PropOp43
 70
     1
102
RTVSPost2010Prop44ColorIndex
 90
        5
102
RTVSPost2010Prop44ColorRGB
 90
      255
102
RTVSPost2010PropOp44
 70
     1
102
RTVSPost2010Prop45
280
     0
102
RTVSPost2010PropOp45
 70
     1
102
RTVSPost2010Prop46
 90
       50
102
RTVSPost2010PropOp46
 70
     1
102
RTVSPost2010Prop47
 90
       50
102
RTVSPost2010PropOp47
 70
     1
102
RTVSPost2010Prop48
 90
       50
102
RTVSPost2010PropOp48
 70
     1
102
RTVSPost2010Prop49
280
     0
102
RTVSPost2010PropOp49
 70
     1
102
RTVSPost2010Prop50
 90
       50
102
RTVSPost2010PropOp50
 70
     1
102
RTVSPost2010Prop51ColorIndex
 90
      256
102
RTVSPost2010Prop51ColorRGB
 90
-16777216
102
RTVSPost2010PropOp51
 70
     0
102
RTVSPost2010Prop52
140
1.0
102
RTVSPost2010PropOp52
 70
     0
102
RTVSPost2010Prop53
 90
        2
102
RTVSPost2010PropOp53
 70
     1
102
RTVSPost2010Prop54
  1
strokes_ogs.tif
102
RTVSPost2010PropOp54
 70
     1
102
RTVSPost2010Prop55
280
     0
102
RTVSPost2010PropOp55
 70
     1
102
RTVSPost2010Prop56
140
1.0
102
RTVSPost2010PropOp56
 70
     1
102
RTVSPost2010Prop57
140
1.0
102
RTVSPost2010PropOp57
 70
     1
  0
XRECORD
  5
8AD8E
102
{ACAD_REACTORS
330
876C4
102
}
330
876C4
100
AcDbXrecord
280
     1
102
RTVSPropertyOp0
 70
     1
102
RTVSPropertyOp1
 70
     1
102
RTVSPropertyOp2
 70
     1
102
RTVSPropertyOp3
 70
     1
102
RTVSPropertyOp4
 70
     1
102
RTVSPropertyOp5
 70
     1
102
RTVSPropertyOp6
 70
     1
102
RTVSPropertyOp7
 70
     1
102
RTVSPropertyOp8
 70
     1
102
RTVSPropertyOp9
 70
     1
102
RTVSPropertyOp10
 70
     1
102
RTVSPropertyOp11
 70
     1
102
RTVSPropertyOp12
 70
     1
102
RTVSPropertyOp13
 70
     1
102
RTVSPropertyOp14
 70
     1
102
RTVSPropertyOp15
 70
     1
102
RTVSPropertyOp16
 70
     1
102
RTVSPropertyOp17
 70
     1
102
RTVSPropertyOp18
 70
     1
102
RTVSPropertyOp19
 70
     1
102
RTVSPropertyOp20
 70
     1
102
RTVSPropertyOp21
 70
     1
102
RTVSPropertyOp22
 70
     1
102
RTVSPropertyOp23
 70
     1
102
RTVSPropertyOp24
 70
     1
102
RTVSPropertyOp25
 70
     1
102
RTVSPropertyOp26
 70
     1
102
RTVSPropertyOp27
 70
     1
102
RTVSPropertyOp28
 70
     1
102
RTVSPropertyOp29
 70
     1
102
RTVSPropertyOp30
 70
     1
102
RTVSPropertyOp31
 70
     1
102
RTVSPropertyOp32
 70
     1
102
RTVSPropertyOp33
 70
     1
102
RTVSPropertyOp34
 70
     1
102
RTVSPropertyOp35
 70
     1
102
RTVSPropertyOp36
 70
     1
102
RTVSPropertyOp37
 70
     1
102
RTVSPropertyOp38
 70
     1
102
RTVSPropertyOp39
 70
     1
102
RTVSPropertyOp40
 70
     1
102
RTVSPropertyOp41
 70
     1
102
RTVSPropertyOp42
 70
     1
102
RTVSPropertyOp43
 70
     1
102
RTVSPropertyOp44
 70
     1
102
RTVSPropertyOp45
 70
     1
102
RTVSPropertyOp46
 70
     1
102
RTVSPropertyOp47
 70
     1
102
RTVSPropertyOp48
 70
     1
102
RTVSPropertyOp49
 70
     1
102
RTVSPropertyOp50
 70
     1
102
RTVSPropertyOp51
 70
     0
102
RTVSPropertyOp52
 70
     0
102
RTVSPropertyOp53
 70
     1
102
RTVSPropertyOp54
 70
     1
102
RTVSPropertyOp55
 70
     1
102
RTVSPropertyOp56
 70
     1
102
RTVSPropertyOp57
 70
     1
102
RTVSPost2010Prop28
280
     0
102
RTVSPost2010PropOp28
 70
     1
102
RTVSPost2010Prop29
280
     1
102
RTVSPost2010PropOp29
 70
     1
102
RTVSPost2010Prop30
280
     1
102
RTVSPost2010PropOp30
 70
     1
102
RTVSPost2010Prop31
280
     0
102
RTVSPost2010PropOp31
 70
     1
102
RTVSPost2010Prop32
280
     0
102
RTVSPost2010PropOp32
 70
     1
102
RTVSPost2010Prop33
280
     0
102
RTVSPost2010PropOp33
 70
     1
102
RTVSPost2010Prop34
280
     0
102
RTVSPost2010PropOp34
 70
     1
102
RTVSPost2010Prop35
280
     0
102
RTVSPost2010PropOp35
 70
     1
102
RTVSPost2010Prop36
280
     0
102
RTVSPost2010PropOp36
 70
     1
102
RTVSPost2010Prop37
 90
       50
102
RTVSPost2010PropOp37
 70
     1
102
RTVSPost2010Prop38
140
0.0
102
RTVSPost2010PropOp38
 70
     1
102
RTVSPost2010Prop39
140
1.0
102
RTVSPost2010PropOp39
 70
     1
102
RTVSPost2010Prop40
 90
        0
102
RTVSPost2010PropOp40
 70
     1
102
RTVSPost2010Prop41ColorIndex
 90
       18
102
RTVSPost2010Prop41ColorRGB
 90
        0
102
RTVSPost2010PropOp41
 70
     1
102
RTVSPost2010Prop42
 90
       50
102
RTVSPost2010PropOp42
 70
     1
102
RTVSPost2010Prop43
 90
        3
102
RTVSPost2010PropOp43
 70
     1
102
RTVSPost2010Prop44ColorIndex
 90
        5
102
RTVSPost2010Prop44ColorRGB
 90
      255
102
RTVSPost2010PropOp44
 70
     1
102
RTVSPost2010Prop45
280
     0
102
RTVSPost2010PropOp45
 70
     1
102
RTVSPost2010Prop46
 90
       50
102
RTVSPost2010PropOp46
 70
     1
102
RTVSPost2010Prop47
 90
       50
102
RTVSPost2010PropOp47
 70
     1
102
RTVSPost2010Prop48
 90
       50
102
RTVSPost2010PropOp48
 70
     1
102
RTVSPost2010Prop49
280
     0
102
RTVSPost2010PropOp49
 70
     1
102
RTVSPost2010Prop50
 90
       50
102
RTVSPost2010PropOp50
 70
     1
102
RTVSPost2010Prop51ColorIndex
 90
      256
102
RTVSPost2010Prop51ColorRGB
 90
-16777216
102
RTVSPost2010PropOp51
 70
     0
102
RTVSPost2010Prop52
140
1.0
102
RTVSPost2010PropOp52
 70
     0
102
RTVSPost2010Prop53
 90
        2
102
RTVSPost2010PropOp53
 70
     1
102
RTVSPost2010Prop54
  1
strokes_ogs.tif
102
RTVSPost2010PropOp54
 70
     1
102
RTVSPost2010Prop55
280
     0
102
RTVSPost2010PropOp55
 70
     1
102
RTVSPost2010Prop56
140
1.0
102
RTVSPost2010PropOp56
 70
     1
102
RTVSPost2010Prop57
140
1.0
102
RTVSPost2010PropOp57
 70
     1
  0
XRECORD
  5
8AD8F
102
{ACAD_REACTORS
330
876BA
102
}
330
876BA
100
AcDbXrecord
280
     1
102
RTVSPropertyOp0
 70
     1
102
RTVSPropertyOp1
 70
     1
102
RTVSPropertyOp2
 70
     1
102
RTVSPropertyOp3
 70
     1
102
RTVSPropertyOp4
 70
     1
102
RTVSPropertyOp5
 70
     1
102
RTVSPropertyOp6
 70
     1
102
RTVSPropertyOp7
 70
     1
102
RTVSPropertyOp8
 70
     1
102
RTVSPropertyOp9
 70
     1
102
RTVSPropertyOp10
 70
     1
102
RTVSPropertyOp11
 70
     1
102
RTVSPropertyOp12
 70
     1
102
RTVSPropertyOp13
 70
     1
102
RTVSPropertyOp14
 70
     1
102
RTVSPropertyOp15
 70
     1
102
RTVSPropertyOp16
 70
     1
102
RTVSPropertyOp17
 70
     1
102
RTVSPropertyOp18
 70
     1
102
RTVSPropertyOp19
 70
     1
102
RTVSPropertyOp20
 70
     1
102
RTVSPropertyOp21
 70
     1
102
RTVSPropertyOp22
 70
     1
102
RTVSPropertyOp23
 70
     1
102
RTVSPropertyOp24
 70
     1
102
RTVSPropertyOp25
 70
     1
102
RTVSPropertyOp26
 70
     1
102
RTVSPropertyOp27
 70
     1
102
RTVSPropertyOp28
 70
     1
102
RTVSPropertyOp29
 70
     1
102
RTVSPropertyOp30
 70
     1
102
RTVSPropertyOp31
 70
     1
102
RTVSPropertyOp32
 70
     1
102
RTVSPropertyOp33
 70
     1
102
RTVSPropertyOp34
 70
     1
102
RTVSPropertyOp35
 70
     1
102
RTVSPropertyOp36
 70
     1
102
RTVSPropertyOp37
 70
     1
102
RTVSPropertyOp38
 70
     1
102
RTVSPropertyOp39
 70
     1
102
RTVSPropertyOp40
 70
     1
102
RTVSPropertyOp41
 70
     1
102
RTVSPropertyOp42
 70
     1
102
RTVSPropertyOp43
 70
     1
102
RTVSPropertyOp44
 70
     1
102
RTVSPropertyOp45
 70
     1
102
RTVSPropertyOp46
 70
     1
102
RTVSPropertyOp47
 70
     1
102
RTVSPropertyOp48
 70
     1
102
RTVSPropertyOp49
 70
     1
102
RTVSPropertyOp50
 70
     1
102
RTVSPropertyOp51
 70
     0
102
RTVSPropertyOp52
 70
     0
102
RTVSPropertyOp53
 70
     1
102
RTVSPropertyOp54
 70
     1
102
RTVSPropertyOp55
 70
     1
102
RTVSPropertyOp56
 70
     1
102
RTVSPropertyOp57
 70
     1
102
RTVSPost2010Prop28
280
     0
102
RTVSPost2010PropOp28
 70
     1
102
RTVSPost2010Prop29
280
     1
102
RTVSPost2010PropOp29
 70
     1
102
RTVSPost2010Prop30
280
     1
102
RTVSPost2010PropOp30
 70
     1
102
RTVSPost2010Prop31
280
     0
102
RTVSPost2010PropOp31
 70
     1
102
RTVSPost2010Prop32
280
     0
102
RTVSPost2010PropOp32
 70
     1
102
RTVSPost2010Prop33
280
     0
102
RTVSPost2010PropOp33
 70
     1
102
RTVSPost2010Prop34
280
     0
102
RTVSPost2010PropOp34
 70
     1
102
RTVSPost2010Prop35
280
     0
102
RTVSPost2010PropOp35
 70
     1
102
RTVSPost2010Prop36
280
     0
102
RTVSPost2010PropOp36
 70
     1
102
RTVSPost2010Prop37
 90
       50
102
RTVSPost2010PropOp37
 70
     1
102
RTVSPost2010Prop38
140
0.0
102
RTVSPost2010PropOp38
 70
     1
102
RTVSPost2010Prop39
140
1.0
102
RTVSPost2010PropOp39
 70
     1
102
RTVSPost2010Prop40
 90
        0
102
RTVSPost2010PropOp40
 70
     1
102
RTVSPost2010Prop41ColorIndex
 90
       18
102
RTVSPost2010Prop41ColorRGB
 90
        0
102
RTVSPost2010PropOp41
 70
     1
102
RTVSPost2010Prop42
 90
       50
102
RTVSPost2010PropOp42
 70
     1
102
RTVSPost2010Prop43
 90
        3
102
RTVSPost2010PropOp43
 70
     1
102
RTVSPost2010Prop44ColorIndex
 90
        5
102
RTVSPost2010Prop44ColorRGB
 90
      255
102
RTVSPost2010PropOp44
 70
     1
102
RTVSPost2010Prop45
280
     0
102
RTVSPost2010PropOp45
 70
     1
102
RTVSPost2010Prop46
 90
       50
102
RTVSPost2010PropOp46
 70
     1
102
RTVSPost2010Prop47
 90
       50
102
RTVSPost2010PropOp47
 70
     1
102
RTVSPost2010Prop48
 90
       50
102
RTVSPost2010PropOp48
 70
     1
102
RTVSPost2010Prop49
280
     0
102
RTVSPost2010PropOp49
 70
     1
102
RTVSPost2010Prop50
 90
       50
102
RTVSPost2010PropOp50
 70
     1
102
RTVSPost2010Prop51ColorIndex
 90
      256
102
RTVSPost2010Prop51ColorRGB
 90
-16777216
102
RTVSPost2010PropOp51
 70
     0
102
RTVSPost2010Prop52
140
1.0
102
RTVSPost2010PropOp52
 70
     0
102
RTVSPost2010Prop53
 90
        2
102
RTVSPost2010PropOp53
 70
     1
102
RTVSPost2010Prop54
  1
strokes_ogs.tif
102
RTVSPost2010PropOp54
 70
     1
102
RTVSPost2010Prop55
280
     0
102
RTVSPost2010PropOp55
 70
     1
102
RTVSPost2010Prop56
140
1.0
102
RTVSPost2010PropOp56
 70
     1
102
RTVSPost2010Prop57
140
1.0
102
RTVSPost2010PropOp57
 70
     1
  0
XRECORD
  5
8AD90
102
{ACAD_REACTORS
330
876AE
102
}
330
876AE
100
AcDbXrecord
280
     1
102
RTVSPropertyOp0
 70
     1
102
RTVSPropertyOp1
 70
     1
102
RTVSPropertyOp2
 70
     1
102
RTVSPropertyOp3
 70
     1
102
RTVSPropertyOp4
 70
     1
102
RTVSPropertyOp5
 70
     1
102
RTVSPropertyOp6
 70
     1
102
RTVSPropertyOp7
 70
     1
102
RTVSPropertyOp8
 70
     1
102
RTVSPropertyOp9
 70
     1
102
RTVSPropertyOp10
 70
     1
102
RTVSPropertyOp11
 70
     1
102
RTVSPropertyOp12
 70
     1
102
RTVSPropertyOp13
 70
     1
102
RTVSPropertyOp14
 70
     1
102
RTVSPropertyOp15
 70
     1
102
RTVSPropertyOp16
 70
     1
102
RTVSPropertyOp17
 70
     1
102
RTVSPropertyOp18
 70
     1
102
RTVSPropertyOp19
 70
     1
102
RTVSPropertyOp20
 70
     1
102
RTVSPropertyOp21
 70
     1
102
RTVSPropertyOp22
 70
     1
102
RTVSPropertyOp23
 70
     1
102
RTVSPropertyOp24
 70
     1
102
RTVSPropertyOp25
 70
     1
102
RTVSPropertyOp26
 70
     1
102
RTVSPropertyOp27
 70
     1
102
RTVSPropertyOp28
 70
     1
102
RTVSPropertyOp29
 70
     1
102
RTVSPropertyOp30
 70
     1
102
RTVSPropertyOp31
 70
     1
102
RTVSPropertyOp32
 70
     1
102
RTVSPropertyOp33
 70
     1
102
RTVSPropertyOp34
 70
     1
102
RTVSPropertyOp35
 70
     1
102
RTVSPropertyOp36
 70
     1
102
RTVSPropertyOp37
 70
     1
102
RTVSPropertyOp38
 70
     1
102
RTVSPropertyOp39
 70
     1
102
RTVSPropertyOp40
 70
     1
102
RTVSPropertyOp41
 70
     1
102
RTVSPropertyOp42
 70
     1
102
RTVSPropertyOp43
 70
     1
102
RTVSPropertyOp44
 70
     1
102
RTVSPropertyOp45
 70
     1
102
RTVSPropertyOp46
 70
     1
102
RTVSPropertyOp47
 70
     1
102
RTVSPropertyOp48
 70
     1
102
RTVSPropertyOp49
 70
     1
102
RTVSPropertyOp50
 70
     1
102
RTVSPropertyOp51
 70
     0
102
RTVSPropertyOp52
 70
     0
102
RTVSPropertyOp53
 70
     1
102
RTVSPropertyOp54
 70
     1
102
RTVSPropertyOp55
 70
     1
102
RTVSPropertyOp56
 70
     1
102
RTVSPropertyOp57
 70
     1
102
RTVSPost2010Prop28
280
     0
102
RTVSPost2010PropOp28
 70
     1
102
RTVSPost2010Prop29
280
     1
102
RTVSPost2010PropOp29
 70
     1
102
RTVSPost2010Prop30
280
     1
102
RTVSPost2010PropOp30
 70
     1
102
RTVSPost2010Prop31
280
     0
102
RTVSPost2010PropOp31
 70
     1
102
RTVSPost2010Prop32
280
     0
102
RTVSPost2010PropOp32
 70
     1
102
RTVSPost2010Prop33
280
     0
102
RTVSPost2010PropOp33
 70
     1
102
RTVSPost2010Prop34
280
     0
102
RTVSPost2010PropOp34
 70
     1
102
RTVSPost2010Prop35
280
     0
102
RTVSPost2010PropOp35
 70
     1
102
RTVSPost2010Prop36
280
     0
102
RTVSPost2010PropOp36
 70
     1
102
RTVSPost2010Prop37
 90
       50
102
RTVSPost2010PropOp37
 70
     1
102
RTVSPost2010Prop38
140
0.0
102
RTVSPost2010PropOp38
 70
     1
102
RTVSPost2010Prop39
140
1.0
102
RTVSPost2010PropOp39
 70
     1
102
RTVSPost2010Prop40
 90
        0
102
RTVSPost2010PropOp40
 70
     1
102
RTVSPost2010Prop41ColorIndex
 90
       18
102
RTVSPost2010Prop41ColorRGB
 90
        0
102
RTVSPost2010PropOp41
 70
     1
102
RTVSPost2010Prop42
 90
       50
102
RTVSPost2010PropOp42
 70
     1
102
RTVSPost2010Prop43
 90
        3
102
RTVSPost2010PropOp43
 70
     1
102
RTVSPost2010Prop44ColorIndex
 90
        5
102
RTVSPost2010Prop44ColorRGB
 90
      255
102
RTVSPost2010PropOp44
 70
     1
102
RTVSPost2010Prop45
280
     0
102
RTVSPost2010PropOp45
 70
     1
102
RTVSPost2010Prop46
 90
       50
102
RTVSPost2010PropOp46
 70
     1
102
RTVSPost2010Prop47
 90
       50
102
RTVSPost2010PropOp47
 70
     1
102
RTVSPost2010Prop48
 90
       50
102
RTVSPost2010PropOp48
 70
     1
102
RTVSPost2010Prop49
280
     0
102
RTVSPost2010PropOp49
 70
     1
102
RTVSPost2010Prop50
 90
       50
102
RTVSPost2010PropOp50
 70
     1
102
RTVSPost2010Prop51ColorIndex
 90
      256
102
RTVSPost2010Prop51ColorRGB
 90
-16777216
102
RTVSPost2010PropOp51
 70
     0
102
RTVSPost2010Prop52
140
1.0
102
RTVSPost2010PropOp52
 70
     0
102
RTVSPost2010Prop53
 90
        2
102
RTVSPost2010PropOp53
 70
     1
102
RTVSPost2010Prop54
  1
strokes_ogs.tif
102
RTVSPost2010PropOp54
 70
     1
102
RTVSPost2010Prop55
280
     0
102
RTVSPost2010PropOp55
 70
     1
102
RTVSPost2010Prop56
140
1.0
102
RTVSPost2010PropOp56
 70
     1
102
RTVSPost2010Prop57
140
1.0
102
RTVSPost2010PropOp57
 70
     1
  0
XRECORD
  5
8AD91
102
{ACAD_REACTORS
330
876C6
102
}
330
876C6
100
AcDbXrecord
280
     1
102
RTVSPropertyOp0
 70
     1
102
RTVSPropertyOp1
 70
     1
102
RTVSPropertyOp2
 70
     1
102
RTVSPropertyOp3
 70
     1
102
RTVSPropertyOp4
 70
     1
102
RTVSPropertyOp5
 70
     1
102
RTVSPropertyOp6
 70
     1
102
RTVSPropertyOp7
 70
     1
102
RTVSPropertyOp8
 70
     1
102
RTVSPropertyOp9
 70
     1
102
RTVSPropertyOp10
 70
     1
102
RTVSPropertyOp11
 70
     1
102
RTVSPropertyOp12
 70
     1
102
RTVSPropertyOp13
 70
     1
102
RTVSPropertyOp14
 70
     1
102
RTVSPropertyOp15
 70
     1
102
RTVSPropertyOp16
 70
     1
102
RTVSPropertyOp17
 70
     1
102
RTVSPropertyOp18
 70
     1
102
RTVSPropertyOp19
 70
     1
102
RTVSPropertyOp20
 70
     1
102
RTVSPropertyOp21
 70
     1
102
RTVSPropertyOp22
 70
     1
102
RTVSPropertyOp23
 70
     1
102
RTVSPropertyOp24
 70
     1
102
RTVSPropertyOp25
 70
     1
102
RTVSPropertyOp26
 70
     1
102
RTVSPropertyOp27
 70
     1
102
RTVSPropertyOp28
 70
     1
102
RTVSPropertyOp29
 70
     1
102
RTVSPropertyOp30
 70
     1
102
RTVSPropertyOp31
 70
     1
102
RTVSPropertyOp32
 70
     1
102
RTVSPropertyOp33
 70
     1
102
RTVSPropertyOp34
 70
     1
102
RTVSPropertyOp35
 70
     1
102
RTVSPropertyOp36
 70
     1
102
RTVSPropertyOp37
 70
     1
102
RTVSPropertyOp38
 70
     1
102
RTVSPropertyOp39
 70
     1
102
RTVSPropertyOp40
 70
     1
102
RTVSPropertyOp41
 70
     1
102
RTVSPropertyOp42
 70
     1
102
RTVSPropertyOp43
 70
     1
102
RTVSPropertyOp44
 70
     1
102
RTVSPropertyOp45
 70
     1
102
RTVSPropertyOp46
 70
     1
102
RTVSPropertyOp47
 70
     1
102
RTVSPropertyOp48
 70
     1
102
RTVSPropertyOp49
 70
     1
102
RTVSPropertyOp50
 70
     1
102
RTVSPropertyOp51
 70
     0
102
RTVSPropertyOp52
 70
     0
102
RTVSPropertyOp53
 70
     1
102
RTVSPropertyOp54
 70
     1
102
RTVSPropertyOp55
 70
     1
102
RTVSPropertyOp56
 70
     1
102
RTVSPropertyOp57
 70
     1
102
RTVSPost2010Prop28
280
     0
102
RTVSPost2010PropOp28
 70
     1
102
RTVSPost2010Prop29
280
     1
102
RTVSPost2010PropOp29
 70
     1
102
RTVSPost2010Prop30
280
     1
102
RTVSPost2010PropOp30
 70
     1
102
RTVSPost2010Prop31
280
     0
102
RTVSPost2010PropOp31
 70
     1
102
RTVSPost2010Prop32
280
     0
102
RTVSPost2010PropOp32
 70
     1
102
RTVSPost2010Prop33
280
     0
102
RTVSPost2010PropOp33
 70
     1
102
RTVSPost2010Prop34
280
     0
102
RTVSPost2010PropOp34
 70
     1
102
RTVSPost2010Prop35
280
     0
102
RTVSPost2010PropOp35
 70
     1
102
RTVSPost2010Prop36
280
     0
102
RTVSPost2010PropOp36
 70
     1
102
RTVSPost2010Prop37
 90
       50
102
RTVSPost2010PropOp37
 70
     1
102
RTVSPost2010Prop38
140
0.0
102
RTVSPost2010PropOp38
 70
     1
102
RTVSPost2010Prop39
140
1.0
102
RTVSPost2010PropOp39
 70
     1
102
RTVSPost2010Prop40
 90
        0
102
RTVSPost2010PropOp40
 70
     1
102
RTVSPost2010Prop41ColorIndex
 90
       18
102
RTVSPost2010Prop41ColorRGB
 90
        0
102
RTVSPost2010PropOp41
 70
     1
102
RTVSPost2010Prop42
 90
       50
102
RTVSPost2010PropOp42
 70
     1
102
RTVSPost2010Prop43
 90
        3
102
RTVSPost2010PropOp43
 70
     1
102
RTVSPost2010Prop44ColorIndex
 90
        5
102
RTVSPost2010Prop44ColorRGB
 90
      255
102
RTVSPost2010PropOp44
 70
     1
102
RTVSPost2010Prop45
280
     0
102
RTVSPost2010PropOp45
 70
     1
102
RTVSPost2010Prop46
 90
       50
102
RTVSPost2010PropOp46
 70
     1
102
RTVSPost2010Prop47
 90
       50
102
RTVSPost2010PropOp47
 70
     1
102
RTVSPost2010Prop48
 90
       50
102
RTVSPost2010PropOp48
 70
     1
102
RTVSPost2010Prop49
280
     0
102
RTVSPost2010PropOp49
 70
     1
102
RTVSPost2010Prop50
 90
       50
102
RTVSPost2010PropOp50
 70
     1
102
RTVSPost2010Prop51ColorIndex
 90
      256
102
RTVSPost2010Prop51ColorRGB
 90
-16777216
102
RTVSPost2010PropOp51
 70
     0
102
RTVSPost2010Prop52
140
1.0
102
RTVSPost2010PropOp52
 70
     0
102
RTVSPost2010Prop53
 90
        2
102
RTVSPost2010PropOp53
 70
     1
102
RTVSPost2010Prop54
  1
strokes_ogs.tif
102
RTVSPost2010PropOp54
 70
     1
102
RTVSPost2010Prop55
280
     0
102
RTVSPost2010PropOp55
 70
     1
102
RTVSPost2010Prop56
140
1.0
102
RTVSPost2010PropOp56
 70
     1
102
RTVSPost2010Prop57
140
1.0
102
RTVSPost2010PropOp57
 70
     1
  0
ENDSEC
  0
EOF
