  0
SECTION
  2
HEADER
  9
$ACADVER
  1
AC1015
  9
$ACADMAINTVER
 70
    20
  9
$DWGCODEPAGE
  3
ANSI_936
  9
$INSBASE
 10
0.0
 20
0.0
 30
0.0
  9
$EXTMIN
 10
-77.71666666666665
 20
-46.02490261997752
 30
0.0
  9
$EXTMAX
 10
104.9833333333334
 20
94.67306215801507
 30
0.0
  9
$LIMMIN
 10
0.0
 20
0.0
  9
$LIMMAX
 10
420.0
 20
297.0
  9
$ORTHOMODE
 70
     0
  9
$REGENMODE
 70
     1
  9
$FILLMODE
 70
     1
  9
$QTEXTMODE
 70
     0
  9
$MIRRTEXT
 70
     1
  9
$LTSCALE
 40
1.0
  9
$ATTMODE
 70
     1
  9
$TEXTSIZE
 40
3.5
  9
$TRACEWID
 40
1.0
  9
$TEXTSTYLE
  7
simplex
  9
$CLAYER
  8
0
  9
$CELTYPE
  6
ByLayer
  9
$CECOLOR
 62
   256
  9
$CELTSCALE
 40
1.0
  9
$DISPSILH
 70
     0
  9
$DIMSCALE
 40
0.0
  9
$DIMASZ
 40
3.5
  9
$DIMEXO
 40
0.0
  9
$DIMDLI
 40
0.38
  9
$DIMRND
 40
0.0
  9
$DIMDLE
 40
0.0
  9
$DIMEXE
 40
1.5
  9
$DIMTP
 40
0.0
  9
$DIMTM
 40
0.0
  9
$DIMTXT
 40
3.5
  9
$DIMCEN
 40
0.09
  9
$DIMTSZ
 40
0.0
  9
$DIMTOL
 70
     0
  9
$DIMLIM
 70
     0
  9
$DIMTIH
 70
     0
  9
$DIMTOH
 70
     0
  9
$DIMSE1
 70
     0
  9
$DIMSE2
 70
     0
  9
$DIMTAD
 70
     1
  9
$DIMZIN
 70
     8
  9
$DIMBLK
  1

  9
$DIMASO
 70
     1
  9
$DIMSHO
 70
     1
  9
$DIMPOST
  1

  9
$DIMAPOST
  1

  9
$DIMALT
 70
     0
  9
$DIMALTD
 70
     2
  9
$DIMALTF
 40
25.4
  9
$DIMLFAC
 40
1.0
  9
$DIMTOFL
 70
     0
  9
$DIMTVP
 40
0.0
  9
$DIMTIX
 70
     0
  9
$DIMSOXD
 70
     0
  9
$DIMSAH
 70
     0
  9
$DIMBLK1
  1

  9
$DIMBLK2
  1

  9
$DIMSTYLE
  2
\M+18352\M+18373\M+1815B - ISO-25
  9
$DIMCLRD
 70
   256
  9
$DIMCLRE
 70
   256
  9
$DIMCLRT
 70
   256
  9
$DIMTFAC
 40
1.0
  9
$DIMGAP
 40
2.299999999999998
  9
$DIMJUST
 70
     0
  9
$DIMSD1
 70
     0
  9
$DIMSD2
 70
     0
  9
$DIMTOLJ
 70
     1
  9
$DIMTZIN
 70
     8
  9
$DIMALTZ
 70
     0
  9
$DIMALTTZ
 70
     0
  9
$DIMUPT
 70
     0
  9
$DIMDEC
 70
     2
  9
$DIMTDEC
 70
     2
  9
$DIMALTU
 70
     2
  9
$DIMALTTD
 70
     2
  9
$DIMTXSTY
  7
simplex
  9
$DIMAUNIT
 70
     0
  9
$DIMADEC
 70
     0
  9
$DIMALTRND
 40
0.0
  9
$DIMAZIN
 70
     0
  9
$DIMDSEP
 70
    46
  9
$DIMATFIT
 70
     3
  9
$DIMFRAC
 70
     0
  9
$DIMLDRBLK
  1

  9
$DIMLUNIT
 70
     2
  9
$DIMLWD
 70
    -1
  9
$DIMLWE
 70
    -1
  9
$DIMTMOVE
 70
     0
  9
$LUNITS
 70
     2
  9
$LUPREC
 70
     4
  9
$SKETCHINC
 40
1.0
  9
$FILLETRAD
 40
1.5
  9
$AUNITS
 70
     0
  9
$AUPREC
 70
     0
  9
$MENU
  1
.
  9
$ELEVATION
 40
0.0
  9
$PELEVATION
 40
0.0
  9
$THICKNESS
 40
0.0
  9
$LIMCHECK
 70
     0
  9
$CHAMFERA
 40
10.0
  9
$CHAMFERB
 40
10.0
  9
$CHAMFERC
 40
20.0
  9
$CHAMFERD
 40
0.0
  9
$SKPOLY
 70
     0
  9
$TDCREATE
 40
2455489.391063368
  9
$TDUCREATE
 40
2455489.057730035
  9
$TDUPDATE
 40
2458480.440787766
  9
$TDUUPDATE
 40
2458480.107454433
  9
$TDINDWG
 40
2.0953049769
  9
$TDUSRTIMER
 40
2.0952518171
  9
$USRTIMER
 70
     1
  9
$ANGBASE
 50
0.0
  9
$ANGDIR
 70
     0
  9
$PDMODE
 70
     0
  9
$PDSIZE
 40
0.0
  9
$PLINEWID
 40
0.0
  9
$SPLFRAME
 70
     0
  9
$SPLINETYPE
 70
     6
  9
$SPLINESEGS
 70
     8
  9
$HANDSEED
  5
6178A
  9
$SURFTAB1
 70
     6
  9
$SURFTAB2
 70
     6
  9
$SURFTYPE
 70
     6
  9
$SURFU
 70
     6
  9
$SURFV
 70
     6
  9
$UCSBASE
  2

  9
$UCSNAME
  2

  9
$UCSORG
 10
0.0
 20
0.0
 30
0.0
  9
$UCSXDIR
 10
1.0
 20
0.0
 30
0.0
  9
$UCSYDIR
 10
0.0
 20
1.0
 30
0.0
  9
$UCSORTHOREF
  2

  9
$UCSORTHOVIEW
 70
     0
  9
$UCSORGTOP
 10
0.0
 20
0.0
 30
0.0
  9
$UCSORGBOTTOM
 10
0.0
 20
0.0
 30
0.0
  9
$UCSORGLEFT
 10
0.0
 20
0.0
 30
0.0
  9
$UCSORGRIGHT
 10
0.0
 20
0.0
 30
0.0
  9
$UCSORGFRONT
 10
0.0
 20
0.0
 30
0.0
  9
$UCSORGBACK
 10
0.0
 20
0.0
 30
0.0
  9
$PUCSBASE
  2

  9
$PUCSNAME
  2

  9
$PUCSORG
 10
0.0
 20
0.0
 30
0.0
  9
$PUCSXDIR
 10
1.0
 20
0.0
 30
0.0
  9
$PUCSYDIR
 10
0.0
 20
1.0
 30
0.0
  9
$PUCSORTHOREF
  2

  9
$PUCSORTHOVIEW
 70
     0
  9
$PUCSORGTOP
 10
0.0
 20
0.0
 30
0.0
  9
$PUCSORGBOTTOM
 10
0.0
 20
0.0
 30
0.0
  9
$PUCSORGLEFT
 10
0.0
 20
0.0
 30
0.0
  9
$PUCSORGRIGHT
 10
0.0
 20
0.0
 30
0.0
  9
$PUCSORGFRONT
 10
0.0
 20
0.0
 30
0.0
  9
$PUCSORGBACK
 10
0.0
 20
0.0
 30
0.0
  9
$USERI1
 70
     0
  9
$USERI2
 70
     0
  9
$USERI3
 70
     0
  9
$USERI4
 70
     0
  9
$USERI5
 70
     0
  9
$USERR1
 40
0.0
  9
$USERR2
 40
0.0
  9
$USERR3
 40
0.0
  9
$USERR4
 40
0.0
  9
$USERR5
 40
0.0
  9
$WORLDVIEW
 70
     1
  9
$SHADEDGE
 70
     3
  9
$SHADEDIF
 70
    70
  9
$TILEMODE
 70
     1
  9
$MAXACTVP
 70
    64
  9
$PINSBASE
 10
0.0
 20
0.0
 30
0.0
  9
$PLIMCHECK
 70
     0
  9
$PEXTMIN
 10
26.66999878883364
 20
20.31999878883365
 30
0.0
  9
$PEXTMAX
 10
240.0299890995025
 20
182.8799890995025
 30
0.0
  9
$PLIMMIN
 10
-6.350006103515625
 20
-6.349999904632567
  9
$PLIMMAX
 10
273.0499877929688
 20
209.5499939918518
  9
$UNITMODE
 70
     0
  9
$VISRETAIN
 70
     1
  9
$PLINEGEN
 70
     0
  9
$PSLTSCALE
 70
     1
  9
$TREEDEPTH
 70
  3020
  9
$CMLSTYLE
  2
Standard
  9
$CMLJUST
 70
     0
  9
$CMLSCALE
 40
20.0
  9
$PROXYGRAPHICS
 70
     1
  9
$MEASUREMENT
 70
     1
  9
$CELWEIGHT
370
    -1
  9
$ENDCAPS
280
     0
  9
$JOINSTYLE
280
     0
  9
$LWDISPLAY
290
     0
  9
$INSUNITS
 70
     4
  9
$HYPERLINKBASE
  1

  9
$STYLESHEET
  1

  9
$XEDIT
290
     1
  9
$CEPSNTYPE
380
     0
  9
$PSTYLEMODE
290
     1
  9
$FINGERPRINTGUID
  2
{601DDA01-5B13-4A4C-8F56-1333B78D855B}
  9
$VERSIONGUID
  2
{D067704B-17DA-48A3-9F39-C79CF9B4D1C2}
  9
$EXTNAMES
290
     1
  9
$PSVPSCALE
 40
0.0
  9
$OLESTARTUP
290
     0
  0
ENDSEC
  0
SECTION
  2
CLASSES
  0
CLASS
  1
ACDBDICTIONARYWDFLT
  2
AcDbDictionaryWithDefault
  3
ObjectDBX Classes
 90
        0
280
     0
281
     0
  0
CLASS
  1
ACDBPLACEHOLDER
  2
AcDbPlaceHolder
  3
ObjectDBX Classes
 90
        0
280
     0
281
     0
  0
CLASS
  1
LAYOUT
  2
AcDbLayout
  3
ObjectDBX Classes
 90
        0
280
     0
281
     0
  0
CLASS
  1
DICTIONARYVAR
  2
AcDbDictionaryVar
  3
ObjectDBX Classes
 90
        0
280
     0
281
     0
  0
CLASS
  1
TABLESTYLE
  2
AcDbTableStyle
  3
ObjectDBX Classes
 90
     2047
280
     0
281
     0
  0
CLASS
  1
SORTENTSTABLE
  2
AcDbSortentsTable
  3
ObjectDBX Classes
 90
        0
280
     0
281
     0
  0
CLASS
  1
DIMASSOC
  2
AcDbDimAssoc
  3
"AcDbDimAssoc|Product Desc:     AcDim ARX App For Dimension|Company:          Autodesk, Inc.|WEB Address:      www.autodesk.com"
 90
    32768
280
     0
281
     0
  0
CLASS
  1
ACAD_EVALUATION_GRAPH
  2
AcDbEvalGraph
  3
ObjectDBX Classes
 90
    33921
280
     0
281
     0
  0
CLASS
  1
ACAECUSTOBJ
  2
AcAeEditorObj
  3
AcAeEditorObj
 90
    33792
280
     0
281
     0
  0
CLASS
  1
ACDB_DYNAMICBLOCKPURGEPREVENTER_VERSION
  2
AcDbDynamicBlockPurgePreventer
  3
ObjectDBX Classes
 90
    33921
280
     0
281
     0
  0
ENDSEC
  0
SECTION
  2
TABLES
  0
TABLE
  2
VPORT
  5
8
330
0
100
AcDbSymbolTable
 70
     2
  0
VPORT
  5
6177B
330
8
100
AcDbSymbolTableRecord
100
AcDbViewportTableRecord
  2
*Active
 70
     0
 10
0.0
 20
0.0
 11
1.0
 21
1.0
 12
27.9867637951586
 22
8.12543517409307
 13
0.0
 23
0.0
 14
10.0
 24
10.0
 15
10.0
 25
10.0
 16
0.0
 26
0.0
 36
1.0
 17
0.0
 27
0.0
 37
0.0
 40
266.332667563907
 41
1.381443298969072
 42
50.0
 43
0.0
 44
0.0
 50
0.0
 51
0.0
 71
     0
 72
  1000
 73
     1
 74
     1
 75
     0
 76
     0
 77
     0
 78
     0
281
     0
 65
     1
110
0.0
120
0.0
130
0.0
111
1.0
121
0.0
131
0.0
112
0.0
122
1.0
132
0.0
 79
     0
146
0.0
  0
ENDTAB
  0
TABLE
  2
LTYPE
  5
5
330
0
100
AcDbSymbolTable
 70
     4
  0
LTYPE
  5
14
330
5
100
AcDbSymbolTableRecord
100
AcDbLinetypeTableRecord
  2
ByBlock
 70
     0
  3

 72
    65
 73
     0
 40
0.0
  0
LTYPE
  5
15
330
5
100
AcDbSymbolTableRecord
100
AcDbLinetypeTableRecord
  2
ByLayer
 70
     0
  3

 72
    65
 73
     0
 40
0.0
  0
LTYPE
  5
16
330
5
100
AcDbSymbolTableRecord
100
AcDbLinetypeTableRecord
  2
Continuous
 70
     0
  3
Solid line
 72
    65
 73
     0
 40
0.0
  0
LTYPE
  5
D7
330
5
100
AcDbSymbolTableRecord
100
AcDbLinetypeTableRecord
  2
HIDDEN
 70
     0
  3
Hidden __ __ __ __ __ __ __ __ __ __ __ __ __ _
 72
    65
 73
     2
 40
9.524999999999996
 49
6.349999999999997
 74
     0
 49
-3.174999999999998
 74
     0
  0
LTYPE
  5
D9
330
5
100
AcDbSymbolTableRecord
100
AcDbLinetypeTableRecord
  2
CENTER
 70
     0
  3
Center ____ _ ____ _ ____ _ ____ _ ____ _ ____
 72
    65
 73
     4
 40
50.8
 49
31.75
 74
     0
 49
-6.349999999999997
 74
     0
 49
6.349999999999997
 74
     0
 49
-6.349999999999997
 74
     0
  0
LTYPE
  5
35815
330
5
100
AcDbSymbolTableRecord
100
AcDbLinetypeTableRecord
  2
PHANTOM
 70
     0
  3
_____ _ _ _____ _ _ _____ _ _ _____
 72
    65
 73
     6
 40
0.8
 49
0.45
 74
     0
 49
-0.05
 74
     0
 49
0.1
 74
     0
 49
-0.05
 74
     0
 49
0.1
 74
     0
 49
-0.05
 74
     0
  0
ENDTAB
  0
TABLE
  2
LAYER
  5
2
102
{ACAD_XDICTIONARY
360
E2
102
}
330
0
100
AcDbSymbolTable
 70
    14
  0
LAYER
  5
10
330
2
100
AcDbSymbolTableRecord
100
AcDbLayerTableRecord
  2
0
 70
     0
 62
     7
  6
Continuous
370
    -3
390
F
  0
LAYER
  5
D1
330
2
100
AcDbSymbolTableRecord
100
AcDbLayerTableRecord
  2
1
 70
     0
 62
     4
  6
Continuous
370
    50
390
F
1001
AcAecLayerStandard
1000

1000

  0
LAYER
  5
D3
330
2
100
AcDbSymbolTableRecord
100
AcDbLayerTableRecord
  2
2
 70
     0
 62
     7
  6
Continuous
370
    25
390
F
1001
AcAecLayerStandard
1000

1000

  0
LAYER
  5
D4
330
2
100
AcDbSymbolTableRecord
100
AcDbLayerTableRecord
  2
3
 70
     0
 62
     1
  6
HIDDEN
370
    35
390
F
1001
AcAecLayerStandard
1000

1000

  0
LAYER
  5
D8
330
2
100
AcDbSymbolTableRecord
100
AcDbLayerTableRecord
  2
4
 70
     0
 62
     2
  6
CENTER
370
    25
390
F
1001
AcAecLayerStandard
1000

1000

  0
LAYER
  5
DA
330
2
100
AcDbSymbolTableRecord
100
AcDbLayerTableRecord
  2
6
 70
     0
 62
     5
  6
Continuous
370
    35
390
F
1001
AcAecLayerStandard
1000

1000

  0
LAYER
  5
DB
330
2
100
AcDbSymbolTableRecord
100
AcDbLayerTableRecord
  2
cut
 70
     0
 62
     1
  6
Continuous
370
    25
390
F
1001
AcAecLayerStandard
1000

1000

  0
LAYER
  5
DC
330
2
100
AcDbSymbolTableRecord
100
AcDbLayerTableRecord
  2
nocut
 70
     0
 62
     7
  6
Continuous
370
    25
390
F
1001
AcAecLayerStandard
1000

1000

  0
LAYER
  5
DD
330
2
100
AcDbSymbolTableRecord
100
AcDbLayerTableRecord
  2
sk1
 70
     0
 62
     4
  6
Continuous
370
    50
390
F
1001
AcAecLayerStandard
1000

1000

  0
LAYER
  5
DE
330
2
100
AcDbSymbolTableRecord
100
AcDbLayerTableRecord
  2
sk2
 70
     0
 62
     7
  6
Continuous
370
    25
390
F
1001
AcAecLayerStandard
1000

1000

  0
LAYER
  5
DF
330
2
100
AcDbSymbolTableRecord
100
AcDbLayerTableRecord
  2
sk3
 70
     0
 62
     1
  6
HIDDEN
370
    35
390
F
1001
AcAecLayerStandard
1000

1000

  0
LAYER
  5
E0
330
2
100
AcDbSymbolTableRecord
100
AcDbLayerTableRecord
  2
sk4
 70
     0
 62
     2
  6
CENTER
370
    25
390
F
1001
AcAecLayerStandard
1000

1000

  0
LAYER
  5
E1
330
2
100
AcDbSymbolTableRecord
100
AcDbLayerTableRecord
  2
sk6
 70
     0
 62
     5
  6
Continuous
370
    35
390
F
1001
AcAecLayerStandard
1000

1000

  0
LAYER
  5
31B6
330
2
100
AcDbSymbolTableRecord
100
AcDbLayerTableRecord
  2
Defpoints
 70
     0
 62
     7
  6
Continuous
290
     0
370
    -3
390
F
  0
ENDTAB
  0
TABLE
  2
STYLE
  5
3
330
0
100
AcDbSymbolTable
 70
    11
  0
STYLE
  5
11
330
3
100
AcDbSymbolTableRecord
100
AcDbTextStyleTableRecord
  2
Standard
 70
     0
 40
0.0
 41
1.0
 50
0.0
 71
     0
 42
2.5
  3
txt.shx
  4
@extfont2.shx
  0
STYLE
  5
D6
330
3
100
AcDbSymbolTableRecord
100
AcDbTextStyleTableRecord
  2

 70
     1
 40
0.0
 41
1.0
 50
0.0
 71
     0
 42
2.5
  3
ltypeshp.shx
  4

  0
STYLE
  5
24A
330
3
100
AcDbSymbolTableRecord
100
AcDbTextStyleTableRecord
  2
simplex
 70
     0
 40
3.5
 41
1.0
 50
0.0
 71
     0
 42
3.5
  3
txt.shx
  4

  0
STYLE
  5
69E
330
3
100
AcDbSymbolTableRecord
100
AcDbTextStyleTableRecord
  2
MX_NOTE_STANDARD
 70
     0
 40
0.0
 41
1.0
 50
0.0
 71
     0
 42
4.2
  3
txt.shx
  4
extfont.shx
  0
STYLE
  5
3524
330
3
100
AcDbSymbolTableRecord
100
AcDbTextStyleTableRecord
  2
TEXTSTYLE_2
 70
     0
 40
0.0
 41
0.775
 50
0.0
 71
     0
 42
0.2
  3
gdt
  4

  0
STYLE
  5
3525
330
3
100
AcDbSymbolTableRecord
100
AcDbTextStyleTableRecord
  2
TEXTSTYLE_3
 70
     0
 40
0.0
 41
0.75
 50
0.0
 71
     0
 42
0.2
  3
txt
  4

  0
STYLE
  5
3526
330
3
100
AcDbSymbolTableRecord
100
AcDbTextStyleTableRecord
  2
TEXTSTYLE_13
 70
     0
 40
0.0
 41
1.0
 50
0.0
 71
     0
 42
0.2
  3
txt
  4

  0
STYLE
  5
519A
330
3
100
AcDbSymbolTableRecord
100
AcDbTextStyleTableRecord
  2
TEXTSTYLE_14
 70
     0
 40
0.0
 41
1.0
 50
0.0
 71
     0
 42
0.2
  3
txt
  4

  0
STYLE
  5
6F72
330
3
100
AcDbSymbolTableRecord
100
AcDbTextStyleTableRecord
  2
TEXTSTYLE_4
 70
     0
 40
0.0
 41
0.75
 50
0.0
 71
     0
 42
0.2
  3
txt
  4

  0
STYLE
  5
6F73
330
3
100
AcDbSymbolTableRecord
100
AcDbTextStyleTableRecord
  2
TEXTSTYLE_17
 70
     0
 40
0.0
 41
1.0
 50
0.0
 71
     0
 42
0.2
  3
txt
  4

  0
STYLE
  5
FE12
330
3
100
AcDbSymbolTableRecord
100
AcDbTextStyleTableRecord
  2
TEXTSTYLE_12
 70
     0
 40
0.0
 41
1.0
 50
0.0
 71
     0
 42
0.2
  3
txt
  4

  0
ENDTAB
  0
TABLE
  2
VIEW
  5
6
330
0
100
AcDbSymbolTable
 70
     0
  0
ENDTAB
  0
TABLE
  2
UCS
  5
7
330
0
100
AcDbSymbolTable
 70
     0
  0
ENDTAB
  0
TABLE
  2
APPID
  5
9
330
0
100
AcDbSymbolTable
 70
    11
  0
APPID
  5
12
330
9
100
AcDbSymbolTableRecord
100
AcDbRegAppTableRecord
  2
ACAD
 70
     0
  0
APPID
  5
D2
330
9
100
AcDbSymbolTableRecord
100
AcDbRegAppTableRecord
  2
AcAecLayerStandard
 70
     0
  0
APPID
  5
E6
330
9
100
AcDbSymbolTableRecord
100
AcDbRegAppTableRecord
  2
ACAD_DSTYLE_DIMTEXT_FILL
 70
     0
  0
APPID
  5
4C84
330
9
100
AcDbSymbolTableRecord
100
AcDbRegAppTableRecord
  2
ACAD_EXEMPT_FROM_CAD_STANDARDS
 70
     0
  0
APPID
  5
3493E
330
9
100
AcDbSymbolTableRecord
100
AcDbRegAppTableRecord
  2
DCO15
 70
     0
  0
APPID
  5
4366A
330
9
100
AcDbSymbolTableRecord
100
AcDbRegAppTableRecord
  2
ACAUTHENVIRON
 70
     0
  0
APPID
  5
4366D
330
9
100
AcDbSymbolTableRecord
100
AcDbRegAppTableRecord
  2
AcDbDynamicBlockTrueName
 70
     0
  0
APPID
  5
4366E
330
9
100
AcDbSymbolTableRecord
100
AcDbRegAppTableRecord
  2
AcDbDynamicBlockGUID
 70
     0
  0
APPID
  5
43670
330
9
100
AcDbSymbolTableRecord
100
AcDbRegAppTableRecord
  2
AcDbBlockRepETag
 70
     0
  0
APPID
  5
45C9F
330
9
100
AcDbSymbolTableRecord
100
AcDbRegAppTableRecord
  2
ACAD_DSTYLE_DIMEXT_ENABLED
 70
     0
  0
APPID
  5
45CA0
330
9
100
AcDbSymbolTableRecord
100
AcDbRegAppTableRecord
  2
ACAD_DSTYLE_DIMEXT_LENGTH
 70
     0
  0
ENDTAB
  0
TABLE
  2
DIMSTYLE
  5
A
330
0
100
AcDbSymbolTable
 70
    10
100
AcDbDimStyleTable
 71
     2
340
1BF
340
27
  0
DIMSTYLE
105
27
330
A
100
AcDbSymbolTableRecord
100
AcDbDimStyleTableRecord
  2
ISO-25
 70
     0
 41
2.5
 42
0.625
 43
3.75
 44
1.25
 73
     0
 74
     0
 77
     1
 78
     8
140
2.5
141
2.5
143
0.03937007874016
147
0.625
171
     3
172
     1
271
     2
272
     2
274
     3
278
    44
283
     0
284
     8
340
11
  0
DIMSTYLE
105
1BF
102
{ACAD_REACTORS
330
6099E
330
60984
330
6096A
330
60920
330
60908
330
60938
330
608F0
330
608D8
330
61552
330
615F3
102
}
330
A
100
AcDbSymbolTableRecord
100
AcDbDimStyleTableRecord
  2
\M+18352\M+18373\M+1815B - ISO-25
 70
     0
 40
0.0
 41
3.5
 42
0.0
 44
1.5
 73
     0
 74
     0
 77
     1
 78
     8
140
3.5
147
2.299999999999998
176
   256
177
   256
178
   256
271
     2
272
     2
284
     8
340
24A
371
    -1
372
    -1
  0
DIMSTYLE
105
69F
330
A
100
AcDbSymbolTableRecord
100
AcDbDimStyleTableRecord
  2
MXDIMSTYLE
 70
     0
 41
2.5
 42
0.5
 43
3.75
 44
1.5
 73
     0
 74
     0
 77
     1
 78
     8
140
4.2
141
2.5
143
0.03937
147
1.0
171
     4
172
     1
173
     1
271
     2
272
     2
274
     4
283
     0
288
     1
340
69E
341
697
343
697
344
697
  0
DIMSTYLE
105
3527
330
A
100
AcDbSymbolTableRecord
100
AcDbDimStyleTableRecord
  2
STANDARD
 70
     0
 41
3.0
 47
0.001
 48
0.001
 71
     1
 73
     0
 74
     0
 77
     1
 78
     8
140
4.0
271
     3
272
     3
284
     8
340
11
341
34B1
342
34B1
343
34B1
344
34B1
  0
DIMSTYLE
105
3528
330
A
100
AcDbSymbolTableRecord
100
AcDbDimStyleTableRecord
  2
DIMSTYLE_1
 70
     0
 41
3.0
 73
     0
 74
     0
 77
     1
 78
     8
140
4.0
271
     3
272
     3
284
     8
340
11
341
34B1
342
34B1
343
34B1
344
34B1
  0
DIMSTYLE
105
3529
330
A
100
AcDbSymbolTableRecord
100
AcDbDimStyleTableRecord
  2
DIMSTYLE_2
 70
     0
 41
3.0
 47
0.001
 48
0.001
 73
     0
 74
     0
 77
     1
 78
     8
140
4.0
271
     3
272
     3
284
     8
340
11
341
34B1
342
34B1
343
34B1
344
34B1
  0
DIMSTYLE
105
352A
330
A
100
AcDbSymbolTableRecord
100
AcDbDimStyleTableRecord
  2
DIMSTYLE_3
 70
     0
 41
3.0
 47
-0.1
 48
0.3
 71
     1
 73
     0
 74
     0
 77
     1
 78
     8
140
4.0
146
0.5
271
     3
272
     3
284
     8
340
11
341
34B1
342
34B1
343
34B1
344
34B1
  0
DIMSTYLE
105
352B
330
A
100
AcDbSymbolTableRecord
100
AcDbDimStyleTableRecord
  2
DIMSTYLE_4
 70
     0
 41
3.0
 47
0.1
 48
0.1
 71
     1
 73
     0
 74
     0
 77
     1
 78
     8
140
4.0
271
     3
272
     3
284
     8
340
11
341
34B1
342
34B1
343
34B1
344
34B1
  0
DIMSTYLE
105
27245
330
A
100
AcDbSymbolTableRecord
100
AcDbDimStyleTableRecord
  2
DIMSTYLE_5
 70
     0
 41
3.0
 47
0.001
 48
0.001
 73
     0
 74
     0
 77
     1
 78
     8
140
4.0
271
     3
272
     3
284
     8
340
11
341
34B1
342
34B1
343
34B1
344
34B1
  0
DIMSTYLE
105
4771C
330
A
100
AcDbSymbolTableRecord
100
AcDbDimStyleTableRecord
  2
\M+18352\M+18373\M+1815B_-_ISO-25
 70
     0
 40
0.0
 41
3.5
 42
0.0
 44
1.5
 73
     0
 74
     0
 77
     1
 78
     8
140
3.5
147
2.299999999999998
176
   256
177
   256
178
   256
279
     2
284
     8
285
     8
286
     8
340
24A
  0
ENDTAB
  0
TABLE
  2
BLOCK_RECORD
  5
1
330
0
100
AcDbSymbolTable
 70
    17
  0
BLOCK_RECORD
  5
1F
102
{ACAD_XDICTIONARY
360
31EE
102
}
330
1
100
AcDbSymbolTableRecord
100
AcDbBlockTableRecord
  2
*Model_Space
340
22
  0
BLOCK_RECORD
  5
50
330
1
100
AcDbSymbolTableRecord
100
AcDbBlockTableRecord
  2
*Paper_Space
340
51
  0
BLOCK_RECORD
  5
55
330
1
100
AcDbSymbolTableRecord
100
AcDbBlockTableRecord
  2
*Paper_Space0
340
56
  0
BLOCK_RECORD
  5
680
102
{ACAD_XDICTIONARY
360
43668
102
}
330
1
100
AcDbSymbolTableRecord
100
AcDbBlockTableRecord
  2
zero block
340
0
102
{BLKREFS
331
68C
102
}
1001
ACAD
1000
DesignCenter Data
1002
{
1070
     1
1070
     4
1002
}
1001
AcDbDynamicBlockGUID
1000
{A89DF4EB-B2CB-439E-AC69-1EAC9F242D1C}
1001
AcDbBlockRepETag
1070
     1
1071
        7
  0
BLOCK_RECORD
  5
697
330
1
100
AcDbSymbolTableRecord
100
AcDbBlockTableRecord
  2
_OPEN30
340
0
  0
BLOCK_RECORD
  5
32F1
330
1
100
AcDbSymbolTableRecord
100
AcDbBlockTableRecord
  2
_None
340
0
  0
BLOCK_RECORD
  5
34B1
330
1
100
AcDbSymbolTableRecord
100
AcDbBlockTableRecord
  2
_OPEN
340
0
  0
BLOCK_RECORD
  5
45B07
330
1
100
AcDbSymbolTableRecord
100
AcDbBlockTableRecord
  2
*D5
340
0
  0
BLOCK_RECORD
  5
45B1F
330
1
100
AcDbSymbolTableRecord
100
AcDbBlockTableRecord
  2
*D6
340
0
  0
BLOCK_RECORD
  5
608D9
330
1
100
AcDbSymbolTableRecord
100
AcDbBlockTableRecord
  2
*D7
340
0
  0
BLOCK_RECORD
  5
608F1
330
1
100
AcDbSymbolTableRecord
100
AcDbBlockTableRecord
  2
*D8
340
0
  0
BLOCK_RECORD
  5
60909
330
1
100
AcDbSymbolTableRecord
100
AcDbBlockTableRecord
  2
*D9
340
0
  0
BLOCK_RECORD
  5
60921
330
1
100
AcDbSymbolTableRecord
100
AcDbBlockTableRecord
  2
*D10
340
0
  0
BLOCK_RECORD
  5
60939
330
1
100
AcDbSymbolTableRecord
100
AcDbBlockTableRecord
  2
*D11
340
0
  0
BLOCK_RECORD
  5
6096B
330
1
100
AcDbSymbolTableRecord
100
AcDbBlockTableRecord
  2
*D12
340
0
  0
BLOCK_RECORD
  5
60985
330
1
100
AcDbSymbolTableRecord
100
AcDbBlockTableRecord
  2
*D13
340
0
  0
BLOCK_RECORD
  5
6099F
330
1
100
AcDbSymbolTableRecord
100
AcDbBlockTableRecord
  2
*D14
340
0
  0
BLOCK_RECORD
  5
61553
330
1
100
AcDbSymbolTableRecord
100
AcDbBlockTableRecord
  2
*D15
340
0
  0
BLOCK_RECORD
  5
615F4
330
1
100
AcDbSymbolTableRecord
100
AcDbBlockTableRecord
  2
*D16
340
0
  0
ENDTAB
  0
ENDSEC
  0
SECTION
  2
BLOCKS
  0
BLOCK
  5
20
330
1F
100
AcDbEntity
  8
0
100
AcDbBlockBegin
  2
*Model_Space
 70
     0
 10
0.0
 20
0.0
 30
0.0
  3
*Model_Space
  1

  0
ENDBLK
  5
21
330
1F
100
AcDbEntity
  8
0
100
AcDbBlockEnd
  0
BLOCK
  5
52
330
50
100
AcDbEntity
 67
     1
  8
0
100
AcDbBlockBegin
  2
*Paper_Space
 70
     0
 10
0.0
 20
0.0
 30
0.0
  3
*Paper_Space
  1

  0
ENDBLK
  5
53
330
50
100
AcDbEntity
 67
     1
  8
0
100
AcDbBlockEnd
  0
BLOCK
  5
57
330
55
100
AcDbEntity
 67
     1
  8
0
100
AcDbBlockBegin
  2
*Paper_Space0
 70
     0
 10
0.0
 20
0.0
 30
0.0
  3
*Paper_Space0
  1

  0
VIEWPORT
  5
71
102
{ACAD_XDICTIONARY
360
61786
102
}
330
55
100
AcDbEntity
 67
     1
  8
0
100
AcDbViewport
 10
150.1652135264906
 20
101.599997546291
 30
0.0
 40
339.1973820494347
 41
164.5360435314421
 68
     0
 69
     0
 12
150.1652135264906
 22
101.599997546291
 13
0.0
 23
0.0
 14
10.0
 24
10.0
 15
10.0
 25
10.0
 16
0.0
 26
0.0
 36
1.0
 17
0.0
 27
0.0
 37
0.0
 42
50.0
 43
0.0
 44
0.0
 45
164.5360435314421
 50
0.0
 51
0.0
 72
  1000
 90
    32864
  1

281
     0
 71
     1
 74
     0
110
0.0
120
0.0
130
0.0
111
1.0
121
0.0
131
0.0
112
0.0
122
1.0
132
0.0
 79
     0
146
0.0
  0
VIEWPORT
  5
73
102
{ACAD_XDICTIONARY
360
61788
102
}
330
55
100
AcDbEntity
 67
     1
  8
0
100
AcDbViewport
 10
133.3499939441681
 20
101.5999939441681
 30
0.0
 40
213.3599903106689
 41
162.5599903106689
 68
     0
 69
     0
 12
210.0
 22
148.5
 13
0.0
 23
0.0
 14
10.0
 24
10.0
 15
10.0
 25
10.0
 16
0.0
 26
0.0
 36
1.0
 17
0.0
 27
0.0
 37
0.0
 42
50.0
 43
0.0
 44
0.0
 45
324.0677920111345
 50
0.0
 51
0.0
 72
   100
 90
    32864
  1

281
     0
 71
     1
 74
     0
110
0.0
120
0.0
130
0.0
111
1.0
121
0.0
131
0.0
112
0.0
122
1.0
132
0.0
 79
     0
146
0.0
  0
ENDBLK
  5
58
330
55
100
AcDbEntity
 67
     1
  8
0
100
AcDbBlockEnd
  0
BLOCK
  5
68A
330
680
100
AcDbEntity
  8
0
100
AcDbBlockBegin
  2
zero block
 70
     0
 10
0.0
 20
0.0
 30
0.0
  3
zero block
  1

  0
HATCH
  5
43661
330
680
100
AcDbEntity
  8
0
 62
     7
100
AcDbHatch
 10
0.0
 20
0.0
 30
0.0
210
0.0
220
0.0
230
1.0
  2
SOLID
 70
     1
 71
     0
 91
        2
 92
        7
 72
     1
 73
     1
 93
        3
 10
0.0
 20
0.9999999999999875
 42
0.4142135623730915
 10
-1.0
 20
0.0
 42
0.0
 10
0.0
 20
0.0
 42
0.0
 97
        0
 92
        7
 72
     1
 73
     1
 93
        3
 10
1.000000000000007
 20
0.0
 42
0.0
 10
0.0
 20
0.0
 42
0.0
 10
0.0
 20
-1.0
 42
0.4142135623730974
 97
        0
 75
     0
 76
     1
 47
0.0090601366782909
 98
        2
 10
-0.380591363650975
 20
0.4885804701532896
 10
0.4350764810977559
 20
-0.4536738423704725
1001
AcDbBlockRepETag
1070
     1
1071
        0
1005
43661
  0
LINE
  5
43662
330
680
100
AcDbEntity
  8
0
 62
     7
 48
0.2
100
AcDbLine
 10
-1.0
 20
0.0
 30
0.0
 11
1.000000000000007
 21
0.0
 31
0.0
1001
AcDbBlockRepETag
1070
     1
1071
        1
1005
43662
  0
LINE
  5
43663
330
680
100
AcDbEntity
  8
0
 62
     7
 48
0.2
100
AcDbLine
 10
0.0
 20
-1.0
 30
0.0
 11
0.0
 21
0.9999999999999875
 31
0.0
1001
AcDbBlockRepETag
1070
     1
1071
        2
1005
43663
  0
ARC
  5
43664
330
680
100
AcDbEntity
  8
0
 62
     7
 48
0.2
100
AcDbCircle
 10
0.0
 20
0.0
 30
0.0
 40
1.0
100
AcDbArc
 50
270.0
 51
0.0
1001
AcDbBlockRepETag
1070
     1
1071
        3
1005
43664
  0
ARC
  5
43665
330
680
100
AcDbEntity
  8
0
 62
     7
 48
0.2
100
AcDbCircle
 10
0.0
 20
0.0
 30
0.0
 40
1.0
100
AcDbArc
 50
0.0
 51
90.0
1001
AcDbBlockRepETag
1070
     1
1071
        4
1005
43665
  0
ARC
  5
43666
330
680
100
AcDbEntity
  8
0
 62
     7
 48
0.2
100
AcDbCircle
 10
0.0
 20
0.0
 30
0.0
 40
1.0
100
AcDbArc
 50
180.0
 51
270.0
1001
AcDbBlockRepETag
1070
     1
1071
        5
1005
43666
  0
ARC
  5
43667
330
680
100
AcDbEntity
  8
0
 62
     7
 48
0.2
100
AcDbCircle
 10
0.0
 20
0.0
 30
0.0
 40
1.0
100
AcDbArc
 50
90.0
 51
180.0
1001
AcDbBlockRepETag
1070
     1
1071
        6
1005
43667
  0
ENDBLK
  5
68B
330
680
100
AcDbEntity
  8
0
100
AcDbBlockEnd
  0
BLOCK
  5
698
330
697
100
AcDbEntity
  8
0
  6
ByBlock
 62
     0
370
    -2
100
AcDbBlockBegin
  2
_OPEN30
 70
     2
 10
0.0
 20
0.0
 30
0.0
  3
_OPEN30
  1

  0
LINE
  5
699
330
697
100
AcDbEntity
  8
0
  6
ByBlock
 62
     0
370
    -2
100
AcDbLine
 10
-1.0
 20
0.267949
 30
0.0
 11
0.0
 21
0.0
 31
0.0
  0
LINE
  5
69A
330
697
100
AcDbEntity
  8
0
  6
ByBlock
 62
     0
370
    -2
100
AcDbLine
 10
0.0
 20
0.0
 30
0.0
 11
-1.0
 21
-0.267949
 31
0.0
  0
LINE
  5
69B
330
697
100
AcDbEntity
  8
0
  6
ByBlock
 62
     0
370
    -2
100
AcDbLine
 10
0.0
 20
0.0
 30
0.0
 11
-1.0
 21
0.0
 31
0.0
  0
ENDBLK
  5
69C
330
697
100
AcDbEntity
  8
0
  6
ByBlock
 62
     0
370
    -2
100
AcDbBlockEnd
  0
BLOCK
  5
32F2
330
32F1
100
AcDbEntity
  8
0
100
AcDbBlockBegin
  2
_None
 70
     0
 10
0.0
 20
0.0
 30
0.0
  3
_None
  1

  0
ENDBLK
  5
32F3
330
32F1
100
AcDbEntity
  8
0
100
AcDbBlockEnd
  0
BLOCK
  5
34B2
330
34B1
100
AcDbEntity
  8
0
100
AcDbBlockBegin
  2
_OPEN
 70
     0
 10
0.0
 20
0.0
 30
0.0
  3
_OPEN
  1

  0
LINE
  5
34B3
330
34B1
100
AcDbEntity
  8
0
  6
ByBlock
 62
     0
100
AcDbLine
 10
0.0
 20
0.0
 30
0.0
 11
-1.0
 21
0.1766666667
 31
0.0
  0
LINE
  5
34B4
330
34B1
100
AcDbEntity
  8
0
  6
ByBlock
 62
     0
100
AcDbLine
 10
-1.0
 20
-0.1766666667
 30
0.0
 11
0.0
 21
0.0
 31
0.0
  0
LINE
  5
34B5
330
34B1
100
AcDbEntity
  8
0
  6
ByBlock
 62
     0
100
AcDbLine
 10
-1.0
 20
0.0
 30
0.0
 11
0.0
 21
0.0
 31
0.0
  0
ENDBLK
  5
34B6
330
34B1
100
AcDbEntity
  8
0
  6
ByBlock
 62
     0
100
AcDbBlockEnd
  0
BLOCK
  5
45B11
330
45B07
100
AcDbEntity
  8
0
100
AcDbBlockBegin
  2
*D5
 70
     1
 10
0.0
 20
0.0
 30
0.0
  3
*D5
  1

  0
LINE
  5
5CCE5
330
45B07
100
AcDbEntity
  8
sk2
100
AcDbLine
 10
-0.0000000000000526
 20
-28.49999999999995
 30
0.0
 11
-0.0000000000000538
 21
-48.51991747839992
 31
0.0
  0
LINE
  5
5CCE6
330
45B07
100
AcDbEntity
  8
sk2
100
AcDbLine
 10
30.99999999999995
 20
-8.099999999999972
 30
0.0
 11
30.99999999999994
 21
-48.51991747839992
 31
0.0
  0
LINE
  5
5CCE7
330
45B07
100
AcDbEntity
  8
sk2
100
AcDbLine
 10
3.499999999999946
 20
-47.01991747839993
 30
0.0
 11
27.49999999999995
 21
-47.01991747839993
 31
0.0
  0
SOLID
  5
5CCE8
330
45B07
100
AcDbEntity
  8
sk2
100
AcDbTrace
 10
3.499999999999946
 20
-46.43658414506659
 30
0.0
 11
3.499999999999946
 21
-47.60325081173324
 31
0.0
 12
-0.0000000000000537
 22
-47.01991747839993
 32
0.0
 13
-0.0000000000000537
 23
-47.01991747839993
 33
0.0
  0
SOLID
  5
5CCE9
330
45B07
100
AcDbEntity
  8
sk2
100
AcDbTrace
 10
27.49999999999995
 20
-46.43658414506659
 30
0.0
 11
27.49999999999995
 21
-47.60325081173324
 31
0.0
 12
30.99999999999994
 22
-47.01991747839993
 32
0.0
 13
30.99999999999994
 23
-47.01991747839993
 33
0.0
  0
MTEXT
  5
5CCEA
330
45B07
100
AcDbEntity
  8
sk2
100
AcDbMText
 10
15.49999999999994
 20
-42.96991747839992
 30
0.0
 40
3.5
 41
0.0
 71
     5
 72
     1
  1
\A1;31
  7
simplex
 73
     1
 44
1.0
1001
ACAD
1000
MTEXTBEGIN
1070
    73
1070
     1
1070
    44
1040
1.0
1070
    74
1070
     0
1000
MTEXTEND
  0
POINT
  5
5CCEB
330
45B07
100
AcDbEntity
  8
Defpoints
 62
     0
100
AcDbPoint
 10
-0.0000000000000526
 20
-28.49999999999995
 30
0.0
  0
POINT
  5
5CCEC
330
45B07
100
AcDbEntity
  8
Defpoints
 62
     0
100
AcDbPoint
 10
30.99999999999995
 20
-8.099999999999972
 30
0.0
  0
POINT
  5
5CCED
330
45B07
100
AcDbEntity
  8
Defpoints
 62
     0
100
AcDbPoint
 10
30.99999999999994
 20
-47.01991747839993
 30
0.0
  0
ENDBLK
  5
45B12
330
45B07
100
AcDbEntity
  8
0
100
AcDbBlockEnd
  0
BLOCK
  5
45B29
330
45B1F
100
AcDbEntity
  8
0
100
AcDbBlockBegin
  2
*D6
 70
     1
 10
0.0
 20
0.0
 30
0.0
  3
*D6
  1

  0
LINE
  5
475A2
330
45B1F
100
AcDbEntity
  8
2
100
AcDbLine
 10
46.67862375679994
 20
31.50000000000006
 30
0.0
 11
83.68825656423609
 21
31.50000000000004
 31
0.0
  0
LINE
  5
475A3
330
45B1F
100
AcDbEntity
  8
2
100
AcDbLine
 10
82.18825656423609
 20
-31.49999999999995
 30
0.0
 11
82.18825656423609
 21
28.00000000000004
 31
0.0
  0
SOLID
  5
475A4
330
45B1F
100
AcDbEntity
  8
2
100
AcDbTrace
 10
81.60492323090277
 20
28.00000000000004
 30
0.0
 11
82.77158989756944
 21
28.00000000000004
 31
0.0
 12
82.18825656423609
 22
31.50000000000004
 32
0.0
 13
82.18825656423609
 23
31.50000000000004
 33
0.0
  0
MTEXT
  5
475A5
330
45B1F
100
AcDbEntity
  8
2
100
AcDbMText
 10
78.1382565642361
 20
-1.749999999999953
 30
0.0
 40
3.5
 41
0.0
 71
     5
 72
     1
  1
\A1;%%C63
  7
simplex
 11
0.0000000000000001
 21
1.0
 31
0.0
 73
     1
 44
1.0
1001
ACAD
1000
MTEXTBEGIN
1070
    73
1070
     1
1070
    44
1040
1.0
1070
    74
1070
     0
1000
MTEXTEND
  0
POINT
  5
475A6
330
45B1F
100
AcDbEntity
  8
Defpoints
 62
     0
100
AcDbPoint
 10
82.95119073979995
 20
-31.49999999999995
 30
0.0
  0
POINT
  5
475A7
330
45B1F
100
AcDbEntity
  8
Defpoints
 62
     0
100
AcDbPoint
 10
46.67862375679994
 20
31.50000000000006
 30
0.0
  0
POINT
  5
475A8
330
45B1F
100
AcDbEntity
  8
Defpoints
 62
     0
100
AcDbPoint
 10
82.18825656423609
 20
31.50000000000004
 30
0.0
  0
ENDBLK
  5
45B2A
330
45B1F
100
AcDbEntity
  8
0
100
AcDbBlockEnd
  0
BLOCK
  5
608E3
330
608D9
100
AcDbEntity
  8
0
100
AcDbBlockBegin
  2
*D7
 70
     1
 10
0.0
 20
0.0
 30
0.0
  3
*D7
  1

  0
LINE
  5
61528
330
608D9
100
AcDbEntity
  8
2
100
AcDbLine
 10
50.7979146607661
 20
17.285
 30
0.0
 11
76.56447778361417
 21
17.28499999999999
 31
0.0
  0
LINE
  5
61529
330
608D9
100
AcDbEntity
  8
2
100
AcDbLine
 10
75.06447778361416
 20
13.78499999999999
 30
0.0
 11
75.06447778361416
 21
-17.28500000000001
 31
0.0
  0
SOLID
  5
6152A
330
608D9
100
AcDbEntity
  8
2
100
AcDbTrace
 10
74.48114445028085
 20
13.78499999999999
 30
0.0
 11
75.64781111694749
 21
13.78499999999999
 31
0.0
 12
75.06447778361416
 22
17.28499999999999
 32
0.0
 13
75.06447778361416
 23
17.28499999999999
 33
0.0
  0
MTEXT
  5
6152B
330
608D9
100
AcDbEntity
  8
2
100
AcDbMText
 10
71.01447778361417
 20
-7.331100929958152
 30
0.0
 40
3.5
 41
0.0
 71
     5
 72
     1
  1
\A1;%%C34.57 [%%C1.361"]
  7
simplex
 11
0.0000000000000001
 21
1.0
 31
0.0
 73
     1
 44
1.0
1001
ACAD
1000
MTEXTBEGIN
1070
    73
1070
     1
1070
    44
1040
1.0
1070
    74
1070
     0
1000
MTEXTEND
  0
POINT
  5
6152C
330
608D9
100
AcDbEntity
  8
Defpoints
 62
     0
100
AcDbPoint
 10
50.7979146607661
 20
17.285
 30
0.0
  0
POINT
  5
6152D
330
608D9
100
AcDbEntity
  8
Defpoints
 62
     0
100
AcDbPoint
 10
50.79999999999999
 20
-17.285
 30
0.0
  0
POINT
  5
6152E
330
608D9
100
AcDbEntity
  8
Defpoints
 62
     0
100
AcDbPoint
 10
75.06447778361416
 20
-17.28500000000001
 30
0.0
  0
ENDBLK
  5
608E4
330
608D9
100
AcDbEntity
  8
0
100
AcDbBlockEnd
  0
BLOCK
  5
608FB
330
608F1
100
AcDbEntity
  8
0
100
AcDbBlockBegin
  2
*D8
 70
     1
 10
0.0
 20
0.0
 30
0.0
  3
*D8
  1

  0
LINE
  5
6153E
330
608F1
100
AcDbEntity
  8
2
100
AcDbLine
 10
47.42717805819861
 20
25.4
 30
0.0
 11
89.58506974414797
 21
25.39999999999999
 31
0.0
  0
LINE
  5
6153F
330
608F1
100
AcDbEntity
  8
2
100
AcDbLine
 10
88.08506974414797
 20
21.89999999999999
 30
0.0
 11
88.08506974414797
 21
-25.40000000000001
 31
0.0
  0
SOLID
  5
61540
330
608F1
100
AcDbEntity
  8
2
100
AcDbTrace
 10
87.50173641081465
 20
21.89999999999999
 30
0.0
 11
88.66840307748129
 21
21.89999999999999
 31
0.0
 12
88.08506974414797
 22
25.39999999999999
 32
0.0
 13
88.08506974414797
 23
25.39999999999999
 33
0.0
  0
MTEXT
  5
61541
330
608F1
100
AcDbEntity
  8
2
100
AcDbMText
 10
84.03506974414797
 20
-1.042124427712449
 30
0.0
 40
3.5
 41
0.0
 71
     5
 72
     1
  1
\A1;%%C50.8 [%%C2.000"]
  7
simplex
 11
0.0000000000000001
 21
1.0
 31
0.0
 73
     1
 44
1.0
1001
ACAD
1000
MTEXTBEGIN
1070
    73
1070
     1
1070
    44
1040
1.0
1070
    74
1070
     0
1000
MTEXTEND
  0
POINT
  5
61542
330
608F1
100
AcDbEntity
  8
Defpoints
 62
     0
100
AcDbPoint
 10
47.42717805819861
 20
25.4
 30
0.0
  0
POINT
  5
61543
330
608F1
100
AcDbEntity
  8
Defpoints
 62
     0
100
AcDbPoint
 10
48.7
 20
-25.4
 30
0.0
  0
POINT
  5
61544
330
608F1
100
AcDbEntity
  8
Defpoints
 62
     0
100
AcDbPoint
 10
88.08506974414797
 20
-25.40000000000001
 30
0.0
  0
ENDBLK
  5
608FC
330
608F1
100
AcDbEntity
  8
0
100
AcDbBlockEnd
  0
BLOCK
  5
60913
330
60909
100
AcDbEntity
  8
0
100
AcDbBlockBegin
  2
*D9
 70
     1
 10
0.0
 20
0.0
 30
0.0
  3
*D9
  1

  0
LINE
  5
613CF
330
60909
100
AcDbEntity
  8
sk2
100
AcDbLine
 10
3.5
 20
9.5249999989
 30
0.0
 11
-18.83581029542597
 21
9.524999998900003
 31
0.0
  0
LINE
  5
613D0
330
60909
100
AcDbEntity
  8
sk2
100
AcDbLine
 10
3.5
 20
-9.5249999989
 30
0.0
 11
-18.83581029542597
 21
-9.524999998899993
 31
0.0
  0
LINE
  5
613D1
330
60909
100
AcDbEntity
  8
sk2
100
AcDbLine
 10
-17.33581029542597
 20
6.024999998900003
 30
0.0
 11
-17.33581029542597
 21
-6.024999998899994
 31
0.0
  0
SOLID
  5
613D2
330
60909
100
AcDbEntity
  8
sk2
100
AcDbTrace
 10
-17.9191436287593
 20
6.024999998900003
 30
0.0
 11
-16.75247696209264
 21
6.024999998900003
 31
0.0
 12
-17.33581029542597
 22
9.524999998900003
 32
0.0
 13
-17.33581029542597
 23
9.524999998900003
 33
0.0
  0
SOLID
  5
613D3
330
60909
100
AcDbEntity
  8
sk2
100
AcDbTrace
 10
-17.9191436287593
 20
-6.024999998899994
 30
0.0
 11
-16.75247696209264
 21
-6.024999998899994
 31
0.0
 12
-17.33581029542597
 22
-9.524999998899993
 32
0.0
 13
-17.33581029542597
 23
-9.524999998899993
 33
0.0
  0
MTEXT
  5
613D4
330
60909
100
AcDbEntity
  8
sk2
100
AcDbMText
 10
-21.38581029542597
 20
0.0000000000000033
 30
0.0
 40
3.5
 41
0.0
 71
     5
 72
     1
  1
\A1;%%C19.05 [%%c.750"]
  7
simplex
 11
0.0000000000000001
 21
1.0
 31
0.0
 73
     1
 44
1.0
1001
ACAD
1000
MTEXTBEGIN
1070
    73
1070
     1
1070
    44
1040
1.0
1070
    74
1070
     0
1000
MTEXTEND
  0
POINT
  5
613D5
330
60909
100
AcDbEntity
  8
Defpoints
 62
     0
100
AcDbPoint
 10
3.5
 20
9.5249999989
 30
0.0
  0
POINT
  5
613D6
330
60909
100
AcDbEntity
  8
Defpoints
 62
     0
100
AcDbPoint
 10
3.5
 20
-9.5249999989
 30
0.0
  0
POINT
  5
613D7
330
60909
100
AcDbEntity
  8
Defpoints
 62
     0
100
AcDbPoint
 10
-17.33581029542597
 20
-9.524999998899993
 30
0.0
  0
ENDBLK
  5
60914
330
60909
100
AcDbEntity
  8
0
100
AcDbBlockEnd
  0
BLOCK
  5
6092B
330
60921
100
AcDbEntity
  8
0
100
AcDbBlockBegin
  2
*D10
 70
     1
 10
0.0
 20
0.0
 30
0.0
  3
*D10
  1

  0
LINE
  5
613D8
330
60921
100
AcDbEntity
  8
sk2
100
AcDbLine
 10
1.5
 20
22.22500000000002
 30
0.0
 11
-33.55086043353003
 21
22.22500000000003
 31
0.0
  0
LINE
  5
613D9
330
60921
100
AcDbEntity
  8
sk2
100
AcDbLine
 10
1.5
 20
-22.225
 30
0.0
 11
-33.55086043353004
 21
-22.22499999999998
 31
0.0
  0
LINE
  5
613DA
330
60921
100
AcDbEntity
  8
sk2
100
AcDbLine
 10
-32.05086043353003
 20
18.72500000000003
 30
0.0
 11
-32.05086043353004
 21
-18.72499999999998
 31
0.0
  0
SOLID
  5
613DB
330
60921
100
AcDbEntity
  8
sk2
100
AcDbTrace
 10
-32.63419376686336
 20
18.72500000000003
 30
0.0
 11
-31.4675271001967
 21
18.72500000000003
 31
0.0
 12
-32.05086043353003
 22
22.22500000000003
 32
0.0
 13
-32.05086043353003
 23
22.22500000000003
 33
0.0
  0
SOLID
  5
613DC
330
60921
100
AcDbEntity
  8
sk2
100
AcDbTrace
 10
-32.63419376686338
 20
-18.72499999999998
 30
0.0
 11
-31.46752710019671
 21
-18.72499999999998
 31
0.0
 12
-32.05086043353004
 22
-22.22499999999998
 32
0.0
 13
-32.05086043353004
 23
-22.22499999999998
 33
0.0
  0
MTEXT
  5
613DD
330
60921
100
AcDbEntity
  8
sk2
100
AcDbMText
 10
-36.10086043353003
 20
0.0000000000000202
 30
0.0
 40
3.5
 41
0.0
 71
     5
 72
     1
  1
\A1;%%C44.45 [%%c1.750"]
  7
simplex
 11
0.0000000000000001
 21
1.0
 31
0.0
 73
     1
 44
1.0
1001
ACAD
1000
MTEXTBEGIN
1070
    73
1070
     1
1070
    44
1040
1.0
1070
    74
1070
     0
1000
MTEXTEND
  0
POINT
  5
613DE
330
60921
100
AcDbEntity
  8
Defpoints
 62
     0
100
AcDbPoint
 10
1.5
 20
22.22500000000002
 30
0.0
  0
POINT
  5
613DF
330
60921
100
AcDbEntity
  8
Defpoints
 62
     0
100
AcDbPoint
 10
1.5
 20
-22.225
 30
0.0
  0
POINT
  5
613E0
330
60921
100
AcDbEntity
  8
Defpoints
 62
     0
100
AcDbPoint
 10
-32.05086043353004
 20
-22.22499999999998
 30
0.0
  0
ENDBLK
  5
6092C
330
60921
100
AcDbEntity
  8
0
100
AcDbBlockEnd
  0
BLOCK
  5
60943
330
60939
100
AcDbEntity
  8
0
100
AcDbBlockBegin
  2
*D11
 70
     1
 10
0.0
 20
0.0
 30
0.0
  3
*D11
  1

  0
LINE
  5
61739
330
60939
100
AcDbEntity
  8
sk2
100
AcDbLine
 10
0.0
 20
-20.72499999999999
 30
0.0
 11
-0.0000000000000015
 21
-46.02490261997752
 31
0.0
  0
LINE
  5
6173A
330
60939
100
AcDbEntity
  8
sk2
100
AcDbLine
 10
21.79999999999996
 20
-9.0
 30
0.0
 11
21.79999999999995
 21
-46.02490261997752
 31
0.0
  0
LINE
  5
6173B
330
60939
100
AcDbEntity
  8
sk2
100
AcDbLine
 10
18.29999999999995
 20
-44.52490261997752
 30
0.0
 11
3.499999999999998
 21
-44.52490261997752
 31
0.0
  0
LINE
  5
6173C
330
60939
100
AcDbEntity
  8
sk2
100
AcDbLine
 10
-0.0000000000000015
 20
-44.52490261997752
 30
0.0
 11
-41.05833333333332
 21
-44.52490261997752
 31
0.0
  0
SOLID
  5
6173D
330
60939
100
AcDbEntity
  8
sk2
100
AcDbTrace
 10
18.29999999999995
 20
-43.94156928664417
 30
0.0
 11
18.29999999999995
 21
-45.10823595331086
 31
0.0
 12
21.79999999999995
 22
-44.52490261997752
 32
0.0
 13
21.79999999999995
 23
-44.52490261997752
 33
0.0
  0
SOLID
  5
6173E
330
60939
100
AcDbEntity
  8
sk2
100
AcDbTrace
 10
3.499999999999998
 20
-43.94156928664417
 30
0.0
 11
3.499999999999998
 21
-45.10823595331086
 31
0.0
 12
-0.0000000000000015
 22
-44.52490261997752
 32
0.0
 13
-0.0000000000000015
 23
-44.52490261997752
 33
0.0
  0
MTEXT
  5
6173F
330
60939
100
AcDbEntity
  8
sk2
100
AcDbMText
 10
-23.00833333333333
 20
-40.47490261997753
 30
0.0
 40
3.5
 41
0.0
 71
     5
 72
     1
  1
\A1;21.8 [.858"]
  7
simplex
 73
     1
 44
1.0
1001
ACAD
1000
MTEXTBEGIN
1070
    73
1070
     1
1070
    44
1040
1.0
1070
    74
1070
     0
1000
MTEXTEND
  0
POINT
  5
61740
330
60939
100
AcDbEntity
  8
Defpoints
 62
     0
100
AcDbPoint
 10
0.0
 20
-20.72499999999999
 30
0.0
  0
POINT
  5
61741
330
60939
100
AcDbEntity
  8
Defpoints
 62
     0
100
AcDbPoint
 10
21.79999999999996
 20
-9.0
 30
0.0
  0
POINT
  5
61742
330
60939
100
AcDbEntity
  8
Defpoints
 62
     0
100
AcDbPoint
 10
21.79999999999995
 20
-44.52490261997752
 30
0.0
  0
ENDBLK
  5
60944
330
60939
100
AcDbEntity
  8
0
100
AcDbBlockEnd
  0
BLOCK
  5
60976
330
6096B
100
AcDbEntity
  8
0
100
AcDbBlockBegin
  2
*D12
 70
     1
 10
0.0
 20
0.0
 30
0.0
  3
*D12
  1

  0
LINE
  5
61577
330
6096B
100
AcDbEntity
  8
2
100
AcDbLine
 10
50.8
 20
17.23064007435306
 30
0.0
 11
50.8
 21
47.7076906433345
 31
0.0
  0
LINE
  5
61578
330
6096B
100
AcDbEntity
  8
2
100
AcDbLine
 10
48.79999999999999
 20
24.06499907330295
 30
0.0
 11
48.79999999999999
 21
47.7076906433345
 31
0.0
  0
LINE
  5
61579
330
6096B
100
AcDbEntity
  8
2
100
AcDbLine
 10
54.29999999999999
 20
46.2076906433345
 30
0.0
 11
57.8
 21
46.2076906433345
 31
0.0
  0
LINE
  5
6157A
330
6096B
100
AcDbEntity
  8
2
100
AcDbLine
 10
45.3
 20
46.2076906433345
 30
0.0
 11
-77.71666666666665
 21
46.2076906433345
 31
0.0
  0
SOLID
  5
6157B
330
6096B
100
AcDbEntity
  8
2
100
AcDbTrace
 10
54.29999999999999
 20
46.79102397666784
 30
0.0
 11
54.29999999999999
 21
45.62435731000117
 31
0.0
 12
50.8
 22
46.2076906433345
 32
0.0
 13
50.8
 23
46.2076906433345
 33
0.0
  0
SOLID
  5
6157C
330
6096B
100
AcDbEntity
  8
2
100
AcDbTrace
 10
45.3
 20
46.79102397666784
 30
0.0
 11
45.3
 21
45.62435731000117
 31
0.0
 12
48.79999999999999
 22
46.2076906433345
 32
0.0
 13
48.79999999999999
 23
46.2076906433345
 33
0.0
  0
MTEXT
  5
6157D
330
6096B
100
AcDbEntity
  8
2
100
AcDbMText
 10
-17.95833333333333
 20
50.2576906433345
 30
0.0
 40
3.5
 41
0.0
 71
     5
 72
     1
  1
\A1;2 [.079"](APMX AT HIGH FEED PROCESS)
  7
simplex
 73
     1
 44
1.0
1001
ACAD
1000
MTEXTBEGIN
1070
    73
1070
     1
1070
    44
1040
1.0
1070
    74
1070
     0
1000
MTEXTEND
  0
POINT
  5
6157E
330
6096B
100
AcDbEntity
  8
Defpoints
 62
     0
100
AcDbPoint
 10
50.8
 20
17.23064007435306
 30
0.0
  0
POINT
  5
6157F
330
6096B
100
AcDbEntity
  8
Defpoints
 62
     0
100
AcDbPoint
 10
48.79999999999999
 20
24.06499907330295
 30
0.0
  0
POINT
  5
61580
330
6096B
100
AcDbEntity
  8
Defpoints
 62
     0
100
AcDbPoint
 10
48.79999999999999
 20
46.2076906433345
 30
0.0
  0
ENDBLK
  5
60977
330
6096B
100
AcDbEntity
  8
0
100
AcDbBlockEnd
  0
BLOCK
  5
60990
330
60985
100
AcDbEntity
  8
0
100
AcDbBlockBegin
  2
*D13
 70
     1
 10
0.0
 20
0.0
 30
0.0
  3
*D13
  1

  0
LINE
  5
61581
330
60985
100
AcDbEntity
  8
2
100
AcDbLine
 10
50.8
 20
17.23064007435306
 30
0.0
 11
50.8
 21
60.03842767741565
 31
0.0
  0
LINE
  5
61582
330
60985
100
AcDbEntity
  8
2
100
AcDbLine
 10
47.8
 20
24.95511108440877
 30
0.0
 11
47.8
 21
60.03842767741565
 31
0.0
  0
LINE
  5
61583
330
60985
100
AcDbEntity
  8
2
100
AcDbLine
 10
54.29999999999999
 20
58.53842767741564
 30
0.0
 11
57.8
 21
58.53842767741564
 31
0.0
  0
LINE
  5
61584
330
60985
100
AcDbEntity
  8
2
100
AcDbLine
 10
44.29999999999998
 20
58.53842767741564
 30
0.0
 11
0.0333333333333386
 21
58.53842767741564
 31
0.0
  0
SOLID
  5
61585
330
60985
100
AcDbEntity
  8
2
100
AcDbTrace
 10
54.29999999999999
 20
59.121761010749
 30
0.0
 11
54.29999999999999
 21
57.95509434408232
 31
0.0
 12
50.8
 22
58.53842767741564
 32
0.0
 13
50.8
 23
58.53842767741564
 33
0.0
  0
SOLID
  5
61586
330
60985
100
AcDbEntity
  8
2
100
AcDbTrace
 10
44.29999999999998
 20
59.121761010749
 30
0.0
 11
44.29999999999998
 21
57.95509434408232
 31
0.0
 12
47.8
 22
58.53842767741564
 32
0.0
 13
47.8
 23
58.53842767741564
 33
0.0
  0
MTEXT
  5
61587
330
60985
100
AcDbEntity
  8
2
100
AcDbMText
 10
20.41666666666667
 20
62.58842767741565
 30
0.0
 40
3.5
 41
0.0
 71
     5
 72
     1
  1
\A1;APMX3 [.118"]
  7
simplex
 73
     1
 44
1.0
1001
ACAD
1000
MTEXTBEGIN
1070
    73
1070
     1
1070
    44
1040
1.0
1070
    74
1070
     0
1000
MTEXTEND
  0
POINT
  5
61588
330
60985
100
AcDbEntity
  8
Defpoints
 62
     0
100
AcDbPoint
 10
50.8
 20
17.23064007435306
 30
0.0
  0
POINT
  5
61589
330
60985
100
AcDbEntity
  8
Defpoints
 62
     0
100
AcDbPoint
 10
47.8
 20
24.95511108440877
 30
0.0
  0
POINT
  5
6158A
330
60985
100
AcDbEntity
  8
Defpoints
 62
     0
100
AcDbPoint
 10
47.8
 20
58.53842767741564
 30
0.0
  0
ENDBLK
  5
60991
330
60985
100
AcDbEntity
  8
0
100
AcDbBlockEnd
  0
BLOCK
  5
609A9
330
6099F
100
AcDbEntity
  8
0
100
AcDbBlockBegin
  2
*D14
 70
     1
 10
0.0
 20
0.0
 30
0.0
  3
*D14
  1

  0
LINE
  5
61594
330
6099F
100
AcDbEntity
  8
2
100
AcDbLine
 10
50.8
 20
17.23064007435306
 30
0.0
 11
50.8
 21
72.39384388109414
 31
0.0
  0
LINE
  5
61595
330
6099F
100
AcDbEntity
  8
2
100
AcDbLine
 10
0.0
 20
20.72500000000002
 30
0.0
 11
0.0000000000000032
 21
72.39384388109414
 31
0.0
  0
LINE
  5
61596
330
6099F
100
AcDbEntity
  8
2
100
AcDbLine
 10
47.29999999999999
 20
70.89384388109414
 30
0.0
 11
3.500000000000003
 21
70.89384388109414
 31
0.0
  0
SOLID
  5
61597
330
6099F
100
AcDbEntity
  8
2
100
AcDbTrace
 10
47.29999999999999
 20
71.47717721442747
 30
0.0
 11
47.29999999999999
 21
70.31051054776082
 31
0.0
 12
50.8
 22
70.89384388109414
 32
0.0
 13
50.8
 23
70.89384388109414
 33
0.0
  0
SOLID
  5
61598
330
6099F
100
AcDbEntity
  8
2
100
AcDbTrace
 10
3.500000000000003
 20
71.47717721442747
 30
0.0
 11
3.500000000000003
 21
70.31051054776082
 31
0.0
 12
0.0000000000000031
 22
70.89384388109414
 32
0.0
 13
0.0000000000000031
 23
70.89384388109414
 33
0.0
  0
MTEXT
  5
61599
330
6099F
100
AcDbEntity
  8
2
100
AcDbMText
 10
26.38026214938645
 20
74.94384388109414
 30
0.0
 40
3.5
 41
0.0
 71
     5
 72
     1
  1
\A1;50.8 [2.000"]
  7
simplex
 73
     1
 44
1.0
1001
ACAD
1000
MTEXTBEGIN
1070
    73
1070
     1
1070
    44
1040
1.0
1070
    74
1070
     0
1000
MTEXTEND
  0
POINT
  5
6159A
330
6099F
100
AcDbEntity
  8
Defpoints
 62
     0
100
AcDbPoint
 10
50.8
 20
17.23064007435306
 30
0.0
  0
POINT
  5
6159B
330
6099F
100
AcDbEntity
  8
Defpoints
 62
     0
100
AcDbPoint
 10
0.0
 20
20.72500000000002
 30
0.0
  0
POINT
  5
6159C
330
6099F
100
AcDbEntity
  8
Defpoints
 62
     0
100
AcDbPoint
 10
0.0000000000000031
 20
70.89384388109414
 30
0.0
  0
ENDBLK
  5
609AA
330
6099F
100
AcDbEntity
  8
0
100
AcDbBlockEnd
  0
BLOCK
  5
6155B
330
61553
100
AcDbEntity
  8
0
100
AcDbBlockBegin
  2
*D15
 70
     1
 10
0.0
 20
0.0
 30
0.0
  3
*D15
  1

  0
LINE
  5
615AD
330
61553
100
AcDbEntity
  8
2
100
AcDbLine
 10
90.89928324062125
 20
45.39402593767554
 30
0.0
 11
51.87498208191454
 21
25.73642848091681
 31
0.0
  0
MTEXT
  5
615AE
330
61553
100
AcDbEntity
  8
2
100
AcDbMText
 10
71.65455939558414
 20
40.2347456029094
 30
0.0
 40
3.5
 41
0.0
 71
     5
 72
     1
  1
\A1;R1.5 [R.059"]
  7
simplex
 11
0.893091775480644
 21
0.4498745164696827
 31
0.0
 73
     1
 44
1.0
1001
ACAD
1000
MTEXTBEGIN
1070
    73
1070
     1
1070
    44
1040
1.0
1070
    74
1070
     0
1000
MTEXTEND
  0
SOLID
  5
615AF
330
61553
100
AcDbEntity
  8
2
100
AcDbTrace
 10
51.61255528064057
 20
26.25739868328052
 30
0.0
 11
52.13740888318852
 21
25.2154582785531
 31
0.0
 12
48.74916086773229
 22
24.16186767327292
 32
0.0
 13
48.74916086773229
 23
24.16186767327292
 33
0.0
  0
LINE
  5
615B0
330
61553
100
AcDbEntity
  8
2
100
AcDbLine
 10
47.31952320451109
 20
23.48705589856828
 30
0.0
 11
47.4995232045111
 21
23.48705589856828
 31
0.0
  0
LINE
  5
615B1
330
61553
100
AcDbEntity
  8
2
100
AcDbLine
 10
47.40952320451111
 20
23.39705589856829
 30
0.0
 11
47.40952320451111
 21
23.57705589856829
 31
0.0
  0
POINT
  5
615B2
330
61553
100
AcDbEntity
  8
Defpoints
 62
     0
100
AcDbPoint
 10
48.74916086773229
 20
24.16186767327292
 30
0.0
  0
POINT
  5
615B3
330
61553
100
AcDbEntity
  8
Defpoints
 62
     0
100
AcDbPoint
 10
47.40952320451111
 20
23.48705589856828
 30
0.0
  0
ENDBLK
  5
6155C
330
61553
100
AcDbEntity
  8
0
100
AcDbBlockEnd
  0
BLOCK
  5
615FF
330
615F4
100
AcDbEntity
  8
0
100
AcDbBlockBegin
  2
*D16
 70
     1
 10
0.0
 20
0.0
 30
0.0
  3
*D16
  1

  0
LINE
  5
6160B
330
615F4
100
AcDbEntity
  8
2
100
AcDbLine
 10
50.80000000000001
 20
17.2306400794311
 30
0.0
 11
50.8
 21
-46.02490261997752
 31
0.0
  0
LINE
  5
6160C
330
615F4
100
AcDbEntity
  8
2
100
AcDbLine
 10
48.69999999999999
 20
10.98382363659772
 30
0.0
 11
48.69999999999999
 21
-46.02490261997752
 31
0.0
  0
LINE
  5
6160D
330
615F4
100
AcDbEntity
  8
2
100
AcDbLine
 10
45.19999999999998
 20
-44.52490261997752
 30
0.0
 11
41.69999999999999
 21
-44.52490261997752
 31
0.0
  0
LINE
  5
6160E
330
615F4
100
AcDbEntity
  8
2
100
AcDbLine
 10
54.29999999999999
 20
-44.52490261997752
 30
0.0
 11
104.9833333333334
 21
-44.52490261997752
 31
0.0
  0
SOLID
  5
6160F
330
615F4
100
AcDbEntity
  8
2
100
AcDbTrace
 10
45.19999999999998
 20
-43.94156928664417
 30
0.0
 11
45.19999999999998
 21
-45.10823595331086
 31
0.0
 12
48.69999999999999
 22
-44.52490261997752
 32
0.0
 13
48.69999999999999
 23
-44.52490261997752
 33
0.0
  0
SOLID
  5
61610
330
615F4
100
AcDbEntity
  8
2
100
AcDbTrace
 10
54.29999999999999
 20
-43.94156928664417
 30
0.0
 11
54.29999999999999
 21
-45.10823595331086
 31
0.0
 12
50.8
 22
-44.52490261997752
 32
0.0
 13
50.8
 23
-44.52490261997752
 33
0.0
  0
MTEXT
  5
61611
330
615F4
100
AcDbEntity
  8
2
100
AcDbMText
 10
81.39166666666669
 20
-40.47490261997753
 30
0.0
 40
3.5
 41
0.0
 71
     5
 72
     1
  1
\A1;2.1 [.083"](MAX)
  7
simplex
 73
     1
 44
1.0
1001
ACAD
1000
MTEXTBEGIN
1070
    73
1070
     1
1070
    44
1040
1.0
1070
    74
1070
     0
1000
MTEXTEND
  0
POINT
  5
61612
330
615F4
100
AcDbEntity
  8
Defpoints
 62
     0
100
AcDbPoint
 10
50.80000000000001
 20
17.2306400794311
 30
0.0
  0
POINT
  5
61613
330
615F4
100
AcDbEntity
  8
Defpoints
 62
     0
100
AcDbPoint
 10
48.69999999999999
 20
10.98382363659772
 30
0.0
  0
POINT
  5
61614
330
615F4
100
AcDbEntity
  8
Defpoints
 62
     0
100
AcDbPoint
 10
48.69999999999999
 20
-44.52490261997752
 30
0.0
  0
ENDBLK
  5
61600
330
615F4
100
AcDbEntity
  8
0
100
AcDbBlockEnd
  0
ENDSEC
  0
SECTION
  2
ENTITIES
  0
INSERT
  5
68C
330
1F
100
AcDbEntity
  8
0
100
AcDbBlockReference
  2
zero block
 10
0.0000000000000072
 20
0.0
 30
0.0
 50
180.0
  0
MTEXT
  5
5CD11
330
1F
100
AcDbEntity
  8
sk6
100
AcDbMText
 10
-11.46704854127563
 20
94.67306215801505
 30
0.0
 40
5.0
 41
85.25075165579854
 71
     1
 72
     5
  1
WJX14UR2_0004AA
  7
simplex
 73
     1
 44
1.0
1001
ACAD
1000
ACAD_MTEXT_DEFINED_HEIGHT_BEGIN
1070
    46
1040
0.0
1000
ACAD_MTEXT_DEFINED_HEIGHT_END
1000
MTEXTBEGIN
1070
    73
1070
     1
1070
    44
1040
1.0
1070
    74
1070
     0
1000
MTEXTEND
  0
DIMENSION
  5
608D8
330
1F
100
AcDbEntity
  8
2
100
AcDbDimension
  2
*D7
 10
75.06447778361416
 20
-17.28500000000001
 30
0.0
 11
75.06447778361416
 21
-7.331100929958152
 31
0.0
 70
   160
  1
%%C<>
 71
     5
 42
34.57
  3
\M+18352\M+18373\M+1815B - ISO-25
100
AcDbAlignedDimension
 13
50.7979146607661
 23
17.285
 33
0.0
 14
50.79999999999999
 24
-17.285
 34
0.0
 50
90.0
100
AcDbRotatedDimension
1001
ACAD
1000
DSTYLE
1002
{
1070
     4
1000
%%C[]"
1070
    40
1040
1.0
1070
    76
1070
     1
1070
   143
1040
0.0393700787401575
1070
   170
1070
     1
1070
   171
1070
     3
1070
   173
1070
     1
1070
   271
1070
     8
1070
   285
1070
     4
1070
   344
1005
32F1
1002
}
  0
DIMENSION
  5
608F0
330
1F
100
AcDbEntity
  8
2
100
AcDbDimension
  2
*D8
 10
88.08506974414797
 20
-25.40000000000001
 30
0.0
 11
88.08506974414797
 21
-1.042124427712449
 31
0.0
 70
   160
  1
%%C<>
 71
     5
 42
50.8
  3
\M+18352\M+18373\M+1815B - ISO-25
100
AcDbAlignedDimension
 13
47.42717805819861
 23
25.4
 33
0.0
 14
48.7
 24
-25.4
 34
0.0
 50
90.0
100
AcDbRotatedDimension
1001
ACAD
1000
DSTYLE
1002
{
1070
     4
1000
%%C[]"
1070
    40
1040
1.0
1070
    76
1070
     1
1070
   143
1040
0.0393700787401575
1070
   170
1070
     1
1070
   171
1070
     3
1070
   173
1070
     1
1070
   271
1070
     8
1070
   285
1070
     4
1070
   344
1005
32F1
1002
}
  0
DIMENSION
  5
60908
330
1F
100
AcDbEntity
  8
sk2
100
AcDbDimension
  2
*D9
 10
-17.33581029542597
 20
-9.524999998899993
 30
0.0
 11
-17.33581029542597
 21
0.0000000000000028
 31
0.0
 70
   160
  1
%%C<>
 71
     5
 42
19.0499999978
  3
\M+18352\M+18373\M+1815B - ISO-25
100
AcDbAlignedDimension
 13
3.5
 23
9.5249999989
 33
0.0
 14
3.5
 24
-9.5249999989
 34
0.0
 50
90.0
100
AcDbRotatedDimension
1001
ACAD
1000
DSTYLE
1002
{
1070
     4
1000
%%c[]"
1070
    40
1040
1.0
1070
   143
1040
0.0393700787401575
1070
   170
1070
     1
1070
   171
1070
     3
1070
   271
1070
     8
1070
   285
1070
     4
1002
}
  0
DIMENSION
  5
60920
330
1F
100
AcDbEntity
  8
sk2
100
AcDbDimension
  2
*D10
 10
-32.05086043353004
 20
-22.22499999999998
 30
0.0
 11
-32.05086043353003
 21
0.0000000000000197
 31
0.0
 70
   160
  1
%%C<>
 71
     5
 42
44.45000000000002
  3
\M+18352\M+18373\M+1815B - ISO-25
100
AcDbAlignedDimension
 13
1.5
 23
22.22500000000002
 33
0.0
 14
1.5
 24
-22.225
 34
0.0
 50
90.0
100
AcDbRotatedDimension
1001
ACAD
1000
DSTYLE
1002
{
1070
     4
1000
%%c[]"
1070
    40
1040
1.0
1070
   143
1040
0.0393700787401575
1070
   170
1070
     1
1070
   171
1070
     3
1070
   271
1070
     8
1070
   285
1070
     4
1002
}
  0
DIMENSION
  5
60938
330
1F
100
AcDbEntity
  8
sk2
100
AcDbDimension
  2
*D11
 10
21.79999999999995
 20
-44.52490261997752
 30
0.0
 11
-23.00833333333333
 21
-44.52490261997752
 31
0.0
 70
   160
 71
     5
 42
21.79999999999996
  3
\M+18352\M+18373\M+1815B - ISO-25
100
AcDbAlignedDimension
 13
0.0
 23
-20.72499999999999
 33
0.0
 14
21.79999999999996
 24
-9.0
 34
0.0
100
AcDbRotatedDimension
1001
ACAD
1000
DSTYLE
1002
{
1070
     4
1000
[]"
1070
    40
1040
1.0
1070
   143
1040
0.0393700787401575
1070
   170
1070
     1
1070
   171
1070
     3
1070
   271
1070
     8
1070
   285
1070
     4
1002
}
  0
DIMENSION
  5
6096A
330
1F
100
AcDbEntity
  8
2
100
AcDbDimension
  2
*D12
 10
48.79999999999999
 20
46.2076906433345
 30
0.0
 11
-17.95833333333333
 21
46.2076906433345
 31
0.0
 70
   160
  1
<>(APMX AT HIGH FEED PROCESS)
 71
     5
 42
2.0
  3
\M+18352\M+18373\M+1815B - ISO-25
100
AcDbAlignedDimension
 13
50.8
 23
17.23064007435306
 33
0.0
 14
48.79999999999999
 24
24.06499907330295
 34
0.0
100
AcDbRotatedDimension
1001
ACAD
1000
DSTYLE
1002
{
1070
     4
1000
"
1070
    40
1040
1.0
1070
   143
1040
0.0393700787401575
1070
   170
1070
     1
1070
   171
1070
     3
1070
   271
1070
     8
1070
   285
1070
     4
1002
}
  0
DIMENSION
  5
60984
330
1F
100
AcDbEntity
  8
2
100
AcDbDimension
  2
*D13
 10
47.8
 20
58.53842767741564
 30
0.0
 11
20.41666666666667
 21
58.53842767741564
 31
0.0
 70
   160
  1
APMX<>
 71
     5
 42
3.0
  3
\M+18352\M+18373\M+1815B - ISO-25
100
AcDbAlignedDimension
 13
50.8
 23
17.23064007435306
 33
0.0
 14
47.8
 24
24.95511108440877
 34
0.0
100
AcDbRotatedDimension
1001
ACAD
1000
DSTYLE
1002
{
1070
     4
1000
"
1070
    40
1040
1.0
1070
   143
1040
0.0393700787401575
1070
   170
1070
     1
1070
   171
1070
     3
1070
   271
1070
     8
1070
   285
1070
     4
1002
}
  0
DIMENSION
  5
6099E
330
1F
100
AcDbEntity
  8
2
100
AcDbDimension
  2
*D14
 10
0.0000000000000031
 20
70.89384388109414
 30
0.0
 11
26.38026214938645
 21
70.89384388109414
 31
0.0
 70
   160
 71
     5
 42
50.8
  3
\M+18352\M+18373\M+1815B - ISO-25
100
AcDbAlignedDimension
 13
50.8
 23
17.23064007435306
 33
0.0
 14
0.0
 24
20.72500000000002
 34
0.0
100
AcDbRotatedDimension
1001
ACAD
1000
DSTYLE
1002
{
1070
     4
1000
"
1070
    40
1040
1.0
1070
   143
1040
0.0393700787401575
1070
   170
1070
     1
1070
   171
1070
     3
1070
   271
1070
     8
1070
   285
1070
     4
1002
}
  0
LINE
  5
6115E
330
1F
100
AcDbEntity
  8
1
100
AcDbLine
 10
40.39481285819999
 20
-23.87649559580001
 30
0.0
 11
41.6717057134
 21
-23.55994986229999
 31
0.0
1001
ACAD
1000
RTMaterial
1005
0
  0
LINE
  5
6115F
330
1F
100
AcDbEntity
  8
1
100
AcDbLine
 10
36.11652497580003
 20
-23.90000000000001
 30
0.0
 11
40.20231717080003
 21
-23.90000000000001
 31
0.0
1001
ACAD
1000
RTMaterial
1005
0
  0
LINE
  5
61160
330
1F
100
AcDbEntity
  8
1
100
AcDbLine
 10
0.0
 20
-20.72499999999999
 30
0.0
 11
0.0
 21
-4.469999999999997
 31
0.0
1001
ACAD
1000
RTMaterial
1005
0
  0
LINE
  5
61161
330
1F
100
AcDbEntity
  8
1
100
AcDbLine
 10
0.0
 20
4.469999999999997
 30
0.0
 11
0.0
 21
20.72500000000002
 31
0.0
1001
ACAD
1000
RTMaterial
1005
0
  0
LINE
  5
61162
330
1F
100
AcDbEntity
  8
1
100
AcDbLine
 10
9.562556682299998
 20
-22.225
 30
0.0
 11
1.5
 21
-22.225
 31
0.0
1001
ACAD
1000
RTMaterial
1005
0
  0
LINE
  5
61163
330
1F
100
AcDbEntity
  8
1
100
AcDbLine
 10
41.93170632990001
 20
-23.53929861810002
 30
0.0
 11
46.78307789389996
 21
-23.95012818790002
 31
0.0
1001
ACAD
1000
RTMaterial
1005
0
  0
LINE
  5
61164
330
1F
100
AcDbEntity
  8
1
100
AcDbLine
 10
27.61126847759999
 20
-21.97378519400002
 30
0.0
 11
33.52833452479996
 21
-23.55925826290002
 31
0.0
1001
ACAD
1000
RTMaterial
1005
0
  0
LINE
  5
61165
330
1F
100
AcDbEntity
  8
1
100
AcDbLine
 10
4.75999999999999
 20
2.969999999999998
 30
0.0
 11
4.75999999999999
 21
-2.969999999999998
 31
0.0
1001
ACAD
1000
RTMaterial
1005
0
  0
LINE
  5
61166
330
1F
100
AcDbEntity
  8
1
100
AcDbLine
 10
14.6372517945
 20
-21.40732739230001
 30
0.0
 11
10.43079757070001
 21
-22.149038765
 31
0.0
1001
ACAD
1000
RTMaterial
1005
0
  0
LINE
  5
61167
330
1F
100
AcDbEntity
  8
1
100
AcDbLine
 10
0.0
 20
4.469999999999997
 30
0.0
 11
0.5
 21
3.969999999999998
 31
0.0
1001
ACAD
1000
RTMaterial
1005
0
  0
LINE
  5
61168
330
1F
100
AcDbEntity
  8
1
100
AcDbLine
 10
3.75999999999999
 20
3.969999999999998
 30
0.0
 11
4.75999999999999
 21
2.969999999999998
 31
0.0
1001
ACAD
1000
RTMaterial
1005
0
  0
LINE
  5
61169
330
1F
100
AcDbEntity
  8
1
100
AcDbLine
 10
0.5
 20
-3.969999999999998
 30
0.0
 11
0.0
 21
-4.469999999999997
 31
0.0
1001
ACAD
1000
RTMaterial
1005
0
  0
LINE
  5
6116A
330
1F
100
AcDbEntity
  8
1
100
AcDbLine
 10
4.75999999999999
 20
-2.969999999999998
 30
0.0
 11
3.75999999999999
 21
-3.969999999999998
 31
0.0
1001
ACAD
1000
RTMaterial
1005
0
  0
LINE
  5
6116B
330
1F
100
AcDbEntity
  8
1
100
AcDbLine
 10
41.99275596889997
 20
24.31913712839997
 30
0.0
 11
41.74177204900002
 21
24.19304077179999
 31
0.0
1001
ACAD
1000
RTMaterial
1005
0
  0
LINE
  5
6116C
330
1F
100
AcDbEntity
  8
1
100
AcDbLine
 10
41.74177204900002
 20
24.19304077179999
 30
0.0
 11
41.08235261959999
 21
23.86152271279997
 31
0.0
1001
ACAD
1000
RTMaterial
1005
0
  0
LINE
  5
6116D
330
1F
100
AcDbEntity
  8
1
100
AcDbLine
 10
41.08235261959999
 20
23.86152271279997
 30
0.0
 11
41.07477307699997
 21
23.8577561724
 31
0.0
1001
ACAD
1000
RTMaterial
1005
0
  0
LINE
  5
6116E
330
1F
100
AcDbEntity
  8
1
100
AcDbLine
 10
41.07477307699997
 20
23.8577561724
 30
0.0
 11
41.06698469119999
 21
23.85393844629999
 31
0.0
1001
ACAD
1000
RTMaterial
1005
0
  0
LINE
  5
6116F
330
1F
100
AcDbEntity
  8
1
100
AcDbLine
 10
41.06698469119999
 20
23.85393844629999
 30
0.0
 11
41.05900695879999
 21
23.85008366609998
 31
0.0
1001
ACAD
1000
RTMaterial
1005
0
  0
LINE
  5
61170
330
1F
100
AcDbEntity
  8
1
100
AcDbLine
 10
41.05900695879999
 20
23.85008366609998
 30
0.0
 11
41.0508375735
 21
23.84619526599999
 31
0.0
1001
ACAD
1000
RTMaterial
1005
0
  0
LINE
  5
61171
330
1F
100
AcDbEntity
  8
1
100
AcDbLine
 10
41.0508375735
 20
23.84619526599999
 30
0.0
 11
41.0285783593
 21
23.83590499720003
 31
0.0
1001
ACAD
1000
RTMaterial
1005
0
  0
LINE
  5
61172
330
1F
100
AcDbEntity
  8
1
100
AcDbLine
 10
41.02870885409998
 20
23.83596407729999
 30
0.0
 11
41.02855769359996
 21
23.83589569200001
 31
0.0
1001
ACAD
1000
RTMaterial
1005
0
  0
LINE
  5
61173
330
1F
100
AcDbEntity
  8
1
100
AcDbLine
 10
0.5
 20
-3.969999999999998
 30
0.0
 11
3.75999999999999
 21
-3.969999999999998
 31
0.0
1001
ACAD
1000
RTMaterial
1005
0
  0
LINE
  5
61174
330
1F
100
AcDbEntity
  8
4
100
AcDbLine
 10
-3.0
 20
0.0
 30
0.0
 11
53.20512785940002
 21
0.0
 31
0.0
1001
ACAD
1000
RTMaterial
1005
0
  0
LINE
  5
61175
330
1F
100
AcDbEntity
  8
1
100
AcDbLine
 10
39.49755644420003
 20
22.81258134680002
 30
0.0
 11
35.95015637979998
 21
19.07882035339997
 31
0.0
1001
ACAD
1000
RTMaterial
1005
0
  0
LINE
  5
61176
330
1F
100
AcDbEntity
  8
1
100
AcDbLine
 10
0.5
 20
3.969999999999998
 30
0.0
 11
3.75999999999999
 21
3.969999999999998
 31
0.0
1001
ACAD
1000
RTMaterial
1005
0
  0
LINE
  5
61177
330
1F
100
AcDbEntity
  8
1
100
AcDbLine
 10
39.49755644420003
 20
22.81258134680002
 30
0.0
 11
39.65857717940003
 21
23.04550424950003
 31
0.0
1001
ACAD
1000
RTMaterial
1005
0
  0
LINE
  5
61178
330
1F
100
AcDbEntity
  8
1
100
AcDbLine
 10
36.03448904710001
 20
18.5472462985
 30
0.0
 11
40.54574818409998
 21
23.3962937938
 31
0.0
1001
ACAD
1000
RTMaterial
1005
0
  0
LINE
  5
61179
330
1F
100
AcDbEntity
  8
1
100
AcDbLine
 10
36.36908721399999
 20
19.14762009880002
 30
0.0
 11
39.9468394274
 21
22.9664585255
 31
0.0
1001
ACAD
1000
RTMaterial
1005
0
  0
LINE
  5
6117A
330
1F
100
AcDbEntity
  8
1
100
AcDbLine
 10
46.81960239239997
 20
10.02308625910001
 30
0.0
 11
46.93162426330003
 21
10.04618728880001
 31
0.0
1001
ACAD
1000
RTMaterial
1005
0
  0
LINE
  5
6117B
330
1F
100
AcDbEntity
  8
1
100
AcDbLine
 10
46.93162426330003
 20
10.04618728880001
 30
0.0
 11
46.99548552449999
 21
10.05936365309998
 31
0.0
1001
ACAD
1000
RTMaterial
1005
0
  0
LINE
  5
6117F
330
1F
100
AcDbEntity
  8
1
100
AcDbLine
 10
46.9292748405
 20
10.05757400909999
 30
0.0
 11
47.48350958849999
 21
10.0726265998
 31
0.0
1001
ACAD
1000
RTMaterial
1005
0
  0
LINE
  5
61180
330
1F
100
AcDbEntity
  8
1
100
AcDbLine
 10
40.0543013596
 20
23.24835511340001
 30
0.0
 11
39.9468394274
 21
22.9664585255
 31
0.0
1001
ACAD
1000
RTMaterial
1005
0
  0
LINE
  5
61181
330
1F
100
AcDbEntity
  8
1
100
AcDbLine
 10
46.80820332019999
 20
9.993296794300023
 30
0.0
 11
46.83593856679999
 21
10.00658550909998
 31
0.0
1001
ACAD
1000
RTMaterial
1005
0
  0
LINE
  5
61182
330
1F
100
AcDbEntity
  8
1
100
AcDbLine
 10
46.83593856679999
 20
10.00658550909998
 30
0.0
 11
46.90870861780001
 21
10.04145836549998
 31
0.0
1001
ACAD
1000
RTMaterial
1005
0
  0
LINE
  5
61183
330
1F
100
AcDbEntity
  8
1
100
AcDbLine
 10
29.01457064800002
 20
11.33065414269998
 30
0.0
 11
42.4629364936
 21
10.56168849939996
 31
0.0
1001
ACAD
1000
RTMaterial
1005
0
  0
LINE
  5
61184
330
1F
100
AcDbEntity
  8
1
100
AcDbLine
 10
43.84684241089995
 20
10.38507971209998
 30
0.0
 11
49.5
 21
9.258282742900007
 31
0.0
1001
ACAD
1000
RTMaterial
1005
0
  0
LINE
  5
61186
330
1F
100
AcDbEntity
  8
1
100
AcDbLine
 10
42.42240442519999
 20
16.75344989019999
 30
0.0
 11
42.4514147109
 21
16.7537860123
 31
0.0
1001
ACAD
1000
RTMaterial
1005
0
  0
LINE
  5
61187
330
1F
100
AcDbEntity
  8
1
100
AcDbLine
 10
44.38450410050001
 20
16.24128120279999
 30
0.0
 11
44.60386891859997
 21
16.24128120279999
 31
0.0
1001
ACAD
1000
RTMaterial
1005
0
  0
LINE
  5
61188
330
1F
100
AcDbEntity
  8
1
100
AcDbLine
 10
46.43220835059998
 20
10.1953078962
 30
0.0
 11
40.9609817465
 21
11.48283943460001
 31
0.0
1001
ACAD
1000
RTMaterial
1005
0
  0
LINE
  5
61189
330
1F
100
AcDbEntity
  8
1
100
AcDbLine
 10
47.11048499700001
 20
10.1115249979
 30
0.0
 11
40.68675879159997
 21
11.6232061403
 31
0.0
1001
ACAD
1000
RTMaterial
1005
0
  0
LINE
  5
6118A
330
1F
100
AcDbEntity
  8
1
100
AcDbLine
 10
40.06085431359998
 20
23.26544647039998
 30
0.0
 11
40.058720236
 21
23.42591739349996
 31
0.0
1001
ACAD
1000
RTMaterial
1005
0
  0
LINE
  5
61190
330
1F
100
AcDbEntity
  8
1
100
AcDbLine
 10
36.36908721399999
 20
19.14762009880002
 30
0.0
 11
36.21013368949997
 21
19.14514887059999
 31
0.0
1001
ACAD
1000
RTMaterial
1005
0
  0
LINE
  5
61191
330
1F
100
AcDbEntity
  8
1
100
AcDbLine
 10
45.51397834310001
 20
18.34807394989997
 30
0.0
 11
45.48496805740001
 21
18.34773782769997
 31
0.0
1001
ACAD
1000
RTMaterial
1005
0
  0
LINE
  5
61192
330
1F
100
AcDbEntity
  8
1
100
AcDbLine
 10
45.26560322990002
 20
18.34771954839998
 30
0.0
 11
45.48496804809995
 21
18.34771954839998
 31
0.0
1001
ACAD
1000
RTMaterial
1005
0
  0
LINE
  5
61193
330
1F
100
AcDbEntity
  8
1
100
AcDbLine
 10
43.11314903150003
 20
18.86024263730002
 30
0.0
 11
43.33251384969996
 21
18.86024263730002
 31
0.0
1001
ACAD
1000
RTMaterial
1005
0
  0
LINE
  5
61194
330
1F
100
AcDbEntity
  8
1
100
AcDbLine
 10
34.67603196159996
 20
17.43584660089999
 30
0.0
 11
29.0932753422
 21
17.75506367779996
 31
0.0
1001
ACAD
1000
RTMaterial
1005
0
  0
LINE
  5
61195
330
1F
100
AcDbEntity
  8
1
100
AcDbLine
 10
14.6372517945
 20
21.40732739229997
 30
0.0
 11
10.43079757070001
 21
22.14903876509999
 31
0.0
1001
ACAD
1000
RTMaterial
1005
0
  0
LINE
  5
61196
330
1F
100
AcDbEntity
  8
1
100
AcDbLine
 10
35.3970509806
 20
17.20324582889998
 30
0.0
 11
34.9484899295
 21
17.3123600454
 31
0.0
1001
ACAD
1000
RTMaterial
1005
0
  0
LINE
  5
61197
330
1F
100
AcDbEntity
  8
1
100
AcDbLine
 10
47.11877837949997
 20
9.826433897100001
 30
0.0
 11
46.43220835059998
 21
10.1953078962
 31
0.0
1001
ACAD
1000
RTMaterial
1005
0
  0
LINE
  5
61198
330
1F
100
AcDbEntity
  8
1
100
AcDbLine
 10
34.85149780789999
 20
18.41859525360002
 30
0.0
 11
35.20501935670001
 21
18.16733438770001
 31
0.0
1001
ACAD
1000
RTMaterial
1005
0
  0
LINE
  5
61199
330
1F
100
AcDbEntity
  8
1
100
AcDbLine
 10
35.3970509806
 20
17.20324582889998
 30
0.0
 11
35.78745467580001
 21
16.92026435639997
 31
0.0
1001
ACAD
1000
RTMaterial
1005
0
  0
LINE
  5
6119A
330
1F
100
AcDbEntity
  8
1
100
AcDbLine
 10
39.45842522150002
 20
12.20416130180001
 30
0.0
 11
39.5713595862
 21
12.12217183130002
 31
0.0
1001
ACAD
1000
RTMaterial
1005
0
  0
LINE
  5
6119B
330
1F
100
AcDbEntity
  8
1
100
AcDbLine
 10
39.3706948569
 20
12.2686025516
 30
0.0
 11
39.45842522150002
 21
12.20416130180001
 31
0.0
1001
ACAD
1000
RTMaterial
1005
0
  0
LINE
  5
6119C
330
1F
100
AcDbEntity
  8
1
100
AcDbLine
 10
39.1371344219
 20
12.4416247167
 30
0.0
 11
39.2738234295
 21
12.34055716929998
 31
0.0
1001
ACAD
1000
RTMaterial
1005
0
  0
LINE
  5
6119D
330
1F
100
AcDbEntity
  8
1
100
AcDbLine
 10
39.2738234295
 20
12.34055716929998
 30
0.0
 11
39.3706948569
 21
12.2686025516
 31
0.0
1001
ACAD
1000
RTMaterial
1005
0
  0
LINE
  5
6119E
330
1F
100
AcDbEntity
  8
1
100
AcDbLine
 10
35.4393456474
 20
17.94696130939996
 30
0.0
 11
35.27809811240003
 21
18.10693118189998
 31
0.0
1001
ACAD
1000
RTMaterial
1005
0
  0
LINE
  5
6119F
330
1F
100
AcDbEntity
  8
1
100
AcDbLine
 10
35.12045111380003
 20
17.48125339899997
 30
0.0
 11
35.30932386630003
 21
17.22458578989995
 31
0.0
1001
ACAD
1000
RTMaterial
1005
0
  0
LINE
  5
611A0
330
1F
100
AcDbEntity
  8
1
100
AcDbLine
 10
38.61917847889998
 20
12.72667670290002
 30
0.0
 11
39.04917166150001
 21
12.14233978480001
 31
0.0
1001
ACAD
1000
RTMaterial
1005
0
  0
LINE
  5
611A1
330
1F
100
AcDbEntity
  8
1
100
AcDbLine
 10
38.1426761742
 20
13.69354442270003
 30
0.0
 11
35.8998882185
 21
16.74136902739997
 31
0.0
1001
ACAD
1000
RTMaterial
1005
0
  0
LINE
  5
611A2
330
1F
100
AcDbEntity
  8
1
100
AcDbLine
 10
35.62707698089997
 20
17.64916146730002
 30
0.0
 11
35.48652280569996
 21
17.88806146209998
 31
0.0
1001
ACAD
1000
RTMaterial
1005
0
  0
LINE
  5
611A3
330
1F
100
AcDbEntity
  8
1
100
AcDbLine
 10
35.592494628
 20
17.34338350829995
 30
0.0
 11
35.74717453009998
 21
17.00150790419997
 31
0.0
1001
ACAD
1000
RTMaterial
1005
0
  0
LINE
  5
611A4
330
1F
100
AcDbEntity
  8
1
100
AcDbLine
 10
27.61126847759999
 20
21.97378519399996
 30
0.0
 11
33.52833452479996
 21
23.55925826290002
 31
0.0
1001
ACAD
1000
RTMaterial
1005
0
  0
LINE
  5
611A5
330
1F
100
AcDbEntity
  8
1
100
AcDbLine
 10
41.28403460740003
 20
23.96313663119997
 30
0.0
 11
40.42831909670002
 21
23.80585591549999
 31
0.0
1001
ACAD
1000
RTMaterial
1005
0
  0
LINE
  5
611A6
330
1F
100
AcDbEntity
  8
1
100
AcDbLine
 10
43.54346343089997
 20
24.54954209380003
 30
0.0
 11
47.28467648920001
 21
24.98252754750001
 31
0.0
1001
ACAD
1000
RTMaterial
1005
0
  0
LINE
  5
611A8
330
1F
100
AcDbEntity
  8
1
100
AcDbLine
 10
9.562556682299998
 20
22.22500000000002
 30
0.0
 11
1.5
 21
22.22500000000002
 31
0.0
1001
ACAD
1000
RTMaterial
1005
0
  0
LINE
  5
611AC
330
1F
100
AcDbEntity
  8
1
100
AcDbLine
 10
39.43282718559999
 20
23.04624826649996
 30
0.0
 11
39.49755644420003
 21
22.81258134680002
 31
0.0
1001
ACAD
1000
RTMaterial
1005
0
  0
LINE
  5
611B0
330
1F
100
AcDbEntity
  8
1
100
AcDbLine
 10
50.17456166729999
 20
14.4091992859
 30
0.0
 11
48.67613648079998
 21
10.92838918519999
 31
0.0
1001
ACAD
1000
RTMaterial
1005
0
  0
LINE
  5
611B2
330
1F
100
AcDbEntity
  8
1
100
AcDbLine
 10
36.11652497580003
 20
23.04588300329999
 30
0.0
 11
39.43282718559999
 21
23.04624826649996
 31
0.0
1001
ACAD
1000
RTMaterial
1005
0
  0
LINE
  5
611B4
330
1F
100
AcDbEntity
  8
1
100
AcDbLine
 10
36.11652497580003
 20
23.89999999999998
 30
0.0
 11
38.34939993090001
 21
23.89999999999998
 31
0.0
1001
ACAD
1000
RTMaterial
1005
0
  0
LINE
  5
611B5
330
1F
100
AcDbEntity
  8
1
100
AcDbLine
 10
49.5
 20
12.84220676169997
 30
0.0
 11
49.5
 21
-18.16375918860001
 31
0.0
1001
ACAD
1000
RTMaterial
1005
0
  0
LINE
  5
611BE
330
1F
100
AcDbEntity
  8
1
100
AcDbLine
 10
48.8235815136
 20
23.99351446369997
 30
0.0
 11
50.73604858190003
 21
17.63278582599997
 31
0.0
1001
ACAD
1000
RTMaterial
1005
0
  0
LINE
  5
611BF
330
1F
100
AcDbEntity
  8
1
100
AcDbLine
 10
48.03464458659998
 20
-23.09615127690003
 30
0.0
 11
49.5
 21
-18.16375986850002
 31
0.0
1001
ACAD
1000
RTMaterial
1005
0
  0
LINE
  5
611C0
330
1F
100
AcDbEntity
  8
nocut
100
AcDbLine
 10
0.0000000000000071
 20
0.0
 30
0.0
 11
0.0000000000000071
 21
20.72499999890002
 31
0.0
1001
ACAD
1000
RTMaterial
1005
0
  0
LINE
  5
611C5
330
1F
100
AcDbEntity
  8
nocut
100
AcDbLine
 10
49.50000000000002
 20
0.0
 30
0.0
 11
0.0000000000000071
 21
0.0
 31
0.0
1001
ACAD
1000
RTMaterial
1005
0
  0
LWPOLYLINE
  5
611C6
330
1F
100
AcDbEntity
  8
cut
100
AcDbPolyline
 90
       20
 70
     0
 43
0.0
 10
48.03457011469999
 20
11.20270835319999
 10
47.99779205170001
 20
11.19266268539999
 10
47.96073050510001
 20
11.18366586339999
 10
47.92338547510001
 20
11.17571788730001
 10
47.88569259609999
 20
11.16883887289998
 10
47.84771623370001
 20
11.1630087044
 10
47.80964948410002
 20
11.15816703440001
 10
47.77151822479999
 20
11.15432060199998
 10
47.73329657839997
 20
11.15146266799999
 10
47.69510000870003
 20
11.1495126682
 10
47.6569589211
 20
11.1484703939
 10
47.61884291010001
 20
11.14833605379999
 10
47.5807762239
 20
11.14902970899999
 10
47.54282697949999
 20
11.1505385113
 10
47.50492705979995
 20
11.15287530910001
 10
47.4668963616
 20
11.155998708
 10
47.42874980399999
 20
11.1598916792
 10
47.39047246770001
 20
11.16457125159999
 10
47.35183949219999
 20
11.1700471181
 10
47.31283660920001
 20
11.17629423260001
1001
ACAD
1000
RTMaterial
1005
0
  0
LWPOLYLINE
  5
611CA
330
1F
100
AcDbEntity
  8
cut
100
AcDbPolyline
 90
       10
 70
     0
 43
0.0
 10
42.07155724479997
 20
24.92424661620001
 10
42.09823108670003
 20
24.9324636867
 10
42.12536781999999
 20
24.9399845225
 10
42.15296744460006
 20
24.94680912370002
 10
42.18105433940002
 20
24.95295241700001
 10
42.20960412559999
 20
24.95839947570002
 10
42.23854366690001
 20
24.9631055191
 10
42.2678485847
 20
24.96705562040002
 10
42.2975432577
 20
24.97026470640003
 10
42.32762768579999
 20
24.97273277710002
1001
ACAD
1000
RTMaterial
1005
0
  0
LINE
  5
611CB
330
1F
100
AcDbEntity
  8
cut
100
AcDbLine
 10
41.59541207569999
 20
24.7018310284
 30
0.0
 11
41.67062639469999
 21
24.73903329280001
 31
0.0
1001
ACAD
1000
RTMaterial
1005
0
  0
LINE
  5
611CC
330
1F
100
AcDbEntity
  8
cut
100
AcDbLine
 10
41.67062639469999
 20
24.73903329280001
 30
0.0
 11
41.74526341760002
 21
24.77550334899999
 31
0.0
1001
ACAD
1000
RTMaterial
1005
0
  0
LINE
  5
611CD
330
1F
100
AcDbEntity
  8
cut
100
AcDbLine
 10
41.74526341760002
 20
24.77550334899999
 30
0.0
 11
41.81942613830001
 21
24.81129736140002
 31
0.0
1001
ACAD
1000
RTMaterial
1005
0
  0
LINE
  5
611CE
330
1F
100
AcDbEntity
  8
cut
100
AcDbLine
 10
41.81942613830001
 20
24.81129736140002
 30
0.0
 11
41.89342757330002
 21
24.8465827945
 31
0.0
1001
ACAD
1000
RTMaterial
1005
0
  0
LWPOLYLINE
  5
611CF
330
1F
100
AcDbEntity
  8
cut
100
AcDbPolyline
 90
        3
 70
     0
 43
0.0
 10
41.89342757330002
 20
24.8465827945
 10
41.96788413500002
 20
24.88166253179997
 10
41.99285146080002
 20
24.89333273620002
1001
ACAD
1000
RTMaterial
1005
0
  0
LWPOLYLINE
  5
611D0
330
1F
100
AcDbEntity
  8
cut
100
AcDbPolyline
 90
       10
 70
     0
 43
0.0
 10
41.99285146080002
 20
24.89333273620002
 10
42.00137963330003
 20
24.89724194990001
 10
42.00996395660002
 20
24.90103345780003
 10
42.0186044308
 20
24.90470725980001
 10
42.02730361839996
 20
24.90826452740001
 10
42.03605895690002
 20
24.9117040893
 10
42.04486275879999
 20
24.9150224309
 10
42.05371246150003
 20
24.91821838089999
 10
42.06261062769999
 20
24.92129311060002
 10
42.07155725730002
 20
24.92424662019999
1001
ACAD
1000
RTMaterial
1005
0
  0
LINE
  5
611D3
330
1F
100
AcDbEntity
  8
cut
100
AcDbLine
 10
40.85588290240003
 20
24.31172445510001
 30
0.0
 11
40.93150289290004
 21
24.35375230080002
 31
0.0
1001
ACAD
1000
RTMaterial
1005
0
  0
LINE
  5
611D4
330
1F
100
AcDbEntity
  8
cut
100
AcDbLine
 10
40.93150289290004
 20
24.35375230080002
 30
0.0
 11
41.003477971
 21
24.39327889949999
 31
0.0
1001
ACAD
1000
RTMaterial
1005
0
  0
LINE
  5
611D5
330
1F
100
AcDbEntity
  8
cut
100
AcDbLine
 10
41.003477971
 20
24.39327889949999
 30
0.0
 11
41.07562986710003
 21
24.43245796350002
 31
0.0
1001
ACAD
1000
RTMaterial
1005
0
  0
LINE
  5
611D6
330
1F
100
AcDbEntity
  8
cut
100
AcDbLine
 10
41.07562986710003
 20
24.43245796350002
 30
0.0
 11
41.14818676880004
 21
24.47139958320003
 31
0.0
1001
ACAD
1000
RTMaterial
1005
0
  0
LINE
  5
611D7
330
1F
100
AcDbEntity
  8
cut
100
AcDbLine
 10
41.14818676880004
 20
24.47139958320003
 30
0.0
 11
41.22127578309997
 21
24.51016484749999
 31
0.0
1001
ACAD
1000
RTMaterial
1005
0
  0
LINE
  5
611D8
330
1F
100
AcDbEntity
  8
cut
100
AcDbLine
 10
41.22127578309997
 20
24.51016484749999
 30
0.0
 11
41.29495212580002
 21
24.54878584080002
 31
0.0
1001
ACAD
1000
RTMaterial
1005
0
  0
LINE
  5
611D9
330
1F
100
AcDbEntity
  8
cut
100
AcDbLine
 10
41.29495212580002
 20
24.54878584080002
 30
0.0
 11
41.36926110470001
 21
24.58729310659999
 31
0.0
1001
ACAD
1000
RTMaterial
1005
0
  0
LINE
  5
611DA
330
1F
100
AcDbEntity
  8
cut
100
AcDbLine
 10
41.36926110470001
 20
24.58729310659999
 30
0.0
 11
41.44426393249999
 21
24.62572080289999
 31
0.0
1001
ACAD
1000
RTMaterial
1005
0
  0
LINE
  5
611DB
330
1F
100
AcDbEntity
  8
cut
100
AcDbLine
 10
41.44426393249999
 20
24.62572080289999
 30
0.0
 11
41.51981809329999
 21
24.663989496
 31
0.0
1001
ACAD
1000
RTMaterial
1005
0
  0
LINE
  5
611DC
330
1F
100
AcDbEntity
  8
cut
100
AcDbLine
 10
41.51981809329999
 20
24.663989496
 30
0.0
 11
41.59541207569999
 21
24.7018310284
 31
0.0
1001
ACAD
1000
RTMaterial
1005
0
  0
LINE
  5
611E6
330
1F
100
AcDbEntity
  8
cut
100
AcDbLine
 10
39.36859764440005
 20
22.88191758909997
 30
0.0
 11
40.54574781300003
 21
24.07337675830002
 31
0.0
1001
ACAD
1000
RTMaterial
1005
0
  0
LINE
  5
611E7
330
1F
100
AcDbEntity
  8
cut
100
AcDbLine
 10
38.68129001410001
 20
22.1904705961
 30
0.0
 11
39.36859764440005
 21
22.88191758909997
 31
0.0
1001
ACAD
1000
RTMaterial
1005
0
  0
LINE
  5
611E8
330
1F
100
AcDbEntity
  8
cut
100
AcDbLine
 10
38.02830626460003
 20
21.53677380690002
 30
0.0
 11
38.68129001410001
 21
22.1904705961
 31
0.0
1001
ACAD
1000
RTMaterial
1005
0
  0
LINE
  5
611E9
330
1F
100
AcDbEntity
  8
cut
100
AcDbLine
 10
37.55439195690003
 20
21.0644777693
 30
0.0
 11
38.02830626460003
 21
21.53677380690002
 31
0.0
1001
ACAD
1000
RTMaterial
1005
0
  0
LINE
  5
611EA
330
1F
100
AcDbEntity
  8
cut
100
AcDbLine
 10
37.05396335730001
 20
20.56786079470001
 30
0.0
 11
37.55439195690003
 21
21.0644777693
 31
0.0
1001
ACAD
1000
RTMaterial
1005
0
  0
LINE
  5
611EB
330
1F
100
AcDbEntity
  8
cut
100
AcDbLine
 10
36.66936033530005
 20
20.1877490835
 30
0.0
 11
37.05396335730001
 21
20.56786079470001
 31
0.0
1001
ACAD
1000
RTMaterial
1005
0
  0
LWPOLYLINE
  5
611EC
330
1F
100
AcDbEntity
  8
cut
100
AcDbPolyline
 90
       10
 70
     0
 43
0.0
 10
40.54574779360001
 20
24.07337673859999
 10
40.577948558
 20
24.10504477019998
 10
40.61075000100005
 20
24.13543092739999
 10
40.64415212260001
 20
24.16453521050002
 10
40.67820293010004
 20
24.1923767708
 10
40.71285441629997
 20
24.21893645679998
 10
40.74796255960001
 20
24.2441568141
 10
40.7834793526
 20
24.26801869120001
 10
40.81945280270003
 20
24.2905412396
 10
40.85588290980002
 20
24.3117244593
1001
ACAD
1000
RTMaterial
1005
0
  0
LINE
  5
611ED
330
1F
100
AcDbEntity
  8
cut
100
AcDbLine
 10
36.2860313869
 20
19.81033338280002
 30
0.0
 11
36.66936033530005
 21
20.1877490835
 31
0.0
1001
ACAD
1000
RTMaterial
1005
0
  0
LINE
  5
611EE
330
1F
100
AcDbEntity
  8
cut
100
AcDbLine
 10
36.03448905190005
 20
19.56349419609998
 30
0.0
 11
36.2860313869
 21
19.81033338280002
 31
0.0
1001
ACAD
1000
RTMaterial
1005
0
  0
LWPOLYLINE
  5
611EF
330
1F
100
AcDbEntity
  8
cut
100
AcDbPolyline
 90
        6
 70
     0
 43
0.0
 10
47.31283660920001
 20
11.17629423260001
 10
47.27347808680003
 20
11.18333764119998
 10
47.2335818684
 20
11.1912621749
 10
47.1930872685
 20
11.2000961105
 10
47.15205497260002
 20
11.20981117119999
 10
47.11048498080002
 20
11.22040735679999
1001
ACAD
1000
RTMaterial
1005
0
  0
LINE
  5
611F0
330
1F
100
AcDbEntity
  8
cut
100
AcDbLine
 10
47.1104849985
 20
11.22040735209998
 30
0.0
 11
40.68675869629998
 21
12.9246934006
 31
0.0
1001
ACAD
1000
RTMaterial
1005
0
  0
LWPOLYLINE
  5
611F1
330
1F
100
AcDbEntity
  8
cut
100
AcDbPolyline
 90
       10
 70
     0
 43
0.0
 10
40.68675869970003
 20
12.9246933997
 10
40.64304397919999
 20
12.93680259430002
 10
40.59965018629998
 20
12.9497975061
 10
40.55657732079999
 20
12.9636781353
 10
40.5138021532
 20
12.97845174530002
 10
40.47134791320003
 20
12.99411107260002
 10
40.42928428950001
 20
13.01063432649999
 10
40.38763451190003
 20
13.0280142437
 10
40.34637535059999
 20
13.04625808759999
 10
40.30550680560003
 20
13.06536585820001
1001
ACAD
1000
RTMaterial
1005
0
  0
LINE
  5
611F4
330
1F
100
AcDbEntity
  8
nocut
100
AcDbLine
 10
10.43079757070001
 20
22.14903876390001
 30
0.0
 11
14.63725179450001
 21
21.4073273912
 31
0.0
1001
ACAD
1000
RTMaterial
1005
0
  0
LINE
  5
611F5
330
1F
100
AcDbEntity
  8
cut
100
AcDbLine
 10
40.30550680690004
 20
13.0653658576
 30
0.0
 11
40.19959200789997
 21
13.11625523219999
 31
0.0
1001
ACAD
1000
RTMaterial
1005
0
  0
LINE
  5
611F6
330
1F
100
AcDbEntity
  8
cut
100
AcDbLine
 10
40.19959200789997
 20
13.11625523219999
 30
0.0
 11
40.12361572499997
 21
13.1532119101
 31
0.0
1001
ACAD
1000
RTMaterial
1005
0
  0
LINE
  5
611F7
330
1F
100
AcDbEntity
  8
cut
100
AcDbLine
 10
40.12361572499997
 20
13.1532119101
 30
0.0
 11
40.04768856900001
 21
13.1905763359
 31
0.0
1001
ACAD
1000
RTMaterial
1005
0
  0
LINE
  5
611F8
330
1F
100
AcDbEntity
  8
cut
100
AcDbLine
 10
40.04768856900001
 20
13.1905763359
 30
0.0
 11
39.97165926060001
 21
13.22843615830001
 31
0.0
1001
ACAD
1000
RTMaterial
1005
0
  0
LINE
  5
611F9
330
1F
100
AcDbEntity
  8
cut
100
AcDbLine
 10
39.97165926060001
 20
13.22843615830001
 30
0.0
 11
39.8954007278
 21
13.26686343969999
 31
0.0
1001
ACAD
1000
RTMaterial
1005
0
  0
LINE
  5
611FA
330
1F
100
AcDbEntity
  8
cut
100
AcDbLine
 10
39.8954007278
 20
13.26686343969999
 30
0.0
 11
39.81889076810001
 21
13.3058714627
 31
0.0
1001
ACAD
1000
RTMaterial
1005
0
  0
LINE
  5
611FB
330
1F
100
AcDbEntity
  8
cut
100
AcDbLine
 10
39.81889076810001
 20
13.3058714627
 30
0.0
 11
39.74207740980001
 21
13.34548180340002
 31
0.0
1001
ACAD
1000
RTMaterial
1005
0
  0
LINE
  5
611FC
330
1F
100
AcDbEntity
  8
cut
100
AcDbLine
 10
39.74207740980001
 20
13.34548180340002
 30
0.0
 11
39.66493322520001
 21
13.38570675400001
 31
0.0
1001
ACAD
1000
RTMaterial
1005
0
  0
LINE
  5
611FD
330
1F
100
AcDbEntity
  8
cut
100
AcDbLine
 10
39.66493322520001
 20
13.38570675400001
 30
0.0
 11
39.58771980450002
 21
13.42641899010002
 31
0.0
1001
ACAD
1000
RTMaterial
1005
0
  0
LINE
  5
611FE
330
1F
100
AcDbEntity
  8
cut
100
AcDbLine
 10
39.58771980450002
 20
13.42641899010002
 30
0.0
 11
39.51102921780001
 21
13.46731673740001
 31
0.0
1001
ACAD
1000
RTMaterial
1005
0
  0
LINE
  5
611FF
330
1F
100
AcDbEntity
  8
cut
100
AcDbLine
 10
39.51102921780001
 20
13.46731673740001
 30
0.0
 11
39.43518021270001
 21
13.50822958890001
 31
0.0
1001
ACAD
1000
RTMaterial
1005
0
  0
LINE
  5
61200
330
1F
100
AcDbEntity
  8
cut
100
AcDbLine
 10
39.43518021270001
 20
13.50822958890001
 30
0.0
 11
39.36030051559999
 21
13.54908248940001
 31
0.0
1001
ACAD
1000
RTMaterial
1005
0
  0
LINE
  5
61201
330
1F
100
AcDbEntity
  8
cut
100
AcDbLine
 10
39.36030051559999
 20
13.54908248940001
 30
0.0
 11
39.28617501090003
 21
13.58998616260001
 31
0.0
1001
ACAD
1000
RTMaterial
1005
0
  0
LINE
  5
61202
330
1F
100
AcDbEntity
  8
cut
100
AcDbLine
 10
39.28617501090003
 20
13.58998616260001
 30
0.0
 11
39.21241684940003
 21
13.63113747330001
 31
0.0
1001
ACAD
1000
RTMaterial
1005
0
  0
LINE
  5
61203
330
1F
100
AcDbEntity
  8
cut
100
AcDbLine
 10
39.21241684940003
 20
13.63113747330001
 30
0.0
 11
39.13837957089999
 21
13.67289438899999
 31
0.0
1001
ACAD
1000
RTMaterial
1005
0
  0
LWPOLYLINE
  5
61204
330
1F
100
AcDbEntity
  8
cut
100
AcDbPolyline
 90
       10
 70
     0
 43
0.0
 10
39.13837957089999
 20
13.6728943889
 10
39.12996459720001
 20
13.67773367340001
 10
39.12164461890002
 20
13.68265357369998
 10
39.11341963600001
 20
13.6876540899
 10
39.10528816390002
 20
13.69273708759999
 10
39.09725168710004
 20
13.69790070110002
 10
39.08931465929999
 20
13.7031393341
 10
39.08147856479997
 20
13.70845112110001
 10
39.07374191930001
 20
13.71383792750001
 10
39.06610472280006
 20
13.71929975329999
1001
ACAD
1000
RTMaterial
1005
0
  0
LINE
  5
61208
330
1F
100
AcDbEntity
  8
cut
100
AcDbLine
 10
35.62707698020001
 20
18.68500809170001
 30
0.0
 11
35.62803236470001
 21
18.695269897
 31
0.0
1001
ACAD
1000
RTMaterial
1005
0
  0
LINE
  5
61209
330
1F
100
AcDbEntity
  8
cut
100
AcDbLine
 10
35.62803236470001
 20
18.695269897
 30
0.0
 11
35.62905846940005
 21
18.7055198335
 31
0.0
1001
ACAD
1000
RTMaterial
1005
0
  0
LINE
  5
6120A
330
1F
100
AcDbEntity
  8
cut
100
AcDbLine
 10
35.62905846940005
 20
18.7055198335
 30
0.0
 11
35.63015529440003
 21
18.71575790130001
 31
0.0
1001
ACAD
1000
RTMaterial
1005
0
  0
LWPOLYLINE
  5
6120B
330
1F
100
AcDbEntity
  8
cut
100
AcDbPolyline
 90
       25
 70
     0
 43
0.0
 10
35.63015529400003
 20
18.7157578975
 10
35.635288571
 20
18.75675239179997
 10
35.64152710990005
 20
18.7974189562
 10
35.64887091079999
 20
18.8377575906
 10
35.65733935380003
 20
18.87781189820001
 10
35.66691305870001
 20
18.9175382759
 10
35.67753388569998
 20
18.95680591460001
 10
35.68919934120005
 20
18.99559946190001
 10
35.70191191870004
 20
19.03393427030002
 10
35.71562095960003
 20
19.07172558850001
 10
35.73032626080005
 20
19.10897440909997
 10
35.7460280254
 20
19.14567973949999
 10
35.76267620280005
 20
19.18175385089998
 10
35.78026624910002
 20
19.21717604450001
 10
35.7988027084
 20
19.25196701909999
 10
35.81824916260002
 20
19.28610114170001
 10
35.83858829270003
 20
19.31956381789998
 10
35.85983741780002
 20
19.3523696421
 10
35.88201207729998
 20
19.3845367653
 10
35.9051188688
 20
19.4160960113
 10
35.92915119470002
 20
19.44701655620002
 10
35.95410480240003
 20
19.47722408019999
 10
35.97997827400003
 20
19.50669380990001
 10
36.00677302740002
 20
19.5354505187
 10
36.03448906249998
 20
19.56349420649999
1001
ACAD
1000
RTMaterial
1005
0
  0
LWPOLYLINE
  5
6120C
330
1F
100
AcDbEntity
  8
cut
100
AcDbPolyline
 90
        7
 70
     0
 43
0.0
 10
48.08694430909998
 20
11.2201772962
 10
48.07847574030001
 20
11.21703208150001
 10
48.06990298440002
 20
11.21398035600001
 10
48.06122604130003
 20
11.21102211959999
 10
48.05244491109999
 20
11.20815737250001
 10
48.04355959370003
 20
11.2053861146
 10
48.03457008930003
 20
11.2027083458
1001
ACAD
1000
RTMaterial
1005
0
  0
LINE
  5
6120D
330
1F
100
AcDbEntity
  8
nocut
100
AcDbLine
 10
27.6112684776
 20
21.97378519280002
 30
0.0
 11
33.52833452480002
 21
23.55925826179998
 31
0.0
1001
ACAD
1000
RTMaterial
1005
0
  0
LINE
  5
6120E
330
1F
100
AcDbEntity
  8
nocut
100
AcDbLine
 10
41.93170632990002
 20
23.53929861699999
 30
0.0
 11
46.78307789389999
 21
23.95012818679999
 31
0.0
1001
ACAD
1000
RTMaterial
1005
0
  0
LINE
  5
6120F
330
1F
100
AcDbEntity
  8
nocut
100
AcDbLine
 10
1.500000000000006
 20
22.22499999890002
 30
0.0
 11
9.562556682300003
 21
22.22499999890002
 31
0.0
1001
ACAD
1000
RTMaterial
1005
0
  0
LWPOLYLINE
  5
61210
330
1F
100
AcDbEntity
  8
cut
100
AcDbPolyline
 90
       10
 70
     0
 43
0.0
 10
39.06610472300003
 20
13.71929975309999
 10
39.04321366889997
 20
13.7363388254
 10
39.02078620330004
 20
13.75395552079999
 10
38.99882232620002
 20
13.7721498393
 10
38.97730558100001
 20
13.790939406
 10
38.95625242450002
 20
13.81030659570001
 10
38.93571222600004
 20
13.8301985331
 10
38.91570144210005
 20
13.8505975928
 10
38.8962036164
 20
13.87152140009999
 10
38.87721874870005
 20
13.89296995489999
1001
ACAD
1000
RTMaterial
1005
0
  0
LINE
  5
61213
330
1F
100
AcDbEntity
  8
cut
100
AcDbLine
 10
35.62491512819998
 20
18.60489164449998
 30
0.0
 11
35.62507668490003
 21
18.62688542539999
 31
0.0
1001
ACAD
1000
RTMaterial
1005
0
  0
LINE
  5
61214
330
1F
100
AcDbEntity
  8
cut
100
AcDbLine
 10
35.6250707836
 20
18.6264144061
 30
0.0
 11
35.62571730750001
 21
18.65370243159998
 31
0.0
1001
ACAD
1000
RTMaterial
1005
0
  0
LINE
  5
61215
330
1F
100
AcDbEntity
  8
cut
100
AcDbLine
 10
35.62571730750001
 20
18.65370243159998
 30
0.0
 11
35.62609822550002
 21
18.66416593879998
 31
0.0
1001
ACAD
1000
RTMaterial
1005
0
  0
LINE
  5
61216
330
1F
100
AcDbEntity
  8
cut
100
AcDbLine
 10
35.62609822550002
 20
18.66416593879998
 30
0.0
 11
35.62655144970001
 21
18.67460115890003
 31
0.0
1001
ACAD
1000
RTMaterial
1005
0
  0
LINE
  5
61217
330
1F
100
AcDbEntity
  8
cut
100
AcDbLine
 10
35.62655144970001
 20
18.67460115890003
 30
0.0
 11
35.62707698020001
 21
18.68500809170001
 31
0.0
1001
ACAD
1000
RTMaterial
1005
0
  0
LINE
  5
61218
330
1F
100
AcDbEntity
  8
cut
100
AcDbLine
 10
43.49292090699999
 20
25.04989276820001
 30
0.0
 11
47.28243779310004
 21
25.39385396839998
 31
0.0
1001
ACAD
1000
RTMaterial
1005
0
  0
LINE
  5
61219
330
1F
100
AcDbEntity
  8
cut
100
AcDbLine
 10
43.34137143499999
 20
25.0371013763
 30
0.0
 11
43.49292090699999
 21
25.04989276820001
 31
0.0
1001
ACAD
1000
RTMaterial
1005
0
  0
LINE
  5
6121A
330
1F
100
AcDbEntity
  8
cut
100
AcDbLine
 10
43.18987898389996
 20
25.02513072400001
 30
0.0
 11
43.34137143499999
 21
25.0371013763
 31
0.0
1001
ACAD
1000
RTMaterial
1005
0
  0
LINE
  5
6121B
330
1F
100
AcDbEntity
  8
cut
100
AcDbLine
 10
43.0382715389
 20
25.01396480820003
 30
0.0
 11
43.18987898389996
 21
25.02513072400001
 31
0.0
1001
ACAD
1000
RTMaterial
1005
0
  0
LINE
  5
6121C
330
1F
100
AcDbEntity
  8
cut
100
AcDbLine
 10
42.88640256929999
 20
25.00360375710002
 30
0.0
 11
43.0382715389
 21
25.01396480820003
 31
0.0
1001
ACAD
1000
RTMaterial
1005
0
  0
LINE
  5
6121D
330
1F
100
AcDbEntity
  8
cut
100
AcDbLine
 10
42.73413437740003
 20
24.99405221949999
 30
0.0
 11
42.88640256929999
 21
25.00360375710002
 31
0.0
1001
ACAD
1000
RTMaterial
1005
0
  0
LINE
  5
6121E
330
1F
100
AcDbEntity
  8
cut
100
AcDbLine
 10
42.58162492100002
 20
24.98533175890003
 30
0.0
 11
42.73413437740003
 21
24.99405221949999
 31
0.0
1001
ACAD
1000
RTMaterial
1005
0
  0
LINE
  5
6121F
330
1F
100
AcDbEntity
  8
cut
100
AcDbLine
 10
42.42915729639999
 20
24.97747660190001
 30
0.0
 11
42.58162492100002
 21
24.98533175890003
 31
0.0
1001
ACAD
1000
RTMaterial
1005
0
  0
LINE
  5
61220
330
1F
100
AcDbEntity
  8
cut
100
AcDbLine
 10
42.3276276602
 20
24.97273277530002
 30
0.0
 11
42.42915729639999
 21
24.97747660190001
 31
0.0
1001
ACAD
1000
RTMaterial
1005
0
  0
LINE
  5
61221
330
1F
100
AcDbEntity
  8
nocut
100
AcDbLine
 10
36.11652497580003
 20
23.89999999890003
 30
0.0
 11
40.20231717080004
 21
23.89999999890003
 31
0.0
1001
ACAD
1000
RTMaterial
1005
0
  0
LINE
  5
61222
330
1F
100
AcDbEntity
  8
cut
100
AcDbLine
 10
38.87721874950001
 20
13.89296995399999
 30
0.0
 11
38.78384118350004
 21
14.0073424338
 31
0.0
1001
ACAD
1000
RTMaterial
1005
0
  0
LINE
  5
61223
330
1F
100
AcDbEntity
  8
cut
100
AcDbLine
 10
38.78384118350004
 20
14.0073424338
 30
0.0
 11
38.69108607240003
 21
14.12200973770001
 31
0.0
1001
ACAD
1000
RTMaterial
1005
0
  0
LINE
  5
61224
330
1F
100
AcDbEntity
  8
cut
100
AcDbLine
 10
38.69108607240003
 20
14.12200973770001
 30
0.0
 11
38.59882603879999
 21
14.23708038750001
 31
0.0
1001
ACAD
1000
RTMaterial
1005
0
  0
LINE
  5
61225
330
1F
100
AcDbEntity
  8
cut
100
AcDbLine
 10
38.59882603879999
 20
14.23708038750001
 30
0.0
 11
38.5069236352
 21
14.3526775716
 31
0.0
1001
ACAD
1000
RTMaterial
1005
0
  0
LINE
  5
61226
330
1F
100
AcDbEntity
  8
cut
100
AcDbLine
 10
38.5069236352
 20
14.3526775716
 30
0.0
 11
38.41530457160003
 21
14.46886429949998
 31
0.0
1001
ACAD
1000
RTMaterial
1005
0
  0
LINE
  5
61227
330
1F
100
AcDbEntity
  8
cut
100
AcDbLine
 10
38.41530457160003
 20
14.46886429949998
 30
0.0
 11
38.32400683700002
 21
14.58556223100001
 31
0.0
1001
ACAD
1000
RTMaterial
1005
0
  0
LINE
  5
61228
330
1F
100
AcDbEntity
  8
cut
100
AcDbLine
 10
38.32400683700002
 20
14.58556223100001
 30
0.0
 11
38.23310552670001
 21
14.7026502146
 31
0.0
1001
ACAD
1000
RTMaterial
1005
0
  0
LINE
  5
61229
330
1F
100
AcDbEntity
  8
cut
100
AcDbLine
 10
38.23310552670001
 20
14.7026502146
 30
0.0
 11
38.04762282330001
 21
14.94387823319999
 31
0.0
1001
ACAD
1000
RTMaterial
1005
0
  0
LINE
  5
6122A
330
1F
100
AcDbEntity
  8
cut
100
AcDbLine
 10
38.04762282330001
 20
14.94387823319999
 30
0.0
 11
37.76150087729997
 21
15.3173073865
 31
0.0
1001
ACAD
1000
RTMaterial
1005
0
  0
LINE
  5
6122B
330
1F
100
AcDbEntity
  8
cut
100
AcDbLine
 10
37.76150087729997
 20
15.3173073865
 30
0.0
 11
37.37988282070001
 21
15.81665402070001
 31
0.0
1001
ACAD
1000
RTMaterial
1005
0
  0
LINE
  5
6122C
330
1F
100
AcDbEntity
  8
cut
100
AcDbLine
 10
37.37988282070001
 20
15.81665402070001
 30
0.0
 11
37.00317932730003
 21
16.31087792010001
 31
0.0
1001
ACAD
1000
RTMaterial
1005
0
  0
LINE
  5
6122D
330
1F
100
AcDbEntity
  8
cut
100
AcDbLine
 10
37.00317932730003
 20
16.31087792010001
 30
0.0
 11
36.63395021110001
 21
16.79644816469999
 31
0.0
1001
ACAD
1000
RTMaterial
1005
0
  0
LINE
  5
6122E
330
1F
100
AcDbEntity
  8
cut
100
AcDbLine
 10
36.63395021110001
 20
16.79644816469999
 30
0.0
 11
36.26824636150003
 21
17.27841368659997
 31
0.0
1001
ACAD
1000
RTMaterial
1005
0
  0
LINE
  5
6122F
330
1F
100
AcDbEntity
  8
cut
100
AcDbLine
 10
36.26824636150003
 20
17.27841368659997
 30
0.0
 11
35.8998879422
 21
17.7648267879
 31
0.0
1001
ACAD
1000
RTMaterial
1005
0
  0
LWPOLYLINE
  5
61230
330
1F
100
AcDbEntity
  8
cut
100
AcDbPolyline
 90
       19
 70
     0
 43
0.0
 10
35.89988794580001
 20
17.76482678320002
 10
35.87747515389999
 20
17.79531718929999
 10
35.85588486370001
 20
17.82655489239999
 10
35.83511707530006
 20
17.85853989260002
 10
35.81513029220003
 20
17.89131252449999
 10
35.79596601079999
 20
17.92483245350001
 10
35.77774872060003
 20
17.95897867510001
 10
35.76050453300002
 20
17.99373386390002
 10
35.74420733649999
 20
18.02911534539999
 10
35.72890328620003
 20
18.0650540908
 10
35.71459714110001
 20
18.10153692719999
 10
35.70128414229999
 20
18.13857702769999
 10
35.6889961673
 20
18.17614488239999
 10
35.67771904789999
 20
18.21428295480001
 10
35.6674669524
 20
18.2529487816
 10
35.65831426350003
 20
18.291985463
 10
35.65028577560003
 20
18.33134069900001
 10
35.64335669440005
 20
18.37106678969998
 10
35.63752701990001
 20
18.41116373499997
1001
ACAD
1000
RTMaterial
1005
0
  0
LWPOLYLINE
  5
61231
330
1F
100
AcDbEntity
  8
cut
100
AcDbPolyline
 90
        9
 70
     0
 43
0.0
 10
35.63752701990001
 20
18.41116373449998
 10
35.63424206550003
 20
18.4381780745
 10
35.63145279610001
 20
18.46518428320002
 10
35.6291592115
 20
18.4921823608
 10
35.62736463720001
 20
18.51918333079998
 10
35.62606574770003
 20
18.5461761697
 10
35.62525256760001
 20
18.57312780629999
 10
35.62492177159999
 20
18.6000272169
 10
35.62491381040003
 20
18.60489164449998
1001
ACAD
1000
RTMaterial
1005
0
  0
LWPOLYLINE
  5
61232
330
1F
100
AcDbEntity
  8
cut
100
AcDbPolyline
 90
       10
 70
     0
 43
0.0
 10
48.27387798920001
 20
11.31079055410001
 10
48.25484015889998
 20
11.29948738909999
 10
48.2353624625
 20
11.288485119
 10
48.2154449002
 20
11.2777837438
 10
48.19507851060002
 20
11.26737278180002
 10
48.17427225500001
 20
11.2572627147
 10
48.15305301760004
 20
11.24748498760002
 10
48.13142975990004
 20
11.23805008249999
 10
48.10939352039998
 20
11.2289475174
 10
48.08694429920002
 20
11.22017729239999
1001
ACAD
1000
RTMaterial
1005
0
  0
LINE
  5
61233
330
1F
100
AcDbEntity
  8
nocut
100
AcDbLine
 10
40.3948128582
 20
23.8764955947
 30
0.0
 11
41.6717057134
 21
23.55994986120002
 31
0.0
1001
ACAD
1000
RTMaterial
1005
0
  0
LINE
  5
6123E
330
1F
100
AcDbEntity
  8
cut
100
AcDbLine
 10
49.77044424090003
 20
14.1218740656
 30
0.0
 11
49.56541836100002
 21
13.67616043869998
 31
0.0
1001
ACAD
1000
RTMaterial
1005
0
  0
LINE
  5
6123F
330
1F
100
AcDbEntity
  8
cut
100
AcDbLine
 10
49.56541836100002
 20
13.67616043869998
 30
0.0
 11
49.38825679429999
 21
13.2927577177
 31
0.0
1001
ACAD
1000
RTMaterial
1005
0
  0
LINE
  5
61240
330
1F
100
AcDbEntity
  8
cut
100
AcDbLine
 10
50.40699605550003
 20
15.5117454649
 30
0.0
 11
49.77044424090003
 21
14.1218740656
 31
0.0
1001
ACAD
1000
RTMaterial
1005
0
  0
LINE
  5
61241
330
1F
100
AcDbEntity
  8
cut
100
AcDbLine
 10
49.38825679429999
 20
13.2927577177
 30
0.0
 11
49.23926721240004
 21
12.97168662850001
 31
0.0
1001
ACAD
1000
RTMaterial
1005
0
  0
LINE
  5
61242
330
1F
100
AcDbEntity
  8
cut
100
AcDbLine
 10
49.23926721240004
 20
12.97168662850001
 30
0.0
 11
49.07388660499999
 21
12.61688391140001
 31
0.0
1001
ACAD
1000
RTMaterial
1005
0
  0
LINE
  5
61243
330
1F
100
AcDbEntity
  8
cut
100
AcDbLine
 10
50.55564474350003
 20
15.83024860500001
 30
0.0
 11
50.40699605550003
 21
15.5117454649
 31
0.0
1001
ACAD
1000
RTMaterial
1005
0
  0
LINE
  5
61244
330
1F
100
AcDbEntity
  8
cut
100
AcDbLine
 10
49.07388660499999
 20
12.61688391140001
 30
0.0
 11
48.90916410839999
 21
12.26528296969999
 31
0.0
1001
ACAD
1000
RTMaterial
1005
0
  0
LINE
  5
61245
330
1F
100
AcDbEntity
  8
cut
100
AcDbLine
 10
48.90916410839999
 20
12.26528296969999
 30
0.0
 11
48.77565143020002
 21
11.98171858680001
 31
0.0
1001
ACAD
1000
RTMaterial
1005
0
  0
LINE
  5
61246
330
1F
100
AcDbEntity
  8
cut
100
AcDbLine
 10
48.77565143020002
 20
11.98171858680001
 30
0.0
 11
48.67613676670003
 21
11.77124974449998
 31
0.0
1001
ACAD
1000
RTMaterial
1005
0
  0
LINE
  5
61247
330
1F
100
AcDbEntity
  8
cut
100
AcDbLine
 10
50.6841326604
 20
16.1025313504
 30
0.0
 11
50.55564474350003
 21
15.83024860500001
 31
0.0
1001
ACAD
1000
RTMaterial
1005
0
  0
LWPOLYLINE
  5
61248
330
1F
100
AcDbEntity
  8
cut
100
AcDbPolyline
 90
       25
 70
     0
 43
0.0
 10
48.67613676760004
 20
11.77124974629998
 10
48.66472235700002
 20
11.74775406579999
 10
48.65285041859999
 20
11.7245627849
 10
48.64052095249999
 20
11.70167590350001
 10
48.62773809409999
 20
11.6790836111
 10
48.61449770800005
 20
11.65679571840002
 10
48.60078738729999
 20
11.63484165709999
 10
48.58660720350003
 20
11.61321606379999
 10
48.5719570851
 20
11.59192430199999
 10
48.55682441160002
 20
11.57101189459999
 10
48.54120545929999
 20
11.55048259930001
 10
48.52510395180003
 20
11.5303326584
 10
48.50851843960004
 20
11.51059632179999
 10
48.49143878019999
 20
11.49126768970001
 10
48.47387511609998
 20
11.47235266180001
 10
48.45585642499997
 20
11.45390318709999
 10
48.4373915831
 20
11.4359202805
 10
48.4184717142
 20
11.41840292699999
 10
48.39909916789999
 20
11.40140003159999
 10
48.37925563030001
 20
11.38490913789999
 10
48.35895941530004
 20
11.3689327022
 10
48.33826781359999
 20
11.35352699809999
 10
48.31719992210004
 20
11.33871078320001
 10
48.29573664399999
 20
11.3244652999
 10
48.27387797910001
 20
11.310790548
1001
ACAD
1000
RTMaterial
1005
0
  0
LINE
  5
6124A
330
1F
100
AcDbEntity
  8
nocut
100
AcDbLine
 10
49.50000000000001
 20
18.16375986730003
 30
0.0
 11
49.50000000000001
 21
-0.0000000000000142
 31
0.0
1001
ACAD
1000
RTMaterial
1005
0
  0
LWPOLYLINE
  5
6124C
330
1F
100
AcDbEntity
  8
cut
100
AcDbPolyline
 90
        7
 70
     0
 43
0.0
 10
50.77199999980003
 20
16.41439246050001
 10
50.77082440890002
 20
16.40519406539999
 10
50.76955633490002
 20
16.3959619602
 10
50.76819577780003
 20
16.38669614490001
 10
50.76674273740003
 20
16.37739661969999
 10
50.76519721400003
 20
16.3680633843
 10
50.76355920729998
 20
16.358696439
1001
ACAD
1000
RTMaterial
1005
0
  0
LWPOLYLINE
  5
6124D
330
1F
100
AcDbEntity
  8
cut
100
AcDbPolyline
 90
       10
 70
     0
 43
0.0
 10
50.76355920840001
 20
16.35869644510001
 10
50.75804727320003
 20
16.33019177600002
 10
50.75170599379999
 20
16.30167683740001
 10
50.74453537020003
 20
16.2731516291
 10
50.73653402270004
 20
16.24458849869998
 10
50.72770333090002
 20
16.21601509869998
 10
50.71804743420001
 20
16.18751438680002
 10
50.70756771240002
 20
16.15911401540001
 10
50.69626278580001
 20
16.13078633199998
 10
50.68413265430002
 20
16.10253133669999
1001
ACAD
1000
RTMaterial
1005
0
  0
LINE
  5
6124E
330
1F
100
AcDbEntity
  8
nocut
100
AcDbLine
 10
48.03464458659998
 20
23.0961512758
 30
0.0
 11
49.50000000000001
 21
18.16375986730003
 31
0.0
1001
ACAD
1000
RTMaterial
1005
0
  0
LINE
  5
6124F
330
1F
100
AcDbEntity
  8
cut
100
AcDbLine
 10
50.79999999990004
 20
17.7812112087
 30
0.0
 11
50.80142266370001
 21
17.6907029793
 31
0.0
1001
ACAD
1000
RTMaterial
1005
0
  0
LINE
  5
61250
330
1F
100
AcDbEntity
  8
cut
100
AcDbLine
 10
50.80140733270003
 20
17.69185637070001
 30
0.0
 11
50.802330827
 21
17.60484767789998
 31
0.0
1001
ACAD
1000
RTMaterial
1005
0
  0
LINE
  5
61251
330
1F
100
AcDbEntity
  8
cut
100
AcDbLine
 10
50.8022945327
 20
17.60921286550001
 30
0.0
 11
50.80282192670001
 21
17.51900296010001
 31
0.0
1001
ACAD
1000
RTMaterial
1005
0
  0
LINE
  5
61256
330
1F
100
AcDbEntity
  8
cut
100
AcDbLine
 10
50.80279343120004
 20
17.52714752400001
 30
0.0
 11
50.80279421492029
 21
17.4118029913064
 31
0.0
1001
ACAD
1000
RTMaterial
1005
0
  0
LINE
  5
61257
330
1F
100
AcDbEntity
  8
cut
100
AcDbLine
 10
50.80279421492029
 20
17.41180299130458
 30
0.0
 11
50.80251286870002
 21
17.34638447719999
 31
0.0
1001
ACAD
1000
RTMaterial
1005
0
  0
LINE
  5
61258
330
1F
100
AcDbEntity
  8
cut
100
AcDbLine
 10
50.80251286870002
 20
17.34638447719999
 30
0.0
 11
50.80170694359999
 21
17.2593966819
 31
0.0
1001
ACAD
1000
RTMaterial
1005
0
  0
LINE
  5
61259
330
1F
100
AcDbEntity
  8
cut
100
AcDbLine
 10
50.80170694359999
 20
17.2593966819
 30
0.0
 11
50.80047178910003
 21
17.17188174280002
 31
0.0
1001
ACAD
1000
RTMaterial
1005
0
  0
LINE
  5
6125A
330
1F
100
AcDbEntity
  8
cut
100
AcDbLine
 10
50.80047178910003
 20
17.17188174280002
 30
0.0
 11
50.7988077146
 21
17.0837675619
 31
0.0
1001
ACAD
1000
RTMaterial
1005
0
  0
LINE
  5
6125B
330
1F
100
AcDbEntity
  8
cut
100
AcDbLine
 10
50.7988077146
 20
17.0837675619
 30
0.0
 11
50.79671147700004
 21
16.99522474510002
 31
0.0
1001
ACAD
1000
RTMaterial
1005
0
  0
LINE
  5
6125C
330
1F
100
AcDbEntity
  8
cut
100
AcDbLine
 10
50.79671147700004
 20
16.99522474510002
 30
0.0
 11
50.79418880999998
 21
16.90685621469998
 31
0.0
1001
ACAD
1000
RTMaterial
1005
0
  0
LINE
  5
6125D
330
1F
100
AcDbEntity
  8
cut
100
AcDbLine
 10
50.79418880999998
 20
16.90685621469998
 30
0.0
 11
50.79125190400003
 21
16.81915382380001
 31
0.0
1001
ACAD
1000
RTMaterial
1005
0
  0
LINE
  5
6125E
330
1F
100
AcDbEntity
  8
cut
100
AcDbLine
 10
50.79125190400003
 20
16.81915382380001
 30
0.0
 11
50.78791332729998
 21
16.73234793190002
 31
0.0
1001
ACAD
1000
RTMaterial
1005
0
  0
LINE
  5
6125F
330
1F
100
AcDbEntity
  8
cut
100
AcDbLine
 10
50.78791332729998
 20
16.73234793190002
 30
0.0
 11
50.7841738825
 21
16.64631577220001
 31
0.0
1001
ACAD
1000
RTMaterial
1005
0
  0
LINE
  5
61260
330
1F
100
AcDbEntity
  8
cut
100
AcDbLine
 10
50.7841738825
 20
16.64631577220001
 30
0.0
 11
50.78003232750002
 21
16.5606830808
 31
0.0
1001
ACAD
1000
RTMaterial
1005
0
  0
LINE
  5
61261
330
1F
100
AcDbEntity
  8
cut
100
AcDbLine
 10
50.78003232750002
 20
16.5606830808
 30
0.0
 11
50.77546178519996
 21
16.474729494
 31
0.0
1001
ACAD
1000
RTMaterial
1005
0
  0
LINE
  5
61262
330
1F
100
AcDbEntity
  8
cut
100
AcDbLine
 10
50.77546178519996
 20
16.474729494
 30
0.0
 11
50.77199999980003
 21
16.4143924606
 31
0.0
1001
ACAD
1000
RTMaterial
1005
0
  0
LINE
  5
61263
330
1F
100
AcDbEntity
  8
cut
100
AcDbLine
 10
50.7360490277
 20
18.17788594640001
 30
0.0
 11
48.85254269829999
 21
24.33855755600002
 31
0.0
1001
ACAD
1000
RTMaterial
1005
0
  0
LWPOLYLINE
  5
61264
330
1F
100
AcDbEntity
  8
cut
100
AcDbPolyline
 90
       10
 70
     0
 43
0.0
 10
50.73604902739997
 20
18.17788594749998
 10
50.74863996510003
 20
18.13452151620001
 10
50.75986676380001
 20
18.09094260969999
 10
50.7697294235
 20
18.04714922810001
 10
50.7782375168
 20
18.003092251
 10
50.78538147109997
 20
17.95882079879999
 10
50.79113256839997
 20
17.91448223239999
 10
50.795481236
 20
17.870125672
 10
50.7984370464
 20
17.82570199739999
 10
50.79999999990004
 20
17.78121120859998
1001
ACAD
1000
RTMaterial
1005
0
  0
ARC
  5
61265
330
1F
100
AcDbEntity
  8
1
100
AcDbCircle
 10
19.84669712449999
 20
50.9515599827
 30
0.0
 40
30.0
100
AcDbArc
 50
260.0000000000014
 51
285.0000000000012
1001
ACAD
1000
RTMaterial
1005
0
  0
ARC
  5
61266
330
1F
100
AcDbEntity
  8
1
100
AcDbCircle
 10
19.84669712449999
 20
-50.95155998260003
 30
0.0
 40
30.0
100
AcDbArc
 50
74.99999999999878
 51
99.99999999999857
1001
ACAD
1000
RTMaterial
1005
0
  0
ARC
  5
61267
330
1F
100
AcDbEntity
  8
1
100
AcDbCircle
 10
29.75668696299999
 20
24.30945467949999
 30
0.0
 40
13.0
100
AcDbArc
 50
230.5985140075999
 51
266.7274414795015
1001
ACAD
1000
RTMaterial
1005
0
  0
ARC
  5
61268
330
1F
100
AcDbEntity
  8
1
100
AcDbCircle
 10
41.8920777898
 20
0.5779957786999717
 30
0.0
 40
10.0
100
AcDbArc
 50
78.72744147950093
 51
86.72744147950147
1001
ACAD
1000
RTMaterial
1005
0
  0
ARC
  5
61269
330
1F
100
AcDbEntity
  8
1
100
AcDbCircle
 10
36.11652497580003
 20
13.89999999999998
 30
0.0
 40
10.0
100
AcDbArc
 50
90.0
 51
105.0000000000012
1001
ACAD
1000
RTMaterial
1005
0
  0
ARC
  5
6126A
330
1F
100
AcDbEntity
  8
1
100
AcDbCircle
 10
36.11652497580003
 20
-13.9
 30
0.0
 40
10.0
100
AcDbArc
 50
254.9999999999988
 51
270.0
1001
ACAD
1000
RTMaterial
1005
0
  0
ARC
  5
6126B
330
1F
100
AcDbEntity
  8
1
100
AcDbCircle
 10
26.90030946920001
 20
20.83222767910001
 30
0.0
 40
8.5
100
AcDbArc
 50
222.8890599924985
 51
230.5985140075999
1001
ACAD
1000
RTMaterial
1005
0
  0
ARC
  5
6126C
330
1F
100
AcDbEntity
  8
1
100
AcDbCircle
 10
9.562556682299998
 20
17.22500000000002
 30
0.0
 40
5.0
100
AcDbArc
 50
80.00000000000147
 51
90.0
1001
ACAD
1000
RTMaterial
1005
0
  0
ARC
  5
6126D
330
1F
100
AcDbEntity
  8
1
100
AcDbCircle
 10
9.562556682299998
 20
-17.22499999999999
 30
0.0
 40
5.0
100
AcDbArc
 50
270.0
 51
279.9999999999986
1001
ACAD
1000
RTMaterial
1005
0
  0
ARC
  5
6126E
330
1F
100
AcDbEntity
  8
1
100
AcDbCircle
 10
1.5
 20
20.72500000000002
 30
0.0
 40
1.5
100
AcDbArc
 50
90.0
 51
180.0
1001
ACAD
1000
RTMaterial
1005
0
  0
ARC
  5
6126F
330
1F
100
AcDbEntity
  8
1
100
AcDbCircle
 10
1.5
 20
-20.72499999999999
 30
0.0
 40
1.5
100
AcDbArc
 50
180.0
 51
270.0
1001
ACAD
1000
RTMaterial
1005
0
  0
ARC
  5
61270
330
1F
100
AcDbEntity
  8
1
100
AcDbCircle
 10
46.88433528759996
 20
-22.75440792790002
 30
0.0
 40
1.199999999999999
100
AcDbArc
 50
265.1595598184987
 51
343.4539353735004
1001
ACAD
1000
RTMaterial
1005
0
  0
ARC
  5
61271
330
1F
100
AcDbEntity
  8
1
100
AcDbCircle
 10
40.20231717080003
 20
-23.1
 30
0.0
 40
0.8
100
AcDbArc
 50
270.0
 51
283.9231130791995
1001
ACAD
1000
RTMaterial
1005
0
  0
ARC
  5
61272
330
1F
100
AcDbEntity
  8
1
100
AcDbCircle
 10
41.8642014008
 20
-24.33644545810004
 30
0.0
 40
0.8
100
AcDbArc
 50
85.15955981849867
 51
103.9231130791995
1001
ACAD
1000
RTMaterial
1005
0
  0
ARC
  5
61273
330
1F
100
AcDbEntity
  8
nocut
100
AcDbCircle
 10
19.8466971245
 20
50.9515599815
 30
0.0
 40
30.0
100
AcDbArc
 50
260.0000000000013
 51
285.0000000000012
1001
ACAD
1000
RTMaterial
1005
0
  0
ARC
  5
61275
330
1F
100
AcDbEntity
  8
nocut
100
AcDbCircle
 10
36.11652497580003
 20
13.8999999989
 30
0.0
 40
10.0
100
AcDbArc
 50
90.0
 51
105.0000000000011
1001
ACAD
1000
RTMaterial
1005
0
  0
ARC
  5
61276
330
1F
100
AcDbEntity
  8
nocut
100
AcDbCircle
 10
9.562556682300003
 20
17.22499999890002
 30
0.0
 40
5.0
100
AcDbArc
 50
80.0000000000014
 51
90.0
1001
ACAD
1000
RTMaterial
1005
0
  0
ARC
  5
61277
330
1F
100
AcDbEntity
  8
cut
100
AcDbCircle
 10
47.41808556440004
 20
23.89999999890003
 30
0.0
 40
1.5
100
AcDbArc
 50
16.99999999999936
 51
95.18845144070004
1001
ACAD
1000
RTMaterial
1005
0
  0
ARC
  5
61278
330
1F
100
AcDbEntity
  8
nocut
100
AcDbCircle
 10
1.500000000000006
 20
20.72499999890002
 30
0.0
 40
1.5
100
AcDbArc
 50
90.0
 51
180.0
1001
ACAD
1000
RTMaterial
1005
0
  0
ARC
  5
61279
330
1F
100
AcDbEntity
  8
nocut
100
AcDbCircle
 10
46.88433528760003
 20
22.75440792679999
 30
0.0
 40
1.199999999999999
100
AcDbArc
 50
16.54606462649925
 51
94.84044018150134
1001
ACAD
1000
RTMaterial
1005
0
  0
ARC
  5
6127C
330
1F
100
AcDbEntity
  8
nocut
100
AcDbCircle
 10
41.86420140080003
 20
24.336445457
 30
0.0
 40
0.8
100
AcDbArc
 50
256.0768869208004
 51
274.8404401815013
1001
ACAD
1000
RTMaterial
1005
0
  0
ARC
  5
6127E
330
1F
100
AcDbEntity
  8
nocut
100
AcDbCircle
 10
40.20231717080004
 20
23.09999999890002
 30
0.0
 40
0.8
100
AcDbArc
 50
76.07688692080046
 51
90.0
1001
ACAD
1000
RTMaterial
1005
0
  0
SPLINE
  5
61281
330
1F
100
AcDbEntity
  8
1
100
AcDbSpline
210
0.0
220
0.0
230
1.0
 70
     8
 71
     3
 72
    15
 73
    11
 74
     0
 42
0.0000000001
 43
0.0000000001
 40
0.0
 40
0.0
 40
0.0
 40
0.0
 40
0.1244514776
 40
0.2490242518
 40
0.3738114271
 40
0.498843241
 40
0.6240830983
 40
0.7494406878000001
 40
0.8747773967
 40
1.0
 40
1.0
 40
1.0
 40
1.0
 10
42.79359707100002
 20
18.9958404436
 30
0.0
 10
42.76474873310002
 20
18.99583744929998
 30
0.0
 10
42.70672972239998
 20
18.98806469470003
 30
0.0
 10
42.62603048919999
 20
18.95389147329996
 30
0.0
 10
42.5569866733
 20
18.899619153
 30
0.0
 10
42.50449260699997
 20
18.82904414149999
 30
0.0
 10
42.47216830909997
 20
18.74710576159998
 30
0.0
 10
42.4622742802
 20
18.6594997775
 30
0.0
 10
42.4754384495
 20
18.57238537749998
 30
0.0
 10
42.49911189400001
 20
18.51847518139999
 30
0.0
 10
42.5141746003
 20
18.4936621461
 30
0.0
1001
ACAD
1000
RTMaterial
1005
0
  0
SPLINE
  5
61282
330
1F
100
AcDbEntity
  8
1
100
AcDbSpline
210
0.0
220
0.0
230
1.0
 70
     8
 71
     3
 72
     9
 73
     5
 74
     0
 42
0.0000000001
 43
0.0000000001
 40
0.0
 40
0.0
 40
0.0
 40
0.0
 40
0.5000881161999999
 40
1.0
 40
1.0
 40
1.0
 40
1.0
 10
42.8532493541
 20
20.8551990126
 30
0.0
 10
43.01242406879999
 20
20.90332125129998
 30
0.0
 10
43.33821727769995
 20
20.97629901290003
 30
0.0
 10
43.67118922679996
 20
21.00076361710002
 30
0.0
 10
43.83742055219999
 20
21.00075964389998
 30
0.0
1001
ACAD
1000
RTMaterial
1005
0
  0
SPLINE
  5
61283
330
1F
100
AcDbEntity
  8
1
100
AcDbSpline
210
0.0
220
0.0
230
1.0
 70
     8
 71
     3
 72
    17
 73
    13
 74
     0
 42
0.0000000001
 43
0.0000000001
 40
0.0
 40
0.0
 40
0.0
 40
0.0
 40
0.1247598381
 40
0.1874434034
 40
0.2502024794
 40
0.375444085
 40
0.5007119698000003
 40
0.5634992445
 40
0.6262282174
 40
0.7510631868000001
 40
0.8756079038999999
 40
1.0
 40
1.0
 40
1.0
 40
1.0
 10
42.24904986539995
 20
17.36342568980001
 30
0.0
 10
42.21922478359998
 20
17.3446813187
 30
0.0
 10
42.1786435898
 20
17.30884679500002
 30
0.0
 10
42.13833816329997
 20
17.25055981649996
 30
0.0
 10
42.10772343579995
 20
17.18643361839997
 30
0.0
 10
42.08942337659999
 20
17.09823887669995
 30
0.0
 10
42.09994334830002
 20
17.00877119839998
 30
0.0
 10
42.12481748409999
 20
16.9421881458
 30
0.0
 10
42.15990317210002
 20
16.8805225584
 30
0.0
 10
42.22169974389998
 20
16.81535387709999
 30
0.0
 10
42.31646023569999
 20
16.76503897059996
 30
0.0
 10
42.38728203089999
 20
16.75343996800001
 30
0.0
 10
42.42240442309998
 20
16.75343503070002
 30
0.0
1001
ACAD
1000
RTMaterial
1005
0
  0
SPLINE
  5
61284
330
1F
100
AcDbEntity
  8
1
100
AcDbSpline
210
0.0
220
0.0
230
1.0
 70
     8
 71
     3
 72
    15
 73
    11
 74
     0
 42
0.0000000001
 43
0.0000000001
 40
0.0
 40
0.0
 40
0.0
 40
0.0
 40
0.1254633772
 40
0.250841004
 40
0.3760926194
 40
0.5011746346
 40
0.6260782249
 40
0.7508206170000003
 40
0.87542962
 40
1.0
 40
1.0
 40
1.0
 40
1.0
 10
43.26964926229999
 20
15.95709279700003
 30
0.0
 10
43.26786336610001
 20
16.00978919939996
 30
0.0
 10
43.25419862069998
 20
16.11508032419999
 30
0.0
 10
43.20418515630001
 20
16.26598100249998
 30
0.0
 10
43.12649429839995
 20
16.40456085739998
 30
0.0
 10
43.02396339909999
 20
16.52564578489995
 30
0.0
 10
42.90036839219999
 20
16.62480229819999
 30
0.0
 10
42.7602271563
 20
16.69835837439996
 30
0.0
 10
42.6087674478
 20
16.74362418239997
 30
0.0
 10
42.50376608119998
 20
16.75379907889999
 30
0.0
 10
42.45141471229999
 20
16.75380329960001
 30
0.0
1001
ACAD
1000
RTMaterial
1005
0
  0
SPLINE
  5
61285
330
1F
100
AcDbEntity
  8
1
100
AcDbSpline
210
0.0
220
0.0
230
1.0
 70
     8
 71
     3
 72
    11
 73
     7
 74
     0
 42
0.0000000001
 43
0.0000000001
 40
0.0
 40
0.0
 40
0.0
 40
0.0
 40
0.2508681339
 40
0.501205806
 40
0.7508463498000002
 40
1.0
 40
1.0
 40
1.0
 40
1.0
 10
43.26964926229999
 20
15.95709279700003
 30
0.0
 10
43.27107130089996
 20
15.91513273020001
 30
0.0
 10
43.29019143569996
 20
15.83098110669999
 30
0.0
 10
43.36360958350002
 20
15.7253146589
 30
0.0
 10
43.47094188949998
 20
15.65482367890001
 30
0.0
 10
43.55530149629998
 20
15.6383520645
 30
0.0
 10
43.5969987245
 20
15.63835415119996
 30
0.0
1001
ACAD
1000
RTMaterial
1005
0
  0
SPLINE
  5
61286
330
1F
100
AcDbEntity
  8
1
100
AcDbSpline
210
0.0
220
0.0
230
1.0
 70
     8
 71
     3
 72
     9
 73
     5
 74
     0
 42
0.0000000001
 43
0.0000000001
 40
0.0
 40
0.0
 40
0.0
 40
0.0
 40
0.5002345653
 40
1.0
 40
1.0
 40
1.0
 40
1.0
 10
44.98879078100003
 20
16.14442902720003
 30
0.0
 10
44.93002955510002
 20
16.17596644299999
 30
0.0
 10
44.80432541800001
 20
16.22475602909998
 30
0.0
 10
44.67049587999997
 20
16.24127638809994
 30
0.0
 10
44.60386891659998
 20
16.24128015759999
 30
0.0
1001
ACAD
1000
RTMaterial
1005
0
  0
SPLINE
  5
61287
330
1F
100
AcDbEntity
  8
1
100
AcDbSpline
210
0.0
220
0.0
230
1.0
 70
     8
 71
     3
 72
     9
 73
     5
 74
     0
 42
0.0000000001
 43
0.0000000001
 40
0.0
 40
0.0
 40
0.0
 40
0.0
 40
0.5002415732
 40
1.0
 40
1.0
 40
1.0
 40
1.0
 10
44.98879078100003
 20
16.14442902720003
 30
0.0
 10
45.01229958779997
 20
16.13181174430002
 30
0.0
 10
45.06258944720001
 20
16.11229320759997
 30
0.0
 10
45.11613076479999
 20
16.10568062989995
 30
0.0
 10
45.1427856972
 20
16.10568339649995
 30
0.0
1001
ACAD
1000
RTMaterial
1005
0
  0
SPLINE
  5
61288
330
1F
100
AcDbEntity
  8
1
100
AcDbSpline
210
0.0
220
0.0
230
1.0
 70
     8
 71
     3
 72
    15
 73
    11
 74
     0
 42
0.0000000001
 43
0.0000000001
 40
0.0
 40
0.0
 40
0.0
 40
0.0
 40
0.1246152977
 40
0.2494026061
 40
0.3743679102000001
 40
0.499467338
 40
0.6246475461
 40
0.7498431609000003
 40
0.8749758731
 40
1.0
 40
1.0
 40
1.0
 40
1.0
 10
42.24904986539995
 20
17.36342568980001
 30
0.0
 10
42.29421928779999
 20
17.39181362239998
 30
0.0
 10
42.37927322729996
 20
17.457686158
 30
0.0
 10
42.48513561409999
 20
17.57931023909998
 30
0.0
 10
42.56561443939999
 20
17.71933577440001
 30
0.0
 10
42.61758415999998
 20
17.8724105869
 30
0.0
 10
42.63910756210004
 20
18.03272503559998
 30
0.0
 10
42.6293452735
 20
18.19421064459999
 30
0.0
 10
42.5887212833
 20
18.35067892569998
 30
0.0
 10
42.54194940489997
 20
18.44790826959996
 30
0.0
 10
42.5141746003
 20
18.4936621461
 30
0.0
1001
ACAD
1000
RTMaterial
1005
0
  0
SPLINE
  5
61289
330
1F
100
AcDbEntity
  8
1
100
AcDbSpline
210
0.0
220
0.0
230
1.0
 70
     8
 71
     3
 72
    11
 73
     7
 74
     0
 42
0.0000000001
 43
0.0000000001
 40
0.0
 40
0.0
 40
0.0
 40
0.0
 40
0.249467058
 40
0.4991880220000002
 40
0.7493383976000001
 40
1.0
 40
1.0
 40
1.0
 40
1.0
 10
43.33251385159996
 20
18.86024368249997
 30
0.0
 10
43.40547760679998
 20
18.86023955439998
 30
0.0
 10
43.55223685499999
 20
18.88015113220001
 30
0.0
 10
43.75600695909997
 20
18.96760286059998
 30
0.0
 10
43.9295378534
 20
19.10619255709997
 30
0.0
 10
44.01683600040001
 20
19.2263760491
 30
0.0
 10
44.05167191089996
 20
19.29088399379998
 30
0.0
1001
ACAD
1000
RTMaterial
1005
0
  0
SPLINE
  5
6128A
330
1F
100
AcDbEntity
  8
1
100
AcDbSpline
210
0.0
220
0.0
230
1.0
 70
     8
 71
     3
 72
    27
 73
    23
 74
     0
 42
0.0000000001
 43
0.0000000001
 40
0.0
 40
0.0
 40
0.0
 40
0.0
 40
0.062294034
 40
0.0934940525
 40
0.1247142261
 40
0.1871537106
 40
0.2496755421
 40
0.2809961991
 40
0.3123338451
 40
0.3749884616
 40
0.4376768220000001
 40
0.5003705172
 40
0.5630404831
 40
0.6256606482000004
 40
0.6882110874
 40
0.7194872326999999
 40
0.7507425555000001
 40
0.8131301215
 40
0.8754449565999998
 40
0.9066118813
 40
0.9377680168999999
 40
1.0
 40
1.0
 40
1.0
 40
1.0
 10
42.8532493541
 20
20.8551990126
 30
0.0
 10
42.65867778069996
 20
20.79637547570002
 30
0.0
 10
42.37374354159999
 20
20.68148758119997
 30
0.0
 10
42.01975254909996
 20
20.47996135529996
 30
0.0
 10
41.6846327934
 20
20.24738094509996
 30
0.0
 10
41.30636083280001
 20
19.90160069040001
 30
0.0
 10
40.99521218450002
 20
19.49396165999997
 30
0.0
 10
40.79240343330002
 20
19.13885600880002
 30
0.0
 10
40.62161578679996
 20
18.7668191276
 30
0.0
 10
40.47090772149998
 20
18.27523662419998
 30
0.0
 10
40.39680011099999
 20
17.66299555439997
 30
0.0
 10
40.4314666546
 20
17.04712835959998
 30
0.0
 10
40.57390943339997
 20
16.44718200739999
 30
0.0
 10
40.81953128060002
 20
15.88218262859999
 30
0.0
 10
41.10414720149996
 20
15.4548742266
 30
0.0
 10
41.37389713409999
 20
15.14795274029995
 30
0.0
 10
41.66944505909998
 20
14.86654721450003
 30
0.0
 10
42.08380717179999
 20
14.56617641419996
 30
0.0
 10
42.54477773339996
 20
14.34451325829997
 30
0.0
 10
42.93208686550002
 20
14.21880552380003
 30
0.0
 10
43.32870473690002
 20
14.12827359459999
 30
0.0
 10
43.6343539806
 20
14.10076904989995
 30
0.0
 10
43.83742055229999
 20
14.10076419619997
 30
0.0
1001
ACAD
1000
RTMaterial
1005
0
  0
SPLINE
  5
6128B
330
1F
100
AcDbEntity
  8
1
100
AcDbSpline
210
0.0
220
0.0
230
1.0
 70
     8
 71
     3
 72
    11
 73
     7
 74
     0
 42
0.0000000001
 43
0.0000000001
 40
0.0
 40
0.0
 40
0.0
 40
0.0
 40
0.2494663652
 40
0.4991917696
 40
0.7493306180000002
 40
1.0
 40
1.0
 40
1.0
 40
1.0
 10
44.33938404370002
 20
19.46316968889999
 30
0.0
 10
44.31019371679997
 20
19.46316822809996
 30
0.0
 10
44.25147927159996
 20
19.45520689759996
 30
0.0
 10
44.16996093779999
 20
19.42021413269998
 30
0.0
 10
44.10053267159997
 20
19.364775071
 30
0.0
 10
44.06560904989999
 20
19.31669231
 30
0.0
 10
44.05167191089996
 20
19.29088399379998
 30
0.0
1001
ACAD
1000
RTMaterial
1005
0
  0
SPLINE
  5
6128C
330
1F
100
AcDbEntity
  8
1
100
AcDbSpline
210
0.0
220
0.0
230
1.0
 70
     8
 71
     3
 72
    27
 73
    23
 74
     0
 42
0.0000000001
 43
0.0000000001
 40
0.0
 40
0.0
 40
0.0
 40
0.0
 40
0.0622319831
 40
0.0933881187
 40
0.1245550434
 40
0.1868698785
 40
0.2492574445
 40
0.2805127673
 40
0.3117889126
 40
0.3743393518
 40
0.4369595169
 40
0.4996294828
 40
0.562323178
 40
0.6250115384
 40
0.6876661549
 40
0.7190038009000001
 40
0.7503244579000004
 40
0.8128462893999998
 40
0.8752857738999999
 40
0.9065059474999999
 40
0.9377059659999995
 40
1.0
 40
1.0
 40
1.0
 40
1.0
 10
43.91944364670002
 20
21.00075964389998
 30
0.0
 10
44.12251021849999
 20
21.0007547902
 30
0.0
 10
44.42815946219996
 20
20.97325024549997
 30
0.0
 10
44.82477733350004
 20
20.88271831629999
 30
0.0
 10
45.2120864656
 20
20.75701058179999
 30
0.0
 10
45.6730570272
 20
20.5353474259
 30
0.0
 10
46.08741913990002
 20
20.23497662559998
 30
0.0
 10
46.38296706490002
 20
19.9535710998
 30
0.0
 10
46.65271699749996
 20
19.64664961349996
 30
0.0
 10
46.93733291839999
 20
19.21934121149996
 30
0.0
 10
47.1829547656
 20
18.65434183270003
 30
0.0
 10
47.32539754449997
 20
18.05439548039998
 30
0.0
 10
47.360064088
 20
17.43852828559994
 30
0.0
 10
47.2859564775
 20
16.82628721589998
 30
0.0
 10
47.13524841219999
 20
16.33470471250001
 30
0.0
 10
46.96446076569997
 20
15.96266783129999
 30
0.0
 10
46.76165201449999
 20
15.60756218009999
 30
0.0
 10
46.45050336619997
 20
15.1999231497
 30
0.0
 10
46.07223140569999
 20
14.85414289499999
 30
0.0
 10
45.73711164989997
 20
14.62156248479999
 30
0.0
 10
45.3831206574
 20
14.42003625889998
 30
0.0
 10
45.09818641830003
 20
14.30514836439999
 30
0.0
 10
44.90361484490001
 20
14.24632482750002
 30
0.0
1001
ACAD
1000
RTMaterial
1005
0
  0
SPLINE
  5
6128D
330
1F
100
AcDbEntity
  8
1
100
AcDbSpline
210
0.0
220
0.0
230
1.0
 70
     8
 71
     3
 72
     9
 73
     5
 74
     0
 42
0.0000000001
 43
0.0000000001
 40
0.0
 40
0.0
 40
0.0
 40
0.0
 40
0.4999118838000002
 40
1.0
 40
1.0
 40
1.0
 40
1.0
 10
43.9194436468
 20
14.10076419619997
 30
0.0
 10
44.08567497220002
 20
14.10076022300001
 30
0.0
 10
44.41864692130002
 20
14.12522482719998
 30
0.0
 10
44.74444013020002
 20
14.19820258880003
 30
0.0
 10
44.90361484490001
 20
14.24632482750002
 30
0.0
1001
ACAD
1000
RTMaterial
1005
0
  0
SPLINE
  5
6128E
330
1F
100
AcDbEntity
  8
1
100
AcDbSpline
210
0.0
220
0.0
230
1.0
 70
     8
 71
     3
 72
     9
 73
     5
 74
     0
 42
0.0000000001
 43
0.0000000001
 40
0.0
 40
0.0
 40
0.0
 40
0.0
 40
0.4997570725
 40
1.0
 40
1.0
 40
1.0
 40
1.0
 10
43.11314903179999
 20
18.86024708819997
 30
0.0
 10
43.04652322839996
 20
18.86024773409997
 30
0.0
 10
42.91269297190001
 20
18.87676630229998
 30
0.0
 10
42.78698933740002
 20
18.92555689139999
 30
0.0
 10
42.7282271692
 20
18.95709481289998
 30
0.0
1001
ACAD
1000
RTMaterial
1005
0
  0
SPLINE
  5
6128F
330
1F
100
AcDbEntity
  8
1
100
AcDbSpline
210
0.0
220
0.0
230
1.0
 70
     8
 71
     3
 72
    27
 73
    23
 74
     0
 42
0.0000000001
 43
0.0000000001
 40
0.0
 40
0.0
 40
0.0
 40
0.0
 40
0.062294034
 40
0.0934940525
 40
0.1247142261
 40
0.1871537106
 40
0.2496755421
 40
0.2809961991
 40
0.3123338451
 40
0.3749884616
 40
0.4376768220000001
 40
0.5003705172
 40
0.5630404831
 40
0.6256606482000004
 40
0.6882110874
 40
0.7194872326999999
 40
0.7507425555000001
 40
0.8131301215
 40
0.8754449565999998
 40
0.9066118813
 40
0.9377680168999999
 40
1.0
 40
1.0
 40
1.0
 40
1.0
 10
42.9352724486
 20
20.8551990126
 30
0.0
 10
42.74070087519999
 20
20.79637547570002
 30
0.0
 10
42.45576663610001
 20
20.68148758119997
 30
0.0
 10
42.10177564359997
 20
20.47996135529996
 30
0.0
 10
41.7666558879
 20
20.24738094509996
 30
0.0
 10
41.38838392729996
 20
19.90160069040001
 30
0.0
 10
41.07723527899998
 20
19.49396165999997
 30
0.0
 10
40.87442652780004
 20
19.13885600880002
 30
0.0
 10
40.70363888129998
 20
18.7668191276
 30
0.0
 10
40.55293081600001
 20
18.27523662419998
 30
0.0
 10
40.47882320550002
 20
17.66299555439997
 30
0.0
 10
40.51348974909996
 20
17.04712835959998
 30
0.0
 10
40.65593252790001
 20
16.44718200739999
 30
0.0
 10
40.90155437510003
 20
15.88218262859999
 30
0.0
 10
41.186170296
 20
15.4548742266
 30
0.0
 10
41.45592022859999
 20
15.14795274029995
 30
0.0
 10
41.7514681536
 20
14.86654721450003
 30
0.0
 10
42.16583026630003
 20
14.56617641419996
 30
0.0
 10
42.62680082790001
 20
14.34451325829997
 30
0.0
 10
43.01410996010003
 20
14.21880552380003
 30
0.0
 10
43.41072783139996
 20
14.12827359459999
 30
0.0
 10
43.71637707510001
 20
14.10076904989995
 30
0.0
 10
43.9194436468
 20
14.10076419619997
 30
0.0
1001
ACAD
1000
RTMaterial
1005
0
  0
SPLINE
  5
61290
330
1F
100
AcDbEntity
  8
1
100
AcDbSpline
210
0.0
220
0.0
230
1.0
 70
     8
 71
     3
 72
     9
 73
     5
 74
     0
 42
0.0000000001
 43
0.0000000001
 40
0.0
 40
0.0
 40
0.0
 40
0.0
 40
0.5000881161999999
 40
1.0
 40
1.0
 40
1.0
 40
1.0
 10
42.9352724486
 20
20.8551990126
 30
0.0
 10
43.09444716329998
 20
20.90332125129998
 30
0.0
 10
43.42024037219998
 20
20.97629901290003
 30
0.0
 10
43.7532123213
 20
21.00076361710002
 30
0.0
 10
43.91944364670002
 20
21.00075964389998
 30
0.0
1001
ACAD
1000
RTMaterial
1005
0
  0
SPLINE
  5
61291
330
1F
100
AcDbEntity
  8
1
100
AcDbSpline
210
0.0
220
0.0
230
1.0
 70
     8
 71
     3
 72
    27
 73
    23
 74
     0
 42
0.0000000001
 43
0.0000000001
 40
0.0
 40
0.0
 40
0.0
 40
0.0
 40
0.0623165735
 40
0.0935372401
 40
0.124780875
 40
0.1872609599
 40
0.2498303926
 40
0.2811822964
 40
0.3125505372
 40
0.3752468673
 40
0.4379614894
 40
0.5006589028000003
 40
0.5633062567
 40
0.6258782629000002
 40
0.6883609695000003
 40
0.7196060297
 40
0.7508297534000004
 40
0.8131466078
 40
0.8754123264
 40
0.9065740271999999
 40
0.9377337935999999
 40
1.0
 40
1.0
 40
1.0
 40
1.0
 10
43.29752605769999
 20
19.80257683339998
 30
0.0
 10
43.15140669449998
 20
19.75840153270002
 30
0.0
 10
42.93788671530001
 20
19.67002054279999
 30
0.0
 10
42.6754840076
 20
19.51256945199998
 30
0.0
 10
42.42938016419997
 20
19.32985311279998
 30
0.0
 10
42.15700292510002
 20
19.05708960269999
 30
0.0
 10
41.94295010010001
 20
18.73620121779999
 30
0.0
 10
41.81154746819998
 20
18.458370855
 30
0.0
 10
41.70770410289997
 20
18.16878487169998
 30
0.0
 10
41.6316539745
 20
17.7896391168
 30
0.0
 10
41.63030180510003
 20
17.3259883298
 30
0.0
 10
41.71869857080003
 20
16.8708830557
 30
0.0
 10
41.89354726749995
 20
16.44187718659997
 30
0.0
 10
42.1480350717
 20
16.05547481419995
 30
0.0
 10
42.41880754210001
 20
15.78100550799996
 30
0.0
 10
42.663801105
 20
15.59681641989999
 30
0.0
 10
42.92534077959999
 20
15.43775879840001
 30
0.0
 10
43.27951066690002
 20
15.28857661500001
 30
0.0
 10
43.6559555485
 20
15.21199780540001
 30
0.0
 10
43.96118015269997
 20
15.195995428
 30
0.0
 10
44.2664003506
 20
15.21012799009997
 30
0.0
 10
44.49285544759999
 20
15.25480741050001
 30
0.0
 10
44.63885671050002
 20
15.29894700669996
 30
0.0
1001
ACAD
1000
RTMaterial
1005
0
  0
SPLINE
  5
61292
330
1F
100
AcDbEntity
  8
1
100
AcDbSpline
210
0.0
220
0.0
230
1.0
 70
     8
 71
     3
 72
     8
 73
     4
 74
     0
 42
0.0000000001
 43
0.0000000001
 40
0.0
 40
0.0
 40
0.0
 40
0.0
 40
1.0
 40
1.0
 40
1.0
 40
1.0
 10
42.7282271692
 20
18.95709481289998
 30
0.0
 10
42.71403650439999
 20
18.96471100679997
 30
0.0
 10
42.69923782770002
 20
18.97128610329996
 30
0.0
 10
42.68407863199995
 20
18.97672486819999
 30
0.0
1001
ACAD
1000
RTMaterial
1005
0
  0
SPLINE
  5
61293
330
1F
100
AcDbEntity
  8
1
100
AcDbSpline
210
0.0
220
0.0
230
1.0
 70
     8
 71
     3
 72
    15
 73
    11
 74
     0
 42
0.0000000001
 43
0.0000000001
 40
0.0
 40
0.0
 40
0.0
 40
0.0
 40
0.1246152977
 40
0.2494026061
 40
0.3743679102000001
 40
0.499467338
 40
0.6246475461
 40
0.7498431609000003
 40
0.8749758731
 40
1.0
 40
1.0
 40
1.0
 40
1.0
 10
45.68733290279999
 20
17.7380981503
 30
0.0
 10
45.64216348039997
 20
17.70971021769998
 30
0.0
 10
45.55710954099999
 20
17.64383768210001
 30
0.0
 10
45.45124715409996
 20
17.52221360099997
 30
0.0
 10
45.37076832880001
 20
17.38218806570001
 30
0.0
 10
45.31879860819997
 20
17.22911325320001
 30
0.0
 10
45.29727520609998
 20
17.06879880449998
 30
0.0
 10
45.30703749479999
 20
16.90731319549996
 30
0.0
 10
45.34766148490001
 20
16.75084491429999
 30
0.0
 10
45.39443336339997
 20
16.65361557049999
 30
0.0
 10
45.42220816790001
 20
16.60786169399995
 30
0.0
1001
ACAD
1000
RTMaterial
1005
0
  0
SPLINE
  5
61294
330
1F
100
AcDbEntity
  8
1
100
AcDbSpline
210
0.0
220
0.0
230
1.0
 70
     8
 71
     3
 72
    11
 73
     7
 74
     0
 42
0.0000000001
 43
0.0000000001
 40
0.0
 40
0.0
 40
0.0
 40
0.0
 40
0.2506668472
 40
0.5009535373
 40
0.7507429308
 40
1.0
 40
1.0
 40
1.0
 40
1.0
 10
44.44736868789997
 20
19.14443104309998
 30
0.0
 10
44.4462597407
 20
19.17715272639998
 30
0.0
 10
44.43423725739998
 20
19.24262678180003
 30
0.0
 10
44.38834876669999
 20
19.3308730951
 30
0.0
 10
44.31876529649996
 20
19.4016993601
 30
0.0
 10
44.26034924659996
 20
19.43314549950003
 30
0.0
 10
44.22969791699999
 20
19.44411868610001
 30
0.0
1001
ACAD
1000
RTMaterial
1005
0
  0
SPLINE
  5
61295
330
1F
100
AcDbEntity
  8
1
100
AcDbSpline
210
0.0
220
0.0
230
1.0
 70
     8
 71
     3
 72
    15
 73
    11
 74
     0
 42
0.0000000001
 43
0.0000000001
 40
0.0
 40
0.0
 40
0.0
 40
0.0
 40
0.1245736117
 40
0.2491833345
 40
0.3739245912
 40
0.4988276656
 40
0.623909795
 40
0.7491585484000001
 40
0.8745414947
 40
1.0
 40
1.0
 40
1.0
 40
1.0
 10
45.26560324960001
 20
18.34772084869996
 30
0.0
 10
45.21325046569995
 20
18.34772651129998
 30
0.0
 10
45.10824735959999
 20
18.35789923319999
 30
0.0
 10
44.95678594939999
 20
18.40316544479998
 30
0.0
 10
44.81664580400003
 20
18.47672274550001
 30
0.0
 10
44.69305052550004
 20
18.57587840279996
 30
0.0
 10
44.59052291080001
 20
18.69696433000001
 30
0.0
 10
44.51282876609996
 20
18.83554388939996
 30
0.0
 10
44.46282101109999
 20
18.98644573410001
 30
0.0
 10
44.4491545166
 20
19.09173662969999
 30
0.0
 10
44.44736868789997
 20
19.14443104309998
 30
0.0
1001
ACAD
1000
RTMaterial
1005
0
  0
SPLINE
  5
61296
330
1F
100
AcDbEntity
  8
1
100
AcDbSpline
210
0.0
220
0.0
230
1.0
 70
     8
 71
     3
 72
    15
 73
    11
 74
     0
 42
0.0000000001
 43
0.0000000001
 40
0.0
 40
0.0
 40
0.0
 40
0.0
 40
0.1248508811
 40
0.2499694856
 40
0.3752986840999999
 40
0.5006607583
 40
0.6258783003000003
 40
0.7508282974
 40
0.8754861621999998
 40
1.0
 40
1.0
 40
1.0
 40
1.0
 10
45.46796808469998
 20
17.7380981503
 30
0.0
 10
45.49735852669999
 20
17.75656936029998
 30
0.0
 10
45.5506387803
 20
17.80334144339997
 30
0.0
 10
45.60439132779999
 20
17.89473763950002
 30
0.0
 10
45.62716326539997
 20
17.99852564369996
 30
0.0
 10
45.61655095719999
 20
18.10425912439996
 30
0.0
 10
45.5736661216
 20
18.2013773557
 30
0.0
 10
45.50272240650002
 20
18.28013746250002
 30
0.0
 10
45.4109344117
 20
18.3326142866
 30
0.0
 10
45.34162928379998
 20
18.34651794579997
 30
0.0
 10
45.30703569960002
 20
18.34784855629999
 30
0.0
1001
ACAD
1000
RTMaterial
1005
0
  0
SPLINE
  5
61297
330
1F
100
AcDbEntity
  8
1
100
AcDbSpline
210
0.0
220
0.0
230
1.0
 70
     8
 71
     3
 72
    15
 73
    11
 74
     0
 42
0.0000000001
 43
0.0000000001
 40
0.0
 40
0.0
 40
0.0
 40
0.0
 40
0.1250203904
 40
0.2501580999
 40
0.3753520207999999
 40
0.5005326659
 40
0.6256325262
 40
0.7505961423000001
 40
0.8753884264999999
 40
1.0
 40
1.0
 40
1.0
 40
1.0
 10
45.2028433498
 20
16.60786169399995
 30
0.0
 10
45.17506934399999
 20
16.65361425470002
 30
0.0
 10
45.12829863030003
 20
16.75084459059997
 30
0.0
 10
45.08766966019999
 20
16.90731172759996
 30
0.0
 10
45.0779098987
 20
17.06879935820001
 30
0.0
 10
45.09943089550001
 20
17.2291139381
 30
0.0
 10
45.1514028303
 20
17.38218779809995
 30
0.0
 10
45.23188028449999
 20
17.5222162654
 30
0.0
 10
45.33774662669997
 20
17.6438370921
 30
0.0
 10
45.42279996120003
 20
17.70971103399995
 30
0.0
 10
45.46796808469998
 20
17.7380981503
 30
0.0
1001
ACAD
1000
RTMaterial
1005
0
  0
SPLINE
  5
61298
330
1F
100
AcDbEntity
  8
1
100
AcDbSpline
210
0.0
220
0.0
230
1.0
 70
     8
 71
     3
 72
    17
 73
    13
 74
     0
 42
0.0000000001
 43
0.0000000001
 40
0.0
 40
0.0
 40
0.0
 40
0.0
 40
0.1247598381
 40
0.1874434034
 40
0.2502024794
 40
0.375444085
 40
0.5007119698000003
 40
0.5634992445
 40
0.6262282174
 40
0.7510631868000001
 40
0.8756079038999999
 40
1.0
 40
1.0
 40
1.0
 40
1.0
 10
45.68733290279999
 20
17.7380981503
 30
0.0
 10
45.71715798470001
 20
17.75684252140002
 30
0.0
 10
45.75773917840002
 20
17.79267704509999
 30
0.0
 10
45.79804460489998
 20
17.8509640236
 30
0.0
 10
45.82865933249997
 20
17.91509022159999
 30
0.0
 10
45.84695939159995
 20
18.00328496329996
 30
0.0
 10
45.83643941999997
 20
18.09275264169997
 30
0.0
 10
45.81156528420001
 20
18.15933569430001
 30
0.0
 10
45.7764795961
 20
18.22100128169995
 30
0.0
 10
45.71468302440002
 20
18.28616996299996
 30
0.0
 10
45.61992253260001
 20
18.3364848695
 30
0.0
 10
45.54910073729995
 20
18.3480838721
 30
0.0
 10
45.51397834509996
 20
18.34808880930001
 30
0.0
1001
ACAD
1000
RTMaterial
1005
0
  0
SPLINE
  5
61299
330
1F
100
AcDbEntity
  8
1
100
AcDbSpline
210
0.0
220
0.0
230
1.0
 70
     8
 71
     3
 72
    11
 73
     7
 74
     0
 42
0.0000000001
 43
0.0000000001
 40
0.0
 40
0.0
 40
0.0
 40
0.0
 40
0.2506659362
 40
0.5008094371000002
 40
0.750530873
 40
1.0
 40
1.0
 40
1.0
 40
1.0
 10
43.6653460392
 20
15.81063984630003
 30
0.0
 10
43.70018252540001
 20
15.87514885709999
 30
0.0
 10
43.78747921479996
 20
15.99533334379998
 30
0.0
 10
43.9610135327
 20
16.133915333
 30
0.0
 10
44.16477818729997
 20
16.22137908019999
 30
0.0
 10
44.31153979539998
 20
16.24127745919998
 30
0.0
 10
44.38450410019997
 20
16.24127675189999
 30
0.0
1001
ACAD
1000
RTMaterial
1005
0
  0
SPLINE
  5
6129A
330
1F
100
AcDbEntity
  8
1
100
AcDbSpline
210
0.0
220
0.0
230
1.0
 70
     8
 71
     3
 72
    15
 73
    11
 74
     0
 42
0.0000000001
 43
0.0000000001
 40
0.0
 40
0.0
 40
0.0
 40
0.0
 40
0.1254633772
 40
0.250841004
 40
0.3760926194
 40
0.5011746346
 40
0.6260782249
 40
0.7508206170000003
 40
0.87542962
 40
1.0
 40
1.0
 40
1.0
 40
1.0
 10
44.666733506
 20
19.14443104309998
 30
0.0
 10
44.6685194021
 20
19.0917346407
 30
0.0
 10
44.68218414760001
 20
18.98644351590002
 30
0.0
 10
44.73219761199998
 20
18.83554283759997
 30
0.0
 10
44.80988846989998
 20
18.69696298270003
 30
0.0
 10
44.91241936919997
 20
18.57587805520001
 30
0.0
 10
45.0360143761
 20
18.47672154189996
 30
0.0
 10
45.17615561190001
 20
18.4031654657
 30
0.0
 10
45.32761532040001
 20
18.35789965769999
 30
0.0
 10
45.432616687
 20
18.34772476119997
 30
0.0
 10
45.48496805600001
 20
18.3477205405
 30
0.0
1001
ACAD
1000
RTMaterial
1005
0
  0
SPLINE
  5
6129B
330
1F
100
AcDbEntity
  8
1
100
AcDbSpline
210
0.0
220
0.0
230
1.0
 70
     8
 71
     3
 72
    15
 73
    11
 74
     0
 42
0.0000000001
 43
0.0000000001
 40
0.0
 40
0.0
 40
0.0
 40
0.0
 40
0.1244514776
 40
0.2490242518
 40
0.3738114271
 40
0.498843241
 40
0.6240830983
 40
0.7494406878000001
 40
0.8747773967
 40
1.0
 40
1.0
 40
1.0
 40
1.0
 10
45.1427856972
 20
16.10568339649995
 30
0.0
 10
45.17163403509999
 20
16.10568639079997
 30
0.0
 10
45.22965304579996
 20
16.11345914539998
 30
0.0
 10
45.31035227900003
 20
16.14763236679999
 30
0.0
 10
45.37939609490002
 20
16.20190468710001
 30
0.0
 10
45.43189016119998
 20
16.27247969860002
 30
0.0
 10
45.46421445909999
 20
16.35441807849997
 30
0.0
 10
45.47410848800001
 20
16.44202406259995
 30
0.0
 10
45.46094431879999
 20
16.52913846249998
 30
0.0
 10
45.43727087420001
 20
16.58304865869996
 30
0.0
 10
45.42220816790001
 20
16.60786169399995
 30
0.0
1001
ACAD
1000
RTMaterial
1005
0
  0
SPLINE
  5
6129C
330
1F
100
AcDbEntity
  8
1
100
AcDbSpline
210
0.0
220
0.0
230
1.0
 70
     8
 71
     3
 72
    15
 73
    11
 74
     0
 42
0.0000000001
 43
0.0000000001
 40
0.0
 40
0.0
 40
0.0
 40
0.0
 40
0.1245088864
 40
0.249204869
 40
0.3741068854
 40
0.4991943072
 40
0.6244130349
 40
0.7496748088
 40
0.8749067977999999
 40
1.0
 40
1.0
 40
1.0
 40
1.0
 10
45.03281693289999
 20
16.12463409209999
 30
0.0
 10
45.05566985729996
 20
16.13279282249999
 30
0.0
 10
45.0997336076
 20
16.15433272410001
 30
0.0
 10
45.15696378090001
 20
16.20043183169997
 30
0.0
 10
45.20271651509999
 20
16.25812336860002
 30
0.0
 10
45.23470311440003
 20
16.32454576559996
 30
0.0
 10
45.25136372190003
 20
16.39643115860002
 30
0.0
 10
45.2518821546
 20
16.47025564709997
 30
0.0
 10
45.23624475650001
 20
16.54234755570002
 30
0.0
 10
45.21549434109999
 20
16.58702151509999
 30
0.0
 10
45.2028433498
 20
16.60786169399995
 30
0.0
1001
ACAD
1000
RTMaterial
1005
0
  0
SPLINE
  5
6129D
330
1F
100
AcDbEntity
  8
1
100
AcDbSpline
210
0.0
220
0.0
230
1.0
 70
     8
 71
     3
 72
    11
 73
     7
 74
     0
 42
0.0000000001
 43
0.0000000001
 40
0.0
 40
0.0
 40
0.0
 40
0.0
 40
0.249467058
 40
0.4991880220000002
 40
0.7493383976000001
 40
1.0
 40
1.0
 40
1.0
 40
1.0
 10
44.60386891659998
 20
16.24128015759999
 30
0.0
 10
44.53090516150001
 20
16.24128428569997
 30
0.0
 10
44.38414591319996
 20
16.2213727079
 30
0.0
 10
44.18037580909998
 20
16.13392097949997
 30
0.0
 10
44.00684491479995
 20
15.99533128299998
 30
0.0
 10
43.9195467678
 20
15.87514779099996
 30
0.0
 10
43.88471085729998
 20
15.81063984630003
 30
0.0
1001
ACAD
1000
RTMaterial
1005
0
  0
SPLINE
  5
6129E
330
1F
100
AcDbEntity
  8
1
100
AcDbSpline
210
0.0
220
0.0
230
1.0
 70
     8
 71
     3
 72
    11
 73
     7
 74
     0
 42
0.0000000001
 43
0.0000000001
 40
0.0
 40
0.0
 40
0.0
 40
0.0
 40
0.2508681339
 40
0.501205806
 40
0.7508463498000002
 40
1.0
 40
1.0
 40
1.0
 40
1.0
 10
44.666733506
 20
19.14443104309998
 30
0.0
 10
44.66531146729999
 20
19.1863911099
 30
0.0
 10
44.64619133259996
 20
19.27054273340002
 30
0.0
 10
44.57277318479998
 20
19.37620918120001
 30
0.0
 10
44.46544087870001
 20
19.4467001612
 30
0.0
 10
44.38108127200002
 20
19.46317177559996
 30
0.0
 10
44.33938404370002
 20
19.46316968889999
 30
0.0
1001
ACAD
1000
RTMaterial
1005
0
  0
SPLINE
  5
6129F
330
1F
100
AcDbEntity
  8
1
100
AcDbSpline
210
0.0
220
0.0
230
1.0
 70
     8
 71
     3
 72
    11
 73
     7
 74
     0
 42
0.0000000001
 43
0.0000000001
 40
0.0
 40
0.0
 40
0.0
 40
0.0
 40
0.2494663652
 40
0.4991917696
 40
0.7493306180000002
 40
1.0
 40
1.0
 40
1.0
 40
1.0
 10
43.5969987245
 20
15.63835415119996
 30
0.0
 10
43.62618905139997
 20
15.638355612
 30
0.0
 10
43.68490349659999
 20
15.64631694249999
 30
0.0
 10
43.76642183050001
 20
15.68130970739997
 30
0.0
 10
43.83585009670002
 20
15.73674876910002
 30
0.0
 10
43.87077371830002
 20
15.7848315301
 30
0.0
 10
43.88471085729998
 20
15.81063984630003
 30
0.0
1001
ACAD
1000
RTMaterial
1005
0
  0
SPLINE
  5
612A0
330
1F
100
AcDbEntity
  8
1
100
AcDbSpline
210
0.0
220
0.0
230
1.0
 70
     8
 71
     3
 72
     9
 73
     5
 74
     0
 42
0.0000000001
 43
0.0000000001
 40
0.0
 40
0.0
 40
0.0
 40
0.0
 40
0.4993111136
 40
1.0
 40
1.0
 40
1.0
 40
1.0
 10
43.48743798880001
 20
15.6574501064
 30
0.0
 10
43.5248449563
 20
15.67085855439995
 30
0.0
 10
43.59539915369999
 20
15.71189659719999
 30
0.0
 10
43.6464120347
 20
15.7755785059
 30
0.0
 10
43.6653460392
 20
15.81063984630003
 30
0.0
1001
ACAD
1000
RTMaterial
1005
0
  0
SPLINE
  5
612A1
330
1F
100
AcDbEntity
  8
1
100
AcDbSpline
210
0.0
220
0.0
230
1.0
 70
     8
 71
     3
 72
     9
 73
     5
 74
     0
 42
0.0000000001
 43
0.0000000001
 40
0.0
 40
0.0
 40
0.0
 40
0.0
 40
0.5002345653
 40
1.0
 40
1.0
 40
1.0
 40
1.0
 10
42.94759198729996
 20
18.95709481289998
 30
0.0
 10
43.00635321319997
 20
18.92555739709996
 30
0.0
 10
43.13205735029998
 20
18.87676781099998
 30
0.0
 10
43.26588688819998
 20
18.86024745200001
 30
0.0
 10
43.33251385159996
 20
18.86024368249997
 30
0.0
1001
ACAD
1000
RTMaterial
1005
0
  0
SPLINE
  5
612A2
330
1F
100
AcDbEntity
  8
1
100
AcDbSpline
210
0.0
220
0.0
230
1.0
 70
     8
 71
     3
 72
     9
 73
     5
 74
     0
 42
0.0000000001
 43
0.0000000001
 40
0.0
 40
0.0
 40
0.0
 40
0.0
 40
0.5002415732
 40
1.0
 40
1.0
 40
1.0
 40
1.0
 10
42.94759198729996
 20
18.95709481289998
 30
0.0
 10
42.92408318039997
 20
18.96971209579999
 30
0.0
 10
42.87379332099999
 20
18.98923063249998
 30
0.0
 10
42.8202520034
 20
18.9958432102
 30
0.0
 10
42.79359707100002
 20
18.9958404436
 30
0.0
1001
ACAD
1000
RTMaterial
1005
0
  0
SPLINE
  5
612A3
330
1F
100
AcDbEntity
  8
1
100
AcDbSpline
210
0.0
220
0.0
230
1.0
 70
     8
 71
     3
 72
    27
 73
    23
 74
     0
 42
0.0000000001
 43
0.0000000001
 40
0.0
 40
0.0
 40
0.0
 40
0.0
 40
0.0622662064
 40
0.0934259728
 40
0.1245876736
 40
0.1868533922
 40
0.2491702466
 40
0.2803939703
 40
0.3116390305
 40
0.3741217371
 40
0.4366937433000003
 40
0.4993410972
 40
0.5620385106
 40
0.6247531327
 40
0.6874494628
 40
0.7188177036
 40
0.7501696074
 40
0.8127390401000001
 40
0.8752191249999999
 40
0.9064627598999999
 40
0.9376834264999999
 40
1.0
 40
1.0
 40
1.0
 40
1.0
 10
43.29752605769999
 20
19.80257683339998
 30
0.0
 10
43.44352732069995
 20
19.84671642960001
 30
0.0
 10
43.66998241770001
 20
19.89139584999998
 30
0.0
 10
43.97520261549999
 20
19.90552841210001
 30
0.0
 10
44.2804272197
 20
19.8895260347
 30
0.0
 10
44.65687210129997
 20
19.8129472251
 30
0.0
 10
45.01104198870002
 20
19.6637650417
 30
0.0
 10
45.2725816633
 20
19.50470742020002
 30
0.0
 10
45.51757522609999
 20
19.32051833209999
 30
0.0
 10
45.7883476966
 20
19.0460490259
 30
0.0
 10
46.04283550079998
 20
18.65964665349997
 30
0.0
 10
46.21768419749996
 20
18.23064078440001
 30
0.0
 10
46.30608096309996
 20
17.77553551029996
 30
0.0
 10
46.3047287937
 20
17.31188472329995
 30
0.0
 10
46.22867866539997
 20
16.93273896839997
 30
0.0
 10
46.12483529999997
 20
16.64315298509996
 30
0.0
 10
45.99343266819999
 20
16.36532262219998
 30
0.0
 10
45.7793798431
 20
16.04443423739997
 30
0.0
 10
45.50700260399998
 20
15.77167072729998
 30
0.0
 10
45.26089876069999
 20
15.58895438799999
 30
0.0
 10
44.99849605290001
 20
15.43150329729997
 30
0.0
 10
44.78497607370003
 20
15.34312230739999
 30
0.0
 10
44.63885671050002
 20
15.29894700669996
 30
0.0
1001
ACAD
1000
RTMaterial
1005
0
  0
SPLINE
  5
612A6
330
1F
100
AcDbEntity
  8
1
100
AcDbSpline
210
0.0
220
0.0
230
1.0
 70
     8
 71
     3
 72
     8
 73
     4
 74
     0
 42
0.0000000001
 43
0.0000000001
 40
0.0
 40
0.0
 40
0.0
 40
0.0
 40
1.0
 40
1.0
 40
1.0
 40
1.0
 10
42.00802436539999
 20
24.32681953069999
 30
0.0
 10
42.02871611149999
 20
24.33724224459997
 30
0.0
 10
42.04994301670001
 20
24.3466652578
 30
0.0
 10
42.07155734749997
 20
24.35500804089997
 30
0.0
1001
ACAD
1000
RTMaterial
1005
0
  0
SPLINE
  5
612A7
330
1F
100
AcDbEntity
  8
1
100
AcDbSpline
210
0.0
220
0.0
230
1.0
 70
     8
 71
     3
 72
     9
 73
     5
 74
     0
 42
0.0000000001
 43
0.0000000001
 40
0.0
 40
0.0
 40
0.0
 40
0.0
 40
0.2477538056
 40
1.0
 40
1.0
 40
1.0
 40
1.0
 10
42.32762763739997
 20
24.4186792612
 30
0.0
 10
42.42812074189997
 20
24.42868347309997
 30
0.0
 10
42.8336561716
 20
24.4698759762
 30
0.0
 10
43.23886467789998
 20
24.51428966980001
 30
0.0
 10
43.54346343089997
 20
24.54954209380003
 30
0.0
1001
ACAD
1000
RTMaterial
1005
0
  0
SPLINE
  5
612A8
330
1F
100
AcDbEntity
  8
1
100
AcDbSpline
210
0.0
220
0.0
230
1.0
 70
     8
 71
     3
 72
     8
 73
     4
 74
     0
 42
0.0000000001
 43
0.0000000001
 40
0.0
 40
0.0
 40
0.0
 40
0.0
 40
1.0
 40
1.0
 40
1.0
 40
1.0
 10
39.09632961369999
 20
12.47150751639998
 30
0.0
 10
39.08606040339999
 20
12.47899407239998
 30
0.0
 10
39.07597871080003
 20
12.48674488720002
 30
0.0
 10
39.066104854
 20
12.49474564669998
 30
0.0
1001
ACAD
1000
RTMaterial
1005
0
  0
SPLINE
  5
612A9
330
1F
100
AcDbEntity
  8
1
100
AcDbSpline
210
0.0
220
0.0
230
1.0
 70
     8
 71
     3
 72
     9
 73
     5
 74
     0
 42
0.0000000001
 43
0.0000000001
 40
0.0
 40
0.0
 40
0.0
 40
0.0
 40
0.750240345
 40
1.0
 40
1.0
 40
1.0
 40
1.0
 10
38.87721874909999
 20
12.68989936139996
 30
0.0
 10
38.69415958659999
 20
12.94135502069997
 30
0.0
 10
38.449535013
 20
13.276068452
 30
0.0
 10
38.20404574669999
 20
13.61014657290002
 30
0.0
 10
38.1426761742
 20
13.69354442270003
 30
0.0
1001
ACAD
1000
RTMaterial
1005
0
  0
SPLINE
  5
612AA
330
1F
100
AcDbEntity
  8
1
100
AcDbSpline
210
0.0
220
0.0
230
1.0
 70
     8
 71
     3
 72
     9
 73
     5
 74
     0
 42
0.0000000001
 43
0.0000000001
 40
0.0
 40
0.0
 40
0.0
 40
0.0
 40
0.2497542023
 40
1.0
 40
1.0
 40
1.0
 40
1.0
 10
50.68413266339996
 20
15.54370713759999
 30
0.0
 10
50.64026897479999
 20
15.44991586959997
 30
0.0
 10
50.46606381940001
 20
15.07371852709997
 30
0.0
 10
50.29754402179996
 20
14.6948847013
 30
0.0
 10
50.17456166729999
 20
14.4091992859
 30
0.0
1001
ACAD
1000
RTMaterial
1005
0
  0
LINE
  5
612AB
330
1F
100
AcDbEntity
  8
1
100
AcDbLine
 10
39.2558052146
 20
12.35391430380002
 30
0.0
 11
39.25942689110003
 21
12.35123117739999
 31
0.0
1001
ACAD
1000
RTMaterial
1005
0
  0
SPLINE
  5
612AC
330
1F
100
AcDbEntity
  8
1
100
AcDbSpline
210
0.0
220
0.0
230
1.0
 70
     8
 71
     3
 72
     9
 73
     5
 74
     0
 42
0.0000000001
 43
0.0000000001
 40
0.0
 40
0.0
 40
0.0
 40
0.0
 40
0.2571631894
 40
1.0
 40
1.0
 40
1.0
 40
1.0
 10
40.42831860649999
 20
23.80585858009999
 30
0.0
 10
40.40306779399998
 20
23.8012161369
 30
0.0
 10
40.3053466824
 20
23.78071768619998
 30
0.0
 10
40.20962469719999
 20
23.75056813729998
 30
0.0
 10
40.14085481530003
 20
23.72280781910001
 30
0.0
1001
ACAD
1000
RTMaterial
1005
0
  0
SPLINE
  5
612AD
330
1F
100
AcDbEntity
  8
1
100
AcDbSpline
210
0.0
220
0.0
230
1.0
 70
     8
 71
     3
 72
     9
 73
     5
 74
     0
 42
0.0000000001
 43
0.0000000001
 40
0.0
 40
0.0
 40
0.0
 40
0.0
 40
0.252222464
 40
1.0
 40
1.0
 40
1.0
 40
1.0
 10
35.89988795620004
 20
16.74136883649999
 30
0.0
 10
35.88484130379999
 20
16.76181640390001
 30
0.0
 10
35.82725806359997
 20
16.84438716929998
 30
0.0
 10
35.7781937465
 20
16.93293057329998
 30
0.0
 10
35.7471717094
 20
17.0015066556
 30
0.0
1001
ACAD
1000
RTMaterial
1005
0
  0
LINE
  5
612AE
330
1F
100
AcDbEntity
  8
1
100
AcDbLine
 10
34.85531650659999
 20
18.44926496729999
 30
0.0
 11
34.85149780789999
 21
18.41859525360002
 31
0.0
1001
ACAD
1000
RTMaterial
1005
0
  0
SPLINE
  5
612AF
330
1F
100
AcDbEntity
  8
1
100
AcDbSpline
210
0.0
220
0.0
230
1.0
 70
     8
 71
     3
 72
     9
 73
     5
 74
     0
 42
0.0000000001
 43
0.0000000001
 40
0.0
 40
0.0
 40
0.0
 40
0.0
 40
0.2495424134
 40
1.0
 40
1.0
 40
1.0
 40
1.0
 10
34.89347006989999
 20
18.63402815709997
 30
0.0
 10
34.88925248620001
 20
18.61890540849998
 30
0.0
 10
34.8733906612
 20
18.55801827549998
 30
0.0
 10
34.8616941752
 20
18.49604696519998
 30
0.0
 10
34.85531634659998
 20
18.44926498199999
 30
0.0
1001
ACAD
1000
RTMaterial
1005
0
  0
SPLINE
  5
612B0
330
1F
100
AcDbEntity
  8
1
100
AcDbSpline
210
0.0
220
0.0
230
1.0
 70
     8
 71
     3
 72
    11
 73
     7
 74
     0
 42
0.0000000001
 43
0.0000000001
 40
0.0
 40
0.0
 40
0.0
 40
0.0
 40
0.2484427789
 40
0.497319756
 40
0.7476898144
 40
1.0
 40
1.0
 40
1.0
 40
1.0
 10
34.84949593469997
 20
18.38814891769998
 30
0.0
 10
34.8451632032
 20
18.30839353579995
 30
0.0
 10
34.84992679380003
 20
18.14768086409998
 30
0.0
 10
34.89816389240002
 20
17.91098911159997
 30
0.0
 10
34.98749146099999
 20
17.6852020883
 30
0.0
 10
35.07237435970001
 20
17.54658704479999
 30
0.0
 10
35.12045111380003
 20
17.48125339899997
 30
0.0
1001
ACAD
1000
RTMaterial
1005
0
  0
LINE
  5
612B1
330
1F
100
AcDbEntity
  8
1
100
AcDbLine
 10
34.85149780789999
 20
18.41859525360002
 30
0.0
 11
34.84949593469997
 21
18.38814891769998
 31
0.0
1001
ACAD
1000
RTMaterial
1005
0
  0
SPLINE
  5
612B2
330
1F
100
AcDbEntity
  8
1
100
AcDbSpline
210
0.0
220
0.0
230
1.0
 70
     8
 71
     3
 72
     9
 73
     5
 74
     0
 42
0.0000000001
 43
0.0000000001
 40
0.0
 40
0.0
 40
0.0
 40
0.0
 40
0.4972557303000002
 40
1.0
 40
1.0
 40
1.0
 40
1.0
 10
48.03457009699997
 20
10.20650309960001
 30
0.0
 10
47.94951089490001
 20
10.16526171999999
 30
0.0
 10
47.76911255389996
 20
10.10033022939996
 30
0.0
 10
47.57904735869998
 20
10.07522037339998
 30
0.0
 10
47.48350920809995
 20
10.07262557899997
 30
0.0
1001
ACAD
1000
RTMaterial
1005
0
  0
SPLINE
  5
612B3
330
1F
100
AcDbEntity
  8
1
100
AcDbSpline
210
0.0
220
0.0
230
1.0
 70
     8
 71
     3
 72
     9
 73
     5
 74
     0
 42
0.0000000001
 43
0.0000000001
 40
0.0
 40
0.0
 40
0.0
 40
0.0
 40
0.2490889008
 40
1.0
 40
1.0
 40
1.0
 40
1.0
 10
48.2738778817
 20
10.36919966599998
 30
0.0
 10
48.25940993779997
 20
10.35667239849999
 30
0.0
 10
48.20019640610002
 20
10.30769895859998
 30
0.0
 10
48.13657811359997
 20
10.26406140049999
 30
0.0
 10
48.08694282149996
 20
10.23465302699998
 30
0.0
1001
ACAD
1000
RTMaterial
1005
0
  0
SPLINE
  5
612B4
330
1F
100
AcDbEntity
  8
1
100
AcDbSpline
210
0.0
220
0.0
230
1.0
 70
     8
 71
     3
 72
     9
 73
     5
 74
     0
 42
0.0000000001
 43
0.0000000001
 40
0.0
 40
0.0
 40
0.0
 40
0.0
 40
0.5018159991
 40
1.0
 40
1.0
 40
1.0
 40
1.0
 10
48.6761367675
 20
10.92838905689996
 30
0.0
 10
48.63028691919999
 20
10.82188082729999
 30
0.0
 10
48.51711469039997
 20
10.61822245819996
 30
0.0
 10
48.3609074245
 20
10.44455286440001
 30
0.0
 10
48.27387902909999
 20
10.369198138
 30
0.0
1001
ACAD
1000
RTMaterial
1005
0
  0
SPLINE
  5
612B5
330
1F
100
AcDbEntity
  8
1
100
AcDbSpline
210
0.0
220
0.0
230
1.0
 70
     8
 71
     3
 72
     9
 73
     5
 74
     0
 42
0.0000000001
 43
0.0000000001
 40
0.0
 40
0.0
 40
0.0
 40
0.0
 40
0.4990121195000001
 40
1.0
 40
1.0
 40
1.0
 40
1.0
 10
48.25596707940002
 20
24.76623720009996
 30
0.0
 10
48.3896377077
 20
24.67501406949998
 30
0.0
 10
48.62903315839997
 20
24.44599000229999
 30
0.0
 10
48.776800068
 20
24.14910620460001
 30
0.0
 10
48.8235815136
 20
23.99351446369997
 30
0.0
1001
ACAD
1000
RTMaterial
1005
0
  0
SPLINE
  5
612B6
330
1F
100
AcDbEntity
  8
1
100
AcDbSpline
210
0.0
220
0.0
230
1.0
 70
     8
 71
     3
 72
     9
 73
     5
 74
     0
 42
0.0000000001
 43
0.0000000001
 40
0.0
 40
0.0
 40
0.0
 40
0.0
 40
0.2492626428
 40
1.0
 40
1.0
 40
1.0
 40
1.0
 10
47.98364054559999
 20
24.90115118919999
 30
0.0
 10
48.00254491859999
 20
24.89426579590003
 30
0.0
 10
48.0777853156
 20
24.86501882700003
 30
0.0
 10
48.15052458129997
 20
24.82934933299998
 30
0.0
 10
48.20313525850004
 20
24.79928329119997
 30
0.0
1001
ACAD
1000
RTMaterial
1005
0
  0
SPLINE
  5
612B7
330
1F
100
AcDbEntity
  8
1
100
AcDbSpline
210
0.0
220
0.0
230
1.0
 70
     8
 71
     3
 72
     9
 73
     5
 74
     0
 42
0.0000000001
 43
0.0000000001
 40
0.0
 40
0.0
 40
0.0
 40
0.0
 40
0.4945018121000003
 40
1.0
 40
1.0
 40
1.0
 40
1.0
 10
47.28467644580002
 20
24.9825278678
 30
0.0
 10
47.40067978939999
 20
24.99595339540003
 30
0.0
 10
47.639118027
 20
24.99654028909998
 30
0.0
 10
47.87147502109997
 20
24.94200641480001
 30
0.0
 10
47.9836412427
 20
24.90115297919999
 30
0.0
1001
ACAD
1000
RTMaterial
1005
0
  0
SPLINE
  5
612B8
330
1F
100
AcDbEntity
  8
1
100
AcDbSpline
210
0.0
220
0.0
230
1.0
 70
     8
 71
     3
 72
     9
 73
     5
 74
     0
 42
0.0000000001
 43
0.0000000001
 40
0.0
 40
0.0
 40
0.0
 40
0.0
 40
0.7495971945000001
 40
1.0
 40
1.0
 40
1.0
 40
1.0
 10
50.76355920800001
 20
15.80253206139997
 30
0.0
 10
50.75167004019999
 20
15.73584730799996
 30
0.0
 10
50.72730208239999
 20
15.64812996609999
 30
0.0
 10
50.69324997369999
 20
15.56441630349997
 30
0.0
 10
50.68413266339996
 20
15.54370713759999
 30
0.0
1001
ACAD
1000
RTMaterial
1005
0
  0
SPLINE
  5
612B9
330
1F
100
AcDbEntity
  8
1
100
AcDbSpline
210
0.0
220
0.0
230
1.0
 70
     8
 71
     3
 72
     8
 73
     4
 74
     0
 42
0.0000000001
 43
0.0000000001
 40
0.0
 40
0.0
 40
0.0
 40
0.0
 40
1.0
 40
1.0
 40
1.0
 40
1.0
 10
50.77199999999999
 20
15.85864169759998
 30
0.0
 10
50.76970021450001
 20
15.83986837989999
 30
0.0
 10
50.76687895830002
 20
15.82115209709997
 30
0.0
 10
50.76355920800001
 20
15.80253206139997
 30
0.0
1001
ACAD
1000
RTMaterial
1005
0
  0
LINE
  5
612BA
330
1F
100
AcDbEntity
  8
1
100
AcDbLine
 10
50.77384028239999
 20
15.89035048709996
 30
0.0
 11
50.77199999999999
 21
15.85864169759998
 31
0.0
1001
ACAD
1000
RTMaterial
1005
0
  0
SPLINE
  5
612BB
330
1F
100
AcDbEntity
  8
1
100
AcDbSpline
210
0.0
220
0.0
230
1.0
 70
     8
 71
     3
 72
     9
 73
     5
 74
     0
 42
0.0000000001
 43
0.0000000001
 40
0.0
 40
0.0
 40
0.0
 40
0.0
 40
0.2434369802
 40
1.0
 40
1.0
 40
1.0
 40
1.0
 10
50.80058774529998
 20
17.19743089000002
 30
0.0
 10
50.80229268379997
 20
17.09134541809999
 30
0.0
 10
50.80545865749996
 20
16.65550997949998
 30
0.0
 10
50.79254252310001
 20
16.21955887839999
 30
0.0
 10
50.7738413601
 20
15.89035044709999
 30
0.0
1001
ACAD
1000
RTMaterial
1005
0
  0
LINE
  5
612BC
330
1F
100
AcDbEntity
  8
1
100
AcDbLine
 10
50.79999999990002
 20
17.23061580989997
 30
0.0
 11
50.8005866611
 21
17.1974308563
 31
0.0
1001
ACAD
1000
RTMaterial
1005
0
  0
SPLINE
  5
612BD
330
1F
100
AcDbEntity
  8
1
100
AcDbSpline
210
0.0
220
0.0
230
1.0
 70
     8
 71
     3
 72
     9
 73
     5
 74
     0
 42
0.0000000001
 43
0.0000000001
 40
0.0
 40
0.0
 40
0.0
 40
0.0
 40
0.2584925282
 40
1.0
 40
1.0
 40
1.0
 40
1.0
 10
50.7360490305
 20
17.63278596290001
 30
0.0
 10
50.74616984300002
 20
17.59912486309997
 30
0.0
 10
50.78092983919997
 20
17.46762932860002
 30
0.0
 10
50.7980565273
 20
17.33142690579995
 30
0.0
 10
50.80000046780003
 20
17.23061582539998
 30
0.0
1001
ACAD
1000
RTMaterial
1005
0
  0
SPLINE
  5
612BE
330
1F
100
AcDbEntity
  8
1
100
AcDbSpline
210
0.0
220
0.0
230
1.0
 70
     8
 71
     3
 72
     9
 73
     5
 74
     0
 42
0.0000000001
 43
0.0000000001
 40
0.0
 40
0.0
 40
0.0
 40
0.0
 40
0.2470685076
 40
1.0
 40
1.0
 40
1.0
 40
1.0
 10
40.11065894869999
 20
23.71057444370002
 30
0.0
 10
40.0878156137
 20
23.7012852332
 30
0.0
 10
39.99543631860003
 20
23.66349559669998
 30
0.0
 10
39.90338375440001
 20
23.62490652869997
 30
0.0
 10
39.83427763639998
 20
23.59537947749999
 30
0.0
1001
ACAD
1000
RTMaterial
1005
0
  0
LINE
  5
612BF
330
1F
100
AcDbEntity
  8
1
100
AcDbLine
 10
40.14085498690002
 20
23.72280738019998
 30
0.0
 11
40.11065934929995
 21
23.71057342419998
 31
0.0
1001
ACAD
1000
RTMaterial
1005
0
  0
SPLINE
  5
612C0
330
1F
100
AcDbEntity
  8
1
100
AcDbSpline
210
0.0
220
0.0
230
1.0
 70
     8
 71
     3
 72
     9
 73
     5
 74
     0
 42
0.0000000001
 43
0.0000000001
 40
0.0
 40
0.0
 40
0.0
 40
0.0
 40
0.2505101048
 40
1.0
 40
1.0
 40
1.0
 40
1.0
 10
42.07155727349999
 20
24.35500822950002
 30
0.0
 10
42.09214242979999
 20
24.36295376819999
 30
0.0
 10
42.1753294695
 20
24.3920003133
 30
0.0
 10
42.26211103050002
 20
24.41057156739999
 30
0.0
 10
42.32762763739997
 20
24.4186792612
 30
0.0
1001
ACAD
1000
RTMaterial
1005
0
  0
SPLINE
  5
612C1
330
1F
100
AcDbEntity
  8
1
100
AcDbSpline
210
0.0
220
0.0
230
1.0
 70
     8
 71
     3
 72
     9
 73
     5
 74
     0
 42
0.0000000001
 43
0.0000000001
 40
0.0
 40
0.0
 40
0.0
 40
0.0
 40
0.2577677601
 40
1.0
 40
1.0
 40
1.0
 40
1.0
 10
39.049171285
 20
12.1423395036
 30
0.0
 10
39.06997852990004
 20
12.114063611
 30
0.0
 10
39.15436263170001
 20
12.00711424679997
 30
0.0
 10
39.25305376379998
 20
11.91143376470001
 30
0.0
 10
39.3324985877
 20
11.84892557730001
 30
0.0
1001
ACAD
1000
RTMaterial
1005
0
  0
SPLINE
  5
612C2
330
1F
100
AcDbEntity
  8
1
100
AcDbSpline
210
0.0
220
0.0
230
1.0
 70
     8
 71
     3
 72
     9
 73
     5
 74
     0
 42
0.0000000001
 43
0.0000000001
 40
0.0
 40
0.0
 40
0.0
 40
0.0
 40
0.2412640088
 40
1.0
 40
1.0
 40
1.0
 40
1.0
 10
39.35877070870004
 20
11.82831231099999
 30
0.0
 10
39.41789413089998
 20
11.78205754660001
 30
0.0
 10
39.66410724399998
 20
11.59182100610002
 30
0.0
 10
39.91535144540001
 20
11.40810022380003
 30
0.0
 10
40.10851458030002
 20
11.27238372809995
 30
0.0
1001
ACAD
1000
RTMaterial
1005
0
  0
LINE
  5
612C3
330
1F
100
AcDbEntity
  8
1
100
AcDbLine
 10
39.3324988787
 20
11.84892594680002
 30
0.0
 11
39.35877138339998
 21
11.82831317099999
 31
0.0
1001
ACAD
1000
RTMaterial
1005
0
  0
SPLINE
  5
612C4
330
1F
100
AcDbEntity
  8
1
100
AcDbSpline
210
0.0
220
0.0
230
1.0
 70
     8
 71
     3
 72
     9
 73
     5
 74
     0
 42
0.0000000001
 43
0.0000000001
 40
0.0
 40
0.0
 40
0.0
 40
0.0
 40
0.2502927672
 40
1.0
 40
1.0
 40
1.0
 40
1.0
 10
39.0661047264
 20
12.4947454892
 30
0.0
 10
39.04847598809999
 20
12.5090300077
 30
0.0
 10
38.97985210040003
 20
12.56830963149997
 30
0.0
 10
38.91849056630002
 20
12.63590329769999
 30
0.0
 10
38.87721874909999
 20
12.68989936139996
 30
0.0
1001
ACAD
1000
RTMaterial
1005
0
  0
SPLINE
  5
612C5
330
1F
100
AcDbEntity
  8
1
100
AcDbSpline
210
0.0
220
0.0
230
1.0
 70
     8
 71
     3
 72
     8
 73
     4
 74
     0
 42
0.0000000001
 43
0.0000000001
 40
0.0
 40
0.0
 40
0.0
 40
0.0
 40
1.0
 40
1.0
 40
1.0
 40
1.0
 10
48.20313649989998
 20
24.79928537759997
 30
0.0
 10
48.22117117059995
 20
24.788978886
 30
0.0
 10
48.23881009699999
 20
24.77794662059995
 30
0.0
 10
48.25596757260001
 20
24.76623789979999
 30
0.0
1001
ACAD
1000
RTMaterial
1005
0
  0
SPLINE
  5
612C6
330
1F
100
AcDbEntity
  8
1
100
AcDbSpline
210
0.0
220
0.0
230
1.0
 70
     8
 71
     3
 72
     8
 73
     4
 74
     0
 42
0.0000000001
 43
0.0000000001
 40
0.0
 40
0.0
 40
0.0
 40
0.0
 40
1.0
 40
1.0
 40
1.0
 40
1.0
 10
48.08694395569999
 20
10.2346508782
 30
0.0
 10
48.06989259879998
 20
10.2245481402
 30
0.0
 10
48.05240416940001
 20
10.2151494057
 30
0.0
 10
48.03457044079999
 20
10.20650231299998
 30
0.0
1001
ACAD
1000
RTMaterial
1005
0
  0
SPLINE
  5
612C7
330
1F
100
AcDbEntity
  8
1
100
AcDbSpline
210
0.0
220
0.0
230
1.0
 70
     8
 71
     3
 72
    10
 73
     6
 74
     0
 42
0.0000000001
 43
0.0000000001
 40
0.0
 40
0.0
 40
0.0
 40
0.0
 40
0.2480505399
 40
0.4979866614000001
 40
1.0
 40
1.0
 40
1.0
 40
1.0
 10
35.63015528620002
 20
17.67954532589999
 30
0.0
 10
35.63907303949998
 20
17.7593513292
 30
0.0
 10
35.6704661645
 20
17.91841774889997
 30
0.0
 10
35.78384928280002
 20
18.22266095319998
 30
0.0
 10
35.92378962650002
 20
18.42825806669998
 30
0.0
 10
36.03448904710001
 20
18.5472462985
 30
0.0
1001
ACAD
1000
RTMaterial
1005
0
  0
LINE
  5
612C8
330
1F
100
AcDbEntity
  8
1
100
AcDbLine
 10
35.62707698089997
 20
17.64916146730002
 30
0.0
 11
35.63015528620002
 21
17.67954532589999
 31
0.0
1001
ACAD
1000
RTMaterial
1005
0
  0
LINE
  5
612C9
330
1F
100
AcDbEntity
  8
1
100
AcDbLine
 10
35.62571730709999
 20
17.618349029
 30
0.0
 11
35.62707698089997
 21
17.64916146730002
 31
0.0
1001
ACAD
1000
RTMaterial
1005
0
  0
SPLINE
  5
612CA
330
1F
100
AcDbEntity
  8
1
100
AcDbSpline
210
0.0
220
0.0
230
1.0
 70
     8
 71
     3
 72
     9
 73
     5
 74
     0
 42
0.0000000001
 43
0.0000000001
 40
0.0
 40
0.0
 40
0.0
 40
0.0
 40
0.2483916791
 40
1.0
 40
1.0
 40
1.0
 40
1.0
 10
35.63752700150003
 20
17.38193490660001
 30
0.0
 10
35.63489446969999
 20
17.40136927189996
 30
0.0
 10
35.62597574069997
 20
17.4798296459
 30
0.0
 10
35.62373068699998
 20
17.55903878859999
 30
0.0
 10
35.62571714310003
 20
17.61834903309994
 30
0.0
1001
ACAD
1000
RTMaterial
1005
0
  0
SPLINE
  5
612CB
330
1F
100
AcDbEntity
  8
1
100
AcDbSpline
210
0.0
220
0.0
230
1.0
 70
     8
 71
     3
 72
     9
 73
     5
 74
     0
 42
0.0000000001
 43
0.0000000001
 40
0.0
 40
0.0
 40
0.0
 40
0.0
 40
0.2291627328
 40
1.0
 40
1.0
 40
1.0
 40
1.0
 10
35.48652280569996
 20
17.88806146209998
 30
0.0
 10
35.48359493250001
 20
17.89303796959996
 30
0.0
 10
35.46992068240002
 20
17.91422706610001
 30
0.0
 10
35.45313343240002
 20
17.93328277349997
 30
0.0
 10
35.4393456474
 20
17.94696130939996
 30
0.0
1001
ACAD
1000
RTMaterial
1005
0
  0
SPLINE
  5
612CC
330
1F
100
AcDbEntity
  8
1
100
AcDbSpline
210
0.0
220
0.0
230
1.0
 70
     8
 71
     3
 72
     9
 73
     5
 74
     0
 42
0.0000000001
 43
0.0000000001
 40
0.0
 40
0.0
 40
0.0
 40
0.0
 40
0.2708286476
 40
1.0
 40
1.0
 40
1.0
 40
1.0
 10
35.20501935670001
 20
18.16733438770001
 30
0.0
 10
35.21199997729997
 20
18.16237300189999
 30
0.0
 10
35.23747312339998
 20
18.1436450946
 30
0.0
 10
35.26172903920003
 20
18.12317055299996
 30
0.0
 10
35.27809811240003
 20
18.10693118189998
 30
0.0
1001
ACAD
1000
RTMaterial
1005
0
  0
SPLINE
  5
612CD
330
1F
100
AcDbEntity
  8
1
100
AcDbSpline
210
0.0
220
0.0
230
1.0
 70
     8
 71
     3
 72
     9
 73
     5
 74
     0
 42
0.0000000001
 43
0.0000000001
 40
0.0
 40
0.0
 40
0.0
 40
0.0
 40
0.2479687034
 40
1.0
 40
1.0
 40
1.0
 40
1.0
 10
47.48350920809995
 20
10.07262557899997
 30
0.0
 10
47.45247175460002
 20
10.07178260879999
 30
0.0
 10
47.32721630690003
 20
10.0725636926
 30
0.0
 10
47.20214523650002
 20
10.08995479840001
 30
0.0
 10
47.11048499700001
 20
10.1115249979
 30
0.0
1001
ACAD
1000
RTMaterial
1005
0
  0
SPLINE
  5
612CE
330
1F
100
AcDbEntity
  8
1
100
AcDbSpline
210
0.0
220
0.0
230
1.0
 70
     8
 71
     3
 72
     9
 73
     5
 74
     0
 42
0.0000000001
 43
0.0000000001
 40
0.0
 40
0.0
 40
0.0
 40
0.0
 40
0.4970104694
 40
1.0
 40
1.0
 40
1.0
 40
1.0
 10
35.7471717094
 20
17.0015066556
 30
0.0
 10
35.7200659659
 20
17.06142553489996
 30
0.0
 10
35.67396004260003
 20
17.18599159000001
 30
0.0
 10
35.6464589734
 20
17.315981142
 30
0.0
 10
35.63752507359999
 20
17.381934645
 30
0.0
1001
ACAD
1000
RTMaterial
1005
0
  0
SPLINE
  5
612CF
330
1F
100
AcDbEntity
  8
1
100
AcDbSpline
210
0.0
220
0.0
230
1.0
 70
     8
 71
     3
 72
     9
 73
     5
 74
     0
 42
0.0000000001
 43
0.0000000001
 40
0.0
 40
0.0
 40
0.0
 40
0.0
 40
0.2595888317
 40
1.0
 40
1.0
 40
1.0
 40
1.0
 10
40.5457478175
 20
23.3962941401
 30
0.0
 10
40.56959835750001
 20
23.42193052989995
 30
0.0
 10
40.66458326819996
 20
23.5177434913
 30
0.0
 10
40.77158286510001
 20
23.60170888009998
 30
0.0
 10
40.85588262639999
 20
23.65526284949999
 30
0.0
1001
ACAD
1000
RTMaterial
1005
0
  0
SPLINE
  5
612D0
330
1F
100
AcDbEntity
  8
1
100
AcDbSpline
210
0.0
220
0.0
230
1.0
 70
     8
 71
     3
 72
     9
 73
     5
 74
     0
 42
0.0000000001
 43
0.0000000001
 40
0.0
 40
0.0
 40
0.0
 40
0.0
 40
0.2436610234
 40
1.0
 40
1.0
 40
1.0
 40
1.0
 10
40.88345504189999
 20
23.67275088909997
 30
0.0
 10
40.97156699789997
 20
23.72854204620001
 30
0.0
 10
41.33521732309996
 20
23.95428509809994
 30
0.0
 10
41.70730648300002
 20
24.16643476770004
 30
0.0
 10
41.99285084089996
 20
24.31894851869998
 30
0.0
1001
ACAD
1000
RTMaterial
1005
0
  0
LINE
  5
612D1
330
1F
100
AcDbEntity
  8
1
100
AcDbLine
 10
40.85588289179997
 20
23.65526241980001
 30
0.0
 11
40.88345561580001
 21
23.67274995669999
 31
0.0
1001
ACAD
1000
RTMaterial
1005
0
  0
SPLINE
  5
612D2
330
1F
100
AcDbEntity
  8
1
100
AcDbSpline
210
0.0
220
0.0
230
1.0
 70
     8
 71
     3
 72
    10
 73
     6
 74
     0
 42
0.0000000001
 43
0.0000000001
 40
0.0
 40
0.0
 40
0.0
 40
0.0
 40
0.2423405613
 40
0.6225996136000001
 40
1.0
 40
1.0
 40
1.0
 40
1.0
 10
40.27602940669999
 20
11.78210398089999
 30
0.0
 10
40.19301916670002
 20
11.82639159450002
 30
0.0
 10
39.98061053079999
 20
11.9417806042
 30
0.0
 10
39.64333206309999
 20
12.13413567890001
 30
0.0
 10
39.39125027360001
 20
12.28578918020003
 30
0.0
 10
39.26665247379998
 20
12.36288474259999
 30
0.0
1001
ACAD
1000
RTMaterial
1005
0
  0
SPLINE
  5
612D3
330
1F
100
AcDbEntity
  8
1
100
AcDbSpline
210
0.0
220
0.0
230
1.0
 70
     8
 71
     3
 72
     9
 73
     5
 74
     0
 42
0.0000000001
 43
0.0000000001
 40
0.0
 40
0.0
 40
0.0
 40
0.0
 40
0.250828918
 40
1.0
 40
1.0
 40
1.0
 40
1.0
 10
39.26665247379998
 20
12.36288474259999
 30
0.0
 10
39.2559002534
 20
12.36953773709996
 30
0.0
 10
39.21306104539997
 20
12.39610625899996
 30
0.0
 10
39.17033099259999
 20
12.42285074989996
 30
0.0
 10
39.13837887279999
 20
12.44298189939996
 30
0.0
1001
ACAD
1000
RTMaterial
1005
0
  0
LINE
  5
612D4
330
1F
100
AcDbEntity
  8
1
100
AcDbLine
 10
40.30550679179998
 20
11.76640753039999
 30
0.0
 11
40.27602992249994
 21
11.78210494709998
 31
0.0
1001
ACAD
1000
RTMaterial
1005
0
  0
SPLINE
  5
612D5
330
1F
100
AcDbEntity
  8
1
100
AcDbSpline
210
0.0
220
0.0
230
1.0
 70
     8
 71
     3
 72
     9
 73
     5
 74
     0
 42
0.0000000001
 43
0.0000000001
 40
0.0
 40
0.0
 40
0.0
 40
0.0
 40
0.2572621253
 40
1.0
 40
1.0
 40
1.0
 40
1.0
 10
40.68675868499997
 20
11.62320568050001
 30
0.0
 10
40.6527096442
 20
11.63121836569996
 30
0.0
 10
40.52140893429998
 20
11.66668015739998
 30
0.0
 10
40.39467946359997
 20
11.71900744779998
 30
0.0
 10
40.3055065707
 20
11.76640711419998
 30
0.0
1001
ACAD
1000
RTMaterial
1005
0
  0
SPLINE
  5
612D6
330
1F
100
AcDbEntity
  8
1
100
AcDbSpline
210
0.0
220
0.0
230
1.0
 70
     8
 71
     3
 72
     8
 73
     4
 74
     0
 42
0.0000000001
 43
0.0000000001
 40
0.0
 40
0.0
 40
0.0
 40
0.0
 40
1.0
 40
1.0
 40
1.0
 40
1.0
 10
39.13837956639998
 20
12.44298299989998
 30
0.0
 10
39.12404933350001
 20
12.45201163579997
 30
0.0
 10
39.11001596720002
 20
12.46152976270002
 30
0.0
 10
39.09632961369999
 20
12.47150751639998
 30
0.0
1001
ACAD
1000
RTMaterial
1005
0
  0
LINE
  5
612D7
330
1F
100
AcDbEntity
  8
1
100
AcDbLine
 10
41.99285145350001
 20
24.31894737099998
 30
0.0
 11
42.00802436539999
 21
24.32681953069999
 31
0.0
1001
ACAD
1000
RTMaterial
1005
0
  0
SPLINE
  5
612D8
330
1F
100
AcDbEntity
  8
1
100
AcDbSpline
210
0.0
220
0.0
230
1.0
 70
     8
 71
     3
 72
    15
 73
    11
 74
     0
 42
0.0000000001
 43
0.0000000001
 40
0.0
 40
0.0
 40
0.0
 40
0.0
 40
0.1157241987
 40
0.23355972
 40
0.3543137033
 40
0.4783270848
 40
0.605496309
 40
0.7353690885999999
 40
0.8672130326000001
 40
1.0
 40
1.0
 40
1.0
 40
1.0
 10
33.1045319461
 20
12.42726461489997
 30
0.0
 10
32.98319262180001
 20
12.34830299149996
 30
0.0
 10
32.72771422770001
 20
12.20470560989997
 30
0.0
 10
32.31775307079999
 20
12.03399940869997
 30
0.0
 10
31.88264731889996
 20
11.90331663939997
 30
0.0
 10
31.42655342559999
 20
11.80882006439998
 30
0.0
 10
30.9535561335
 20
11.74670248130002
 30
0.0
 10
30.46788989679999
 20
11.71383541770001
 30
0.0
 10
29.97417416300005
 20
11.70831856699999
 30
0.0
 10
29.64321880289998
 20
11.72287919780001
 30
0.0
 10
29.47757591650003
 20
11.73538968779996
 30
0.0
1001
ACAD
1000
RTMaterial
1005
0
  0
SPLINE
  5
612D9
330
1F
100
AcDbEntity
  8
1
100
AcDbSpline
210
0.0
220
0.0
230
1.0
 70
     8
 71
     3
 72
    27
 73
    23
 74
     0
 42
0.0000000001
 43
0.0000000001
 40
0.0
 40
0.0
 40
0.0
 40
0.0
 40
0.2293789741
 40
0.4301208817
 40
0.5195255845000001
 40
0.6015246302000003
 40
0.6760571192000004
 40
0.7430630166
 40
0.8024806056999999
 40
0.8542454914
 40
0.8982881515
 40
0.9345343951999998
 40
0.9497093232
 40
0.9629051895999999
 40
0.9741113868999999
 40
0.9833174501
 40
0.9905130737
 40
0.9956886253
 40
0.9975167866999999
 40
0.9988385743000002
 40
0.9996575250000001
 40
1.0
 40
1.0
 40
1.0
 40
1.0
 10
39.1609072695
 20
23.8087144575
 30
0.0
 10
39.09867037480001
 20
23.81392612549996
 30
0.0
 10
38.982022047
 20
23.82437424059998
 30
0.0
 10
38.8412730073
 20
23.83851428179998
 30
0.0
 10
38.74053066419998
 20
23.84938523119996
 30
0.0
 10
38.67398667129999
 20
23.8568655441
 30
0.0
 10
38.61353224370004
 20
23.86391775769999
 30
0.0
 10
38.55921065199999
 20
23.87047499399995
 30
0.0
 10
38.51106661900003
 20
23.8764775935
 30
0.0
 10
38.46914773560003
 20
23.88187112209999
 30
0.0
 10
38.4335060765
 20
23.88661008329996
 30
0.0
 10
38.40775675960003
 20
23.89016038249997
 30
0.0
 10
38.39034069130003
 20
23.89265359220003
 30
0.0
 10
38.37967938169999
 20
23.89422420200003
 30
0.0
 10
38.37063476750001
 20
23.89560603630002
 30
0.0
 10
38.36320884510002
 20
23.89679503720004
 30
0.0
 10
38.3574270542
 20
23.8977876541
 30
0.0
 10
38.35360978260002
 20
23.89850884949999
 30
0.0
 10
38.35142144859998
 20
23.89900006970004
 30
0.0
 10
38.35033487830003
 20
23.89927867809996
 30
0.0
 10
38.34976905420001
 20
23.89948439759996
 30
0.0
 10
38.34939831010002
 20
23.8996483871
 30
0.0
 10
38.34939706699998
 20
23.89974162700003
 30
0.0
1001
ACAD
1000
RTMaterial
1005
0
  0
SPLINE
  5
612DA
330
1F
100
AcDbEntity
  8
1
100
AcDbSpline
210
0.0
220
0.0
230
1.0
 70
     8
 71
     3
 72
    12
 73
     8
 74
     0
 42
0.0000000001
 43
0.0000000001
 40
0.0
 40
0.0
 40
0.0
 40
0.0
 40
0.271741893
 40
0.5318654943
 40
0.7761822612
 40
0.8909741218
 40
1.0
 40
1.0
 40
1.0
 40
1.0
 10
20.6725901447
 20
15.04728930290002
 30
0.0
 10
20.44970452249998
 20
15.14129175929997
 30
0.0
 10
20.02218855230001
 20
15.3471881877
 30
0.0
 10
19.43554197650002
 20
15.71487365829995
 30
0.0
 10
19.00766474919999
 20
16.06576603799999
 30
0.0
 10
18.71923824470002
 20
16.36712287749998
 30
0.0
 10
18.59480463739999
 20
16.52322166529996
 30
0.0
 10
18.53850784319996
 20
16.60227713159997
 30
0.0
1001
ACAD
1000
RTMaterial
1005
0
  0
LINE
  5
612DB
330
1F
100
AcDbEntity
  8
1
100
AcDbLine
 10
47.11877837949997
 20
9.826433897100001
 30
0.0
 11
47.10151771099996
 21
9.736352296800019
 31
0.0
1001
ACAD
1000
RTMaterial
1005
0
  0
SPLINE
  5
612DC
330
1F
100
AcDbEntity
  8
1
100
AcDbSpline
210
0.0
220
0.0
230
1.0
 70
     8
 71
     3
 72
     9
 73
     5
 74
     0
 42
0.0000000001
 43
0.0000000001
 40
0.0
 40
0.0
 40
0.0
 40
0.0
 40
0.2400871157
 40
1.0
 40
1.0
 40
1.0
 40
1.0
 10
40.50559556649999
 20
11.18341909269997
 30
0.0
 10
40.51615815629998
 20
11.18750518820002
 30
0.0
 10
40.55989381179999
 20
11.2051857001
 30
0.0
 10
40.60253356569996
 20
11.2255870852
 30
0.0
 10
40.63410022580001
 20
11.24257313290002
 30
0.0
1001
ACAD
1000
RTMaterial
1005
0
  0
SPLINE
  5
612DD
330
1F
100
AcDbEntity
  8
1
100
AcDbSpline
210
0.0
220
0.0
230
1.0
 70
     8
 71
     3
 72
     9
 73
     5
 74
     0
 42
0.0000000001
 43
0.0000000001
 40
0.0
 40
0.0
 40
0.0
 40
0.0
 40
0.2506844907
 40
1.0
 40
1.0
 40
1.0
 40
1.0
 10
38.6844318574
 20
11.85649080579998
 30
0.0
 10
38.67925313519999
 20
11.86223590909998
 30
0.0
 10
38.65910652700001
 20
11.8856096842
 30
0.0
 10
38.64106125789999
 20
11.9107949442
 30
0.0
 10
38.6288971564
 20
11.93045581149999
 30
0.0
1001
ACAD
1000
RTMaterial
1005
0
  0
SPLINE
  5
612DE
330
1F
100
AcDbEntity
  8
1
100
AcDbSpline
210
0.0
220
0.0
230
1.0
 70
     8
 71
     3
 72
    10
 73
     6
 74
     0
 42
0.0000000001
 43
0.0000000001
 40
0.0
 40
0.0
 40
0.0
 40
0.0
 40
0.5651928552000001
 40
0.8074436995999999
 40
1.0
 40
1.0
 40
1.0
 40
1.0
 10
38.51699690330003
 20
12.07949837220002
 30
0.0
 10
38.51095809520001
 20
12.1440473435
 30
0.0
 10
38.50891064350003
 20
12.23712373270001
 30
0.0
 10
38.51950894340001
 20
12.35139898419999
 30
0.0
 10
38.52766518839997
 20
12.40066776459997
 30
0.0
 10
38.53231529739998
 20
12.42226001789999
 30
0.0
1001
ACAD
1000
RTMaterial
1005
0
  0
SPLINE
  5
612DF
330
1F
100
AcDbEntity
  8
1
100
AcDbSpline
210
0.0
220
0.0
230
1.0
 70
     8
 71
     3
 72
     9
 73
     5
 74
     0
 42
0.0000000001
 43
0.0000000001
 40
0.0
 40
0.0
 40
0.0
 40
0.0
 40
0.25735812
 40
1.0
 40
1.0
 40
1.0
 40
1.0
 10
38.45432822650002
 20
12.204330427
 30
0.0
 10
38.45148755330001
 20
12.21612658189997
 30
0.0
 10
38.4406739826
 20
12.26201600069998
 30
0.0
 10
38.43072005149998
 20
12.30810689549997
 30
0.0
 10
38.42376235329999
 20
12.3424211075
 30
0.0
1001
ACAD
1000
RTMaterial
1005
0
  0
SPLINE
  5
612E0
330
1F
100
AcDbEntity
  8
1
100
AcDbSpline
210
0.0
220
0.0
230
1.0
 70
     8
 71
     3
 72
     9
 73
     5
 74
     0
 42
0.0000000001
 43
0.0000000001
 40
0.0
 40
0.0
 40
0.0
 40
0.0
 40
0.2690519427
 40
1.0
 40
1.0
 40
1.0
 40
1.0
 10
38.42376235329999
 20
12.3424211075
 30
0.0
 10
38.414352404
 20
12.38882941449998
 30
0.0
 10
38.382333959
 20
12.5619151491
 30
0.0
 10
38.36013818909999
 20
12.73673411999999
 30
0.0
 10
38.34819068249999
 20
12.86482378239998
 30
0.0
1001
ACAD
1000
RTMaterial
1005
0
  0
SPLINE
  5
612E1
330
1F
100
AcDbEntity
  8
1
100
AcDbSpline
210
0.0
220
0.0
230
1.0
 70
     8
 71
     3
 72
     9
 73
     5
 74
     0
 42
0.0000000001
 43
0.0000000001
 40
0.0
 40
0.0
 40
0.0
 40
0.0
 40
0.5045281668000002
 40
1.0
 40
1.0
 40
1.0
 40
1.0
 10
34.9724689848
 20
16.95094124649995
 30
0.0
 10
34.90410639050003
 20
17.01876138699998
 30
0.0
 10
34.784014582
 20
17.16978596820001
 30
0.0
 10
34.70414075340001
 20
17.34555265749998
 30
0.0
 10
34.67603196159996
 20
17.43584660089999
 30
0.0
1001
ACAD
1000
RTMaterial
1005
0
  0
LINE
  5
612E2
330
1F
100
AcDbEntity
  8
1
100
AcDbLine
 10
38.35158726830002
 20
23.89999997720003
 30
0.0
 11
38.36349764059998
 21
23.89939886180002
 31
0.0
1001
ACAD
1000
RTMaterial
1005
0
  0
SPLINE
  5
612E3
330
1F
100
AcDbEntity
  8
1
100
AcDbSpline
210
0.0
220
0.0
230
1.0
 70
     8
 71
     3
 72
    14
 73
    10
 74
     0
 42
0.0000000001
 43
0.0000000001
 40
0.0
 40
0.0
 40
0.0
 40
0.0
 40
0.0343302129
 40
0.0967877353
 40
0.187528286
 40
0.3059415402
 40
0.4503032918
 40
0.6174750526000004
 40
1.0
 40
1.0
 40
1.0
 40
1.0
 10
38.36349764059998
 20
23.89939886180002
 30
0.0
 10
38.38452776859998
 20
23.89792657639998
 30
0.0
 10
38.44370702830003
 20
23.89233071640001
 30
0.0
 10
38.55837164460002
 20
23.88173850930002
 30
0.0
 10
38.72450606979999
 20
23.86690481
 30
0.0
 10
38.94090524559999
 20
23.84958783999997
 30
0.0
 10
39.20432257789997
 20
23.83158600690001
 30
0.0
 10
39.62992087020001
 20
23.80858479439996
 30
0.0
 10
39.96743074670003
 20
23.79882588909999
 30
0.0
 10
40.20231717080003
 20
23.79611398149997
 30
0.0
1001
ACAD
1000
RTMaterial
1005
0
  0
SPLINE
  5
612E4
330
1F
100
AcDbEntity
  8
1
100
AcDbSpline
210
0.0
220
0.0
230
1.0
 70
     8
 71
     3
 72
    23
 73
    19
 74
     0
 42
0.0000000001
 43
0.0000000001
 40
0.0
 40
0.0
 40
0.0
 40
0.0
 40
0.07527492
 40
0.1489697015
 40
0.2203759711
 40
0.2885270629
 40
0.3522499636
 40
0.4105436457
 40
0.4635399261
 40
0.4887547015
 40
0.5136195974000001
 40
0.5638654532000002
 40
0.6169438209
 40
0.6736813797
 40
0.7339120636
 40
0.7971436376000001
 40
0.8628588796999999
 40
1.0
 40
1.0
 40
1.0
 40
1.0
 10
28.754525156
 20
11.8306943979
 30
0.0
 10
28.70602780469999
 20
11.84054476939997
 30
0.0
 10
28.6105159343
 20
11.86246094669997
 30
0.0
 10
28.47143833339999
 20
11.9034306666
 30
0.0
 10
28.34018363280002
 20
11.95318247569997
 30
0.0
 10
28.22021926240001
 20
12.01271458059995
 30
0.0
 10
28.11620734830001
 20
12.08299611289999
 30
0.0
 10
28.03384381300003
 20
12.16463353220001
 30
0.0
 10
27.98826986360001
 20
12.24373643389998
 30
0.0
 10
27.97030449339997
 20
12.30940190090001
 30
0.0
 10
27.96387088180001
 20
12.37534475929999
 30
0.0
 10
27.97700234019999
 20
12.46002419349997
 30
0.0
 10
28.02000184309998
 20
12.556944617
 30
0.0
 10
28.08339463800002
 20
12.6495446211
 30
0.0
 10
28.16242951070001
 20
12.73809397649995
 30
0.0
 10
28.25347783999996
 20
12.82300310649998
 30
0.0
 10
28.38926186179998
 20
12.93343573250001
 30
0.0
 10
28.49903149639999
 20
13.00952539639996
 30
0.0
 10
28.5745999321
 20
13.05870093649997
 30
0.0
1001
ACAD
1000
RTMaterial
1005
0
  0
SPLINE
  5
612E5
330
1F
100
AcDbEntity
  8
1
100
AcDbSpline
210
0.0
220
0.0
230
1.0
 70
     8
 71
     3
 72
    11
 73
     7
 74
     0
 42
0.0000000001
 43
0.0000000001
 40
0.0
 40
0.0
 40
0.0
 40
0.0
 40
0.2386955791
 40
0.4886034197
 40
0.7441298491000003
 40
1.0
 40
1.0
 40
1.0
 40
1.0
 10
38.34819068249999
 20
12.86482378239998
 30
0.0
 10
38.10514813420002
 20
13.15979124180001
 30
0.0
 10
37.6135716709
 20
13.76847567110002
 30
0.0
 10
36.87947446470003
 20
14.70701721479997
 30
0.0
 10
36.14214086929997
 20
15.67778290220002
 30
0.0
 10
35.65601926599999
 20
16.33675928549996
 30
0.0
 10
35.41532265519999
 20
16.66829758979998
 30
0.0
1001
ACAD
1000
RTMaterial
1005
0
  0
SPLINE
  5
612E6
330
1F
100
AcDbEntity
  8
1
100
AcDbSpline
210
0.0
220
0.0
230
1.0
 70
     8
 71
     3
 72
    15
 73
    11
 74
     0
 42
0.0000000001
 43
0.0000000001
 40
0.0
 40
0.0
 40
0.0
 40
0.0
 40
0.1461477804
 40
0.2850914127
 40
0.4154047949000001
 40
0.5384473060000003
 40
0.6564346306000001
 40
0.7714863268000001
 40
0.8854792029
 40
1.0
 40
1.0
 40
1.0
 40
1.0
 10
39.66784111979996
 20
11.3713057077
 30
0.0
 10
39.58603793740002
 20
11.37891495130003
 30
0.0
 10
39.42728744020003
 20
11.40561455959999
 30
0.0
 10
39.2045605793
 20
11.47848196839999
 30
0.0
 10
39.00665707960003
 20
11.57760590689997
 30
0.0
 10
38.83510832659999
 20
11.69783496849999
 30
0.0
 10
38.68902031210001
 20
11.83570249000001
 30
0.0
 10
38.56764752769999
 20
11.98931350639998
 30
0.0
 10
38.47072892220001
 20
12.15711916380002
 30
0.0
 10
38.4232388507
 20
12.27706317320002
 30
0.0
 10
38.40395212470003
 20
12.33848357689999
 30
0.0
1001
ACAD
1000
RTMaterial
1005
0
  0
SPLINE
  5
612E7
330
1F
100
AcDbEntity
  8
1
100
AcDbSpline
210
0.0
220
0.0
230
1.0
 70
     8
 71
     3
 72
     9
 73
     5
 74
     0
 42
0.0000000001
 43
0.0000000001
 40
0.0
 40
0.0
 40
0.0
 40
0.0
 40
0.2460925247
 40
1.0
 40
1.0
 40
1.0
 40
1.0
 10
42.38667201769999
 20
10.76504599279997
 30
0.0
 10
42.1635333963
 20
10.81427961029999
 30
0.0
 10
41.25696675979996
 20
11.01506570110001
 30
0.0
 10
40.35084785840001
 20
11.21786761290002
 30
0.0
 10
39.66784111979996
 20
11.3713057077
 30
0.0
1001
ACAD
1000
RTMaterial
1005
0
  0
SPLINE
  5
612E8
330
1F
100
AcDbEntity
  8
1
100
AcDbSpline
210
0.0
220
0.0
230
1.0
 70
     8
 71
     3
 72
     9
 73
     5
 74
     0
 42
0.0000000001
 43
0.0000000001
 40
0.0
 40
0.0
 40
0.0
 40
0.0
 40
0.5034788619000004
 40
1.0
 40
1.0
 40
1.0
 40
1.0
 10
29.47757591650003
 20
11.73538968779996
 30
0.0
 10
29.35547003839997
 20
11.74461196359999
 30
0.0
 10
29.11334076660001
 20
11.76858493039998
 30
0.0
 10
28.8728701316
 20
11.80665716840002
 30
0.0
 10
28.754525156
 20
11.8306943979
 30
0.0
1001
ACAD
1000
RTMaterial
1005
0
  0
SPLINE
  5
612E9
330
1F
100
AcDbEntity
  8
1
100
AcDbSpline
210
0.0
220
0.0
230
1.0
 70
     8
 71
     3
 72
     9
 73
     5
 74
     0
 42
0.0000000001
 43
0.0000000001
 40
0.0
 40
0.0
 40
0.0
 40
0.0
 40
0.2560308182
 40
1.0
 40
1.0
 40
1.0
 40
1.0
 10
43.17168300920001
 20
10.58785444529997
 30
0.0
 10
43.10476920010001
 20
10.60333560480001
 30
0.0
 10
42.8433281581
 20
10.66341063739997
 30
0.0
 10
42.58155742370002
 20
10.72204620419995
 30
0.0
 10
42.38667201769999
 20
10.76504599279997
 30
0.0
1001
ACAD
1000
RTMaterial
1005
0
  0
SPLINE
  5
612EA
330
1F
100
AcDbEntity
  8
1
100
AcDbSpline
210
0.0
220
0.0
230
1.0
 70
     8
 71
     3
 72
     9
 73
     5
 74
     0
 42
0.0000000001
 43
0.0000000001
 40
0.0
 40
0.0
 40
0.0
 40
0.0
 40
0.2499654761
 40
1.0
 40
1.0
 40
1.0
 40
1.0
 10
45.31386648499998
 20
10.09266936259996
 30
0.0
 10
45.13536690670003
 20
10.13389039359998
 30
0.0
 10
44.42128021050002
 20
10.2988415918
 30
0.0
 10
43.70722994089999
 20
10.46395046169999
 30
0.0
 10
43.17168300920001
 20
10.58785444529997
 30
0.0
1001
ACAD
1000
RTMaterial
1005
0
  0
SPLINE
  5
612EB
330
1F
100
AcDbEntity
  8
1
100
AcDbSpline
210
0.0
220
0.0
230
1.0
 70
     8
 71
     3
 72
    15
 73
    11
 74
     0
 42
0.0000000001
 43
0.0000000001
 40
0.0
 40
0.0
 40
0.0
 40
0.0
 40
0.1250103765
 40
0.2500142249
 40
0.3750113477000001
 40
0.5000047112
 40
0.6249979181000001
 40
0.7499935574
 40
0.8749940237
 40
1.0
 40
1.0
 40
1.0
 40
1.0
 10
34.67603196159996
 20
17.43584660089999
 30
0.0
 10
34.64329123689998
 20
17.53286734119996
 30
0.0
 10
34.60118604429999
 20
17.7357080333
 30
0.0
 10
34.61329421549999
 20
18.0455864315
 30
0.0
 10
34.70052230300002
 20
18.34341369029998
 30
0.0
 10
34.85829334069996
 20
18.61065504739997
 30
0.0
 10
35.07720865969998
 20
18.83065314059996
 30
0.0
 10
35.3437690358
 20
18.98967017289999
 30
0.0
 10
35.64105955619999
 20
19.07819512579998
 30
0.0
 10
35.84808569170003
 20
19.0869330369
 30
0.0
 10
35.95015637979998
 20
19.07882035339997
 30
0.0
1001
ACAD
1000
RTMaterial
1005
0
  0
SPLINE
  5
612EC
330
1F
100
AcDbEntity
  8
1
100
AcDbSpline
210
0.0
220
0.0
230
1.0
 70
     8
 71
     3
 72
     9
 73
     5
 74
     0
 42
0.0000000001
 43
0.0000000001
 40
0.0
 40
0.0
 40
0.0
 40
0.0
 40
0.2626999117
 40
1.0
 40
1.0
 40
1.0
 40
1.0
 10
34.88338885100001
 20
17.32951257299999
 30
0.0
 10
34.86784947839999
 20
17.33392448040001
 30
0.0
 10
34.80899449290002
 20
17.35175255630003
 30
0.0
 10
34.75131305790001
 20
17.3734353186
 30
0.0
 10
34.70970433679998
 20
17.3914395557
 30
0.0
1001
ACAD
1000
RTMaterial
1005
0
  0
SPLINE
  5
612ED
330
1F
100
AcDbEntity
  8
1
100
AcDbSpline
210
0.0
220
0.0
230
1.0
 70
     8
 71
     3
 72
     9
 73
     5
 74
     0
 42
0.0000000001
 43
0.0000000001
 40
0.0
 40
0.0
 40
0.0
 40
0.0
 40
0.2480316314
 40
1.0
 40
1.0
 40
1.0
 40
1.0
 10
34.9484899295
 20
17.3123600454
 30
0.0
 10
34.94308139890001
 20
17.31367569149995
 30
0.0
 10
34.92130069800004
 20
17.31908271110001
 30
0.0
 10
34.89962267190004
 20
17.32490349919999
 30
0.0
 10
34.88338885100001
 20
17.32951257299999
 30
0.0
1001
ACAD
1000
RTMaterial
1005
0
  0
SPLINE
  5
612EE
330
1F
100
AcDbEntity
  8
1
100
AcDbSpline
210
0.0
220
0.0
230
1.0
 70
     8
 71
     3
 72
     9
 73
     5
 74
     0
 42
0.0000000001
 43
0.0000000001
 40
0.0
 40
0.0
 40
0.0
 40
0.0
 40
0.4615557220000003
 40
1.0
 40
1.0
 40
1.0
 40
1.0
 10
35.41532265519999
 20
16.66829758979998
 30
0.0
 10
35.32734874289997
 20
16.72710997820002
 30
0.0
 10
35.13889134690004
 20
16.85774107200001
 30
0.0
 10
34.95678631139998
 20
16.99741072289998
 30
0.0
 10
34.86219246619999
 20
17.07673301789998
 30
0.0
1001
ACAD
1000
RTMaterial
1005
0
  0
SPLINE
  5
612EF
330
1F
100
AcDbEntity
  8
1
100
AcDbSpline
210
0.0
220
0.0
230
1.0
 70
     8
 71
     3
 72
     9
 73
     5
 74
     0
 42
0.0000000001
 43
0.0000000001
 40
0.0
 40
0.0
 40
0.0
 40
0.0
 40
0.24923109
 40
1.0
 40
1.0
 40
1.0
 40
1.0
 10
40.20231717080003
 20
23.79611398149997
 30
0.0
 10
40.21317091520001
 20
23.79598866840002
 30
0.0
 10
40.25670668460002
 20
23.7946773978
 30
0.0
 10
40.30014511139993
 20
23.79011793299998
 30
0.0
 10
40.33242111190003
 20
23.78488565909998
 30
0.0
1001
ACAD
1000
RTMaterial
1005
0
  0
SPLINE
  5
612F0
330
1F
100
AcDbEntity
  8
1
100
AcDbSpline
210
0.0
220
0.0
230
1.0
 70
     8
 71
     3
 72
     8
 73
     4
 74
     0
 42
0.0000000001
 43
0.0000000001
 40
0.0
 40
0.0
 40
0.0
 40
0.0
 40
1.0
 40
1.0
 40
1.0
 40
1.0
 10
34.70969793559999
 20
17.39142091369996
 30
0.0
 10
34.70213522940003
 20
17.39469399199998
 30
0.0
 10
34.69464307330003
 20
17.39813518829999
 30
0.0
 10
34.68723276269998
 20
17.40174002719999
 30
0.0
1001
ACAD
1000
RTMaterial
1005
0
  0
SPLINE
  5
612F1
330
1F
100
AcDbEntity
  8
1
100
AcDbSpline
210
0.0
220
0.0
230
1.0
 70
     8
 71
     3
 72
     9
 73
     5
 74
     0
 42
0.0000000001
 43
0.0000000001
 40
0.0
 40
0.0
 40
0.0
 40
0.0
 40
0.2517332007
 40
1.0
 40
1.0
 40
1.0
 40
1.0
 10
38.63893233339997
 20
12.79894379579997
 30
0.0
 10
38.6374312059
 20
12.81909218959998
 30
0.0
 10
38.63159247289997
 20
12.8991401028
 30
0.0
 10
38.62623530970001
 20
12.97922307589999
 30
0.0
 10
38.6224880451
 20
13.03916233289999
 30
0.0
1001
ACAD
1000
RTMaterial
1005
0
  0
SPLINE
  5
612F2
330
1F
100
AcDbEntity
  8
1
100
AcDbSpline
210
0.0
220
0.0
230
1.0
 70
     8
 71
     3
 72
     8
 73
     4
 74
     0
 42
0.0000000001
 43
0.0000000001
 40
0.0
 40
0.0
 40
0.0
 40
0.0
 40
1.0
 40
1.0
 40
1.0
 40
1.0
 10
40.77278926139995
 20
11.32767722069996
 30
0.0
 10
40.83957448729996
 20
11.37404450619999
 30
0.0
 10
40.9027381853
 20
11.42611308139999
 30
0.0
 10
40.9609817465
 20
11.48283943460001
 30
0.0
1001
ACAD
1000
RTMaterial
1005
0
  0
SPLINE
  5
612F3
330
1F
100
AcDbEntity
  8
1
100
AcDbSpline
210
0.0
220
0.0
230
1.0
 70
     8
 71
     3
 72
     9
 73
     5
 74
     0
 42
0.0000000001
 43
0.0000000001
 40
0.0
 40
0.0
 40
0.0
 40
0.0
 40
0.2494384359
 40
1.0
 40
1.0
 40
1.0
 40
1.0
 10
40.63410022580001
 20
11.24257313290002
 30
0.0
 10
40.64601786889999
 20
11.24898602729996
 30
0.0
 10
40.69342815779998
 20
11.2753729469
 30
0.0
 10
40.73933848319994
 20
11.30445319540001
 30
0.0
 10
40.77278926139995
 20
11.32767722069996
 30
0.0
1001
ACAD
1000
RTMaterial
1005
0
  0
LINE
  5
612F4
330
1F
100
AcDbEntity
  8
1
100
AcDbLine
 10
38.6390632257
 20
12.7975307616
 30
0.0
 11
38.63893233339997
 21
12.79894379579997
 31
0.0
1001
ACAD
1000
RTMaterial
1005
0
  0
SPLINE
  5
612F5
330
1F
100
AcDbEntity
  8
1
100
AcDbSpline
210
0.0
220
0.0
230
1.0
 70
     8
 71
     3
 72
     9
 73
     5
 74
     0
 42
0.0000000001
 43
0.0000000001
 40
0.0
 40
0.0
 40
0.0
 40
0.0
 40
0.2626579531
 40
1.0
 40
1.0
 40
1.0
 40
1.0
 10
38.60004580660001
 20
12.57845582430002
 30
0.0
 10
38.60087020240003
 20
12.59795703660001
 30
0.0
 10
38.6062846864
 20
12.672060966
 30
0.0
 10
38.62137485979996
 20
12.74567102970002
 30
0.0
 10
38.6390632257
 20
12.7975307616
 30
0.0
1001
ACAD
1000
RTMaterial
1005
0
  0
SPLINE
  5
612F6
330
1F
100
AcDbEntity
  8
1
100
AcDbSpline
210
0.0
220
0.0
230
1.0
 70
     8
 71
     3
 72
     9
 73
     5
 74
     0
 42
0.0000000001
 43
0.0000000001
 40
0.0
 40
0.0
 40
0.0
 40
0.0
 40
0.2368969947
 40
1.0
 40
1.0
 40
1.0
 40
1.0
 10
38.53231529739998
 20
12.42226001789999
 30
0.0
 10
38.53351794349999
 20
12.42784709579996
 30
0.0
 10
38.53918856300004
 20
12.45130231069998
 30
0.0
 10
38.54709061990002
 20
12.47419614249998
 30
0.0
 10
38.5540825837
 20
12.49122625469999
 30
0.0
1001
ACAD
1000
RTMaterial
1005
0
  0
SPLINE
  5
612F7
330
1F
100
AcDbEntity
  8
1
100
AcDbSpline
210
0.0
220
0.0
230
1.0
 70
     8
 71
     3
 72
     9
 73
     5
 74
     0
 42
0.0000000001
 43
0.0000000001
 40
0.0
 40
0.0
 40
0.0
 40
0.0
 40
0.2525884928
 40
1.0
 40
1.0
 40
1.0
 40
1.0
 10
38.53073862280002
 20
12.37296625819999
 30
0.0
 10
38.53150428830004
 20
12.37695949750002
 30
0.0
 10
38.53465899370002
 20
12.39274478390001
 30
0.0
 10
38.53831213490003
 20
12.40843097859999
 30
0.0
 10
38.54133405120001
 20
12.42007655980001
 30
0.0
1001
ACAD
1000
RTMaterial
1005
0
  0
SPLINE
  5
612F8
330
1F
100
AcDbEntity
  8
1
100
AcDbSpline
210
0.0
220
0.0
230
1.0
 70
     8
 71
     3
 72
     9
 73
     5
 74
     0
 42
0.0000000001
 43
0.0000000001
 40
0.0
 40
0.0
 40
0.0
 40
0.0
 40
0.2538006097
 40
1.0
 40
1.0
 40
1.0
 40
1.0
 10
38.54133405120001
 20
12.42007655980001
 30
0.0
 10
38.54283902510002
 20
12.4258762888
 30
0.0
 10
38.54905376929997
 20
12.44865253749998
 30
0.0
 10
38.5564275982
 20
12.4711153947
 30
0.0
 10
38.56260928270001
 20
12.48761172429999
 30
0.0
1001
ACAD
1000
RTMaterial
1005
0
  0
SPLINE
  5
612F9
330
1F
100
AcDbEntity
  8
1
100
AcDbSpline
210
0.0
220
0.0
230
1.0
 70
     8
 71
     3
 72
     8
 73
     4
 74
     0
 42
0.0000000001
 43
0.0000000001
 40
0.0
 40
0.0
 40
0.0
 40
0.0
 40
1.0
 40
1.0
 40
1.0
 40
1.0
 10
38.56260928270001
 20
12.48761172429999
 30
0.0
 10
38.56529358720003
 20
12.49477500979998
 30
0.0
 10
38.56810705330003
 20
12.50189131389999
 30
0.0
 10
38.5710517463
 20
12.50895154989996
 30
0.0
1001
ACAD
1000
RTMaterial
1005
0
  0
SPLINE
  5
612FA
330
1F
100
AcDbEntity
  8
1
100
AcDbSpline
210
0.0
220
0.0
230
1.0
 70
     8
 71
     3
 72
    11
 73
     7
 74
     0
 42
0.0000000001
 43
0.0000000001
 40
0.0
 40
0.0
 40
0.0
 40
0.0
 40
0.2615591517
 40
0.5084963344000001
 40
0.7507675928000001
 40
1.0
 40
1.0
 40
1.0
 40
1.0
 10
38.6288971564
 20
11.93045581149999
 30
0.0
 10
38.60761184670002
 20
11.9648699434
 30
0.0
 10
38.56986692340001
 20
12.0342160303
 30
0.0
 10
38.53152383679998
 20
12.14455786130003
 30
0.0
 10
38.51661963610002
 20
12.2586832536
 30
0.0
 10
38.5234778098
 20
12.33509833089999
 30
0.0
 10
38.53073862280002
 20
12.37296625819999
 30
0.0
1001
ACAD
1000
RTMaterial
1005
0
  0
SPLINE
  5
612FB
330
1F
100
AcDbEntity
  8
1
100
AcDbSpline
210
0.0
220
0.0
230
1.0
 70
     8
 71
     3
 72
     9
 73
     5
 74
     0
 42
0.0000000001
 43
0.0000000001
 40
0.0
 40
0.0
 40
0.0
 40
0.0
 40
0.4908208704
 40
1.0
 40
1.0
 40
1.0
 40
1.0
 10
38.40395212470003
 20
12.33848357689999
 30
0.0
 10
38.37788246470001
 20
12.42150487570001
 30
0.0
 10
38.34140235659999
 20
12.59630656569999
 30
0.0
 10
38.34006389280001
 20
12.77491739859999
 30
0.0
 10
38.34819068249999
 20
12.86482378239998
 30
0.0
1001
ACAD
1000
RTMaterial
1005
0
  0
SPLINE
  5
612FC
330
1F
100
AcDbEntity
  8
1
100
AcDbSpline
210
0.0
220
0.0
230
1.0
 70
     8
 71
     3
 72
     9
 73
     5
 74
     0
 42
0.0000000001
 43
0.0000000001
 40
0.0
 40
0.0
 40
0.0
 40
0.0
 40
0.2511323983
 40
1.0
 40
1.0
 40
1.0
 40
1.0
 10
47.11941553069999
 20
10.06272700149998
 30
0.0
 10
47.11576355879997
 20
10.04485423889997
 30
0.0
 10
47.10128624430001
 20
9.973672354899974
 30
0.0
 10
47.08707556479999
 20
9.902436187499972
 30
0.0
 10
47.07659686409999
 20
9.849057865100007
 30
0.0
1001
ACAD
1000
RTMaterial
1005
0
  0
SPLINE
  5
612FD
330
1F
100
AcDbEntity
  8
1
100
AcDbSpline
210
0.0
220
0.0
230
1.0
 70
     8
 71
     3
 72
     9
 73
     5
 74
     0
 42
0.0000000001
 43
0.0000000001
 40
0.0
 40
0.0
 40
0.0
 40
0.0
 40
0.5000005874
 40
1.0
 40
1.0
 40
1.0
 40
1.0
 10
33.52833452479996
 20
22.69133808909999
 30
0.0
 10
33.94869857399998
 20
22.80855851569999
 30
0.0
 10
34.80631258770001
 20
22.98622227039999
 30
0.0
 10
35.68012416810001
 20
23.04583493199999
 30
0.0
 10
36.11652497580003
 20
23.04588300329999
 30
0.0
1001
ACAD
1000
RTMaterial
1005
0
  0
SPLINE
  5
612FE
330
1F
100
AcDbEntity
  8
1
100
AcDbSpline
210
0.0
220
0.0
230
1.0
 70
     8
 71
     3
 72
     9
 73
     5
 74
     0
 42
0.0000000001
 43
0.0000000001
 40
0.0
 40
0.0
 40
0.0
 40
0.0
 40
0.2467158355
 40
1.0
 40
1.0
 40
1.0
 40
1.0
 10
28.5745999321
 20
13.05870093649997
 30
0.0
 10
28.59552992030002
 20
13.07232095479998
 30
0.0
 10
28.68083359560002
 20
13.1268050951
 30
0.0
 10
28.76774732670003
 20
13.17874069210001
 30
0.0
 10
28.83378424069997
 20
13.21684887269998
 30
0.0
1001
ACAD
1000
RTMaterial
1005
0
  0
SPLINE
  5
612FF
330
1F
100
AcDbEntity
  8
1
100
AcDbSpline
210
0.0
220
0.0
230
1.0
 70
     8
 71
     3
 72
     9
 73
     5
 74
     0
 42
0.0000000001
 43
0.0000000001
 40
0.0
 40
0.0
 40
0.0
 40
0.0
 40
0.2218123559
 40
1.0
 40
1.0
 40
1.0
 40
1.0
 10
34.81862519380002
 20
17.13774673399996
 30
0.0
 10
34.83143159489998
 20
17.12991269380001
 30
0.0
 10
34.88993799830002
 20
17.0958643788
 30
0.0
 10
34.95161592810001
 20
17.06732362000002
 30
0.0
 10
35.00065678179999
 20
17.04811462160001
 30
0.0
1001
ACAD
1000
RTMaterial
1005
0
  0
SPLINE
  5
61300
330
1F
100
AcDbEntity
  8
1
100
AcDbSpline
210
0.0
220
0.0
230
1.0
 70
     8
 71
     3
 72
    27
 73
    23
 74
     0
 42
0.0000000001
 43
0.0000000001
 40
0.0
 40
0.0
 40
0.0
 40
0.0
 40
0.0558416154
 40
0.0819231178
 40
0.1068282416
 40
0.1306867283
 40
0.1537059915
 40
0.1761652865
 40
0.1983967555999999
 40
0.2207571283
 40
0.2435872525
 40
0.2916904733
 40
0.3174363425
 40
0.344431842
 40
0.402273207
 40
0.4651644403000001
 40
0.5326493540000003
 40
0.6041326457000002
 40
0.6789800328
 40
0.7565677099000001
 40
0.8363016411
 40
1.0
 40
1.0
 40
1.0
 40
1.0
 10
18.53850784319996
 20
16.60227713159997
 30
0.0
 10
18.46442099260002
 20
16.70631450369995
 30
0.0
 10
18.36618308370004
 20
16.86729152110001
 30
0.0
 10
18.27005548749997
 20
17.0922968049
 30
0.0
 10
18.21978933100001
 20
17.25632862200001
 30
0.0
 10
18.1906724268
 20
17.41834527809999
 30
0.0
 10
18.18335094460002
 20
17.57726067300001
 30
0.0
 10
18.19812131420002
 20
17.73196284299996
 30
0.0
 10
18.23497026260003
 20
17.88139980739998
 30
0.0
 10
18.29356774339998
 20
18.02462508320002
 30
0.0
 10
18.40128689069996
 20
18.20949658720001
 30
0.0
 10
18.5490563468
 20
18.37707948549996
 30
0.0
 10
18.7253149224
 20
18.5260675957
 30
0.0
 10
18.93188824169999
 20
18.67252648020002
 30
0.0
 10
19.22830127489999
 20
18.83672838849998
 30
0.0
 10
19.6248268315
 20
19.00556729229998
 30
0.0
 10
20.06221063010003
 20
19.15439810919997
 30
0.0
 10
20.53318732489998
 20
19.28669283989995
 30
0.0
 10
21.03142569419998
 20
19.40564815689998
 30
0.0
 10
21.55131355489999
 20
19.51405268689996
 30
0.0
 10
22.2731294166
 20
19.6487312479
 30
0.0
 10
22.82271837259998
 20
19.73834273929998
 30
0.0
 10
23.19270707290002
 20
19.79571736679998
 30
0.0
1001
ACAD
1000
RTMaterial
1005
0
  0
SPLINE
  5
61301
330
1F
100
AcDbEntity
  8
1
100
AcDbSpline
210
0.0
220
0.0
230
1.0
 70
     8
 71
     3
 72
     8
 73
     4
 74
     0
 42
0.0000000001
 43
0.0000000001
 40
0.0
 40
0.0
 40
0.0
 40
0.0
 40
1.0
 40
1.0
 40
1.0
 40
1.0
 10
33.52833452479996
 20
22.69133808909999
 30
0.0
 10
31.7518193144
 20
22.19594874450002
 30
0.0
 10
29.9756247528
 20
21.69940737720003
 30
0.0
 10
28.19982632049999
 20
21.2014547453
 30
0.0
1001
ACAD
1000
RTMaterial
1005
0
  0
SPLINE
  5
61302
330
1F
100
AcDbEntity
  8
1
100
AcDbSpline
210
0.0
220
0.0
230
1.0
 70
     8
 71
     3
 72
     9
 73
     5
 74
     0
 42
0.0000000001
 43
0.0000000001
 40
0.0
 40
0.0
 40
0.0
 40
0.0
 40
0.2498777467
 40
1.0
 40
1.0
 40
1.0
 40
1.0
 10
27.61126847759999
 20
21.0321432376
 30
0.0
 10
27.66019466329999
 20
21.04657701090002
 30
0.0
 10
27.85609351569997
 20
21.1040064476
 30
0.0
 10
28.05238111609999
 20
21.16010955309997
 30
0.0
 10
28.19982632049999
 20
21.2014547453
 30
0.0
1001
ACAD
1000
RTMaterial
1005
0
  0
SPLINE
  5
61303
330
1F
100
AcDbEntity
  8
1
100
AcDbSpline
210
0.0
220
0.0
230
1.0
 70
     8
 71
     3
 72
    15
 73
    11
 74
     0
 42
0.0000000001
 43
0.0000000001
 40
0.0
 40
0.0
 40
0.0
 40
0.0
 40
0.1278692405
 40
0.2553270542
 40
0.3820455947
 40
0.5078126735000002
 40
0.6325208943999999
 40
0.7561264299
 40
0.8786178995999998
 40
1.0
 40
1.0
 40
1.0
 40
1.0
 10
28.00388370539997
 20
17.77463327890001
 30
0.0
 10
27.77592909999999
 20
17.76850241209996
 30
0.0
 10
27.31959467939998
 20
17.7806306041
 30
0.0
 10
26.64392646479996
 20
17.8805341387
 30
0.0
 10
25.98940508129999
 20
18.06216483759999
 30
0.0
 10
25.36497516280002
 20
18.3157730355
 30
0.0
 10
24.77396142679999
 20
18.62717127149995
 30
0.0
 10
24.21591991859998
 20
18.98314291589997
 30
0.0
 10
23.68887790119999
 20
19.37336309389997
 30
0.0
 10
23.35509757649999
 20
19.6525818636
 30
0.0
 10
23.19270707290002
 20
19.79571736679998
 30
0.0
1001
ACAD
1000
RTMaterial
1005
0
  0
SPLINE
  5
61304
330
1F
100
AcDbEntity
  8
1
100
AcDbSpline
210
0.0
220
0.0
230
1.0
 70
     8
 71
     3
 72
     9
 73
     5
 74
     0
 42
0.0000000001
 43
0.0000000001
 40
0.0
 40
0.0
 40
0.0
 40
0.0
 40
0.5000061241
 40
1.0
 40
1.0
 40
1.0
 40
1.0
 10
29.0932753422
 20
17.75506367779996
 30
0.0
 10
28.91193616560002
 20
17.76543249130003
 30
0.0
 10
28.5488654605
 20
17.77968069909997
 30
0.0
 10
28.18544897499999
 20
17.77951649880003
 30
0.0
 10
28.00388370539997
 20
17.77463327890001
 30
0.0
1001
ACAD
1000
RTMaterial
1005
0
  0
SPLINE
  5
61305
330
1F
100
AcDbEntity
  8
1
100
AcDbSpline
210
0.0
220
0.0
230
1.0
 70
     8
 71
     3
 72
    21
 73
    17
 74
     0
 42
0.0000000001
 43
0.0000000001
 40
0.0
 40
0.0
 40
0.0
 40
0.0
 40
0.0596379635
 40
0.1201926628
 40
0.2431306648
 40
0.3676560639
 40
0.4931730506000001
 40
0.6193417822000003
 40
0.6826049094
 40
0.7459589737000001
 40
0.8093882930999999
 40
0.8728786268
 40
0.9046485815
 40
0.9364302717000001
 40
0.9682191558999999
 40
1.0
 40
1.0
 40
1.0
 40
1.0
 10
28.83378424069997
 20
13.21684887269998
 30
0.0
 10
28.92655379170003
 20
13.27038376090001
 30
0.0
 10
29.11595320089999
 20
13.37408171219999
 30
0.0
 10
29.50573723690002
 20
13.57100990369997
 30
0.0
 10
30.00901357390001
 20
13.8011432582
 30
0.0
 10
30.62819832129998
 20
14.05702840149996
 30
0.0
 10
31.26071341789999
 20
14.2949237638
 30
0.0
 10
31.7965175032
 20
14.47664138979996
 30
0.0
 10
32.23079726219999
 20
14.60910033340002
 30
0.0
 10
32.55974809539998
 20
14.7003402862
 30
0.0
 10
32.89196211860002
 20
14.7806946416
 30
0.0
 10
33.17199880740003
 20
14.83471986889998
 30
0.0
 10
33.39816011109997
 20
14.86535923459996
 30
0.0
 10
33.56888715859998
 20
14.87980183540003
 30
0.0
 10
33.74026304120003
 20
14.88235700519999
 30
0.0
 10
33.85439807019999
 20
14.87233942450001
 30
0.0
 10
33.91066914999999
 20
14.86277832190001
 30
0.0
1001
ACAD
1000
RTMaterial
1005
0
  0
SPLINE
  5
61306
330
1F
100
AcDbEntity
  8
1
100
AcDbSpline
210
0.0
220
0.0
230
1.0
 70
     8
 71
     3
 72
     9
 73
     5
 74
     0
 42
0.0000000001
 43
0.0000000001
 40
0.0
 40
0.0
 40
0.0
 40
0.0
 40
0.501272819
 40
1.0
 40
1.0
 40
1.0
 40
1.0
 10
35.41532265519999
 20
16.66829758979998
 30
0.0
 10
35.33263015609998
 20
16.69919567849996
 30
0.0
 10
35.1736868964
 20
16.77834119290003
 30
0.0
 10
35.03481978729997
 20
16.88908519439997
 30
0.0
 10
34.9724689848
 20
16.95094124649995
 30
0.0
1001
ACAD
1000
RTMaterial
1005
0
  0
SPLINE
  5
61307
330
1F
100
AcDbEntity
  8
1
100
AcDbSpline
210
0.0
220
0.0
230
1.0
 70
     8
 71
     3
 72
    11
 73
     7
 74
     0
 42
0.0000000001
 43
0.0000000001
 40
0.0
 40
0.0
 40
0.0
 40
0.0
 40
0.2413293473
 40
0.4897628366
 40
0.7433321484000001
 40
1.0
 40
1.0
 40
1.0
 40
1.0
 10
23.19270707290002
 20
19.79571736679998
 30
0.0
 10
23.54757541600003
 20
19.89722579229999
 30
0.0
 10
24.26940850199998
 20
20.097436432
 30
0.0
 10
25.36632163740001
 20
20.39624362590001
 30
0.0
 10
26.48469802249997
 20
20.70553482419996
 30
0.0
 10
27.2347507778
 20
20.921066295
 30
0.0
 10
27.61126847759999
 20
21.0321432376
 30
0.0
1001
ACAD
1000
RTMaterial
1005
0
  0
SPLINE
  5
61308
330
1F
100
AcDbEntity
  8
1
100
AcDbSpline
210
0.0
220
0.0
230
1.0
 70
     8
 71
     3
 72
    24
 73
    20
 74
     0
 42
0.0000000001
 43
0.0000000001
 40
0.0
 40
0.0
 40
0.0
 40
0.0
 40
0.0341950422
 40
0.0683218368
 40
0.1023014844
 40
0.1360307704
 40
0.1694502225
 40
0.2025651978
 40
0.2354050128
 40
0.267996627
 40
0.3324549748
 40
0.3961037709
 40
0.4589643882
 40
0.5210672819
 40
0.5824607643000001
 40
0.6432153866000001
 40
0.7631149426000004
 40
0.8816934687999998
 40
1.0
 40
1.0
 40
1.0
 40
1.0
 10
33.91066914999999
 20
14.86277832190001
 30
0.0
 10
33.94611063259997
 20
14.85675640699998
 30
0.0
 10
34.01640120949998
 20
14.84105901679999
 30
0.0
 10
34.11746607960004
 20
14.80292614339998
 30
0.0
 10
34.20932111999997
 20
14.74625943159998
 30
0.0
 10
34.28454728460002
 20
14.66945539549999
 30
0.0
 10
34.33717462409999
 20
14.57688794019998
 30
0.0
 10
34.36757970510001
 20
14.4762299788
 30
0.0
 10
34.38011238639996
 20
14.37300187489995
 30
0.0
 10
34.37876454039997
 20
14.23617661439999
 30
0.0
 10
34.35200826030001
 20
14.06851087379999
 30
0.0
 10
34.29491720020002
 20
13.87567935909999
 30
0.0
 10
34.22026355920002
 20
13.69169158630001
 30
0.0
 10
34.13213819079999
 20
13.51651260439996
 30
0.0
 10
34.0328602962
 20
13.34999888809994
 30
0.0
 10
33.88820658570001
 20
13.14046682139997
 30
0.0
 10
33.68515716190001
 20
12.89901865389998
 30
0.0
 10
33.41015122370003
 20
12.6427255941
 30
0.0
 10
33.20877871159996
 20
12.49510324739998
 30
0.0
 10
33.1045319461
 20
12.42726461489997
 30
0.0
1001
ACAD
1000
RTMaterial
1005
0
  0
SPLINE
  5
61309
330
1F
100
AcDbEntity
  8
1
100
AcDbSpline
210
0.0
220
0.0
230
1.0
 70
     8
 71
     3
 72
     9
 73
     5
 74
     0
 42
0.0000000001
 43
0.0000000001
 40
0.0
 40
0.0
 40
0.0
 40
0.0
 40
0.239885172
 40
1.0
 40
1.0
 40
1.0
 40
1.0
 10
38.5540825837
 20
12.49122625469999
 30
0.0
 10
38.55707934550003
 20
12.49852537589999
 30
0.0
 10
38.57032978389997
 20
12.52863908479997
 30
0.0
 10
38.58648824490001
 20
12.55744901329996
 30
0.0
 10
38.60004580660001
 20
12.57845582430002
 30
0.0
1001
ACAD
1000
RTMaterial
1005
0
  0
SPLINE
  5
6130A
330
1F
100
AcDbEntity
  8
1
100
AcDbSpline
210
0.0
220
0.0
230
1.0
 70
     8
 71
     3
 72
     9
 73
     5
 74
     0
 42
0.0000000001
 43
0.0000000001
 40
0.0
 40
0.0
 40
0.0
 40
0.0
 40
0.242783237
 40
1.0
 40
1.0
 40
1.0
 40
1.0
 10
35.00065678179999
 20
17.04811462160001
 30
0.0
 10
35.02303386350002
 20
17.03934965739995
 30
0.0
 10
35.1163135759
 20
17.00614358209998
 30
0.0
 10
35.21376780729998
 20
16.98472186049997
 30
0.0
 10
35.28814074909997
 20
16.97540048639996
 30
0.0
1001
ACAD
1000
RTMaterial
1005
0
  0
SPLINE
  5
6130B
330
1F
100
AcDbEntity
  8
1
100
AcDbSpline
210
0.0
220
0.0
230
1.0
 70
     8
 71
     3
 72
     9
 73
     5
 74
     0
 42
0.0000000001
 43
0.0000000001
 40
0.0
 40
0.0
 40
0.0
 40
0.0
 40
0.2445580362
 40
1.0
 40
1.0
 40
1.0
 40
1.0
 10
34.69179555599999
 20
18.28792166169995
 30
0.0
 10
34.70351231210003
 20
18.30005381239999
 30
0.0
 10
34.75241685229998
 20
18.34869607140001
 30
0.0
 10
34.80509757330003
 20
18.39350799880003
 30
0.0
 10
34.8464856251
 20
18.42515367829998
 30
0.0
1001
ACAD
1000
RTMaterial
1005
0
  0
LINE
  5
6130C
330
1F
100
AcDbEntity
  8
1
100
AcDbLine
 10
34.8464856251
 20
18.42515367829998
 30
0.0
 11
34.8528102624
 21
18.42996296259997
 31
0.0
1001
ACAD
1000
RTMaterial
1005
0
  0
SPLINE
  5
6130D
330
1F
100
AcDbEntity
  8
1
100
AcDbSpline
210
0.0
220
0.0
230
1.0
 70
     8
 71
     3
 72
     9
 73
     5
 74
     0
 42
0.0000000001
 43
0.0000000001
 40
0.0
 40
0.0
 40
0.0
 40
0.0
 40
0.2636399047
 40
1.0
 40
1.0
 40
1.0
 40
1.0
 10
38.45612499600004
 20
12.33639345169996
 30
0.0
 10
38.45678966899999
 20
12.32097568669997
 30
0.0
 10
38.46017757229999
 20
12.26253630549996
 30
0.0
 10
38.46694710299999
 20
12.20428974959998
 30
0.0
 10
38.47387988790001
 20
12.16174832500002
 30
0.0
1001
ACAD
1000
RTMaterial
1005
0
  0
SPLINE
  5
6130E
330
1F
100
AcDbEntity
  8
1
100
AcDbSpline
210
0.0
220
0.0
230
1.0
 70
     8
 71
     3
 72
     9
 73
     5
 74
     0
 42
0.0000000001
 43
0.0000000001
 40
0.0
 40
0.0
 40
0.0
 40
0.0
 40
0.5031959821000001
 40
1.0
 40
1.0
 40
1.0
 40
1.0
 10
38.60780465170001
 20
13.0591745337
 30
0.0
 10
38.55290558179996
 20
12.94705590489997
 30
0.0
 10
38.47140916040002
 20
12.70965424389999
 30
0.0
 10
38.45081642399998
 20
12.4595311681
 30
0.0
 10
38.45612499600004
 20
12.33639345169996
 30
0.0
1001
ACAD
1000
RTMaterial
1005
0
  0
SPLINE
  5
6130F
330
1F
100
AcDbEntity
  8
1
100
AcDbSpline
210
0.0
220
0.0
230
1.0
 70
     8
 71
     3
 72
    12
 73
     8
 74
     0
 42
0.0000000001
 43
0.0000000001
 40
0.0
 40
0.0
 40
0.0
 40
0.0
 40
0.2805623834
 40
0.5404570123
 40
0.7782372755
 40
0.8906103184999999
 40
1.0
 40
1.0
 40
1.0
 40
1.0
 10
39.51481096129999
 20
11.70759979669998
 30
0.0
 10
39.43550663269997
 20
11.68306628459998
 30
0.0
 10
39.2773280815
 20
11.65094524139999
 30
0.0
 10
39.04492121470003
 20
11.65836130739996
 30
0.0
 10
38.87002364300002
 20
11.71456059349998
 30
0.0
 10
38.7547188369
 20
11.78773573399996
 30
0.0
 10
38.7061024175
 20
11.83245020239997
 30
0.0
 10
38.6844318574
 20
11.85649080579998
 30
0.0
1001
ACAD
1000
RTMaterial
1005
0
  0
ELLIPSE
  5
61310
330
1F
100
AcDbEntity
  8
1
100
AcDbEllipse
 10
21.93874565699997
 20
0.0
 30
0.0
 11
28.6325901612
 21
17.9542224452
 31
0.0
210
0.0
220
0.0
230
1.0
 40
0.5509514505
 41
0.620267254
 42
0.6334547892
1001
ACAD
1000
RTMaterial
1005
0
  0
ELLIPSE
  5
61311
330
1F
100
AcDbEntity
  8
1
100
AcDbEllipse
 10
35.49688954860001
 20
0.0
 30
0.0
 11
3.617844523
 21
23.8814740813
 31
0.0
210
0.0
220
0.0
230
0.9999999999999998
 40
0.2600577191
 41
-0.1601332816
 42
-0.0612402919
1001
ACAD
1000
RTMaterial
1005
0
  0
ELLIPSE
  5
61312
330
1F
100
AcDbEntity
  8
1
100
AcDbEllipse
 10
38.46989911920002
 20
18.71735871899995
 30
0.0
 11
2.5186665521
 21
-0.3785610472999999
 31
0.0
210
0.0
220
0.0
230
0.9999999999999998
 40
0.0794023216
 41
2.6959893311
 42
2.969691258899997
1001
ACAD
1000
RTMaterial
1005
0
  0
ELLIPSE
  5
61313
330
1F
100
AcDbEntity
  8
1
100
AcDbEllipse
 10
39.8944508761
 20
20.23790364919995
 30
0.0
 11
0.5582687664999999
 21
3.598597516999996
 31
0.0
210
0.0
220
0.0
230
1.0
 40
0.1469760863
 41
0.5942922381
 42
0.6030117561
1001
ACAD
1000
RTMaterial
1005
0
  0
ELLIPSE
  5
61314
330
1F
100
AcDbEntity
  8
1
100
AcDbEllipse
 10
43.07431989939999
 20
19.55158747299998
 30
0.0
 11
12.1249646645
 21
28.05744992920002
 31
0.0
210
0.0
220
0.0
230
0.9999999999999998
 40
0.0455322121
 41
-4.4416016868
 42
-4.439043917
1001
ACAD
1000
RTMaterial
1005
0
  0
ELLIPSE
  5
61315
330
1F
100
AcDbEntity
  8
1
100
AcDbEllipse
 10
48.79787661459999
 20
0.0
 30
0.0
 11
-8.20443724
 21
23.6519044215
 31
0.0
210
0.0
220
0.0
230
1.0
 40
0.4186438083000001
 41
0.0552973112
 42
0.1238794178
1001
ACAD
1000
RTMaterial
1005
0
  0
ELLIPSE
  5
61316
330
1F
100
AcDbEntity
  8
1
100
AcDbEllipse
 10
35.99240609960003
 20
16.71369070809999
 30
0.0
 11
2.365834335999997
 21
-0.3498189192
 31
0.0
210
0.0
220
0.0
230
1.0
 40
0.068494087
 41
1.6648322312
 42
1.8831709546
1001
ACAD
1000
RTMaterial
1005
0
  0
ELLIPSE
  5
61317
330
1F
100
AcDbEntity
  8
1
100
AcDbEllipse
 10
40.34836330819995
 20
20.72240289199999
 30
0.0
 11
-0.3854220559000001
 21
2.542344636
 31
0.0
210
0.0
220
0.0
230
1.0
 40
0.3618571872
 41
-0.1043418917
 42
0.3669041346
1001
ACAD
1000
RTMaterial
1005
0
  0
DIMENSION
  5
61552
330
1F
100
AcDbEntity
  8
2
100
AcDbDimension
  2
*D15
 10
47.40952320451111
 20
23.48705589856828
 30
0.0
 11
73.47655118728635
 21
36.61772391221282
 31
0.0
 70
   164
 71
     5
 42
1.50000000000022
  3
\M+18352\M+18373\M+1815B - ISO-25
100
AcDbRadialDimension
 15
48.74916086773229
 25
24.16186767327292
 35
0.0
 40
0.0
1001
ACAD
1000
DSTYLE
1002
{
1070
     4
1000
"
1070
    40
1040
1.0
1070
   143
1040
0.0393700787401575
1070
   170
1070
     1
1070
   171
1070
     3
1070
   271
1070
     8
1070
   285
1070
     4
1002
}
  0
DIMENSION
  5
615F3
330
1F
100
AcDbEntity
  8
2
100
AcDbDimension
  2
*D16
 10
48.69999999999999
 20
-44.52490261997752
 30
0.0
 11
81.39166666666669
 21
-44.52490261997752
 31
0.0
 70
   160
  1
<>(MAX)
 71
     5
 42
2.10000000000002
  3
\M+18352\M+18373\M+1815B - ISO-25
100
AcDbAlignedDimension
 13
50.80000000000001
 23
17.2306400794311
 33
0.0
 14
48.69999999999999
 24
10.98382363659772
 34
0.0
100
AcDbRotatedDimension
1001
ACAD
1000
DSTYLE
1002
{
1070
     4
1000
"
1070
    40
1040
1.0
1070
   143
1040
0.0393700787401575
1070
   170
1070
     1
1070
   171
1070
     3
1070
   271
1070
     8
1070
   285
1070
     4
1002
}
  0
LINE
  5
616C2
330
1F
100
AcDbEntity
  8
sk3
100
AcDbLine
 10
1.199999999999959
 20
4.762499998182811
 30
0.0
 11
1.199999999999988
 21
10.0249999989
 31
0.0
1001
ACAD
1000
RTMaterial
1005
0
  0
LINE
  5
616C3
330
1F
100
AcDbEntity
  8
sk3
100
AcDbLine
 10
3.5
 20
10.0249999989
 30
0.0
 11
3.499999999999971
 21
4.76249999935683
 31
0.0
1001
ACAD
1000
RTMaterial
1005
0
  0
LINE
  5
616C4
330
1F
100
AcDbEntity
  8
sk3
100
AcDbLine
 10
1.199999999999988
 20
10.0249999989
 30
0.0
 11
0.0
 21
11.22499999889999
 31
0.0
1001
ACAD
1000
RTMaterial
1005
0
  0
LINE
  5
616C5
330
1F
100
AcDbEntity
  8
sk3
100
AcDbLine
 10
12.99234537170002
 20
9.5249999989
 30
0.0
 11
12.99234537170002
 21
4.762500004202133
 31
0.0
1001
ACAD
1000
RTMaterial
1005
0
  0
LINE
  5
616C7
330
1F
100
AcDbEntity
  8
sk3
100
AcDbLine
 10
42.80000000000001
 20
4.249999998899993
 30
0.0
 11
46.30000000000001
 21
4.249999998899993
 31
0.0
1001
ACAD
1000
RTMaterial
1005
0
  0
LINE
  5
616C8
330
1F
100
AcDbEntity
  8
sk3
100
AcDbLine
 10
37.0
 20
7.499999998899993
 30
0.0
 11
42.0
 21
7.499999998899993
 31
0.0
1001
ACAD
1000
RTMaterial
1005
0
  0
LINE
  5
616C9
330
1F
100
AcDbEntity
  8
sk3
100
AcDbLine
 10
32.1999999956612
 20
8.499999998899994
 30
0.0
 11
32.8916198096
 21
8.499999998899994
 31
0.0
1001
ACAD
1000
RTMaterial
1005
0
  0
LINE
  5
616CA
330
1F
100
AcDbEntity
  8
sk3
100
AcDbLine
 10
12.99234537170002
 20
9.5249999989
 30
0.0
 11
18.13926112069998
 21
11.92504622850001
 31
0.0
1001
ACAD
1000
RTMaterial
1005
0
  0
LINE
  5
616CB
330
1F
100
AcDbEntity
  8
sk3
100
AcDbLine
 10
34.67735573010003
 20
9.249999998899994
 30
0.0
 11
36.19999999999999
 21
9.249999998899994
 31
0.0
1001
ACAD
1000
RTMaterial
1005
0
  0
LINE
  5
616CC
330
1F
100
AcDbEntity
  8
sk3
100
AcDbLine
 10
3.5
 20
9.5249999989
 30
0.0
 11
12.99234537170002
 21
9.5249999989
 31
0.0
1001
ACAD
1000
RTMaterial
1005
0
  0
LINE
  5
616CD
330
1F
100
AcDbEntity
  8
sk3
100
AcDbLine
 10
1.199999999999988
 20
10.0249999989
 30
0.0
 11
3.5
 21
10.0249999989
 31
0.0
1001
ACAD
1000
RTMaterial
1005
0
  0
LINE
  5
616CE
330
1F
100
AcDbEntity
  8
sk3
100
AcDbLine
 10
18.47735573010004
 20
11.99999999889999
 30
0.0
 11
25.89999999999998
 21
11.99999999889999
 31
0.0
1001
ACAD
1000
RTMaterial
1005
0
  0
LINE
  5
616CF
330
1F
100
AcDbEntity
  8
sk3
100
AcDbLine
 10
26.58867512748191
 20
9.000000011142306
 30
0.0
 11
26.30000000000001
 21
9.499999998899994
 31
0.0
1001
ACAD
1000
RTMaterial
1005
0
  0
LINE
  5
616D0
330
1F
100
AcDbEntity
  8
sk3
100
AcDbLine
 10
26.30000000000001
 20
9.000000010994952
 30
0.0
 11
26.30000000000001
 21
11.59999999889999
 31
0.0
1001
ACAD
1000
RTMaterial
1005
0
  0
LINE
  5
616D1
330
1F
100
AcDbEntity
  8
sk3
100
AcDbLine
 10
32.8916198096
 20
8.499999998899994
 30
0.0
 11
32.8916198096
 21
7.135000014359589
 31
0.0
1001
ACAD
1000
RTMaterial
1005
0
  0
LINE
  5
616D2
330
1F
100
AcDbEntity
  8
sk3
100
AcDbLine
 10
32.8916198096
 20
8.499999998899994
 30
0.0
 11
34.33926112069997
 21
9.175046228500006
 31
0.0
1001
ACAD
1000
RTMaterial
1005
0
  0
LINE
  5
616D4
330
1F
100
AcDbEntity
  8
sk3
100
AcDbLine
 10
42.80000000000001
 20
4.249999998899993
 30
0.0
 11
42.39999999999997
 21
4.6499999989
 31
0.0
1001
ACAD
1000
RTMaterial
1005
0
  0
LINE
  5
616D8
330
1F
100
AcDbEntity
  8
sk3
100
AcDbLine
 10
36.19999999999999
 20
9.249999998899994
 30
0.0
 11
36.19999999999999
 21
7.135000016048332
 31
0.0
1001
ACAD
1000
RTMaterial
1005
0
  0
LINE
  5
616D9
330
1F
100
AcDbEntity
  8
sk3
100
AcDbLine
 10
37.0
 20
8.449999998900011
 30
0.0
 11
37.0
 21
7.135000016456687
 31
0.0
1001
ACAD
1000
RTMaterial
1005
0
  0
LINE
  5
616DC
330
1F
100
AcDbEntity
  8
sk3
100
AcDbLine
 10
42.39999999999997
 20
0.0
 30
0.0
 11
42.39999999999997
 21
7.099999998899987
 31
0.0
1001
ACAD
1000
RTMaterial
1005
0
  0
LINE
  5
616DD
330
1F
100
AcDbEntity
  8
sk3
100
AcDbLine
 10
42.80000000000001
 20
0.0
 30
0.0
 11
42.80000000000001
 21
4.249999998899993
 31
0.0
1001
ACAD
1000
RTMaterial
1005
0
  0
LINE
  5
616DE
330
1F
100
AcDbEntity
  8
sk3
100
AcDbLine
 10
46.30000000000001
 20
4.249999998899993
 30
0.0
 11
46.30000000000001
 21
0.0
 31
0.0
1001
ACAD
1000
RTMaterial
1005
0
  0
LINE
  5
616DF
330
1F
100
AcDbEntity
  8
sk3
100
AcDbLine
 10
46.30000000000001
 20
4.249999998899993
 30
0.0
 11
46.80000000000001
 21
4.749999998899993
 31
0.0
1001
ACAD
1000
RTMaterial
1005
0
  0
LINE
  5
616E0
330
1F
100
AcDbEntity
  8
sk3
100
AcDbLine
 10
46.80000000000001
 20
7.416511361400011
 30
0.0
 11
46.80000000000001
 21
0.0
 31
0.0
1001
ACAD
1000
RTMaterial
1005
0
  0
ARC
  5
616E4
330
1F
100
AcDbEntity
  8
sk3
100
AcDbCircle
 10
61.80000000000001
 20
7.416511361400011
 30
0.0
 40
15.0
100
AcDbArc
 50
169.5914345383548
 51
180.0
1001
ACAD
1000
RTMaterial
1005
0
  0
ARC
  5
616E9
330
1F
100
AcDbEntity
  8
sk3
100
AcDbCircle
 10
36.19999999999999
 20
8.449999998900011
 30
0.0
 40
0.8
100
AcDbArc
 50
0.0
 51
90.0
1001
ACAD
1000
RTMaterial
1005
0
  0
ARC
  5
616EA
330
1F
100
AcDbEntity
  8
sk3
100
AcDbCircle
 10
34.67735573010003
 20
8.449999998900011
 30
0.0
 40
0.8
100
AcDbArc
 50
90.0
 51
114.9999999999997
1001
ACAD
1000
RTMaterial
1005
0
  0
ARC
  5
616EC
330
1F
100
AcDbEntity
  8
sk3
100
AcDbCircle
 10
18.47735573010004
 20
11.19999999890001
 30
0.0
 40
0.8
100
AcDbArc
 50
90.0
 51
114.9999999999997
1001
ACAD
1000
RTMaterial
1005
0
  0
ARC
  5
616EE
330
1F
100
AcDbEntity
  8
sk3
100
AcDbCircle
 10
42.0
 20
7.099999998899987
 30
0.0
 40
0.4
100
AcDbArc
 50
0.0
 51
90.0
1001
ACAD
1000
RTMaterial
1005
0
  0
ARC
  5
616EF
330
1F
100
AcDbEntity
  8
sk3
100
AcDbCircle
 10
25.89999999999998
 20
11.59999999889999
 30
0.0
 40
0.4
100
AcDbArc
 50
0.0
 51
90.0
1001
ACAD
1000
RTMaterial
1005
0
  0
LINE
  5
616F0
330
1F
100
AcDbEntity
  8
sk3
100
AcDbLine
 10
1.199999999999959
 20
-4.762499999999987
 30
0.0
 11
1.199999999999988
 21
-10.0249999989
 31
0.0
1001
ACAD
1000
RTMaterial
1005
0
  0
LINE
  5
616F1
330
1F
100
AcDbEntity
  8
sk3
100
AcDbLine
 10
3.5
 20
-10.0249999989
 30
0.0
 11
3.499999999999971
 21
-4.762499999999987
 31
0.0
1001
ACAD
1000
RTMaterial
1005
0
  0
LINE
  5
616F2
330
1F
100
AcDbEntity
  8
sk3
100
AcDbLine
 10
1.199999999999988
 20
-10.0249999989
 30
0.0
 11
0.0
 21
-11.22499999889999
 31
0.0
1001
ACAD
1000
RTMaterial
1005
0
  0
LINE
  5
616F3
330
1F
100
AcDbEntity
  8
sk3
100
AcDbLine
 10
12.99234537170002
 20
-9.5249999989
 30
0.0
 11
12.99234537170002
 21
0.0
 31
0.0
1001
ACAD
1000
RTMaterial
1005
0
  0
LINE
  5
616F4
330
1F
100
AcDbEntity
  8
sk3
100
AcDbLine
 10
42.80000000000001
 20
-4.249999998899993
 30
0.0
 11
46.30000000000001
 21
-4.249999998899993
 31
0.0
1001
ACAD
1000
RTMaterial
1005
0
  0
LINE
  5
616F5
330
1F
100
AcDbEntity
  8
sk3
100
AcDbLine
 10
37.0
 20
-7.499999998899993
 30
0.0
 11
42.0
 21
-7.499999998899993
 31
0.0
1001
ACAD
1000
RTMaterial
1005
0
  0
LINE
  5
616F6
330
1F
100
AcDbEntity
  8
sk3
100
AcDbLine
 10
32.19999999999999
 20
-8.499999998899994
 30
0.0
 11
32.8916198096
 21
-8.499999998899994
 31
0.0
1001
ACAD
1000
RTMaterial
1005
0
  0
LINE
  5
616F7
330
1F
100
AcDbEntity
  8
sk3
100
AcDbLine
 10
12.99234537170002
 20
-9.5249999989
 30
0.0
 11
18.13926112069998
 21
-11.92504622850001
 31
0.0
1001
ACAD
1000
RTMaterial
1005
0
  0
LINE
  5
616F8
330
1F
100
AcDbEntity
  8
sk3
100
AcDbLine
 10
34.67735573010003
 20
-9.249999998899994
 30
0.0
 11
36.19999999999999
 21
-9.249999998899994
 31
0.0
1001
ACAD
1000
RTMaterial
1005
0
  0
LINE
  5
616F9
330
1F
100
AcDbEntity
  8
sk3
100
AcDbLine
 10
3.5
 20
-9.5249999989
 30
0.0
 11
12.99234537170002
 21
-9.5249999989
 31
0.0
1001
ACAD
1000
RTMaterial
1005
0
  0
LINE
  5
616FA
330
1F
100
AcDbEntity
  8
sk3
100
AcDbLine
 10
1.199999999999988
 20
-10.0249999989
 30
0.0
 11
3.5
 21
-10.0249999989
 31
0.0
1001
ACAD
1000
RTMaterial
1005
0
  0
LINE
  5
616FB
330
1F
100
AcDbEntity
  8
sk3
100
AcDbLine
 10
18.47735573010004
 20
-11.99999999889999
 30
0.0
 11
25.89999999999998
 21
-11.99999999889999
 31
0.0
1001
ACAD
1000
RTMaterial
1005
0
  0
LINE
  5
616FC
330
1F
100
AcDbEntity
  8
sk3
100
AcDbLine
 10
26.58867513391494
 20
-9.0
 30
0.0
 11
26.30000000000001
 21
-9.499999998899994
 31
0.0
1001
ACAD
1000
RTMaterial
1005
0
  0
LINE
  5
616FD
330
1F
100
AcDbEntity
  8
sk3
100
AcDbLine
 10
26.30000000000001
 20
-9.0
 30
0.0
 11
26.30000000000001
 21
-11.59999999889999
 31
0.0
1001
ACAD
1000
RTMaterial
1005
0
  0
LINE
  5
616FE
330
1F
100
AcDbEntity
  8
sk3
100
AcDbLine
 10
32.8916198096
 20
-8.499999998899994
 30
0.0
 11
32.8916198096
 21
-7.13499999999999
 31
0.0
1001
ACAD
1000
RTMaterial
1005
0
  0
LINE
  5
616FF
330
1F
100
AcDbEntity
  8
sk3
100
AcDbLine
 10
32.8916198096
 20
-8.499999998899994
 30
0.0
 11
34.33926112069997
 21
-9.175046228500006
 31
0.0
1001
ACAD
1000
RTMaterial
1005
0
  0
LINE
  5
61700
330
1F
100
AcDbEntity
  8
sk3
100
AcDbLine
 10
42.80000000000001
 20
-4.249999998899993
 30
0.0
 11
42.39999999999997
 21
-4.6499999989
 31
0.0
1001
ACAD
1000
RTMaterial
1005
0
  0
LINE
  5
61701
330
1F
100
AcDbEntity
  8
sk3
100
AcDbLine
 10
36.19999999999999
 20
-9.249999998899994
 30
0.0
 11
36.19999999999999
 21
-7.13499999999999
 31
0.0
1001
ACAD
1000
RTMaterial
1005
0
  0
LINE
  5
61702
330
1F
100
AcDbEntity
  8
sk3
100
AcDbLine
 10
37.0
 20
-8.449999998900011
 30
0.0
 11
37.0
 21
-7.13499999999999
 31
0.0
1001
ACAD
1000
RTMaterial
1005
0
  0
LINE
  5
61703
330
1F
100
AcDbEntity
  8
sk3
100
AcDbLine
 10
42.39999999999997
 20
0.0
 30
0.0
 11
42.39999999999997
 21
-7.099999998899987
 31
0.0
1001
ACAD
1000
RTMaterial
1005
0
  0
LINE
  5
61704
330
1F
100
AcDbEntity
  8
sk3
100
AcDbLine
 10
42.80000000000001
 20
0.0
 30
0.0
 11
42.80000000000001
 21
-4.249999998899993
 31
0.0
1001
ACAD
1000
RTMaterial
1005
0
  0
LINE
  5
61705
330
1F
100
AcDbEntity
  8
sk3
100
AcDbLine
 10
46.30000000000001
 20
-4.249999998899993
 30
0.0
 11
46.30000000000001
 21
0.0
 31
0.0
1001
ACAD
1000
RTMaterial
1005
0
  0
LINE
  5
61706
330
1F
100
AcDbEntity
  8
sk3
100
AcDbLine
 10
48.19130777619999
 20
-13.72551254699999
 30
0.0
 11
49.5
 21
-16.54839831999999
 31
0.0
1001
ACAD
1000
RTMaterial
1005
0
  0
LINE
  5
61707
330
1F
100
AcDbEntity
  8
sk3
100
AcDbLine
 10
46.30000000000001
 20
-4.249999998899993
 30
0.0
 11
46.80000000000001
 21
-4.749999998899993
 31
0.0
1001
ACAD
1000
RTMaterial
1005
0
  0
LINE
  5
61708
330
1F
100
AcDbEntity
  8
sk3
100
AcDbLine
 10
46.80000000000001
 20
-7.416511361400011
 30
0.0
 11
46.80000000000001
 21
0.0
 31
0.0
1001
ACAD
1000
RTMaterial
1005
0
  0
ARC
  5
61709
330
1F
100
AcDbEntity
  8
sk3
100
AcDbCircle
 10
61.80000000000001
 20
-7.416511361400011
 30
0.0
 40
15.0
100
AcDbArc
 50
180.0
 51
204.8724787819011
1001
ACAD
1000
RTMaterial
1005
0
  0
ARC
  5
6170A
330
1F
100
AcDbEntity
  8
sk3
100
AcDbCircle
 10
36.19999999999999
 20
-8.449999998900011
 30
0.0
 40
0.8
100
AcDbArc
 50
270.0
 51
0.0
1001
ACAD
1000
RTMaterial
1005
0
  0
ARC
  5
6170B
330
1F
100
AcDbEntity
  8
sk3
100
AcDbCircle
 10
34.67735573010003
 20
-8.449999998900011
 30
0.0
 40
0.8
100
AcDbArc
 50
245.0000000000003
 51
270.0
1001
ACAD
1000
RTMaterial
1005
0
  0
ARC
  5
6170C
330
1F
100
AcDbEntity
  8
sk3
100
AcDbCircle
 10
18.47735573010004
 20
-11.19999999890001
 30
0.0
 40
0.8
100
AcDbArc
 50
245.0000000000003
 51
270.0
1001
ACAD
1000
RTMaterial
1005
0
  0
ARC
  5
6170D
330
1F
100
AcDbEntity
  8
sk3
100
AcDbCircle
 10
42.0
 20
-7.099999998899987
 30
0.0
 40
0.4
100
AcDbArc
 50
270.0
 51
0.0
1001
ACAD
1000
RTMaterial
1005
0
  0
ARC
  5
6170E
330
1F
100
AcDbEntity
  8
sk3
100
AcDbCircle
 10
25.89999999999998
 20
-11.59999999889999
 30
0.0
 40
0.4
100
AcDbArc
 50
270.0
 51
0.0
1001
ACAD
1000
RTMaterial
1005
0
  0
LINE
  5
6170F
330
1F
100
AcDbEntity
  8
sk3
100
AcDbLine
 10
0.4499999999999888
 20
-4.762499999999987
 30
0.0
 11
0.4499999999999888
 21
-4.020000000000009
 31
0.0
1001
ACAD
1000
RTMaterial
1005
0
  0
LINE
  5
61710
330
1F
100
AcDbEntity
  8
sk1
100
AcDbLine
 10
0.4499999999999888
 20
-4.020000000000009
 30
0.0
 11
0.4499999999999888
 21
4.020000000000009
 31
0.0
1001
ACAD
1000
RTMaterial
1005
0
  0
LINE
  5
61711
330
1F
100
AcDbEntity
  8
sk3
100
AcDbLine
 10
0.4499999999999888
 20
4.020000000000009
 30
0.0
 11
0.4499999999999888
 21
4.762499997799976
 31
0.0
1001
ACAD
1000
RTMaterial
1005
0
  0
LINE
  5
61712
330
1F
100
AcDbEntity
  8
sk3
100
AcDbLine
 10
21.79999999999996
 20
-9.0
 30
0.0
 11
31.79999999999996
 21
-9.0
 31
0.0
1001
ACAD
1000
RTMaterial
1005
0
  0
LINE
  5
61713
330
1F
100
AcDbEntity
  8
sk3
100
AcDbLine
 10
41.22499999999996
 20
-7.13499999999999
 30
0.0
 11
32.19999999999999
 21
-7.13499999999999
 31
0.0
1001
ACAD
1000
RTMaterial
1005
0
  0
LINE
  5
61714
330
1F
100
AcDbEntity
  8
sk3
100
AcDbLine
 10
32.20000000000005
 20
-4.762499999999987
 30
0.0
 11
0.4499999999999888
 21
-4.762499999999987
 31
0.0
1001
ACAD
1000
RTMaterial
1005
0
  0
LINE
  5
61715
330
1F
100
AcDbEntity
  8
sk3
100
AcDbLine
 10
21.79999999999996
 20
-9.0
 30
0.0
 11
21.79999999999996
 21
-4.762499999999987
 31
0.0
1001
ACAD
1000
RTMaterial
1005
0
  0
LINE
  5
61716
330
1F
100
AcDbEntity
  8
sk3
100
AcDbLine
 10
32.19999999999999
 20
-8.599999999999994
 30
0.0
 11
32.19999999999999
 21
-4.762499999999987
 31
0.0
1001
ACAD
1000
RTMaterial
1005
0
  0
LINE
  5
61717
330
1F
100
AcDbEntity
  8
sk3
100
AcDbLine
 10
41.72499999999995
 20
-6.63499999999999
 30
0.0
 11
41.72499999999995
 21
-0.0000000011000054
 31
0.0
1001
ACAD
1000
RTMaterial
1005
0
  0
LINE
  5
61718
330
1F
100
AcDbEntity
  8
sk3
100
AcDbLine
 10
31.79999999999996
 20
-9.0
 30
0.0
 11
32.19999999999999
 21
-8.599999999999994
 31
0.0
1001
ACAD
1000
RTMaterial
1005
0
  0
LINE
  5
61719
330
1F
100
AcDbEntity
  8
sk3
100
AcDbLine
 10
41.72499999999995
 20
-6.63499999999999
 30
0.0
 11
41.22499999999996
 21
-7.13499999999999
 31
0.0
1001
ACAD
1000
RTMaterial
1005
0
  0
LINE
  5
6171A
330
1F
100
AcDbEntity
  8
sk3
100
AcDbLine
 10
21.79999999540596
 20
9.000000008697959
 30
0.0
 11
31.79999999540598
 21
9.000000013802392
 31
0.0
1001
ACAD
1000
RTMaterial
1005
0
  0
LINE
  5
6171B
330
1F
100
AcDbEntity
  8
sk3
100
AcDbLine
 10
41.22499999635794
 20
7.13500001861331
 30
0.0
 11
32.19999999635798
 21
7.135000014006558
 31
0.0
1001
ACAD
1000
RTMaterial
1005
0
  0
LINE
  5
6171C
330
1F
100
AcDbEntity
  8
sk3
100
AcDbLine
 10
23.15070330956903
 20
4.762384754387403
 30
0.0
 11
23.14999999756898
 21
4.762500009387043
 31
0.0
1001
ACAD
1000
RTMaterial
1005
0
  0
LINE
  5
6171D
330
1F
100
AcDbEntity
  8
sk3
100
AcDbLine
 10
32.19999999756903
 20
4.762500014006554
 30
0.0
 11
0.4499999975689947
 21
4.762499997799978
 31
0.0
1001
ACAD
1000
RTMaterial
1005
0
  0
LINE
  5
6171E
330
1F
100
AcDbEntity
  8
sk3
100
AcDbLine
 10
21.79999999540596
 20
9.000000008697959
 30
0.0
 11
21.79999999756896
 21
4.762500008697942
 31
0.0
1001
ACAD
1000
RTMaterial
1005
0
  0
LINE
  5
6171F
330
1F
100
AcDbEntity
  8
sk3
100
AcDbLine
 10
32.19999999561014
 20
8.600000014006562
 30
0.0
 11
32.19999999756897
 21
4.762500014006554
 31
0.0
1001
ACAD
1000
RTMaterial
1005
0
  0
LINE
  5
61720
330
1F
100
AcDbEntity
  8
sk3
100
AcDbLine
 10
41.72499999661318
 20
6.635000018868531
 30
0.0
 11
41.72499999999995
 21
0.0000000199685424
 31
0.0
1001
ACAD
1000
RTMaterial
1005
0
  0
LINE
  5
61721
330
1F
100
AcDbEntity
  8
sk3
100
AcDbLine
 10
31.79999999540598
 20
9.000000013802392
 30
0.0
 11
32.19999999561014
 21
8.600000014006562
 31
0.0
1001
ACAD
1000
RTMaterial
1005
0
  0
LINE
  5
61722
330
1F
100
AcDbEntity
  8
sk3
100
AcDbLine
 10
41.72499999661318
 20
6.635000018868531
 30
0.0
 11
41.22499999635794
 21
7.13500001861331
 31
0.0
1001
ACAD
1000
RTMaterial
1005
0
  0
LINE
  5
61723
330
1F
100
AcDbEntity
  8
sk3
100
AcDbLine
 10
31.79999999540598
 20
9.000000013802392
 30
0.0
 11
31.79999999648749
 21
4.762500013802377
 31
0.0
  0
LINE
  5
61724
330
1F
100
AcDbEntity
  8
sk3
100
AcDbLine
 10
31.79999999891845
 20
-4.762499999999987
 30
0.0
 11
31.79999999999996
 21
-9.0
 31
0.0
  0
LINE
  5
61725
330
1F
100
AcDbEntity
  8
sk3
100
AcDbLine
 10
41.22499999635794
 20
7.13500001861331
 30
0.0
 11
41.22499999999996
 21
-7.13499999999999
 31
0.0
  0
VIEWPORT
  5
6B
102
{ACAD_XDICTIONARY
360
61782
102
}
330
50
100
AcDbEntity
 67
     1
  8
0
100
AcDbViewport
 10
155.3592437148233
 20
160.4455827878762
 30
0.0
 40
349.5854424261001
 41
282.2272140146125
 68
     1
 69
     1
 12
155.3592437148233
 22
160.4455827878762
 13
0.0
 23
0.0
 14
10.0
 24
10.0
 15
10.0
 25
10.0
 16
0.0
 26
0.0
 36
1.0
 17
0.0
 27
0.0
 37
0.0
 42
50.0
 43
0.0
 44
0.0
 45
282.2272140146125
 50
0.0
 51
0.0
 72
  1000
 90
    32864
  1

281
     0
 71
     1
 74
     0
110
0.0
120
0.0
130
0.0
111
1.0
121
0.0
131
0.0
112
0.0
122
1.0
132
0.0
 79
     0
146
0.0
  0
VIEWPORT
  5
6D
102
{ACAD_XDICTIONARY
360
61784
102
}
330
50
100
AcDbEntity
 67
     1
  8
0
100
AcDbViewport
 10
133.3499939441681
 20
101.5999939441681
 30
0.0
 40
213.3599903106689
 41
162.5599903106689
 68
     2
 69
     2
 12
210.0
 22
148.5
 13
0.0
 23
0.0
 14
10.0
 24
10.0
 15
10.0
 25
10.0
 16
0.0
 26
0.0
 36
1.0
 17
0.0
 27
0.0
 37
0.0
 42
50.0
 43
0.0
 44
0.0
 45
324.0677920111345
 50
0.0
 51
0.0
 72
   100
 90
    32864
  1

281
     0
 71
     1
 74
     0
110
0.0
120
0.0
130
0.0
111
1.0
121
0.0
131
0.0
112
0.0
122
1.0
132
0.0
 79
     0
146
0.0
  0
ENDSEC
  0
SECTION
  2
OBJECTS
  0
DICTIONARY
  5
C
330
0
100
AcDbDictionary
281
     1
  3
ACAD_COLOR
350
85
  3
ACAD_GROUP
350
D
  3
ACAD_LAYOUT
350
1A
  3
ACAD_MATERIAL
350
84
  3
ACAD_MLINESTYLE
350
17
  3
ACAD_PLOTSETTINGS
350
19
  3
ACAD_PLOTSTYLENAME
350
E
  3
ACAD_TABLESTYLE
350
A1
  3
ACDBHEADERROUNDTRIPXREC
350
6177D
  3
AcDbVariableDictionary
350
5E
  3
ASE_INDEX_DICTIONARY
350
349E9
  3
DWGPROPS
350
6177C
  0
DICTIONARY
  5
E2
330
2
100
AcDbDictionary
280
     1
281
     1
  3
ACAD_LAYERFILTERS
360
61738
  3
ACAD_LAYERSTATES
360
3759A
  3
ACLYDICTIONARY
360
61737
  0
DICTIONARY
  5
31EE
330
1F
100
AcDbDictionary
280
     1
281
     1
  3
ACAD_SORTENTS
360
31EF
  0
DICTIONARY
  5
43668
330
680
100
AcDbDictionary
280
     1
281
     1
  3
ACAD_SORTENTS
360
43669
  0
DICTIONARY
  5
61786
330
71
100
AcDbDictionary
280
     1
281
     1
  3
ACAD_XREC_ROUNDTRIP
360
61787
  0
DICTIONARY
  5
61788
330
73
100
AcDbDictionary
280
     1
281
     1
  3
ACAD_XREC_ROUNDTRIP
360
61789
  0
DICTIONARY
  5
61782
330
6B
100
AcDbDictionary
280
     1
281
     1
  3
ACAD_XREC_ROUNDTRIP
360
61783
  0
DICTIONARY
  5
61784
330
6D
100
AcDbDictionary
280
     1
281
     1
  3
ACAD_XREC_ROUNDTRIP
360
61785
  0
DICTIONARY
  5
85
102
{ACAD_REACTORS
330
C
102
}
330
C
100
AcDbDictionary
281
     1
  0
DICTIONARY
  5
D
102
{ACAD_REACTORS
330
C
102
}
330
C
100
AcDbDictionary
281
     1
  0
DICTIONARY
  5
1A
102
{ACAD_REACTORS
330
C
102
}
330
C
100
AcDbDictionary
281
     1
  3
\M+1838C\M+18343\M+18341\M+18345\M+183671
350
51
  3
\M+1838C\M+18343\M+18341\M+18345\M+183672
350
56
  3
Model
350
22
  0
DICTIONARY
  5
84
102
{ACAD_REACTORS
330
C
102
}
330
C
100
AcDbDictionary
281
     1
  0
DICTIONARY
  5
17
102
{ACAD_REACTORS
330
C
102
}
330
C
100
AcDbDictionary
281
     1
  3
Standard
350
18
  0
DICTIONARY
  5
19
102
{ACAD_REACTORS
330
C
102
}
330
C
100
AcDbDictionary
281
     1
  0
ACDBDICTIONARYWDFLT
  5
E
102
{ACAD_REACTORS
330
C
102
}
330
C
100
AcDbDictionary
281
     1
  3
Normal
350
F
100
AcDbDictionaryWithDefault
340
F
  0
DICTIONARY
  5
A1
102
{ACAD_REACTORS
330
C
102
}
330
C
100
AcDbDictionary
281
     1
  3
Standard
350
A2
  0
DICTIONARY
  5
6177D
102
{ACAD_REACTORS
330
C
102
}
330
C
100
AcDbDictionary
281
     1
  0
DICTIONARY
  5
5E
102
{ACAD_REACTORS
330
C
102
}
330
C
100
AcDbDictionary
281
     1
  3
CTABLESTYLE
350
B8
  3
DIMASSOC
350
5F
  3
HIDETEXT
350
63
  3
PROJECTNAME
350
31CE
  0
DICTIONARY
  5
349E9
102
{ACAD_REACTORS
330
C
102
}
330
C
100
AcDbDictionary
281
     1
  3
ASEBlockHierarchyIndexRecord
350
349EA
1001
DCO15
1040
1842496176.844
  0
XRECORD
  5
6177C
102
{ACAD_REACTORS
330
C
102
}
330
C
100
AcDbXrecord
280
     1
  1
DWGPROPS COOKIE
  2

  3

  4

  6

  7

  8

  9

300
=
301
=
302
=
303
=
304
=
305
=
306
=
307
=
308
=
309
=
 40
2.09530480324074
 41
2455489.391063368
 42
2458480.440787766
  1

 90
        0
  0
DICTIONARY
  5
61738
102
{ACAD_REACTORS
330
E2
102
}
330
E2
100
AcDbDictionary
281
     1
  0
DICTIONARY
  5
3759A
102
{ACAD_REACTORS
330
E2
102
}
330
E2
100
AcDbDictionary
281
     1
  0
DICTIONARY
  5
61737
102
{ACAD_REACTORS
330
E2
102
}
330
E2
100
AcDbDictionary
281
     1
1001
ACAD
1000
<All
  0
SORTENTSTABLE
  5
31EF
102
{ACAD_REACTORS
330
31EE
102
}
330
31EE
100
AcDbSortentsTable
330
1F
331
61216
  5
6121E
331
611EB
  5
611F3
331
6121E
  5
61226
331
6125D
  5
61265
331
61265
  5
6126D
331
61226
  5
6122E
331
611FB
  5
61203
331
6122E
  5
61237
331
61310
  5
61319
331
612D9
  5
612E1
331
612A6
  5
612AE
331
6126F
  5
61277
331
612E1
  5
612E9
331
612AE
  5
612B6
331
61196
  5
6119E
331
6119E
  5
611A6
331
612B6
  5
612BE
331
612E9
  5
612F1
331
61277
  5
6127F
331
6115F
  5
6115F
331
61167
  5
6116C
331
612BE
  5
612C6
331
611A6
  5
611BF
331
6116F
  5
61174
331
611CC
  5
611D4
331
611D4
  5
611DC
331
6123E
  5
61246
331
611DC
  5
611E5
331
61246
  5
61250
331
6120F
  5
61217
331
6124E
  5
6125A
331
612F1
  5
612F9
331
61287
  5
6128F
331
612F9
  5
61301
331
612C6
  5
612CE
331
61177
  5
61182
331
6128F
  5
61297
331
61301
  5
61309
331
612CE
  5
612D6
331
611BE
  5
611C6
331
612D6
  5
612DE
331
61309
  5
61311
331
61297
  5
6129F
331
6117F
  5
61188
331
6129F
  5
612A9
331
61187
  5
61194
331
611C6
  5
611D0
331
61256
  5
6125E
331
61217
  5
6121F
331
611EC
  5
611F4
331
611F4
  5
611FC
331
6121F
  5
61227
331
6125E
  5
61266
331
611FC
  5
61204
331
61227
  5
6122F
331
61266
  5
6126E
331
6122F
  5
61238
331
61311
  5
6131A
331
60920
  5
60920
331
60984
  5
60984
331
6099E
  5
6099E
331
6096A
  5
6096A
331
612A7
  5
612AF
331
612DA
  5
612E2
331
61268
  5
61270
331
61270
  5
61278
331
612E2
  5
612EA
331
612AF
  5
612B7
331
61197
  5
6119F
331
61160
  5
61160
331
61278
  5
61280
331
612EA
  5
612F2
331
612B7
  5
612BF
331
6119F
  5
611A8
331
61168
  5
6116D
331
612BF
  5
612C7
331
60908
  5
60908
331
60938
  5
60938
331
611CD
  5
611D5
331
6123F
  5
61247
331
61200
  5
6120A
331
611D5
  5
611DD
331
61247
  5
61251
331
61208
  5
61210
331
6124F
  5
6125B
331
612F2
  5
612FA
331
612C7
  5
612CF
331
612FA
  5
61302
331
61288
  5
61290
331
61170
  5
61175
331
61178
  5
61183
331
61290
  5
61298
331
61302
  5
6130A
331
612CF
  5
612D7
331
61180
  5
61189
331
61298
  5
612A0
331
6130A
  5
61312
331
612D7
  5
612DF
331
611BF
  5
611C7
331
61188
  5
61195
331
61210
  5
61218
331
611ED
  5
611F5
331
61218
  5
61220
331
61257
  5
6125F
331
611F5
  5
611FD
331
61220
  5
61228
331
6125F
  5
61267
331
61267
  5
6126F
331
61228
  5
61230
331
611FD
  5
61205
331
612A0
  5
612AA
331
61312
  5
6131B
331
5CD11
  5
5CD11
331
61269
  5
61271
331
612DB
  5
612E3
331
612A8
  5
612B0
331
61190
  5
61198
331
612B0
  5
612B8
331
61198
  5
611A0
331
61271
  5
61279
331
612E3
  5
612EB
331
611A0
  5
611AC
331
612B8
  5
612C0
331
612EB
  5
612F3
331
61279
  5
61281
331
61161
  5
61161
331
61169
  5
6116E
331
611A8
  5
611C0
331
61230
  5
61239
331
611CE
  5
611D6
331
611D6
  5
611DE
331
61201
  5
6120B
331
61240
  5
61248
331
61209
  5
61211
331
61248
  5
61256
331
611E6
  5
611EE
331
61281
  5
61289
331
612F3
  5
612FB
331
612C0
  5
612C8
331
61171
  5
61176
331
61289
  5
61291
331
612FB
  5
61303
331
612C8
  5
612D0
331
611B0
  5
611C2
331
61179
  5
61184
331
61291
  5
61299
331
61303
  5
6130B
331
612D0
  5
612D8
331
611C0
  5
611CA
331
6130B
  5
61313
331
61299
  5
612A1
331
61181
  5
6118A
331
61189
  5
61196
331
61250
  5
6125C
331
61258
  5
61260
331
61219
  5
61221
331
611EE
  5
611F6
331
611F6
  5
611FE
331
61221
  5
61229
331
61260
  5
61268
331
61229
  5
61231
331
611FE
  5
61208
331
612A1
  5
612AB
331
61313
  5
6131C
331
612A9
  5
612B1
331
61191
  5
61199
331
612DC
  5
612E4
331
6126A
  5
61272
331
61272
  5
6127A
331
612E4
  5
612EC
331
612B1
  5
612B9
331
61199
  5
611A1
331
61162
  5
61167
331
612EC
  5
612F4
331
612B9
  5
612C1
331
611A1
  5
611B0
331
6116A
  5
6116F
331
61231
  5
6123A
331
608F0
  5
608F0
331
611CF
  5
611D7
331
61241
  5
6124A
331
61202
  5
6120C
331
611D7
  5
611DF
331
6120A
  5
61212
331
611E7
  5
611EF
331
612C1
  5
612C9
331
61282
  5
6128A
331
612F4
  5
612FC
331
612C9
  5
612D1
331
612FC
  5
61304
331
6128A
  5
61292
331
61172
  5
61177
331
6117A
  5
61186
331
61292
  5
6129A
331
61304
  5
6130C
331
612D1
  5
612D9
331
61182
  5
61190
331
6129A
  5
612A2
331
6130C
  5
61314
331
6118A
  5
61197
331
61251
  5
6125D
331
611EF
  5
611F7
331
6121A
  5
61222
331
61259
  5
61261
331
61261
  5
61269
331
61222
  5
6122A
331
611F7
  5
611FF
331
6122A
  5
61232
331
611FF
  5
61209
331
612A2
  5
612AC
331
61314
  5
6131D
331
61192
  5
6119A
331
6126B
  5
61273
331
612DD
  5
612E5
331
612AA
  5
612B2
331
6119A
  5
611A2
331
612B2
  5
612BA
331
612E5
  5
612ED
331
61273
  5
6127B
331
611A2
  5
611B2
331
612ED
  5
612F5
331
612BA
  5
612C2
331
61163
  5
61168
331
6116B
  5
61170
331
61232
  5
6123E
331
611D0
  5
611D8
331
611D8
  5
611E0
331
61203
  5
6120D
331
61242
  5
6124C
331
6120B
  5
61213
331
6124A
  5
61257
331
61283
  5
6128B
331
612F5
  5
612FD
331
612C2
  5
612CA
331
61173
  5
61178
331
6128B
  5
61293
331
612FD
  5
61305
331
612CA
  5
612D2
331
611B2
  5
611C3
331
612D2
  5
612DA
331
61293
  5
6129B
331
6117B
  5
61187
331
61305
  5
6130D
331
6130D
  5
61315
331
6129B
  5
612A3
331
61183
  5
61191
331
61213
  5
6121B
331
611E8
  5
611F0
331
611F0
  5
611F8
331
6125A
  5
61262
331
6121B
  5
61223
331
611F8
  5
61200
331
61223
  5
6122B
331
61262
  5
6126A
331
6122B
  5
61233
331
612A3
  5
612AD
331
61315
  5
6131E
331
61193
  5
6119B
331
6126C
  5
61274
331
612DE
  5
612E6
331
612AB
  5
612B3
331
612E6
  5
612EE
331
612B3
  5
612BB
331
6119B
  5
611A3
331
61164
  5
61169
331
6127C
  5
61284
331
612EE
  5
612F6
331
612BB
  5
612C3
331
611A3
  5
611B4
331
6116C
  5
61171
331
61233
  5
6123F
331
608D8
  5
608D8
331
61243
  5
6124D
331
61204
  5
6120E
331
611D9
  5
611E1
331
6120C
  5
61214
331
612C3
  5
612CB
331
612F6
  5
612FE
331
61284
  5
6128C
331
612CB
  5
612D3
331
612FE
  5
61306
331
6128C
  5
61294
331
61174
  5
61179
331
61294
  5
6129C
331
61306
  5
6130E
331
612D3
  5
612DB
331
6129C
  5
612A6
331
61184
  5
61192
331
6130E
  5
61316
331
61214
  5
6121C
331
611E9
  5
611F1
331
611F1
  5
611F9
331
6121C
  5
61224
331
6125B
  5
61263
331
61263
  5
6126B
331
61224
  5
6122C
331
611F9
  5
61201
331
6122C
  5
61235
331
61316
  5
6131F
331
6126D
  5
61275
331
612DF
  5
612E7
331
612AC
  5
612B4
331
61194
  5
6119C
331
612B4
  5
612BC
331
6119C
  5
611A4
331
612E7
  5
612EF
331
61275
  5
6127D
331
61165
  5
6116A
331
612EF
  5
612F7
331
612BC
  5
612C4
331
611A4
  5
611B5
331
6116D
  5
61172
331
611AC
  5
611C1
331
611CA
  5
611D2
331
611DA
  5
611E2
331
61244
  5
6124E
331
6120D
  5
61215
331
6124C
  5
61258
331
61285
  5
6128D
331
612F7
  5
612FF
331
612C4
  5
612CC
331
61175
  5
61180
331
6128D
  5
61295
331
612FF
  5
61307
331
612CC
  5
612D4
331
611B4
  5
611C4
331
612D4
  5
612DC
331
61307
  5
6130F
331
61295
  5
6129D
331
6130F
  5
61317
331
6129D
  5
612A7
331
61215
  5
6121D
331
611EA
  5
611F2
331
6121D
  5
61225
331
6125C
  5
61264
331
611FA
  5
61202
331
61225
  5
6122D
331
61264
  5
6126C
331
6122D
  5
61236
331
612D8
  5
612E0
331
61317
  5
61320
331
6126E
  5
61276
331
612E0
  5
612E8
331
612AD
  5
612B5
331
61195
  5
6119D
331
6115E
  5
6115E
331
61276
  5
6127E
331
612E8
  5
612F0
331
612B5
  5
612BD
331
6119D
  5
611A5
331
61166
  5
6116B
331
6127E
  5
61286
331
612BD
  5
612C5
331
611A5
  5
611BE
331
6116E
  5
61173
331
611CB
  5
611D3
331
611D3
  5
611DB
331
61245
  5
6124F
331
611DB
  5
611E4
331
6120E
  5
61216
331
6124D
  5
61259
331
612F0
  5
612F8
331
612C5
  5
612CD
331
612F8
  5
61300
331
61286
  5
6128E
331
61176
  5
61181
331
6128E
  5
61296
331
61300
  5
61308
331
612CD
  5
612D5
331
611B5
  5
611C5
331
61296
  5
6129E
331
61308
  5
61310
331
612D5
  5
612DD
331
6129E
  5
612A8
331
61186
  5
61193
331
611C5
  5
611CF
331
68C
  5
435D5
  0
SORTENTSTABLE
  5
43669
102
{ACAD_REACTORS
330
43668
102
}
330
43668
100
AcDbSortentsTable
330
680
  0
XRECORD
  5
61787
102
{ACAD_REACTORS
330
61786
102
}
330
61786
100
AcDbXrecord
280
     1
102
SHADEPLOT
 70
     0
  0
XRECORD
  5
61789
102
{ACAD_REACTORS
330
61788
102
}
330
61788
100
AcDbXrecord
280
     1
102
SHADEPLOT
 70
     0
  0
XRECORD
  5
61783
102
{ACAD_REACTORS
330
61782
102
}
330
61782
100
AcDbXrecord
280
     1
102
SHADEPLOT
 70
     0
  0
XRECORD
  5
61785
102
{ACAD_REACTORS
330
61784
102
}
330
61784
100
AcDbXrecord
280
     1
102
SHADEPLOT
 70
     0
  0
LAYOUT
  5
51
102
{ACAD_XDICTIONARY
360
B2
102
}
102
{ACAD_REACTORS
330
1A
102
}
330
1A
100
AcDbPlotSettings
  1

  2
none_device
  4
Letter_(8.50_x_11.00_Inches)
  6

 40
6.349999904632567
 41
6.349999904632567
 42
6.350006103515625
 43
6.350006103515625
 44
215.8999938964844
 45
279.3999938964844
 46
0.0
 47
0.0
 48
0.0
 49
0.0
140
0.0
141
0.0
142
1.0
143
1.0
 70
   688
 72
     1
 73
     1
 74
     5
  7

 75
    16
147
1.0
148
0.0
149
0.0
100
AcDbLayout
  1
\M+1838C\M+18343\M+18341\M+18345\M+183671
 70
     1
 71
     1
 10
-6.350006103515625
 20
-6.349999904632567
 11
273.0499877929688
 21
209.5499939918518
 12
0.0
 22
0.0
 32
0.0
 14
26.66999878883364
 24
20.31999878883365
 34
0.0
 15
240.0299890995025
 25
182.8799890995025
 35
0.0
146
0.0
 13
0.0
 23
0.0
 33
0.0
 16
1.0
 26
0.0
 36
0.0
 17
0.0
 27
1.0
 37
0.0
 76
     0
330
50
331
6B
  0
LAYOUT
  5
56
102
{ACAD_XDICTIONARY
360
B5
102
}
102
{ACAD_REACTORS
330
1A
102
}
330
1A
100
AcDbPlotSettings
  1

  2
none_device
  4
Letter_(8.50_x_11.00_Inches)
  6

 40
6.349999904632567
 41
6.349999904632567
 42
6.350006103515625
 43
6.350006103515625
 44
215.8999938964844
 45
279.3999938964844
 46
0.0
 47
0.0
 48
0.0
 49
0.0
140
0.0
141
0.0
142
1.0
143
1.0
 70
   688
 72
     1
 73
     1
 74
     5
  7

 75
    16
147
1.0
148
0.0
149
0.0
100
AcDbLayout
  1
\M+1838C\M+18343\M+18341\M+18345\M+183672
 70
     1
 71
     2
 10
-6.350006103515625
 20
-6.349999904632567
 11
273.0499877929688
 21
209.5499939918518
 12
0.0
 22
0.0
 32
0.0
 14
26.66999878883363
 24
20.31999878883363
 34
0.0
 15
240.0299890995026
 25
182.8799890995025
 35
0.0
146
0.0
 13
0.0
 23
0.0
 33
0.0
 16
1.0
 26
0.0
 36
0.0
 17
0.0
 27
1.0
 37
0.0
 76
     0
330
55
331
71
  0
LAYOUT
  5
22
102
{ACAD_XDICTIONARY
360
6177E
102
}
102
{ACAD_REACTORS
330
1A
102
}
330
1A
100
AcDbPlotSettings
  1

  2
none_device
  4
ANSI_A_(8.50_x_11.00_Inches)
  6

 40
6.349999904632567
 41
19.04999923706055
 42
6.350006103515625
 43
19.04998779296875
 44
215.8999938964844
 45
279.3999938964844
 46
0.0
 47
0.0
 48
0.0
 49
0.0
140
0.0
141
0.0
142
1.0
143
78.436453180766
 70
 11952
 72
     0
 73
     1
 74
     0
  7

 75
     0
147
0.0127491741332998
148
0.0
149
0.0
100
AcDbLayout
  1
Model
 70
     1
 71
     0
 10
0.0
 20
0.0
 11
12.0
 21
9.0
 12
0.0
 22
0.0
 32
0.0
 14
0.0
 24
0.0
 34
0.0
 15
0.0
 25
0.0
 35
0.0
146
0.0
 13
0.0
 23
0.0
 33
0.0
 16
1.0
 26
0.0
 36
0.0
 17
0.0
 27
1.0
 37
0.0
 76
     0
330
1F
  0
MLINESTYLE
  5
18
102
{ACAD_REACTORS
330
17
102
}
330
17
100
AcDbMlineStyle
  2
STANDARD
 70
     0
  3

 62
   256
 51
90.0
 52
90.0
 71
     2
 49
0.5
 62
   256
  6
BYLAYER
 49
-0.5
 62
   256
  6
BYLAYER
  0
ACDBPLACEHOLDER
  5
F
102
{ACAD_REACTORS
330
E
102
}
330
E
  0
TABLESTYLE
  5
A2
102
{ACAD_REACTORS
330
A1
102
}
330
A1
100
AcDbTableStyle
  3
Standard
 70
     0
 71
     0
 40
1.5
 41
1.5
280
     0
281
     0
  7
Standard
140
4.5
170
     2
 62
     0
 63
     7
283
     0
274
    -2
284
     1
 64
     0
275
    -2
285
     1
 65
     0
276
    -2
286
     1
 66
     0
277
    -2
287
     1
 67
     0
278
    -2
288
     1
 68
     0
279
    -2
289
     1
 69
     0
  7
Standard
140
6.0
170
     5
 62
     0
 63
     7
283
     0
274
    -2
284
     1
 64
     0
275
    -2
285
     1
 65
     0
276
    -2
286
     1
 66
     0
277
    -2
287
     1
 67
     0
278
    -2
288
     1
 68
     0
279
    -2
289
     1
 69
     0
  7
Standard
140
4.5
170
     5
 62
     0
 63
     7
283
     0
274
    -2
284
     1
 64
     0
275
    -2
285
     1
 65
     0
276
    -2
286
     1
 66
     0
277
    -2
287
     1
 67
     0
278
    -2
288
     1
 68
     0
279
    -2
289
     1
 69
     0
  0
DICTIONARYVAR
  5
B8
102
{ACAD_REACTORS
330
5E
102
}
330
5E
100
DictionaryVariables
280
     0
  1
STANDARD
  0
DICTIONARYVAR
  5
5F
102
{ACAD_REACTORS
330
5E
102
}
330
5E
100
DictionaryVariables
280
     0
  1
2
  0
DICTIONARYVAR
  5
63
102
{ACAD_REACTORS
330
5E
102
}
330
5E
100
DictionaryVariables
280
     0
  1
1
  0
DICTIONARYVAR
  5
31CE
102
{ACAD_REACTORS
330
5E
102
}
330
5E
100
DictionaryVariables
280
     0
  1

  0
XRECORD
  5
349EA
102
{ACAD_REACTORS
330
349E9
102
}
330
349E9
100
AcDbXrecord
280
     1
330
68C
330
431D
330
431E
330
4329
330
4334
330
4335
330
4B09
330
4B0A
330
5153
330
5154
330
515D
330
515E
330
516A
330
516B
330
5177
330
5178
330
85B4
330
85B5
330
8620
330
8621
330
862A
330
862B
330
8637
330
8638
330
8644
330
8645
330
9773
330
9774
330
977D
330
977E
330
978A
330
978B
330
9797
330
9798
330
BD86
330
BD87
330
BD8F
330
BD90
330
BD98
330
BDA0
330
BDA1
330
BDDD
330
BDDE
330
BDE7
330
BDE8
330
BDF4
330
BDF5
330
BE01
330
BE02
330
E473
330
E474
330
E48D
330
E48E
330
E485
330
E47C
330
E47D
330
E4CC
330
E4CD
330
E4D7
330
E4D8
330
1C63B
330
1C63C
330
1C705
330
1C706
330
1C719
330
1C71A
330
1C72E
330
1C72F
330
1C738
330
1C739
330
27043
330
27044
330
2703A
330
2703B
330
2CF2C
330
2CF2D
330
2CF38
330
2CF39
330
2CF42
330
2CF43
330
2CF4F
330
2CF50
330
2CF59
330
2CF5A
330
2FA31
330
2FA32
330
2FA3D
330
2FA3E
330
2FA4A
330
2FA4B
330
2FA54
330
2FA55
330
329D8
330
329D9
330
329E1
330
329E2
330
329EA
330
329EB
330
329F3
330
329F4
330
32E63
330
32E64
330
32E6F
330
32E70
330
32E79
330
32E7A
330
32E88
330
32E89
330
32E92
330
32E93
  0
DICTIONARY
  5
B2
330
51
100
AcDbDictionary
280
     1
281
     1
  3
ACAD_XREC_ROUNDTRIP
360
61780
  3
ADSK_XREC_LAYOUTTHUMBNAIL
360
B3
  0
DICTIONARY
  5
B5
330
56
100
AcDbDictionary
280
     1
281
     1
  3
ACAD_XREC_ROUNDTRIP
360
61781
  3
ADSK_XREC_LAYOUTTHUMBNAIL
360
B6
  0
DICTIONARY
  5
6177E
330
22
100
AcDbDictionary
280
     1
281
     1
  3
ACAD_XREC_ROUNDTRIP
360
6177F
  0
XRECORD
  5
61780
102
{ACAD_REACTORS
330
B2
102
}
330
B2
100
AcDbXrecord
280
     1
102
SHADEPLOT
 70
     0
102
SHADEPLOTRESLEVEL
 70
     2
102
SHADEPLOTCUSTOMDPI
 70
   300
  0
XRECORD
  5
B3
102
{ACAD_REACTORS
330
B2
102
}
330
B2
100
AcDbXrecord
280
     1
310
28000000B40000008B0000000100080000000000BC61000000000000000000000001000000000000FFFFFF0000000000FFFFFF000000000000000000000000000000000000000000000000000000000000000000330000006600000099000000CC000000FF00000000330000333300006633000099330000CC330000FF3300
310
0000660000336600006666000099660000CC660000FF66000000990000339900006699000099990000CC990000FF99000000CC000033CC000066CC000099CC0000CCCC0000FFCC000000FF000033FF000066FF000099FF0000CCFF0000FFFF000000003300330033006600330099003300CC003300FF003300003333003333
310
33006633330099333300CC333300FF33330000663300336633006666330099663300CC663300FF66330000993300339933006699330099993300CC993300FF99330000CC330033CC330066CC330099CC3300CCCC3300FFCC330000FF330033FF330066FF330099FF3300CCFF3300FFFF330000006600330066006600660099
310
006600CC006600FF00660000336600333366006633660099336600CC336600FF33660000666600336666006666660099666600CC666600FF66660000996600339966006699660099996600CC996600FF99660000CC660033CC660066CC660099CC6600CCCC6600FFCC660000FF660033FF660066FF660099FF6600CCFF6600
310
FFFF660000009900330099006600990099009900CC009900FF00990000339900333399006633990099339900CC339900FF33990000669900336699006666990099669900CC669900FF66990000999900339999006699990099999900CC999900FF99990000CC990033CC990066CC990099CC9900CCCC9900FFCC990000FF99
310
0033FF990066FF990099FF9900CCFF9900FFFF99000000CC003300CC006600CC009900CC00CC00CC00FF00CC000033CC003333CC006633CC009933CC00CC33CC00FF33CC000066CC003366CC006666CC009966CC00CC66CC00FF66CC000099CC003399CC006699CC009999CC00CC99CC00FF99CC0000CCCC0033CCCC0066CC
310
CC0099CCCC00CCCCCC00FFCCCC0000FFCC0033FFCC0066FFCC0099FFCC00CCFFCC00FFFFCC000000FF003300FF006600FF009900FF00CC00FF00FF00FF000033FF003333FF006633FF009933FF00CC33FF00FF33FF000066FF003366FF006666FF009966FF00CC66FF00FF66FF000099FF003399FF006699FF009999FF00CC
310
99FF00FF99FF0000CCFF0033CCFF0066CCFF0099CCFF00CCCCFF00FFCCFF0000FFFF0033FFFF0066FFFF0099FFFF00CCFFFF00FFFFFF00000000000D0D0D001A1A1A00282828003535350043434300505050005D5D5D006B6B6B00787878008686860093939300A1A1A100AEAEAE00BBBBBB00C9C9C900D6D6D600E4E4E400
310
F1F1F100FFFFFF0000000000000000000000000000000000000000000000000000000000000000000000000000000000EFEFEFE2E2E2E2E2E2E2E2E2E2E2E2E2E2E2E2E2E2E2E2E2E2E2E2E2E2E2E2E2E2E2E2E2E2E2E2E2E2E2E2E2E2E2E2E2E2E2E2E2E2E2E2E2E2E2E2E2E2E2E2E2E2E2E2E2E2E2E2E2E2E2E2E2E2E2E2
310
E2E2E2E2E2E2E2E2E2E2E2E2E2E2E2E2E2E2E2E2E2E2E2E2E2E2E2E2E2E2E2E2E2E2E2E2E2E2E2E2E2E2E2E2E2E2E2E2E2E2E2E2E2E2E2E2E2E2E2E2E2E2E2E2E2E2E2E2E2E2E2E2E2E2E2E2E2E2E2E2E2E2E2E2E2E2E2E2E2E2E2E2E2E2E2E2E2E2E2E2E2E2E2E2E2E2E2E2E2E2E2E2E2E2E2E2E2E2E2E2E2E2E2E2E2E2E2
310
E2E2E2E2E2E2E2E2E2E2E2E2E2E2E2E2E2E2E2E2E2E2E2E2E2E2E2E2E2E2E2E2E2E2E2E2E2E2E2E2E2E2E2E2E2E2E2E2E2E2E2E2E2E2E2E2E2E2E2E2E2E2E2E2E2E2E2E2E2E2E2E2E2E2E2E2E2E2E2E2E2E2E2E2E2E2E2E2E2E2E2E2E2E2E2E2E2E2E2E2E2E2E2E2E2E2E2E2E2E2E2E2E2E2E2E2E2E2E2E2E2E2E2E2E2E2E2
310
E2E2E2E2E2E2E2E2E2E2E2E2E2E2E2E2E2E2E2E2E2E2E2E2E2E2E2E2F5F5F5F5F5F5F5F5F5F5F5F5F5F5F5F5F5F5F5F5F5F5F5F5F5F5F5F5F5F5F5F5F5F5F5F5F5F5F5F5F5F5F5F5F5F5F5F5F5F5F5F5F5F5F5F5F5F5F5F5F5F5F5F5F5F5F5F5F5F5F5F5F5F5F5F5F5F5F5F5F5F5F5F5F5F5F5F5F5F5F5F5F5F5F5F5F5F5F5
310
F5F5F5F5F5F5F5F5F5F5F5F5F5F5F5F5F5F5F5F5F5F5F5F5F5F5F5F5F5F5F5F5F5F5F5F5F5F5F5F5F5F5F5F5F5F5F5F5F5F5F5F5F5F5F5F5F5F5F5F5F5F5F5F5F5F5F5F5F5F5F5F5F5F5F5F5F5F5F5E2E2F5F5F5F5F5F5F5F5F5F5F5F5F5F5F5F5F5F5F5F5F5F5F5F5F5F5F5F5F5F5F5F5F5F5F5F5F5F5F5F5F5F5F5F5F5F5
310
F5F5F5F5F5F5F5F5F5F5F5F5F5F5F5F5F5F5F5F5F5F5F5F5F5F5F5F5F5F5F5F5F5F5F5F5F5F5F5F5F5F5F5F5F5F5F5F5F5F5F5F5F5F5F5F5F5F5F5F5F5F5F5F5F5F5F5F5F5F5F5F5F5F5F5F5F5F5F5F5F5F5F5F5F5F5F5F5F5F5F5F5F5F5F5F5F5F5F5F5F5F5F5F5F5F5F5F5F5F5F5F5F5F5F5F5F5F5F5F5F5F5F5F5F5F5F5
310
F5F5F5F5F5E2E2F5F5F5F5F5F5F5F5F5F5F5F5F5F5F5F5F5F5F5F5F5F5F5F5F5F5F5F5F5F5F5F5F5F5F5F5F5F5F5F5F5F5F5F5F5F5F5F5F5F5F5F5F5F5F5F5F5F5F5F5F5F5F5F5F5F5F5F5F5F5F5F5F5F5F5F5F5F5F5F5F5F5F5F5F5F5F5F5F5F5F5F5F5F5F5F5F5F5F5F5F5F5F5F5F5F5F5F5F5F5F5F5F5F5F5F5F5F5F5F5
310
F5F5F5F5F5F5F5F5F5F5F5F5F5F5F5F5F5F5F5F5F5F5F5F5F5F5F5F5F5F5F5F5F5F5F5F5F5F5F5F5F5F5F5F5F5F5F5F5F5F5F5F5F5F5F5F5F5F5E2E2F5F5F5F5E2E2E2E2E2E2E2E2F5F5F5F5F5F5F5F5F5E2E2E2E2E2E2E2E2E2E2E2E2E2E2E2F5F5F5F5F5F5F5F5F5E2E2E2E2E2E2E2E2E2E2E2E2E2E2E2E2F5F5F5F5F5F5
310
F5F5E2E2E2E2E2E2E2E2E2E2E2E2E2E2E2E2F5F5F5F5F5F5F5F5E2E2E2E2E2E2E2E2E2E2E2E2E2E2E2E2F5F5F5F5F5F5F5F5E2E2E2E2E2E2E2E2E2E2E2E2E2E2E2E2F5F5F5F5F5F5F5F5F5E2E2E2E2E2E2E2E2E2E2E2E2E2E2E2F5F5F5F5F5F5F5F5F5E2E2E2E2E2E2E2E2F5F5F5F5E2E2F5F5F5F5E2F5F5F5F5F5F5F5F5F5
310
F5F5F5F5F5F5F5F5F5F5F5F5F5F5F5F5F5F5F5F5F5F5F5F5F5F5F5F5F5F5F5F5F5F5F5F5F5F5F5F5F5F5F5F5F5F5F5F5F5F5F5F5F5F5F5F5F5F5F5F5F5F5F5F5F5F5F5F5F5F5F5F5F5F5F5F5F5F5F5F5F5F5F5F5F5F5F5F5F5F5F5F5F5F5F5F5F5F5F5F5F5F5F5F5F5F5F5F5F5F5F5F5F5F5F5F5F5F5F5F5F5F5F5F5F5F5F5
310
F5F5F5F5F5F5F5F5F5F5F5F5F5F5F5F5F5F5F5F5F5F5F5F5F5F5F5F5F5F5F5F5E2F5F5F5F5E2E2F5F5F5F5E2F5F5F5F5F5F5F5F5F5F5F5F5F5F5F5F5F5F5F5F5F5F5F5F5F5F5F5F5F5F5F5F5F5F5F5F5F5F5F5F5F5F5F5F5F5F5F5F5F5F5F5F5F5F5F5F5F5F5F5F5F5F5F5F5F5F5F5F5F5F5F5F5F5F5F5F5F5F5F5F5F5F5F5
310
F5F5F5F5F5F5F5F5F5F5F5F5F5F5F5F5F5F5F5F5F5F5F5F5F5F5F5F5F5F5F5F5F5F5F5F5F5F5F5F5F5F5F5F5F5F5F5F5F5F5F5F5F5F5F5F5F5F5F5F5F5F5F5F5F5F5F5F5F5F5F5F5F5F5F5F5F5F5F5F5F5F5F5F5F5E2F5F5F5F5E2E2F5F5F5F5E2F5F5F5F5F5F5F5F5F5F5F5F5F5F5F5F5F5F5F5F5F5F5F5F5F5F5F5F5F5F5
310
F5F5F5F5F5F5F5F5F5F5F5F5F5F5F5F5F5F5F5F5F5F5F5F5F5F5F5F5F5F5F5F5F5F5F5F5F5F5F5F5F5F5F5F5F5F5F5F5F5F5F5F5F5F5F5F5F5F5F5F5F5F5F5F5F5F5F5F5F5F5F5F5F5F5F5F5F5F5F5F5F5F5F5F5F5F5F5F5F5F5F5F5F5F5F5F5F5F5F5F5F5F5F5F5F5F5F5F5F5F5F5F5F5F5F5F5F5F5F5F5F5F5F5F5F5F5F5
310
F5F5F5F5F5F5F5F5F5F5F5E2F5F5F5F5E2E2F5F5F5F5E2F5F5F5F5F5F5F5F5F5F5F5F5F5F5F5F5F5F5F5F5F5F5F5F5F5F5F5F5F5F5F5F5F5F5F5F5F5F5F5F5F5F5F5F5F5F5F5F5F5F5F5F5F5F5F5F5F5F5F5F5F5F5F5F5F5F5F5F5F5F5F5F5F5F5F5F5F5F5F5F5F5F5F5F5F5F5F5F5F5F5F5F5F5F5F5F5F5F5F5F5F5F5F5F5
310
F5F5F5F5F5F5F5F5F5F5F5F5F5F5F5F5F5F5F5F5F5F5F5F5F5F5F5F5F5F5F5F5F5F5F5F5F5F5F5F5F5F5F5F5F5F5F5F5F5F5F5F5F5F5F5F5F5F5F5F5F5F5F5F5E2F5F5F5F5E2E2F5F5F5F5E2F5F5F5F5F5F5F5F5F5F5F5F5F5F5F5F5F5F5F5F5F5F5F5F5F5F5F5F5F5F5F5F5F5F5F5F5F5F5F5F5F5F5F5F5F5F5F5F5F5F5F5
310
F5F5F5F5F5F5F5F5F5F5F5F5F5F5F5F5F5F5F5F5F5F5F5F5F5F5F5F5F5F5F5F5F5F5F5F5F5F5F5F5F5F5F5F5F5F5F5F5F5F5F5F5F5F5F5F5F5F5F5F5F5F5F5F5F5F5F5F5F5F5F5F5F5F5F5F5F5F5F5F5F5F5F5F5F5F5F5F5F5F5F5F5F5F5F5F5F5F5F5F5F5F5F5F5F5F5F5F5F5F5F5F5F5F5F5F5F5E2F5F5F5F5E2E2F5F5F5
310
F5E2F5F5F5F5F5F5F5F5F5F5F5F5F5F5F5F5F5F5F5F5F5F5F5F5F5F5F5F5F5F5F5F5F5F5F5F5F5F5F5F5F5F5F5F5F5F5F5F5F5F5F5F5F5F5F5F5F5F5F5F5F5F5F5F5F5F5F5F5F5F5F5F5F5F5F5F5F5F5F5F5F5F5F5F5F5F5F5F5F5F5F5F5F5F5F5F5F5F5F5F5F5F5F5F5F5F5F5F5F5F5F5F5F5F5F5F5F5F5F5F5F5F5F5F5F5
310
F5F5F5F5F5F5F5F5F5F5F5F5F5F5F5F5F5F5F5F5F5F5F5F5F5F5F5F5F5F5F5F5F5F5F5F5F5F5F5F5F5F5F5E2F5F5F5F5E2E2F5F5F5F5E2F5F5F5F5F5F5F5F5F5F5F5F5F5F5F5F5F5F5F5F5F5F5F5F5F5F5F5F5F5F5F5F5F5F5F5F5F5F5F5F5F5F5F5F5F5F5F5F5F5F5F5F5F5F5F5F5F5F5F5F5F5F5F5F5F5F5F5F5F5F5F5F5
310
F5F5F5F5F5F5F5F5F5F5F5F5F5F5F5F5F5F5F5F5F5F5F5F5F5F5F5F5F5F5F5F5F5F5F5F5F5F5F5F5F5F5F5F5F5F5F5F5F5F5F5F5F5F5F5F5F5F5F5F5F5F5F5F5F5F5F5F5F5F5F5F5F5F5F5F5F5F5F5F5F5F5F5F5F5F5F5F5F5F5F5F5F5F5F5F5E2F5F5F5F5E2E2F5F5F5F5E2F5F5F5F5F5F5F5F5F5F5F5F5F5F5F5F5F5F5F5
310
F5F5F5F5F5F5F5F5F5F5F5F5F5F5F5F5F5F5F5F5F5F5F5F5F5F5F5F5F5F5F5F5F5F5F5F5F5F5F5F5F5F5F5F5F5F5F5F5F5F5F5F5F5F5F5F5F5F5F5F5F5F5F5F5F5F5F5F5F5F5F5F5F5F5F5F5F5F5F5F5F5F5F5F5F5F5F5F5F5F5F5F5F5F5F5F5F5F5F5F5F5F5F5F5F5F5F5F5F5F5F5F5F5F5F5F5F5F5F5F5F5F5F5F5F5F5F5
310
F5F5F5F5F5F5F5F5F5F5F5F5F5F5F5F5F5F5F5F5F5F5E2F5F5F5F5E2E2F5F5F5F5F5F5F5F5F5F5F5F5F5F5F5F5F5F5F5F5F5F5F5F5F5F5F5F5F5F5F5F5F5F5F5F5F5F5F5F5F5F5F5F5F5F5F5F5F5F5F5F5F5F5F5F5F5F5F5F5F5F5F5F5F5F5F5F5F5F5F5F5F5F5F5F5F5F5F5F5F5F5F5F5F5F5F5F5F5F5F5F5F5F5F5F5F5F5
310
F5F5F5F5F5F5F5F5F5F5F5F5F5F5F5F5F5F5F5F5F5F5F5F5F5F5F5F5F5F5F5F5F5F5F5F5F5F5F5F5F5F5F5F5F5F5F5F5F5F5F5F5F5F5F5F5F5F5F5F5F5F5F5F5F5F5F5F5F5F5F5F5F5F5F5F5F5F5F5F5E2E2F5F5F5F5F5F5F5F5F5F5F5F5F5F5F5F5F5F5F5F5F5F5F5F5F5F5F5F5F5F5F5F5F5F5F5F5F5F5F5F5F5F5F5F5F5
310
F5F5F5F5F5F5F5F5F5F5F5F5F5F5F5F5F5F5F5F5F5F5F5F5F5F5F5F5F5F5F5F5F5F5F5F5F5F5F5F5F5F5F5F5F5F5F5F5F5F5F5F5F5F5F5F5F5F5F5F5F5F5F5F5F5F5F5F5F5F5F5F5F5F5F5F5F5F5F5F5F5F5F5F5F5F5F5F5F5F5F5F5F5F5F5F5F5F5F5F5F5F5F5F5F5F5F5F5F5F5F5F5F5F5F5F5F5F5F5F5F5F5F5F5F5F5F5
310
F5F5F5F5F5F5E2E2F5F5F5F5F5F5F5F5F5F5F5F5F5F5F5F5F5F5F5F5F5F5F5F5F5F5F5F5F5F5F5F5F5F5F5F5F5F5F5F5F5F5F5F5F5F5F5F5F5F5F5F5F5F5F5F5F5F5F5F5F5F5F5F5F5F5F5F5F5F5F5F5F5F5F5F5F5F5F5F5F5F5F5F5F5F5F5F5F5F5F5F5F5F5F5F5F5F5F5F5F5F5F5F5F5F5F5F5F5F5F5F5F5F5F5F5F5F5F5
310
F5F5F5F5F5F5F5F5F5F5F5F5F5F5F5F5F5F5F5F5F5F5F5F5F5F5F5F5F5F5F5F5F5F5F5F5F5F5F5F5F5F5F5F5F5F5F5F5F5F5F5F5F5F5F5F5F5F5F5E2E2F5F5F5F5F5F5F5F5F5F5F5F5F5F5F5F5F5F5F5F5F5F5F5F5F5F5F5F5F5F5F5F5F5F5F5F5F5F5F5F5F5F5F5F5F5F5F5F5F5F5F5F5F5F5F5F5F5F5F5F5F5F5F5F5F5F5
310
F5F5F5F5F5F5F5F5F5F5F5F5F5F5F5F5F5F5F5F5F5F5F5F5F5F5F5F5F5F5F5F5F5F5F5F5F5F5F5F5F5F5F5F5F5F5F5F5F5F5F5F5F5F5F5F5F5F5F5F5F5F5F5F5F5F5F5F5F5F5F5F5F5F5F5F5F5F5F5F5F5F5F5F5F5F5F5F5F5F5F5F5F5F5F5F5F5F5F5F5F5F5F5F5F5F5F5F5F5F5F5F5E2E2F5F5F5F5F5F5F5F5F5F5F5F5F5
310
F5F5F5F5F5F5F5F5E2E2E2E2E2E2E2E2E2E2E2E2E2E2E2E2E2E2E2E2E2E2E2E2E2E2E2E2E2E2E2E2E2E2E2E2E2E2E2E2E2E2E2E2E2E2E2E2E2E2E2E2E2E2E2E2E2E2E2E2E2E2E2E2E2E2E2E2E2E2E2E2E2E2E2E2E2E2E2E2E2E2E2E2E2E2E2E2E2E2E2E2E2E2E2E2E2E2E2E2E2E2E2E2E2E2E2E2E2E2E2E2E2E2E2E2E2E2E2
310
E2E2E2E2E2E2E2E2E2E2E2E2E2E2E2E2E2F5F5F5F5F5F5F5F5F5F5F5F5F5F5F5F5F5F5F5F5F5E2E2F5F5F5F5F5F5F5F5F5F5F5F5F5F5F5F5F5F5F5F5F5E22D2D2D2DF5F5F5F5E2F5F5F5F5F5F5F52DF5F5F5F5F5F5F5F5F5F5F5F5F5F5F5F5F5F5E2F5F5F5F5F5F5F5F5F5F5F5F5F5F5F5F5F5F5F5F5F5F5F5F5F5F5F5F5F5
310
F5F5F5F5F5F5F5F5F5F5F5F5F5F5F5F5F5F5F5F5F5F5F5F5F5F5F5F5F5F5F5F5F5F5F5F5F5F5F5F5F5F5F5F5F5F5F5F5F5F5F5F5F5F5F5F5F5F5F5F5F5F5F5F5F5F5F5F5F5E2F5F5F5F5F5F5F5F5F5F5F5F5F5F5F5F5F5F5F5F5F5E2E2F5F5F5F5F5F5F5F5F5F5F5F5F5F5F5F5F5F5F5F5F5E2DCF5F52DF5F5F5F5E2F5F5F5
310
F5F5F5F52DF5F5F5F5F5F5F5F5F5F5F5F5F5F5F5F5F5F5E2F5F5F5F5F5F5F5F5F5F5F5F5F5F5F5F5F5F5F5F5F5F5F5F5F5F5F5F5F5F5F5F5F5F5F5F5F5F5F5F5F5F5F5F5F5F5F5F5F5F5F5F5F5F5F5F5F5F5F5F5F5F5F5F5F5F5F5F5F5F5F5F5F5F5F5F5F5F5F5F5F5F5F5F5F5F5F5F5F5F5F5F5F5F5F5F5F5F5E2F5F5F5F5
310
F5F5F5F5F5F5F5F5F5F5F5F5F5F5F5F5F5E2E2F5F5F5F5F5F5F5F5F5F5F5F5F5F5F5F5F5F5F5F5F5E2DCF5F52DF5F5F5F5E2F5F5F5F5F5F5F52DF5F5F5F5F5F5F5F5F5F5F5F5F5F5F5F5F5F5E2E2F5F5F5F5F5F5F5F5F5F5F5F5F5F5F5F5F5F5F5F5F5F5F5F5F5F5F5F5F5F5F5F5F5F5F5F5F5F5F5F5F5F5F5F5F5F5F5F5F5
310
F5F5F5F5F5F5F5F5F5F5F5F5F5F5F5F5F5F5F5F5F5F5F5F5F5F5F5F5F5F5F5F5F5F5F5F5F5F5F5F5F5F5F5F5F5F5F5F5E2F5F5F5F5F5F5F5F5F5F5F5F5F5F5F5F5F5F5F5F5F5E2E2F5F5F5F5F5F5F5F5F5F5F5F5F5F5F5F5F5F5F5F5F5E2BEF5F52D2D2D2D2D2D2D2D2D2D2D2D2D2DE2E2E2E2E2E2E2E2E2E2E2E2E2E2E2E2
310
E2E2E2E2F5F5F5F5F5F5F5F5F5F5F5F5F5F5F5F5F5F5F5F5F5F5F5F5F5F5F5F5F5F5F5F5F5F5F5F5F5F5F5F5F5F5F5F5F5F5F5F5F5F5F5F5F5F5F5F5F5F5F5F5F5F5F5F5F5F5F5F5F5F5F5F5F5F5F5F5F5F5F5F5F5F5F5F5F5F5F5F5F5F5F5F5F5F5F5F5F5E2F5F5F5F5F5F5F5F5F5F5F5F5F5F5F5F5F5F5F5F5F5E2E2F5F5
310
F5F5E2F5F5F5F5F5F5F5F5F5F5F5F5F5F5F5F5E2DCF5F5F5F5F5F5F5E2F5F5F5F5F5F5F5E2F5F5F5F5F5F5F5F5F5F5F5F5F5F5F5F5F5F5F5F5F5F5F5F5F5F5F5F5F5F5F5F5F5F5F5F5F5F5F5F5F5F5F5F5F5F5F5F5F5F5F5F5F5F5F5F5F5F5F5F5F5F5F5F5F5F5F5F5F5F5F5F5F5F5F5F5F5F5F5F5F5F5F5F5F5F5F5F5F5F5
310
F5F5F5F5F5F5F5F5F5F5F5F5F5F5F5F5F5F5F5F5F5F5F5F5F5F5F5E2F5F5F5F5F5F5F5F5F5F5F5F5F5F5F5F5E2F5F5F5F5E2E2F5F5F5F5E2F5F5F5F5F5F5F5F5F5F5F5F5F5F5F5F5E2F5F5F5F5F5F5F5F5E2F5F5F5F5F5F5F5E2F5F5F5F5F5F5F5F5F5F5F5F5F5F5F5F5F5F5F5F5F5F5F5F5F5F5F5F5F5F5F5F5F5F5F5F5F5
310
F5F5F5F5F5F5F5F5F5F5F5F5F5F5F5F5F5F5F5F5F5F5F5F5F5F5F5F5F5F5F5F5F5F5F5F5F5F5F5F5F5F5F5F5F5F5F5F5F5F5F5F5F5F5F5F5F5F5F5F5F5F5F5F5F5F5F5F5F5F5F5F5F5F5F5F5F5F5F5F5E2F5F5F5F5F5F5F5F5F5F5F5F5F5F5F5F5E2F5F5F5F5E2E2F5F5F5F5E2F5F5F5F5F5F5F5F5F5F5F5F5F5F5F5F5E2E2
310
E2E2E2E2E2E2E2E2F5F5F5F5F5F5F5E2F5F5F5F5F5F5F5F5F5F5F5F5F5F5F5F5F5F5F5F5F5F5F5F5F5F5F5F5F5F5F5F5F5F5F5F5F5F5F5F5F5F5F5F5F5F5F5F5F5F5F5F5F5F5F5F5F5F5F5F5F5F5F5F5F5F5F5F5F5F5F5F5F5F5F5F5F5F5F5F5F5F5F5F5F5F5F5F5F5F5F5F5F5F5F5F5F5F5F5F5F5F5F5F5F5F5F5F5F5F5F5
310
F5F5F5F5F5F5E2F5F5F5F5F5F5F5F5F5F5F5F5F5F5F5F5E2F5F5F5F5E2E2F5F5F5F5E2F5F5F5F5F5F5F5F5F5F5F5F5F5F5F5F5E2E2E2E2F5F5F5F5F5F5F5F5F5F5F5F5F5E2F5F5F5F5F5F5F5F5F5F5F5F5F5F5F5F5F5F5F5F5F5F5F5F5F5F5F5F5F5F5F5F5F5F5F5F5F5F5F5F5F5F5F5F5F5F5F5F5F5F5F5F5F5F5F5F5F5F5
310
F5F5F5F5F5F5F5F5F5F5F5F5F5F5F5F5F5F5F5F5F5F5F5F5F5F5F5F5F5F5F5F5F5F5F5F5F5F5F5F5F5F5F5F5F5F5F5F5F5F5F5F5F5F5F5F5F5F5F5E2F5F5F5F5F5F5F5F5F5F5F5F5F5F5F5F5E2F5F5F5F5E2E2F5F5F5F5E2F5F5F5F5F5F5F5F5F5F5F5F5F5F5F5F5E2E2E2E2F5F5F5F5F5F5F5F5F5F5F5F5F5E2F5F5F5F5F5
310
F5F5F5F5F5F5F5F5F5F5F5F5F5F5F5F5F5F5F5F5F5F5F5F5F5F5F5F5F5F5F5F5F5F5F5F5F5F5F5F5F5F5F5F5F5F5F5F5F5F5F5F5F5F5F5F5F5F5F5F5F5F5F5F5F5F5F5F5F5F5F5F5F5F5F5F5F5F5F5F5F5F5F5F5F5F5F5F5F5F5F5F5F5F5F5F5F5F5F5F5F5F5F5F5F5F5F5F5F5F5F5F5E2F5F5F5F5F5F5F5F5F5F5F5F5F5F5
310
F5F5E2F5F5F5F5E2E2F5F5F5F5E2F5F5F5F5F5F5F5F5F5F5F5F5F5F5F5F5E2F5F5F5F5F5F5F5F5F5F5F5F5F5F5F5F5E2F5F5F5F5F5F5F5F5F5F5F5F5F5F5F5F5F5F5F5F5F5F5F5F5F5F5F5F5F5F5F5F5F5F5F5F5F5F5F5F5F5F5F5F5F5F5F5F5F5F5F5F5F5F5F5F5F5F5F5F5F5F5F5F5F5F5F5F5F5F5F5F5F5F5F5F5F5F5F5
310
F5F5F5F5F5F5F5F5F5F5F5F5F5F5F5F5F5F5F5F5F5F5F5F5F5F5F5F5F5F5F5F5F5F5F5F5F5F5E2F5F5F5F5F5F5F5F5F5F5F5F5F5F5F5F5E2F5F5F5F5E2E2F5F5F5F5E2F5F5F5F5F5F5F5F5F5F5F5F5F5F5F5F5E2E2E2E2E2E2E2E2E2E2E2E2E2E2E2E2E2E2F5F5F5F5F5F5F5F5F5F5F5F5F5F5F5F5F5F5F5F5F5F5F5F5F5F5
310
F5F5F5F5F5F5F5F5F5F5F5F5F5F5F5F5F5F5F5F5F5F5F5F5F5F5F5F5F5F5F5F5F5F5F5F5F5F5F5F5F5F5F5F5F5F5F5F5F5F5F5F5F5F5F5F5F5F5F5F5F5F5F5F5F5F5F5F5F5F5F5F5F5F5F5F5F5F5F5F5F5F5F5F5F5F5F5F5F5F5F5E2F5F5F5F5F5F5F5F5F5F5F5F5F5F5F5F5E2F5F5F5F5E2E2F5F5F5F5E2F5F5F5F5F5F5F5
310
F5F5F5F5F5F5F5F5F5E2E2E2F5F5F5F5F5F5F5F5F5F5F5F5F5F5F5F5F5F5F5F5F5F5F5F5F5F5F5F5F5F5F5F5F5F5F5F5F5F5F5F5F5F5F5F5F5F5F5F5F5F5F5F5F5F5F5F5F5F5F5F5F5F5F5F5F5F5F5F5F5F5F5F5F5F5F5F5F5F5F5F5F5F5F5F5F5F5F5F5F5F5F5F5F5F5F5F5F5F5F5F5F5F5F5F5F5F5F5F5F5F5F5F5F5F5F5
310
F5F5F5F5F5F5F5F5F5F5F5F5F5F5F5F5F5E2F5F5F5F5F5F5F5F5F5F5F5F5F5F5F5F5E2F5F5F5F5E2E2F5F5F5F5E2F5F5F5F5F5F5F5F5F5F5F5F5F5F5F5F5E2E2E2F5F5F5F5F5F5F5F5F5F5F5F5F5F5F5F5F5F5F5F5F5F5F5F5F5F5F5F5F5F5F5F5F5F5F5F5F5F5F5F5F5F5F5F5F5F5F5F5F5F5F5F5F5F5F5F5F5F5F5F5F5F5
310
F5F5F5F5F5F5F5F5F5F5F5F5F5F5F5F5F5F5F5F5F5F5F5F5F5F5F5F5F5F5F5F5F5F5F5F5F5F5F5F5F5F5F5F5F5F5F5F5F5F5F5F5F5F5F5F5F5F5F5F5F5F5F5F5F5F5F5F5F5F5E2F5F5F5F5F5F5F5F5F5F5F5F5F5F5F5F5E2F5F5F5F5E2E2F5F5F5F5E2F5F5F5F5F5F5F5F5F5F5F5F5F5F5F5F5E2F5F5F5F5F5F5F5F5F5F5F5
310
F5F5F5F5F5F5F5F5F5F5F5F5F5F5F5F5F5F5F5F5F5F5F5F5F5F5F5F5F5F5F5F5F5F5F5F5F5F5F5F5F5F5F5F5F5F5F5F5F5F5F5F5F5F5F5F5F5F5F5F5F5F5F5F5F5F5F5F5F5F5F5F5F5F5F5F5F5F5F5F5F5F5F5F5F5F5F5F5F5F5F5F5F5F5F5F5F5F5F5F5F5F5F5F5F5F5F5F5F5F5F5F5F5F5F5F5F5F5F5F5F5F5F5E2F5F5F5
310
F5F5F5F5F5F5F5F5F5F5F5F5F5E2F5F5F5F5E2E2F5F5F5F5E2F5F5F5F5F5F5F5F5F5F5F5F5F5F5F5F5E20F0F0F0F0F0F0F0F0F0F0FF5F5F5F5F5F5F5F5F5F5F5F5F5F5F5F5F5F5F5F5F5F5F5F5F5F5F5F5F5F5F5F5F5F5F5F5F5F5F5F5F5F5F5F5F5F5F5F5F5F5F5F5F5F5F5F5F5F5F5F5F5F5F5F5F5F5F5F5F5F5F5F5F5F5
310
F5F5F5F5F5F5F5F5F5F5F5F5F5F5F5F5F5F5F5F5F5F5F5F5F5F5F5F5F5F5F5F5F5F5F5F5F5F5F5F5F5F5F5F5F5F5F5F5F5E2F5F5F5F5F5F5F5F5F5F5F5F5F5F5F5F5E2F5F5F5F5E2E2F5F5F5F5E2F5F5F5F5F5F5F5F5F5F5F5F5F5F5F5F5E20F0F0F0F0F0F0F0F0F0FF5F5F5F5F5F5F5F5F5F5F5F5F5F5F5F5F5F5F5F5F5F5
310
F5F5F5F5F5F5F5F5F5F5F5F5F5F5F5F5F5F5F5F5F5F5F5F5F5F5F5F5F5F5F5F5F5F5F5F5F5F5F5F5F5F5F5F5F5F5F5F5F5F5F5F5F5F5F5F5F5F5F5F5F5F5F5F5F5F5F5F5F5F5F5F5F5F5F5F5F5F5F5F5F5F5F5F5F5F5F5F5F5F5F5F5F5F5F5F5F5F5F5F5F5F5E2F5F5F5F5F5F5F5F5F5F5F5F5F5F5F5F5E2F5F5F5F5E2E2F5
310
F5F5F5E2F5F5F5F5F5F5F5F5F5F5F5F5F5F5F5F5E2F5F5F5F5F5F5F5F5F5F5F5F5F5F5F5F5F5F5F5F5F5F5F5F5F5F5F5F5F5F5F5F5F5F5F5F5F5F5F5F5F5F5F5F5F5F5F5F5F5F5F5F5F5F5F5F5F5F5F5F5F5F5F5F5F5F5F5F5F5F5F5F5F5F5F5F5F5F5F5F5F5F5F5F5F5F5F5F5F5F5F5F5F5F5F5F5F5F5F5F5F5F5F5F5F5F5
310
F5F5F5F5F5F5F5F5F5F5F5F5F5F5F5F5F5F5F5F5F5F5F5F5F5F5F5F5E2F5F5F5F5F5F5F5F5F5F5F5F5F5F5F5F5E2F5F5F5F5E2E2F5F5F5F5E2F5F5F5F5F5F5F5F5F5F5F5F5F5F5F5F5E2F5F5F5F5F5F5F5F5F5F5F5F5F5F5F5F5F5F5F5F5F5F5F5F5F5F5F5F5F5F5F5F5F5F5F5F5F5F5F5F5F5F5F5F5F5F5F5F5F5F5F5F5F5
310
F5F5F5F5F5F5F5F5F5F5F5F5F5F5F5F5F5F5F5F5F5F5F5F5F5F5F5F5F5F5F5F5F5F5F5F5F5F5F5F5F5F5F5F5F5F5F5F5F5F5F5F5F5F5F5F5F5F5F5F5F5F5F5F5F5F5F5F5F5F5F5F5F5F5F5F5F5F5F5F5F5E2F5F5F5F5F5F5F5F5F5F5F5F5F5F5F5F5E2F5F5F5F5E2E2F5F5F5F5E2F5F5F5F5F5F5F5F5F5F5F5F5F5F5F5F5E2
310
F5F5F5F5F5F5F5F5F5F5F5F5F5F5F5F5F5F5F5F5F5F5F5F5F5F5F5F5F5F5F5F5F5F5F5F5F5F5F5F5F5F5F5F5F5F5F5F5F5F5F5F5F5F5F5F5F5F5F5F5F5F5F5F5F5F5F5F5F5F5F5F5F5F5F5F5F5F5F5F5F5F5F5F5F5F5F5F5F5F5F5F5F5F5F5F5F5F5F5F5F5F5F5F5F5F5F5F5F5F5F5F5F5F5F5F5F5F5F5F5F5F5F5F5F5F5F5
310
F5F5F5F5F5F5F5E2F5F5F5F5F5F5F5F5F5F5F5F5F5F5F5F5E2F5F5F5F5E2E2F5F5F5F5E2F5F5F5F5F5F5F5F5F5F5F5F5F5F5F5F5E2F5F5F5F5F5F5F5F5F5F5F5F5F5F5F5F5F5F5F5F5F5F5F5F5F5F5F5F5F5F5F5F5F5F5F5F5F5F5F5F5F5F5F5F5F5F5F5F5F5F5F5F5F5F5F5F5F5F5F5F5F5F5F5F5F5F5F5F5F5F5F5F5F5F5
310
F5F5F5F5F5F5F5F5F5F5F5F5F5F5F5F5F5F5F5F5F5F5F5F5F5F5F5F5F5F5F5F5F5F5F5F5F5F5F5F5F5F5F5F5F5F5F5F5F5F5F5F5F5F5F5F5F5F5F5F5E2F5F5F5F5F5F5F5F5F5F5F5F5F5F5F5F5E2F5F5F5F5E2E2F5F5F5F5F5F5F5F5F5F5F5F5F5F5F5F5F5F5F5F5F5E2F5F5F5F5F5F5F5F5F5F5F5F5F5F5F5F5F5F5F5F5F5
310
F5F5F5F5F5F5F5F5F5F5F5F5F5F5F5F5F5F5F5F5F5F5F5F5F5F5F5F5F5F5F5F5F5F5F5F5F5F5F5F5F5F5F5F5F5F5F5F5F5F5F5F5F5F5F5F5F5F5F5F5F5F5F5F5F5F5F5F5F5F5F5F5F5F5F5F5F5F5F5F5F5F5F5F5F5F5F5F5F5F5F5F5F5F5F5F5F5F5F5F5F5F5F5F5F5F5F5F5F5F5F5F5F5E2F5F5F5F5F5F5F5F5F5F5F5F5F5
310
F5F5F5F5F5F5F5F5E2E2F5F5F5F5F5F5F5F5F5F5F5F5F5F5F5F5F5F5F5F5F5E2F5F5F5F5F5F5F5F5F5F5F5F5F5F5F5F5F5F5F5F5F5F5F5F5F5F5F5F5F5F5F5F5F5F5F5F5F5F5F5F5F5F5F5F5F5F5F5F5F5F5F5F5F5F5F5F5F5F5F5F5F5F5F5F5F5F5F5F5F5F5F5F5F5F5F5F5F5F5F5F5F5F5F5F5F5F5F5F5F5F5F5F5F5F5F5
310
F5F5F5F5F5F5F5F5F5F5F5F5F5F5F5F5F5F5F5F5F5F5F5F5F5F5F5F5F5F5F5F5F5F5F5F5F5F5F5E2F5F5F5F5F5F5F5F5F5F5F5F5F5F5F5F5F5F5F5F5F5E2E2F5F5F5F5F5F5F5F5F5F5F5F5F5F5F5F5F5F5F5F5F5E2F5F5F5F5F5F5F5F5F5F5F5F5F5F5F5F5F5F5F5F5F5F5F5F5F5F5F5F5F5F5F5F5F5F5F5F5F5F5F5F5F5F5
310
F5F5F5F5F5F5F5F5F5F5F5F5F5F5F5F5F5F5F5F5F5F5F5F5F5F5F5F5F5F5F5F5F5F5F5F5F5F5F5F5F5F5F5F5F5F5F5F5F5F5F5F5F5F5F5F5F5F5F5F5F5F5F5F5F5F5F5F5F5F5F5F5F5F5F5F5F5F5F5F5F5F5F5F5F5F5F5F5F5F5F5F5E2F5F5F5F5F5F5F5F5F5F5F5F5F5F5F5F5F5F5F5F5F5E2E2F5F5F5F5F5F5F5F5F5F5F5
310
F5F5F5F5F5F5F5F5F5F5E2F5F5F5F5F5F5F5F5F5F5F5F5F5F5F5F5F5F5F5F5F5F5F5F5F5F5F5F5F5F5F5F5F5F5F5F5F5F5F5F5F5F5F5F5F5F5F5F5F5F5F5F5F5F5F5F5F5F5F5F5F5F5F5F5F5F5F5F5F5F5F5F5F5F5F5F5F5F5F5F5F5F5F5F5F5F5F5F5F5F5F5F5F5F5F5F5F5F5F5F5F5F5F5F5F5F5F5F5F5F5F5F5F5F5F5F5
310
F5F5F5F5F5F5F5F5F5F5F5F5F5F5F5F5F5F5E2F5F5F5F5F5F5F5F5F5F5F5F5F5F5F5F5F5F5F5F5F5E2E2F5F5F5F5F5F5F5F5F5F5F5F5F5F5F5F5F5F5F5F5F5E2F5F5F5F5F5F5F5F5F5F5F5F5F5F5F5F5F5F5F5F5F5F5F5F5F5F5F5F5F5F5F5F5F5F5F5F5F5F5F5F5F5F5F5F5F5F5F5F5F5F5F5F5F5F5F5F5F5F5F5F5F5F5F5
310
F5F5F5F5F5F5F5F5F5F5F5F5F5F5F5F5F5F5F5F5F5F5F5F5F5F5F5F5F5F5F5F5F5F5F5F5F5F5F5F5F5F5F5F5F5F5F5F5F5F5F5F5F5F5F5F5F5F5F5F5F5F5F5F5F5F5F5F5F5F5F5E2F5F5F5F5F5F5F5F5F5F5F5F5F5F5F5F5F5F5F5F5F5E2E2F5F5F5F5F5F5F5F5F5F5F5F5F5F5F5F5F5F5F5F5F5E2F5F5F5F5F5F5F5F5F5F5
310
F5F5F5F5F5F5F5F5F5F5F5F5F5F5F5F5F5F5F5F5F5F5F5F5F5F5F5F5F5F5F5F5F5F5F5F5F5F5F5F5F5F5F5F5F5F5F5F5F5F5F5F5F5F5F5F5F5F5F5F5F5F5F5F5F5F5F5F5F5F5F5F5F5F5F5F5F5F5F5F5F5F5F5F5F5F5F5F5F5F5F5F5F5F5F5F5F5F5F5F5F5F5F5F5F5F5F5F5F5F5F5F5F5F5F5F5F5F5F5F5F5F5F5F5E2F5F5
310
F5F5F5F5F5F5F5F5F5F5F5F5F5F5F5F5F5F5F5E2E2F5F5F5F5F5F5F5F5F5F5F5F5F5F5F5F5F5F5F5F5F5E2F5F5F5F5F5F5F5F5F5F5F5F5F5F5F5F5F5F5F5F5F5F5F5F5F5F5F5F5F5F5F5F5F5F5F5F5F5F5F5F5F5F5F5F5F5F5F5F5F5F5F5F5F5F5F5F5F5F5F5F5F5F5F5F5F5F5F5F5F5F5F5F5F5F5F5F5F5F5F5F5F5F5F5F5
310
F5F5F5F5F5F5F5F5F5F5F5F5F5F5F5F5F5F5F5F5F5F5F5F5F5F5F5F5F5F5F5F5F5F5F5F5F5F5F5F5F5F5F5F5F5F5F5F5F5F5E2F5F5F5F5F5F5F5F5F5F5F5F5F5F5F5F5F5F5F5F5F5E2E2F5F5F5F5F5F5F5F5F5F5F5F5F5F5F5F5F5F5F5F5F5E2F5F5F5F5F5F5F5F5F5F5F5F5F5F5F5F5F5F5F5F5F5F5F5F5F5F5F5F5F5F5F5
310
F5F5F5F5F5F5F5F5F5F5F5F5F5F5F5F5F5F5F5F5F5F5F5F5F5F5F5F5F5F5F5F5F5F5F5F5F5F5F5F5F5F5F5F5F5F5F5F5F5F5F5F5F5F5F5F5F5F5F5F5F5F5F5F5F5F5F5F5F5F5F5F5F5F5F5F5F5F5F5F5F5F5F5F5F5F5F5F5F5F5F5F5F5F5F5F5F5F5F5F5F5F5F5E2F5F5F5F5F5F5F5F5F5F5F5F5F5F5F5F5F5F5F5F5F5E2E2
310
F5F5F5F5F5F5F5F5F5F5F5F5F5F5F5F5F5F5F5F5F5E2F5F5F5F5F5F5F5F5F5F5F5F5F5F5F5F5F5F5F5F5F5F5F5F5F5F5F5F5F5F5F5F5F5F5F5F5F5F5F5F5F5F5F5F5F5F5F5F5F5F5F5F5F5F5F5F5F5F5F5F5F5F5F5F5F5F5F5F5F5F5F5F5F5F5F5F5F5F5F5F5F5F5F5F5F5F5F5F5F5F5F5F5F5F5F5F5F5F5F5F5F5F5F5F5F5
310
F5F5F5F5F5F5F5F5F5F5F5F5F5F5F5F5F5F5F5F5F5F5F5F5F5F5F5F5F5E2F5F5F5F5F5F5F5F5F5F5F5F5F5F5F5F5F5F5F5F5F5E2E2F5F5F5F5F5F5F5F5F5F5F5F5F5F5F5F5F5F5F5F5F5E2F5F5F5F5F5F5F5F5F5F5F5F5F5F5F5F5F5F5F5F5F5F5F5F5F5F5F5F5F5F5F5F5F5F5F5F5F5F5F5F5F5F5F5F5F5F5F5F5F5F5F5F5
310
F5F5F5F5F5F5F5F5F5F5F5F5F5F5F5F5F5F5F5F5F5F5F5F5F5F5F5F5F5F5F5F5F5F5F5F5F5F5F5F5F5F5F5F5F5F5F5F5F5F5F5F5F5F5F5F5F5F5F5F5F5F5F5F5F5F5F5F5F5F5F5F5F5F5F5F5F5F5F5F5F5F5E2F5F5F5F5F5F5F5F5F5F5F5F5F5F5F5F5F5F5F5F5F5E2E2F5F5F5F5E2F5F5F5F5F5F5F5F5F5F5F5F5F5F5F5F5
310
E2F5F5F5F5F5F5F5F5F5F5F5F5F5F5F5F5F5F5F5F5F5F5F5F5F5F5F5F5F5F5F5F5F5F5F5F5F5F5F5F5F5F5F5F5F5F5F5F5F5F5F5F5F5F5F5F5F5F5F5F5F5F5F5F5F5F5F5F5F5F5F5F5F5F5F5F5F5F5F5F5F5F5F5F5F5F5F5F5F5F5F5F5F5F5F5F5F5F5F5F5F5F5F5F5F5F5F5F5F5F5F5F5F5F5F5F5F5F5F5F5F5F5F5F5F5F5
310
F5F5F5F5F5F5F5F5E2F5F5F5F5F5F5F5F5F5F5F5F5F5F5F5F5E2F5F5F5F5E2E2F5F5F5F5E2F5F5F5F5F5F5F5F5F5F5F5F5F5F5F5F5E2F5F5F5F5F5F5F5F5F5F5F5F5F5F5F5F5F5F5F5F5F5F5F5F5F5F5F5F5F5F5F5F5F5F5F5F5F5F5F5F5F5F5F5F5F5F5F5F5F5F5F5F5F5F5F5F5F5F5F5F5F5F5F5F5F5F5F5F5F5F5F5F5F5
310
F5F5F5F5F5F5F5F5F5F5F5F5F5F5F5F5F5F5F5F5F5F5F5F5F5F5F5F5F5F5F5F5F5F5F5F5F5F5F5F5F5F5F5F5F5F5F5F5F5F5F5F5F5F5F5F5F5F5F5F5F5E2F5F5F5F5F5F5F5F5F5F5F5F5F5F5F5F5E2F5F5F5F5E2E2F5F5F5F5E2F5F5F5F5F5F5F5F5F5F5F5F5F5F5F5F5E2F5F5F5F5F5F5F5F5F5F5F5F5F5F5F5F5F5F5F5F5
310
F5F5F5F5F5F5F5F5F5F5F5F5F5F5F5F5F5F5F5F5F5F5F5F5F5F5F5F5F5F5F5F5F5F5F5F5F5F5F5F5F5F5F5F5F5F5F5F5F5F5F5F5F5F5F5F5F5F5F5F5F5F5F5F5F5F5F5F5F5F5F5F5F5F5F5F5F5F5F5F5F5F5F5F5F5F5F5F5F5F5F5F5F5F5F5F5F5F5F5F5F5F5F5F5F5F5F5F5F5F5F5F5F5F5E2F5F5F5F5F5F5F5F5F5F5F5F5
310
F5F5F5F5E2F5F5F5F5E2E2F5F5F5F5E2F5F5F5F5F5F5F5F5F5F5F5F5F5F5F5F5E2F5F5F5F5F5F5F5F5F5F5F5F5F5F5F5F5F5F5F5F5F5F5F5F5F5F5F5F5F5F5F5F5F5F5F5F5F5F5F5F5F5F5F5F5F5F5F5F5F5F5F5F5F5F5F5F5F5F5F5F5F5F5F5F5F5F5F5F5F5F5F5F5F5F5F5F5F5F5F5F5F5F5F5F5F5F5F5F5F5F5F5F5F5F5
310
F5F5F5F5F5F5F5F5F5F5F5F5F5F5F5F5F5F5F5F5F5F5F5F5F5F5F5F5F5F5F5F5F5F5F5F5F5F5F5F5E2F5F5F5F5F5F5F5F5F5F5F5F5F5F5F5F5E2F5F5F5F5E2E2F5F5F5F5E2F5F5F5F5F5F5F5F5F5F5F5F5F5F5F5F5E2F5F5F5F5F5F5F5F5F5F5F5F5F5F5F5F5F5F5F5F5F5F5F5F5F5F5F5F5F5F5F5F5F5F5F5F5F5F5F5F5F5
310
F5F5F5F5F5F5F5F5F5F5F5F5F5F5F5F5F5F5F5F5F5F5F5F5F5F5F5F5F5F5F5F5F5F5F5F5F5F5F5F5F5F5F5F5F5F5F5F5F5F5F5F5F5F5F5F5F5F5F5F5F5F5F5F5F5F5F5F5F5F5F5F5F5F5F5F5F5F5F5F5F5F5F5F5F5F5F5F5F5F5F5F5F5E2F5F5F5F5F5F5F5F5F5F5F5F5F5F5F5F5E2F5F5F5F5E2E2F5F5F5F5E2F5F5F5F5F5
310
F5F5F5F5F5F5F5F5F5F5F5E2F5F5F5F5F5F5F5F5F5F5F5F5F5F5F5F5F5F5F5F5F5F5F5F5F5F5F5F5F5F5F5F5F5F5F5F5F5F5F5F5F5F5F5F5F5F5F5F5F5F5F5F5F5F5F5F5F5F5F5F5F5F5F5F5F5F5F5F5F5F5F5F5F5F5F5F5F5F5F5F5F5F5F5F5F5F5F5F5F5F5F5F5F5F5F5F5F5F5F5F5F5F5F5F5F5F5F5F5F5F5F5F5F5F5F5
310
F5F5F5F5F5F5F5F5F5F5F5F5F5F5F5F5F5F5F5E2F5F5F5F5F5F5F5F5F5F5F5F5F5F5F5F5E2F5F5F5F5E2E2F5F5F5F5E2F5F5F5F5F5F5F5F5F5F5F5F5F5F5F5F5E2F5F5F5F5F5F5F5F5F5F5F5F5F5F5F5F5F5F5F5F5F5F5F5F5F5F5F5F5F5F5F5F5F5F5F5F5F5F5F5F5F5F5F5F5F5F5F5F5F5F5F5F5F5F5F5F5F5F5F5F5F5F5
310
F5F5F5F5F5F5F5F5F5F5F5F5F5F5F5F5F5F5F5F5F5F5F5F5F5F5F5F5F5F5F5F5F5F5F5F5F5F5F5F5F5F5F5F5F5F5F5F5F5F5F5F5F5F5F5F5F5F5F5F5F5F5F5F5F5F5F5F5F5F5F5F5E2F5F5F5F5F5F5F5F5F5F5F5F5F5F5F5F5E2F5F5F5F5E2E2F5F5F5F5E2F5F5F5F5F5F5F5F5F5F5F5F5F5F5F5F5E2F5F5F5F5F5F5F5F5F5
310
F5F5F5F5F5F5F5F5F5F5F5F5F5F5F5F5F5F5F5F5F5F5F5F5F5F5F5F5F5F5F5F5F5F5F5F5F5F5F5F5F5F5F5F5F5F5F5F5F5F5F5F5F5F5F5F5F5F5F5F5F5F5F5F5F5F5F5F5F5F5F5F5F5F5F5F5F5F5F5F5F5F5F5F5F5F5F5F5F5F5F5F5F5F5F5F5F5F5F5F5F5F5F5F5F5F5F5F5F5F5F5F5F5F5F5F5F5F5F5F5F5F5F5F5F5E2F5
310
F5F5F5F5F5F5F5F5F5F5F5F5F5F5F5E2F5F5F5F5E2E2F5F5F5F5E2F5F5F5F5F5F5F5F5F5F5F5F5F5F5F5F5E2F5F5F5F5F5F5F5F5F5F5F5F5F5F5F5F5F5F5F5F5F5F5F5F5F5F5F5F5F5F5F5F5F5F5F5F5F5F5F5F5F5F5F5F5F5F5F5F5F5F5F5F5F5F5F5F5F5F5F5F5F5F5F5F5F5F5F5F5F5F5F5F5F5F5F5F5F5F5F5F5F5F5F5
310
F5F5F5F5F5F5F5F5F5F5F5F5F5F5F5F5F5F5F5F5F5F5F5F5F5F5F5F5F5F5F5F5F5F5F5F5F5F5F5F5F5F5F5F5F5F5F5F5F5F5F5E2F5F5F5F5F5F5F5F5F5F5F5F5F5F5F5F5E2F5F5F5F5E2E2F5F5F5F5E2F5F5F5F5F5F5F5F5F5F5F5F5F5F5F5F5E2F5F5F5F5F5F5F5F5F5F5F5F5F5F5F5F5F5F5F5F5F5F5F5F5F5F5F5F5F5F5
310
F5F5F5F5F5F5F5F5F5F5F5F5F5F5F5F5F5F5F5F5F5F5F5F5F5F5F5F5F5F5F5F5F5F5F5F5F5F5F5F5F5F5F5F5F5F5F5F5F5F5F5F5F5F5F5F5F5F5F5F5F5F5F5F5F5F5F5F5F5F5F5F5F5F5F5F5F5F5F5F5F5F5F5F5F5F5F5F5F5F5F5F5F5F5F5F5F5F5F5F5F5F5F5F5E2F5F5F5F5F5F5F5F5F5F5F5F5F5F5F5F5E2F5F5F5F5E2
310
E2F5F5F5F5E2F5F5F5F5F5F5F5F5F5F5F5F5F5F5F5F5E2F5F5F5F5F5F5F5F5F5F5F5F5F5F5F5F5F5F5F5F5F5F5F5F5F5F5F5F5F5F5F5F5F5F5F5F5F5F5F5F5F5F5F5F5F5F5F5F5F5F5F5F5F5F5F5F5F5F5F5F5F5F5F5F5F5F5F5F5F5F5F5F5F5F5F5F5F5F5F5F5F5F5F5F5F5F5F5F5F5F5F5F5F5F5F5F5F5F5F5F5F5F5F5F5
310
F5F5F5F5F5F5F5F5F5F5F5F5F5F5F5F5F5F5F5F5F5F5F5F5F5F5F5F5F5F5E2F5F5F5F5F5F5F5F5F5F5F5F5F5F5F5F5E2F5F5F5F5E2E2F5F5F5F5E2F5F5F5F5F5F5F5F5F5F5F5F5F5F5F5F5E2F5F5F5F5F5F5F5F5F5F5F5F5F5F5F5F5F5F5F5F5F5F5F5F5F5F5F5F5F5F5F5F5F5F5F5F5F5F5F5F5F5F5F5F5F5F5F5F5F5F5F5
310
F5F5F5F5F5F5F5F5F5F5F5F5F5F5F5F5F5F5F5F5F5F5F5F5F5F5F5F5F5F5F5F5F5F5F5F5F5F5F5F5F5F5F5F5F5F5F5F5F5F5F5F5F5F5F5F5F5F5F5F5F5F5F5F5F5F5F5F5F5F5F5F5F5F5F5F5F5F5F5F5F5F5F5E2F5F5F5F5F5F5F5F5F5F5F5F5F5F5F5F5E2F5F5F5F5E2E2F5F5F5F5E2F5F5F5F5F5F5F5F5F5F5F5F5F5F5F5
310
F5E2F5F5F5F5F5F5F5F5F5F5F5F5F5F5F5F5F5F5F5F5F5F5F5F5F5F5F5F5F5F5F5F5F5F5F5F5F5F5F5F5F5F5F5F5F5F5F5F5F5F5F5F5F5F5F5F5F5F5F5F5F5F5F5F5F5F5F5F5F5F5F5F5F5F5F5F5F5F5F5F5F5F5F5F5F5F5F5F5F5F5F5F5F5F5F5F5F5F5F5F5F5F5F5F5F5F5F5F5F5F5F5F5F5F5F5F5F5F5F5F5F5F5F5F5F5
310
F5F5F5F5F5F5F5F5F5E2F5F5F5F5F5F5F5F5F5F5F5F5F5F5F5F5E2F5F5F5F5E2E2F5F5F5F5E2F5F5F5F5F5F5F5F5F5F5F5F5F5F5F5F5E2F5F5F5F5F5F5F5F5F5F5F5F5F5F5F5F5F5F5F5F5F5F5F5F5F5F5F5F5F5F5F5F5F5F5F5F5F5F5F5F5F5F5F5F5F5F5F5F5F5F5F5F5F5F5F5F5F5F5F5F5F5F5F5F5F5F5F5F5F5F5F5F5
310
F5F5F5F5F5F5F5F5F5F5F5F5F5F5F5F5F5F5F5F5F5F5F5F5F5F5F5F5F5F5F5F5F5F5F5F5F5F5F5F5F5F5F5F5F5F5F5F5F5F5F5F5F5F5F5F5F5F5F5F5F5F5E2F5F5F5F5F5F5F5F5F5F5F5F5F5F5F5F5E2F5F5F5F5E2E2F5F5F5F5E2F5F5F5F5F5F5F5F5F5F5F5F5F5F5F5F5E2F5F5F5F5F5F5F5F5F5F5F5F5F5F5F5F5F5F5F5
310
F5F5F5F5F5F5F5F5F5F5F5F5F5F5F5F5F5F5F5F5F5F5F5F5F5F5F5F5F5F5F5F5F5F5F5F5F5F5F5F5F5F5F5F5F5F5F5F5F5F5F5F5F5F5F5F5F5F5F5F5F5F5F5F5F5F5F5F5F5F5F5F5F5F5F5F5F5F5F5F5F5F5F5F5F5F5F5F5F5F5F5F5F5F5F5F5F5F5F5F5F5F5F5F5F5F5F5F5F5F5F5F5F5F5F5E2F5F5F5F5F5F5F5F5F5F5F5
310
F5F5F5F5F5E2F5F5F5F5E2E2F5F5F5F5E2F5F5F5F5F5F5F5F5F5F5F5F5F5F5F5F5E2F5F5F5F5F5F5F5F5F5F5F5F5F5F5F5F5F5F5F5F5F5F5F5F5F5F5F5F5F5F5F5F5F5F5F5F5F5F5F5F5F5F5F5F5F5F5F5F5F5F5F5F5F5F5F5F5F5F5F5F5F5F5F5F5F5F5F5F5F5F5F5F5F5F5F5F5F5F5F5F5F5F5F5F5F5F5F5F5F5F5F5F5F5
310
F5F5F5F5F5F5F5F5F5F5F5F5F5F5F5F5F5F5F5F5F5F5F5F5F5F5F5F5F5F5F5F5F5F5F5F5F5F5F5F5F5E2F5F5F5F5F5F5F5F5F5F5F5F5F5F5F5F5E2F5F5F5F5E2E2F5F5F5F5F5F5F5F5F5F5F5F5F5F5F5F5F5F5F5F5F5E2F5F5F5F5F5F5F5F5F5F5F5F5F5F5F5F5F5F5F5F5F5F5F5F5F5F5F5F5F5F5F5F5F5F5F5F5F5F5F5F5
310
F5F5F5F5F5F5F5F5F5F5F5F5F5F5F5F5F5F5F5F5F5F5F5F5F5F5F5F5F5F5F5F5F5F5F5F5F5F5F5F5F5F5F5F5F5F5F5F5F5F5F5F5F5F5F5F5F5F5F5F5F5F5F5F5F5F5F5F5F5F5F5F5F5F5F5F5F5F5F5F5F5F5F5F5F5F5F5F5F5F5F5F5F5F5E2F5F5F5F5F5F5F5F5F5F5F5F5F5F5F5F5F5F5F5F5F5E2E2F5F5F5F5F5F5F5F5F5
310
F5F5F5F5F5F5F5F5F5F5F5F5E2F5F5F5F5F5F5F5F5F5F5F5F5F5F5F5F5F5F5F5F5F5F5F5F5F5F5F5F5F5F5F5F5F5F5F5F5F5F5F5F5F5F5F5F5F5F5F5F5F5F5F5F5F5F5F5F5F5F5F5F5F5F5F5F5F5F5F5F5F5F5F5F5F5F5F5F5F5F5F5F5F5F5F5F5F5F5F5F5F5F5F5F5F5F5F5F5F5F5F5F5F5F5F5F5F5F5F5F5F5F5F5F5F5F5
310
F5F5F5F5F5F5F5F5F5F5F5F5F5F5F5F5F5F5F5F5E2F5F5F5F5F5F5F5F5F5F5F5F5F5F5F5F5F5F5F5F5F5E2E2F5F5F5F5F5F5F5F5F5F5F5F5F5F5F5F5F5F5F5F5F5E2F5F5F5F5F5F5F5F5F5F5F5F5F5F5F5F5F5F5F5F5F5F5F5F5F5F5F5F5F5F5F5F5F5F5F5F5F5F5F5F5F5F5F5F5F5F5F5F5F5F5F5F5F5F5F5F5F5F5F5F5F5
310
F5F5F5F5F5F5F5F5F5F5F5F5F5F5F5F5F5F5F5F5F5F5F5F5F5F5F5F5F5F5F5F5F5F5F5F5F5F5F5F5F5F5F5F5F5F5F5F5F5F5F5F5F5F5F5F5F5F5F5F5F5F5F5F5F5F5F5F5F5F5F5F5F5E2F5F5F5F5F5F5F5F5F5F5F5F5F5F5F5F5F5F5F5F5F5E2E2F5F5F5F5F5F5F5F5F5F5F5F5F5F5F5F5F5F5F5F5F5E2F5F5F5F5F5F5F5F5
310
F5F5F5F5F5F5F5F5F5F5F5F5F5F5F5F5F5F5F5F5F5F5F5F5F5F5F5F5F5F5F5F5F5F5F5F5F5F5F5F5F5F5F5F5F5F5F5F5F5F5F5F5F5F5F5F5F5F5F5F5F5F5F5F5F5F5F5F5F5F5F5F5F5F5F5F5F5F5F5F5F5F5F5F5F5F5F5F5F5F5F5F5F5F5F5F5F5F5DCF5F5F5F5F5F5F5F5F5F5F5F5F5F5F5F5F5F5F5F5F5F5F5F5F5F5F5E2
310
F5F5F5F5F5F5F5F5F5F5F5F5F5F5F5F5F5F5F5F5F5E2E2F5F5F5F5F5F5F5F5F5F5F5F5F5F5F5F5F5F5F5F5F5E2F5F5F5F5F5F5F5F5F5F5F5F5F5F5F5F5F5F5F5F5F5F5F5F5F5F5F5F5F5F5F5F5F5F5F5F5F5F5F5F5F5F5F5F5F5F5F5F5F5F5F5F5F5F5F5F5F5F5F5F5F5F5F5F5F5F5F5F5F5F5F5F5F5F5F5F5F5F5F5F5F5E2
310
ECE2E2E2E2E2E2E2E2E2E2E2E2E2E2E2E2E2E2E2E2E2E2E2DCE2E2E2E2E2E2E2E2E2E2E2E2E2E2E2E2E2E2E2E2E2E2E2ECE2F5F5E2F5F5F5F5F5F5F5F5F5F5F5F5F5F5F5F5F5F5F5F5F5E2E2F5F5F5F5F5F5F5F5F5F5F5F5F5F5F5F5F5F5F5F5F5E2F5F5F5F5F5F5F5F5F5F5F5F5F5F5F5F5F5F5F5F5F5F5F5F5F5F5F5F5F5
310
F5F5F5F5F5F5F5F5F5F5F5F5F5F5F5F5F5F5F5F5F5F5F5F5F5F5F5F5F5F5F5F5F5F5F5F5F5F5F5F5F5F5F5F5F5F5F5F5F5F5F5E2F5F5ECF5F5F5F5F5F5F5F5F5F5F5F5F5F5F5F5F5F5F5F5F5F5DCF5F5F5F5F5F5F5F5F5F5F5F5F5F5F5F5F5F5F5F5F5F5ECF5F5E2F5E2F5F5F5F5F5F5F5F5F5F5F5F5F5F5F5F5F5F5F5F5F5
310
E2E2F5F5F5F5F5F5F5F5F5F5F5F5F5F5F5F5F5F5F5F5F5E2F5F5F5F5F5F5F5F5F5F5F5F5F5F5F5F5F5F5F5F5F5F5F5F5F5F5F5F5F5F5F5F5F5F5F5F5F5F5F5F5F5F5F5F5F5F5F5F5F5F5F5F5F5F5F5F5F5F5F5F5F5F5F5F5F5F5F5F5F5F5F5F5F5F5F5F5F5F5F5E2F5F5F5F5ECF5F5F5F5F5F5F5F5F5F5F5F5F5F5F5F5F5F5
310
F5F5F5DCF5F5F5F5F5F5F5F5F5F5F5F5F5F5F5F5F5F5F5F5F5ECF5F5F5F5E2E2F5F5F5F5F5F5F5F5F5F5F5F5F5F5F5F5F5F5F5F5F5E2E2F5F5F5F5F5F5F5F5F5F5F5F5F5F5F5F5F5F5F5F5F5E2F5F5F5F5F5F5F5F5F5F5F5F5F5F5F5F5F5F5F5F5F5F5F5F5F5F5F5F5F5F5F5F5F5F5F5F5F5F5F5F5F5F5F5F5F5F5F5F5F5F5
310
F5F5F5F5F5F5F5F5F5F5F5F5F5F5F5F5F5F5F5F5F5F5F5F5F5F5F5F5E2E2E2E2E2E2ECE2E2E2E2E2E2E2E2E2ECECECECECECE2ECECECECECDCECECECECECE2ECECECECECECE2E2E2E2E2E2E2E2ECE2E2E2E2E2E2E2F5F5F5F5F5F5F5F5F5F5F5F5F5F5F5F5F5F5F5F5F5E2E2F5F5F5F5F5F5F5F5F5F5F5F5F5F5F5F5F5F5F5
310
F5F5E2F5F5F5F5F5F5F5F5F5F5F5F5F5F5F5F5F5F5F5F5F5F5F5F5F5F5F5F5F5F5F5F5F5F5F5F5F5F5F5F5F5F5F5F5F5F5F5F5F5F5F5F5F5F5F5F5F5F5F5F5F5F5F5F5F5F5F5F5F5F5F5F5F5F5F5F5F5F5E2F5F5F5F5F5F5F5F5F5F5F5F5F5F5F5ECF5F5F5F5F5F5F5F5F5F5F5DCF5F5F5F5F5F5F5F5F5F5ECF5F5F5F5F5F5
310
F5F5F5F5F5F5F5F5F5E2E2F5F5F5F5F5F5F5F5F5F5F5F5F5F5F5F5F5F5F5F5F5E2E2F5F5F5F5E2F5F5F5F5F5F5F5F5F5F5F5F5F5F5F5F5E2F5F5F5F5F5F5F5F5F5F5F5F5F5F5F5F5F5F5F5F5F5F5F5F5F5F5F5F5F5F5F5F5F5F5F5F5F5F5F5F5F5F5F5F5F5F5F5F5F5F5F5F5F5F5F5F5F5F5F5F5F5F5F5F5F5F5F5F5F5F5F5
310
F5F5F5F5F5F5F5E2F5F5F5F5F5F5F5F5F5F5F5F5F5F5F5ECECECECECECECECECECECECECECECECECECECECECECECECF5F5F5F5F5F5F5F5F5F5F5F5F5F5F5E2E2F5F5F5F5F5F5F5F5F5F5F5F5F5F5F5F5E2F5F5F5F5E2E2F5F5F5F5E2F5F5F5F5F5F5F5F5F5F5F5F5F5F5F5F5E2F5F5F5F5F5F5F5F5F5F5F5F5F5F5F5F5F5F5
310
F5F5F5F5F5F5F5F5F5F5F5F5F5F5F5F5F5F5F5F5F5F5F5F5F5F5F5F5F5F5F5F5F5F5F5F5F5F5F5F5F5F5F5F5F5F5F5F5F5F5F5F5F5F5F5F5F5F5F5F5F5E2F5F5F5F5F5F5F5F5F5F5F5F5F5F5F5F5F5F5F5ECF5F5F5F5F5F5DCF5F5F5F5F5ECF5F5F5F5F5F5F5F5F5F5F5F5F5F5F5F5F5F5F5F5E2E2F5F5F5F5F5F5F5F5F5F5
310
F5F5F5F5F5F5E2F5F5F5F5E2E2F5F5F5F5E2F5F5F5F5F5F5F5F5F5F5F5F5F5F5F5F5E2F5F5F5F5F5F5F5F5F5F5F5F5F5F5F5F5F5F5F5F5F5F5F5F5F5F5F5F5F5F5F5F5F5F5F5F5F5F5F5F5F5F5F5F5F5F5F5F5F5F5F5F5F5F5F5F5F5F5F5F5F5F5F5F5F5F5F5F5F5F5F5F5F5F5F5F5F5F5F5F5E2F5F5F5F5F5F5F5F5F5F5F5
310
F5F5F5F5F5ECECECECECECF5ECECECECECF5ECECECECECF5F5F5F5F5F5F5F5F5F5F5F5F5F5F5F5F5E2F5E2F5F5F5F5F5F5F5F5F5F5F5F5F5F5F5F5E2F5F5F5F5E2E2F5F5F5F5E2F5F5F5F5F5F5F5F5F5F5F5F5F5F5F5F5E2F5F5F5F5F5F5F5F5F5F5F5F5F5F5F5F5F5F5F5F5F5F5F5F5F5F5F5F5F5F5F5F5F5F5F5F5F5F5F5
310
F5F5F5F5F5F5F5F5F5F5F5F5F5F5F5F5F5F5F5F5F5F5F5F5F5F5F5F5F5F5F5F5F5F5F5F5F5F5F5F5F5F5E2E2F5F5F5F5F5F5F5F5F5F5F5F5F5F5ECF5F5F5F5F5F5F5F5DCF5F5F5F5F5F5F5ECF5F5F5F5F5F5F5F5F5F5F5F5F5F5F5E2E2F5F5E2F5F5F5F5F5F5F5F5F5F5F5F5F5F5F5F5E2F5F5F5F5E2E2F5F5F5F5E2F5F5F5
310
F5F5F5F5F5F5F5F5F5F5F5F5F5E2F5F5F5F5F5F5F5F5F5F5F5F5F5F5F5F5F5F5F5F5F5F5F5F5F5F5F5F5F5F5F5F5F5F5F5F5F5F5F5F5F5F5F5F5F5F5F5F5F5F5F5F5F5F5F5F5F5F5F5F5F5F5F5F5F5F5F5F5F5F5F5F5F5F5F5F5F5F5F5F5F5F5F5E2F5F5F5F5F5F5F5F5F5F5F5F5F5ECF5F5F5F5F5F5F5F5DCF5F5F5F5F5F5
310
F5ECF5F5F5F5F5F5F5F5F5F5F5F5F5E2E2F5F5F5F5E2F5F5F5F5F5F5F5F5F5F5F5F5F5F5F5F5E2F5F5F5F5E2E2F5F5F5F5E2F5F5F5F5F5F5F5F5F5F5F5F5F5F5F5F5E2F5F5F5F5F5F5F5F5F5F5F5F5F5F5F5F5F5F5F5F5F5F5F5F5F5F5F5F5F5F5F5F5F5F5F5F5F5F5F5F5F5F5F5F5F5F5F5F5F5F5F5F5F5F5F5F5F5F5F5F5
310
F5F5F5F5F5F5F5F5F5F5F5F5F5F5F5F5F5F5F5F5F5F5F5F5E2E2F5F5F5F5F5F5F5F5F5F5F5ECF5F5F5F5F5F5F5F5DCF5F5F5F5F5F5F5ECF5F5F5F5F5F5F5F5F5F5F5F5E2F5F5F5F5F5F5E2F5F5F5F5F5F5F5F5F5F5F5F5F5F5F5F5E2F5F5F5F5E2E2F5F5F5F5E2F5F5F5F5F5F5F5F5F5F5F5F5F5F5F5F5E2F5F5F5F5F5F5F5
310
F5F5F5F5F5F5F5F5F5F5F5F5F5F5F5F5F5F5F5F5F5F5F5F5F5F5F5F5F5F5F5F5F5F5F5F5F5F5F5F5F5F5F5F5F5F5F5F5F5F5F5F5F5F5F5F5F5F5F5F5F5F5F5F5F5F5F5F5F5F5F5F5F5F5F5F5F5F5F5E2F5F5F5F5F5F5F5F5F5F5ECF5F5F5F5F5F5F5F5DCF5F5F5F5F5F5F5ECF5F5F5F5F5F5F5F5F5F5E2E2F5F5F5F5F5F5F5
310
E2F5F5F5F5F5F5F5F5F5F5F5F5F5F5F5F5E2F5F5F5F5E2E2F5F5F5F5E2F5F5F5F5F5F5F5F5F5F5F5F5F5F5F5F5E2F5F5F5F5F5F5F5F5F5F5F5F5F5F5F5F5F5F5F5F5F5F5F5F5F5F5F5F5F5F5F5F5F5F5F5F5F5F5F5F5F5F5F5F5F5F5F5F5F5F5F5F5F5F5F5F5F5F5F5F5F5F5F5F5F5F5F5F5F5F5F5F5F5F5F5F5F5F5F5F5F5
310
F5F5F5F5F5F5E2E2F5F5F5F5F5F5F5F5F5ECECECECECF5ECECECECECF5ECECECECECF5F5F5F5F5F5F5F5E2E2F5F5F5F5F5F5F5F5F5E2F5F5F5F5F5F5F5F5F5F5F5F5F5F5F5F5E2F5F5F5F5E2E2F5F5F5F5E2F5F5F5F5F5F5F5F5F5F5F5F5F5F5F5F5E2F5F5F5F5F5F5F5F5F5F5F5F5F5F5F5F5F5F5F5F5F5F5F5F5F5F5F5F5
310
F5F5F5F5F5F5F5F5F5F5F5F5F5F5F5F5F5F5F5F5F5F5F5F5F5F5F5F5F5F5F5F5F5F5F5F5F5F5F5F5F5F5F5F5F5F5F5F5F5F5F5F5F5F5F5F5F5F5F5F5F5E2E2F5F5F5F5F5F5F5ECF5F5F5F5F5F5F5DCF5F5F5F5F5F5F5ECF5F5F5F5F5F5F5E2F5F5F5F5F5F5F5F5F5F5F5E2F5F5F5F5F5F5F5F5F5F5F5F5F5F5F5F5E2F5F5F5
310
F5E2E2F5F5F5F5E2F5F5F5F5F5F5F5F5F5F5F5F5F5F5F5F5E2F5F5F5F5F5F5F5F5F5F5F5F5F5F5F5F5F5F5F5F5F5F5F5F5F5F5F5F5F5F5F5F5F5F5F5F5F5F5F5F5F5F5F5F5F5F5F5F5F5F5F5F5F5F5F5F5F5F5F5F5F5F5F5F5F5F5F5F5F5F5F5F5F5F5F5F5F5F5F5F5F5F5F5F5F5F5F5F5F5F5E2F5F5F5F5F5F5F5ECF5F5F5
310
F5F5F5F5DCF5F5F5F5F5F5F5ECF5F5F5F5F5F5F5E2F5F5F5F5F5F5F5F5F5F5F5E2F5F5F5F5F5F5F5F5F5F5F5F5F5F5F5F5E2F5F5F5F5E2E2F5F5F5F5E2F5F5F5F5F5F5F5F5F5F5F5F5F5F5F5F5E2F5F5F5F5F5F5F5F5F5F5F5F5F5F5F5F5F5F5F5F5F5F5F5F5F5F5F5F5F5F5F5F5F5F5F5F5F5F5F5F5F5F5F5F5F5F5F5F5F5
310
F5F5F5F5F5F5F5F5F5F5F5F5F5F5F5F5F5F5F5F5F5F5F5F5F5F5F5F5F5F5F5F5F5F5F5F5F5F5F5F5F5E2F5F5F5F5F5F5F5ECF5F5F5F5F5F5F5DCF5F5F5F5F5F5F5ECF5F5F5F5F5F5F5E2F5F5F5F5F5F5F5F5F5F5F5E2F5F5F5F5F5F5F5F5F5F5F5F5F5F5F5F5E2F5F5F5F5E2E2F5F5F5F5E2F5F5F5F5F5F5F5F5F5F5F5F5F5
310
F5F5F5E2F5F5F5F5F5F5F5F5F5F5F5F5F5F5F5F5F5F5F5F5F5F5F5F5F5F5F5F5F5F5F5F5F5F5F5F5F5F5F5F5F5F5F5F5F5F5F5F5F5F5F5F5F5F5F5F5F5F5F5F5F5F5F5F5F5F5F5F5F5F5F5F5F5F5F5F5F5F5F5F5F5F5F5F5F5F5F5F5F5F5E2F5F5F5F5F5F5F5ECF5F5F5F5E2E2E2E2E2E2E2F5F5F5F5ECF5F5F5F5F5F5F5E2
310
F5F5F5F5F5F5F5F5F5F5F5E2F5F5F5F5F5F5F5F5F5F5F5F5F5F5F5F5E2F5F5F5F5E2E2F5F5F5F5E2F5F5F5F5F5F5F5F5F5F5F5F5F5F5F5F5E2F5F5F5F5F5F5F5F5F5F5F5F5F5F5F5F5F5F5F5F5F5F5F5F5F5F5F5F5F5F5F5F5F5F5F5F5F5F5F5F5F5F5F5F5F5F5F5F5F5F5F5F5F5F5F5F5F5F5F5F5F5F5F5F5F5F5F5F5F5F5
310
F5F5F5F5F5F5F5F5F5F5F5F5F5F5F5F5F5F5F5F5E2F5F5F5F5F5F5F5ECECECECECECF5F5DCF5F5ECECECECECECF5F5F5F5F5F5F5E2F5F5F5F5F5F5F5F5F5F5F5E2F5F5F5F5F5F5F5F5F5F5F5F5F5F5F5F5E2F5F5F5F5E2E2F5F5F5F5E2F5F5F5F5F5F5F5F5F5F5F5F5F5F5F5F5E2F5F5F5F5F5F5F5F5F5F5F5F5F5F5F5F5F5
310
F5F5F5F5F5F5F5F5F5F5F5F5F5F5F5F5F5F5F5F5F5F5F5F5F5F5F5F5F5F5F5F5F5F5F5F5F5F5F5F5F5F5F5F5F5F5F5F5F5F5F5F5F5F5F5F5F5F5F5F5F5F5F5F5F5F5F5F5F5F5F5F5F5E2F5F5F5F5F5F5F5ECF5F5F5F5E2F5F5DCF5F5E2F5F5F5F5ECF5F5F5F5F5F5F5E2F5F5F5F5F5F5F5F5F5F5F5E2F5F5F5F5F5F5F5F5F5
310
F5F5F5F5F5F5F5E2F5F5F5F5E2E2F5F5F5F5E2F5F5F5F5F5F5F5F5F5F5F5F5F5F5F5F5E2F5F5F5F5F5F5F5F5F5F5F5F5F5F5F5F5F5F5F5F5F5F5F5F5F5F5F5F5F5F5F5F5F5F5F5F5F5F5F5F5F5F5F5F5F5F5F5F5F5F5F5F5F5F5F5F5F5F5F5F5F5F5F5F5F5F5F5F5F5F5F5F5F5F5F5F5F5F5F5F5F5F5F5F5F5F5F5F5F5F5E2
310
E2E2E2E2E2E2E2E2E2E2E2E2ECF5F5DCF5F5E2E2E2E2E2E2E2E2E2E2E2E2E2E2F5F5F5F5F5F5F5F5F5F5F5E2F5F5F5F5F5F5F5F5F5F5F5F5F5F5F5F5E2F5F5F5F5E2E2F5F5F5F5E2F5F5F5F5F5F5F5F5F5F5F5F5F5F5F5F5E2F5F5F5F5F5F5F5F5F5F5F5F5F5F5F5F5F5F5F5F5F5F5F5F5F5F5F5F5F5F5F5F5F5F5F5F5F5F5
310
F5F5F5F5F5F5F5F5F5F5F5F5F5F5F5F5F5F5F5F5F5F5F5F5F5F5F5F5F5F5F5F5F5F5F5F5F5F5F5F5F5F5F5F5F5F5F5F5F5F5F5F5F5F5F5F5F5F5F5F5F5F5F5F5F5F5F5F5DCF5F5F5F5F5F5F5F5F5F5F5F5F5F5F5F5F5F5F5F5F5F5F5F5F5F5F5E2F5F5F5F5F5F5F5F5F5F5F5F5F5F5F5F5E2F5F5F5F5E2E2F5F5F5F5F5F5F5
310
F5F5F5F5F5F5F5F5F5F5F5F5F5F5E2F5F5F5F5F5F5F5F5F5F5F5F5F5F5F5F5F5F5F5F5F5F5F5F5F5F5F5F5F5F5F5F5F5F5F5F5F5F5F5F5F5F5F5F5F5F5F5F5F5F5F5F5F5F5F5F5F5F5F5F5F5F5F5F5F5F5F5F5F5F5F5F5F5F5F5F5F5F5F5F5F5F5F5F5F5F5F5F5F5F5F5F5F5F5F5F5F5F5F5F5F5F5F5F5F5F5F5F5F5F5F5F5
310
F5F5F5F5F5F5F5F5F5F5F5F5F5F5F5F5F5F5F5F5F5F5E2F5F5F5F5F5F5F5F5F5F5F5F5F5F5F5F5F5F5F5F5F5E2E2F5F5F5F5F5F5F5F5F5F5F5F5F5F5F5F5F5F5F5F5F5E2F5F5F5F5F5F5F5F5F5F5F5F5F5F5F5F5F5F5F5F5F5F5F5F5F5F5F5F5F5F5F5F5F5F5F5F5F5F5F5F5F5F5F5F5F5F5F5F5F5F5F5F5F5F5F5F5F5F5F5
310
F5F5F5F5F5F5F5F5F5F5F5F5F5F5F5F5F5F5F5F5F5F5F5F5F5F5F5F5F5F5F5F5F5F5F5F5F5F5F5F5F5F5F5F5F5F5F5F5F5F5F5F5F5F5F5F5F5F5F5F5F5F5F5F5F5F5F5F5F5F5F5F5F5F5F5E2F5F5F5F5F5F5F5F5F5F5F5F5F5F5F5F5F5F5F5F5F5E2E2F5F5F5F5F5F5F5F5F5F5F5F5F5F5F5F5F5F5F5F5F5E2F5F5F5F5F5F5
310
F5F5F5F5F5F5F5F5F5F5F5F5F5F5F5F5F5F5F5F5F5F5F5F5F5F5F5F5F5F5F5F5F5F5F5F5F5F5F5F5F5F5F5F5F5F5F5F5F5F5F5F5F5F5F5F5F5F5F5F5F5F5F5F5F5F5F5F5F5F5F5F5F5F5F5F5F5F5F5F5F5F5F5F5F5F5F5F5F5F5F5F5F5F5F5F5F5F5F5F5F5F5F5F5F5F5F5F5F5F5F5F5F5F5F5F5F5F5F5F5F5F5F5F5F5F5F5
310
F5E2F5F5F5F5F5F5F5F5F5F5F5F5F5F5F5F5F5F5F5F5F5E2E2F5F5F5F5F5F5F5F5F5F5F5F5F5F5F5F5F5F5F5F5F5E2F5F5F5F5F5F5F5F5F5F5F5F5F5F5F5F5F5F5F5F5F5F5F5F5F5F5F5F5F5F5F5F5F5F5F5F5F5F5F5F5F5F5F5F5F5F5F5F5F5F5F5F5F5F5F5F5F5F5F5F5F5F5F5F5F5F5F5F5F5F5F5F5F5F5F5F5F5F5F5F5
310
F5F5F5F5F5F5F5F5F5F5F5F5F5F5F5F5F5F5F5F5F5F5F5F5F5F5F5F5F5F5F5F5F5F5F5F5F5F5F5F5F5F5F5F5F5F5F5F5F5F5F5F5F5F5E2F5F5F5F5F5F5F5F5F5F5F5F5F5F5F5F5F5F5F5F5F5E2E2F5F5F5F5F5F5F5F5F5F5F5F5F5F5F5F5F5F5F5F5F5E2F5F5F5F5F5F5F5F5F5F5F5F5F5F5F5F5F5F5F5F5F5F5F5F5F5F5F5
310
F5F5F5F5F5F5F5F5F5F5F5F5F5F5F5F5F5F5F5F5F5F5F5F5F5F5F5F5F5F5F5F5F5F5F5F5F5F5F5F5F5F5F5F5F5F5F5F5F5F5F5F5F5F5F5F5F5F5F5F5F5F5F5F5F5F5F5F5F5F5F5F5F5F5F5F5F5F5F5F5F5F5F5F5F5F5F5F5F5F5F5F5F5F5F5F5F5F5F5F5F5F5F5F5F5F5F5E2F5F5F5F5F5F5F5F5F5F5F5F5F5F5F5F5F5F5F5
310
F5F5E2E2F5F5F5F5F5F5F5F5F5F5F5F5F5F5F5F5F5F5F5F5F5E2F5F5F5F5F5F5F5F5F5F5F5F5F5F5F5F5F5F5F5F5F5F5F5F5F5F5F5F5F5F5F5F5F5F5F5F5F5F5F5F5F5F5F5F5F5F5F5F5F5F5F5F5F5F5F5F5F5F5F5F5F5F5F5F5F5F5F5F5F5F5F5F5F5F5F5F5F5F5F5F5F5F5F5F5F5F5F5F5F5F5F5F5F5F5F5F5F5F5F5F5F5
310
F5F5F5F5F5F5F5F5F5F5F5F5F5F5F5F5F5F5F5F5F5F5F5F5F5F5F5F5F5F5F5F5F5E2F5F5F5F5F5F5F5F5F5F5F5F5F5F5F5F5F5F5F5F5F5E2E2F5F5F5F5F5F5F5F5F5F5F5F5F5F5F5F5F5F5F5F5F5E2F5F5F5F5F5F5F5F5F5F5F5F5F5F5F5F5F5F5F5F5F5F5F5F5F5F5F5F5F5F5F5F5F5F5F5F5F5F5F5F5F5F5F5F5F5F5F5F5
310
F5F5F5F5F5F5F5F5F5F5F5F5F5F5F5F5F5F5F5F5F5F5F5F5F5F5F5F5F5F5F5F5F5F5F5F5F5F5F5F5F5F5F5F5F5F5F5F5F5F5F5F5F5F5F5F5F5F5F5F5F5F5F5F5F5F5F5F5F5F5F5F5F5F5F5F5F5F5F5F5F5F5F5F5F5F5E2F5F5F5F5F5F5F5F5F5F5F5F5F5F5F5F5F5F5F5F5F5E2E2F5F5F5F5F5F5F5F5F5F5F5F5F5F5F5F5F5
310
F5F5F5F5E2F5F5F5F5F5F5F5F5F5F5F5F5F5F5F5F5F5F5F5F5F5F5F5F5F5F5F5F5F5F5F5F5F5F5F5F5F5F5F5F5F5F5F5F5F5F5F5F5F5F5F5F5F5F5F5F5F5F5F5F5F5F5F5F5F5F5F5F5F5F5F5F5F5F5F5F5F5F5F5F5F5F5F5F5F5F5F5F5F5F5F5F5F5F5F5F5F5F5F5F5F5F5F5F5F5F5F5F5F5F5F5F5F5F5F5F5F5F5F5F5F5F5
310
F5F5F5F5F5F5F5F5F5F5F5F5E2F5F5F5F5F5F5F5F5F5F5F5F5F5F5F5F5F5F5F5F5F5E2E2F5F5F5F5F5F5F5F5F5F5F5F5F5F5F5F5F5F5F5F5F5E2F5F5F5F5F5F5F5F5F5F5F5F5F5F5F5F5F5F5F5F5F5F5F5F5F5F5F5F5F5F5F5F5F5F5F5F5F5F5F5F5F5F5F5F5F5F5F5F5F5F5F5F5F5F5F5F5F5F5F5F5F5F5F5F5F5F5F5F5F5
310
F5F5F5F5F5F5F5F5F5F5F5F5F5F5F5F5F5F5F5F5F5F5F5F5F5F5F5F5F5F5F5F5F5F5F5F5F5F5F5F5F5F5F5F5F5F5F5F5F5F5F5F5F5F5F5F5F5F5F5F5F5F5F5F5F5E2F5F5F5F5F5F5F5F5F5F5F5F5F5F5F5F5F5F5F5F5F5E2E2F5F5F5F5F5F5F5F5F5F5F5F5F5F5F5F5F5F5F5F5F5E2F5F5F5F5F5F5F5F5F5F5F5F5F5F5F5F5
310
F5F5F5F5F5F5F5F5F5F5F5F5F5F5F5F5F5F5F5F5F5F5F5F5F5F5F5F5F5F5F5F5F5F5F5F5F5F5F5F5F5F5F5F5F5F5F5F5F5F5F5F5F5F5F5F5F5F5F5F5F5F5F5F5F5F5F5F5F5F5F5F5F5F5F5F5F5F5F5F5F5F5F5F5F5F5F5F5F5F5F5F5F5F5F5F5F5F5F5F5F5F5F5F5F5F5F5F5F5F5F5F5F5F5F5F5F5F5E2F5F5F5F5F5F5F5F5
310
F5F5F5F5F5F5F5F5F5F5F5F5F5E2E2F5F5F5F5E2F5F5F5F5F5F5F5F5F5F5F5F5F5F5F5F5E2F5F5F5F5F5F5F5F5F5F5F5F5F5F5F5F5F5F5F5F5F5F5F5F5F5F5F5F5F5F5F5F5F5F5F5F5F5F5F5F5F5F5F5F5F5F5F5F5F5F5F5F5F5F5F5F5F5F5F5F5F5F5F5F5F5F5F5F5F5F5F5F5F5F5F5F5F5F5F5F5F5F5F5F5F5F5F5F5F5F5
310
F5F5F5F5F5F5F5F5F5F5F5F5F5F5F5F5F5F5F5F5F5F5F5F5F5F5F5F5F5F5F5F5F5F5F5F5F5F5F5F5F5F5F5F5E2F5F5F5F5F5F5F5F5F5F5F5F5F5F5F5F5E2F5F5F5F5E2E2F5F5F5F5E2F5F5F5F5F5F5F5F5F5F5F5F5F5F5F5F5E2F5F5F5F5F5F5F5F5F5F5F5F5F5F5F5F5F5F5F5F5F5F5F5F5F5F5F5F5F5F5F5F5F5F5F5F5F5
310
F5F5F5F5F5F5F5F5F5F5F5F5F5F5F5F5F5F5F5F5F5F5F5F5F5F5F5F5F5F5F5F5F5F5F5F5F5F5F5F5F5F5F5F5F5F5F5F5F5F5F5F5F5F5F5F5F5F5F5F5F5F5F5F5F5F5F5F5F5F5F5F5F5F5F5F5F5F5F5F5F5F5F5F5F5F5F5F5F5F5F5F5F5F5F5F5F5E2F5F5F5F5F5F5F5F5F5F5F5F5F5F5F5F5E2F5F5F5F5E2E2F5F5F5F5E2F5
310
F5F5F5F5F5F5F5F5F5F5F5F5F5F5F5E2F5F5F5F5F5F5F5F5F5F5F5F5F5F5F5F5F5F5F5F5F5F5F5F5F5F5F5F5F5F5F5F5F5F5F5F5F5F5F5F5F5F5F5F5F5F5F5F5F5F5F5F5F5F5F5F5F5F5F5F5F5F5F5F5F5F5F5F5F5F5F5F5F5F5F5F5F5F5F5F5F5F5F5F5F5F5F5F5F5F5F5F5F5F5F5F5F5F5F5F5F5F5F5F5F5F5F5F5F5F5F5
310
F5F5F5F5F5F5F5F5F5F5F5F5F5F5F5F5F5F5F5F5F5F5F5E2F5F5F5F5F5F5F5F5F5F5F5F5F5F5F5F5E2F5F5F5F5E2E2F5F5F5F5E2F5F5F5F5F5F5F5F5F5F5F5F5F5F5F5F5E2F5F5F5F5F5F5F5F5F5F5F5F5F5F5F5F5F5F5F5F5F5F5F5F5F5F5F5F5F5F5F5F5F5F5F5F5F5F5F5F5F5F5F5F5F5F5F5F5F5F5F5F5F5F5F5F5F5F5
310
F5F5F5F5F5F5F5F5F5F5F5F5F5F5F5F5F5F5F5F5F5F5F5F5F5F5F5F5F5F5F5F5F5F5F5F5F5F5F5F5F5F5F5F5F5F5F5F5F5F5F5F5F5F5F5F5F5F5F5F5F5F5F5F5F5F5F5F5F5F5F5F5F5F5F5F5E2F5F5F5F5F5F5F5F5F5F5F5F5F5F5F5F5E2F5F5F5F5E2E2F5F5F5F5E2F5F5F5F5F5F5F5F5F5F5F5F5F5F5F5F5E2F5F5F5F5F5
310
F5F5F5F5F5F5F5F5F5F5F5F5F5F5F5F5F5F5F5F5F5F5F5F5F5F5F5F5F5F5F5F5F5F5F5F5F5F5F5F5F5F5F5F5F5F5F5F5F5F5F5F5F5F5F5F5F5F5F5F5F5F5F5F5F5F5F5F5F5F5F5F5F5F5F5F5F5F5F5F5F5F5F5F5F5F5F5F5F5F5F5F5F5F5F5F5F5F5F5F5F5F5F5F5F5F5F5F5F5F5F5F5F5F5F5F5F5F5F5F5F5F5F5F5F5F5F5
310
F5F5E2F5F5F5F5F5F5F5F5F5F5F5F5F5F5F5F5E2F5F5F5F5E2E2F5F5F5F5E2F5F5F5F5F5F5F5F5F5F5F5F5F5F5F5F5E2F5F5F5F5F5F5F5F5F5F5F5F5F5F5F5F5F5F5F5F5F5F5F5F5F5F5F5F5F5F5F5F5F5F5F5F5F5F5F5F5F5F5F5F5F5F5F5F5F5F5F5F5F5F5F5F5F5F5F5F5F5F5F5F5F5F5F5F5F5F5F5F5F5F5F5F5F5F5F5
310
F5F5F5F5F5F5F5F5F5F5F5F5F5F5F5F5F5F5F5F5F5F5F5F5F5F5F5F5F5F5F5F5F5F5F5F5F5F5F5F5F5F5F5F5F5F5F5F5F5F5F5F5F5F5F5E2F5F5F5F5F5F5F5F5F5F5F5F5F5F5F5F5E2F5F5F5F5E2E2F5F5F5F5E2F5F5F5F5F5F5F5F5F5F5F5F5F5F5F5F5E2F5F5F5F5F5F5F5F5F5F5F5F5F5F5F5F5F5F5F5F5F5F5F5F5F5F5
310
F5F5F5F5F5F5F5F5F5F5F5F5F5F5F5F5F5F5F5F5F5F5F5F5F5F5F5F5F5F5F5F5F5F5F5F5F5F5F5F5F5F5F5F5F5F5F5F5F5F5F5F5F5F5F5F5F5F5F5F5F5F5F5F5F5F5F5F5F5F5F5F5F5F5F5F5F5F5F5F5F5F5F5F5F5F5F5F5F5F5F5F5F5F5F5F5F5F5F5F5F5F5F5F5F5F5F5F5E2F5F5F5F5F5F5F5F5F5F5F5F5F5F5F5F5E2F5
310
F5F5F5E2E2F5F5F5F5E2F5F5F5F5F5F5F5F5F5F5F5F5F5F5F5F5E2F5F5F5F5F5F5F5F5F5F5F5F5F5F5F5F5F5F5F5F5F5F5F5F5F5F5F5F5F5F5F5F5F5F5F5F5F5F5F5F5F5F5F5F5F5F5F5F5F5F5F5F5F5F5F5F5F5F5F5F5F5F5F5F5F5F5F5F5F5F5F5F5F5F5F5F5F5F5F5F5F5F5F5F5F5F5F5F5F5F5F5F5F5F5F5F5F5F5F5F5
310
F5F5F5F5F5F5F5F5F5F5F5F5F5F5F5F5F5F5F5F5F5F5F5F5F5F5F5F5F5F5F5F5F5F5E2F5F5F5F5F5F5F5F5F5F5F5F5F5F5F5F5E2F5F5F5F5E2E2F5F5F5F5E2F5F5F5F5F5F5F5F5F5F5F5F5F5F5F5F5E2F5F5F5F5F5F5F5F5F5F5F5F5F5F5F5F5F5F5F5F5F5F5F5F5F5F5F5F5F5F5F5F5F5F5F5F5F5F5F5F5F5F5F5F5F5F5F5
310
F5F5F5F5F5F5F5F5F5F5F5F5F5F5F5F5F5F5F5F5F5F5F5F5F5F5F5F5F5F5F5F5F5F5F5F5F5F5F5F5F5F5F5F5F5F5F5F5F5F5F5F5F5F5F5F5F5F5F5F5F5F5F5F5F5F5F5F5F5F5F5F5F5F5F5F5F5F5F5F5F5F5F5F5F5F5F5E2F5F5F5F5F5F5F5F5F5F5F5F5F5F5F5F5E2F5F5F5F5E2E2F5F5F5F5E2F5F5F5F5F5F5F5F5F5F5F5
310
F5F5F5F5F5E2F5F5F5F5F5F5F5F5F5F5F5F5F5F5F5F5F5F5F5F5F5F5F5F5F5F5F5F5F5F5F5F5F5F5F5F5F5F5F5F5F5F5F5F5F5F5F5F5F5F5F5F5F5F5F5F5F5F5F5F5F5F5F5F5F5F5F5F5F5F5F5F5F5F5F5F5F5F5F5F5F5F5F5F5F5F5F5F5F5F5F5F5F5F5F5F5F5F5F5F5F5F5F5F5F5F5F5F5F5F5F5F5F5F5F5F5F5F5F5F5F5
310
F5F5F5F5F5F5F5F5F5F5F5F5F5E2F5F5F5F5F5F5F5F5F5F5F5F5F5F5F5F5E2F5F5F5F5E2E2F5F5F5F5E2F5F5F5F5F5F5F5F5F5F5F5F5F5F5F5F5E2F5F5F5F5F5F5F5F5F5F5F5F5F5F5F5F5F5F5F5F5F5F5F5F5F5F5F5F5F5F5F5F5F5F5F5F5F5F5F5F5F5F5F5F5F5F5F5F5F5F5F5F5F5F5F5F5F5F5F5F5F5F5F5F5F5F5F5F5
310
F5F5F5F5F5F5F5F5F5F5F5F5F5F5F5F5F5F5F5F5F5F5F5F5F5F5F5F5F5F5F5F5F5F5F5F5F5F5F5F5F5F5F5F5F5F5F5F5F5F5F5F5F5F5F5F5F5F5F5F5F5F5F5F5F5F5E2F5F5F5F5F5F5F5F5F5F5F5F5F5F5F5F5E2F5F5F5F5E2E2F5F5F5F5E2F5F5F5F5F5F5F5F5F5F5F5F5F5F5F5F5E2F5F5F5F5F5F5F5F5F5F5F5F5F5F5F5
310
F5F5F5F5F5F5F5F5F5F5F5F5F5F5F5F5F5F5F5F5F5F5F5F5F5F5F5F5F5F5F5F5F5F5F5F5F5F5F5F5F5F5F5F5F5F5F5F5F5F5F5F5F5F5F5F5F5F5F5F5F5F5F5F5F5F5F5F5F5F5F5F5F5F5F5F5F5F5F5F5F5F5F5F5F5F5F5F5F5F5F5F5F5F5F5F5F5F5F5F5F5F5F5F5F5F5F5F5F5F5F5F5F5F5F5F5F5F5F5E2F5F5F5F5F5F5F5
310
F5F5F5F5F5F5F5F5F5E2F5F5F5F5E2E2F5F5F5F5E2F5F5F5F5F5F5F5F5F5F5F5F5F5F5F5F5E2F5F5F5F5F5F5F5F5F5F5F5F5F5F5F5F5F5F5F5F5F5F5F5F5F5F5F5F5F5F5F5F5F5F5F5F5F5F5F5F5F5F5F5F5F5F5F5F5F5F5F5F5F5F5F5F5F5F5F5F5F5F5F5F5F5F5F5F5F5F5F5F5F5F5F5F5F5F5F5F5F5F5F5F5F5F5F5F5F5
310
F5F5F5F5F5F5F5F5F5F5F5F5F5F5F5F5F5F5F5F5F5F5F5F5F5F5F5F5F5F5F5F5F5F5F5F5F5F5F5F5F5F5F5F5F5E2F5F5F5F5F5F5F5F5F5F5F5F5F5F5F5F5E2F5F5F5F5E2E2F5F5F5F5E2F5F5F5F5F5F5F5F5F5F5F5F5F5F5F5F5E2F5F5F5F5F5F5F5F5F5F5F5F5F5F5F5F5F5F5F5F5F5F5F5F5F5F5F5F5F5F5F5F5F5F5F5F5
310
F5F5F5F5F5F5F5F5F5F5F5F5F5F5F5F5F5F5F5F5F5F5F5F5F5F5F5F5F5F5F5F5F5F5F5F5F5F5F5F5F5F5F5F5F5F5F5F5F5F5F5F5F5F5F5F5F5F5F5F5F5F5F5F5F5F5F5F5F5F5F5F5F5F5F5F5F5F5F5F5F5F5F5F5F5F5F5F5F5F5F5F5F5F5F5F5F5F5E2F5F5F5F5F5F5F5F5F5F5F5F5F5F5F5F5E2F5F5F5F5E2E2F5F5F5F5E2
310
F5F5F5F5F5F5F5F5F5F5F5F5F5F5F5F5E2F5F5F5F5F5F5F5F5F5F5F5F5F5F5F5F5F5F5F5F5F5F5F5F5F5F5F5F5F5F5F5F5F5F5F5F5F5F5F5F5F5F5F5F5F5F5F5F5F5F5F5F5F5F5F5F5F5F5F5F5F5F5F5F5F5F5F5F5F5F5F5F5F5F5F5F5F5F5F5F5F5F5F5F5F5F5F5F5F5F5F5F5F5F5F5F5F5F5F5F5F5F5F5F5F5F5F5F5F5F5
310
F5F5F5F5F5F5F5F5F5F5F5F5F5F5F5F5F5F5F5F5F5F5F5F5E2F5F5F5F5F5F5F5F5F5F5F5F5F5F5F5F5E2F5F5F5F5E2E2F5F5F5F5E2F5F5F5F5F5F5F5F5F5F5F5F5F5F5F5F5E2F5F5F5F5F5F5F5F5F5F5F5F5F5F5F5F5F5F5F5F5F5F5F5F5F5F5F5F5F5F5F5F5F5F5F5F5F5F5F5F5F5F5F5F5F5F5F5F5F5F5F5F5F5F5F5F5F5
310
F5F5F5F5F5F5F5F5F5F5F5F5F5F5F5F5F5F5F5F5F5F5F5F5F5F5F5F5F5F5F5F5F5F5F5F5F5F5F5F5F5F5F5F5F5F5F5F5F5F5F5F5F5F5F5F5F5F5F5F5F5F5F5F5F5F5F5F5F5F5F5F5F5F5F5F5F5E2F5F5F5F5F5F5F5F5F5F5F5F5F5F5F5F5E2F5F5F5F5E2E2F5F5F5F5F5F5F5F5F5F5F5F5F5F5F5F5F5F5F5F5F5E2F5F5F5F5
310
F5F5F5F5F5F5F5F5F5F5F5F5F5F5F5F5F5F5F5F5F5F5F5F5F5F5F5F5F5F5F5F5F5F5F5F5F5F5F5F5F5F5F5F5F5F5F5F5F5F5F5F5F5F5F5F5F5F5F5F5F5F5F5F5F5F5F5F5F5F5F5F5F5F5F5F5F5F5F5F5F5F5F5F5F5F5F5F5F5F5F5F5F5F5F5F5F5F5F5F5F5F5F5F5F5F5F5F5F5F5F5F5F5F5F5F5F5F5F5F5F5F5F5F5F5F5F5
310
F5F5F5E2F5F5F5F5F5F5F5F5F5F5F5F5F5F5F5F5F5F5F5F5F5E2E2F5F5F5F5F5F5F5F5F5F5F5F5F5F5F5F5F5F5F5F5F5E2F5F5F5F5F5F5F5F5F5F5F5F5F5F5F5F5F5F5F5F5F5F5F5F5F5F5F5F5F5F5F5F5F5F5F5F5F5F5F5F5F5F5F5F5F5F5F5F5F5F5F5F5F5F5F5F5F5F5F5F5F5F5F5F5F5F5F5F5F5F5F5F5F5F5F5F5F5F5
310
F5F5F5F5F5F5F5F5F5F5F5F5F5F5F5F5F5F5F5F5F5F5F5F5F5F5F5F5F5F5F5F5F5F5F5F5F5F5F5F5F5F5F5F5F5F5F5F5F5F5F5F5F5F5F5F5E2F5F5F5F5F5F5F5F5F5F5F5F5F5F5F5F5F5F5F5F5F5E2E2F5F5F5F5F5F5F5F5F5F5F5F5F5F5F5F5F5F5F5F5F5E2F5F5F5F5F5F5F5F5F5F5F5F5F5F5F5F5F5F5F5F5F5F5F5F5F5
310
F5F5F5F5F5F5F5F5F5F5F5F5F5F5F5F5F5F5F5F5F5F5F5F5F5F5F5F5F5F5F5F5F5F5F5F5F5F5F5F5F5F5F5F5F5F5F5F5F5F5F5F5F5F5F5F5F5F5F5F5F5F5F5F5F5F5F5F5F5F5F5F5F5F5F5F5F5F5F5F5F5F5F5F5F5F5F5F5F5F5F5F5F5F5F5F5F5F5F5F5F5F5F5F5F5F5F5F5F5E2F5F5F5F5F5F5F5F5F5F5F5F5F5F5F5F5F5
310
F5F5F5F5E2E2F5F5F5F5F5F5F5F5F5F5F5F5F5F5F5F5F5F5F5F5F5E2F5F5F5F5F5F5F5F5F5F5F5F5F5F5F5F5F5F5F5F5F5F5F5F5F5F5F5F5F5F5F5F5F5F5F5F5F5F5F5F5F5F5F5F5F5F5F5F5F5F5F5F5F5F5F5F5F5F5F5F5F5F5F5F5F5F5F5F5F5F5F5F5F5F5F5F5F5F5F5F5F5F5F5F5F5F5F5F5F5F5F5F5F5F5F5F5F5F5F5
310
F5F5F5F5F5F5F5F5F5F5F5F5F5F5F5F5F5F5F5F5F5F5F5F5F5F5F5F5F5F5F5F5F5F5F5E2F5F5F5F5F5F5F5F5F5F5F5F5F5F5F5F5F5F5F5F5F5E2E2F5F5F5F5F5F5F5F5F5F5F5F5F5F5F5F5F5F5F5F5F5E2E2E2E2E2E2E2E2E2E2E2E2E2E2E2E2E2E2E2E2E2E2E2E2E2E2E2E2E2E2E2E2E2E2E2E2E2E2E2E2E2E2E2E2E2E2E2
310
E2E2E2E2E2E2E2E2E2E2E2E2E2E2E2E2E2E2E2E2E2E2E2E2E2E2E2E2E2E2E2E2E2E2E2E2E2E2E2E2E2E2E2E2E2E2E2E2E2E2E2E2E2E2E2E2E2E2E2E2E2E2E2E2E2E2E2E2E2E2E2E2E2E2E2E2E2E2E2E2E2E2E2E2E2E2E2E2E2F5F5F5F5F5F5F5F5F5F5F5F5F5F5F5F5F5F5F5F5F5E2E2F5F5F5F5F5F5F5F5F5F5F5F5F5F5F5
310
F5F5F5F5F5F5F5F5F5F5F5F5F5F5F5F5F5F5F5F5F5F5F5F5F5F5F5F5F5F5F5F5F5F5F5F5F5F5F5F5F5F5F5F5F5F5F5F5F5F5F5F5F5F5F5F5F5F5F5F5F5F5F5F5F5F5F5F5F5F5F5F5F5F5F5F5F5F5F5F5F5F5F5F5F5F5F5F5F5F5F5F5F5F5F5F5F5F5F5F5F5F5F5F5F5F5F5F5F5F5F5F5F5F5F5F5F5F5F5F5F5F5F5F5F5F5F5
310
F5F5F5F5F5F5F5F5F5F5F5F5F5F5F5F5F5F5F5F5F5F5F5F5F5F5F5F5F5F5F5F5F5F5F5F5E2E2F5F5F5F5F5F5F5F5F5F5F5F5F5F5F5F5F5F5F5F5F5F5F5F5F5F5F5F5F5F5F5F5F5F5F5F5F5F5F5F5F5F5F5F5F5F5F5F5F5F5F5F5F5F5F5F5F5F5F5F5F5F5F5F5F5F5F5F5F5F5F5F5F5F5F5F5F5F5F5F5F5F5F5F5F5F5F5F5F5
310
F5F5F5F5F5F5F5F5F5F5F5F5F5F5F5F5F5F5F5F5F5F5F5F5F5F5F5F5F5F5F5F5F5F5F5F5F5F5F5F5F5F5F5F5F5F5F5F5F5F5F5F5F5F5F5F5F5F5F5F5F5F5F5F5F5F5F5F5F5F5F5F5F5F5F5F5F5F5F5F5F5F5F5F5F5F5F5F5F5E2E2F5F5F5F5F5F5F5F5F5F5F5F5F5F5F5F5F5F5F5F5F5F5F5F5F5F5F5F5F5F5F5F5F5F5F5F5
310
F5F5F5F5F5F5F5F5F5F5F5F5F5F5F5F5F5F5F5F5F5F5F5F5F5F5F5F5F5F5F5F5F5F5F5F5F5F5F5F5F5F5F5F5F5F5F5F5F5F5F5F5F5F5F5F5F5F5F5F5F5F5F5F5F5F5F5F5F5F5F5F5F5F5F5F5F5F5F5F5F5F5F5F5F5F5F5F5F5F5F5F5F5F5F5F5F5F5F5F5F5F5F5F5F5F5F5F5F5F5F5F5F5F5F5F5F5F5F5F5F5F5F5F5F5F5F5
310
F5F5F5F5F5F5F5F5F5F5F5F5F5F5F5E2E2F5F5F5F5F5F5F5F5F5F5F5F5F5F5F5F5F5F5F5F5F5F5F5F5F5F5F5F5F5F5F5F5F5F5F5F5F5F5F5F5F5F5F5F5F5F5F5F5F5F5F5F5F5F5F5F5F5F5F5F5F5F5F5F5F5F5F5F5F5F5F5F5F5F5F5F5F5F5F5F5F5F5F5F5F5F5F5F5F5F5F5F5F5F5F5F5F5F5F5F5F5F5F5F5F5F5F5F5F5F5
310
F5F5F5F5F5F5F5F5F5F5F5F5F5F5F5F5F5F5F5F5F5F5F5F5F5F5F5F5F5F5F5F5F5F5F5F5F5F5F5F5F5F5F5F5F5F5F5F5F5F5F5F5F5F5F5F5F5F5F5F5F5F5F5F5F5F5F5F5E2E2F5F5F5F5E2F5F5F5F5F5F5F5F5F5F5F5F5F5F5F5F5F5F5F5F5F5F5F5F5F5F5F5F5F5F5F5F5F5F5F5F5F5F5F5F5F5F5F5F5F5F5F5F5F5F5F5F5
310
F5F5F5F5F5F5F5F5F5F5F5F5F5F5F5F5F5F5F5F5F5F5F5F5F5F5F5F5F5F5F5F5F5F5F5F5F5F5F5F5F5F5F5F5F5F5F5F5F5F5F5F5F5F5F5F5F5F5F5F5F5F5F5F5F5F5F5F5F5F5F5F5F5F5F5F5F5F5F5F5F5F5F5F5F5F5F5F5F5F5F5F5F5F5F5F5F5F5F5F5F5F5F5F5F5F5F5F5F5F5F5F5F5F5F5F5E2F5F5F5F5E2E2F5F5F5F5
310
E2F5F5F5F5F5F5F5F5F5F5F5F5F5F5F5F5F5F5F5F5F5F5F5F5F5F5F5F5F5F5F5F5F5F5F5F5F5F5F5F5F5F5F5F5F5F5F5F5F5F5F5F5F5F5F5F5F5F5F5F5F5F5F5F5F5F5F5F5F5F5F5F5F5F5F5F5F5F5F5F5F5F5F5F5F5F5F5F5F5F5F5F5F5F5F5F5F5F5F5F5F5F5F5F5F5F5F5F5F5F5F5F5F5F5F5F5F5F5F5F5F5F5F5F5F5F5
310
F5F5F5F5F5F5F5F5F5F5F5F5F5F5F5F5F5F5F5F5F5F5F5F5F5F5F5F5F5F5F5F5F5F5F5F5F5F5F5F5F5F5E2F5F5F5F5E2E2F5F5F5F5E2F5F5F5F5F5F5F5F5F5F5F5F5F5F5F5F5F5F5F5F5F5F5F5F5F5F5F5F5F5F5F5F5F5F5F5F5F5F5F5F5F5F5F5F5F5F5F5F5F5F5F5F5F5F5F5F5F5F5F5F5F5F5F5F5F5F5F5F5F5F5F5F5F5
310
F5F5F5F5F5F5F5F5F5F5F5F5F5F5F5F5F5F5F5F5F5F5F5F5F5F5F5F5F5F5F5F5F5F5F5F5F5F5F5F5F5F5F5F5F5F5F5F5F5F5F5F5F5F5F5F5F5F5F5F5F5F5F5F5F5F5F5F5F5F5F5F5F5F5F5F5F5F5F5F5F5F5F5F5F5F5F5F5F5F5F5F5F5F5F5E2F5F5F5F5E2E2F5F5F5F5E2F5F5F5F5F5F5F5F5F5F5F5F5F5F5F5F5F5F5F5F5
310
F5F5F5F5F5F5F5F5F5F5F5F5F5F5F5F5F5F5F5F5F5F5F5F5F5F5F5F5F5F5F5F5F5F5F5F5F5F5F5F5F5F5F5F5F5F5F5F5F5F5F5F5F5F5F5F5F5F5F5F5F5F5F5F5F5F5F5F5F5F5F5F5F5F5F5F5F5F5F5F5F5F5F5F5F5F5F5F5F5F5F5F5F5F5F5F5F5F5F5F5F5F5F5F5F5F5F5F5F5F5F5F5F5F5F5F5F5F5F5F5F5F5F5F5F5F5F5
310
F5F5F5F5F5F5F5F5F5F5F5F5F5F5F5F5F5F5F5F5F5E2F5F5F5F5E2E2F5F5F5F5E2F5F5F5F5F5F5F5F5F5F5F5F5F5F5F5F5F5F5F5F5F5F5F5F5F5F5F5F5F5F5F5F5F5F5F5F5F5F5F5F5F5F5F5F5F5F5F5F5F5F5F5F5F5F5F5F5F5F5F5F5F5F5F5F5F5F5F5F5F5F5F5F5F5F5F5F5F5F5F5F5F5F5F5F5F5F5F5F5F5F5F5F5F5F5
310
F5F5F5F5F5F5F5F5F5F5F5F5F5F5F5F5F5F5F5F5F5F5F5F5F5F5F5F5F5F5F5F5F5F5F5F5F5F5F5F5F5F5F5F5F5F5F5F5F5F5F5F5F5F5F5F5F5F5F5F5F5F5F5F5F5F5F5F5F5F5F5F5F5F5E2F5F5F5F5E2E2F5F5F5F5E2F5F5F5F5F5F5F5F5F5F5F5F5F5F5F5F5F5F5F5F5F5F5F5F5F5F5F5F5F5F5F5F5F5F5F5F5F5F5F5F5F5
310
F5F5F5F5F5F5F5F5F5F5F5F5F5F5F5F5F5F5F5F5F5F5F5F5F5F5F5F5F5F5F5F5F5F5F5F5F5F5F5F5F5F5F5F5F5F5F5F5F5F5F5F5F5F5F5F5F5F5F5F5F5F5F5F5F5F5F5F5F5F5F5F5F5F5F5F5F5F5F5F5F5F5F5F5F5F5F5F5F5F5F5F5F5F5F5F5F5F5F5F5F5F5F5F5F5F5F5F5F5F5F5F5F5F5F5F5F5F5F5F5F5F5F5F5F5F5F5
310
E2F5F5F5F5E2E2F5F5F5F5E2F5F5F5F5F5F5F5F5F5F5F5F5F5F5F5F5F5F5F5F5F5F5F5F5F5F5F5F5F5F5F5F5F5F5F5F5F5F5F5F5F5F5F5F5F5F5F5F5F5F5F5F5F5F5F5F5F5F5F5F5F5F5F5F5F5F5F5F5F5F5F5F5F5F5F5F5F5F5F5F5F5F5F5F5F5F5F5F5F5F5F5F5F5F5F5F5F5F5F5F5F5F5F5F5F5F5F5F5F5F5F5F5F5F5F5
310
F5F5F5F5F5F5F5F5F5F5F5F5F5F5F5F5F5F5F5F5F5F5F5F5F5F5F5F5F5F5F5F5F5F5F5F5F5F5F5F5F5F5F5F5F5F5F5F5F5F5F5F5F5E2F5F5F5F5E2E2F5F5F5F5E2F5F5F5F5F5F5F5F5F5F5F5F5F5F5F5F5F5F5F5F5F5F5F5F5F5F5F5F5F5F5F5F5F5F5F5F5F5F5F5F5F5F5F5F5F5F5F5F5F5F5F5F5F5F5F5F5F5F5F5F5F5F5
310
F5F5F5F5F5F5F5F5F5F5F5F5F5F5F5F5F5F5F5F5F5F5F5F5F5F5F5F5F5F5F5F5F5F5F5F5F5F5F5F5F5F5F5F5F5F5F5F5F5F5F5F5F5F5F5F5F5F5F5F5F5F5F5F5F5F5F5F5F5F5F5F5F5F5F5F5F5F5F5F5F5F5F5F5F5F5F5F5F5F5F5F5F5F5F5F5F5F5F5F5F5F5F5F5F5F5E2F5F5F5F5E2E2F5F5F5F5E2E2E2E2E2E2E2E2F5F5
310
F5F5F5F5F5F5F5E2E2E2E2E2E2E2E2E2E2E2E2E2E2E2F5F5F5F5F5F5F5F5F5E2E2E2E2E2E2E2E2E2E2E2E2E2E2E2E2F5F5F5F5F5F5F5F5E2E2E2E2E2E2E2E2E2E2E2E2E2E2E2E2F5F5F5F5F5F5F5F5E2E2E2E2E2E2E2E2E2E2E2E2E2E2E2E2F5F5F5F5F5F5F5F5E2E2E2E2E2E2E2E2E2E2E2E2E2E2E2E2F5F5F5F5F5F5F5F5
310
F5E2E2E2E2E2E2E2E2E2E2E2E2E2E2E2F5F5F5F5F5F5F5F5F5E2E2E2E2E2E2E2E2F5F5F5F5E2E2F5F5F5F5F5F5F5F5F5F5F5F5F5F5F5F5F5F5F5F5F5F5F5F5F5F5F5F5F5F5F5F5F5F5F5F5F5F5F5F5F5F5F5F5F5F5F5F5F5F5F5F5F5F5F5F5F5F5F5F5F5F5F5F5F5F5F5F5F5F5F5F5F5F5F5F5F5F5F5F5F5F5F5F5F5F5F5F5
310
F5F5F5F5F5F5F5F5F5F5F5F5F5F5F5F5F5F5F5F5F5F5F5F5F5F5F5F5F5F5F5F5F5F5F5F5F5F5F5F5F5F5F5F5F5F5F5F5F5F5F5F5F5F5F5F5F5F5F5F5F5F5F5F5F5F5F5F5F5F5F5F5F5F5F5F5F5F5F5F5F5F5F5F5F5F5F5F5F5F5E2E2F5F5F5F5F5F5F5F5F5F5F5F5F5F5F5F5F5F5F5F5F5F5F5F5F5F5F5F5F5F5F5F5F5F5F5
310
F5F5F5F5F5F5F5F5F5F5F5F5F5F5F5F5F5F5F5F5F5F5F5F5F5F5F5F5F5F5F5F5F5F5F5F5F5F5F5F5F5F5F5F5F5F5F5F5F5F5F5F5F5F5F5F5F5F5F5F5F5F5F5F5F5F5F5F5F5F5F5F5F5F5F5F5F5F5F5F5F5F5F5F5F5F5F5F5F5F5F5F5F5F5F5F5F5F5F5F5F5F5F5F5F5F5F5F5F5F5F5F5F5F5F5F5F5F5F5F5F5F5F5F5F5F5F5
310
F5F5F5F5F5F5F5F5F5F5F5F5F5F5F5F5E2E2F5F5F5F5F5F5F5F5F5F5F5F5F5F5F5F5F5F5F5F5F5F5F5F5F5F5F5F5F5F5F5F5F5F5F5F5F5F5F5F5F5F5F5F5F5F5F5F5F5F5F5F5F5F5F5F5F5F5F5F5F5F5F5F5F5F5F5F5F5F5F5F5F5F5F5F5F5F5F5F5F5F5F5F5F5F5F5F5F5F5F5F5F5F5F5F5F5F5F5F5F5F5F5F5F5F5F5F5F5
310
F5F5F5F5F5F5F5F5F5F5F5F5F5F5F5F5F5F5F5F5F5F5F5F5F5F5F5F5F5F5F5F5F5F5F5F5F5F5F5F5F5F5F5F5F5F5F5F5F5F5F5F5F5F5F5F5F5F5F5F5F5F5F5F5F5F5F5F5F5E2E2E2E2E2E2E2E2E2E2E2E2E2E2E2E2E2E2E2E2E2E2E2E2E2E2E2E2E2E2E2E2E2E2E2E2E2E2E2E2E2E2E2E2E2E2E2E2E2E2E2E2E2E2E2E2E2E2
310
E2E2E2E2E2E2E2E2E2E2E2E2E2E2E2E2E2E2E2E2E2E2E2E2E2E2E2E2E2E2E2E2E2E2E2E2E2E2E2E2E2E2E2E2E2E2E2E2E2E2E2E2E2E2E2E2E2E2E2E2E2E2E2E2E2E2E2E2E2E2E2E2E2E2E2E2E2E2E2E2E2E2E2E2E2E2E2E2E2E2E2E2E2E2E2E2E2E2E2E2E2E2E2E2E2E2E2E2E2E2E2E2E2E2E2E2E2E2E2E2E2E2E2EFEFEFEF
310
EFEFEFEFEFEFEFEFEFEFEFEFEFEFEFEFEFEFEFEFEFEFEFEFEFEFEFEFEFEFEFEFEFEFEFEFEFEFEFEFEFEFEFEFEFEFEFEFEFEFEFEFEFEFEFEFEFEFEFEFEFEFEFEFEFEFEFEFEFEFEFEFEFEFEFEFEFEFEFEFEFEFEFEFEFEFEFEFEFEFEFEFEFEFEFEFEFEFEFEFEFEFEFEFEFEFEFEFEFEFEFEFEFEFEFEFEFEFEFEFEFEFEFEFEFEFEF
310
EFEFEFEFEFEFEFEFEFEFEFEFEFEFEFEFEFEFEFEFEFEFEFEFEFEFEFEFEFEFEFEFEFEFEFEFEFEFEFEFEFEFEFEFEFEFEFEFEF
  0
XRECORD
  5
61781
102
{ACAD_REACTORS
330
B5
102
}
330
B5
100
AcDbXrecord
280
     1
102
SHADEPLOT
 70
     0
102
SHADEPLOTRESLEVEL
 70
     2
102
SHADEPLOTCUSTOMDPI
 70
   300
  0
XRECORD
  5
B6
102
{ACAD_REACTORS
330
B5
102
}
330
B5
100
AcDbXrecord
280
     1
310
28000000B40000008B0000000100080000000000BC610000000000000000000000010000000000000000000000000000FFFFFF000000000000000000000000000000000000000000000000000000000000000000330000006600000099000000CC000000FF00000000330000333300006633000099330000CC330000FF3300
310
0000660000336600006666000099660000CC660000FF66000000990000339900006699000099990000CC990000FF99000000CC000033CC000066CC000099CC0000CCCC0000FFCC000000FF000033FF000066FF000099FF0000CCFF0000FFFF000000003300330033006600330099003300CC003300FF003300003333003333
310
33006633330099333300CC333300FF33330000663300336633006666330099663300CC663300FF66330000993300339933006699330099993300CC993300FF99330000CC330033CC330066CC330099CC3300CCCC3300FFCC330000FF330033FF330066FF330099FF3300CCFF3300FFFF330000006600330066006600660099
310
006600CC006600FF00660000336600333366006633660099336600CC336600FF33660000666600336666006666660099666600CC666600FF66660000996600339966006699660099996600CC996600FF99660000CC660033CC660066CC660099CC6600CCCC6600FFCC660000FF660033FF660066FF660099FF6600CCFF6600
310
FFFF660000009900330099006600990099009900CC009900FF00990000339900333399006633990099339900CC339900FF33990000669900336699006666990099669900CC669900FF66990000999900339999006699990099999900CC999900FF99990000CC990033CC990066CC990099CC9900CCCC9900FFCC990000FF99
310
0033FF990066FF990099FF9900CCFF9900FFFF99000000CC003300CC006600CC009900CC00CC00CC00FF00CC000033CC003333CC006633CC009933CC00CC33CC00FF33CC000066CC003366CC006666CC009966CC00CC66CC00FF66CC000099CC003399CC006699CC009999CC00CC99CC00FF99CC0000CCCC0033CCCC0066CC
310
CC0099CCCC00CCCCCC00FFCCCC0000FFCC0033FFCC0066FFCC0099FFCC00CCFFCC00FFFFCC000000FF003300FF006600FF009900FF00CC00FF00FF00FF000033FF003333FF006633FF009933FF00CC33FF00FF33FF000066FF003366FF006666FF009966FF00CC66FF00FF66FF000099FF003399FF006699FF009999FF00CC
310
99FF00FF99FF0000CCFF0033CCFF0066CCFF0099CCFF00CCCCFF00FFCCFF0000FFFF0033FFFF0066FFFF0099FFFF00CCFFFF00FFFFFF00000000000D0D0D001A1A1A00282828003535350043434300505050005D5D5D006B6B6B00787878008686860093939300A1A1A100AEAEAE00BBBBBB00C9C9C900D6D6D600E4E4E400
310
F1F1F100FFFFFF0000000000000000000000000000000000000000000000000000000000000000000000000000000000F5F5F5F5F5F5F5F5F5F5F5F5F5F5F5F5F5F5F5F5F5F5F5F5F5F5F5F5F5F5F5F5F5F5F5F5F5F5F5F5F5F5F5F5F5F5F5F5F5F5F5F5F5F5F5F5F5F5F5F5F5F5F5F5F5F5F5F5F5F5F5F5F5F5F5F5F5F5F5
310
F5F5F5F5F5F5F5F5F5F5F5F5F5F5F5F5F5F5F5F5F5F5F5F5F5F5F5F5F5F5F5F5F5F5F5F5F5F5F5F5F5F5F5F5F5F5F5F5F5F5F5F5F5F5F5F5F5F5F5F5F5F5F5F5F5F5F5F5F5F5F5F5F5F5F5F5F5F5F5F5F5F5F5F5F5F5F5F5F5F5F5F5F5F5F5F5F5F5F5F5F5F5E2E2E2E2E2E2E2E2E2E2E2E2E2E2E2E2E2E2E2E2E2E2E2E2E2
310
E2E2E2E2E2E2E2E2E2E2E2E2E2E2E2E2E2E2E2E2E2E2E2E2E2E2E2E2E2E2E2E2E2E2E2E2E2E2E2E2E2E2E2E2E2E2E2E2E2E2E2E2E2E2E2E2E2E2E2E2E2E2E2E2E2E2E2E2E2E2E2E2E2E2E2E2E2E2E2E2E2E2E2E2E2E2E2E2E2E2E2E2E2E2E2E2E2E2E2E2E2E2E2E2E2E2E2E2E2E2E2E2E2E2E2E2E2E2E2E2E2E2E2E2E2E2E2
310
E2E2E2E2E2E2E2E2E2E2E2E2E2E2E2E2E2E2E2E2E2E2E2E2E2E2F5F5E2E2E2E2E2E2E2E2E2E2E2E2E2E2E2E2E2E2E2E2E2E2E2E2E2E2E2E2E2E2E2E2E2E2E2E2E2E2E2E2E2E2E2E2E2E2E2E2E2E2E2E2E2E2E2E2E2E2E2E2E2E2E2E2E2E2E2E2E2E2E2E2E2E2E2E2E2E2E2E2E2E2E2E2E2E2E2E2E2E2E2E2E2E2E2E2E2E2E2
310
E2E2E2E2E2E2E2E2E2E2E2E2E2E2E2E2E2E2E2E2E2E2E2E2E2E2E2E2E2E2E2E2E2E2E2E2E2E2E2E2E2E2E2E2E2E2E2E2E2E2E2E2E2E2E2E2E2E2E2E2E2E2E2E2E2E2E2E2E2E2E2E2E2E2E2E2E2E2E2F5F5E2E2E2E2E2E2E2E2E2E2E2E2E2E2E2E2E2E2E2E2E2E2E2E2E2E2E2E2E2E2E2E2E2E2E2E2E2E2E2E2E2E2E2E2E2E2
310
E2E2E2E2E2E2E2E2E2E2E2E2E2E2E2E2E2E2E2E2E2E2E2E2E2E2E2E2E2E2E2E2E2E2E2E2E2E2E2E2E2E2E2E2E2E2E2E2E2E2E2E2E2E2E2E2E2E2E2E2E2E2E2E2E2E2E2E2E2E2E2E2E2E2E2E2E2E2E2E2E2E2E2E2E2E2E2E2E2E2E2E2E2E2E2E2E2E2E2E2E2E2E2E2E2E2E2E2E2E2E2E2E2E2E2E2E2E2E2E2E2E2E2E2E2E2E2
310
E2E2E2E2E2F5F5E2E2E2E2E2E2E2E2E2E2E2E2E2E2E2E2E2E2E2E2E2E2E2E2E2E2E2E2E2E2E2E2E2E2E2E2E2E2E2E2E2E2E2E2E2E2E2E2E2E2E2E2E2E2E2E2E2E2E2E2E2E2E2E2E2E2E2E2E2E2E2E2E2E2E2E2E2E2E2E2E2E2E2E2E2E2E2E2E2E2E2E2E2E2E2E2E2E2E2E2E2E2E2E2E2E2E2E2E2E2E2E2E2E2E2E2E2E2E2E2
310
E2E2E2E2E2E2E2E2E2E2E2E2E2E2E2E2E2E2E2E2E2E2E2E2E2E2E2E2E2E2E2E2E2E2E2E2E2E2E2E2E2E2E2E2E2E2E2E2E2E2E2E2E2E2E2E2E2E2F5F5E2E2E2F5F5F5F5F5F5F5F5E2E2E2E2E2E2E2E2E2F5F5F5F5F5F5F5F5F5F5F5F5F5F5F5F5E2E2E2E2E2E2E2E2E2F5F5F5F5F5F5F5F5F5F5F5F5F5F5F5E2E2E2E2E2E2E2
310
E2E2F5F5F5F5F5F5F5F5F5F5F5F5F5F5F5F5E2E2E2E2E2E2E2E2F5F5F5F5F5F5F5F5F5F5F5F5F5F5F5F5E2E2E2E2E2E2E2E2E2F5F5F5F5F5F5F5F5F5F5F5F5F5F5F5E2E2E2E2E2E2E2E2E2F5F5F5F5F5F5F5F5F5F5F5F5F5F5F5F5E2E2E2E2E2E2E2E2E2F5F5F5F5F5F5F5F5E2E2E2F5F5E2E2E2F5E2E2E2E2E2E2E2E2E2E2
310
E2E2E2E2E2E2E2E2E2E2E2E2E2E2E2E2E2E2E2E2E2E2E2E2E2E2E2E2E2E2E2E2E2E2E2E2E2E2E2E2E2E2E2E2E2E2E2E2E2E2E2E2E2E2E2E2E2E2E2E2E2E2E2E2E2E2E2E2E2E2E2E2E2E2E2E2E2E2E2E2E2E2E2E2E2E2E2E2E2E2E2E2E2E2E2E2E2E2E2E2E2E2E2E2E2E2E2E2E2E2E2E2E2E2E2E2E2E2E2E2E2E2E2E2E2E2E2
310
E2E2E2E2E2E2E2E2E2E2E2E2E2E2E2E2E2E2E2E2E2E2E2E2E2E2E2E2E2E2E2E2E2F5E2E2E2F5F5E2E2E2F5E2E2E2E2E2E2E2E2E2E2E2E2E2E2E2E2E2E2E2E2E2E2E2E2E2E2E2E2E2E2E2E2E2E2E2E2E2E2E2E2E2E2E2E2E2E2E2E2E2E2E2E2E2E2E2E2E2E2E2E2E2E2E2E2E2E2E2E2E2E2E2E2E2E2E2E2E2E2E2E2E2E2E2E2
310
E2E2E2E2E2E2E2E2E2E2E2E2E2E2E2E2E2E2E2E2E2E2E2E2E2E2E2E2E2E2E2E2E2E2E2E2E2E2E2E2E2E2E2E2E2E2E2E2E2E2E2E2E2E2E2E2E2E2E2E2E2E2E2E2E2E2E2E2E2E2E2E2E2E2E2E2E2E2E2E2E2E2E2E2E2E2F5E2E2E2F5F5E2E2E2F5E2E2E2E2E2E2E2E2E2E2E2E2E2E2E2E2E2E2E2E2E2E2E2E2E2E2E2E2E2E2E2
310
E2E2E2E2E2E2E2E2E2E2E2E2E2E2E2E2E2E2E2E2E2E2E2E2E2E2E2E2E2E2E2E2E2E2E2E2E2E2E2E2E2E2E2E2E2E2E2E2E2E2E2E2E2E2E2E2E2E2E2E2E2E2E2E2E2E2E2E2E2E2E2E2E2E2E2E2E2E2E2E2E2E2E2E2E2E2E2E2E2E2E2E2E2E2E2E2E2E2E2E2E2E2E2E2E2E2E2E2E2E2E2E2E2E2E2E2E2E2E2E2E2E2E2E2E2E2E2
310
E2E2E2E2E2E2E2E2E2E2E2E2F5E2E2E2F5F5E2E2E2F5E2E2E2E2E2E2E2E2E2E2E2E2E2E2E2E2E2E2E2E2E2E2E2E2E2E2E2E2E2E2E2E2E2E2E2E2E2E2E2E2E2E2E2E2E2E2E2E2E2E2E2E2E2E2E2E2E2E2E2E2E2E2E2E2E2E2E2E2E2E2E2E2E2E2E2E2E2E2E2E2E2E2E2E2E2E2E2E2E2E2E2E2E2E2E2E2E2E2E2E2E2E2E2E2E2
310
E2E2E2E2E2E2E2E2E2E2E2E2E2E2E2E2E2E2E2E2E2E2E2E2E2E2E2E2E2E2E2E2E2E2E2E2E2E2E2E2E2E2E2E2E2E2E2E2E2E2E2E2E2E2E2E2E2E2E2E2E2E2E2E2E2F5E2E2E2F5F5E2E2E2F5E2E2E2E2E2E2E2E2E2E2E2E2E2E2E2E2E2E2E2E2E2E2E2E2E2E2E2E2E2E2E2E2E2E2E2E2E2E2E2E2E2E2E2E2E2E2E2E2E2E2E2E2
310
E2E2E2E2E2E2E2E2E2E2E2E2E2E2E2E2E2E2E2E2E2E2E2E2E2E2E2E2E2E2E2E2E2E2E2E2E2E2E2E2E2E2E2E2E2E2E2E2E2E2E2E2E2E2E2E2E2E2E2E2E2E2E2E2E2E2E2E2E2E2E2E2E2E2E2E2E2E2E2E2E2E2E2E2E2E2E2E2E2E2E2E2E2E2E2E2E2E2E2E2E2E2E2E2E2E2E2E2E2E2E2E2E2E2E2E2E2E2F5E2E2E2F5F5E2E2E2
310
F5E2E2E2E2E2E2E2E2E2E2E2E2E2E2E2E2E2E2E2E2E2E2E2E2E2E2E2E2E2E2E2E2E2E2E2E2E2E2E2E2E2E2E2E2E2E2E2E2E2E2E2E2E2E2E2E2E2E2E2E2E2E2E2E2E2E2E2E2E2E2E2E2E2E2E2E2E2E2E2E2E2E2E2E2E2E2E2E2E2E2E2E2E2E2E2E2E2E2E2E2E2E2E2E2E2E2E2E2E2E2E2E2E2E2E2E2E2E2E2E2E2E2E2E2E2E2
310
E2E2E2E2E2E2E2E2E2E2E2E2E2E2E2E2E2E2E2E2E2E2E2E2E2E2E2E2E2E2E2E2E2E2E2E2E2E2E2E2E2E2E2E2F5E2E2E2F5F5E2E2E2F5E2E2E2E2E2E2E2E2E2E2E2E2E2E2E2E2E2E2E2E2E2E2E2E2E2E2E2E2E2E2E2E2E2E2E2E2E2E2E2E2E2E2E2E2E2E2E2E2E2E2E2E2E2E2E2E2E2E2E2E2E2E2E2E2E2E2E2E2E2E2E2E2E2
310
E2E2E2E2E2E2E2E2E2E2E2E2E2E2E2E2E2E2E2E2E2E2E2E2E2E2E2E2E2E2E2E2E2E2E2E2E2E2E2E2E2E2E2E2E2E2E2E2E2E2E2E2E2E2E2E2E2E2E2E2E2E2E2E2E2E2E2E2E2E2E2E2E2E2E2E2E2E2E2E2E2E2E2E2E2E2E2E2E2E2E2E2E2E2E2E2E2F5E2E2E2F5F5E2E2E2F5E2E2E2E2E2E2E2E2E2E2E2E2E2E2E2E2E2E2E2E2
310
E2E2E2E2E2E2E2E2E2E2E2E2E2E2E2E2E2E2E2E2E2E2E2E2E2E2E2E2E2E2E2E2E2E2E2E2E2E2E2E2E2E2E2E2E2E2E2E2E2E2E2E2E2E2E2E2E2E2E2E2E2E2E2E2E2E2E2E2E2E2E2E2E2E2E2E2E2E2E2E2E2E2E2E2E2E2E2E2E2E2E2E2E2E2E2E2E2E2E2E2E2E2E2E2E2E2E2E2E2E2E2E2E2E2E2E2E2E2E2E2E2E2E2E2E2E2E2
310
E2E2E2E2E2E2E2E2E2E2E2E2E2E2E2E2E2E2E2E2E2E2E2F5E2E2E2F5F5E2E2E2E2E2E2E2E2E2E2E2E2E2E2E2E2E2E2E2E2E2E2E2E2E2E2E2E2E2E2E2E2E2E2E2E2E2E2E2E2E2E2E2E2E2E2E2E2E2E2E2E2E2E2E2E2E2E2E2E2E2E2E2E2E2E2E2E2E2E2E2E2E2E2E2E2E2E2E2E2E2E2E2E2E2E2E2E2E2E2E2E2E2E2E2E2E2E2
310
E2E2E2E2E2E2E2E2E2E2E2E2E2E2E2E2E2E2E2E2E2E2E2E2E2E2E2E2E2E2E2E2E2E2E2E2E2E2E2E2E2E2E2E2E2E2E2E2E2E2E2E2E2E2E2E2E2E2E2E2E2E2E2E2E2E2E2E2E2E2E2E2E2E2E2E2E2E2E2E2F5F5E2E2E2E2E2E2E2E2E2E2E2E2E2E2E2E2E2E2E2E2E2E2E2E2E2E2E2E2E2E2E2E2E2E2E2E2E2E2E2E2E2E2E2E2E2
310
E2E2E2E2E2E2E2E2E2E2E2E2E2E2E2E2E2E2E2E2E2E2E2E2E2E2E2E2E2E2E2E2E2E2E2E2E2E2E2E2E2E2E2E2E2E2E2E2E2E2E2E2E2E2E2E2E2E2E2E2E2E2E2E2E2E2E2E2E2E2E2E2E2E2E2E2E2E2E2E2E2E2E2E2E2E2E2E2E2E2E2E2E2E2E2E2E2E2E2E2E2E2E2E2E2E2E2E2E2E2E2E2E2E2E2E2E2E2E2E2E2E2E2E2E2E2E2
310
E2E2E2E2E2E2F5F5E2E2E2E2E2E2E2E2E2E2E2E2E2E2E2E2E2E2E2E2E2E2E2E2E2E2E2E2E2E2E2E2E2E2E2E2E2E2E2E2E2E2E2E2E2E2E2E2E2E2E2E2E2E2E2E2E2E2E2E2E2E2E2E2E2E2E2E2E2E2E2E2E2E2E2E2E2E2E2E2E2E2E2E2E2E2E2E2E2E2E2E2E2E2E2E2E2E2E2E2E2E2E2E2E2E2E2E2E2E2E2E2E2E2E2E2E2E2E2
310
E2E2E2E2E2E2E2E2E2E2E2E2E2E2E2E2E2E2E2E2E2E2E2E2E2E2E2E2E2E2E2E2E2E2E2E2E2E2E2E2E2E2E2E2E2E2E2E2E2E2E2E2E2E2E2E2E2E2E2F5F5E2E2E2E2E2E2E2E2E2E2E2E2E2E2E2E2E2E2E2E2E2E2E2E2E2E2E2E2E2E2E2E2E2E2E2E2E2E2E2E2E2E2E2E2E2E2E2E2E2E2E2E2E2E2E2E2E2E2E2E2E2E2E2E2E2E2
310
E2E2E2E2E2E2E2E2E2E2E2E2E2E2E2E2E2E2E2E2E2E2E2E2E2E2E2E2E2E2E2E2E2E2E2E2E2E2E2E2E2E2E2E2E2E2E2E2E2E2E2E2E2E2E2E2E2E2E2E2E2E2E2E2E2E2E2E2E2E2E2E2E2E2E2E2E2E2E2E2E2E2E2E2E2E2E2E2E2E2E2E2E2E2E2E2E2E2E2E2E2E2E2E2E2E2E2E2E2E2E2E2F5F5E2E2E2E2E2E2E2E2E2E2E2E2E2
310
E2E2E2E2E2E2E2F5F5F5F5F5F5F5F5F5F5F5F5F5F5F5F5F5F5F5F5F5F5F5F5F5F5F5F5F5F5F5F5F5F5F5F5F5F5F5F5F5F5F5F5F5F5F5F5F5F5F5F5F5F5F5F5F5F5F5F5F5F5F5F5F5F5F5F5F5F5F5F5F5F5F5F5F5F5F5F5F5F5F5F5F5F5F5F5F5F5F5F5F5F5F5F5F5F5F5F5F5F5F5F5F5F5F5F5F5F5F5F5F5F5F5F5F5F5F5F5
310
F5F5F5F5F5F5F5F5F5F5F5F5F5F5F5F5F5F5E2E2E2E2E2E2E2E2E2E2E2E2E2E2E2E2E2E2E2E2F5F5E2E2E2E2E2E2E2E2E2E2E2E2E2E2E2E2E2E2E2E2F5E2E2E2E2E2E2E2E2E2E2E2E2E2E2E2E2E2E2E2E2E2E2E2E2E2E2E2E2E2E2E2E2E2E2E2E2E2E2E2E2E2E2E2E2E2E2E2E2E2E2E2E2E2E2E2E2E2E2E2E2E2E2E2E2E2E2
310
E2E2E2E2E2E2E2E2E2E2E2E2E2E2E2E2E2E2E2E2E2E2E2E2E2E2E2E2E2E2E2E2E2E2E2E2E2E2E2E2E2E2E2E2E2E2E2E2E2E2E2E2E2E2E2E2E2E2E2E2E2E2E2E2E2E2E2E2E2E2F5E2E2E2E2E2E2E2E2E2E2E2E2E2E2E2E2E2E2E2E2F5F5E2E2E2E2E2E2E2E2E2E2E2E2E2E2E2E2E2E2E2E2F5E2E2E2E2E2E2E2E2E2E2E2E2E2
310
E2E2E2E2E2E2E2E2E2E2E2E2E2E2E2E2E2E2E2E2E2E2E2E2E2E2E2E2E2E2E2E2E2E2E2E2E2E2E2E2E2E2E2E2E2E2E2E2E2E2E2E2E2E2E2E2E2E2E2E2E2E2E2E2E2E2E2E2E2E2E2E2E2E2E2E2E2E2E2E2E2E2E2E2E2E2E2E2E2E2E2E2E2E2E2E2E2E2E2E2E2E2E2E2E2E2E2E2E2E2E2E2E2E2E2E2E2E2E2E2E2E2E2F5E2E2E2
310
E2E2E2E2E2E2E2E2E2E2E2E2E2E2E2E2E2F5F5E2E2E2E2E2E2E2E2E2E2E2E2E2E2E2E2E2E2E2E2F5E2E2E2E2E2E2E2E2E2E2E2E2E2E2E2E2E2E2E2E2E2E2E2E2E2E2E2E2E2E2E2E2E2E2E2E2E2E2E2E2E2E2E2E2E2E2E2E2E2E2E2E2E2E2E2E2E2E2E2E2E2E2E2E2E2E2E2E2E2E2E2E2E2E2E2E2E2E2E2E2E2E2E2E2E2E2E2
310
E2E2E2E2E2E2E2E2E2E2E2E2E2E2E2E2E2E2E2E2E2E2E2E2E2E2E2E2E2E2E2E2E2E2E2E2E2E2E2E2E2E2E2E2E2E2E2E2E2F5E2E2E2E2E2E2E2E2E2E2E2E2E2E2E2E2E2E2E2E2F5F5E2E2E2E2E2E2E2E2E2E2E2E2E2E2E2E2E2E2E2E2F5E2E2E2E2E2E2E2E2E2E2E2E2E2E2E2E2E2E2E2E2E2E2E2E2E2E2E2E2E2E2E2E2E2E2
310
E2E2E2E2E2E2E2E2E2E2E2E2E2E2E2E2E2E2E2E2E2E2E2E2E2E2E2E2E2E2E2E2E2E2E2E2E2E2E2E2E2E2E2E2E2E2E2E2E2E2E2E2E2E2E2E2E2E2E2E2E2E2E2E2E2E2E2E2E2E2E2E2E2E2E2E2E2E2E2E2E2E2E2E2E2E2E2E2E2E2E2E2E2E2E2E2E2E2E2E2E2E2F5E2E2E2E2E2E2E2E2E2E2E2E2E2E2E2E2E2E2E2E2F5F5E2E2
310
E2F5E2E2E2E2E2E2E2E2E2E2E2E2E2E2E2E2F5E2E2E2E2E2E2E2E2E2E2E2E2E2E2E2E2E2E2E2E2E2E2E2E2E2E2E2E2E2E2E2E2E2E2E2E2E2E2E2E2E2E2E2E2E2E2E2E2E2E2E2E2E2E2E2E2E2E2E2E2E2E2E2E2E2E2E2E2E2E2E2E2E2E2E2E2E2E2E2E2E2E2E2E2E2E2E2E2E2E2E2E2E2E2E2E2E2E2E2E2E2E2E2E2E2E2E2E2
310
E2E2E2E2E2E2E2E2E2E2E2E2E2E2E2E2E2E2E2E2E2E2E2E2E2E2E2E2F5E2E2E2E2E2E2E2E2E2E2E2E2E2E2E2E2F5E2E2E2F5F5E2E2E2F5E2E2E2E2E2E2E2E2E2E2E2E2E2E2E2E2F5E2E2E2E2E2E2E2E2E2E2E2E2E2E2E2E2E2E2E2E2E2E2E2E2E2E2E2E2E2E2E2E2E2E2E2E2E2E2E2E2E2E2E2E2E2E2E2E2E2E2E2E2E2E2E2
310
E2E2E2E2E2E2E2E2E2E2E2E2E2E2E2E2E2E2E2E2E2E2E2E2E2E2E2E2E2E2E2E2E2E2E2E2E2E2E2E2E2E2E2E2E2E2E2E2E2E2E2E2E2E2E2E2E2E2E2E2E2E2E2E2E2E2E2E2E2E2E2E2E2E2E2E2E2E2E2E2E2F5E2E2E2E2E2E2E2E2E2E2E2E2E2E2E2E2F5E2E2E2F5F5E2E2E2F5E2E2E2E2E2E2E2E2E2E2E2E2E2E2E2E2F5E2E2
310
E2E2E2E2E2E2E2E2E2E2E2E2E2E2E2E2E2E2E2E2E2E2E2E2E2E2E2E2E2E2E2E2E2E2E2E2E2E2E2E2E2E2E2E2E2E2E2E2E2E2E2E2E2E2E2E2E2E2E2E2E2E2E2E2E2E2E2E2E2E2E2E2E2E2E2E2E2E2E2E2E2E2E2E2E2E2E2E2E2E2E2E2E2E2E2E2E2E2E2E2E2E2E2E2E2E2E2E2E2E2E2E2E2E2E2E2E2E2E2E2E2E2E2E2E2E2E2
310
E2E2E2E2E2E2E2F5E2E2E2E2E2E2E2E2E2E2E2E2E2E2E2E2F5E2E2E2F5F5E2E2E2F5E2E2E2E2E2E2E2E2E2E2E2E2E2E2E2E2F5E2E2E2E2E2E2E2E2E2E2E2E2E2E2E2E2E2E2E2E2E2E2E2E2E2E2E2E2E2E2E2E2E2E2E2E2E2E2E2E2E2E2E2E2E2E2E2E2E2E2E2E2E2E2E2E2E2E2E2E2E2E2E2E2E2E2E2E2E2E2E2E2E2E2E2E2
310
E2E2E2E2E2E2E2E2E2E2E2E2E2E2E2E2E2E2E2E2E2E2E2E2E2E2E2E2E2E2E2E2E2E2E2E2E2E2E2E2E2E2E2E2E2E2E2E2E2E2E2E2E2E2E2E2E2E2E2E2F5E2E2E2E2E2E2E2E2E2E2E2E2E2E2E2E2F5E2E2E2F5F5E2E2E2F5E2E2E2E2E2E2E2E2E2E2E2E2E2E2E2E2F5E2E2E2E2E2E2E2E2E2E2E2E2E2E2E2E2E2E2E2E2E2E2E2
310
E2E2E2E2E2E2E2E2E2E2E2E2E2E2E2E2E2E2E2E2E2E2E2E2E2E2E2E2E2E2E2E2E2E2E2E2E2E2E2E2E2E2E2E2E2E2E2E2E2E2E2E2E2E2E2E2E2E2E2E2E2E2E2E2E2E2E2E2E2E2E2E2E2E2E2E2E2E2E2E2E2E2E2E2E2E2E2E2E2E2E2E2E2E2E2E2E2E2E2E2E2E2E2E2E2E2E2E2E2E2E2E2E2F5E2E2E2E2E2E2E2E2E2E2E2E2E2
310
E2E2E2F5E2E2E2F5F5E2E2E2F5E2E2E2E2E2E2E2E2E2E2E2E2E2E2E2E2F5E2E2E2E2E2E2E2E2E2E2E2E2E2E2E2E2E2E2E2E2E2E2E2E2E2E2E2E2E2E2E2E2E2E2E2E2E2E2E2E2E2E2E2E2E2E2E2E2E2E2E2E2E2E2E2E2E2E2E2E2E2E2E2E2E2E2E2E2E2E2E2E2E2E2E2E2E2E2E2E2E2E2E2E2E2E2E2E2E2E2E2E2E2E2E2E2E2
310
E2E2E2E2E2E2E2E2E2E2E2E2E2E2E2E2E2E2E2E2E2E2E2E2E2E2E2E2E2E2E2E2E2E2E2E2E2E2E2F5E2E2E2E2E2E2E2E2E2E2E2E2E2E2E2E2F5E2E2E2F5F5E2E2E2F5E2E2E2E2E2E2E2E2E2E2E2E2E2E2E2E2F5E2E2E2E2E2E2E2E2E2E2E2E2E2E2E2E2E2E2E2E2E2E2E2E2E2E2E2E2E2E2E2E2E2E2E2E2E2E2E2E2E2E2E2E2
310
E2E2E2E2E2E2E2E2E2E2E2E2E2E2E2E2E2E2E2E2E2E2E2E2E2E2E2E2E2E2E2E2E2E2E2E2E2E2E2E2E2E2E2E2E2E2E2E2E2E2E2E2E2E2E2E2E2E2E2E2E2E2E2E2E2E2E2E2E2E2E2E2E2E2E2E2E2E2E2E2E2E2E2E2E2E2E2E2E2E2E2E2F5E2E2E2E2E2E2E2E2E2E2E2E2E2E2E2E2F5E2E2E2F5F5E2E2E2F5E2E2E2E2E2E2E2E2
310
E2E2E2E2E2E2E2E2F5E2E2E2E2E2E2E2E2E2E2E2E2E2E2E2E2E2E2E2E2E2E2E2E2E2E2E2E2E2E2E2E2E2E2E2E2E2E2E2E2E2E2E2E2E2E2E2E2E2E2E2E2E2E2E2E2E2E2E2E2E2E2E2E2E2E2E2E2E2E2E2E2E2E2E2E2E2E2E2E2E2E2E2E2E2E2E2E2E2E2E2E2E2E2E2E2E2E2E2E2E2E2E2E2E2E2E2E2E2E2E2E2E2E2E2E2E2E2
310
E2E2E2E2E2E2E2E2E2E2E2E2E2E2E2E2E2E2F5E2E2E2E2E2E2E2E2E2E2E2E2E2E2E2E2F5E2E2E2F5F5E2E2E2F5E2E2E2E2E2E2E2E2E2E2E2E2E2E2E2E2F5E2E2E2E2E2E2E2E2E2E2E2E2E2E2E2E2E2E2E2E2E2E2E2E2E2E2E2E2E2E2E2E2E2E2E2E2E2E2E2E2E2E2E2E2E2E2E2E2E2E2E2E2E2E2E2E2E2E2E2E2E2E2E2E2E2
310
E2E2E2E2E2E2E2E2E2E2E2E2E2E2E2E2E2E2E2E2E2E2E2E2E2E2E2E2E2E2E2E2E2E2E2E2E2E2E2E2E2E2E2E2E2E2E2E2E2E2E2E2E2E2E2E2E2E2E2E2E2E2E2E2E2E2E2E2E2E2E2F5E2E2E2E2E2E2E2E2E2E2E2E2E2E2E2E2F5E2E2E2F5F5E2E2E2F5E2E2E2E2E2E2E2E2E2E2E2E2E2E2E2E2F5E2E2E2E2E2E2E2E2E2E2E2E2
310
E2E2E2E2E2E2E2E2E2E2E2E2E2E2E2E2E2E2E2E2E2E2E2E2E2E2E2E2E2E2E2E2E2E2E2E2E2E2E2E2E2E2E2E2E2E2E2E2E2E2E2E2E2E2E2E2E2E2E2E2E2E2E2E2E2E2E2E2E2E2E2E2E2E2E2E2E2E2E2E2E2E2E2E2E2E2E2E2E2E2E2E2E2E2E2E2E2E2E2E2E2E2E2E2E2E2E2E2E2E2E2E2E2E2E2E2E2E2E2E2E2E2E2E2F5E2E2
310
E2E2E2E2E2E2E2E2E2E2E2E2E2E2F5E2E2E2F5F5E2E2E2F5E2E2E2E2E2E2E2E2E2E2E2E2E2E2E2E2F5E2E2E2E2E2E2E2E2E2E2E2E2E2E2E2E2E2E2E2E2E2E2E2E2E2E2E2E2E2E2E2E2E2E2E2E2E2E2E2E2E2E2E2E2E2E2E2E2E2E2E2E2E2E2E2E2E2E2E2E2E2E2E2E2E2E2E2E2E2E2E2E2E2E2E2E2E2E2E2E2E2E2E2E2E2E2
310
E2E2E2E2E2E2E2E2E2E2E2E2E2E2E2E2E2E2E2E2E2E2E2E2E2E2E2E2E2E2E2E2E2E2E2E2E2E2E2E2E2E2E2E2E2E2E2E2E2E2F5E2E2E2E2E2E2E2E2E2E2E2E2E2E2E2E2F5E2E2E2F5F5E2E2E2F5E2E2E2E2E2E2E2E2E2E2E2E2E2E2E2E2F5E2E2E2E2E2E2E2E2E2E2E2E2E2E2E2E2E2E2E2E2E2E2E2E2E2E2E2E2E2E2E2E2E2
310
E2E2E2E2E2E2E2E2E2E2E2E2E2E2E2E2E2E2E2E2E2E2E2E2E2E2E2E2E2E2E2E2E2E2E2E2E2E2E2E2E2E2E2E2E2E2E2E2E2E2E2E2E2E2E2E2E2E2E2E2E2E2E2E2E2E2E2E2E2E2E2E2E2E2E2E2E2E2E2E2E2E2E2E2E2E2E2E2E2E2E2E2E2E2E2E2E2E2E2E2E2E2E2F5E2E2E2E2E2E2E2E2E2E2E2E2E2E2E2E2F5E2E2E2F5F5E2
310
E2E2F5E2E2E2E2E2E2E2E2E2E2E2E2E2E2E2E2F5E2E2E2E2E2E2E2E2E2E2E2E2E2E2E2E2E2E2E2E2E2E2E2E2E2E2E2E2E2E2E2E2E2E2E2E2E2E2E2E2E2E2E2E2E2E2E2E2E2E2E2E2E2E2E2E2E2E2E2E2E2E2E2E2E2E2E2E2E2E2E2E2E2E2E2E2E2E2E2E2E2E2E2E2E2E2E2E2E2E2E2E2E2E2E2E2E2E2E2E2E2E2E2E2E2E2E2
310
E2E2E2E2E2E2E2E2E2E2E2E2E2E2E2E2E2E2E2E2E2E2E2E2E2E2E2E2E2F5E2E2E2E2E2E2E2E2E2E2E2E2E2E2E2E2F5E2E2E2F5F5E2E2E2F5E2E2E2E2E2E2E2E2E2E2E2E2E2E2E2E2F5E2E2E2E2E2E2E2E2E2E2E2E2E2E2E2E2E2E2E2E2E2E2E2E2E2E2E2E2E2E2E2E2E2E2E2E2E2E2E2E2E2E2E2E2E2E2E2E2E2E2E2E2E2E2
310
E2E2E2E2E2E2E2E2E2E2E2E2E2E2E2E2E2E2E2E2E2E2E2E2E2E2E2E2E2E2E2E2E2E2E2E2E2E2E2E2E2E2E2E2E2E2E2E2E2E2E2E2E2E2E2E2E2E2E2E2E2E2E2E2E2E2E2E2E2E2E2E2E2E2E2E2E2E2E2E2E2E2F5E2E2E2E2E2E2E2E2E2E2E2E2E2E2E2E2F5E2E2E2F5F5E2E2E2F5E2E2E2E2E2E2E2E2E2E2E2E2E2E2E2E2F5E2
310
E2E2E2E2E2E2E2E2E2E2E2E2E2E2E2E2E2E2E2E2E2E2E2E2E2E2E2E2E2E2E2E2E2E2E2E2E2E2E2E2E2E2E2E2E2E2E2E2E2E2E2E2E2E2E2E2E2E2E2E2E2E2E2E2E2E2E2E2E2E2E2E2E2E2E2E2E2E2E2E2E2E2E2E2E2E2E2E2E2E2E2E2E2E2E2E2E2E2E2E2E2E2E2E2E2E2E2E2E2E2E2E2E2E2E2E2E2E2E2E2E2E2E2E2E2E2E2
310
E2E2E2E2E2E2E2E2F5E2E2E2E2E2E2E2E2E2E2E2E2E2E2E2E2F5E2E2E2F5F5E2E2E2F5E2E2E2E2E2E2E2E2E2E2E2E2E2E2E2E2F5E2E2E2E2E2E2E2E2E2E2E2E2E2E2E2E2E2E2E2E2E2E2E2E2E2E2E2E2E2E2E2E2E2E2E2E2E2E2E2E2E2E2E2E2E2E2E2E2E2E2E2E2E2E2E2E2E2E2E2E2E2E2E2E2E2E2E2E2E2E2E2E2E2E2E2
310
E2E2E2E2E2E2E2E2E2E2E2E2E2E2E2E2E2E2E2E2E2E2E2E2E2E2E2E2E2E2E2E2E2E2E2E2E2E2E2E2E2E2E2E2E2E2E2E2E2E2E2E2E2E2E2E2E2E2E2E2E2F5E2E2E2E2E2E2E2E2E2E2E2E2E2E2E2E2F5E2E2E2F5F5E2E2E2F5E2E2E2E2E2E2E2E2E2E2E2E2E2E2E2E2F5E2E2E2E2E2E2E2E2E2E2E2E2E2E2E2E2E2E2E2E2E2E2
310
E2E2E2E2E2E2E2E2E2E2E2E2E2E2E2E2E2E2E2E2E2E2E2E2E2E2E2E2E2E2E2E2E2E2E2E2E2E2E2E2E2E2E2E2E2E2E2E2E2E2E2E2E2E2E2E2E2E2E2E2E2E2E2E2E2E2E2E2E2E2E2E2E2E2E2E2E2E2E2E2E2E2E2E2E2E2E2E2E2E2E2E2E2E2E2E2E2E2E2E2E2E2E2E2E2E2E2E2E2E2E2E2E2E2F5E2E2E2E2E2E2E2E2E2E2E2E2
310
E2E2E2E2F5E2E2E2F5F5E2E2E2E2E2E2E2E2E2E2E2E2E2E2E2E2E2E2E2E2F5E2E2E2E2E2E2E2E2E2E2E2E2E2E2E2E2E2E2E2E2E2E2E2E2E2E2E2E2E2E2E2E2E2E2E2E2E2E2E2E2E2E2E2E2E2E2E2E2E2E2E2E2E2E2E2E2E2E2E2E2E2E2E2E2E2E2E2E2E2E2E2E2E2E2E2E2E2E2E2E2E2E2E2E2E2E2E2E2E2E2E2E2E2E2E2E2
310
E2E2E2E2E2E2E2E2E2E2E2E2E2E2E2E2E2E2E2E2E2E2E2E2E2E2E2E2E2E2E2E2E2E2E2E2E2E2E2E2F5E2E2E2E2E2E2E2E2E2E2E2E2E2E2E2E2E2E2E2E2F5F5E2E2E2E2E2E2E2E2E2E2E2E2E2E2E2E2E2E2E2E2F5E2E2E2E2E2E2E2E2E2E2E2E2E2E2E2E2E2E2E2E2E2E2E2E2E2E2E2E2E2E2E2E2E2E2E2E2E2E2E2E2E2E2E2
310
E2E2E2E2E2E2E2E2E2E2E2E2E2E2E2E2E2E2E2E2E2E2E2E2E2E2E2E2E2E2E2E2E2E2E2E2E2E2E2E2E2E2E2E2E2E2E2E2E2E2E2E2E2E2E2E2E2E2E2E2E2E2E2E2E2E2E2E2E2E2E2E2E2E2E2E2E2E2E2E2E2E2E2E2E2E2E2E2E2E2E2E2E2F5E2E2E2E2E2E2E2E2E2E2E2E2E2E2E2E2E2E2E2E2F5F5E2E2E2E2E2E2E2E2E2E2E2
310
E2E2E2E2E2E2E2E2E2F5E2E2E2E2E2E2E2E2E2E2E2E2E2E2E2E2E2E2E2E2E2E2E2E2E2E2E2E2E2E2E2E2E2E2E2E2E2E2E2E2E2E2E2E2E2E2E2E2E2E2E2E2E2E2E2E2E2E2E2E2E2E2E2E2E2E2E2E2E2E2E2E2E2E2E2E2E2E2E2E2E2E2E2E2E2E2E2E2E2E2E2E2E2E2E2E2E2E2E2E2E2E2E2E2E2E2E2E2E2E2E2E2E2E2E2E2E2
310
E2E2E2E2E2E2E2E2E2E2E2E2E2E2E2E2E2E2E2F5E2E2E2E2E2E2E2E2E2E2E2E2E2E2E2E2E2E2E2E2F5F5E2E2E2E2E2E2E2E2E2E2E2E2E2E2E2E2E2E2E2E2F5E2E2E2E2E2E2E2E2E2E2E2E2E2E2E2E2E2E2E2E2E2E2E2E2E2E2E2E2E2E2E2E2E2E2E2E2E2E2E2E2E2E2E2E2E2E2E2E2E2E2E2E2E2E2E2E2E2E2E2E2E2E2E2E2
310
E2E2E2E2E2E2E2E2E2E2E2E2E2E2E2E2E2E2E2E2E2E2E2E2E2E2E2E2E2E2E2E2E2E2E2E2E2E2E2E2E2E2E2E2E2E2E2E2E2E2E2E2E2E2E2E2E2E2E2E2E2E2E2E2E2E2E2E2E2E2E2E2F5E2E2E2E2E2E2E2E2E2E2E2E2E2E2E2E2E2E2E2E2F5F5E2E2E2E2E2E2E2E2E2E2E2E2E2E2E2E2E2E2E2E2F5E2E2E2E2E2E2E2E2E2E2E2
310
E2E2E2E2E2E2E2E2E2E2E2E2E2E2E2E2E2E2E2E2E2E2E2E2E2E2E2E2E2E2E2E2E2E2E2E2E2E2E2E2E2E2E2E2E2E2E2E2E2E2E2E2E2E2E2E2E2E2E2E2E2E2E2E2E2E2E2E2E2E2E2E2E2E2E2E2E2E2E2E2E2E2E2E2E2E2E2E2E2E2E2E2E2E2E2E2E2E2E2E2E2E2E2E2E2E2E2E2E2E2E2E2E2E2E2E2E2E2E2E2E2E2E2E2E2F5E2
310
E2E2E2E2E2E2E2E2E2E2E2E2E2E2E2E2E2E2E2F5F5E2E2E2E2E2E2E2E2E2E2E2E2E2E2E2E2E2E2E2E2F5E2E2E2E2E2E2E2E2E2E2E2E2E2E2E2E2E2E2E2E2E2E2E2E2E2E2E2E2E2E2E2E2E2E2E2E2E2E2E2E2E2E2E2E2E2E2E2E2E2E2E2E2E2E2E2E2E2E2E2E2E2E2E2E2E2E2E2E2E2E2E2E2E2E2E2E2E2E2E2E2E2E2E2E2E2
310
E2E2E2E2E2E2E2E2E2E2E2E2E2E2E2E2E2E2E2E2E2E2E2E2E2E2E2E2E2E2E2E2E2E2E2E2E2E2E2E2E2E2E2E2E2E2E2E2E2E2E2F5E2E2E2E2E2E2E2E2E2E2E2E2E2E2E2E2E2E2E2E2F5F5E2E2E2E2E2E2E2E2E2E2E2E2E2E2E2E2E2E2E2E2F5E2E2E2E2E2E2E2E2E2E2E2E2E2E2E2E2E2E2E2E2E2E2E2E2E2E2E2E2E2E2E2E2
310
E2E2E2E2E2E2E2E2E2E2E2E2E2E2E2E2E2E2E2E2E2E2E2E2E2E2E2E2E2E2E2E2E2E2E2E2E2E2E2E2E2E2E2E2E2E2E2E2E2E2E2E2E2E2E2E2E2E2E2E2E2E2E2E2E2E2E2E2E2E2E2E2E2E2E2E2E2E2E2E2E2E2E2E2E2E2E2E2E2E2E2E2E2E2E2E2E2E2E2E2E2E2E2E2F5E2E2E2E2E2E2E2E2E2E2E2E2E2E2E2E2E2E2E2E2F5F5
310
E2E2E2E2E2E2E2E2E2E2E2E2E2E2E2E2E2E2E2E2F5E2E2E2E2E2E2E2E2E2E2E2E2E2E2E2E2E2E2E2E2E2E2E2E2E2E2E2E2E2E2E2E2E2E2E2E2E2E2E2E2E2E2E2E2E2E2E2E2E2E2E2E2E2E2E2E2E2E2E2E2E2E2E2E2E2E2E2E2E2E2E2E2E2E2E2E2E2E2E2E2E2E2E2E2E2E2E2E2E2E2E2E2E2E2E2E2E2E2E2E2E2E2E2E2E2E2
310
E2E2E2E2E2E2E2E2E2E2E2E2E2E2E2E2E2E2E2E2E2E2E2E2E2E2E2E2E2E2F5E2E2E2E2E2E2E2E2E2E2E2E2E2E2E2E2E2E2E2E2F5F5E2E2E2E2E2E2E2E2E2E2E2E2E2E2E2E2E2E2E2E2F5E2E2E2E2E2E2E2E2E2E2E2E2E2E2E2E2E2E2E2E2E2E2E2E2E2E2E2E2E2E2E2E2E2E2E2E2E2E2E2E2E2E2E2E2E2E2E2E2E2E2E2E2E2
310
E2E2E2E2E2E2E2E2E2E2E2E2E2E2E2E2E2E2E2E2E2E2E2E2E2E2E2E2E2E2E2E2E2E2E2E2E2E2E2E2E2E2E2E2E2E2E2E2E2E2E2E2E2E2E2E2E2E2E2E2E2E2E2E2E2E2E2E2E2E2E2E2E2E2E2E2E2E2E2E2E2E2E2F5E2E2E2E2E2E2E2E2E2E2E2E2E2E2E2E2E2E2E2E2F5F5E2E2E2F5E2E2E2E2E2E2E2E2E2E2E2E2E2E2E2E2F5
310
E2E2E2E2E2E2E2E2E2E2E2E2E2E2E2E2E2E2E2E2E2E2E2E2E2E2E2E2E2E2E2E2E2E2E2E2E2E2E2E2E2E2E2E2E2E2E2E2E2E2E2E2E2E2E2E2E2E2E2E2E2E2E2E2E2E2E2E2E2E2E2E2E2E2E2E2E2E2E2E2E2E2E2E2E2E2E2E2E2E2E2E2E2E2E2E2E2E2E2E2E2E2E2E2E2E2E2E2E2E2E2E2E2E2E2E2E2E2E2E2E2E2E2E2E2E2E2
310
E2E2E2E2E2E2E2E2E2F5E2E2E2E2E2E2E2E2E2E2E2E2E2E2E2E2F5E2E2E2F5F5E2E2E2F5E2E2E2E2E2E2E2E2E2E2E2E2E2E2E2E2F5E2E2E2E2E2E2E2E2E2E2E2E2E2E2E2E2E2E2E2E2E2E2E2E2E2E2E2E2E2E2E2E2E2E2E2E2E2E2E2E2E2E2E2E2E2E2E2E2E2E2E2E2E2E2E2E2E2E2E2E2E2E2E2E2E2E2E2E2E2E2E2E2E2E2
310
E2E2E2E2E2E2E2E2E2E2E2E2E2E2E2E2E2E2E2E2E2E2E2E2E2E2E2E2E2E2E2E2E2E2E2E2E2E2E2E2E2E2E2E2E2E2E2E2E2E2E2E2E2E2E2E2E2E2E2E2E2E2F5E2E2E2E2E2E2E2E2E2E2E2E2E2E2E2E2F5E2E2E2F5F5E2E2E2F5E2E2E2E2E2E2E2E2E2E2E2E2E2E2E2E2F5E2E2E2E2E2E2E2E2E2E2E2E2E2E2E2E2E2E2E2E2E2
310
E2E2E2E2E2E2E2E2E2E2E2E2E2E2E2E2E2E2E2E2E2E2E2E2E2E2E2E2E2E2E2E2E2E2E2E2E2E2E2E2E2E2E2E2E2E2E2E2E2E2E2E2E2E2E2E2E2E2E2E2E2E2E2E2E2E2E2E2E2E2E2E2E2E2E2E2E2E2E2E2E2E2E2E2E2E2E2E2E2E2E2E2E2E2E2E2E2E2E2E2E2E2E2E2E2E2E2E2E2E2E2E2E2E2E2F5E2E2E2E2E2E2E2E2E2E2E2
310
E2E2E2E2E2F5E2E2E2F5F5E2E2E2F5E2E2E2E2E2E2E2E2E2E2E2E2E2E2E2E2F5E2E2E2E2E2E2E2E2E2E2E2E2E2E2E2E2E2E2E2E2E2E2E2E2E2E2E2E2E2E2E2E2E2E2E2E2E2E2E2E2E2E2E2E2E2E2E2E2E2E2E2E2E2E2E2E2E2E2E2E2E2E2E2E2E2E2E2E2E2E2E2E2E2E2E2E2E2E2E2E2E2E2E2E2E2E2E2E2E2E2E2E2E2E2E2
310
E2E2E2E2E2E2E2E2E2E2E2E2E2E2E2E2E2E2E2E2E2E2E2E2E2E2E2E2E2E2E2E2E2E2E2E2E2E2E2E2E2F5E2E2E2E2E2E2E2E2E2E2E2E2E2E2E2E2F5E2E2E2F5F5E2E2E2F5E2E2E2E2E2E2E2E2E2E2E2E2E2E2E2E2F5E2E2E2E2E2E2E2E2E2E2E2E2E2E2E2E2E2E2E2E2E2E2E2E2E2E2E2E2E2E2E2E2E2E2E2E2E2E2E2E2E2E2
310
E2E2E2E2E2E2E2E2E2E2E2E2E2E2E2E2E2E2E2E2E2E2E2E2E2E2E2E2E2E2E2E2E2E2E2E2E2E2E2E2E2E2E2E2E2E2E2E2E2E2E2E2E2E2E2E2E2E2E2E2E2E2E2E2E2E2E2E2E2E2E2E2E2E2E2E2E2E2E2E2E2E2E2E2E2E2E2E2E2E2E2E2E2E2F5E2E2E2E2E2E2E2E2E2E2E2E2E2E2E2E2F5E2E2E2F5F5E2E2E2F5E2E2E2E2E2E2
310
E2E2E2E2E2E2E2E2E2E2F5E2E2E2E2E2E2E2E2E2E2E2E2E2E2E2E2E2E2E2E2E2E2E2E2E2E2E2E2E2E2E2E2E2E2E2E2E2E2E2E2E2E2E2E2E2E2E2E2E2E2E2E2E2E2E2E2E2E2E2E2E2E2E2E2E2E2E2E2E2E2E2E2E2E2E2E2E2E2E2E2E2E2E2E2E2E2E2E2E2E2E2E2E2E2E2E2E2E2E2E2E2E2E2E2E2E2E2E2E2E2E2E2E2E2E2E2
310
E2E2E2E2E2E2E2E2E2E2E2E2E2E2E2E2E2E2E2E2F5E2E2E2E2E2E2E2E2E2E2E2E2E2E2E2E2F5E2E2E2F5F5E2E2E2F5E2E2E2E2E2E2E2E2E2E2E2E2E2E2E2E2F5E2E2E2E2E2E2E2E2E2E2E2E2E2E2E2E2E2E2E2E2E2E2E2E2E2E2E2E2E2E2E2E2E2E2E2E2E2E2E2E2E2E2E2E2E2E2E2E2E2E2E2E2E2E2E2E2E2E2E2E2E2E2E2
310
E2E2E2E2E2E2E2E2E2E2E2E2E2E2E2E2E2E2E2E2E2E2E2E2E2E2E2E2E2E2E2E2E2E2E2E2E2E2E2E2E2E2E2E2E2E2E2E2E2E2E2E2E2E2E2E2E2E2E2E2E2E2E2E2E2E2E2E2E2E2E2E2E2F5E2E2E2E2E2E2E2E2E2E2E2E2E2E2E2E2F5E2E2E2F5F5E2E2E2F5E2E2E2E2E2E2E2E2E2E2E2E2E2E2E2E2F5E2E2E2E2E2E2E2E2E2E2
310
E2E2E2E2E2E2E2E2E2E2E2E2E2E2E2E2E2E2E2E2E2E2E2E2E2E2E2E2E2E2E2E2E2E2E2E2E2E2E2E2E2E2E2E2E2E2E2E2E2E2E2E2E2E2E2E2E2E2E2E2E2E2E2E2E2E2E2E2E2E2E2E2E2E2E2E2E2E2E2E2E2E2E2E2E2E2E2E2E2E2E2E2E2E2E2E2E2E2E2E2E2E2E2E2E2E2E2E2E2E2E2E2E2E2E2E2E2E2E2E2E2E2E2E2E2E2F5
310
E2E2E2E2E2E2E2E2E2E2E2E2E2E2E2E2F5E2E2E2F5F5E2E2E2F5E2E2E2E2E2E2E2E2E2E2E2E2E2E2E2E2F5E2E2E2E2E2E2E2E2E2E2E2E2E2E2E2E2E2E2E2E2E2E2E2E2E2E2E2E2E2E2E2E2E2E2E2E2E2E2E2E2E2E2E2E2E2E2E2E2E2E2E2E2E2E2E2E2E2E2E2E2E2E2E2E2E2E2E2E2E2E2E2E2E2E2E2E2E2E2E2E2E2E2E2E2
310
E2E2E2E2E2E2E2E2E2E2E2E2E2E2E2E2E2E2E2E2E2E2E2E2E2E2E2E2E2E2E2E2E2E2E2E2E2E2E2E2E2E2E2E2E2E2E2E2E2E2E2E2F5E2E2E2E2E2E2E2E2E2E2E2E2E2E2E2E2F5E2E2E2F5F5E2E2E2F5E2E2E2E2E2E2E2E2E2E2E2E2E2E2E2E2F5E2E2E2E2E2E2E2E2E2E2E2E2E2E2E2E2E2E2E2E2E2E2E2E2E2E2E2E2E2E2E2
310
E2E2E2E2E2E2E2E2E2E2E2E2E2E2E2E2E2E2E2E2E2E2E2E2E2E2E2E2E2E2E2E2E2E2E2E2E2E2E2E2E2E2E2E2E2E2E2E2E2E2E2E2E2E2E2E2E2E2E2E2E2E2E2E2E2E2E2E2E2E2E2E2E2E2E2E2E2E2E2E2E2E2E2E2E2E2E2E2E2E2E2E2E2E2E2E2E2E2E2E2E2E2E2E2E2F5E2E2E2E2E2E2E2E2E2E2E2E2E2E2E2E2F5E2E2E2F5
310
F5E2E2E2F5E2E2E2E2E2E2E2E2E2E2E2E2E2E2E2E2F5E2E2E2E2E2E2E2E2E2E2E2E2E2E2E2E2E2E2E2E2E2E2E2E2E2E2E2E2E2E2E2E2E2E2E2E2E2E2E2E2E2E2E2E2E2E2E2E2E2E2E2E2E2E2E2E2E2E2E2E2E2E2E2E2E2E2E2E2E2E2E2E2E2E2E2E2E2E2E2E2E2E2E2E2E2E2E2E2E2E2E2E2E2E2E2E2E2E2E2E2E2E2E2E2E2
310
E2E2E2E2E2E2E2E2E2E2E2E2E2E2E2E2E2E2E2E2E2E2E2E2E2E2E2E2E2E2E2F5E2E2E2E2E2E2E2E2E2E2E2E2E2E2E2E2F5E2E2E2F5F5E2E2E2F5E2E2E2E2E2E2E2E2E2E2E2E2E2E2E2E2F5E2E2E2E2E2E2E2E2E2E2E2E2E2E2E2E2E2E2E2E2E2E2E2E2E2E2E2E2E2E2E2E2E2E2E2E2E2E2E2E2E2E2E2E2E2E2E2E2E2E2E2E2
310
E2E2E2E2E2E2E2E2E2E2E2E2E2E2E2E2E2E2E2E2E2E2E2E2E2E2E2E2E2E2E2E2E2E2E2E2E2E2E2E2E2E2E2E2E2E2E2E2E2E2E2E2E2E2E2E2E2E2E2E2E2E2E2E2E2E2E2E2E2E2E2E2E2E2E2E2E2E2E2E2E2E2E2E2F5E2E2E2E2E2E2E2E2E2E2E2E2E2E2E2E2F5E2E2E2F5F5E2E2E2F5E2E2E2E2E2E2E2E2E2E2E2E2E2E2E2E2
310
F5E2E2E2E2E2E2E2E2E2E2E2E2E2E2E2E2E2E2E2E2E2E2E2E2E2E2E2E2E2E2E2E2E2E2E2E2E2E2E2E2E2E2E2E2E2E2E2E2E2E2E2E2E2E2E2E2E2E2E2E2E2E2E2E2E2E2E2E2E2E2E2E2E2E2E2E2E2E2E2E2E2E2E2E2E2E2E2E2E2E2E2E2E2E2E2E2E2E2E2E2E2E2E2E2E2E2E2E2E2E2E2E2E2E2E2E2E2E2E2E2E2E2E2E2E2E2
310
E2E2E2E2E2E2E2E2E2E2F5E2E2E2E2E2E2E2E2E2E2E2E2E2E2E2E2F5E2E2E2F5F5E2E2E2F5E2E2E2E2E2E2E2E2E2E2E2E2E2E2E2E2F5E2E2E2E2E2E2E2E2E2E2E2E2E2E2E2E2E2E2E2E2E2E2E2E2E2E2E2E2E2E2E2E2E2E2E2E2E2E2E2E2E2E2E2E2E2E2E2E2E2E2E2E2E2E2E2E2E2E2E2E2E2E2E2E2E2E2E2E2E2E2E2E2E2
310
E2E2E2E2E2E2E2E2E2E2E2E2E2E2E2E2E2E2E2E2E2E2E2E2E2E2E2E2E2E2E2E2E2E2E2E2E2E2E2E2E2E2E2E2E2E2E2E2E2E2E2E2E2E2E2E2E2E2E2E2E2E2E2F5E2E2E2E2E2E2E2E2E2E2E2E2E2E2E2E2F5E2E2E2F5F5E2E2E2F5E2E2E2E2E2E2E2E2E2E2E2E2E2E2E2E2F5E2E2E2E2E2E2E2E2E2E2E2E2E2E2E2E2E2E2E2E2
310
E2E2E2E2E2E2E2E2E2E2E2E2E2E2E2E2E2E2E2E2E2E2E2E2E2E2E2E2E2E2E2E2E2E2E2E2E2E2E2E2E2E2E2E2E2E2E2E2E2E2E2E2E2E2E2E2E2E2E2E2E2E2E2E2E2E2E2E2E2E2E2E2E2E2E2E2E2E2E2E2E2E2E2E2E2E2E2E2E2E2E2E2E2E2E2E2E2E2E2E2E2E2E2E2E2E2E2E2E2E2E2E2E2E2E2E2F5E2E2E2E2E2E2E2E2E2E2
310
E2E2E2E2E2E2F5E2E2E2F5F5E2E2E2F5E2E2E2E2E2E2E2E2E2E2E2E2E2E2E2E2F5E2E2E2E2E2E2E2E2E2E2E2E2E2E2E2E2E2E2E2E2E2E2E2E2E2E2E2E2E2E2E2E2E2E2E2E2E2E2E2E2E2E2E2E2E2E2E2E2E2E2E2E2E2E2E2E2E2E2E2E2E2E2E2E2E2E2E2E2E2E2E2E2E2E2E2E2E2E2E2E2E2E2E2E2E2E2E2E2E2E2E2E2E2E2
310
E2E2E2E2E2E2E2E2E2E2E2E2E2E2E2E2E2E2E2E2E2E2E2E2E2E2E2E2E2E2E2E2E2E2E2E2E2E2E2E2E2E2F5E2E2E2E2E2E2E2E2E2E2E2E2E2E2E2E2F5E2E2E2F5F5E2E2E2E2E2E2E2E2E2E2E2E2E2E2E2E2E2E2E2E2F5E2E2E2E2E2E2E2E2E2E2E2E2E2E2E2E2E2E2E2E2E2E2E2E2E2E2E2E2E2E2E2E2E2E2E2E2E2E2E2E2E2
310
E2E2E2E2E2E2E2E2E2E2E2E2E2E2E2E2E2E2E2E2E2E2E2E2E2E2E2E2E2E2E2E2E2E2E2E2E2E2E2E2E2E2E2E2E2E2E2E2E2E2E2E2E2E2E2E2E2E2E2E2E2E2E2E2E2E2E2E2E2E2E2E2E2E2E2E2E2E2E2E2E2E2E2E2E2E2E2E2E2E2E2E2E2E2E2F5E2E2E2E2E2E2E2E2E2E2E2E2E2E2E2E2E2E2E2E2F5F5E2E2E2E2E2E2E2E2E2
310
E2E2E2E2E2E2E2E2E2E2E2F5E2E2E2E2E2E2E2E2E2E2E2E2E2E2E2E2E2E2E2E2E2E2E2E2E2E2E2E2E2E2E2E2E2E2E2E2E2E2E2E2E2E2E2E2E2E2E2E2E2E2E2E2E2E2E2E2E2E2E2E2E2E2E2E2E2E2E2E2E2E2E2E2E2E2E2E2E2E2E2E2E2E2E2E2E2E2E2E2E2E2E2E2E2E2E2E2E2E2E2E2E2E2E2E2E2E2E2E2E2E2E2E2E2E2E2
310
E2E2E2E2E2E2E2E2E2E2E2E2E2E2E2E2E2E2E2E2E2F5E2E2E2E2E2E2E2E2E2E2E2E2E2E2E2E2E2E2E2E2F5F5E2E2E2E2E2E2E2E2E2E2E2E2E2E2E2E2E2E2E2E2F5E2E2E2E2E2E2E2E2E2E2E2E2E2E2E2E2E2E2E2E2E2E2E2E2E2E2E2E2E2E2E2E2E2E2E2E2E2E2E2E2E2E2E2E2E2E2E2E2E2E2E2E2E2E2E2E2E2E2E2E2E2E2
310
E2E2E2E2E2E2E2E2E2E2E2E2E2E2E2E2E2E2E2E2E2E2E2E2E2E2E2E2E2E2E2E2E2E2E2E2E2E2E2E2E2E2E2E2E2E2E2E2E2E2E2E2E2E2E2E2E2E2E2E2E2E2E2E2E2E2E2E2E2E2E2E2E2E2F5E2E2E2E2E2E2E2E2E2E2E2E2E2E2E2E2E2E2E2E2F5F5E2E2E2E2E2E2E2E2E2E2E2E2E2E2E2E2E2E2E2E2F5E2E2E2E2E2E2E2E2E2
310
E2E2E2E2E2E2E2E2E2E2E2E2E2E2E2E2E2E2E2E2E2E2E2E2E2E2E2E2E2E2E2E2E2E2E2E2E2E2E2E2E2E2E2E2E2E2E2E2E2E2E2E2E2E2E2E2E2E2E2E2E2E2E2E2E2E2E2E2E2E2E2E2E2E2E2E2E2E2E2E2E2E2E2E2E2E2E2E2E2E2E2E2E2E2E2E2E2E2E2E2E2E2E2E2E2E2E2E2E2E2E2E2E2E2E2E2E2E2E2E2E2E2E2E2E2E2E2
310
F5E2E2E2E2E2E2E2E2E2E2E2E2E2E2E2E2E2E2E2E2F5F5E2E2E2E2E2E2E2E2E2E2E2E2E2E2E2E2E2E2E2E2F5E2E2E2E2E2E2E2E2E2E2E2E2E2E2E2E2E2E2E2E2E2E2E2E2E2E2E2E2E2E2E2E2E2E2E2E2E2E2E2E2E2E2E2E2E2E2E2E2E2E2E2E2E2E2E2E2E2E2E2E2E2E2E2E2E2E2E2E2E2E2E2E2E2E2E2E2E2E2E2E2E2E2E2
310
E2E2E2E2E2E2E2E2E2E2E2E2E2E2E2E2E2E2E2E2E2E2E2E2E2E2E2E2E2E2E2E2E2E2E2E2E2E2E2E2E2E2E2E2E2E2E2E2E2E2E2E2E2F5E2E2E2E2E2E2E2E2E2E2E2E2E2E2E2E2E2E2E2E2F5F5E2E2E2E2E2E2E2E2E2E2E2E2E2E2E2E2E2E2E2E2F5E2E2E2E2E2E2E2E2E2E2E2E2E2E2E2E2E2E2E2E2E2E2E2E2E2E2E2E2E2E2
310
E2E2E2E2E2E2E2E2E2E2E2E2E2E2E2E2E2E2E2E2E2E2E2E2E2E2E2E2E2E2E2E2E2E2E2E2E2E2E2E2E2E2E2E2E2E2E2E2E2E2E2E2E2E2E2E2E2E2E2E2E2E2E2E2E2E2E2E2E2E2E2E2E2E2E2E2E2E2E2E2E2E2E2E2E2E2E2E2E2E2E2E2E2E2E2E2E2E2E2E2E2E2E2E2E2E2F5E2E2E2E2E2E2E2E2E2E2E2E2E2E2E2E2E2E2E2E2
310
F5F5E2E2E2E2E2E2E2E2E2E2E2E2E2E2E2E2E2E2E2E2F5E2E2E2E2E2E2E2E2E2E2E2E2E2E2E2E2E2E2E2E2E2E2E2E2E2E2E2E2E2E2E2E2E2E2E2E2E2E2E2E2E2E2E2E2E2E2E2E2E2E2E2E2E2E2E2E2E2E2E2E2E2E2E2E2E2E2E2E2E2E2E2E2E2E2E2E2E2E2E2E2E2E2E2E2E2E2E2E2E2E2E2E2E2E2E2E2E2E2E2E2E2E2E2E2
310
E2E2E2E2E2E2E2E2E2E2E2E2E2E2E2E2E2E2E2E2E2E2E2E2E2E2E2E2E2E2E2E2F5E2E2E2E2E2E2E2E2E2E2E2E2E2E2E2E2E2E2E2E2F5F5E2E2E2E2E2E2E2E2E2E2E2E2E2E2E2E2E2E2E2E2F5E2E2E2E2E2E2E2E2E2E2E2E2E2E2E2E2E2E2E2E2E2E2E2E2E2E2E2E2E2E2E2E2E2E2E2E2E2E2E2E2E2E2E2E2E2E2E2E2E2E2E2
310
E2E2E2E2E2E2E2E2E2E2E2E2E2E2E2E2E2E2E2E2E2E2E2E2E2E2E2E2E2E2E2E2E2E2E2E2E2E2E2E2E2E2E2E2E2E2E2E2E2E2E2E2E2E2E2E2E2E2E2E2E2E2E2E2E2E2E2E2E2E2E2E2E2E2E2E2E2E2E2E2E2E2E2E2E2F5E2E2E2E2E2E2E2E2E2E2E2E2E2E2E2E2E2E2E2E2F5F5E2E2E2E2E2E2E2E2E2E2E2E2E2E2E2E2E2E2E2
310
E2F5E2E2E2E2E2E2E2E2E2E2E2E2E2E2E2E2E2E2E2E2E2E2E2E2E2E2E2E2E2E2E2E2E2E2E2E2E2E2E2E2E2E2E2E2E2E2E2E2E2E2E2E2E2E2E2E2E2E2E2E2E2E2E2E2E2E2E2E2E2E2E2E2E2E2E2E2E2E2E2E2E2E2E2E2E2E2E2E2E2E2E2E2E2E2E2E2E2E2E2E2E2E2E2E2E2E2E2E2E2E2E2E2E2E2E2E2E2E2E2E2E2E2E2E2E2
310
E2E2E2E2E2E2E2E2E2E2E2F5E2E2E2E2E2E2E2E2E2E2E2E2E2E2E2E2E2E2E2E2F5F5E2E2E2E2E2E2E2E2E2E2E2E2E2E2E2E2E2E2E2E2F5E2E2E2E2E2E2E2E2E2E2E2E2E2E2E2E2E2E2E2E2E2E2E2E2E2E2E2E2E2E2E2E2E2E2E2E2E2E2E2E2E2E2E2E2E2E2E2E2E2E2E2E2E2E2E2E2E2E2E2E2E2E2E2E2E2E2E2E2E2E2E2E2
310
E2E2E2E2E2E2E2E2E2E2E2E2E2E2E2E2E2E2E2E2E2E2E2E2E2E2E2E2E2E2E2E2E2E2E2E2E2E2E2E2E2E2E2E2E2E2E2E2E2E2E2E2E2E2E2E2E2E2E2E2E2E2E2E2F5E2E2E2E2E2E2E2E2E2E2E2E2E2E2E2E2E2E2E2E2F5F5E2E2E2F5E2E2E2E2E2E2E2E2E2E2E2E2E2E2E2E2F5E2E2E2E2E2E2E2E2E2E2E2E2E2E2E2E2E2E2E2
310
E2E2E2E2E2E2E2E2E2E2E2E2E2E2E2E2E2E2E2E2E2E2E2E2E2E2E2E2E2E2E2E2E2E2E2E2E2E2E2E2E2E2E2E2E2E2E2E2E2E2E2E2E2E2E2E2E2E2E2E2E2E2E2E2E2E2E2E2E2E2E2E2E2E2E2E2E2E2E2E2E2E2E2E2E2E2E2E2E2E2E2E2E2E2E2E2E2E2E2E2E2E2E2E2E2E2E2E2E2E2E2E2E2E2E2E2E2F5E2E2E2E2E2E2E2E2E2
310
E2E2E2E2E2E2E2F5E2E2E2F5F5E2E2E2F5E2E2E2E2E2E2E2E2E2E2E2E2E2E2E2E2F5E2E2E2E2E2E2E2E2E2E2E2E2E2E2E2E2E2E2E2E2E2E2E2E2E2E2E2E2E2E2E2E2E2E2E2E2E2E2E2E2E2E2E2E2E2E2E2E2E2E2E2E2E2E2E2E2E2E2E2E2E2E2E2E2E2E2E2E2E2E2E2E2E2E2E2E2E2E2E2E2E2E2E2E2E2E2E2E2E2E2E2E2E2
310
E2E2E2E2E2E2E2E2E2E2E2E2E2E2E2E2E2E2E2E2E2E2E2E2E2E2E2E2E2E2E2E2E2E2E2E2E2E2E2E2E2E2E2F5E2E2E2E2E2E2E2E2E2E2E2E2E2E2E2E2F5E2E2E2F5F5E2E2E2F5E2E2E2E2E2E2E2E2E2E2E2E2E2E2E2E2F5E2E2E2E2E2E2E2E2E2E2E2E2E2E2E2E2E2E2E2E2E2E2E2E2E2E2E2E2E2E2E2E2E2E2E2E2E2E2E2E2
310
E2E2E2E2E2E2E2E2E2E2E2E2E2E2E2E2E2E2E2E2E2E2E2E2E2E2E2E2E2E2E2E2E2E2E2E2E2E2E2E2E2E2E2E2E2E2E2E2E2E2E2E2E2E2E2E2E2E2E2E2E2E2E2E2E2E2E2E2E2E2E2E2E2E2E2E2E2E2E2E2E2E2E2E2E2E2E2E2E2E2E2E2E2E2E2E2F5E2E2E2E2E2E2E2E2E2E2E2E2E2E2E2E2F5E2E2E2F5F5E2E2E2F5E2E2E2E2
310
E2E2E2E2E2E2E2E2E2E2E2E2F5E2E2E2E2E2E2E2E2E2E2E2E2E2E2E2E2E2E2E2E2E2E2E2E2E2E2E2E2E2E2E2E2E2E2E2E2E2E2E2E2E2E2E2E2E2E2E2E2E2E2E2E2E2E2E2E2E2E2E2E2E2E2E2E2E2E2E2E2E2E2E2E2E2E2E2E2E2E2E2E2E2E2E2E2E2E2E2E2E2E2E2E2E2E2E2E2E2E2E2E2E2E2E2E2E2E2E2E2E2E2E2E2E2E2
310
E2E2E2E2E2E2E2E2E2E2E2E2E2E2E2E2E2E2E2E2E2E2F5E2E2E2E2E2E2E2E2E2E2E2E2E2E2E2E2F5E2E2E2F5F5E2E2E2F5E2E2E2E2E2E2E2E2E2E2E2E2E2E2E2E2F5E2E2E2E2E2E2E2E2E2E2E2E2E2E2E2E2E2E2E2E2E2E2E2E2E2E2E2E2E2E2E2E2E2E2E2E2E2E2E2E2E2E2E2E2E2E2E2E2E2E2E2E2E2E2E2E2E2E2E2E2E2
310
E2E2E2E2E2E2E2E2E2E2E2E2E2E2E2E2E2E2E2E2E2E2E2E2E2E2E2E2E2E2E2E2E2E2E2E2E2E2E2E2E2E2E2E2E2E2E2E2E2E2E2E2E2E2E2E2E2E2E2E2E2E2E2E2E2E2E2E2E2E2E2E2E2E2E2F5E2E2E2E2E2E2E2E2E2E2E2E2E2E2E2E2F5E2E2E2F5F5E2E2E2F5E2E2E2E2E2E2E2E2E2E2E2E2E2E2E2E2F5E2E2E2E2E2E2E2E2
310
E2E2E2E2E2E2E2E2E2E2E2E2E2E2E2E2E2E2E2E2E2E2E2E2E2E2E2E2E2E2E2E2E2E2E2E2E2E2E2E2E2E2E2E2E2E2E2E2E2E2E2E2E2E2E2E2E2E2E2E2E2E2E2E2E2E2E2E2E2E2E2E2E2E2E2E2E2E2E2E2E2E2E2E2E2E2E2E2E2E2E2E2E2E2E2E2E2E2E2E2E2E2E2E2E2E2E2E2E2E2E2E2E2E2E2E2E2E2E2E2E2E2E2E2E2E2E2
310
E2F5E2E2E2E2E2E2E2E2E2E2E2E2E2E2E2E2F5E2E2E2F5F5E2E2E2F5E2E2E2E2E2E2E2E2E2E2E2E2E2E2E2E2F5E2E2E2E2E2E2E2E2E2E2E2E2E2E2E2E2E2E2E2E2E2E2E2E2E2E2E2E2E2E2E2E2E2E2E2E2E2E2E2E2E2E2E2E2E2E2E2E2E2E2E2E2E2E2E2E2E2E2E2E2E2E2E2E2E2E2E2E2E2E2E2E2E2E2E2E2E2E2E2E2E2E2
310
E2E2E2E2E2E2E2E2E2E2E2E2E2E2E2E2E2E2E2E2E2E2E2E2E2E2E2E2E2E2E2E2E2E2E2E2E2E2E2E2E2E2E2E2E2E2E2E2E2E2E2E2E2E2F5E2E2E2E2E2E2E2E2E2E2E2E2E2E2E2E2F5E2E2E2F5F5E2E2E2F5E2E2E2E2E2E2E2E2E2E2E2E2E2E2E2E2F5E2E2E2E2E2E2E2E2E2E2E2E2E2E2E2E2E2E2E2E2E2E2E2E2E2E2E2E2E2
310
E2E2E2E2E2E2E2E2E2E2E2E2E2E2E2E2E2E2E2E2E2E2E2E2E2E2E2E2E2E2E2E2E2E2E2E2E2E2E2E2E2E2E2E2E2E2E2E2E2E2E2E2E2E2E2E2E2E2E2E2E2E2E2E2E2E2E2E2E2E2E2E2E2E2E2E2E2E2E2E2E2E2E2E2E2E2E2E2E2E2E2E2E2E2E2E2E2E2E2E2E2E2E2E2E2E2E2F5E2E2E2E2E2E2E2E2E2E2E2E2E2E2E2E2F5E2E2
310
E2F5F5E2E2E2F5E2E2E2E2E2E2E2E2E2E2E2E2E2E2E2E2F5E2E2E2E2E2E2E2E2E2E2E2E2E2E2E2E2E2E2E2E2E2E2E2E2E2E2E2E2E2E2E2E2E2E2E2E2E2E2E2E2E2E2E2E2E2E2E2E2E2E2E2E2E2E2E2E2E2E2E2E2E2E2E2E2E2E2E2E2E2E2E2E2E2E2E2E2E2E2E2E2E2E2E2E2E2E2E2E2E2E2E2E2E2E2E2E2E2E2E2E2E2E2E2
310
E2E2E2E2E2E2E2E2E2E2E2E2E2E2E2E2E2E2E2E2E2E2E2E2E2E2E2E2E2E2E2E2E2F5E2E2E2E2E2E2E2E2E2E2E2E2E2E2E2E2F5E2E2E2F5F5E2E2E2F5E2E2E2E2E2E2E2E2E2E2E2E2E2E2E2E2F5E2E2E2E2E2E2E2E2E2E2E2E2E2E2E2E2E2E2E2E2E2E2E2E2E2E2E2E2E2E2E2E2E2E2E2E2E2E2E2E2E2E2E2E2E2E2E2E2E2E2
310
E2E2E2E2E2E2E2E2E2E2E2E2E2E2E2E2E2E2E2E2E2E2E2E2E2E2E2E2E2E2E2E2E2E2E2E2E2E2E2E2E2E2E2E2E2E2E2E2E2E2E2E2E2E2E2E2E2E2E2E2E2E2E2E2E2E2E2E2E2E2E2E2E2E2E2E2E2E2E2E2E2E2E2E2E2E2F5E2E2E2E2E2E2E2E2E2E2E2E2E2E2E2E2F5E2E2E2F5F5E2E2E2F5E2E2E2E2E2E2E2E2E2E2E2E2E2E2
310
E2E2F5E2E2E2E2E2E2E2E2E2E2E2E2E2E2E2E2E2E2E2E2E2E2E2E2E2E2E2E2E2E2E2E2E2E2E2E2E2E2E2E2E2E2E2E2E2E2E2E2E2E2E2E2E2E2E2E2E2E2E2E2E2E2E2E2E2E2E2E2E2E2E2E2E2E2E2E2E2E2E2E2E2E2E2E2E2E2E2E2E2E2E2E2E2E2E2E2E2E2E2E2E2E2E2E2E2E2E2E2E2E2E2E2E2E2E2E2E2E2E2E2E2E2E2E2
310
E2E2E2E2E2E2E2E2E2E2E2E2F5E2E2E2E2E2E2E2E2E2E2E2E2E2E2E2E2F5E2E2E2F5F5E2E2E2F5E2E2E2E2E2E2E2E2E2E2E2E2E2E2E2E2F5E2E2E2E2E2E2E2E2E2E2E2E2E2E2E2E2E2E2E2E2E2E2E2E2E2E2E2E2E2E2E2E2E2E2E2E2E2E2E2E2E2E2E2E2E2E2E2E2E2E2E2E2E2E2E2E2E2E2E2E2E2E2E2E2E2E2E2E2E2E2E2
310
E2E2E2E2E2E2E2E2E2E2E2E2E2E2E2E2E2E2E2E2E2E2E2E2E2E2E2E2E2E2E2E2E2E2E2E2E2E2E2E2E2E2E2E2E2E2E2E2E2E2E2E2E2E2E2E2E2E2E2E2E2E2E2E2E2F5E2E2E2E2E2E2E2E2E2E2E2E2E2E2E2E2F5E2E2E2F5F5E2E2E2F5E2E2E2E2E2E2E2E2E2E2E2E2E2E2E2E2F5E2E2E2E2E2E2E2E2E2E2E2E2E2E2E2E2E2E2
310
E2E2E2E2E2E2E2E2E2E2E2E2E2E2E2E2E2E2E2E2E2E2E2E2E2E2E2E2E2E2E2E2E2E2E2E2E2E2E2E2E2E2E2E2E2E2E2E2E2E2E2E2E2E2E2E2E2E2E2E2E2E2E2E2E2E2E2E2E2E2E2E2E2E2E2E2E2E2E2E2E2E2E2E2E2E2E2E2E2E2E2E2E2E2E2E2E2E2E2E2E2E2E2E2E2E2E2E2E2E2E2E2E2E2E2E2E2E2F5E2E2E2E2E2E2E2E2
310
E2E2E2E2E2E2E2E2F5E2E2E2F5F5E2E2E2F5E2E2E2E2E2E2E2E2E2E2E2E2E2E2E2E2F5E2E2E2E2E2E2E2E2E2E2E2E2E2E2E2E2E2E2E2E2E2E2E2E2E2E2E2E2E2E2E2E2E2E2E2E2E2E2E2E2E2E2E2E2E2E2E2E2E2E2E2E2E2E2E2E2E2E2E2E2E2E2E2E2E2E2E2E2E2E2E2E2E2E2E2E2E2E2E2E2E2E2E2E2E2E2E2E2E2E2E2E2
310
E2E2E2E2E2E2E2E2E2E2E2E2E2E2E2E2E2E2E2E2E2E2E2E2E2E2E2E2E2E2E2E2E2E2E2E2E2E2E2E2E2E2E2E2F5E2E2E2E2E2E2E2E2E2E2E2E2E2E2E2E2F5E2E2E2F5F5E2E2E2F5E2E2E2E2E2E2E2E2E2E2E2E2E2E2E2E2F5E2E2E2E2E2E2E2E2E2E2E2E2E2E2E2E2E2E2E2E2E2E2E2E2E2E2E2E2E2E2E2E2E2E2E2E2E2E2E2
310
E2E2E2E2E2E2E2E2E2E2E2E2E2E2E2E2E2E2E2E2E2E2E2E2E2E2E2E2E2E2E2E2E2E2E2E2E2E2E2E2E2E2E2E2E2E2E2E2E2E2E2E2E2E2E2E2E2E2E2E2E2E2E2E2E2E2E2E2E2E2E2E2E2E2E2E2E2E2E2E2E2E2E2E2E2E2E2E2E2E2E2E2E2E2E2E2E2F5E2E2E2E2E2E2E2E2E2E2E2E2E2E2E2E2F5E2E2E2F5F5E2E2E2F5E2E2E2
310
E2E2E2E2E2E2E2E2E2E2E2E2E2F5E2E2E2E2E2E2E2E2E2E2E2E2E2E2E2E2E2E2E2E2E2E2E2E2E2E2E2E2E2E2E2E2E2E2E2E2E2E2E2E2E2E2E2E2E2E2E2E2E2E2E2E2E2E2E2E2E2E2E2E2E2E2E2E2E2E2E2E2E2E2E2E2E2E2E2E2E2E2E2E2E2E2E2E2E2E2E2E2E2E2E2E2E2E2E2E2E2E2E2E2E2E2E2E2E2E2E2E2E2E2E2E2E2
310
E2E2E2E2E2E2E2E2E2E2E2E2E2E2E2E2E2E2E2E2E2E2E2F5E2E2E2E2E2E2E2E2E2E2E2E2E2E2E2E2F5E2E2E2F5F5E2E2E2E2E2E2E2E2E2E2E2E2E2E2E2E2E2E2E2E2F5E2E2E2E2E2E2E2E2E2E2E2E2E2E2E2E2E2E2E2E2E2E2E2E2E2E2E2E2E2E2E2E2E2E2E2E2E2E2E2E2E2E2E2E2E2E2E2E2E2E2E2E2E2E2E2E2E2E2E2E2
310
E2E2E2E2E2E2E2E2E2E2E2E2E2E2E2E2E2E2E2E2E2E2E2E2E2E2E2E2E2E2E2E2E2E2E2E2E2E2E2E2E2E2E2E2E2E2E2E2E2E2E2E2E2E2E2E2E2E2E2E2E2E2E2E2E2E2E2E2E2E2E2E2E2E2E2E2F5E2E2E2E2E2E2E2E2E2E2E2E2E2E2E2E2E2E2E2E2F5F5E2E2E2E2E2E2E2E2E2E2E2E2E2E2E2E2E2E2E2E2F5E2E2E2E2E2E2E2
310
E2E2E2E2E2E2E2E2E2E2E2E2E2E2E2E2E2E2E2E2E2E2E2E2E2E2E2E2E2E2E2E2E2E2E2E2E2E2E2E2E2E2E2E2E2E2E2E2E2E2E2E2E2E2E2E2E2E2E2E2E2E2E2E2E2E2E2E2E2E2E2E2E2E2E2E2E2E2E2E2E2E2E2E2E2E2E2E2E2E2E2E2E2E2E2E2E2E2E2E2E2E2E2E2E2E2E2E2E2E2E2E2E2E2E2E2E2E2E2E2E2E2E2E2E2E2E2
310
E2E2F5E2E2E2E2E2E2E2E2E2E2E2E2E2E2E2E2E2E2E2E2F5F5E2E2E2E2E2E2E2E2E2E2E2E2E2E2E2E2E2E2E2E2F5E2E2E2E2E2E2E2E2E2E2E2E2E2E2E2E2E2E2E2E2E2E2E2E2E2E2E2E2E2E2E2E2E2E2E2E2E2E2E2E2E2E2E2E2E2E2E2E2E2E2E2E2E2E2E2E2E2E2E2E2E2E2E2E2E2E2E2E2E2E2E2E2E2E2E2E2E2E2E2E2E2
310
E2E2E2E2E2E2E2E2E2E2E2E2E2E2E2E2E2E2E2E2E2E2E2E2E2E2E2E2E2E2E2E2E2E2E2E2E2E2E2E2E2E2E2E2E2E2E2E2E2E2E2E2E2E2E2F5E2E2E2E2E2E2E2E2E2E2E2E2E2E2E2E2E2E2E2E2F5F5E2E2E2E2E2E2E2E2E2E2E2E2E2E2E2E2E2E2E2E2F5E2E2E2E2E2E2E2E2E2E2E2E2E2E2E2E2E2E2E2E2E2E2E2E2E2E2E2E2
310
E2E2E2E2E2E2E2E2E2E2E2E2E2E2E2E2E2E2E2E2E2E2E2E2E2E2E2E2E2E2E2E2E2E2E2E2E2E2E2E2E2E2E2E2E2E2E2E2E2E2E2E2E2E2E2E2E2E2E2E2E2E2E2E2E2E2E2E2E2E2E2E2E2E2E2E2E2E2E2E2E2E2E2E2E2E2E2E2E2E2E2E2E2E2E2E2E2E2E2E2E2E2E2E2E2E2E2E2F5E2E2E2E2E2E2E2E2E2E2E2E2E2E2E2E2E2E2
310
E2E2F5F5E2E2E2E2E2E2E2E2E2E2E2E2E2E2E2E2E2E2E2E2F5E2E2E2E2E2E2E2E2E2E2E2E2E2E2E2E2E2E2E2E2E2E2E2E2E2E2E2E2E2E2E2E2E2E2E2E2E2E2E2E2E2E2E2E2E2E2E2E2E2E2E2E2E2E2E2E2E2E2E2E2E2E2E2E2E2E2E2E2E2E2E2E2E2E2E2E2E2E2E2E2E2E2E2E2E2E2E2E2E2E2E2E2E2E2E2E2E2E2E2E2E2E2
310
E2E2E2E2E2E2E2E2E2E2E2E2E2E2E2E2E2E2E2E2E2E2E2E2E2E2E2E2E2E2E2E2E2E2F5E2E2E2E2E2E2E2E2E2E2E2E2E2E2E2E2E2E2E2E2F5F5E2E2E2E2E2E2E2E2E2E2E2E2E2E2E2E2E2E2E2E2F5E2E2E2E2E2E2E2E2E2E2E2E2E2E2E2E2E2E2E2E2E2E2E2E2E2E2E2E2E2E2E2E2E2E2E2E2E2E2E2E2E2E2E2E2E2E2E2E2E2
310
E2E2E2E2E2E2E2E2E2E2E2E2E2E2E2E2E2E2E2E2E2E2E2E2E2E2E2E2E2E2E2E2E2E2E2E2E2E2E2E2E2E2E2E2E2E2E2E2E2E2E2E2E2E2E2E2E2E2E2E2E2E2E2E2E2E2E2E2E2E2E2E2E2E2E2E2E2E2E2E2E2E2E2E2E2E2E2F5E2E2E2E2E2E2E2E2E2E2E2E2E2E2E2E2E2E2E2E2F5F5E2E2E2E2E2E2E2E2E2E2E2E2E2E2E2E2E2
310
E2E2E2F5E2E2E2E2E2E2E2E2E2E2E2E2E2E2E2E2E2E2E2E2E2E2E2E2E2E2E2E2E2E2E2E2E2E2E2E2E2E2E2E2E2E2E2E2E2E2E2E2E2E2E2E2E2E2E2E2E2E2E2E2E2E2E2E2E2E2E2E2E2E2E2E2E2E2E2E2E2E2E2E2E2E2E2E2E2E2E2E2E2E2E2E2E2E2E2E2E2E2E2E2E2E2E2E2E2E2E2E2E2E2E2E2E2E2E2E2E2E2E2E2E2E2E2
310
E2E2E2E2E2E2E2E2E2E2E2E2E2F5E2E2E2E2E2E2E2E2E2E2E2E2E2E2E2E2E2E2E2E2F5F5E2E2E2E2E2E2E2E2E2E2E2E2E2E2E2E2E2E2E2E2F5E2E2E2E2E2E2E2E2E2E2E2E2E2E2E2E2E2E2E2E2E2E2E2E2E2E2E2E2E2E2E2E2E2E2E2E2E2E2E2E2E2E2E2E2E2E2E2E2E2E2E2E2E2E2E2E2E2E2E2E2E2E2E2E2E2E2E2E2E2E2
310
E2E2E2E2E2E2E2E2E2E2E2E2E2E2E2E2E2E2E2E2E2E2E2E2E2E2E2E2E2E2E2E2E2E2E2E2E2E2E2E2E2E2E2E2E2E2E2E2E2E2E2E2E2E2E2E2E2E2E2E2E2E2E2E2E2E2F5E2E2E2E2E2E2E2E2E2E2E2E2E2E2E2E2E2E2E2E2F5F5E2E2E2E2E2E2E2E2E2E2E2E2E2E2E2E2E2E2E2E2F5E2E2E2E2E2E2E2E2E2E2E2E2E2E2E2E2E2
310
E2E2E2E2E2E2E2E2E2E2E2E2E2E2E2E2E2E2E2E2E2E2E2E2E2E2E2E2E2E2E2E2E2E2E2E2E2E2E2E2E2E2E2E2E2E2E2E2E2E2E2E2E2E2E2E2E2E2E2E2E2E2E2E2E2E2E2E2E2E2E2E2E2E2E2E2E2E2E2E2E2E2E2E2E2E2E2E2E2E2E2E2E2E2E2E2E2E2E2E2E2E2E2E2E2E2E2E2E2E2E2E2E2E2E2E2E2E2E2F5E2E2E2E2E2E2E2
310
E2E2E2E2E2E2E2E2E2E2E2E2E2F5F5E2E2E2F5E2E2E2E2E2E2E2E2E2E2E2E2E2E2E2E2F5E2E2E2E2E2E2E2E2E2E2E2E2E2E2E2E2E2E2E2E2E2E2E2E2E2E2E2E2E2E2E2E2E2E2E2E2E2E2E2E2E2E2E2E2E2E2E2E2E2E2E2E2E2E2E2E2E2E2E2E2E2E2E2E2E2E2E2E2E2E2E2E2E2E2E2E2E2E2E2E2E2E2E2E2E2E2E2E2E2E2E2
310
E2E2E2E2E2E2E2E2E2E2E2E2E2E2E2E2E2E2E2E2E2E2E2E2E2E2E2E2E2E2E2E2E2E2E2E2E2E2E2E2E2E2E2E2E2F5E2E2E2E2E2E2E2E2E2E2E2E2E2E2E2E2F5E2E2E2F5F5E2E2E2F5E2E2E2E2E2E2E2E2E2E2E2E2E2E2E2E2F5E2E2E2E2E2E2E2E2E2E2E2E2E2E2E2E2E2E2E2E2E2E2E2E2E2E2E2E2E2E2E2E2E2E2E2E2E2E2
310
E2E2E2E2E2E2E2E2E2E2E2E2E2E2E2E2E2E2E2E2E2E2E2E2E2E2E2E2E2E2E2E2E2E2E2E2E2E2E2E2E2E2E2E2E2E2E2E2E2E2E2E2E2E2E2E2E2E2E2E2E2E2E2E2E2E2E2E2E2E2E2E2E2E2E2E2E2E2E2E2E2E2E2E2E2E2E2E2E2E2E2E2E2E2E2E2E2E2F5E2E2E2E2E2E2E2E2E2E2E2E2E2E2E2E2F5E2E2E2F5F5E2E2E2F5E2E2
310
E2E2E2E2E2E2E2E2E2E2E2E2E2E2F5E2E2E2E2E2E2E2E2E2E2E2E2E2E2E2E2E2E2E2E2E2E2E2E2E2E2E2E2E2E2E2E2E2E2E2E2E2E2E2E2E2E2E2E2E2E2E2E2E2E2E2E2E2E2E2E2E2E2E2E2E2E2E2E2E2E2E2E2E2E2E2E2E2E2E2E2E2E2E2E2E2E2E2E2E2E2E2E2E2E2E2E2E2E2E2E2E2E2E2E2E2E2E2E2E2E2E2E2E2E2E2E2
310
E2E2E2E2E2E2E2E2E2E2E2E2E2E2E2E2E2E2E2E2E2E2E2E2F5E2E2E2E2E2E2E2E2E2E2E2E2E2E2E2E2F5E2E2E2F5F5E2E2E2F5E2E2E2E2E2E2E2E2E2E2E2E2E2E2E2E2F5E2E2E2E2E2E2E2E2E2E2E2E2E2E2E2E2E2E2E2E2E2E2E2E2E2E2E2E2E2E2E2E2E2E2E2E2E2E2E2E2E2E2E2E2E2E2E2E2E2E2E2E2E2E2E2E2E2E2E2
310
E2E2E2E2E2E2E2E2E2E2E2E2E2E2E2E2E2E2E2E2E2E2E2E2E2E2E2E2E2E2E2E2E2E2E2E2E2E2E2E2E2E2E2E2E2E2E2E2E2E2E2E2E2E2E2E2E2E2E2E2E2E2E2E2E2E2E2E2E2E2E2E2E2E2E2E2E2F5E2E2E2E2E2E2E2E2E2E2E2E2E2E2E2E2F5E2E2E2F5F5E2E2E2F5E2E2E2E2E2E2E2E2E2E2E2E2E2E2E2E2F5E2E2E2E2E2E2
310
E2E2E2E2E2E2E2E2E2E2E2E2E2E2E2E2E2E2E2E2E2E2E2E2E2E2E2E2E2E2E2E2E2E2E2E2E2E2E2E2E2E2E2E2E2E2E2E2E2E2E2E2E2E2E2E2E2E2E2E2E2E2E2E2E2E2E2E2E2E2E2E2E2E2E2E2E2E2E2E2E2E2E2E2E2E2E2E2E2E2E2E2E2E2E2E2E2E2E2E2E2E2E2E2E2E2E2E2E2E2E2E2E2E2E2E2E2E2E2E2E2E2E2E2E2E2E2
310
E2E2E2F5E2E2E2E2E2E2E2E2E2E2E2E2E2E2E2E2F5E2E2E2F5F5E2E2E2F5E2E2E2E2E2E2E2E2E2E2E2E2E2E2E2E2F5E2E2E2E2E2E2E2E2E2E2E2E2E2E2E2E2E2E2E2E2E2E2E2E2E2E2E2E2E2E2E2E2E2E2E2E2E2E2E2E2E2E2E2E2E2E2E2E2E2E2E2E2E2E2E2E2E2E2E2E2E2E2E2E2E2E2E2E2E2E2E2E2E2E2E2E2E2E2E2E2
310
E2E2E2E2E2E2E2E2E2E2E2E2E2E2E2E2E2E2E2E2E2E2E2E2E2E2E2E2E2E2E2E2E2E2E2E2E2E2E2E2E2E2E2E2E2E2E2E2E2E2E2E2E2E2E2E2F5E2E2E2E2E2E2E2E2E2E2E2E2E2E2E2E2F5E2E2E2F5F5E2E2E2F5E2E2E2E2E2E2E2E2E2E2E2E2E2E2E2E2F5E2E2E2E2E2E2E2E2E2E2E2E2E2E2E2E2E2E2E2E2E2E2E2E2E2E2E2
310
E2E2E2E2E2E2E2E2E2E2E2E2E2E2E2E2E2E2E2E2E2E2E2E2E2E2E2E2E2E2E2E2E2E2E2E2E2E2E2E2E2E2E2E2E2E2E2E2E2E2E2E2E2E2E2E2E2E2E2E2E2E2E2E2E2E2E2E2E2E2E2E2E2E2E2E2E2E2E2E2E2E2E2E2E2E2E2E2E2E2E2E2E2E2E2E2E2E2E2E2E2E2E2E2E2E2E2E2E2F5E2E2E2E2E2E2E2E2E2E2E2E2E2E2E2E2F5
310
E2E2E2F5F5E2E2E2F5E2E2E2E2E2E2E2E2E2E2E2E2E2E2E2E2F5E2E2E2E2E2E2E2E2E2E2E2E2E2E2E2E2E2E2E2E2E2E2E2E2E2E2E2E2E2E2E2E2E2E2E2E2E2E2E2E2E2E2E2E2E2E2E2E2E2E2E2E2E2E2E2E2E2E2E2E2E2E2E2E2E2E2E2E2E2E2E2E2E2E2E2E2E2E2E2E2E2E2E2E2E2E2E2E2E2E2E2E2E2E2E2E2E2E2E2E2E2
310
E2E2E2E2E2E2E2E2E2E2E2E2E2E2E2E2E2E2E2E2E2E2E2E2E2E2E2E2E2E2E2E2E2E2E2F5E2E2E2E2E2E2E2E2E2E2E2E2E2E2E2E2F5E2E2E2F5F5E2E2E2F5E2E2E2E2E2E2E2E2E2E2E2E2E2E2E2E2F5E2E2E2E2E2E2E2E2E2E2E2E2E2E2E2E2E2E2E2E2E2E2E2E2E2E2E2E2E2E2E2E2E2E2E2E2E2E2E2E2E2E2E2E2E2E2E2E2
310
E2E2E2E2E2E2E2E2E2E2E2E2E2E2E2E2E2E2E2E2E2E2E2E2E2E2E2E2E2E2E2E2E2E2E2E2E2E2E2E2E2E2E2E2E2E2E2E2E2E2E2E2E2E2E2E2E2E2E2E2E2E2E2E2E2E2E2E2E2E2E2E2E2E2E2E2E2E2E2E2E2E2E2E2E2E2E2E2F5E2E2E2E2E2E2E2E2E2E2E2E2E2E2E2E2F5E2E2E2F5F5E2E2E2F5E2E2E2E2E2E2E2E2E2E2E2E2
310
E2E2E2E2F5E2E2E2E2E2E2E2E2E2E2E2E2E2E2E2E2E2E2E2E2E2E2E2E2E2E2E2E2E2E2E2E2E2E2E2E2E2E2E2E2E2E2E2E2E2E2E2E2E2E2E2E2E2E2E2E2E2E2E2E2E2E2E2E2E2E2E2E2E2E2E2E2E2E2E2E2E2E2E2E2E2E2E2E2E2E2E2E2E2E2E2E2E2E2E2E2E2E2E2E2E2E2E2E2E2E2E2E2E2E2E2E2E2E2E2E2E2E2E2E2E2E2
310
E2E2E2E2E2E2E2E2E2E2E2E2E2E2F5E2E2E2E2E2E2E2E2E2E2E2E2E2E2E2E2F5E2E2E2F5F5E2E2E2F5E2E2E2E2E2E2E2E2E2E2E2E2E2E2E2E2F5E2E2E2E2E2E2E2E2E2E2E2E2E2E2E2E2E2E2E2E2E2E2E2E2E2E2E2E2E2E2E2E2E2E2E2E2E2E2E2E2E2E2E2E2E2E2E2E2E2E2E2E2E2E2E2E2E2E2E2E2E2E2E2E2E2E2E2E2E2
310
E2E2E2E2E2E2E2E2E2E2E2E2E2E2E2E2E2E2E2E2E2E2E2E2E2E2E2E2E2E2E2E2E2E2E2E2E2E2E2E2E2E2E2E2E2E2E2E2E2E2E2E2E2E2E2E2E2E2E2E2E2E2E2E2E2E2E2F5E2E2E2E2E2E2E2E2E2E2E2E2E2E2E2E2F5E2E2E2F5F5E2E2E2F5E2E2E2E2E2E2E2E2E2E2E2E2E2E2E2E2F5E2E2E2E2E2E2E2E2E2E2E2E2E2E2E2E2
310
E2E2E2E2E2E2E2E2E2E2E2E2E2E2E2E2E2E2E2E2E2E2E2E2E2E2E2E2E2E2E2E2E2E2E2E2E2E2E2E2E2E2E2E2E2E2E2E2E2E2E2E2E2E2E2E2E2E2E2E2E2E2E2E2E2E2E2E2E2E2E2E2E2E2E2E2E2E2E2E2E2E2E2E2E2E2E2E2E2E2E2E2E2E2E2E2E2E2E2E2E2E2E2E2E2E2E2E2E2E2E2E2E2E2E2E2E2E2E2E2F5E2E2E2E2E2E2
310
E2E2E2E2E2E2E2E2E2E2F5E2E2E2F5F5E2E2E2F5E2E2E2E2E2E2E2E2E2E2E2E2E2E2E2E2F5E2E2E2E2E2E2E2E2E2E2E2E2E2E2E2E2E2E2E2E2E2E2E2E2E2E2E2E2E2E2E2E2E2E2E2E2E2E2E2E2E2E2E2E2E2E2E2E2E2E2E2E2E2E2E2E2E2E2E2E2E2E2E2E2E2E2E2E2E2E2E2E2E2E2E2E2E2E2E2E2E2E2E2E2E2E2E2E2E2E2
310
E2E2E2E2E2E2E2E2E2E2E2E2E2E2E2E2E2E2E2E2E2E2E2E2E2E2E2E2E2E2E2E2E2E2E2E2E2E2E2E2E2E2E2E2E2E2F5E2E2E2E2E2E2E2E2E2E2E2E2E2E2E2E2F5E2E2E2F5F5E2E2E2F5E2E2E2E2E2E2E2E2E2E2E2E2E2E2E2E2F5E2E2E2E2E2E2E2E2E2E2E2E2E2E2E2E2E2E2E2E2E2E2E2E2E2E2E2E2E2E2E2E2E2E2E2E2E2
310
E2E2E2E2E2E2E2E2E2E2E2E2E2E2E2E2E2E2E2E2E2E2E2E2E2E2E2E2E2E2E2E2E2E2E2E2E2E2E2E2E2E2E2E2E2E2E2E2E2E2E2E2E2E2E2E2E2E2E2E2E2E2E2E2E2E2E2E2E2E2E2E2E2E2E2E2E2E2E2E2E2E2E2E2E2E2E2E2E2E2E2E2E2E2E2E2E2E2E2F5E2E2E2E2E2E2E2E2E2E2E2E2E2E2E2E2F5E2E2E2F5F5E2E2E2F5E2
310
E2E2E2E2E2E2E2E2E2E2E2E2E2E2E2F5E2E2E2E2E2E2E2E2E2E2E2E2E2E2E2E2E2E2E2E2E2E2E2E2E2E2E2E2E2E2E2E2E2E2E2E2E2E2E2E2E2E2E2E2E2E2E2E2E2E2E2E2E2E2E2E2E2E2E2E2E2E2E2E2E2E2E2E2E2E2E2E2E2E2E2E2E2E2E2E2E2E2E2E2E2E2E2E2E2E2E2E2E2E2E2E2E2E2E2E2E2E2E2E2E2E2E2E2E2E2E2
310
E2E2E2E2E2E2E2E2E2E2E2E2E2E2E2E2E2E2E2E2E2E2E2E2E2F5E2E2E2E2E2E2E2E2E2E2E2E2E2E2E2E2F5E2E2E2F5F5E2E2E2F5E2E2E2E2E2E2E2E2E2E2E2E2E2E2E2E2F5E2E2E2E2E2E2E2E2E2E2E2E2E2E2E2E2E2E2E2E2E2E2E2E2E2E2E2E2E2E2E2E2E2E2E2E2E2E2E2E2E2E2E2E2E2E2E2E2E2E2E2E2E2E2E2E2E2E2
310
E2E2E2E2E2E2E2E2E2E2E2E2E2E2E2E2E2E2E2E2E2E2E2E2E2E2E2E2E2E2E2E2E2E2E2E2E2E2E2E2E2E2E2E2E2E2E2E2E2E2E2E2E2E2E2E2E2E2E2E2E2E2E2E2E2E2E2E2E2E2E2E2E2E2E2E2E2E2F5E2E2E2E2E2E2E2E2E2E2E2E2E2E2E2E2F5E2E2E2F5F5E2E2E2F5E2E2E2E2E2E2E2E2E2E2E2E2E2E2E2E2F5E2E2E2E2E2
310
E2E2E2E2E2E2E2E2E2E2E2E2E2E2E2E2E2E2E2E2E2E2E2E2E2E2E2E2E2E2E2E2E2E2E2E2E2E2E2E2E2E2E2E2E2E2E2E2E2E2E2E2E2E2E2E2E2E2E2E2E2E2E2E2E2E2E2E2E2E2E2E2E2E2E2E2E2E2E2E2E2E2E2E2E2E2E2E2E2E2E2E2E2E2E2E2E2E2E2E2E2E2E2E2E2E2E2E2E2E2E2E2E2E2E2E2E2E2E2E2E2E2E2E2E2E2E2
310
E2E2E2E2F5E2E2E2E2E2E2E2E2E2E2E2E2E2E2E2E2F5E2E2E2F5F5E2E2E2E2E2E2E2E2E2E2E2E2E2E2E2E2E2E2E2E2F5E2E2E2E2E2E2E2E2E2E2E2E2E2E2E2E2E2E2E2E2E2E2E2E2E2E2E2E2E2E2E2E2E2E2E2E2E2E2E2E2E2E2E2E2E2E2E2E2E2E2E2E2E2E2E2E2E2E2E2E2E2E2E2E2E2E2E2E2E2E2E2E2E2E2E2E2E2E2E2
310
E2E2E2E2E2E2E2E2E2E2E2E2E2E2E2E2E2E2E2E2E2E2E2E2E2E2E2E2E2E2E2E2E2E2E2E2E2E2E2E2E2E2E2E2E2E2E2E2E2E2E2E2E2E2E2E2E2F5E2E2E2E2E2E2E2E2E2E2E2E2E2E2E2E2E2E2E2E2F5F5E2E2E2E2E2E2E2E2E2E2E2E2E2E2E2E2E2E2E2E2F5E2E2E2E2E2E2E2E2E2E2E2E2E2E2E2E2E2E2E2E2E2E2E2E2E2E2
310
E2E2E2E2E2E2E2E2E2E2E2E2E2E2E2E2E2E2E2E2E2E2E2E2E2E2E2E2E2E2E2E2E2E2E2E2E2E2E2E2E2E2E2E2E2E2E2E2E2E2E2E2E2E2E2E2E2E2E2E2E2E2E2E2E2E2E2E2E2E2E2E2E2E2E2E2E2E2E2E2E2E2E2E2E2E2E2E2E2E2E2E2E2E2E2E2E2E2E2E2E2E2E2E2E2E2E2E2E2E2F5E2E2E2E2E2E2E2E2E2E2E2E2E2E2E2E2
310
E2E2E2E2F5F5E2E2E2E2E2E2E2E2E2E2E2E2E2E2E2E2E2E2E2E2F5E2E2E2E2E2E2E2E2E2E2E2E2E2E2E2E2E2E2E2E2E2E2E2E2E2E2E2E2E2E2E2E2E2E2E2E2E2E2E2E2E2E2E2E2E2E2E2E2E2E2E2E2E2E2E2E2E2E2E2E2E2E2E2E2E2E2E2E2E2E2E2E2E2E2E2E2E2E2E2E2E2E2E2E2E2E2E2E2E2E2E2E2E2E2E2E2E2E2E2E2
310
E2E2E2E2E2E2E2E2E2E2E2E2E2E2E2E2E2E2E2E2E2E2E2E2E2E2E2E2E2E2E2E2E2E2E2E2F5E2E2E2E2E2E2E2E2E2E2E2E2E2E2E2E2E2E2E2E2F5F5E2E2E2E2E2E2E2E2E2E2E2E2E2E2E2E2E2E2E2E2F5E2E2E2E2E2E2E2E2E2E2E2E2E2E2E2E2E2E2E2E2E2E2E2E2E2E2E2E2E2E2E2E2E2E2E2E2E2E2E2E2E2E2E2E2E2E2E2
310
E2E2E2E2E2E2E2E2E2E2E2E2E2E2E2E2E2E2E2E2E2E2E2E2E2E2E2E2E2E2E2E2E2E2E2E2E2E2E2E2E2E2E2E2E2E2E2E2E2E2E2E2E2E2E2E2E2E2E2E2E2E2E2E2E2E2E2E2E2E2E2E2E2E2E2E2E2E2E2E2E2E2E2E2E2E2E2E2E2F5E2E2E2E2E2E2E2E2E2E2E2E2E2E2E2E2E2E2E2E2F5F5E2E2E2E2E2E2E2E2E2E2E2E2E2E2E2
310
E2E2E2E2E2F5F5F5F5F5F5F5F5F5F5F5F5F5F5F5F5F5F5F5F5F5F5F5F5F5F5F5F5F5F5F5F5F5F5F5F5F5F5F5F5F5F5F5F5F5F5F5F5F5F5F5F5F5F5F5F5F5F5F5F5F5F5F5F5F5F5F5F5F5F5F5F5F5F5F5F5F5F5F5F5F5F5F5F5F5F5F5F5F5F5F5F5F5F5F5F5F5F5F5F5F5F5F5F5F5F5F5F5F5F5F5F5F5F5F5F5F5F5F5F5F5F5
310
F5F5F5F5F5F5F5F5F5F5F5F5F5F5F5F5E2E2E2E2E2E2E2E2E2E2E2E2E2E2E2E2E2E2E2E2F5F5E2E2E2E2E2E2E2E2E2E2E2E2E2E2E2E2E2E2E2E2E2E2E2E2E2E2E2E2E2E2E2E2E2E2E2E2E2E2E2E2E2E2E2E2E2E2E2E2E2E2E2E2E2E2E2E2E2E2E2E2E2E2E2E2E2E2E2E2E2E2E2E2E2E2E2E2E2E2E2E2E2E2E2E2E2E2E2E2E2
310
E2E2E2E2E2E2E2E2E2E2E2E2E2E2E2E2E2E2E2E2E2E2E2E2E2E2E2E2E2E2E2E2E2E2E2E2E2E2E2E2E2E2E2E2E2E2E2E2E2E2E2E2E2E2E2E2E2E2E2E2E2E2E2E2E2E2E2E2E2E2E2E2E2E2E2E2E2E2E2E2E2E2E2E2E2E2E2E2E2F5F5E2E2E2E2E2E2E2E2E2E2E2E2E2E2E2E2E2E2E2E2E2E2E2E2E2E2E2E2E2E2E2E2E2E2E2E2
310
E2E2E2E2E2E2E2E2E2E2E2E2E2E2E2E2E2E2E2E2E2E2E2E2E2E2E2E2E2E2E2E2E2E2E2E2E2E2E2E2E2E2E2E2E2E2E2E2E2E2E2E2E2E2E2E2E2E2E2E2E2E2E2E2E2E2E2E2E2E2E2E2E2E2E2E2E2E2E2E2E2E2E2E2E2E2E2E2E2E2E2E2E2E2E2E2E2E2E2E2E2E2E2E2E2E2E2E2E2E2E2E2E2E2E2E2E2E2E2E2E2E2E2E2E2E2E2
310
E2E2E2E2E2E2E2E2E2E2E2E2E2E2E2F5F5E2E2E2E2E2E2E2E2E2E2E2E2E2E2E2E2E2E2E2E2E2E2E2E2E2E2E2E2E2E2E2E2E2E2E2E2E2E2E2E2E2E2E2E2E2E2E2E2E2E2E2E2E2E2E2E2E2E2E2E2E2E2E2E2E2E2E2E2E2E2E2E2E2E2E2E2E2E2E2E2E2E2E2E2E2E2E2E2E2E2E2E2E2E2E2E2E2E2E2E2E2E2E2E2E2E2E2E2E2E2
310
E2E2E2E2E2E2E2E2E2E2E2E2E2E2E2E2E2E2E2E2E2E2E2E2E2E2E2E2E2E2E2E2E2E2E2E2E2E2E2E2E2E2E2E2E2E2E2E2E2E2E2E2E2E2E2E2E2E2E2E2E2E2E2E2E2E2E2E2F5F5E2E2E2E2E2E2E2E2E2E2E2E2E2E2E2E2E2E2E2E2E2E2E2E2E2E2E2E2E2E2E2E2E2E2E2E2E2E2E2E2E2E2E2E2E2E2E2E2E2E2E2E2E2E2E2E2E2
310
E2E2E2E2E2E2E2E2E2E2E2E2E2E2E2E2E2E2E2E2E2E2E2E2E2E2E2E2E2E2E2E2E2E2E2E2E2E2E2E2E2E2E2E2E2E2E2E2E2E2E2E2E2E2E2E2E2E2E2E2E2E2E2E2E2E2E2E2E2E2E2E2E2E2E2E2E2E2E2E2E2E2E2E2E2E2E2E2E2E2E2E2E2E2E2E2E2E2E2E2E2E2E2E2E2E2E2E2E2E2E2E2E2E2E2E2E2E2E2E2E2F5F5E2E2E2F5
310
E2E2E2E2E2E2E2E2E2E2E2E2E2E2E2E2E2E2E2E2E2E2E2E2E2E2E2E2E2E2E2E2E2E2E2E2E2E2E2E2E2E2E2E2E2E2E2E2E2E2E2E2E2E2E2E2E2E2E2E2E2E2E2E2E2E2E2E2E2E2E2E2E2E2E2E2E2E2E2E2E2E2E2E2E2E2E2E2E2E2E2E2E2E2E2E2E2E2E2E2E2E2E2E2E2E2E2E2E2E2E2E2E2E2E2E2E2E2E2E2E2E2E2E2E2E2E2
310
E2E2E2E2E2E2E2E2E2E2E2E2E2E2E2E2E2E2E2E2E2E2E2E2E2E2E2E2E2E2E2E2E2E2E2E2E2E2E2E2E2E2E2F5E2E2E2F5F5E2E2E2F5E2E2E2E2E2E2E2E2E2E2E2E2E2E2E2E2E2E2E2E2E2E2E2E2E2E2E2E2E2E2E2E2E2E2E2E2E2E2E2E2E2E2E2E2E2E2E2E2E2E2E2E2E2E2E2E2E2E2E2E2E2E2E2E2E2E2E2E2E2E2E2E2E2E2
310
E2E2E2E2E2E2E2E2E2E2E2E2E2E2E2E2E2E2E2E2E2E2E2E2E2E2E2E2E2E2E2E2E2E2E2E2E2E2E2E2E2E2E2E2E2E2E2E2E2E2E2E2E2E2E2E2E2E2E2E2E2E2E2E2E2E2E2E2E2E2E2E2E2E2E2E2E2E2E2E2E2E2E2E2E2E2E2E2E2E2E2E2E2E2E2E2F5E2E2E2F5F5E2E2E2F5E2E2E2E2E2E2E2E2E2E2E2E2E2E2E2E2E2E2E2E2E2
310
E2E2E2E2E2E2E2E2E2E2E2E2E2E2E2E2E2E2E2E2E2E2E2E2E2E2E2E2E2E2E2E2E2E2E2E2E2E2E2E2E2E2E2E2E2E2E2E2E2E2E2E2E2E2E2E2E2E2E2E2E2E2E2E2E2E2E2E2E2E2E2E2E2E2E2E2E2E2E2E2E2E2E2E2E2E2E2E2E2E2E2E2E2E2E2E2E2E2E2E2E2E2E2E2E2E2E2E2E2E2E2E2E2E2E2E2E2E2E2E2E2E2E2E2E2E2E2
310
E2E2E2E2E2E2E2E2E2E2E2E2E2E2E2E2E2E2E2E2E2E2F5E2E2E2F5F5E2E2E2F5E2E2E2E2E2E2E2E2E2E2E2E2E2E2E2E2E2E2E2E2E2E2E2E2E2E2E2E2E2E2E2E2E2E2E2E2E2E2E2E2E2E2E2E2E2E2E2E2E2E2E2E2E2E2E2E2E2E2E2E2E2E2E2E2E2E2E2E2E2E2E2E2E2E2E2E2E2E2E2E2E2E2E2E2E2E2E2E2E2E2E2E2E2E2E2
310
E2E2E2E2E2E2E2E2E2E2E2E2E2E2E2E2E2E2E2E2E2E2E2E2E2E2E2E2E2E2E2E2E2E2E2E2E2E2E2E2E2E2E2E2E2E2E2E2E2E2E2E2E2E2E2E2E2E2E2E2E2E2E2E2E2E2E2E2E2E2E2E2E2E2E2F5E2E2E2F5F5E2E2E2F5E2E2E2E2E2E2E2E2E2E2E2E2E2E2E2E2E2E2E2E2E2E2E2E2E2E2E2E2E2E2E2E2E2E2E2E2E2E2E2E2E2E2
310
E2E2E2E2E2E2E2E2E2E2E2E2E2E2E2E2E2E2E2E2E2E2E2E2E2E2E2E2E2E2E2E2E2E2E2E2E2E2E2E2E2E2E2E2E2E2E2E2E2E2E2E2E2E2E2E2E2E2E2E2E2E2E2E2E2E2E2E2E2E2E2E2E2E2E2E2E2E2E2E2E2E2E2E2E2E2E2E2E2E2E2E2E2E2E2E2E2E2E2E2E2E2E2E2E2E2E2E2E2E2E2E2E2E2E2E2E2E2E2E2E2E2E2E2E2E2E2
310
E2F5E2E2E2F5F5E2E2E2F5E2E2E2E2E2E2E2E2E2E2E2E2E2E2E2E2E2E2E2E2E2E2E2E2E2E2E2E2E2E2E2E2E2E2E2E2E2E2E2E2E2E2E2E2E2E2E2E2E2E2E2E2E2E2E2E2E2E2E2E2E2E2E2E2E2E2E2E2E2E2E2E2E2E2E2E2E2E2E2E2E2E2E2E2E2E2E2E2E2E2E2E2E2E2E2E2E2E2E2E2E2E2E2E2E2E2E2E2E2E2E2E2E2E2E2E2
310
E2E2E2E2E2E2E2E2E2E2E2E2E2E2E2E2E2E2E2E2E2E2E2E2E2E2E2E2E2E2E2E2E2E2E2E2E2E2E2E2E2E2E2E2E2E2E2E2E2E2E2E2E2E2F5E2E2E2F5F5E2E2E2F5E2E2E2E2E2E2E2E2E2E2E2E2E2E2E2E2E2E2E2E2E2E2E2E2E2E2E2E2E2E2E2E2E2E2E2E2E2E2E2E2E2E2E2E2E2E2E2E2E2E2E2E2E2E2E2E2E2E2E2E2E2E2E2
310
E2E2E2E2E2E2E2E2E2E2E2E2E2E2E2E2E2E2E2E2E2E2E2E2E2E2E2E2E2E2E2E2E2E2E2E2E2E2E2E2E2E2E2E2E2E2E2E2E2E2E2E2E2E2E2E2E2E2E2E2E2E2E2E2E2E2E2E2E2E2E2E2E2E2E2E2E2E2E2E2E2E2E2E2E2E2E2E2E2E2E2E2E2E2E2E2E2E2E2E2E2E2E2E2E2E2E2F5E2E2E2F5F5E2E2E2F5E2E2E2E2E2E2E2E2E2E2
310
E2E2E2E2E2E2E2E2E2E2E2E2E2E2E2E2E2E2E2E2E2E2E2E2E2E2E2E2E2E2E2E2E2E2E2E2E2E2E2E2E2E2E2E2E2E2E2E2E2E2E2E2E2E2E2E2E2E2E2E2E2E2E2E2E2E2E2E2E2E2E2E2E2E2E2E2E2E2E2E2E2E2E2E2E2E2E2E2E2E2E2E2E2E2E2E2E2E2E2E2E2E2E2E2E2E2E2E2E2E2E2E2E2E2E2E2E2E2E2E2E2E2E2E2E2E2E2
310
E2E2E2E2E2E2E2E2E2E2E2E2E2E2E2E2E2E2E2E2E2E2E2E2E2E2E2E2E2E2E2E2E2F5E2E2E2F5F5E2E2E2F5F5F5F5F5F5F5F5E2E2E2E2E2E2E2E2E2F5F5F5F5F5F5F5F5F5F5F5F5F5F5F5F5E2E2E2E2E2E2E2E2E2F5F5F5F5F5F5F5F5F5F5F5F5F5F5F5E2E2E2E2E2E2E2E2E2F5F5F5F5F5F5F5F5F5F5F5F5F5F5F5F5E2E2E2
310
E2E2E2E2E2F5F5F5F5F5F5F5F5F5F5F5F5F5F5F5F5E2E2E2E2E2E2E2E2E2F5F5F5F5F5F5F5F5F5F5F5F5F5F5F5E2E2E2E2E2E2E2E2E2F5F5F5F5F5F5F5F5F5F5F5F5F5F5F5F5E2E2E2E2E2E2E2E2E2F5F5F5F5F5F5F5F5E2E2E2F5F5E2E2E2E2E2E2E2E2E2E2E2E2E2E2E2E2E2E2E2E2E2E2E2E2E2E2E2E2E2E2E2E2E2E2E2
310
E2E2E2E2E2E2E2E2E2E2E2E2E2E2E2E2E2E2E2E2E2E2E2E2E2E2E2E2E2E2E2E2E2E2E2E2E2E2E2E2E2E2E2E2E2E2E2E2E2E2E2E2E2E2E2E2E2E2E2E2E2E2E2E2E2E2E2E2E2E2E2E2E2E2E2E2E2E2E2E2E2E2E2E2E2E2E2E2E2E2E2E2E2E2E2E2E2E2E2E2E2E2E2E2E2E2E2E2E2E2E2E2E2E2E2E2E2E2E2E2E2E2E2E2E2E2E2
310
E2E2E2E2E2E2E2E2E2E2E2E2E2E2E2E2F5F5E2E2E2E2E2E2E2E2E2E2E2E2E2E2E2E2E2E2E2E2E2E2E2E2E2E2E2E2E2E2E2E2E2E2E2E2E2E2E2E2E2E2E2E2E2E2E2E2E2E2E2E2E2E2E2E2E2E2E2E2E2E2E2E2E2E2E2E2E2E2E2E2E2E2E2E2E2E2E2E2E2E2E2E2E2E2E2E2E2E2E2E2E2E2E2E2E2E2E2E2E2E2E2E2E2E2E2E2E2
310
E2E2E2E2E2E2E2E2E2E2E2E2E2E2E2E2E2E2E2E2E2E2E2E2E2E2E2E2E2E2E2E2E2E2E2E2E2E2E2E2E2E2E2E2E2E2E2E2E2E2E2E2E2E2E2E2E2E2E2E2E2E2E2E2E2E2E2E2E2F5F5E2E2E2E2E2E2E2E2E2E2E2E2E2E2E2E2E2E2E2E2E2E2E2E2E2E2E2E2E2E2E2E2E2E2E2E2E2E2E2E2E2E2E2E2E2E2E2E2E2E2E2E2E2E2E2E2
310
E2E2E2E2E2E2E2E2E2E2E2E2E2E2E2E2E2E2E2E2E2E2E2E2E2E2E2E2E2E2E2E2E2E2E2E2E2E2E2E2E2E2E2E2E2E2E2E2E2E2E2E2E2E2E2E2E2E2E2E2E2E2E2E2E2E2E2E2E2E2E2E2E2E2E2E2E2E2E2E2E2E2E2E2E2E2E2E2E2E2E2E2E2E2E2E2E2E2E2E2E2E2E2E2E2E2E2E2E2E2E2E2E2E2E2E2E2E2E2E2E2E2F5F5E2E2E2
310
E2E2E2E2E2E2E2E2E2E2E2E2E2E2E2E2E2E2E2E2E2E2E2E2E2E2E2E2E2E2E2E2E2E2E2E2E2E2E2E2E2E2E2E2E2E2E2E2E2E2E2E2E2E2E2E2E2E2E2E2E2E2E2E2E2E2E2E2E2E2E2E2E2E2E2E2E2E2E2E2E2E2E2E2E2E2E2E2E2E2E2E2E2E2E2E2E2E2E2E2E2E2E2E2E2E2E2E2E2E2E2E2E2E2E2E2E2E2E2E2E2E2E2E2E2E2E2
310
E2E2E2E2E2E2E2E2E2E2E2E2E2E2E2E2E2E2E2E2E2E2E2E2E2E2E2E2E2E2E2E2E2E2E2E2E2E2E2E2E2E2E2E2E2E2E2E2F5
  0
XRECORD
  5
6177F
102
{ACAD_REACTORS
330
6177E
102
}
330
6177E
100
AcDbXrecord
280
     1
102
SHADEPLOT
 70
     0
102
SHADEPLOTRESLEVEL
 70
     2
102
SHADEPLOTCUSTOMDPI
 70
   300
  0
ENDSEC
  0
EOF
