  0
SECTION
  2
HEADER
  9
$ACADVER
  1
AC1015
  9
$ACADMAINTVER
 70
    20
  9
$DWGCODEPAGE
  3
ANSI_932
  9
$INSBASE
 10
0.0
 20
0.0
 30
0.0
  9
$EXTMIN
 10
-30.8
 20
-46.5
 30
0.0
  9
$EXTMAX
 10
104.0724240824666
 20
89.99999999999998
 30
0.0
  9
$LIMMIN
 10
0.0
 20
0.0
  9
$LIMMAX
 10
420.0
 20
297.0
  9
$ORTHOMODE
 70
     0
  9
$REGENMODE
 70
     1
  9
$FILLMODE
 70
     1
  9
$QTEXTMODE
 70
     0
  9
$MIRRTEXT
 70
     1
  9
$LTSCALE
 40
1.0
  9
$ATTMODE
 70
     1
  9
$TEXTSIZE
 40
3.5
  9
$TRACEWID
 40
1.0
  9
$TEXTSTYLE
  7
simplex
  9
$CLAYER
  8
0
  9
$CELTYPE
  6
ByLayer
  9
$CECOLOR
 62
   256
  9
$CELTSCALE
 40
1.0
  9
$DISPSILH
 70
     0
  9
$DIMSCALE
 40
0.0
  9
$DIMASZ
 40
3.5
  9
$DIMEXO
 40
0.0
  9
$DIMDLI
 40
0.38
  9
$DIMRND
 40
0.0
  9
$DIMDLE
 40
0.0
  9
$DIMEXE
 40
1.5
  9
$DIMTP
 40
0.0
  9
$DIMTM
 40
0.0
  9
$DIMTXT
 40
3.5
  9
$DIMCEN
 40
0.09
  9
$DIMTSZ
 40
0.0
  9
$DIMTOL
 70
     0
  9
$DIMLIM
 70
     0
  9
$DIMTIH
 70
     0
  9
$DIMTOH
 70
     0
  9
$DIMSE1
 70
     0
  9
$DIMSE2
 70
     0
  9
$DIMTAD
 70
     1
  9
$DIMZIN
 70
     8
  9
$DIMBLK
  1

  9
$DIMASO
 70
     1
  9
$DIMSHO
 70
     1
  9
$DIMPOST
  1

  9
$DIMAPOST
  1

  9
$DIMALT
 70
     0
  9
$DIMALTD
 70
     2
  9
$DIMALTF
 40
25.4
  9
$DIMLFAC
 40
1.0
  9
$DIMTOFL
 70
     0
  9
$DIMTVP
 40
0.0
  9
$DIMTIX
 70
     0
  9
$DIMSOXD
 70
     0
  9
$DIMSAH
 70
     0
  9
$DIMBLK1
  1

  9
$DIMBLK2
  1

  9
$DIMSTYLE
  2
コピー - ISO-25
  9
$DIMCLRD
 70
   256
  9
$DIMCLRE
 70
   256
  9
$DIMCLRT
 70
   256
  9
$DIMTFAC
 40
1.0
  9
$DIMGAP
 40
2.299999999999998
  9
$DIMJUST
 70
     0
  9
$DIMSD1
 70
     0
  9
$DIMSD2
 70
     0
  9
$DIMTOLJ
 70
     1
  9
$DIMTZIN
 70
     8
  9
$DIMALTZ
 70
     0
  9
$DIMALTTZ
 70
     0
  9
$DIMUPT
 70
     0
  9
$DIMDEC
 70
     2
  9
$DIMTDEC
 70
     2
  9
$DIMALTU
 70
     2
  9
$DIMALTTD
 70
     2
  9
$DIMTXSTY
  7
simplex
  9
$DIMAUNIT
 70
     0
  9
$DIMADEC
 70
     0
  9
$DIMALTRND
 40
0.0
  9
$DIMAZIN
 70
     0
  9
$DIMDSEP
 70
    46
  9
$DIMATFIT
 70
     3
  9
$DIMFRAC
 70
     0
  9
$DIMLDRBLK
  1

  9
$DIMLUNIT
 70
     2
  9
$DIMLWD
 70
    -1
  9
$DIMLWE
 70
    -1
  9
$DIMTMOVE
 70
     0
  9
$LUNITS
 70
     2
  9
$LUPREC
 70
     4
  9
$SKETCHINC
 40
1.0
  9
$FILLETRAD
 40
0.8
  9
$AUNITS
 70
     0
  9
$AUPREC
 70
     0
  9
$MENU
  1
.
  9
$ELEVATION
 40
0.0
  9
$PELEVATION
 40
0.0
  9
$THICKNESS
 40
0.0
  9
$LIMCHECK
 70
     0
  9
$CHAMFERA
 40
10.0
  9
$CHAMFERB
 40
10.0
  9
$CHAMFERC
 40
20.0
  9
$CHAMFERD
 40
0.0
  9
$SKPOLY
 70
     0
  9
$TDCREATE
 40
2455489.391063368
  9
$TDUCREATE
 40
2455489.057730035
  9
$TDUPDATE
 40
2458925.708421204
  9
$TDUUPDATE
 40
2458925.375087870
  9
$TDINDWG
 40
2.581960822
  9
$TDUSRTIMER
 40
2.581908657
  9
$USRTIMER
 70
     1
  9
$ANGBASE
 50
0.0
  9
$ANGDIR
 70
     0
  9
$PDMODE
 70
     0
  9
$PDSIZE
 40
0.0
  9
$PLINEWID
 40
0.0
  9
$SPLFRAME
 70
     0
  9
$SPLINETYPE
 70
     6
  9
$SPLINESEGS
 70
     8
  9
$HANDSEED
  5
8B284
  9
$SURFTAB1
 70
     6
  9
$SURFTAB2
 70
     6
  9
$SURFTYPE
 70
     6
  9
$SURFU
 70
     6
  9
$SURFV
 70
     6
  9
$UCSBASE
  2

  9
$UCSNAME
  2

  9
$UCSORG
 10
0.0
 20
0.0
 30
0.0
  9
$UCSXDIR
 10
1.0
 20
0.0
 30
0.0
  9
$UCSYDIR
 10
0.0
 20
1.0
 30
0.0
  9
$UCSORTHOREF
  2

  9
$UCSORTHOVIEW
 70
     0
  9
$UCSORGTOP
 10
0.0
 20
0.0
 30
0.0
  9
$UCSORGBOTTOM
 10
0.0
 20
0.0
 30
0.0
  9
$UCSORGLEFT
 10
0.0
 20
0.0
 30
0.0
  9
$UCSORGRIGHT
 10
0.0
 20
0.0
 30
0.0
  9
$UCSORGFRONT
 10
0.0
 20
0.0
 30
0.0
  9
$UCSORGBACK
 10
0.0
 20
0.0
 30
0.0
  9
$PUCSBASE
  2

  9
$PUCSNAME
  2

  9
$PUCSORG
 10
0.0
 20
0.0
 30
0.0
  9
$PUCSXDIR
 10
1.0
 20
0.0
 30
0.0
  9
$PUCSYDIR
 10
0.0
 20
1.0
 30
0.0
  9
$PUCSORTHOREF
  2

  9
$PUCSORTHOVIEW
 70
     0
  9
$PUCSORGTOP
 10
0.0
 20
0.0
 30
0.0
  9
$PUCSORGBOTTOM
 10
0.0
 20
0.0
 30
0.0
  9
$PUCSORGLEFT
 10
0.0
 20
0.0
 30
0.0
  9
$PUCSORGRIGHT
 10
0.0
 20
0.0
 30
0.0
  9
$PUCSORGFRONT
 10
0.0
 20
0.0
 30
0.0
  9
$PUCSORGBACK
 10
0.0
 20
0.0
 30
0.0
  9
$USERI1
 70
     0
  9
$USERI2
 70
     0
  9
$USERI3
 70
     0
  9
$USERI4
 70
     0
  9
$USERI5
 70
     0
  9
$USERR1
 40
0.0
  9
$USERR2
 40
0.0
  9
$USERR3
 40
0.0
  9
$USERR4
 40
0.0
  9
$USERR5
 40
0.0
  9
$WORLDVIEW
 70
     1
  9
$SHADEDGE
 70
     3
  9
$SHADEDIF
 70
    70
  9
$TILEMODE
 70
     1
  9
$MAXACTVP
 70
    64
  9
$PINSBASE
 10
0.0
 20
0.0
 30
0.0
  9
$PLIMCHECK
 70
     0
  9
$PEXTMIN
 10
26.66999878883364
 20
20.31999878883365
 30
0.0
  9
$PEXTMAX
 10
240.0299890995025
 20
182.8799890995025
 30
0.0
  9
$PLIMMIN
 10
-6.350006103515625
 20
-6.349999904632567
  9
$PLIMMAX
 10
273.0499877929688
 20
209.5499939918518
  9
$UNITMODE
 70
     0
  9
$VISRETAIN
 70
     1
  9
$PLINEGEN
 70
     0
  9
$PSLTSCALE
 70
     1
  9
$TREEDEPTH
 70
  3020
  9
$CMLSTYLE
  2
Standard
  9
$CMLJUST
 70
     0
  9
$CMLSCALE
 40
20.0
  9
$PROXYGRAPHICS
 70
     1
  9
$MEASUREMENT
 70
     1
  9
$CELWEIGHT
370
    -1
  9
$ENDCAPS
280
     0
  9
$JOINSTYLE
280
     0
  9
$LWDISPLAY
290
     0
  9
$INSUNITS
 70
     4
  9
$HYPERLINKBASE
  1

  9
$STYLESHEET
  1

  9
$XEDIT
290
     1
  9
$CEPSNTYPE
380
     0
  9
$PSTYLEMODE
290
     1
  9
$FINGERPRINTGUID
  2
{CAD62C15-203F-406F-B417-562C8BFFB4B0}
  9
$VERSIONGUID
  2
{2AA3D39E-4F36-483E-AC88-233D313D5408}
  9
$EXTNAMES
290
     1
  9
$PSVPSCALE
 40
0.0
  9
$OLESTARTUP
290
     0
  0
ENDSEC
  0
SECTION
  2
CLASSES
  0
CLASS
  1
ACDBDICTIONARYWDFLT
  2
AcDbDictionaryWithDefault
  3
ObjectDBX Classes
 90
        0
280
     0
281
     0
  0
CLASS
  1
ACDBPLACEHOLDER
  2
AcDbPlaceHolder
  3
ObjectDBX Classes
 90
    32768
280
     0
281
     0
  0
CLASS
  1
LAYOUT
  2
AcDbLayout
  3
ObjectDBX Classes
 90
    32768
280
     0
281
     0
  0
CLASS
  1
DICTIONARYVAR
  2
AcDbDictionaryVar
  3
ObjectDBX Classes
 90
        0
280
     0
281
     0
  0
CLASS
  1
TABLESTYLE
  2
AcDbTableStyle
  3
ObjectDBX Classes
 90
     4095
280
     0
281
     0
  0
CLASS
  1
SORTENTSTABLE
  2
AcDbSortentsTable
  3
ObjectDBX Classes
 90
        0
280
     0
281
     0
  0
CLASS
  1
DIMASSOC
  2
AcDbDimAssoc
  3
"AcDbDimAssoc|Product Desc:     AcDim ARX App For Dimension|Company:          Autodesk, Inc.|WEB Address:      www.autodesk.com"
 90
    32768
280
     0
281
     0
  0
CLASS
  1
ACAD_EVALUATION_GRAPH
  2
AcDbEvalGraph
  3
ObjectDBX Classes
 90
    33921
280
     0
281
     0
  0
CLASS
  1
ACAECUSTOBJ
  2
AcAeEditorObj
  3
AcAeEditorObj
 90
    33792
280
     0
281
     0
  0
CLASS
  1
ACDB_DYNAMICBLOCKPURGEPREVENTER_VERSION
  2
AcDbDynamicBlockPurgePreventer
  3
ObjectDBX Classes
 90
    33921
280
     0
281
     0
  0
CLASS
  1
MATERIAL
  2
AcDbMaterial
  3
ObjectDBX Classes
 90
     1153
280
     0
281
     0
  0
CLASS
  1
VISUALSTYLE
  2
AcDbVisualStyle
  3
ObjectDBX Classes
 90
     4095
280
     0
281
     0
  0
CLASS
  1
SCALE
  2
AcDbScale
  3
ObjectDBX Classes
 90
     1153
280
     0
281
     0
  0
CLASS
  1
MLEADERSTYLE
  2
AcDbMLeaderStyle
  3
ACDB_MLEADERSTYLE_CLASS
 90
     4095
280
     0
281
     0
  0
CLASS
  1
ACDBSECTIONVIEWSTYLE
  2
AcDbSectionViewStyle
  3
ObjectDBX Classes
 90
     1025
280
     0
281
     0
  0
CLASS
  1
ACDBDETAILVIEWSTYLE
  2
AcDbDetailViewStyle
  3
ObjectDBX Classes
 90
     1025
280
     0
281
     0
  0
CLASS
  1
CELLSTYLEMAP
  2
AcDbCellStyleMap
  3
ObjectDBX Classes
 90
     1152
280
     0
281
     0
  0
CLASS
  1
ACDBPLACEHOLDER
  2
AcDbPlaceHolder
  3
ObjectDBX Classes
 90
    32768
280
     0
281
     0
  0
CLASS
  1
LAYOUT
  2
AcDbLayout
  3
ObjectDBX Classes
 90
    32768
280
     0
281
     0
  0
CLASS
  1
ACDBPLACEHOLDER
  2
AcDbPlaceHolder
  3
ObjectDBX Classes
 90
    32768
280
     0
281
     0
  0
CLASS
  1
LAYOUT
  2
AcDbLayout
  3
ObjectDBX Classes
 90
    32768
280
     0
281
     0
  0
CLASS
  1
ACDBPLACEHOLDER
  2
AcDbPlaceHolder
  3
ObjectDBX Classes
 90
    32768
280
     0
281
     0
  0
CLASS
  1
LAYOUT
  2
AcDbLayout
  3
ObjectDBX Classes
 90
    32768
280
     0
281
     0
  0
CLASS
  1
ACDBPLACEHOLDER
  2
AcDbPlaceHolder
  3
ObjectDBX Classes
 90
    32768
280
     0
281
     0
  0
CLASS
  1
LAYOUT
  2
AcDbLayout
  3
ObjectDBX Classes
 90
    32768
280
     0
281
     0
  0
CLASS
  1
ACDBPLACEHOLDER
  2
AcDbPlaceHolder
  3
ObjectDBX Classes
 90
    32768
280
     0
281
     0
  0
CLASS
  1
LAYOUT
  2
AcDbLayout
  3
ObjectDBX Classes
 90
    32768
280
     0
281
     0
  0
CLASS
  1
ACDBPLACEHOLDER
  2
AcDbPlaceHolder
  3
ObjectDBX Classes
 90
    32768
280
     0
281
     0
  0
CLASS
  1
LAYOUT
  2
AcDbLayout
  3
ObjectDBX Classes
 90
    32768
280
     0
281
     0
  0
CLASS
  1
ACDBPLACEHOLDER
  2
AcDbPlaceHolder
  3
ObjectDBX Classes
 90
        0
280
     0
281
     0
  0
CLASS
  1
LAYOUT
  2
AcDbLayout
  3
ObjectDBX Classes
 90
        0
280
     0
281
     0
  0
ENDSEC
  0
SECTION
  2
TABLES
  0
TABLE
  2
VPORT
  5
8
102
{ACAD_XDICTIONARY
360
87DC4
102
}
330
0
100
AcDbSymbolTable
 70
     1
  0
VPORT
  5
4A360
330
8
100
AcDbSymbolTableRecord
100
AcDbViewportTableRecord
  2
*Active
 70
     0
 10
0.0
 20
0.0
 11
1.0
 21
1.0
 12
38.70091629482744
 22
22.38024947821882
 13
0.0
 23
0.0
 14
1.0
 24
1.0
 15
1.0
 25
1.0
 16
0.0
 26
0.0
 36
1.0
 17
0.0
 27
0.0
 37
0.0
 40
169.7774218365547
 41
1.236547085201793
 42
50.0
 43
0.0
 44
0.0
 50
0.0
 51
0.0
 71
     0
 72
  1000
 73
     1
 74
     1
 75
     0
 76
     0
 77
     0
 78
     0
281
     0
 65
     1
110
0.0
120
0.0
130
0.0
111
1.0
121
0.0
131
0.0
112
0.0
122
1.0
132
0.0
 79
     0
146
0.0
1001
ACAD_NAV_VCDISPLAY
1070
     3
  0
ENDTAB
  0
TABLE
  2
LTYPE
  5
5
330
0
100
AcDbSymbolTable
 70
     3
  0
LTYPE
  5
14
330
5
100
AcDbSymbolTableRecord
100
AcDbLinetypeTableRecord
  2
ByBlock
 70
     0
  3

 72
    65
 73
     0
 40
0.0
  0
LTYPE
  5
15
330
5
100
AcDbSymbolTableRecord
100
AcDbLinetypeTableRecord
  2
ByLayer
 70
     0
  3

 72
    65
 73
     0
 40
0.0
  0
LTYPE
  5
16
330
5
100
AcDbSymbolTableRecord
100
AcDbLinetypeTableRecord
  2
Continuous
 70
     0
  3
Solid line
 72
    65
 73
     0
 40
0.0
  0
LTYPE
  5
4A76E
330
5
100
AcDbSymbolTableRecord
100
AcDbLinetypeTableRecord
  2
CENTER2
 70
     0
  3
Center (.5x) ___ _ ___ _ ___ _ ___ _ ___ _ ___
 72
    65
 73
     4
 40
28.575
 49
19.05
 74
     0
 49
-3.174999999999998
 74
     0
 49
3.174999999999998
 74
     0
 49
-3.174999999999998
 74
     0
  0
LTYPE
  5
87CBF
330
5
100
AcDbSymbolTableRecord
100
AcDbLinetypeTableRecord
  2
DASHED2
 70
     0
  3
Dashed (.5x) _ _ _ _ _ _ _ _ _ _ _ _ _ _ _ _ _ 
 72
    65
 73
     2
 40
9.524999999999996
 49
6.349999999999997
 74
     0
 49
-3.174999999999998
 74
     0
  0
ENDTAB
  0
TABLE
  2
LAYER
  5
2
102
{ACAD_XDICTIONARY
360
E2
102
}
330
0
100
AcDbSymbolTable
 70
    10
  0
LAYER
  5
10
102
{ACAD_XDICTIONARY
360
4A86C
102
}
330
2
100
AcDbSymbolTableRecord
100
AcDbLayerTableRecord
  2
0
 70
     0
 62
     7
  6
Continuous
370
    -3
390
F
  0
LAYER
  5
31B6
330
2
100
AcDbSymbolTableRecord
100
AcDbLayerTableRecord
  2
Defpoints
 70
     0
 62
     7
  6
Continuous
290
     0
370
    -3
390
F
  0
LAYER
  5
4A772
102
{ACAD_XDICTIONARY
360
4A773
102
}
330
2
100
AcDbSymbolTableRecord
100
AcDbLayerTableRecord
  2
1
 70
     0
 62
     4
  6
Continuous
370
    50
390
F
1001
AcAecLayerStandard
1000

1000
Contour
  0
LAYER
  5
4A774
102
{ACAD_XDICTIONARY
360
4A775
102
}
330
2
100
AcDbSymbolTableRecord
100
AcDbLayerTableRecord
  2
2
 70
     0
 62
     7
  6
Continuous
370
    25
390
F
1001
AcAecLayerStandard
1000

1000
Dimension milling
  0
LAYER
  5
4A776
102
{ACAD_XDICTIONARY
360
4A777
102
}
330
2
100
AcDbSymbolTableRecord
100
AcDbLayerTableRecord
  2
4
 70
     0
 62
     2
  6
CENTER2
370
    25
390
F
1001
AcAecLayerStandard
1000

1000
Center line
  0
LAYER
  5
4A778
102
{ACAD_XDICTIONARY
360
4A779
102
}
330
2
100
AcDbSymbolTableRecord
100
AcDbLayerTableRecord
  2
cut
 70
     0
 62
     1
  6
Continuous
370
    25
390
F
1001
AcAecLayerStandard
1000

1000
contour
  0
LAYER
  5
4A77A
102
{ACAD_XDICTIONARY
360
4A77B
102
}
330
2
100
AcDbSymbolTableRecord
100
AcDbLayerTableRecord
  2
nocut
 70
     0
 62
     7
  6
Continuous
370
    25
390
F
1001
AcAecLayerStandard
1000

1000
contour
  0
LAYER
  5
4A77E
102
{ACAD_XDICTIONARY
360
4A77F
102
}
330
2
100
AcDbSymbolTableRecord
100
AcDbLayerTableRecord
  2
sk2
 70
     0
 62
     7
  6
Continuous
370
    25
390
F
1001
AcAecLayerStandard
1000

1000
sk2 dimension
  0
LAYER
  5
4A782
102
{ACAD_XDICTIONARY
360
4A783
102
}
330
2
100
AcDbSymbolTableRecord
100
AcDbLayerTableRecord
  2
sk6
 70
     0
 62
     5
  6
Continuous
370
    35
390
F
1001
AcAecLayerStandard
1000

1000
sk6 text
  0
LAYER
  5
87CBE
330
2
100
AcDbSymbolTableRecord
100
AcDbLayerTableRecord
  2
sk3
 70
     0
 62
     1
  6
DASHED2
370
    35
390
F
1001
AcAecLayerStandard
1000

1000
sk4 center line
  0
ENDTAB
  0
TABLE
  2
STYLE
  5
3
330
0
100
AcDbSymbolTable
 70
     2
  0
STYLE
  5
11
330
3
100
AcDbSymbolTableRecord
100
AcDbTextStyleTableRecord
  2
Standard
 70
     0
 40
0.0
 41
1.0
 50
0.0
 71
     0
 42
2.5
  3
txt.shx
  4
@extfont2.shx
  0
STYLE
  5
24A
330
3
100
AcDbSymbolTableRecord
100
AcDbTextStyleTableRecord
  2
simplex
 70
     0
 40
3.5
 41
1.0
 50
0.0
 71
     0
 42
3.5
  3
txt.shx
  4

  0
ENDTAB
  0
TABLE
  2
VIEW
  5
6
330
0
100
AcDbSymbolTable
 70
     0
  0
ENDTAB
  0
TABLE
  2
UCS
  5
7
330
0
100
AcDbSymbolTable
 70
     0
  0
ENDTAB
  0
TABLE
  2
APPID
  5
9
330
0
100
AcDbSymbolTable
 70
    28
  0
APPID
  5
12
330
9
100
AcDbSymbolTableRecord
100
AcDbRegAppTableRecord
  2
ACAD
 70
     0
  0
APPID
  5
D2
330
9
100
AcDbSymbolTableRecord
100
AcDbRegAppTableRecord
  2
AcAecLayerStandard
 70
     0
  0
APPID
  5
E6
330
9
100
AcDbSymbolTableRecord
100
AcDbRegAppTableRecord
  2
ACAD_DSTYLE_DIMTEXT_FILL
 70
     0
  0
APPID
  5
4C84
330
9
100
AcDbSymbolTableRecord
100
AcDbRegAppTableRecord
  2
ACAD_EXEMPT_FROM_CAD_STANDARDS
 70
     0
  0
APPID
  5
3493E
330
9
100
AcDbSymbolTableRecord
100
AcDbRegAppTableRecord
  2
DCO15
 70
     0
  0
APPID
  5
3BAB0
330
9
100
AcDbSymbolTableRecord
100
AcDbRegAppTableRecord
  2
ACAD_DSTYLE_DIMEXT_ENABLED
 70
     0
  0
APPID
  5
3BAB1
330
9
100
AcDbSymbolTableRecord
100
AcDbRegAppTableRecord
  2
ACAD_DSTYLE_DIMEXT_LENGTH
 70
     0
  0
APPID
  5
3BEB4
330
9
100
AcDbSymbolTableRecord
100
AcDbRegAppTableRecord
  2
ACAUTHENVIRON
 70
     0
  0
APPID
  5
3BEB7
330
9
100
AcDbSymbolTableRecord
100
AcDbRegAppTableRecord
  2
AcDbDynamicBlockTrueName
 70
     0
  0
APPID
  5
3BEB8
330
9
100
AcDbSymbolTableRecord
100
AcDbRegAppTableRecord
  2
AcDbDynamicBlockGUID
 70
     0
  0
APPID
  5
3BEBA
330
9
100
AcDbSymbolTableRecord
100
AcDbRegAppTableRecord
  2
AcDbBlockRepETag
 70
     0
  0
APPID
  5
4A453
330
9
100
AcDbSymbolTableRecord
100
AcDbRegAppTableRecord
  2
ACAD_PSEXT
 70
     0
  0
APPID
  5
4A454
330
9
100
AcDbSymbolTableRecord
100
AcDbRegAppTableRecord
  2
AcadAnnotative
 70
     0
  0
APPID
  5
4A455
330
9
100
AcDbSymbolTableRecord
100
AcDbRegAppTableRecord
  2
ACAD_DSTYLE_DIMJAG
 70
     0
  0
APPID
  5
4A456
330
9
100
AcDbSymbolTableRecord
100
AcDbRegAppTableRecord
  2
ACAD_DSTYLE_DIMTALN
 70
     0
  0
APPID
  5
4A457
330
9
100
AcDbSymbolTableRecord
100
AcDbRegAppTableRecord
  2
ACAD_NAV_VCDISPLAY
 70
     0
  0
APPID
  5
4A787
330
9
100
AcDbSymbolTableRecord
100
AcDbRegAppTableRecord
  2
ACAD_DSTYLE_DIMINSPECT
 70
     0
  0
APPID
  5
4A788
330
9
100
AcDbSymbolTableRecord
100
AcDbRegAppTableRecord
  2
GENIUS_GENDTOL_13
 70
     0
  0
APPID
  5
4A789
330
9
100
AcDbSymbolTableRecord
100
AcDbRegAppTableRecord
  2
ZWMCAD_GENSTANDARDFRAME_13_
 70
     0
  0
APPID
  5
4A78A
330
9
100
AcDbSymbolTableRecord
100
AcDbRegAppTableRecord
  2
ZW_RECESS_XDATA
 70
     0
  0
APPID
  5
4A78B
330
9
100
AcDbSymbolTableRecord
100
AcDbRegAppTableRecord
  2
ZW_FAC_XDATA
 70
     0
  0
APPID
  5
4A78C
330
9
100
AcDbSymbolTableRecord
100
AcDbRegAppTableRecord
  2
ZW_FLC_XDATA
 70
     0
  0
APPID
  5
4A78D
330
9
100
AcDbSymbolTableRecord
100
AcDbRegAppTableRecord
  2
ZW_SUPERPART
 70
     0
  0
APPID
  5
4A78E
330
9
100
AcDbSymbolTableRecord
100
AcDbRegAppTableRecord
  2
ZW_SUPERSYMBOL
 70
     0
  0
APPID
  5
4A78F
330
9
100
AcDbSymbolTableRecord
100
AcDbRegAppTableRecord
  2
ZW_SUPERSHAFT
 70
     0
  0
APPID
  5
4A790
330
9
100
AcDbSymbolTableRecord
100
AcDbRegAppTableRecord
  2
ZWMCAD_GENFRAME_13_
 70
     0
  0
APPID
  5
4A791
330
9
100
AcDbSymbolTableRecord
100
AcDbRegAppTableRecord
  2
ACAD_MLEADERVER
 70
     0
  0
APPID
  5
4A792
330
9
100
AcDbSymbolTableRecord
100
AcDbRegAppTableRecord
  2
ACAD_DSTYLE_DIMRADIAL_EXTENSION
 70
     0
  0
ENDTAB
  0
TABLE
  2
DIMSTYLE
  5
A
330
0
100
AcDbSymbolTable
 70
     2
100
AcDbDimStyleTable
 71
     2
340
1BF
340
3527
  0
DIMSTYLE
105
1BF
102
{ACAD_REACTORS
330
8ABF8
330
8ABF7
330
8ABF6
330
8ABF2
330
8ABF4
330
8ABF3
330
8ABF5
102
}
330
A
100
AcDbSymbolTableRecord
100
AcDbDimStyleTableRecord
  2
コピー - ISO-25
 70
     0
 40
0.0
 41
3.5
 42
0.0
 44
1.5
 73
     0
 74
     0
 77
     1
 78
     8
140
3.5
147
2.299999999999998
176
   256
177
   256
271
     2
178
   256
271
     2
272
     2
284
     8
340
24A
371
    -1
372
    -1
  0
DIMSTYLE
105
3527
330
A
100
AcDbSymbolTableRecord
100
AcDbDimStyleTableRecord
  2
STANDARD
 70
     0
 41
3.0
 47
0.001
 48
0.001
 71
     1
 73
     0
 74
     0
 77
     1
 78
     8
140
4.0
271
     3
272
     3
284
     8
340
11
341
34B1
342
34B1
343
34B1
344
34B1
  0
ENDTAB
  0
TABLE
  2
BLOCK_RECORD
  5
1
330
0
100
AcDbSymbolTable
 70
    10
  0
BLOCK_RECORD
  5
1F
102
{ACAD_XDICTIONARY
360
31EE
102
}
330
1
100
AcDbSymbolTableRecord
100
AcDbBlockTableRecord
  2
*Model_Space
340
22
  0
BLOCK_RECORD
  5
55
330
1
100
AcDbSymbolTableRecord
100
AcDbBlockTableRecord
  2
*Paper_Space
340
56
  0
BLOCK_RECORD
  5
50
330
1
100
AcDbSymbolTableRecord
100
AcDbBlockTableRecord
  2
*Paper_Space00000000
340
51
  0
BLOCK_RECORD
  5
34B1
330
1
100
AcDbSymbolTableRecord
100
AcDbBlockTableRecord
  2
_OPEN
340
0
102
{BLKREFS
331
8771A
331
8771B
331
87727
331
87728
331
87734
331
87735
331
87741
331
87742
331
8774E
331
8774F
331
87756
331
87763
331
87764
331
8A070
331
8A071
331
8A07B
331
8A07C
331
8A089
331
8A08A
331
8A095
331
8A096
331
8A09D
331
8A0A7
331
8A0A8
331
8A0B4
331
8A0B5
331
8A526
331
8A527
331
8A532
331
8A533
331
8A53F
331
8A540
331
8A54B
331
8A54C
331
8A556
331
8A561
331
8A562
331
8A56D
331
8A56E
331
8A578
331
8A579
331
8A581
331
8A582
331
8A58B
331
8A58C
331
8A594
331
8A595
331
8A59C
331
8A5A4
331
8A5A5
331
8A5AD
331
8A5AE
331
8A771
331
8A772
331
8A77A
331
8A77B
331
8A783
331
8A784
331
8A78D
331
8A78E
331
8A796
331
8A797
331
8A79F
331
8A7A0
331
8A7A7
331
8A7AF
331
8A7B0
331
8A7B8
331
8A7B9
331
8A7C1
331
8A7C2
331
8A7CB
331
8A7CC
331
8A7D4
331
8A7D5
331
8A7DD
331
8A7DE
331
8A7E5
331
8A983
331
8A984
331
8A98E
331
8A98F
331
8A999
331
8A99A
331
8A9A7
331
8A9A8
331
8A9AF
331
8A9B9
331
8A9BA
331
8A9C5
331
8A9C6
331
8AE26
331
8AE27
331
8AE32
331
8AE33
331
8AE3E
331
8AE3F
331
8AE4B
331
8AE4C
331
8AE56
331
8AE61
331
8AE62
331
8AE6D
331
8AE6E
331
8AE78
331
8AE79
331
8AE81
331
8AE82
331
8AE8A
331
8AE8B
331
8AE94
331
8AE95
331
8AE9C
331
8AEA4
331
8AEA5
331
8AEAD
331
8AEAE
331
8AEF4
331
8AEF5
331
8AEFD
331
8AEFE
331
8AF07
331
8AF08
331
8AF10
331
8AF11
331
8AF19
331
8AF1A
331
8AF22
331
8AF23
331
8AF2A
331
8AF32
331
8AF33
331
8AF3B
331
8AF3C
331
8AF45
331
8AF46
331
8AF4E
331
8AF4F
331
8AF57
331
8AF58
331
8AF60
331
8AF61
331
8AF68
331
8AF70
331
8AF71
331
8AF79
331
8AF7A
331
8AF82
331
8AF83
331
8AF8C
331
8AF8D
331
8AF94
331
8AF9C
331
8AF9D
331
8AFA5
331
8AFA6
102
}
  0
BLOCK_RECORD
  5
8820A
330
1
100
AcDbSymbolTableRecord
100
AcDbBlockTableRecord
  2
_None
340
0
102
{BLKREFS
331
8A84F
331
8A8A6
331
8A8AF
331
8A8B7
331
8AED2
331
8AFAE
331
8B0D2
331
8B110
331
8843B
331
88443
331
89218
102
}
  0
BLOCK_RECORD
  5
8AE22
330
1
100
AcDbSymbolTableRecord
100
AcDbBlockTableRecord
  2
*D473
340
0
  0
BLOCK_RECORD
  5
8AE2E
330
1
100
AcDbSymbolTableRecord
100
AcDbBlockTableRecord
  2
*D484
340
0
  0
BLOCK_RECORD
  5
8AE3A
330
1
100
AcDbSymbolTableRecord
100
AcDbBlockTableRecord
  2
*D495
340
0
  0
BLOCK_RECORD
  5
8AE46
330
1
100
AcDbSymbolTableRecord
100
AcDbBlockTableRecord
  2
*D506
340
0
  0
BLOCK_RECORD
  5
8AE53
330
1
100
AcDbSymbolTableRecord
100
AcDbBlockTableRecord
  2
*D517
340
0
  0
BLOCK_RECORD
  5
8AE5D
330
1
100
AcDbSymbolTableRecord
100
AcDbBlockTableRecord
  2
*D528
340
0
  0
BLOCK_RECORD
  5
8AE69
330
1
100
AcDbSymbolTableRecord
100
AcDbBlockTableRecord
  2
*D539
340
0
  0
ENDTAB
  0
ENDSEC
  0
SECTION
  2
BLOCKS
  0
BLOCK
  5
20
330
1F
100
AcDbEntity
  8
0
100
AcDbBlockBegin
  2
*Model_Space
 70
     0
 10
0.0
 20
0.0
 30
0.0
  3
*Model_Space
  1

  0
ENDBLK
  5
21
330
1F
100
AcDbEntity
  8
0
100
AcDbBlockEnd
  0
BLOCK
  5
57
330
55
100
AcDbEntity
 67
     1
  8
0
100
AcDbBlockBegin
  2
*Paper_Space
 70
     0
 10
0.0
 20
0.0
 30
0.0
  3
*Paper_Space
  1

  0
ENDBLK
  5
58
330
55
100
AcDbEntity
 67
     1
  8
0
100
AcDbBlockEnd
  0
BLOCK
  5
52
330
50
100
AcDbEntity
  8
0
100
AcDbBlockBegin
  2
*Paper_Space00000000
 70
     0
 10
0.0
 20
0.0
 30
0.0
  3
*Paper_Space00000000
  1

  0
VIEWPORT
  5
6B
102
{ACAD_XDICTIONARY
360
87699
102
}
330
50
100
AcDbEntity
  8
0
100
AcDbViewport
 10
264.3775031494645
 20
160.4455827878762
 30
0.0
 40
567.6219612953822
 41
282.2272140146125
 68
     1
 69
    -1
 12
264.3775031494645
 22
160.4455827878762
 13
0.0
 23
0.0
 14
10.0
 24
10.0
 15
10.0
 25
10.0
 16
0.0
 26
0.0
 36
1.0
 17
0.0
 27
0.0
 37
0.0
 42
50.0
 43
0.0
 44
0.0
 45
282.2272140146125
 50
0.0
 51
0.0
 72
  1000
 90
    32864
  1

281
     0
 71
     1
 74
     0
110
0.0
120
0.0
130
0.0
111
1.0
121
0.0
131
0.0
112
0.0
122
1.0
132
0.0
 79
     0
146
0.0
  0
VIEWPORT
  5
6D
102
{ACAD_XDICTIONARY
360
8769B
102
}
330
50
100
AcDbEntity
  8
0
100
AcDbViewport
 10
133.3499939441681
 20
101.5999939441681
 30
0.0
 40
213.3599903106689
 41
162.5599903106689
 68
     2
 69
    -1
 12
210.0
 22
148.5
 13
0.0
 23
0.0
 14
10.0
 24
10.0
 15
10.0
 25
10.0
 16
0.0
 26
0.0
 36
1.0
 17
0.0
 27
0.0
 37
0.0
 42
50.0
 43
0.0
 44
0.0
 45
324.0677920111345
 50
0.0
 51
0.0
 72
   100
 90
    32864
  1

281
     0
 71
     1
 74
     0
110
0.0
120
0.0
130
0.0
111
1.0
121
0.0
131
0.0
112
0.0
122
1.0
132
0.0
 79
     0
146
0.0
  0
ENDBLK
  5
53
330
50
100
AcDbEntity
  8
0
100
AcDbBlockEnd
  0
BLOCK
  5
34B2
330
34B1
100
AcDbEntity
  8
0
100
AcDbBlockBegin
  2
_OPEN
 70
     0
 10
0.0
 20
0.0
 30
0.0
  3
_OPEN
  1

  0
LINE
  5
34B3
330
34B1
100
AcDbEntity
  8
0
  6
ByBlock
 62
     0
100
AcDbLine
 10
0.0
 20
0.0
 30
0.0
 11
-1.0
 21
0.1766666667
 31
0.0
  0
LINE
  5
34B4
330
34B1
100
AcDbEntity
  8
0
  6
ByBlock
 62
     0
100
AcDbLine
 10
-1.0
 20
-0.1766666667
 30
0.0
 11
0.0
 21
0.0
 31
0.0
  0
LINE
  5
34B5
330
34B1
100
AcDbEntity
  8
0
  6
ByBlock
 62
     0
100
AcDbLine
 10
-1.0
 20
0.0
 30
0.0
 11
0.0
 21
0.0
 31
0.0
  0
ENDBLK
  5
34B6
330
34B1
100
AcDbEntity
  8
0
  6
ByBlock
 62
     0
100
AcDbBlockEnd
  0
BLOCK
  5
8820B
330
8820A
100
AcDbEntity
  8
0
100
AcDbBlockBegin
  2
_None
 70
     0
 10
0.0
 20
0.0
 30
0.0
  3
_None
  1

  0
ENDBLK
  5
8820C
330
8820A
100
AcDbEntity
  8
0
100
AcDbBlockEnd
  0
BLOCK
  5
8AE2C
330
8AE22
100
AcDbEntity
  8
0
100
AcDbBlockBegin
  2
*D473
 70
     1
 10
0.0
 20
0.0
 30
0.0
  3
*D473
  1

  0
LINE
  5
8B13B
330
8AE22
100
AcDbEntity
  8
2
100
AcDbLine
 10
0.0
 20
19.5579999989
 30
0.0
 11
0.0
 21
61.5450978461
 31
0.0
  0
LINE
  5
8B13C
330
8AE22
100
AcDbEntity
  8
2
100
AcDbLine
 10
49.30575741579997
 20
21.1490803823
 30
0.0
 11
49.30575741579997
 21
61.5450978461
 31
0.0
  0
LINE
  5
8B13D
330
8AE22
100
AcDbEntity
  8
2
100
AcDbLine
 10
3.5
 20
60.0450978461
 30
0.0
 11
45.80575741579997
 21
60.0450978461
 31
0.0
  0
SOLID
  5
8B13E
330
8AE22
100
AcDbEntity
  8
2
100
AcDbTrace
 10
3.5
 20
60.62843117943334
 30
0.0
 11
3.5
 21
59.46176451276667
 31
0.0
 12
0.0
 22
60.0450978461
 32
0.0
 13
0.0
 23
60.0450978461
 33
0.0
  0
SOLID
  5
8B13F
330
8AE22
100
AcDbEntity
  8
2
100
AcDbTrace
 10
45.80575741579997
 20
59.46176451276667
 30
0.0
 11
45.80575741579997
 21
60.62843117943334
 31
0.0
 12
49.30575741579997
 22
60.0450978461
 32
0.0
 13
49.30575741579997
 23
60.0450978461
 33
0.0
  0
MTEXT
  5
8B140
330
8AE22
100
AcDbEntity
  8
2
100
AcDbMText
 10
25.58584263149999
 20
65.8450978461
 30
0.0
 40
3.5
 41
0.0
 71
     2
 72
     1
  1
\A1;49.31 [1.941"]
  7
simplex
 73
     1
 44
1.0
1001
ACAD
1000
MTEXTBEGIN
1070
    73
1070
     1
1070
    44
1040
1.0
1070
    74
1070
     0
1000
MTEXTEND
  0
POINT
  5
8B141
330
8AE22
100
AcDbEntity
  8
Defpoints
 62
     0
100
AcDbPoint
 10
0.0
 20
19.5579999989
 30
0.0
  0
POINT
  5
8B142
330
8AE22
100
AcDbEntity
  8
Defpoints
 62
     0
100
AcDbPoint
 10
49.30575741579997
 20
21.1490803823
 30
0.0
  0
POINT
  5
8B143
330
8AE22
100
AcDbEntity
  8
Defpoints
 62
     0
100
AcDbPoint
 10
49.30575741579997
 20
60.0450978461
 30
0.0
  0
ENDBLK
  5
8AE2D
330
8AE22
100
AcDbEntity
  8
0
100
AcDbBlockEnd
  0
BLOCK
  5
8AE38
330
8AE2E
100
AcDbEntity
  8
0
100
AcDbBlockBegin
  2
*D484
 70
     1
 10
0.0
 20
0.0
 30
0.0
  3
*D484
  1

  0
LINE
  5
8B132
330
8AE2E
100
AcDbEntity
  8
sk2
100
AcDbLine
 10
1.5
 20
22.2249999989
 30
0.0
 11
-26.5
 21
22.22499999890001
 31
0.0
  0
LINE
  5
8B133
330
8AE2E
100
AcDbEntity
  8
sk2
100
AcDbLine
 10
1.5
 20
-22.2250000011
 30
0.0
 11
-26.5
 21
-22.2250000011
 31
0.0
  0
LINE
  5
8B134
330
8AE2E
100
AcDbEntity
  8
sk2
100
AcDbLine
 10
-25.0
 20
18.7249999989
 30
0.0
 11
-25.0
 21
-18.72500000109999
 31
0.0
  0
SOLID
  5
8B135
330
8AE2E
100
AcDbEntity
  8
sk2
100
AcDbTrace
 10
-24.41666666666666
 20
18.7249999989
 30
0.0
 11
-25.58333333333333
 21
18.7249999989
 31
0.0
 12
-25.0
 22
22.22499999890001
 32
0.0
 13
-25.0
 23
22.22499999890001
 33
0.0
  0
SOLID
  5
8B136
330
8AE2E
100
AcDbEntity
  8
sk2
100
AcDbTrace
 10
-25.58333333333334
 20
-18.72500000109999
 30
0.0
 11
-24.41666666666667
 21
-18.72500000109999
 31
0.0
 12
-25.0
 22
-22.2250000011
 32
0.0
 13
-25.0
 23
-22.2250000011
 33
0.0
  0
MTEXT
  5
8B137
330
8AE2E
100
AcDbEntity
  8
sk2
100
AcDbMText
 10
-30.8
 20
-0.0000000010999975
 30
0.0
 40
3.5
 41
0.0
 71
     2
 72
     1
  1
\A1;%%c44.45 [%%c1.750"]
  7
simplex
 11
0.0000000000000002
 21
1.0
 31
0.0
 73
     1
 44
1.0
1001
ACAD
1000
MTEXTBEGIN
1070
    73
1070
     1
1070
    44
1040
1.0
1070
    74
1070
     0
1000
MTEXTEND
  0
POINT
  5
8B138
330
8AE2E
100
AcDbEntity
  8
Defpoints
 62
     0
100
AcDbPoint
 10
1.5
 20
22.2249999989
 30
0.0
  0
POINT
  5
8B139
330
8AE2E
100
AcDbEntity
  8
Defpoints
 62
     0
100
AcDbPoint
 10
1.5
 20
-22.2250000011
 30
0.0
  0
POINT
  5
8B13A
330
8AE2E
100
AcDbEntity
  8
Defpoints
 62
     0
100
AcDbPoint
 10
-25.0
 20
-22.2250000011
 30
0.0
  0
ENDBLK
  5
8AE39
330
8AE2E
100
AcDbEntity
  8
0
100
AcDbBlockEnd
  0
BLOCK
  5
8AE44
330
8AE3A
100
AcDbEntity
  8
0
100
AcDbBlockBegin
  2
*D495
 70
     1
 10
0.0
 20
0.0
 30
0.0
  3
*D495
  1

  0
LINE
  5
8B129
330
8AE3A
100
AcDbEntity
  8
sk2
100
AcDbLine
 10
3.5
 20
9.5249999989
 30
0.0
 11
-16.5
 21
9.524999998900003
 31
0.0
  0
LINE
  5
8B12A
330
8AE3A
100
AcDbEntity
  8
sk2
100
AcDbLine
 10
3.5
 20
-9.5249999989
 30
0.0
 11
-16.5
 21
-9.524999998899996
 31
0.0
  0
LINE
  5
8B12B
330
8AE3A
100
AcDbEntity
  8
sk2
100
AcDbLine
 10
-15.0
 20
6.024999998900003
 30
0.0
 11
-15.0
 21
-6.024999998899996
 31
0.0
  0
SOLID
  5
8B12C
330
8AE3A
100
AcDbEntity
  8
sk2
100
AcDbTrace
 10
-14.41666666666666
 20
6.024999998900003
 30
0.0
 11
-15.58333333333333
 21
6.024999998900003
 31
0.0
 12
-15.0
 22
9.524999998900003
 32
0.0
 13
-15.0
 23
9.524999998900003
 33
0.0
  0
SOLID
  5
8B12D
330
8AE3A
100
AcDbEntity
  8
sk2
100
AcDbTrace
 10
-15.58333333333333
 20
-6.024999998899996
 30
0.0
 11
-14.41666666666666
 21
-6.024999998899996
 31
0.0
 12
-15.0
 22
-9.524999998899996
 32
0.0
 13
-15.0
 23
-9.524999998899996
 33
0.0
  0
MTEXT
  5
8B12E
330
8AE3A
100
AcDbEntity
  8
sk2
100
AcDbMText
 10
-20.8
 20
0.0000000000000037
 30
0.0
 40
3.5
 41
0.0
 71
     2
 72
     1
  1
\A1;%%c19.05 [%%c.750"]
  7
simplex
 11
0.0
 21
1.0
 31
0.0
 73
     1
 44
1.0
1001
ACAD
1000
MTEXTBEGIN
1070
    73
1070
     1
1070
    44
1040
1.0
1070
    74
1070
     0
1000
MTEXTEND
  0
POINT
  5
8B12F
330
8AE3A
100
AcDbEntity
  8
Defpoints
 62
     0
100
AcDbPoint
 10
3.5
 20
9.5249999989
 30
0.0
  0
POINT
  5
8B130
330
8AE3A
100
AcDbEntity
  8
Defpoints
 62
     0
100
AcDbPoint
 10
3.5
 20
-9.5249999989
 30
0.0
  0
POINT
  5
8B131
330
8AE3A
100
AcDbEntity
  8
Defpoints
 62
     0
100
AcDbPoint
 10
-15.0
 20
-9.524999998899996
 30
0.0
  0
ENDBLK
  5
8AE45
330
8AE3A
100
AcDbEntity
  8
0
100
AcDbBlockEnd
  0
BLOCK
  5
8AE51
330
8AE46
100
AcDbEntity
  8
0
100
AcDbBlockBegin
  2
*D506
 70
     1
 10
0.0
 20
0.0
 30
0.0
  3
*D506
  1

  0
LINE
  5
8B11F
330
8AE46
100
AcDbEntity
  8
sk2
100
AcDbLine
 10
0.0
 20
-20.7249966893
 30
0.0
 11
0.0
 21
-46.5
 31
0.0
  0
LINE
  5
8B120
330
8AE46
100
AcDbEntity
  8
sk2
100
AcDbLine
 10
19.0
 20
-9.199999998899995
 30
0.0
 11
19.0
 21
-46.5
 31
0.0
  0
LINE
  5
8B121
330
8AE46
100
AcDbEntity
  8
sk2
100
AcDbLine
 10
19.0
 20
-45.0
 30
0.0
 11
54.15208046216664
 21
-45.0
 31
0.0
  0
LINE
  5
8B122
330
8AE46
100
AcDbEntity
  8
sk2
100
AcDbLine
 10
3.5
 20
-45.0
 30
0.0
 11
15.5
 21
-45.0
 31
0.0
  0
SOLID
  5
8B123
330
8AE46
100
AcDbEntity
  8
sk2
100
AcDbTrace
 10
3.5
 20
-44.41666666666666
 30
0.0
 11
3.5
 21
-45.58333333333333
 31
0.0
 12
0.0
 22
-45.0
 32
0.0
 13
0.0
 23
-45.0
 33
0.0
  0
SOLID
  5
8B124
330
8AE46
100
AcDbEntity
  8
sk2
100
AcDbTrace
 10
15.5
 20
-45.58333333333333
 30
0.0
 11
15.5
 21
-44.41666666666666
 31
0.0
 12
19.0
 22
-45.0
 32
0.0
 13
19.0
 23
-45.0
 33
0.0
  0
MTEXT
  5
8B125
330
8AE46
100
AcDbEntity
  8
sk2
100
AcDbMText
 10
38.43541379549998
 20
-39.2
 30
0.0
 40
3.5
 41
0.0
 71
     2
 72
     1
  1
\A1;19 [.748"]
  7
simplex
 73
     1
 44
1.0
1001
ACAD
1000
MTEXTBEGIN
1070
    73
1070
     1
1070
    44
1040
1.0
1070
    74
1070
     0
1000
MTEXTEND
  0
POINT
  5
8B126
330
8AE46
100
AcDbEntity
  8
Defpoints
 62
     0
100
AcDbPoint
 10
0.0
 20
-20.7249966893
 30
0.0
  0
POINT
  5
8B127
330
8AE46
100
AcDbEntity
  8
Defpoints
 62
     0
100
AcDbPoint
 10
19.0
 20
-9.199999998899995
 30
0.0
  0
POINT
  5
8B128
330
8AE46
100
AcDbEntity
  8
Defpoints
 62
     0
100
AcDbPoint
 10
19.0
 20
-45.0
 30
0.0
  0
ENDBLK
  5
8AE52
330
8AE46
100
AcDbEntity
  8
0
100
AcDbBlockEnd
  0
BLOCK
  5
8AE5B
330
8AE53
100
AcDbEntity
  8
0
100
AcDbBlockBegin
  2
*D517
 70
     1
 10
0.0
 20
0.0
 30
0.0
  3
*D517
  1

  0
LINE
  5
8B144
330
8AE53
100
AcDbEntity
  8
2
100
AcDbLine
 10
85.84527318711179
 20
42.73536099049787
 30
0.0
 11
51.92505425827284
 21
24.66494707905839
 31
0.0
  0
MTEXT
  5
8B145
330
8AE53
100
AcDbEntity
  8
2
100
AcDbMText
 10
67.7026480879773
 20
39.64188415096941
 30
0.0
 40
3.5
 41
0.0
 71
     2
 72
     1
  1
\A1;R4 [R.157"]
  7
simplex
 11
0.8825729122854893
 21
0.4701755571059708
 31
0.0
 73
     1
 44
1.0
1001
ACAD
1000
MTEXTBEGIN
1070
    73
1070
     1
1070
    44
1040
1.0
1070
    74
1070
     0
1000
MTEXTEND
  0
SOLID
  5
8B146
330
8AE53
100
AcDbEntity
  8
2
100
AcDbTrace
 10
51.65078518329434
 20
25.17978127789159
 30
0.0
 11
52.19932333325131
 21
24.15011288022518
 31
0.0
 12
48.83604906527362
 22
23.01933262918749
 32
0.0
 13
48.83604906527362
 23
23.01933262918749
 33
0.0
  0
LINE
  5
8B147
330
8AE53
100
AcDbEntity
  8
2
100
AcDbLine
 10
45.21575741619997
 20
21.1386304008
 30
0.0
 11
45.39575741619998
 21
21.1386304008
 31
0.0
  0
LINE
  5
8B148
330
8AE53
100
AcDbEntity
  8
2
100
AcDbLine
 10
45.30575741619998
 20
21.0486304008
 30
0.0
 11
45.30575741619998
 21
21.2286304008
 31
0.0
  0
POINT
  5
8B149
330
8AE53
100
AcDbEntity
  8
Defpoints
 62
     0
100
AcDbPoint
 10
48.83604906527362
 20
23.01933262918749
 30
0.0
  0
POINT
  5
8B14A
330
8AE53
100
AcDbEntity
  8
Defpoints
 62
     0
100
AcDbPoint
 10
45.30575741619998
 20
21.1386304008
 30
0.0
  0
ENDBLK
  5
8AE5C
330
8AE53
100
AcDbEntity
  8
0
100
AcDbBlockEnd
  0
BLOCK
  5
8AE67
330
8AE5D
100
AcDbEntity
  8
0
100
AcDbBlockBegin
  2
*D528
 70
     1
 10
0.0
 20
0.0
 30
0.0
  3
*D528
  1

  0
LINE
  5
8B115
330
8AE5D
100
AcDbEntity
  8
2
100
AcDbLine
 10
34.5057574162
 20
25.3286042541
 30
0.0
 11
34.5057574162
 21
51.4762812589
 31
0.0
  0
LINE
  5
8B116
330
8AE5D
100
AcDbEntity
  8
2
100
AcDbLine
 10
49.30575741579997
 20
21.1490803823
 30
0.0
 11
49.30575741579997
 21
51.4762812589
 31
0.0
  0
LINE
  5
8B117
330
8AE5D
100
AcDbEntity
  8
2
100
AcDbLine
 10
49.30575741579997
 20
49.9762812589
 30
0.0
 11
104.0724240824666
 21
49.9762812589
 31
0.0
  0
LINE
  5
8B118
330
8AE5D
100
AcDbEntity
  8
2
100
AcDbLine
 10
38.0057574162
 20
49.9762812589
 30
0.0
 11
45.80575741579997
 21
49.9762812589
 31
0.0
  0
SOLID
  5
8B119
330
8AE5D
100
AcDbEntity
  8
2
100
AcDbTrace
 10
38.0057574162
 20
50.55961459223333
 30
0.0
 11
38.0057574162
 21
49.39294792556666
 31
0.0
 12
34.5057574162
 22
49.9762812589
 32
0.0
 13
34.5057574162
 23
49.9762812589
 33
0.0
  0
SOLID
  5
8B11A
330
8AE5D
100
AcDbEntity
  8
2
100
AcDbTrace
 10
45.80575741579997
 20
49.39294792556666
 30
0.0
 11
45.80575741579997
 21
50.55961459223333
 31
0.0
 12
49.30575741579997
 22
49.9762812589
 32
0.0
 13
49.30575741579997
 23
49.9762812589
 33
0.0
  0
MTEXT
  5
8B11B
330
8AE5D
100
AcDbEntity
  8
2
100
AcDbMText
 10
78.43909074913331
 20
55.7762812589
 30
0.0
 40
3.5
 41
0.0
 71
     2
 72
     1
  1
\A1;14.8 [.583"](MAX)
  7
simplex
 73
     1
 44
1.0
1001
ACAD
1000
MTEXTBEGIN
1070
    73
1070
     1
1070
    44
1040
1.0
1070
    74
1070
     0
1000
MTEXTEND
  0
POINT
  5
8B11C
330
8AE5D
100
AcDbEntity
  8
Defpoints
 62
     0
100
AcDbPoint
 10
34.5057574162
 20
25.3286042541
 30
0.0
  0
POINT
  5
8B11D
330
8AE5D
100
AcDbEntity
  8
Defpoints
 62
     0
100
AcDbPoint
 10
49.30575741579997
 20
21.1490803823
 30
0.0
  0
POINT
  5
8B11E
330
8AE5D
100
AcDbEntity
  8
Defpoints
 62
     0
100
AcDbPoint
 10
49.30575741579997
 20
49.9762812589
 30
0.0
  0
ENDBLK
  5
8AE68
330
8AE5D
100
AcDbEntity
  8
0
100
AcDbBlockEnd
  0
BLOCK
  5
8AE73
330
8AE69
100
AcDbEntity
  8
0
100
AcDbBlockBegin
  2
*D539
 70
     1
 10
0.0
 20
0.0
 30
0.0
  3
*D539
  1

  0
LINE
  5
8B10D
330
8AE69
100
AcDbEntity
  8
2
100
AcDbLine
 10
45.30575741579997
 20
25.3999999989
 30
0.0
 11
71.49443238660001
 21
25.3999999989
 31
0.0
  0
LINE
  5
8B10E
330
8AE69
100
AcDbEntity
  8
2
100
AcDbLine
 10
69.99443238660001
 20
21.8999999989
 30
0.0
 11
69.99443238660001
 21
-25.3999999989
 31
0.0
  0
SOLID
  5
8B10F
330
8AE69
100
AcDbEntity
  8
2
100
AcDbTrace
 10
70.57776571993334
 20
21.8999999989
 30
0.0
 11
69.41109905326668
 21
21.8999999989
 31
0.0
 12
69.99443238660001
 22
25.3999999989
 32
0.0
 13
69.99443238660001
 23
25.3999999989
 33
0.0
  0
INSERT
  5
8B110
330
8AE69
100
AcDbEntity
  8
2
100
AcDbBlockReference
  2
_None
 10
69.99443238660001
 20
-25.3999999989
 30
0.0
 41
3.5
 42
3.5
 43
3.5
 50
270.0
  0
MTEXT
  5
8B111
330
8AE69
100
AcDbEntity
  8
2
100
AcDbMText
 10
64.19443238660001
 20
-1.75
 30
0.0
 40
3.5
 41
0.0
 71
     2
 72
     1
  1
\A1;%%c50.8 [%%c2.000"]
  7
simplex
 11
0.0
 21
1.0
 31
0.0
 73
     1
 44
1.0
1001
ACAD
1000
MTEXTBEGIN
1070
    73
1070
     1
1070
    44
1040
1.0
1070
    74
1070
     0
1000
MTEXTEND
  0
POINT
  5
8B112
330
8AE69
100
AcDbEntity
  8
Defpoints
 62
     0
100
AcDbPoint
 10
45.30575741579997
 20
25.3999999989
 30
0.0
  0
POINT
  5
8B113
330
8AE69
100
AcDbEntity
  8
Defpoints
 62
     0
100
AcDbPoint
 10
68.99443238660001
 20
-25.3999999989
 30
0.0
  0
POINT
  5
8B114
330
8AE69
100
AcDbEntity
  8
Defpoints
 62
     0
100
AcDbPoint
 10
69.99443238660001
 20
-25.3999999989
 30
0.0
  0
ENDBLK
  5
8AE74
330
8AE69
100
AcDbEntity
  8
0
100
AcDbBlockEnd
  0
ENDSEC
  0
SECTION
  2
ENTITIES
  0
LINE
  5
87946
330
1F
100
AcDbEntity
  8
0
100
AcDbLine
 10
1.0
 20
0.0
 30
0.0
 11
0.0
 21
0.0
 31
0.0
  0
LINE
  5
87947
330
1F
100
AcDbEntity
  8
0
100
AcDbLine
 10
-1.0
 20
0.0
 30
0.0
 11
0.0
 21
0.0
 31
0.0
  0
LINE
  5
87948
330
1F
100
AcDbEntity
  8
0
100
AcDbLine
 10
0.0
 20
0.0
 30
0.0
 11
0.0
 21
-1.0
 31
0.0
  0
LINE
  5
87949
330
1F
100
AcDbEntity
  8
0
100
AcDbLine
 10
0.0
 20
0.0
 30
0.0
 11
0.0
 21
1.0
 31
0.0
  0
ARC
  5
8794A
330
1F
100
AcDbEntity
  8
0
100
AcDbCircle
 10
0.0
 20
0.0
 30
0.0
 40
1.0
100
AcDbArc
 50
270.0
 51
0.0
  0
ARC
  5
8794B
330
1F
100
AcDbEntity
  8
0
100
AcDbCircle
 10
0.0
 20
0.0
 30
0.0
 40
1.0
100
AcDbArc
 50
90.0
 51
180.0
  0
HATCH
  5
8794C
330
1F
100
AcDbEntity
  8
0
100
AcDbHatch
 10
0.0
 20
0.0
 30
0.0
210
0.0
220
0.0
230
1.0
  2
SOLID
 70
     1
 71
     0
 91
        2
 92
        1
 93
        3
 72
     1
 10
0.0
 20
0.0
 11
0.0
 21
-1.0
 72
     2
 10
0.0
 20
0.0
 40
1.0
 50
270.0
 51
360.0
 73
     1
 72
     1
 10
1.0
 20
0.0
 11
0.0
 21
0.0
 97
        0
 92
        1
 93
        3
 72
     1
 10
0.0
 20
0.0
 11
0.0
 21
1.0
 72
     2
 10
0.0
 20
0.0
 40
1.0
 50
90.0
 51
180.0
 73
     1
 72
     1
 10
-1.0
 20
0.0
 11
0.0
 21
0.0
 97
        0
 75
     0
 76
     1
 98
        1
 10
-31.0
 20
-41.0
  0
LINE
  5
8794E
330
1F
100
AcDbEntity
  8
0
100
AcDbLine
 10
1.0
 20
0.0
 30
0.0
 11
-1.0
 21
0.0
 31
0.0
  0
LINE
  5
87953
330
1F
100
AcDbEntity
  8
0
100
AcDbLine
 10
0.0
 20
1.0
 30
0.0
 11
0.0
 21
-1.0
 31
0.0
  0
CIRCLE
  5
87A74
330
1F
100
AcDbEntity
  8
0
100
AcDbCircle
 10
0.0
 20
0.0
 30
0.0
 40
1.0
  0
DIMENSION
  5
8ABF2
330
1F
100
AcDbEntity
  8
2
100
AcDbDimension
  2
*D473
 10
49.30575741579997
 20
60.0450978461
 30
0.0
 11
25.58584263149999
 21
60.0450978461
 31
0.0
 70
   160
 71
     2
 42
49.3057574158
  3
コピー - ISO-25
100
AcDbAlignedDimension
 13
0.0
 23
19.5579999989
 33
0.0
 14
49.30575741579997
 24
21.1490803823
 34
0.0
 50
0.0
100
AcDbRotatedDimension
1001
ACAD
1000
DSTYLE
1002
{
1070
   170
1070
     1
1070
   171
1070
     3
1070
   143
1040
0.0393700787401575
1070
   285
1070
     4
1070
     4
1000
"
1070
   271
1070
     2
1070
    40
1040
1.0
1002
}
1001
ACAD_DSTYLE_DIMINSPECT
1070
   393
1070
     0
1070
   394
1070
     0
1070
   395
1000

1070
   396
1000

  0
DIMENSION
  5
8ABF3
330
1F
100
AcDbEntity
  8
sk2
100
AcDbDimension
  2
*D484
 10
-25.0
 20
-22.2250000011
 30
0.0
 11
-25.0
 21
-0.0000000010999983
 31
0.0
 70
   160
  1
%%c44.45 [%%c1.750"]
 71
     2
 42
44.45
  3
コピー - ISO-25
100
AcDbAlignedDimension
 13
1.5
 23
22.2249999989
 33
0.0
 14
1.5
 24
-22.2250000011
 34
0.0
 50
270.0
100
AcDbRotatedDimension
1001
ACAD
1000
DSTYLE
1002
{
1070
   170
1070
     1
1070
   171
1070
     3
1070
   143
1040
0.0393700787401575
1070
   285
1070
     4
1070
     4
1000
%%c[]"
1070
   271
1070
     8
1070
    40
1040
1.0
1002
}
1001
ACAD_DSTYLE_DIMINSPECT
1070
   393
1070
     0
1070
   394
1070
     0
1070
   395
1000

1070
   396
1000

  0
DIMENSION
  5
8ABF4
330
1F
100
AcDbEntity
  8
sk2
100
AcDbDimension
  2
*D495
 10
-15.0
 20
-9.524999998899996
 30
0.0
 11
-15.0
 21
0.0000000000000036
 31
0.0
 70
   160
  1
%%c19.05 [%%c.750"]
 71
     2
 42
19.0499999978
  3
コピー - ISO-25
100
AcDbAlignedDimension
 13
3.5
 23
9.5249999989
 33
0.0
 14
3.5
 24
-9.5249999989
 34
0.0
 50
270.0
100
AcDbRotatedDimension
1001
ACAD
1000
DSTYLE
1002
{
1070
   170
1070
     1
1070
   171
1070
     3
1070
   143
1040
0.0393700787401575
1070
   285
1070
     4
1070
     4
1000
%%c[]"
1070
   271
1070
     8
1070
    40
1040
1.0
1002
}
1001
ACAD_DSTYLE_DIMINSPECT
1070
   393
1070
     0
1070
   394
1070
     0
1070
   395
1000

1070
   396
1000

  0
DIMENSION
  5
8ABF5
330
1F
100
AcDbEntity
  8
sk2
100
AcDbDimension
  2
*D506
 10
19.0
 20
-45.0
 30
0.0
 11
38.43541379549998
 21
-45.0
 31
0.0
 70
   160
  1
19 [.748"]
 71
     2
 42
19.0
  3
コピー - ISO-25
100
AcDbAlignedDimension
 13
0.0
 23
-20.7249966893
 33
0.0
 14
19.0
 24
-9.199999998899995
 34
0.0
 50
0.0
100
AcDbRotatedDimension
1001
ACAD
1000
DSTYLE
1002
{
1070
   170
1070
     1
1070
   171
1070
     3
1070
   143
1040
0.0393700787401575
1070
   285
1070
     4
1070
     4
1000
"
1070
   271
1070
     8
1070
    40
1040
1.0
1002
}
1001
ACAD_DSTYLE_DIMINSPECT
1070
   393
1070
     0
1070
   394
1070
     0
1070
   395
1000

1070
   396
1000

  0
DIMENSION
  5
8ABF6
330
1F
100
AcDbEntity
  8
2
100
AcDbDimension
  2
*D517
 10
45.30575741619998
 20
21.1386304008
 30
0.0
 11
69.5802618128929
 21
34.07045560108963
 31
0.0
 70
   164
  1
R4 [R.157"]
 71
     2
 42
3.999999999899999
  3
コピー - ISO-25
100
AcDbRadialDimension
 15
48.83604906527362
 25
23.01933262918749
 35
0.0
 40
0.0
1001
ACAD
1000
DSTYLE
1002
{
1070
   170
1070
     1
1070
   171
1070
     3
1070
   143
1040
0.0393700787401575
1070
   285
1070
     4
1070
     4
1000
"
1070
   271
1070
     8
1070
    40
1040
1.0
1002
}
1001
ACAD_DSTYLE_DIMINSPECT
1070
   393
1070
     0
1070
   394
1070
     0
1070
   395
1000

1070
   396
1000

  0
DIMENSION
  5
8ABF7
330
1F
100
AcDbEntity
  8
2
100
AcDbDimension
  2
*D528
 10
49.30575741579997
 20
49.9762812589
 30
0.0
 11
78.43909074913331
 21
49.9762812589
 31
0.0
 70
   160
  1
14.8 [.583"](MAX)
 71
     2
 42
14.7999999996
  3
コピー - ISO-25
100
AcDbAlignedDimension
 13
34.5057574162
 23
25.3286042541
 33
0.0
 14
49.30575741579997
 24
21.1490803823
 34
0.0
 50
0.0
100
AcDbRotatedDimension
1001
ACAD
1000
DSTYLE
1002
{
1070
   170
1070
     1
1070
   171
1070
     3
1070
   143
1040
0.0393700787401575
1070
   285
1070
     4
1070
     4
1000
"
1070
   271
1070
     8
1070
    40
1040
1.0
1002
}
1001
ACAD_DSTYLE_DIMINSPECT
1070
   393
1070
     0
1070
   394
1070
     0
1070
   395
1000

1070
   396
1000

  0
DIMENSION
  5
8ABF8
330
1F
100
AcDbEntity
  8
2
100
AcDbDimension
  2
*D539
 10
69.99443238660001
 20
-25.3999999989
 30
0.0
 11
69.99443238660001
 21
-1.75
 31
0.0
 70
   160
  1
%%c50.8 [%%c2.000"]
 71
     2
 42
50.7999999978
  3
コピー - ISO-25
100
AcDbAlignedDimension
 13
45.30575741579997
 23
25.3999999989
 33
0.0
 14
68.99443238660001
 24
-25.3999999989
 34
0.0
 50
270.0
100
AcDbRotatedDimension
1001
ACAD
1000
DSTYLE
1002
{
1070
   170
1070
     1
1070
   171
1070
     3
1070
   143
1040
0.0393700787401575
1070
   285
1070
     4
1070
     4
1000
"
1070
   344
1005
8820A
1070
   271
1070
     8
1070
   173
1070
     1
1070
    40
1040
1.0
1070
    76
1070
     1
1002
}
1001
ACAD_DSTYLE_DIMINSPECT
1070
   393
1070
     0
1070
   394
1070
     0
1070
   395
1000

1070
   396
1000

  0
MTEXT
  5
8ABF9
330
1F
100
AcDbEntity
  8
sk6
100
AcDbMText
 10
0.0
 20
89.99999999999998
 30
0.0
 40
3.5
 41
41.65
 71
     1
 72
     1
  1
AXD4000AUR2.0004AAE
 73
     1
 44
0.9
1001
ACAD
1000
MTEXTBEGIN
1070
    73
1070
     1
1070
    44
1040
0.9
1070
    74
1070
     0
1000
MTEXTEND
  0
LINE
  5
8ABFA
330
1F
100
AcDbEntity
  8
1
100
AcDbLine
 10
23.3518794309
 20
-24.6250000011
 30
0.0
 11
43.66233764650003
 21
-24.6250000011
 31
0.0
  0
LINE
  5
8ABFB
330
1F
100
AcDbEntity
  8
1
100
AcDbLine
 10
22.57542229559999
 20
-24.5227774799
 30
0.0
 11
14.3814996426
 21
-22.3272225222
 31
0.0
  0
LINE
  5
8ABFC
330
1F
100
AcDbEntity
  8
1
100
AcDbLine
 10
13.60504250719998
 20
-22.2250000011
 30
0.0
 11
1.5
 21
-22.2250000011
 31
0.0
  0
LINE
  5
8ABFD
330
1F
100
AcDbEntity
  8
sk3
100
AcDbLine
 10
10.98135921279999
 20
-9.5249999989
 30
0.0
 11
11.83926112079999
 21
-9.925046228499995
 31
0.0
  0
LINE
  5
8AC04
330
1F
100
AcDbEntity
  8
1
100
AcDbLine
 10
0.0
 20
-20.7249966893
 30
0.0
 11
0.0
 21
-4.470000001100003
 31
0.0
  0
LINE
  5
8AC06
330
1F
100
AcDbEntity
  8
nocut
100
AcDbLine
 10
0.0
 20
0.0
 30
0.0
 11
0.0
 21
20.7249999989
 31
0.0
  0
LINE
  5
8AC07
330
1F
100
AcDbEntity
  8
1
100
AcDbLine
 10
0.0
 20
4.469999998899999
 30
0.0
 11
0.0
 21
20.72499668709999
 31
0.0
  0
LINE
  5
8AC08
330
1F
100
AcDbEntity
  8
sk3
100
AcDbLine
 10
1.000000237499989
 20
-10.0249999989
 30
0.0
 11
3.5
 21
-10.0249999989
 31
0.0
  0
LINE
  5
8AC09
330
1F
100
AcDbEntity
  8
sk3
100
AcDbLine
 10
12.1773557301
 20
-9.999999998899998
 30
0.0
 11
18.19999999999999
 21
-9.999999998899998
 31
0.0
  0
LINE
  5
8AC0A
330
1F
100
AcDbEntity
  8
sk3
100
AcDbLine
 10
3.5
 20
-9.5249999989
 30
0.0
 11
10.98135921279999
 21
-9.5249999989
 31
0.0
  0
LINE
  5
8AC0B
330
1F
100
AcDbEntity
  8
sk3
100
AcDbLine
 10
44.88088146069997
 20
-17.5006346247
 30
0.0
 11
45.66183840029998
 21
-17.652437276
 31
0.0
  0
LINE
  5
8AC0C
330
1F
100
AcDbEntity
  8
1
100
AcDbLine
 10
0.0
 20
4.469999998899999
 30
0.0
 11
0.5
 21
3.969999998899999
 31
0.0
  0
LINE
  5
8AC0D
330
1F
100
AcDbEntity
  8
1
100
AcDbLine
 10
3.75999999999999
 20
3.969999998899999
 30
0.0
 11
4.75999999999999
 21
2.969999998899999
 31
0.0
  0
LINE
  5
8AC0E
330
1F
100
AcDbEntity
  8
sk3
100
AcDbLine
 10
1.000000237499989
 20
-3.970000001100003
 30
0.0
 11
1.000000237499989
 21
-10.0249999989
 31
0.0
  0
LINE
  5
8AC0F
330
1F
100
AcDbEntity
  8
sk3
100
AcDbLine
 10
1.000000237499989
 20
3.969999998899999
 30
0.0
 11
1.000000237499989
 21
10.0249999989
 31
0.0
  0
LINE
  5
8AC10
330
1F
100
AcDbEntity
  8
sk3
100
AcDbLine
 10
3.5
 20
-3.970000001100003
 30
0.0
 11
3.5
 21
-10.0249999989
 31
0.0
  0
LINE
  5
8AC11
330
1F
100
AcDbEntity
  8
sk3
100
AcDbLine
 10
3.5
 20
3.969999998899999
 30
0.0
 11
3.5
 21
10.0249999989
 31
0.0
  0
LINE
  5
8AC12
330
1F
100
AcDbEntity
  8
1
100
AcDbLine
 10
4.75999999999999
 20
2.969999998899999
 30
0.0
 11
4.75999999999999
 21
-2.970000001100003
 31
0.0
  0
LINE
  5
8AC13
330
1F
100
AcDbEntity
  8
sk3
100
AcDbLine
 10
34.39999999999999
 20
-7.9999999989
 30
0.0
 11
43.07169045609998
 21
-7.9999999989
 31
0.0
  0
LINE
  5
8AC14
330
1F
100
AcDbEntity
  8
sk3
100
AcDbLine
 10
19.4
 20
-5.2499999989
 30
0.0
 11
33.4999997235
 21
-5.2499999989
 31
0.0
  0
LINE
  5
8AC15
330
1F
100
AcDbEntity
  8
1
100
AcDbLine
 10
0.5
 20
-3.970000001100003
 30
0.0
 11
3.75999999999999
 21
-3.970000001100003
 31
0.0
  0
LINE
  5
8AC16
330
1F
100
AcDbEntity
  8
sk3
100
AcDbLine
 10
1.000000237499989
 20
10.0249999989
 30
0.0
 11
0.0
 21
11.02500025999999
 31
0.0
  0
LINE
  5
8AC17
330
1F
100
AcDbEntity
  8
nocut
100
AcDbLine
 10
47.37479387719996
 20
0.0
 30
0.0
 11
0.0
 21
0.0
 31
0.0
  0
LINE
  5
8AC18
330
1F
100
AcDbEntity
  8
4
100
AcDbLine
 10
50.37479387719996
 20
0.0
 30
0.0
 11
-3.0
 21
0.0
 31
0.0
  0
LINE
  5
8AC1A
330
1F
100
AcDbEntity
  8
sk3
100
AcDbLine
 10
10.98135921279999
 20
-9.5249999989
 30
0.0
 11
10.98135921279999
 21
9.5249999989
 31
0.0
  0
LINE
  5
8AC1B
330
1F
100
AcDbEntity
  8
1
100
AcDbLine
 10
0.5
 20
3.969999998899999
 30
0.0
 11
3.75999999999999
 21
3.969999998899999
 31
0.0
  0
LINE
  5
8AC1C
330
1F
100
AcDbEntity
  8
sk3
100
AcDbLine
 10
19.4
 20
5.2499999989
 30
0.0
 11
33.4999997235
 21
5.2499999989
 31
0.0
  0
LINE
  5
8AC1D
330
1F
100
AcDbEntity
  8
sk3
100
AcDbLine
 10
33.4999997235
 20
-5.2499999989
 30
0.0
 11
34.0
 21
-5.750000301799999
 31
0.0
  0
LINE
  5
8AC1E
330
1F
100
AcDbEntity
  8
sk3
100
AcDbLine
 10
19.0
 20
-9.199999998899995
 30
0.0
 11
19.0
 21
9.199999998899995
 31
0.0
  0
LINE
  5
8AC1F
330
1F
100
AcDbEntity
  8
sk3
100
AcDbLine
 10
34.39999999999999
 20
7.9999999989
 30
0.0
 11
43.07169045609998
 21
7.9999999989
 31
0.0
  0
LINE
  5
8AC20
330
1F
100
AcDbEntity
  8
sk3
100
AcDbLine
 10
3.5
 20
9.5249999989
 30
0.0
 11
10.98135921279999
 21
9.5249999989
 31
0.0
  0
LINE
  5
8AC21
330
1F
100
AcDbEntity
  8
sk3
100
AcDbLine
 10
12.1773557301
 20
9.999999998899999
 30
0.0
 11
18.19999999999999
 21
9.999999998899999
 31
0.0
  0
LINE
  5
8AC22
330
1F
100
AcDbEntity
  8
sk3
100
AcDbLine
 10
1.000000237499989
 20
10.0249999989
 30
0.0
 11
3.5
 21
10.0249999989
 31
0.0
  0
LINE
  5
8AC23
330
1F
100
AcDbEntity
  8
sk3
100
AcDbLine
 10
43.07169045609998
 20
-7.9999999989
 30
0.0
 11
44.07169045609999
 21
-8.999999998900001
 31
0.0
  0
LINE
  5
8AC24
330
1F
100
AcDbEntity
  8
1
100
AcDbLine
 10
23.3518794309
 20
24.6186399203
 30
0.0
 11
23.3518794309
 21
24.62499999889999
 31
0.0
  0
LINE
  5
8AC25
330
1F
100
AcDbEntity
  8
sk3
100
AcDbLine
 10
44.88088146069997
 20
17.5006346247
 30
0.0
 11
45.66183840029998
 21
17.652437276
 31
0.0
  0
LINE
  5
8AC26
330
1F
100
AcDbEntity
  8
1
100
AcDbLine
 10
41.2892267535
 20
15.13284383969999
 30
0.0
 11
41.13813151490001
 21
15.11353708749999
 31
0.0
  0
LINE
  5
8AC27
330
1F
100
AcDbEntity
  8
1
100
AcDbLine
 10
43.66233763669997
 20
13.49355223379999
 30
0.0
 11
41.63628747469998
 21
13.4472200657
 31
0.0
  0
LINE
  5
8AC28
330
1F
100
AcDbEntity
  8
1
100
AcDbLine
 10
45.29321826400003
 20
15.1310646549
 30
0.0
 11
45.0589681973
 21
15.1287052695
 31
0.0
  0
LINE
  5
8AC29
330
1F
100
AcDbEntity
  8
1
100
AcDbLine
 10
45.22421893809999
 20
13.5087554076
 30
0.0
 11
43.66233764650003
 21
13.4935522062
 31
0.0
  0
LINE
  5
8AC2A
330
1F
100
AcDbEntity
  8
1
100
AcDbLine
 10
45.0589681973
 20
15.1287052695
 30
0.0
 11
44.43086462230001
 21
15.1244278835
 31
0.0
  0
LINE
  5
8AC2B
330
1F
100
AcDbEntity
  8
1
100
AcDbLine
 10
44.43086462230001
 20
15.1244278835
 30
0.0
 11
43.79269158080001
 21
15.12223229259999
 31
0.0
  0
LINE
  5
8AC2C
330
1F
100
AcDbEntity
  8
1
100
AcDbLine
 10
43.79269158080001
 20
15.12223229259999
 30
0.0
 11
43.14425911969999
 21
15.1221567789
 31
0.0
  0
LINE
  5
8AC2D
330
1F
100
AcDbEntity
  8
cut
100
AcDbLine
 10
45.2932182753
 20
15.38343701929999
 30
0.0
 11
45.0589681738
 21
15.3835380387
 31
0.0
  0
LINE
  5
8AC2E
330
1F
100
AcDbEntity
  8
1
100
AcDbLine
 10
43.14425911969999
 20
15.1221567789
 30
0.0
 11
42.4853655073
 21
15.1242388773
 31
0.0
  0
LINE
  5
8AC2F
330
1F
100
AcDbEntity
  8
cut
100
AcDbLine
 10
44.38549935290001
 20
15.3858694802
 30
0.0
 11
45.0589681738
 21
15.3835380387
 31
0.0
  0
LINE
  5
8AC30
330
1F
100
AcDbEntity
  8
cut
100
AcDbLine
 10
44.38549935290001
 20
15.3858694802
 30
0.0
 11
43.79269156679997
 21
15.3894982155
 31
0.0
  0
LINE
  5
8AC31
330
1F
100
AcDbEntity
  8
1
100
AcDbLine
 10
42.4853655073
 20
15.1242388773
 30
0.0
 11
41.815796484
 21
15.1285154361
 31
0.0
  0
LINE
  5
8AC32
330
1F
100
AcDbEntity
  8
cut
100
AcDbLine
 10
43.79269156679997
 20
15.3894982155
 30
0.0
 11
43.1442591394
 21
15.3952513887
 31
0.0
  0
LINE
  5
8AC33
330
1F
100
AcDbEntity
  8
1
100
AcDbLine
 10
41.815796484
 20
15.1285154361
 30
0.0
 11
41.13532902669999
 21
15.13502240469999
 31
0.0
  0
LINE
  5
8AC34
330
1F
100
AcDbEntity
  8
cut
100
AcDbLine
 10
43.1442591394
 20
15.3952513887
 30
0.0
 11
42.4853654976
 21
15.4028595699
 31
0.0
  0
LINE
  5
8AC35
330
1F
100
AcDbEntity
  8
1
100
AcDbLine
 10
41.13532902669999
 20
15.13502240469999
 30
0.0
 11
40.44372355109999
 21
15.1437953245
 31
0.0
  0
LINE
  5
8AC36
330
1F
100
AcDbEntity
  8
cut
100
AcDbLine
 10
45.33990204529998
 20
15.38279575139999
 30
0.0
 11
45.2932182753
 21
15.38343701929999
 31
0.0
  0
LINE
  5
8AC37
330
1F
100
AcDbEntity
  8
cut
100
AcDbLine
 10
42.4853654976
 20
15.4028595699
 30
0.0
 11
41.81579650740002
 21
15.41232589999999
 31
0.0
  0
LINE
  5
8AC38
330
1F
100
AcDbEntity
  8
1
100
AcDbLine
 10
40.44372355109999
 20
15.1437953245
 30
0.0
 11
39.74069839769999
 21
15.154870906
 31
0.0
  0
LINE
  5
8AC39
330
1F
100
AcDbEntity
  8
cut
100
AcDbLine
 10
41.81579650740002
 20
15.41232589999999
 30
0.0
 11
41.13532903750001
 21
15.4236524357
 31
0.0
  0
LINE
  5
8AC3A
330
1F
100
AcDbEntity
  8
1
100
AcDbLine
 10
39.74069839769999
 20
15.154870906
 30
0.0
 11
39.0259680998
 21
15.1682847226
 31
0.0
  0
LINE
  5
8AC3B
330
1F
100
AcDbEntity
  8
cut
100
AcDbLine
 10
41.13532903750001
 20
15.4236524357
 30
0.0
 11
40.44372352589999
 21
15.4368404417
 31
0.0
  0
LINE
  5
8AC3C
330
1F
100
AcDbEntity
  8
cut
100
AcDbLine
 10
40.44372352589999
 20
15.4368404417
 30
0.0
 11
39.74069839610002
 21
15.4518908922
 31
0.0
  0
LINE
  5
8AC3D
330
1F
100
AcDbEntity
  8
1
100
AcDbLine
 10
39.0259680998
 20
15.1682847226
 30
0.0
 11
38.29918580980001
 21
15.1840747466
 31
0.0
  0
LINE
  5
8AC3E
330
1F
100
AcDbEntity
  8
cut
100
AcDbLine
 10
39.74069839610002
 20
15.4518908922
 30
0.0
 11
39.02596808350001
 21
15.46880422879999
 31
0.0
  0
LINE
  5
8AC3F
330
1F
100
AcDbEntity
  8
1
100
AcDbLine
 10
38.29918580980001
 20
15.1840747466
 30
0.0
 11
37.55997079330001
 21
15.20227970339999
 31
0.0
  0
LINE
  5
8AC40
330
1F
100
AcDbEntity
  8
cut
100
AcDbLine
 10
39.02596808350001
 20
15.46880422879999
 30
0.0
 11
38.2991857916
 21
15.4875812607
 31
0.0
  0
LINE
  5
8AC41
330
1F
100
AcDbEntity
  8
1
100
AcDbLine
 10
37.55997079330001
 20
15.20227970339999
 30
0.0
 11
36.80791693750001
 21
15.2229385757
 31
0.0
  0
LINE
  5
8AC42
330
1F
100
AcDbEntity
  8
cut
100
AcDbLine
 10
38.2991857916
 20
15.4875812607
 30
0.0
 11
37.5599708028
 21
15.5082230924
 31
0.0
  0
LINE
  5
8AC43
330
1F
100
AcDbEntity
  8
cut
100
AcDbLine
 10
33.17251943
 20
15.6563041051
 30
0.0
 11
33.40132103249999
 21
15.649588219
 31
0.0
  0
LINE
  5
8AC44
330
1F
100
AcDbEntity
  8
cut
100
AcDbLine
 10
37.5599708028
 20
15.5082230924
 30
0.0
 11
36.8079169212
 21
15.5307313332
 31
0.0
  0
LINE
  5
8AC45
330
1F
100
AcDbEntity
  8
1
100
AcDbLine
 10
36.80791693750001
 20
15.2229385757
 30
0.0
 11
36.04255428249999
 21
15.2460929867
 31
0.0
  0
LINE
  5
8AC46
330
1F
100
AcDbEntity
  8
cut
100
AcDbLine
 10
36.8079169212
 20
15.5307313332
 30
0.0
 11
36.04255427449999
 21
15.555108837
 31
0.0
  0
LINE
  5
8AC47
330
1F
100
AcDbEntity
  8
1
100
AcDbLine
 10
36.04255428249999
 20
15.2460929867
 30
0.0
 11
35.2633174035
 21
15.27178917259999
 31
0.0
  0
LINE
  5
8AC48
330
1F
100
AcDbEntity
  8
cut
100
AcDbLine
 10
36.04255427449999
 20
15.555108837
 30
0.0
 11
35.2633174042
 21
15.5813604099
 31
0.0
  0
LINE
  5
8AC49
330
1F
100
AcDbEntity
  8
cut
100
AcDbLine
 10
35.2633174042
 20
15.5813604099
 30
0.0
 11
34.46958032219999
 21
15.6094928699
 31
0.0
  0
LINE
  5
8AC4A
330
1F
100
AcDbEntity
  8
cut
100
AcDbLine
 10
33.1725194302
 20
15.6563041051
 30
0.0
 11
33.12372985550002
 21
15.65803381169999
 31
0.0
  0
LINE
  5
8AC4B
330
1F
100
AcDbEntity
  8
1
100
AcDbLine
 10
35.2633174035
 20
15.27178917259999
 30
0.0
 11
34.46958033589999
 21
15.30007587839999
 31
0.0
  0
LINE
  5
8AC4C
330
1F
100
AcDbEntity
  8
1
100
AcDbLine
 10
29.73643327490001
 20
14.7382387873
 30
0.0
 11
29.71619620350002
 21
14.73898441049999
 31
0.0
  0
LINE
  5
8AC4D
330
1F
100
AcDbEntity
  8
cut
100
AcDbLine
 10
34.46958032219999
 20
15.6094928699
 30
0.0
 11
33.66071715620002
 21
15.6395149191
 31
0.0
  0
LINE
  5
8AC4E
330
1F
100
AcDbEntity
  8
1
100
AcDbLine
 10
34.46958033589999
 20
15.30007587839999
 30
0.0
 11
33.66071718270001
 21
15.3310006673
 31
0.0
  0
LINE
  5
8AC4F
330
1F
100
AcDbEntity
  8
cut
100
AcDbLine
 10
33.66071715620002
 20
15.6395149191
 30
0.0
 11
33.40132103249999
 21
15.649588219
 31
0.0
  0
LINE
  5
8AC50
330
1F
100
AcDbEntity
  8
1
100
AcDbLine
 10
33.40132104539998
 20
15.3415490601
 30
0.0
 11
33.66071718270001
 21
15.3310006673
 31
0.0
  0
LINE
  5
8AC51
330
1F
100
AcDbEntity
  8
1
100
AcDbLine
 10
33.1725213638
 20
15.3524678297
 30
0.0
 11
33.40132104539998
 21
15.3415490601
 31
0.0
  0
LINE
  5
8AC52
330
1F
100
AcDbEntity
  8
cut
100
AcDbLine
 10
33.12372985550002
 20
15.65803381169999
 30
0.0
 11
33.07482917509998
 21
15.6603731548
 31
0.0
  0
LINE
  5
8AC53
330
1F
100
AcDbEntity
  8
1
100
AcDbLine
 10
45.33990205290002
 20
15.12860078919999
 30
0.0
 11
45.29321826400003
 21
15.1310646549
 31
0.0
  0
LINE
  5
8AC54
330
1F
100
AcDbEntity
  8
cut
100
AcDbLine
 10
33.07482917509998
 20
15.6603731548
 30
0.0
 11
33.02581738890002
 21
15.6633221344
 31
0.0
  0
LINE
  5
8AC55
330
1F
100
AcDbEntity
  8
cut
100
AcDbLine
 10
33.02581738890002
 20
15.6633221344
 30
0.0
 11
32.97668698379999
 21
15.6668739584
 31
0.0
  0
LINE
  5
8AC56
330
1F
100
AcDbEntity
  8
1
100
AcDbLine
 10
47.36477613539999
 20
13.48199743539999
 30
0.0
 11
47.22688265369998
 21
13.4927686932
 31
0.0
  0
LINE
  5
8AC57
330
1F
100
AcDbEntity
  8
cut
100
AcDbLine
 10
32.97668698379999
 20
15.6668739584
 30
0.0
 11
32.92744547300002
 21
15.67103541879999
 31
0.0
  0
LINE
  5
8AC58
330
1F
100
AcDbEntity
  8
1
100
AcDbLine
 10
47.3668628561
 20
13.48181923339999
 30
0.0
 11
47.36477613539999
 21
13.48199743539999
 31
0.0
  0
LINE
  5
8AC59
330
1F
100
AcDbEntity
  8
cut
100
AcDbLine
 10
32.92744547300002
 20
15.67103541879999
 30
0.0
 11
32.87811539570002
 21
15.6758268917
 31
0.0
  0
LINE
  5
8AC5A
330
1F
100
AcDbEntity
  8
cut
100
AcDbLine
 10
32.87811539570002
 20
15.6758268917
 30
0.0
 11
32.82870426520001
 21
15.6812551691
 31
0.0
  0
LINE
  5
8AC5B
330
1F
100
AcDbEntity
  8
cut
100
AcDbLine
 10
32.82870426520001
 20
15.6812551691
 30
0.0
 11
32.77920456819999
 21
15.6873134589
 31
0.0
  0
LINE
  5
8AC5C
330
1F
100
AcDbEntity
  8
cut
100
AcDbLine
 10
32.77920456819999
 20
15.6873134589
 30
0.0
 11
32.72961630469999
 21
15.6940017611
 31
0.0
  0
LINE
  5
8AC5D
330
1F
100
AcDbEntity
  8
cut
100
AcDbLine
 10
32.7296163238
 20
15.6940017584
 30
0.0
 11
32.62954220749998
 21
15.7093546532
 31
0.0
  0
LINE
  5
8AC5E
330
1F
100
AcDbEntity
  8
1
100
AcDbLine
 10
29.28924991470001
 20
14.4430422436
 30
0.0
 11
28.35140830669999
 21
14.60935147879999
 31
0.0
  0
LINE
  5
8AC5F
330
1F
100
AcDbEntity
  8
1
100
AcDbLine
 10
28.277000797
 20
15.00010941009999
 30
0.0
 11
27.39855138019999
 21
15.1558865152
 31
0.0
  0
LINE
  5
8AC60
330
1F
100
AcDbEntity
  8
cut
100
AcDbLine
 10
32.62954220749998
 20
15.7093546532
 30
0.0
 11
32.52947998780002
 21
15.72739159039999
 31
0.0
  0
LINE
  5
8AC61
330
1F
100
AcDbEntity
  8
1
100
AcDbLine
 10
33.40132104539998
 20
15.3415490601
 30
0.0
 11
33.36716985120001
 21
15.3479593835
 31
0.0
  0
LINE
  5
8AC62
330
1F
100
AcDbEntity
  8
cut
100
AcDbLine
 10
32.52947998780002
 20
15.72739159039999
 30
0.0
 11
32.4294296649
 21
15.74811256999999
 31
0.0
  0
LINE
  5
8AC63
330
1F
100
AcDbEntity
  8
cut
100
AcDbLine
 10
32.4294296649
 20
15.74811256999999
 30
0.0
 11
32.32919701829999
 21
15.7715238439
 31
0.0
  0
LINE
  5
8AC64
330
1F
100
AcDbEntity
  8
cut
100
AcDbLine
 10
32.32919701829999
 20
15.7715238439
 30
0.0
 11
32.22897626849999
 21
15.7976191602
 31
0.0
  0
LINE
  5
8AC65
330
1F
100
AcDbEntity
  8
cut
100
AcDbLine
 10
32.22897626849999
 20
15.7976191602
 30
0.0
 11
32.12935007659999
 21
15.8263797631
 31
0.0
  0
LINE
  5
8AC66
330
1F
100
AcDbEntity
  8
cut
100
AcDbLine
 10
32.12935007659999
 20
15.8263797631
 30
0.0
 11
32.03034156460001
 21
15.8578477502
 31
0.0
  0
LINE
  5
8AC67
330
1F
100
AcDbEntity
  8
cut
100
AcDbLine
 10
32.03034156460001
 20
15.8578477502
 30
0.0
 11
31.93192761059999
 21
15.8919810238
 31
0.0
  0
LINE
  5
8AC68
330
1F
100
AcDbEntity
  8
cut
100
AcDbLine
 10
31.93192761059999
 20
15.8919810238
 30
0.0
 11
31.83462151090001
 21
15.92863453509999
 31
0.0
  0
LINE
  5
8AC69
330
1F
100
AcDbEntity
  8
sk3
100
AcDbLine
 10
46.33750121079997
 20
-18.1348384489
 30
0.0
 11
47.32138259959998
 21
-19.8424928292
 31
0.0
  0
LINE
  5
8AC6A
330
1F
100
AcDbEntity
  8
cut
100
AcDbLine
 10
29.40117218160001
 20
19.1457946012
 30
0.0
 11
29.393022237
 21
19.2406372482
 31
0.0
  0
LINE
  5
8AC6B
330
1F
100
AcDbEntity
  8
cut
100
AcDbLine
 10
29.393022237
 20
19.2406372482
 30
0.0
 11
29.38720620030001
 21
19.335578197
 31
0.0
  0
LINE
  5
8AC6C
330
1F
100
AcDbEntity
  8
cut
100
AcDbLine
 10
29.38720620030001
 20
19.335578197
 30
0.0
 11
29.38370644139999
 21
19.430702457
 31
0.0
  0
LINE
  5
8AC6D
330
1F
100
AcDbEntity
  8
cut
100
AcDbLine
 10
29.38370644139999
 20
19.430702457
 30
0.0
 11
29.38252296010001
 21
19.52601002829998
 31
0.0
  0
LINE
  5
8AC6E
330
1F
100
AcDbEntity
  8
cut
100
AcDbLine
 10
29.38252296010001
 20
20.3715733222
 30
0.0
 11
29.38252296010001
 21
19.52601005329999
 31
0.0
  0
LINE
  5
8AC6F
330
1F
100
AcDbEntity
  8
1
100
AcDbLine
 10
29.38252295999999
 20
20.1970468262
 30
0.0
 11
29.38252295999999
 21
19.3420180746
 31
0.0
  0
LINE
  5
8AC70
330
1F
100
AcDbEntity
  8
cut
100
AcDbLine
 10
29.38252296010001
 20
20.3715733222
 30
0.0
 11
29.38289901320002
 21
20.3957312231
 31
0.0
  0
LINE
  5
8AC71
330
1F
100
AcDbEntity
  8
cut
100
AcDbLine
 10
29.38289901320002
 20
20.3957312231
 30
0.0
 11
29.3840239697
 21
20.4198713002
 31
0.0
  0
LINE
  5
8AC72
330
1F
100
AcDbEntity
  8
cut
100
AcDbLine
 10
29.3840239697
 20
20.4198713002
 30
0.0
 11
29.38589782939999
 21
20.4439935536
 31
0.0
  0
LINE
  5
8AC73
330
1F
100
AcDbEntity
  8
cut
100
AcDbLine
 10
29.38589782939999
 20
20.4439935536
 30
0.0
 11
29.38852771410001
 21
20.46813729700001
 31
0.0
  0
LINE
  5
8AC74
330
1F
100
AcDbEntity
  8
cut
100
AcDbLine
 10
29.38852771410001
 20
20.46813729700001
 30
0.0
 11
29.39190650220002
 21
20.49226321669999
 31
0.0
  0
LINE
  5
8AC75
330
1F
100
AcDbEntity
  8
cut
100
AcDbLine
 10
29.39190650220002
 20
20.49226321669999
 30
0.0
 11
29.39601282799998
 21
20.5162533711
 31
0.0
  0
LINE
  5
8AC76
330
1F
100
AcDbEntity
  8
cut
100
AcDbLine
 10
29.39601282799998
 20
20.5162533711
 30
0.0
 11
29.40083992659999
 21
20.5400754845
 31
0.0
  0
LINE
  5
8AC77
330
1F
100
AcDbEntity
  8
cut
100
AcDbLine
 10
29.40083992659999
 20
20.5400754845
 30
0.0
 11
29.40639456299999
 21
20.56376183249999
 31
0.0
  0
LINE
  5
8AC78
330
1F
100
AcDbEntity
  8
cut
100
AcDbLine
 10
29.40639456299999
 20
20.56376183249999
 30
0.0
 11
29.41267566709999
 21
20.5872913001
 31
0.0
  0
LINE
  5
8AC79
330
1F
100
AcDbEntity
  8
cut
100
AcDbLine
 10
29.41267566709999
 20
20.5872913001
 30
0.0
 11
29.4196915284
 21
20.6106958222
 31
0.0
  0
LINE
  5
8AC7A
330
1F
100
AcDbEntity
  8
cut
100
AcDbLine
 10
29.4196915284
 20
20.6106958222
 30
0.0
 11
29.4274338573
 21
20.633943464
 31
0.0
  0
LINE
  5
8AC7B
330
1F
100
AcDbEntity
  8
cut
100
AcDbLine
 10
29.4274338573
 20
20.633943464
 30
0.0
 11
29.43587671520001
 21
20.6569173057
 31
0.0
  0
LINE
  5
8AC7C
330
1F
100
AcDbEntity
  8
cut
100
AcDbLine
 10
29.43587671520001
 20
20.6569173057
 30
0.0
 11
29.4450114556
 21
20.6795783742
 31
0.0
  0
LINE
  5
8AC7D
330
1F
100
AcDbEntity
  8
cut
100
AcDbLine
 10
29.4450114556
 20
20.6795783742
 30
0.0
 11
29.4548467249
 21
20.7019656427
 31
0.0
  0
LINE
  5
8AC7E
330
1F
100
AcDbEntity
  8
cut
100
AcDbLine
 10
29.4548467249
 20
20.7019656427
 30
0.0
 11
29.46538252310002
 21
20.7240791112
 31
0.0
  0
LINE
  5
8AC7F
330
1F
100
AcDbEntity
  8
cut
100
AcDbLine
 10
29.4653825229
 20
20.7240791107
 30
0.0
 11
29.46916042050001
 21
20.73156374179999
 31
0.0
  0
LINE
  5
8AC80
330
1F
100
AcDbEntity
  8
cut
100
AcDbLine
 10
29.46916042050001
 20
20.73156374179999
 30
0.0
 11
29.47305498879999
 21
20.7390123522
 31
0.0
  0
LINE
  5
8AC81
330
1F
100
AcDbEntity
  8
cut
100
AcDbLine
 10
29.47305498879999
 20
20.7390123522
 30
0.0
 11
29.47706622780001
 21
20.7464249418
 31
0.0
  0
LINE
  5
8AC82
330
1F
100
AcDbEntity
  8
cut
100
AcDbLine
 10
29.47706622780001
 20
20.7464249418
 30
0.0
 11
29.4811941376
 21
20.7538015109
 31
0.0
  0
LINE
  5
8AC83
330
1F
100
AcDbEntity
  8
cut
100
AcDbLine
 10
29.4811941376
 20
20.7538015109
 30
0.0
 11
29.4854387181
 21
20.7611420592
 31
0.0
  0
LINE
  5
8AC84
330
1F
100
AcDbEntity
  8
cut
100
AcDbLine
 10
29.4854387181
 20
20.7611420592
 30
0.0
 11
29.48979996919998
 21
20.7684465868
 31
0.0
  0
LINE
  5
8AC85
330
1F
100
AcDbEntity
  8
cut
100
AcDbLine
 10
29.4897999694
 20
20.76844658709999
 30
0.0
 11
29.50220321339998
 21
20.78875706499999
 31
0.0
  0
LINE
  5
8AC86
330
1F
100
AcDbEntity
  8
cut
100
AcDbLine
 10
29.50220321339998
 20
20.78875706499999
 30
0.0
 11
29.51490876740002
 21
20.80931978419999
 31
0.0
  0
LINE
  5
8AC87
330
1F
100
AcDbEntity
  8
1
100
AcDbLine
 10
29.52791959370001
 20
20.6594664801
 30
0.0
 11
29.79900154719999
 21
21.0968235424
 31
0.0
  0
LINE
  5
8AC88
330
1F
100
AcDbEntity
  8
cut
100
AcDbLine
 10
29.51490876740002
 20
20.80931978419999
 30
0.0
 11
29.79900153700001
 21
21.26130612009999
 31
0.0
  0
LINE
  5
8AC89
330
1F
100
AcDbEntity
  8
cut
100
AcDbLine
 10
29.79900153610001
 20
21.2613061186
 30
0.0
 11
29.8132657054
 21
21.2839047126
 31
0.0
  0
LINE
  5
8AC8A
330
1F
100
AcDbEntity
  8
cut
100
AcDbLine
 10
29.8132657054
 20
21.2839047126
 30
0.0
 11
29.82763673720001
 21
21.3064280866
 31
0.0
  0
LINE
  5
8AC8B
330
1F
100
AcDbEntity
  8
cut
100
AcDbLine
 10
29.82763673720001
 20
21.3064280866
 30
0.0
 11
29.84211463139999
 21
21.32887624030001
 31
0.0
  0
LINE
  5
8AC8C
330
1F
100
AcDbEntity
  8
cut
100
AcDbLine
 10
29.84211463139999
 20
21.32887624030001
 30
0.0
 11
29.85669394569999
 21
21.35124612870001
 31
0.0
  0
LINE
  5
8AC8D
330
1F
100
AcDbEntity
  8
cut
100
AcDbLine
 10
29.85669394569999
 20
21.35124612870001
 30
0.0
 11
29.8713801225
 21
21.37354079700001
 31
0.0
  0
LINE
  5
8AC8E
330
1F
100
AcDbEntity
  8
cut
100
AcDbLine
 10
29.8713801225
 20
21.37354079700001
 30
0.0
 11
29.88618948869998
 21
21.3957693809
 31
0.0
  0
LINE
  5
8AC8F
330
1F
100
AcDbEntity
  8
cut
100
AcDbLine
 10
29.88618948869998
 20
21.3957693809
 30
0.0
 11
29.9011343343
 21
21.4179457768
 31
0.0
  0
LINE
  5
8AC90
330
1F
100
AcDbEntity
  8
cut
100
AcDbLine
 10
29.9011343343
 20
21.4179457768
 30
0.0
 11
29.91620236929998
 21
21.4400560883
 31
0.0
  0
LINE
  5
8AC91
330
1F
100
AcDbEntity
  8
cut
100
AcDbLine
 10
29.91620236929998
 20
21.4400560883
 30
0.0
 11
29.9313730513
 21
21.4620677622
 31
0.0
  0
LINE
  5
8AC92
330
1F
100
AcDbEntity
  8
cut
100
AcDbLine
 10
29.9313730513
 20
21.4620677622
 30
0.0
 11
29.94664107220001
 21
21.4839648718
 31
0.0
  0
LINE
  5
8AC93
330
1F
100
AcDbEntity
  8
cut
100
AcDbLine
 10
29.94664107220001
 20
21.4839648718
 30
0.0
 11
29.96201174020001
 21
21.5057633438
 31
0.0
  0
LINE
  5
8AC94
330
1F
100
AcDbEntity
  8
cut
100
AcDbLine
 10
29.96201174020001
 20
21.5057633438
 30
0.0
 11
29.9774804368
 21
21.5274784053
 31
0.0
  0
LINE
  5
8AC95
330
1F
100
AcDbEntity
  8
cut
100
AcDbLine
 10
29.9774804368
 20
21.5274784053
 30
0.0
 11
29.99304579720001
 21
21.54911176570001
 31
0.0
  0
LINE
  5
8AC96
330
1F
100
AcDbEntity
  8
cut
100
AcDbLine
 10
29.99304579720001
 20
21.54911176570001
 30
0.0
 11
30.00870918620001
 21
21.57066171549999
 31
0.0
  0
LINE
  5
8AC97
330
1F
100
AcDbEntity
  8
cut
100
AcDbLine
 10
30.00870918620001
 20
21.57066171549999
 30
0.0
 11
30.04032203669999
 21
21.6135431124
 31
0.0
  0
LINE
  5
8AC98
330
1F
100
AcDbEntity
  8
cut
100
AcDbLine
 10
30.04032203669999
 20
21.6135431124
 30
0.0
 11
30.0562714982
 21
21.63487455950001
 31
0.0
  0
LINE
  5
8AC99
330
1F
100
AcDbEntity
  8
cut
100
AcDbLine
 10
31.91535241139999
 20
23.9630190412
 30
0.0
 11
32.0395796734
 21
24.12893100539999
 31
0.0
  0
LINE
  5
8AC9A
330
1F
100
AcDbEntity
  8
cut
100
AcDbLine
 10
30.0562714982
 20
21.63487455950001
 30
0.0
 11
30.07233726749999
 21
21.6561385
 31
0.0
  0
LINE
  5
8AC9B
330
1F
100
AcDbEntity
  8
cut
100
AcDbLine
 10
32.0395796734
 20
24.12893100539999
 30
0.0
 11
32.06740828829999
 21
24.1657718123
 31
0.0
  0
LINE
  5
8AC9C
330
1F
100
AcDbEntity
  8
cut
100
AcDbLine
 10
31.87295070720001
 20
23.90701146549999
 30
0.0
 11
31.91535241139999
 21
23.9630190412
 31
0.0
  0
LINE
  5
8AC9D
330
1F
100
AcDbEntity
  8
cut
100
AcDbLine
 10
32.06740828829999
 20
24.1657718123
 30
0.0
 11
32.09548272309999
 21
24.2025545825
 31
0.0
  0
LINE
  5
8AC9E
330
1F
100
AcDbEntity
  8
cut
100
AcDbLine
 10
30.07233726749999
 20
21.6561385
 30
0.0
 11
30.08852023840001
 21
21.6773332593
 31
0.0
  0
LINE
  5
8AC9F
330
1F
100
AcDbEntity
  8
cut
100
AcDbLine
 10
31.84451906589999
 20
23.8698862051
 30
0.0
 11
31.87295070720001
 21
23.90701146549999
 31
0.0
  0
LINE
  5
8ACA0
330
1F
100
AcDbEntity
  8
1
100
AcDbLine
 10
32.42723191750001
 20
24.5555153211
 30
0.0
 11
32.43759701880001
 21
24.56905120709999
 31
0.0
  0
LINE
  5
8ACA1
330
1F
100
AcDbEntity
  8
cut
100
AcDbLine
 10
30.08852023840001
 20
21.6773332593
 30
0.0
 11
30.1048195171
 21
21.6984605119
 31
0.0
  0
LINE
  5
8ACA2
330
1F
100
AcDbEntity
  8
1
100
AcDbLine
 10
30.1713570357
 20
21.6338530335
 30
0.0
 11
32.42723191750001
 21
24.5555153211
 31
0.0
  0
LINE
  5
8ACA3
330
1F
100
AcDbEntity
  8
cut
100
AcDbLine
 10
32.09548272309999
 20
24.2025545825
 30
0.0
 11
32.12302281609999
 21
24.2381767353
 31
0.0
  0
LINE
  5
8ACA4
330
1F
100
AcDbEntity
  8
cut
100
AcDbLine
 10
31.81597677229999
 20
23.8329964911
 30
0.0
 11
31.84451906589999
 21
23.8698862051
 31
0.0
  0
LINE
  5
8ACA5
330
1F
100
AcDbEntity
  8
cut
100
AcDbLine
 10
30.1048195171
 20
21.6984605119
 30
0.0
 11
30.1212512244
 21
21.7195310856
 31
0.0
  0
LINE
  5
8ACA6
330
1F
100
AcDbEntity
  8
cut
100
AcDbLine
 10
31.7874005031
 20
23.7964576317
 30
0.0
 11
31.81597677229999
 21
23.8329964911
 31
0.0
  0
LINE
  5
8ACA7
330
1F
100
AcDbEntity
  8
cut
100
AcDbLine
 10
32.42723191740001
 20
24.6055184711
 30
0.0
 11
32.4375974509
 21
24.6187513069
 31
0.0
  0
LINE
  5
8ACA8
330
1F
100
AcDbEntity
  8
cut
100
AcDbLine
 10
32.12302281609999
 20
24.2381767353
 30
0.0
 11
32.14979568799999
 21
24.27230181190001
 31
0.0
  0
LINE
  5
8ACA9
330
1F
100
AcDbEntity
  8
cut
100
AcDbLine
 10
30.1212512244
 20
21.7195310856
 30
0.0
 11
30.137820734
 21
21.7405485895
 31
0.0
  0
LINE
  5
8ACAA
330
1F
100
AcDbEntity
  8
cut
100
AcDbLine
 10
31.75816439190001
 20
23.7594362079
 30
0.0
 11
31.7874005031
 21
23.7964576317
 31
0.0
  0
LINE
  5
8ACAB
330
1F
100
AcDbEntity
  8
cut
100
AcDbLine
 10
30.137820734
 20
21.7405485895
 30
0.0
 11
30.15452267230001
 21
21.7615094144
 31
0.0
  0
LINE
  5
8ACAC
330
1F
100
AcDbEntity
  8
cut
100
AcDbLine
 10
32.14979568799999
 20
24.27230181190001
 30
0.0
 11
32.17567298700001
 21
24.3047562376
 31
0.0
  0
LINE
  5
8ACAD
330
1F
100
AcDbEntity
  8
cut
100
AcDbLine
 10
32.4375972492
 20
24.61875104700002
 30
0.0
 11
32.45512988889999
 21
24.64072754429999
 31
0.0
  0
LINE
  5
8ACAE
330
1F
100
AcDbEntity
  8
cut
100
AcDbLine
 10
31.71198890540001
 20
23.70157116579999
 30
0.0
 11
31.75816439190001
 21
23.7594362079
 31
0.0
  0
LINE
  5
8ACAF
330
1F
100
AcDbEntity
  8
cut
100
AcDbLine
 10
30.80792251989999
 20
22.5722672171
 30
0.0
 11
31.58307523709999
 21
23.54142535129999
 31
0.0
  0
LINE
  5
8ACB0
330
1F
100
AcDbEntity
  8
cut
100
AcDbLine
 10
32.4141804407
 20
24.5892462029
 30
0.0
 11
32.42723195400002
 21
24.6055185175
 31
0.0
  0
LINE
  5
8ACB1
330
1F
100
AcDbEntity
  8
cut
100
AcDbLine
 10
31.58307523709999
 20
23.54142535129999
 30
0.0
 11
31.71198890540001
 21
23.70157116579999
 31
0.0
  0
LINE
  5
8ACB2
330
1F
100
AcDbEntity
  8
cut
100
AcDbLine
 10
30.34727575509999
 20
22.00009385079999
 30
0.0
 11
30.80792251989999
 21
22.5722672171
 31
0.0
  0
LINE
  5
8ACB3
330
1F
100
AcDbEntity
  8
cut
100
AcDbLine
 10
30.15452267230001
 20
21.7615094144
 30
0.0
 11
30.34727575509999
 21
22.00009385079999
 31
0.0
  0
LINE
  5
8ACB4
330
1F
100
AcDbEntity
  8
cut
100
AcDbLine
 10
32.17567298700001
 20
24.3047562376
 30
0.0
 11
32.20111276829999
 21
24.33614683709999
 31
0.0
  0
LINE
  5
8ACB5
330
1F
100
AcDbEntity
  8
cut
100
AcDbLine
 10
32.40094802510002
 20
24.57296717520001
 30
0.0
 11
32.4141804407
 21
24.5892462029
 31
0.0
  0
LINE
  5
8ACB6
330
1F
100
AcDbEntity
  8
cut
100
AcDbLine
 10
32.20111276829999
 20
24.33614683709999
 30
0.0
 11
32.22637030909999
 21
24.36681050180002
 31
0.0
  0
LINE
  5
8ACB7
330
1F
100
AcDbEntity
  8
cut
100
AcDbLine
 10
32.3875347071
 20
24.55668143450001
 30
0.0
 11
32.40094802510002
 21
24.57296717520001
 31
0.0
  0
LINE
  5
8ACB8
330
1F
100
AcDbEntity
  8
cut
100
AcDbLine
 10
32.22637030909999
 20
24.36681050180002
 30
0.0
 11
32.2518616866
 21
24.3972891464
 31
0.0
  0
LINE
  5
8ACB9
330
1F
100
AcDbEntity
  8
cut
100
AcDbLine
 10
32.3738810715
 20
24.54036171929999
 30
0.0
 11
32.3875347071
 21
24.55668143450001
 31
0.0
  0
LINE
  5
8ACBA
330
1F
100
AcDbEntity
  8
cut
100
AcDbLine
 10
32.2518616866
 20
24.3972891464
 30
0.0
 11
32.27799546739999
 21
24.42814285589999
 31
0.0
  0
LINE
  5
8ACBB
330
1F
100
AcDbEntity
  8
cut
100
AcDbLine
 10
32.3462093391
 20
24.50778393429999
 30
0.0
 11
32.3738810715
 21
24.54036171929999
 31
0.0
  0
LINE
  5
8ACBC
330
1F
100
AcDbEntity
  8
cut
100
AcDbLine
 10
32.27799546739999
 20
24.42814285589999
 30
0.0
 11
32.3462093391
 21
24.50778393429999
 31
0.0
  0
LINE
  5
8ACBD
330
1F
100
AcDbEntity
  8
cut
100
AcDbLine
 10
32.45512988889999
 20
24.64072754429999
 30
0.0
 11
32.47407344020002
 21
24.66273933709999
 31
0.0
  0
LINE
  5
8ACBE
330
1F
100
AcDbEntity
  8
cut
100
AcDbLine
 10
32.47407344020002
 20
24.66273933709999
 30
0.0
 11
32.49442790309999
 21
24.6847864256
 31
0.0
  0
LINE
  5
8ACBF
330
1F
100
AcDbEntity
  8
cut
100
AcDbLine
 10
32.49442790309999
 20
24.6847864256
 30
0.0
 11
32.51619029080001
 21
24.7069398781
 31
0.0
  0
LINE
  5
8ACC0
330
1F
100
AcDbEntity
  8
1
100
AcDbLine
 10
0.5
 20
-3.970000001100003
 30
0.0
 11
0.0
 21
-4.470000001100003
 31
0.0
  0
LINE
  5
8ACC1
330
1F
100
AcDbEntity
  8
1
100
AcDbLine
 10
4.75999999999999
 20
-2.970000001100003
 30
0.0
 11
3.75999999999999
 21
-3.970000001100003
 31
0.0
  0
LINE
  5
8ACC2
330
1F
100
AcDbEntity
  8
cut
100
AcDbLine
 10
32.51619029080001
 20
24.7069398781
 30
0.0
 11
32.53936358999999
 21
24.72912862620001
 31
0.0
  0
LINE
  5
8ACC3
330
1F
100
AcDbEntity
  8
cut
100
AcDbLine
 10
32.53936358999999
 20
24.72912862620001
 30
0.0
 11
32.56395676150001
 21
24.7511394644
 31
0.0
  0
LINE
  5
8ACC4
330
1F
100
AcDbEntity
  8
cut
100
AcDbLine
 10
32.56395676150001
 20
24.7511394644
 30
0.0
 11
32.58996293709998
 21
24.7729588801
 31
0.0
  0
LINE
  5
8ACC5
330
1F
100
AcDbEntity
  8
cut
100
AcDbLine
 10
32.58996293709998
 20
24.7729588801
 30
0.0
 11
32.6173889849
 21
24.7946003858
 31
0.0
  0
LINE
  5
8ACC6
330
1F
100
AcDbEntity
  8
cut
100
AcDbLine
 10
32.6173889849
 20
24.7946003858
 30
0.0
 11
32.64626447020001
 21
24.8158913146
 31
0.0
  0
LINE
  5
8ACC7
330
1F
100
AcDbEntity
  8
cut
100
AcDbLine
 10
32.64626447020001
 20
24.8158913146
 30
0.0
 11
32.67659924820002
 21
24.8367741106
 31
0.0
  0
LINE
  5
8ACC8
330
1F
100
AcDbEntity
  8
cut
100
AcDbLine
 10
32.67659924820002
 20
24.8367741106
 30
0.0
 11
32.70838346380001
 21
24.8573063297
 31
0.0
  0
LINE
  5
8ACC9
330
1F
100
AcDbEntity
  8
cut
100
AcDbLine
 10
32.70838346380001
 20
24.8573063297
 30
0.0
 11
32.74161711700001
 21
24.87748797169999
 31
0.0
  0
LINE
  5
8ACCA
330
1F
100
AcDbEntity
  8
cut
100
AcDbLine
 10
32.7416170015
 20
24.87748790419999
 30
0.0
 11
33.63533755329999
 21
25.3999999989
 31
0.0
  0
LINE
  5
8ACCB
330
1F
100
AcDbEntity
  8
1
100
AcDbLine
 10
32.741617002
 20
24.830599436
 30
0.0
 11
33.58505104139999
 21
25.3205280447
 31
0.0
  0
LINE
  5
8ACCC
330
1F
100
AcDbEntity
  8
1
100
AcDbLine
 10
28.6955655495
 20
18.5764913244
 30
0.0
 11
29.42449911739999
 21
18.7669884941
 31
0.0
  0
LINE
  5
8ACCD
330
1F
100
AcDbEntity
  8
1
100
AcDbLine
 10
34.47710217759999
 20
20.06780803719999
 30
0.0
 11
34.48719859919999
 21
20.0667633313
 31
0.0
  0
LINE
  5
8ACCE
330
1F
100
AcDbEntity
  8
1
100
AcDbLine
 10
36.9700637
 20
20.5033377259
 30
0.0
 11
36.95996727850002
 21
20.5043824318
 31
0.0
  0
LINE
  5
8ACCF
330
1F
100
AcDbEntity
  8
1
100
AcDbLine
 10
26.25795770259998
 20
17.9728372224
 30
0.0
 11
25.88524378540002
 21
18.0389312898
 31
0.0
  0
LINE
  5
8ACD0
330
1F
100
AcDbEntity
  8
1
100
AcDbLine
 10
35.9431867248
 20
19.04545904669999
 30
0.0
 11
36.072791951
 21
19.0224759056
 31
0.0
  0
LINE
  5
8ACD1
330
1F
100
AcDbEntity
  8
1
100
AcDbLine
 10
35.82204340139997
 20
19.233474869
 30
0.0
 11
35.6834270059
 21
19.25805597789999
 31
0.0
  0
LINE
  5
8ACD2
330
1F
100
AcDbEntity
  8
1
100
AcDbLine
 10
34.76314761449998
 20
19.4731585565
 30
0.0
 11
34.89275284069999
 21
19.4501754154
 31
0.0
  0
LINE
  5
8ACD3
330
1F
100
AcDbEntity
  8
1
100
AcDbLine
 10
34.6961346935
 20
20.0518031899
 30
0.0
 11
34.56330177059999
 21
20.0753587047
 31
0.0
  0
LINE
  5
8ACD4
330
1F
100
AcDbEntity
  8
1
100
AcDbLine
 10
36.94393649770001
 20
19.8616514513
 30
0.0
 11
36.8561121219
 21
19.8772255149
 31
0.0
  0
LINE
  5
8ACD5
330
1F
100
AcDbEntity
  8
1
100
AcDbLine
 10
43.08592944679997
 20
18.90957794579999
 30
0.0
 11
43.21553467299997
 21
18.88659480459999
 31
0.0
  0
LINE
  5
8ACD6
330
1F
100
AcDbEntity
  8
1
100
AcDbLine
 10
42.89222607990001
 20
19.2012688144
 30
0.0
 11
42.75391576539998
 21
19.2257956454
 31
0.0
  0
LINE
  5
8ACD7
330
1F
100
AcDbEntity
  8
1
100
AcDbLine
 10
34.59105375569999
 20
20.69392024829999
 30
0.0
 11
34.72285156530001
 21
20.67054829219999
 31
0.0
  0
LINE
  5
8ACD8
330
1F
100
AcDbEntity
  8
1
100
AcDbLine
 10
36.88386410700002
 20
20.4957870585
 30
0.0
 11
37.01669702989999
 21
20.4722315438
 31
0.0
  0
LINE
  5
8ACD9
330
1F
100
AcDbEntity
  8
1
100
AcDbLine
 10
42.0568010918
 20
19.6294116822
 30
0.0
 11
42.18640631799998
 21
19.606428541
 31
0.0
  0
LINE
  5
8ACDA
330
1F
100
AcDbEntity
  8
1
100
AcDbLine
 10
44.2227863128
 20
19.4450898345
 30
0.0
 11
44.26152434189997
 21
19.4382203462
 31
0.0
  0
LINE
  5
8ACDB
330
1F
100
AcDbEntity
  8
cut
100
AcDbLine
 10
31.83462151090001
 20
15.92863453509999
 30
0.0
 11
31.7385125159
 21
15.9678026447
 31
0.0
  0
LINE
  5
8ACDC
330
1F
100
AcDbEntity
  8
cut
100
AcDbLine
 10
31.7385125159
 20
15.9678026447
 30
0.0
 11
31.64351137520001
 21
16.009490992
 31
0.0
  0
LINE
  5
8ACDD
330
1F
100
AcDbEntity
  8
cut
100
AcDbLine
 10
31.64351137520001
 20
16.009490992
 30
0.0
 11
31.5498636328
 21
16.0535714461
 31
0.0
  0
LINE
  5
8ACDE
330
1F
100
AcDbEntity
  8
cut
100
AcDbLine
 10
31.5498636328
 20
16.0535714461
 30
0.0
 11
31.45752353890002
 21
16.10009191379999
 31
0.0
  0
LINE
  5
8ACDF
330
1F
100
AcDbEntity
  8
cut
100
AcDbLine
 10
31.45752353890002
 20
16.10009191379999
 30
0.0
 11
31.3665368435
 21
16.14900448839999
 31
0.0
  0
LINE
  5
8ACE0
330
1F
100
AcDbEntity
  8
cut
100
AcDbLine
 10
31.3665368435
 20
16.14900448839999
 30
0.0
 11
31.27728634049999
 21
16.2000373191
 31
0.0
  0
LINE
  5
8ACE1
330
1F
100
AcDbEntity
  8
cut
100
AcDbLine
 10
31.27728634049999
 20
16.2000373191
 30
0.0
 11
31.1897743314
 21
16.2532320052
 31
0.0
  0
LINE
  5
8ACE2
330
1F
100
AcDbEntity
  8
cut
100
AcDbLine
 10
31.1897743314
 20
16.2532320052
 30
0.0
 11
31.10399851490001
 21
16.3085469476
 31
0.0
  0
LINE
  5
8ACE3
330
1F
100
AcDbEntity
  8
cut
100
AcDbLine
 10
31.10399851490001
 20
16.3085469476
 30
0.0
 11
31.0203347808
 21
16.36558549799999
 31
0.0
  0
LINE
  5
8ACE4
330
1F
100
AcDbEntity
  8
cut
100
AcDbLine
 10
31.0203347808
 20
16.36558549799999
 30
0.0
 11
30.93883353159998
 21
16.4243525101
 31
0.0
  0
LINE
  5
8ACE5
330
1F
100
AcDbEntity
  8
cut
100
AcDbLine
 10
30.93883353159998
 20
16.4243525101
 30
0.0
 11
30.8594443648
 21
16.48484313039999
 31
0.0
  0
LINE
  5
8ACE6
330
1F
100
AcDbEntity
  8
cut
100
AcDbLine
 10
30.8594443648
 20
16.48484313039999
 30
0.0
 11
30.78239196319998
 21
16.54664614939999
 31
0.0
  0
LINE
  5
8ACE7
330
1F
100
AcDbEntity
  8
cut
100
AcDbLine
 10
30.78239196319998
 20
16.54664614939999
 30
0.0
 11
30.70782168579999
 21
16.6096379961
 31
0.0
  0
LINE
  5
8ACE8
330
1F
100
AcDbEntity
  8
cut
100
AcDbLine
 10
30.70782168579999
 20
16.6096379961
 30
0.0
 11
30.63558817339998
 21
16.6739422415
 31
0.0
  0
LINE
  5
8ACE9
330
1F
100
AcDbEntity
  8
cut
100
AcDbLine
 10
30.63558817339998
 20
16.6739422415
 30
0.0
 11
30.565480031
 21
16.73951838969999
 31
0.0
  0
LINE
  5
8ACEA
330
1F
100
AcDbEntity
  8
cut
100
AcDbLine
 10
30.565480031
 20
16.73951838969999
 30
0.0
 11
30.4974709839
 21
16.80635689459999
 31
0.0
  0
LINE
  5
8ACEB
330
1F
100
AcDbEntity
  8
cut
100
AcDbLine
 10
30.4974709839
 20
16.80635689459999
 30
0.0
 11
30.43158730670001
 21
16.87446730219999
 31
0.0
  0
LINE
  5
8ACEC
330
1F
100
AcDbEntity
  8
cut
100
AcDbLine
 10
30.43158730670001
 20
16.87446730219999
 30
0.0
 11
30.36769642799999
 21
16.9438377549
 31
0.0
  0
LINE
  5
8ACED
330
1F
100
AcDbEntity
  8
cut
100
AcDbLine
 10
30.36769642799999
 20
16.9438377549
 30
0.0
 11
30.3057914094
 21
17.0144530105
 31
0.0
  0
LINE
  5
8ACEE
330
1F
100
AcDbEntity
  8
cut
100
AcDbLine
 10
30.3057914094
 20
17.0144530105
 30
0.0
 11
30.2458791892
 21
17.08632831099999
 31
0.0
  0
LINE
  5
8ACEF
330
1F
100
AcDbEntity
  8
cut
100
AcDbLine
 10
30.2458791892
 20
17.08632831099999
 30
0.0
 11
30.18784801059999
 21
17.15949752539999
 31
0.0
  0
LINE
  5
8ACF0
330
1F
100
AcDbEntity
  8
cut
100
AcDbLine
 10
30.18784801059999
 20
17.15949752539999
 30
0.0
 11
30.13168309770001
 21
17.2339455078
 31
0.0
  0
LINE
  5
8ACF1
330
1F
100
AcDbEntity
  8
cut
100
AcDbLine
 10
30.13168309770001
 20
17.2339455078
 30
0.0
 11
30.07739922639999
 21
17.309687404
 31
0.0
  0
LINE
  5
8ACF2
330
1F
100
AcDbEntity
  8
cut
100
AcDbLine
 10
30.07739922639999
 20
17.309687404
 30
0.0
 11
30.0249289679
 21
17.3868025201
 31
0.0
  0
LINE
  5
8ACF3
330
1F
100
AcDbEntity
  8
cut
100
AcDbLine
 10
30.0249289679
 20
17.3868025201
 30
0.0
 11
29.97421407600001
 21
17.4653609664
 31
0.0
  0
LINE
  5
8ACF4
330
1F
100
AcDbEntity
  8
cut
100
AcDbLine
 10
29.97421407600001
 20
17.4653609664
 30
0.0
 11
29.92531279700001
 21
17.54529263259999
 31
0.0
  0
LINE
  5
8ACF5
330
1F
100
AcDbEntity
  8
cut
100
AcDbLine
 10
29.92531279700001
 20
17.54529263259999
 30
0.0
 11
29.87833244000001
 21
17.62646649349998
 31
0.0
  0
LINE
  5
8ACF6
330
1F
100
AcDbEntity
  8
cut
100
AcDbLine
 10
29.87833244000001
 20
17.62646649349998
 30
0.0
 11
29.83324601320001
 21
17.7089453527
 31
0.0
  0
LINE
  5
8ACF7
330
1F
100
AcDbEntity
  8
cut
100
AcDbLine
 10
29.83324601320001
 20
17.7089453527
 30
0.0
 11
29.79008050850002
 21
17.79266640669999
 31
0.0
  0
LINE
  5
8ACF8
330
1F
100
AcDbEntity
  8
cut
100
AcDbLine
 10
29.79008050850002
 20
17.79266640669999
 30
0.0
 11
29.74902421100001
 21
17.877310219
 31
0.0
  0
LINE
  5
8ACF9
330
1F
100
AcDbEntity
  8
cut
100
AcDbLine
 10
29.74902421100001
 20
17.877310219
 30
0.0
 11
29.71012828479999
 21
17.9627982924
 31
0.0
  0
LINE
  5
8ACFA
330
1F
100
AcDbEntity
  8
cut
100
AcDbLine
 10
29.71012828479999
 20
17.9627982924
 30
0.0
 11
29.67334156589999
 21
18.0492091242
 31
0.0
  0
LINE
  5
8ACFB
330
1F
100
AcDbEntity
  8
cut
100
AcDbLine
 10
29.67334156589999
 20
18.0492091242
 30
0.0
 11
29.63869884639999
 21
18.1364587698
 31
0.0
  0
LINE
  5
8ACFC
330
1F
100
AcDbEntity
  8
cut
100
AcDbLine
 10
29.63869884639999
 20
18.1364587698
 30
0.0
 11
29.60620623630001
 21
18.2245291545
 31
0.0
  0
LINE
  5
8ACFD
330
1F
100
AcDbEntity
  8
cut
100
AcDbLine
 10
29.60620623630001
 20
18.2245291545
 30
0.0
 11
29.57585762560002
 21
18.31343835299999
 31
0.0
  0
LINE
  5
8ACFE
330
1F
100
AcDbEntity
  8
cut
100
AcDbLine
 10
29.57585762560002
 20
18.31343835299999
 30
0.0
 11
29.5476694777
 21
18.4031566443
 31
0.0
  0
LINE
  5
8ACFF
330
1F
100
AcDbEntity
  8
cut
100
AcDbLine
 10
29.5476694777
 20
18.4031566443
 30
0.0
 11
29.5216315477
 21
18.49372907079998
 31
0.0
  0
LINE
  5
8AD00
330
1F
100
AcDbEntity
  8
cut
100
AcDbLine
 10
29.5216315477
 20
18.49372907079998
 30
0.0
 11
29.49775408049999
 21
18.5851105902
 31
0.0
  0
LINE
  5
8AD01
330
1F
100
AcDbEntity
  8
cut
100
AcDbLine
 10
29.49775408049999
 20
18.5851105902
 30
0.0
 11
29.47608427360001
 21
18.6771363545
 31
0.0
  0
LINE
  5
8AD02
330
1F
100
AcDbEntity
  8
cut
100
AcDbLine
 10
29.47608427360001
 20
18.6771363545
 30
0.0
 11
29.4566192842
 21
18.76982004959999
 31
0.0
  0
LINE
  5
8AD03
330
1F
100
AcDbEntity
  8
cut
100
AcDbLine
 10
29.4566192842
 20
18.76982004959999
 30
0.0
 11
29.43936195520001
 21
18.86314798959999
 31
0.0
  0
LINE
  5
8AD04
330
1F
100
AcDbEntity
  8
cut
100
AcDbLine
 10
29.43936195520001
 20
18.86314798959999
 30
0.0
 11
29.4243680134
 21
18.95691426999999
 31
0.0
  0
LINE
  5
8AD05
330
1F
100
AcDbEntity
  8
cut
100
AcDbLine
 10
29.4243680134
 20
18.95691426999999
 30
0.0
 11
29.411638404
 21
19.05113526549999
 31
0.0
  0
LINE
  5
8AD06
330
1F
100
AcDbEntity
  8
cut
100
AcDbLine
 10
29.411638404
 20
19.05113526549999
 30
0.0
 11
29.40117218160001
 21
19.1457946012
 31
0.0
  0
LINE
  5
8AD07
330
1F
100
AcDbEntity
  8
sk3
100
AcDbLine
 10
33.4999997235
 20
-5.2499999989
 30
0.0
 11
33.4999997235
 21
5.2499999989
 31
0.0
  0
LINE
  5
8AD08
330
1F
100
AcDbEntity
  8
sk3
100
AcDbLine
 10
34.0
 20
-7.599999998899996
 30
0.0
 11
34.0
 21
7.599999998899996
 31
0.0
  0
LINE
  5
8AD09
330
1F
100
AcDbEntity
  8
sk3
100
AcDbLine
 10
1.000000237499989
 20
-10.0249999989
 30
0.0
 11
0.0
 21
-11.02500026
 31
0.0
  0
LINE
  5
8AD0A
330
1F
100
AcDbEntity
  8
1
100
AcDbLine
 10
34.60032217079998
 20
20.6753706874
 30
0.0
 11
34.60786360409997
 21
20.67893504079999
 31
0.0
  0
LINE
  5
8AD0B
330
1F
100
AcDbEntity
  8
sk3
100
AcDbLine
 10
10.98135921279999
 20
9.5249999989
 30
0.0
 11
11.83926112079999
 21
9.925046228499999
 31
0.0
  0
LINE
  5
8AD0C
330
1F
100
AcDbEntity
  8
1
100
AcDbLine
 10
29.7161431431
 20
14.7392210077
 30
0.0
 11
29.59193866800001
 21
14.6967898335
 31
0.0
  0
LINE
  5
8AD0D
330
1F
100
AcDbEntity
  8
1
100
AcDbLine
 10
22.57542229559999
 20
24.52277747780001
 30
0.0
 11
14.3814996426
 21
22.32722252009999
 31
0.0
  0
LINE
  5
8AD0E
330
1F
100
AcDbEntity
  8
nocut
100
AcDbLine
 10
14.3814996426
 20
22.32722251999999
 30
0.0
 11
22.57542229570001
 21
24.52277747770001
 31
0.0
  0
LINE
  5
8AD0F
330
1F
100
AcDbEntity
  8
1
100
AcDbLine
 10
33.6327322768
 20
25.31788729990001
 30
0.0
 11
33.86106407
 21
25.3212961839
 31
0.0
  0
LINE
  5
8AD10
330
1F
100
AcDbEntity
  8
1
100
AcDbLine
 10
33.86106407
 20
25.3212961839
 30
0.0
 11
34.47356554480001
 21
25.32834032
 31
0.0
  0
LINE
  5
8AD11
330
1F
100
AcDbEntity
  8
1
100
AcDbLine
 10
34.47356554480001
 20
25.32834032
 30
0.0
 11
35.0962379838
 21
25.3332846623
 31
0.0
  0
LINE
  5
8AD12
330
1F
100
AcDbEntity
  8
1
100
AcDbLine
 10
35.0962379838
 20
25.3332846623
 30
0.0
 11
35.72928687680003
 21
25.3360881733
 31
0.0
  0
LINE
  5
8AD13
330
1F
100
AcDbEntity
  8
1
100
AcDbLine
 10
35.72928687680003
 20
25.3360881733
 30
0.0
 11
36.3729297479
 21
25.33671051780001
 31
0.0
  0
LINE
  5
8AD14
330
1F
100
AcDbEntity
  8
1
100
AcDbLine
 10
13.60504250719998
 20
22.2249999989
 30
0.0
 11
1.5
 21
22.2249999989
 31
0.0
  0
LINE
  5
8AD15
330
1F
100
AcDbEntity
  8
nocut
100
AcDbLine
 10
1.5
 20
22.2249999989
 30
0.0
 11
13.6050425073
 21
22.2249999989
 31
0.0
  0
LINE
  5
8AD16
330
1F
100
AcDbEntity
  8
nocut
100
AcDbLine
 10
23.35187943099999
 20
24.62499999889999
 30
0.0
 11
43.66233764650003
 21
24.62499999889999
 31
0.0
  0
LINE
  5
8AD17
330
1F
100
AcDbEntity
  8
1
100
AcDbLine
 10
23.3518794309
 20
24.62499999889999
 30
0.0
 11
24.1057344466
 21
24.62499999889999
 31
0.0
  0
LINE
  5
8AD18
330
1F
100
AcDbEntity
  8
cut
100
AcDbLine
 10
33.63533755329999
 20
25.3999999989
 30
0.0
 11
45.30575741579997
 21
25.3999999989
 31
0.0
  0
LINE
  5
8AD19
330
1F
100
AcDbEntity
  8
1
100
AcDbLine
 10
36.3729297479
 20
25.33671051780001
 30
0.0
 11
37.027396916
 21
25.3351119997
 31
0.0
  0
LINE
  5
8AD1A
330
1F
100
AcDbEntity
  8
1
100
AcDbLine
 10
37.027396916
 20
25.3351119997
 30
0.0
 11
37.69292761719999
 21
25.3312537945
 31
0.0
  0
LINE
  5
8AD1B
330
1F
100
AcDbEntity
  8
1
100
AcDbLine
 10
37.69292761719999
 20
25.3312537945
 30
0.0
 11
38.3697780051
 21
25.32509742240002
 31
0.0
  0
LINE
  5
8AD1C
330
1F
100
AcDbEntity
  8
1
100
AcDbLine
 10
38.3697780051
 20
25.32509742240002
 30
0.0
 11
39.05824735990001
 21
25.3166030484
 31
0.0
  0
LINE
  5
8AD1D
330
1F
100
AcDbEntity
  8
1
100
AcDbLine
 10
39.05824735990001
 20
25.3166030484
 30
0.0
 11
39.7586387604
 21
25.3057319758
 31
0.0
  0
LINE
  5
8AD1E
330
1F
100
AcDbEntity
  8
1
100
AcDbLine
 10
39.7586387604
 20
25.3057319758
 30
0.0
 11
40.4713182396
 21
25.29244283
 31
0.0
  0
LINE
  5
8AD1F
330
1F
100
AcDbEntity
  8
1
100
AcDbLine
 10
40.4713182396
 20
25.29244283
 30
0.0
 11
41.19668652839999
 21
25.2766933397
 31
0.0
  0
LINE
  5
8AD20
330
1F
100
AcDbEntity
  8
1
100
AcDbLine
 10
41.19668652839999
 20
25.2766933397
 30
0.0
 11
41.9351703002
 21
25.2584408762
 31
0.0
  0
LINE
  5
8AD21
330
1F
100
AcDbEntity
  8
1
100
AcDbLine
 10
31.9204156349
 20
24.0344024173
 30
0.0
 11
31.02265180079999
 21
24.0574574564
 31
0.0
  0
LINE
  5
8AD22
330
1F
100
AcDbEntity
  8
1
100
AcDbLine
 10
41.9351703002
 20
25.2584408762
 30
0.0
 11
42.6872617013
 21
25.2376398819
 31
0.0
  0
LINE
  5
8AD23
330
1F
100
AcDbEntity
  8
1
100
AcDbLine
 10
42.6872617013
 20
25.2376398819
 30
0.0
 11
43.45355085059997
 21
25.2142397415
 31
0.0
  0
LINE
  5
8AD24
330
1F
100
AcDbEntity
  8
1
100
AcDbLine
 10
43.45355085059997
 20
25.2142397415
 30
0.0
 11
44.2346899339
 21
25.18818706019999
 31
0.0
  0
LINE
  5
8AD25
330
1F
100
AcDbEntity
  8
1
100
AcDbLine
 10
44.2346899339
 20
25.18818706019999
 30
0.0
 11
45.0313308762
 21
25.1594296592
 31
0.0
  0
LINE
  5
8AD26
330
1F
100
AcDbEntity
  8
1
100
AcDbLine
 10
45.2869593304
 20
25.1495493968
 30
0.0
 11
45.0313308762
 21
25.1594296592
 31
0.0
  0
LINE
  5
8AD27
330
1F
100
AcDbEntity
  8
1
100
AcDbLine
 10
45.51575924379999
 20
25.13863058610001
 30
0.0
 11
45.2869593304
 21
25.1495493968
 31
0.0
  0
LINE
  5
8AD28
330
1F
100
AcDbEntity
  8
1
100
AcDbLine
 10
33.58505104139999
 20
25.3205280447
 30
0.0
 11
33.6327322768
 21
25.31788729990001
 31
0.0
  0
LINE
  5
8AD29
330
1F
100
AcDbEntity
  8
1
100
AcDbLine
 10
44.27682552549997
 20
19.4643979298
 30
0.0
 11
44.1434622854
 21
19.48804748669999
 31
0.0
  0
LINE
  5
8AD2A
330
1F
100
AcDbEntity
  8
1
100
AcDbLine
 10
34.91806113440001
 20
21.2506470036
 30
0.0
 11
35.04766636060001
 21
21.2276638624
 31
0.0
  0
LINE
  5
8AD2B
330
1F
100
AcDbEntity
  8
1
100
AcDbLine
 10
35.76373887170003
 20
21.3130897853
 30
0.0
 11
35.90235526719999
 21
21.2885086764
 31
0.0
  0
LINE
  5
8AD2C
330
1F
100
AcDbEntity
  8
1
100
AcDbLine
 10
42.1153414954
 20
20.2512713211
 30
0.0
 11
41.98399734769997
 21
20.27456282839999
 31
0.0
  0
LINE
  5
8AD2D
330
1F
100
AcDbEntity
  8
1
100
AcDbLine
 10
36.154445474
 20
21.46945655379999
 30
0.0
 11
36.28405070029999
 21
21.4464734127
 31
0.0
  0
LINE
  5
8AD2E
330
1F
100
AcDbEntity
  8
1
100
AcDbLine
 10
44.40331856789998
 20
20.0552843134
 30
0.0
 11
44.46678598379997
 21
20.04402951589999
 31
0.0
  0
LINE
  5
8AD2F
330
1F
100
AcDbEntity
  8
1
100
AcDbLine
 10
42.24385363019999
 20
20.8417996551
 30
0.0
 11
42.37721687039999
 21
20.8181500982
 31
0.0
  0
LINE
  5
8AD30
330
1F
100
AcDbEntity
  8
1
100
AcDbLine
 10
43.63340015030003
 20
21.1040514964
 30
0.0
 11
43.77171046479997
 21
21.0795246654
 31
0.0
  0
LINE
  5
8AD31
330
1F
100
AcDbEntity
  8
1
100
AcDbLine
 10
42.66471908559998
 20
21.3067169793
 30
0.0
 11
42.7943243119
 21
21.2837338382
 31
0.0
  0
LINE
  5
8AD32
330
1F
100
AcDbEntity
  8
1
100
AcDbLine
 10
43.91495970239997
 20
21.1969536335
 30
0.0
 11
44.04456492859997
 21
21.1739704923
 31
0.0
  0
LINE
  5
8AD33
330
1F
100
AcDbEntity
  8
nocut
100
AcDbLine
 10
43.66233764650003
 20
24.62499999889999
 30
0.0
 11
45.22421893809999
 21
23.6490282484
 31
0.0
  0
LINE
  5
8AD34
330
1F
100
AcDbEntity
  8
sk3
100
AcDbLine
 10
43.07169045609998
 20
-7.9999999989
 30
0.0
 11
43.07169045609998
 21
7.9999999989
 31
0.0
  0
LINE
  5
8AD35
330
1F
100
AcDbEntity
  8
1
100
AcDbLine
 10
44.07169045609999
 20
15.1231557688
 30
0.0
 11
44.07169045609999
 21
13.49757433459999
 31
0.0
  0
LINE
  5
8AD36
330
1F
100
AcDbEntity
  8
sk3
100
AcDbLine
 10
44.07169045609999
 20
-16.5190074413
 30
0.0
 11
44.07169045609999
 21
16.51900744129999
 31
0.0
  0
LINE
  5
8AD37
330
1F
100
AcDbEntity
  8
1
100
AcDbLine
 10
44.88088146069997
 20
15.1274626716
 30
0.0
 11
44.88088146069997
 21
13.50544813509999
 31
0.0
  0
LINE
  5
8AD38
330
1F
100
AcDbEntity
  8
1
100
AcDbLine
 10
45.66183840029998
 20
13.51212717259999
 30
0.0
 11
45.66183840029998
 21
15.3156051303
 31
0.0
  0
LINE
  5
8AD39
330
1F
100
AcDbEntity
  8
1
100
AcDbLine
 10
46.33750121079997
 20
15.7278570456
 30
0.0
 11
46.33750121079997
 21
13.51306832929999
 31
0.0
  0
LINE
  5
8AD3A
330
1F
100
AcDbEntity
  8
sk3
100
AcDbLine
 10
46.33750121079997
 20
18.1348384489
 30
0.0
 11
47.32138259959998
 21
19.8424928292
 31
0.0
  0
LINE
  5
8AD3B
330
1F
100
AcDbEntity
  8
cut
100
AcDbLine
 10
48.79638147560001
 20
19.70826440469999
 30
0.0
 11
48.75269141810001
 21
19.6377392243
 31
0.0
  0
LINE
  5
8AD3C
330
1F
100
AcDbEntity
  8
cut
100
AcDbLine
 10
48.75269141810001
 20
19.6377392243
 30
0.0
 11
48.694285648
 21
19.54459993539998
 31
0.0
  0
LINE
  5
8AD3D
330
1F
100
AcDbEntity
  8
cut
100
AcDbLine
 10
48.694285648
 20
19.54459993539998
 30
0.0
 11
48.6356208745
 21
19.45220415789999
 31
0.0
  0
LINE
  5
8AD3E
330
1F
100
AcDbEntity
  8
cut
100
AcDbLine
 10
48.6356208745
 20
19.45220415789999
 30
0.0
 11
48.59122059369997
 21
19.3830695099
 31
0.0
  0
LINE
  5
8AD3F
330
1F
100
AcDbEntity
  8
cut
100
AcDbLine
 10
48.59122059369997
 20
19.3830695099
 30
0.0
 11
48.21912605059997
 21
18.81220860259999
 31
0.0
  0
LINE
  5
8AD40
330
1F
100
AcDbEntity
  8
cut
100
AcDbLine
 10
48.21912605059997
 20
18.81220860259999
 30
0.0
 11
47.78908941820001
 21
18.1536220262
 31
0.0
  0
LINE
  5
8AD41
330
1F
100
AcDbEntity
  8
cut
100
AcDbLine
 10
47.78908941820001
 20
18.1536220262
 30
0.0
 11
47.18617677899999
 21
17.2318845632
 31
0.0
  0
LINE
  5
8AD42
330
1F
100
AcDbEntity
  8
cut
100
AcDbLine
 10
47.18617677899999
 20
17.2318845632
 30
0.0
 11
46.74891314809999
 21
16.56472158549999
 31
0.0
  0
LINE
  5
8AD43
330
1F
100
AcDbEntity
  8
cut
100
AcDbLine
 10
46.74891314809999
 20
16.56472158549999
 30
0.0
 11
46.4769813739
 21
16.1504000928
 31
0.0
  0
LINE
  5
8AD44
330
1F
100
AcDbEntity
  8
cut
100
AcDbLine
 10
46.47698137740003
 20
16.1504000982
 30
0.0
 11
46.46783684289998
 21
16.13672840549999
 31
0.0
  0
LINE
  5
8AD45
330
1F
100
AcDbEntity
  8
1
100
AcDbLine
 10
46.4864676806
 20
15.8956091166
 30
0.0
 11
46.47698177279999
 21
15.8819173215
 31
0.0
  0
LINE
  5
8AD46
330
1F
100
AcDbEntity
  8
1
100
AcDbLine
 10
48.5462428261
 20
18.8520461432
 30
0.0
 11
46.4864676806
 21
15.8956091166
 31
0.0
  0
LINE
  5
8AD47
330
1F
100
AcDbEntity
  8
cut
100
AcDbLine
 10
46.46783684289998
 20
16.13672840549999
 30
0.0
 11
46.45844310789999
 21
16.1232898397
 31
0.0
  0
LINE
  5
8AD48
330
1F
100
AcDbEntity
  8
cut
100
AcDbLine
 10
46.45844310789999
 20
16.1232898397
 30
0.0
 11
46.4488001725
 21
16.1100844007
 31
0.0
  0
LINE
  5
8AD49
330
1F
100
AcDbEntity
  8
cut
100
AcDbLine
 10
46.4488001725
 20
16.1100844007
 30
0.0
 11
46.438908341
 21
16.0971195927
 31
0.0
  0
LINE
  5
8AD4A
330
1F
100
AcDbEntity
  8
cut
100
AcDbLine
 10
46.438908341
 20
16.0971195927
 30
0.0
 11
46.42876730910001
 21
16.0843879115
 31
0.0
  0
LINE
  5
8AD4B
330
1F
100
AcDbEntity
  8
cut
100
AcDbLine
 10
46.42876730910001
 20
16.0843879115
 30
0.0
 11
46.41837616300001
 21
16.0718668451
 31
0.0
  0
LINE
  5
8AD4C
330
1F
100
AcDbEntity
  8
cut
100
AcDbLine
 10
46.41837616300001
 20
16.0718668451
 30
0.0
 11
46.40773745399999
 21
16.05955837419999
 31
0.0
  0
LINE
  5
8AD4D
330
1F
100
AcDbEntity
  8
cut
100
AcDbLine
 10
46.40773745399999
 20
16.05955837419999
 30
0.0
 11
46.39684863079998
 21
16.04746051809999
 31
0.0
  0
LINE
  5
8AD4E
330
1F
100
AcDbEntity
  8
cut
100
AcDbLine
 10
46.39684863079998
 20
16.04746051809999
 30
0.0
 11
46.38570112579998
 21
16.03554482219999
 31
0.0
  0
LINE
  5
8AD4F
330
1F
100
AcDbEntity
  8
cut
100
AcDbLine
 10
46.38570112579998
 20
16.03554482219999
 30
0.0
 11
46.37429772379999
 21
16.0238063361
 31
0.0
  0
LINE
  5
8AD50
330
1F
100
AcDbEntity
  8
sk3
100
AcDbLine
 10
33.4999997235
 20
5.2499999989
 30
0.0
 11
34.0
 21
5.750000301799999
 31
0.0
  0
LINE
  5
8AD51
330
1F
100
AcDbEntity
  8
cut
100
AcDbLine
 10
46.37429772379999
 20
16.0238063361
 30
0.0
 11
46.36263564
 21
16.0122500102
 31
0.0
  0
LINE
  5
8AD52
330
1F
100
AcDbEntity
  8
cut
100
AcDbLine
 10
46.36263564
 20
16.0122500102
 30
0.0
 11
46.35069795239998
 21
16.0008622409
 31
0.0
  0
LINE
  5
8AD53
330
1F
100
AcDbEntity
  8
cut
100
AcDbLine
 10
46.35069795239998
 20
16.0008622409
 30
0.0
 11
46.33849011809999
 21
15.9896429526
 31
0.0
  0
LINE
  5
8AD54
330
1F
100
AcDbEntity
  8
cut
100
AcDbLine
 10
46.33849011809999
 20
15.9896429526
 30
0.0
 11
46.32600668009999
 21
15.978592221
 31
0.0
  0
LINE
  5
8AD55
330
1F
100
AcDbEntity
  8
cut
100
AcDbLine
 10
46.32600668009999
 20
15.978592221
 30
0.0
 11
46.31321434540001
 21
15.96769666919999
 31
0.0
  0
LINE
  5
8AD56
330
1F
100
AcDbEntity
  8
cut
100
AcDbLine
 10
46.31321434540001
 20
15.96769666919999
 30
0.0
 11
46.30010900939999
 21
15.9569512589
 31
0.0
  0
LINE
  5
8AD57
330
1F
100
AcDbEntity
  8
cut
100
AcDbLine
 10
46.30010900939999
 20
15.9569512589
 30
0.0
 11
46.2866947768
 21
15.9463610284
 31
0.0
  0
LINE
  5
8AD58
330
1F
100
AcDbEntity
  8
cut
100
AcDbLine
 10
46.2866947768
 20
15.9463610284
 30
0.0
 11
46.27295066789996
 21
15.935927717
 31
0.0
  0
LINE
  5
8AD59
330
1F
100
AcDbEntity
  8
cut
100
AcDbLine
 10
46.27295066789996
 20
15.935927717
 30
0.0
 11
46.25887637709999
 21
15.9256498929
 31
0.0
  0
LINE
  5
8AD5A
330
1F
100
AcDbEntity
  8
cut
100
AcDbLine
 10
46.25887637709999
 20
15.9256498929
 30
0.0
 11
46.24447221010001
 21
15.9155289877
 31
0.0
  0
LINE
  5
8AD5B
330
1F
100
AcDbEntity
  8
cut
100
AcDbLine
 10
46.24447221010001
 20
15.9155289877
 30
0.0
 11
46.22971810360001
 21
15.90557103539999
 31
0.0
  0
LINE
  5
8AD5C
330
1F
100
AcDbEntity
  8
cut
100
AcDbLine
 10
46.22971810360001
 20
15.90557103539999
 30
0.0
 11
46.21460737009999
 21
15.8957780472
 31
0.0
  0
LINE
  5
8AD5D
330
1F
100
AcDbEntity
  8
cut
100
AcDbLine
 10
46.21460737009999
 20
15.8957780472
 30
0.0
 11
46.19914669719997
 21
15.8861480119
 31
0.0
  0
LINE
  5
8AD5E
330
1F
100
AcDbEntity
  8
cut
100
AcDbLine
 10
46.19914669719997
 20
15.8861480119
 30
0.0
 11
46.18333608479999
 21
15.8766809293
 31
0.0
  0
LINE
  5
8AD5F
330
1F
100
AcDbEntity
  8
cut
100
AcDbLine
 10
46.18333609000001
 20
15.8766809324
 30
0.0
 11
45.33990204529998
 21
15.38279575139999
 31
0.0
  0
LINE
  5
8AD60
330
1F
100
AcDbEntity
  8
1
100
AcDbLine
 10
46.1833360923
 20
15.6185293979
 30
0.0
 11
45.33990205290002
 21
15.12860078919999
 31
0.0
  0
LINE
  5
8AD61
330
1F
100
AcDbEntity
  8
nocut
100
AcDbLine
 10
47.22688265379997
 20
20.83360907749999
 30
0.0
 11
47.36477613539999
 21
20.22911089289999
 31
0.0
  0
LINE
  5
8AD62
330
1F
100
AcDbEntity
  8
1
100
AcDbLine
 10
47.3213825995
 20
13.48541891019999
 30
0.0
 11
47.3213825995
 21
17.093979427
 31
0.0
  0
LINE
  5
8AD63
330
1F
100
AcDbEntity
  8
nocut
100
AcDbLine
 10
47.37479387719996
 20
20.1401511363
 30
0.0
 11
47.37479387719996
 21
0.0
 31
0.0
  0
LINE
  5
8AD64
330
1F
100
AcDbEntity
  8
1
100
AcDbLine
 10
47.37479387719996
 20
17.17064171669999
 30
0.0
 11
47.37479387719996
 21
-20.1401483357
 31
0.0
  0
LINE
  5
8AD65
330
1F
100
AcDbEntity
  8
cut
100
AcDbLine
 10
49.30575741579997
 20
21.3999999989
 30
0.0
 11
49.30575741579997
 21
20.7677124217
 31
0.0
  0
LINE
  5
8AD66
330
1F
100
AcDbEntity
  8
1
100
AcDbLine
 10
49.30575741579997
 20
20.2940516307
 30
0.0
 11
49.30575741579997
 21
21.1490803823
 31
0.0
  0
LINE
  5
8AD67
330
1F
100
AcDbEntity
  8
cut
100
AcDbLine
 10
49.30575741579997
 20
20.7677124217
 30
0.0
 11
49.30538645619998
 21
20.7440185835
 31
0.0
  0
LINE
  5
8AD68
330
1F
100
AcDbEntity
  8
cut
100
AcDbLine
 10
49.30538645619998
 20
20.7440185835
 30
0.0
 11
49.30426828100002
 21
20.72032351879999
 31
0.0
  0
LINE
  5
8AD69
330
1F
100
AcDbEntity
  8
cut
100
AcDbLine
 10
49.30426828100002
 20
20.72032351879999
 30
0.0
 11
49.30240289020001
 21
20.6966272278
 31
0.0
  0
LINE
  5
8AD6A
330
1F
100
AcDbEntity
  8
cut
100
AcDbLine
 10
49.30240289020001
 20
20.6966272278
 30
0.0
 11
49.2997842071
 21
20.6728897696
 31
0.0
  0
LINE
  5
8AD6B
330
1F
100
AcDbEntity
  8
cut
100
AcDbLine
 10
49.2997842071
 20
20.6728897696
 30
0.0
 11
49.29641830829999
 21
20.6491510851
 31
0.0
  0
LINE
  5
8AD6C
330
1F
100
AcDbEntity
  8
cut
100
AcDbLine
 10
49.29641830829999
 20
20.6491510851
 30
0.0
 11
49.29232342409999
 21
20.62553099629999
 31
0.0
  0
LINE
  5
8AD6D
330
1F
100
AcDbEntity
  8
cut
100
AcDbLine
 10
49.29232342409999
 20
20.62553099629999
 30
0.0
 11
49.28750614820001
 21
20.6020621156
 31
0.0
  0
LINE
  5
8AD6E
330
1F
100
AcDbEntity
  8
cut
100
AcDbLine
 10
49.28750614820001
 20
20.6020621156
 30
0.0
 11
49.28195988689997
 21
20.5787118306
 31
0.0
  0
LINE
  5
8AD6F
330
1F
100
AcDbEntity
  8
cut
100
AcDbLine
 10
49.28195988689997
 20
20.5787118306
 30
0.0
 11
49.27568308899997
 21
20.5555021266
 31
0.0
  0
LINE
  5
8AD70
330
1F
100
AcDbEntity
  8
cut
100
AcDbLine
 10
49.27568308899997
 20
20.5555021266
 30
0.0
 11
49.2686670864
 21
20.5324008848
 31
0.0
  0
LINE
  5
8AD71
330
1F
100
AcDbEntity
  8
cut
100
AcDbLine
 10
49.2686670864
 20
20.5324008848
 30
0.0
 11
49.26092054719998
 21
20.5094402239
 31
0.0
  0
LINE
  5
8AD72
330
1F
100
AcDbEntity
  8
cut
100
AcDbLine
 10
49.26092054719998
 20
20.5094402239
 30
0.0
 11
49.2524679245
 21
20.4867384851
 31
0.0
  0
LINE
  5
8AD73
330
1F
100
AcDbEntity
  8
cut
100
AcDbLine
 10
49.2524679245
 20
20.4867384851
 30
0.0
 11
49.2433173693
 21
20.4643351154
 31
0.0
  0
LINE
  5
8AD74
330
1F
100
AcDbEntity
  8
cut
100
AcDbLine
 10
49.2433173693
 20
20.4643351154
 30
0.0
 11
49.23346073049997
 21
20.44219066789999
 31
0.0
  0
LINE
  5
8AD75
330
1F
100
AcDbEntity
  8
cut
100
AcDbLine
 10
49.23346073049997
 20
20.44219066789999
 30
0.0
 11
49.22289800819999
 21
20.4203051424
 31
0.0
  0
LINE
  5
8AD76
330
1F
100
AcDbEntity
  8
cut
100
AcDbLine
 10
49.22289800859999
 20
20.4203051432
 30
0.0
 11
49.219137453
 21
20.4129259528
 31
0.0
  0
LINE
  5
8AD77
330
1F
100
AcDbEntity
  8
cut
100
AcDbLine
 10
49.219137453
 20
20.4129259528
 30
0.0
 11
49.21526647030001
 21
20.4055498173
 31
0.0
  0
LINE
  5
8AD78
330
1F
100
AcDbEntity
  8
cut
100
AcDbLine
 10
49.21526647030001
 20
20.4055498173
 30
0.0
 11
49.21128506050002
 21
20.39817673679999
 31
0.0
  0
LINE
  5
8AD79
330
1F
100
AcDbEntity
  8
cut
100
AcDbLine
 10
49.21128506050002
 20
20.39817673679999
 30
0.0
 11
49.2071932234
 21
20.39080671120001
 31
0.0
  0
LINE
  5
8AD7A
330
1F
100
AcDbEntity
  8
cut
100
AcDbLine
 10
49.2071932234
 20
20.39080671120001
 30
0.0
 11
49.2029909592
 21
20.3834397405
 31
0.0
  0
LINE
  5
8AD7B
330
1F
100
AcDbEntity
  8
cut
100
AcDbLine
 10
49.2029909592
 20
20.3834397405
 30
0.0
 11
49.1986782679
 21
20.3760758248
 31
0.0
  0
LINE
  5
8AD7C
330
1F
100
AcDbEntity
  8
1
100
AcDbLine
 10
49.19867826579999
 20
19.8940461165
 30
0.0
 11
49.16131592479999
 21
19.8314625995
 31
0.0
  0
LINE
  5
8AD7D
330
1F
100
AcDbEntity
  8
cut
100
AcDbLine
 10
49.1986782676
 20
20.3760758244
 30
0.0
 11
48.8969368818
 21
19.8735663628
 31
0.0
  0
LINE
  5
8AD7E
330
1F
100
AcDbEntity
  8
1
100
AcDbLine
 10
49.16131592479999
 20
19.8314625995
 30
0.0
 11
48.89693687189997
 21
19.39291689919999
 31
0.0
  0
LINE
  5
8AD7F
330
1F
100
AcDbEntity
  8
cut
100
AcDbLine
 10
48.8969368819
 20
19.87356636299999
 30
0.0
 11
48.8541101014
 21
19.802658946
 31
0.0
  0
LINE
  5
8AD80
330
1F
100
AcDbEntity
  8
cut
100
AcDbLine
 10
48.8541101014
 20
19.802658946
 30
0.0
 11
48.8108879344
 21
19.73185338669999
 31
0.0
  0
LINE
  5
8AD81
330
1F
100
AcDbEntity
  8
cut
100
AcDbLine
 10
48.8108879344
 20
19.73185338669999
 30
0.0
 11
48.79638147560001
 21
19.70826440469999
 31
0.0
  0
LINE
  5
8AD82
330
1F
100
AcDbEntity
  8
sk3
100
AcDbLine
 10
43.07169045609998
 20
7.9999999989
 30
0.0
 11
44.07169045609999
 21
8.999999998900001
 31
0.0
  0
LINE
  5
8AD83
330
1F
100
AcDbEntity
  8
1
100
AcDbLine
 10
47.22688265369998
 20
-20.8336090797
 30
0.0
 11
47.36477613539999
 21
-20.2291108951
 31
0.0
  0
LINE
  5
8AD84
330
1F
100
AcDbEntity
  8
1
100
AcDbLine
 10
43.66233764650003
 20
-24.6250000011
 30
0.0
 11
45.22421893809999
 21
-23.6490282506
 31
0.0
  0
ARC
  5
8AD85
330
1F
100
AcDbEntity
  8
nocut
100
AcDbCircle
 10
42.83958224909997
 20
19.83281181569999
 30
0.0
 40
4.5
100
AcDbArc
 50
12.84999999999987
 51
58.0000000000003
  0
ARC
  5
8AD86
330
1F
100
AcDbEntity
  8
1
100
AcDbCircle
 10
42.83958224909997
 20
-19.83281181789999
 30
0.0
 40
4.5
100
AcDbArc
 50
301.9999999999997
 51
347.1500000000002
  0
ARC
  5
8AD87
330
1F
100
AcDbEntity
  8
cut
100
AcDbCircle
 10
45.30575741579997
 20
21.3999999989
 30
0.0
 40
4.0
100
AcDbArc
 50
0.0
 51
90.0
  0
ARC
  5
8AD88
330
1F
100
AcDbEntity
  8
nocut
100
AcDbCircle
 10
13.6050425073
 20
25.2249999989
 30
0.0
 40
3.0
100
AcDbArc
 50
270.0
 51
284.9999999999996
  0
ARC
  5
8AD89
330
1F
100
AcDbEntity
  8
nocut
100
AcDbCircle
 10
23.35187943099999
 20
21.6249999989
 30
0.0
 40
3.0
100
AcDbArc
 50
90.0
 51
104.9999999999995
  0
ARC
  5
8AD8A
330
1F
100
AcDbEntity
  8
1
100
AcDbCircle
 10
13.60504250719998
 20
-25.2250000011
 30
0.0
 40
3.0
100
AcDbArc
 50
75.00000000000047
 51
90.0
  0
ARC
  5
8AD8B
330
1F
100
AcDbEntity
  8
1
100
AcDbCircle
 10
13.60504250719998
 20
25.2249999989
 30
0.0
 40
3.0
100
AcDbArc
 50
270.0
 51
284.9999999999996
  0
ARC
  5
8AD8C
330
1F
100
AcDbEntity
  8
1
100
AcDbCircle
 10
23.3518794309
 20
21.6249999989
 30
0.0
 40
3.0
100
AcDbArc
 50
90.0
 51
104.9999999999995
  0
ARC
  5
8AD8D
330
1F
100
AcDbEntity
  8
1
100
AcDbCircle
 10
23.3518794309
 20
-21.6250000011
 30
0.0
 40
3.0
100
AcDbArc
 50
255.0000000000005
 51
270.0
  0
ARC
  5
8AD8E
330
1F
100
AcDbEntity
  8
nocut
100
AcDbCircle
 10
1.5
 20
20.7249999989
 30
0.0
 40
1.5
100
AcDbArc
 50
90.0
 51
180.0
  0
ARC
  5
8AD8F
330
1F
100
AcDbEntity
  8
1
100
AcDbCircle
 10
1.5
 20
20.7249999989
 30
0.0
 40
1.5
100
AcDbArc
 50
90.0
 51
180.0
  0
ARC
  5
8AD90
330
1F
100
AcDbEntity
  8
1
100
AcDbCircle
 10
1.5
 20
-20.7250000011
 30
0.0
 40
1.5
100
AcDbArc
 50
180.0
 51
270.0
  0
ARC
  5
8AD91
330
1F
100
AcDbEntity
  8
sk3
100
AcDbCircle
 10
45.07169045609997
 20
16.51900744129999
 30
0.0
 40
1.0
100
AcDbArc
 50
101.0000000000007
 51
180.0
  0
ARC
  5
8AD92
330
1F
100
AcDbEntity
  8
sk3
100
AcDbCircle
 10
45.47102940499999
 20
18.6340644595
 30
0.0
 40
1.0
100
AcDbArc
 50
281.0000000000007
 51
330.0511935317006
  0
ARC
  5
8AD93
330
1F
100
AcDbEntity
  8
sk3
100
AcDbCircle
 10
45.07169045609997
 20
-16.5190074413
 30
0.0
 40
1.0
100
AcDbArc
 50
180.0
 51
258.9999999999993
  0
ARC
  5
8AD94
330
1F
100
AcDbEntity
  8
sk3
100
AcDbCircle
 10
45.47102940499999
 20
-18.6340644595
 30
0.0
 40
1.0
100
AcDbArc
 50
29.94880646829943
 51
78.99999999999931
  0
ARC
  5
8AD96
330
1F
100
AcDbEntity
  8
sk3
100
AcDbCircle
 10
18.19999999999999
 20
9.199999998899995
 30
0.0
 40
0.8
100
AcDbArc
 50
0.0
 51
90.0
  0
ARC
  5
8AD97
330
1F
100
AcDbEntity
  8
sk3
100
AcDbCircle
 10
12.1773557301
 20
9.199999998899995
 30
0.0
 40
0.8
100
AcDbArc
 50
90.0
 51
114.9999999999997
  0
ARC
  5
8AD98
330
1F
100
AcDbEntity
  8
sk3
100
AcDbCircle
 10
18.19999999999999
 20
-9.199999998899995
 30
0.0
 40
0.8
100
AcDbArc
 50
270.0
 51
0.0
  0
ARC
  5
8AD99
330
1F
100
AcDbEntity
  8
sk3
100
AcDbCircle
 10
12.1773557301
 20
-9.199999998899995
 30
0.0
 40
0.8
100
AcDbArc
 50
245.0000000000003
 51
270.0
  0
ARC
  5
8AD9A
330
1F
100
AcDbEntity
  8
sk3
100
AcDbCircle
 10
34.39999999999999
 20
7.599999998899996
 30
0.0
 40
0.4
100
AcDbArc
 50
90.0
 51
180.0
  0
ARC
  5
8AD9B
330
1F
100
AcDbEntity
  8
sk3
100
AcDbCircle
 10
19.4
 20
5.6499999989
 30
0.0
 40
0.4
100
AcDbArc
 50
180.0
 51
270.0
  0
ARC
  5
8AD9C
330
1F
100
AcDbEntity
  8
sk3
100
AcDbCircle
 10
46.9747938772
 20
20.04218323339999
 30
0.0
 40
0.4
100
AcDbArc
 50
330.0511935317006
 51
0.0
  0
ARC
  5
8AD9D
330
1F
100
AcDbEntity
  8
sk3
100
AcDbCircle
 10
34.39999999999999
 20
-7.599999998899996
 30
0.0
 40
0.4
100
AcDbArc
 50
180.0
 51
270.0
  0
ARC
  5
8AD9E
330
1F
100
AcDbEntity
  8
sk3
100
AcDbCircle
 10
19.4
 20
-5.6499999989
 30
0.0
 40
0.4
100
AcDbArc
 50
90.0
 51
180.0
  0
ARC
  5
8AD9F
330
1F
100
AcDbEntity
  8
sk3
100
AcDbCircle
 10
46.9747938772
 20
-20.0421832334
 30
0.0
 40
0.4
100
AcDbArc
 50
0.0
 51
29.94880646829943
  0
ARC
  5
8ADA0
330
1F
100
AcDbEntity
  8
nocut
100
AcDbCircle
 10
46.9747938772
 20
20.1401511363
 30
0.0
 40
0.4
100
AcDbArc
 50
0.0
 51
12.84999999999987
  0
ARC
  5
8ADA1
330
1F
100
AcDbEntity
  8
1
100
AcDbCircle
 10
46.9747938772
 20
-20.1401511385
 30
0.0
 40
0.4
100
AcDbArc
 50
347.1500000000002
 51
0.0
  0
SPLINE
  5
8ADA2
330
1F
100
AcDbEntity
  8
1
100
AcDbSpline
210
0.0
220
0.0
230
1.0
 70
     8
 71
     3
 72
     9
 73
     5
 74
     0
 42
0.000000001
 43
0.0000001
 40
0.0
 40
0.0
 40
0.0
 40
0.0
 40
0.7498240786000001
 40
1.0
 40
1.0
 40
1.0
 40
1.0
 10
44.04825238469999
 20
22.2143960001
 30
0.0
 10
43.9593248466
 20
22.246761987
 30
0.0
 10
43.8376986184
 20
22.2822503031
 30
0.0
 10
43.7139226335
 20
22.3069880983
 30
0.0
 10
43.682833349
 20
22.3125016039
 30
0.0
  0
SPLINE
  5
8ADA3
330
1F
100
AcDbEntity
  8
1
100
AcDbSpline
210
0.0
220
0.0
230
1.0
 70
     8
 71
     3
 72
    27
 73
    23
 74
     0
 42
0.000000001
 43
0.0000001
 40
0.0
 40
0.0
 40
0.0
 40
0.0
 40
0.0623711143
 40
0.0935993453
 40
0.1248355552
 40
0.1872761326
 40
0.2497612868
 40
0.2810543657
 40
0.3123578763
 40
0.3749242607999999
 40
0.4375152467000002
 40
0.5001152046000002
 40
0.5627073079000002
 40
0.6252757982000002
 40
0.6878081044
 40
0.7190916704000001
 40
0.7503637431
 40
0.8128066417000001
 40
0.8752082838999999
 40
0.9064308278
 40
0.9376475098
 40
1.0
 40
1.0
 40
1.0
 40
1.0
 10
44.04825238469999
 20
22.2143960001
 30
0.0
 10
44.1754631922
 20
22.168096469
 30
0.0
 10
44.3604726687
 20
22.08049772249999
 30
0.0
 10
44.58706442399999
 20
21.93142657320001
 30
0.0
 10
44.79904400739998
 20
21.761854171
 30
0.0
 10
45.0331708186
 20
21.51391086669999
 30
0.0
 10
45.21749567939999
 20
21.2268543899
 30
0.0
 10
45.33127799009998
 20
20.97998807370001
 30
0.0
 10
45.4218470637
 20
20.7235130686
 30
0.0
 10
45.48993406299999
 20
20.3886621238
 30
0.0
 10
45.49630563969997
 20
19.97891373749999
 30
0.0
 10
45.42728755379999
 20
19.5748533309
 30
0.0
 10
45.2851975519
 20
19.190406189
 30
0.0
 10
45.07498231080001
 20
18.8387940946
 30
0.0
 10
44.84873484479999
 20
18.5829378978
 30
0.0
 10
44.64217438439999
 20
18.40622697669999
 30
0.0
 10
44.42032612539998
 20
18.24946290399999
 30
0.0
 10
44.11730161759999
 20
18.0932418645
 30
0.0
 10
43.79070605459998
 20
17.9958323733
 30
0.0
 10
43.52244510819999
 20
17.95519862309999
 30
0.0
 10
43.2517563861
 20
17.93963898549998
 30
0.0
 10
43.0478137021
 20
17.9564603302
 30
0.0
 10
42.91455896939999
 20
17.98009228999999
 30
0.0
  0
SPLINE
  5
8ADA4
330
1F
100
AcDbEntity
  8
1
100
AcDbSpline
210
0.0
220
0.0
230
1.0
 70
     8
 71
     3
 72
    27
 73
    23
 74
     0
 42
0.000000001
 43
0.0000001
 40
0.0
 40
0.0
 40
0.0
 40
0.0
 40
0.0623524902
 40
0.0935691722
 40
0.1247917161
 40
0.1871933583
 40
0.2496362569
 40
0.2809083296
 40
0.3121918956
 40
0.3747242018
 40
0.4372926921
 40
0.4998847954
 40
0.5624847533000002
 40
0.6250757392000002
 40
0.6876421237
 40
0.7189456343
 40
0.7502387131999999
 40
0.8127238673999999
 40
0.8751644448
 40
0.9064006546999999
 40
0.9376288856999998
 40
1.0
 40
1.0
 40
1.0
 40
1.0
 10
43.60405469799998
 20
22.3264715719
 30
0.0
 10
43.47079996529997
 20
22.35010353169998
 30
0.0
 10
43.26685728119996
 20
22.3669248765
 30
0.0
 10
42.99616855919999
 20
22.3513652388
 30
0.0
 10
42.72790761279998
 20
22.3107314887
 30
0.0
 10
42.40131204969998
 20
22.2133219974
 30
0.0
 10
42.09828754200001
 20
22.0571009579
 30
0.0
 10
41.87643928289997
 20
21.9003368852
 30
0.0
 10
41.66987882259999
 20
21.7236259641
 30
0.0
 10
41.44363135659999
 20
21.4677697673
 30
0.0
 10
41.23341611549999
 20
21.1161576729
 30
0.0
 10
41.09132611349999
 20
20.731710531
 30
0.0
 10
41.02230802759999
 20
20.3276501244
 30
0.0
 10
41.02867960430001
 20
19.9179017382
 30
0.0
 10
41.0967666036
 20
19.58305079329998
 30
0.0
 10
41.18733567719999
 20
19.3265757882
 30
0.0
 10
41.30111798799998
 20
19.079709472
 30
0.0
 10
41.48544284879999
 20
18.7926529952
 30
0.0
 10
41.71956965989999
 20
18.5447096909
 30
0.0
 10
41.93154924329999
 20
18.3751372887
 30
0.0
 10
42.15814099869999
 20
18.2260661394
 30
0.0
 10
42.34315047519999
 20
18.13846739289999
 30
0.0
 10
42.47036128269999
 20
18.0921678618
 30
0.0
  0
SPLINE
  5
8ADA5
330
1F
100
AcDbEntity
  8
1
100
AcDbSpline
210
0.0
220
0.0
230
1.0
 70
     8
 71
     3
 72
     9
 73
     5
 74
     0
 42
0.000000001
 43
0.0000001
 40
0.0
 40
0.0
 40
0.0
 40
0.0
 40
0.2501759214
 40
1.0
 40
1.0
 40
1.0
 40
1.0
 10
42.8357803184
 20
17.994062258
 30
0.0
 10
42.80469103379998
 20
17.9995757636
 30
0.0
 10
42.680915049
 20
18.02431355879999
 30
0.0
 10
42.55928882079999
 20
18.0598018749
 30
0.0
 10
42.47036128269999
 20
18.0921678618
 30
0.0
  0
SPLINE
  5
8ADA6
330
1F
100
AcDbEntity
  8
1
100
AcDbSpline
210
0.0
220
0.0
230
1.0
 70
     8
 71
     3
 72
    27
 73
    23
 74
     0
 42
0.000000001
 43
0.0000001
 40
0.0
 40
0.0
 40
0.0
 40
0.0
 40
0.0623711143
 40
0.0935993453
 40
0.1248355552
 40
0.1872761326
 40
0.2497612868
 40
0.2810543657
 40
0.3123578763
 40
0.3749242607999999
 40
0.4375152467000002
 40
0.5001152046000002
 40
0.5627073079000002
 40
0.6252757982000002
 40
0.6878081044
 40
0.7190916704000001
 40
0.7503637431
 40
0.8128066417000001
 40
0.8752082838999999
 40
0.9064308278
 40
0.9376475098
 40
1.0
 40
1.0
 40
1.0
 40
1.0
 10
43.9694737336
 20
22.2283659681
 30
0.0
 10
44.0966845411
 20
22.1820664369
 30
0.0
 10
44.28169401759999
 20
22.09446769039999
 30
0.0
 10
44.50828577300001
 20
21.9453965411
 30
0.0
 10
44.72026535639996
 20
21.7758241389
 30
0.0
 10
44.95439216759999
 20
21.5278808346
 30
0.0
 10
45.13871702839997
 20
21.2408243578
 30
0.0
 10
45.25249933909997
 20
20.9939580416
 30
0.0
 10
45.34306841270001
 20
20.7374830366
 30
0.0
 10
45.41115541199999
 20
20.4026320917
 30
0.0
 10
45.41752698869998
 20
19.9928837055
 30
0.0
 10
45.3485089028
 20
19.58882329879999
 30
0.0
 10
45.20641890079996
 20
19.2043761569
 30
0.0
 10
44.9962036597
 20
18.85276406259999
 30
0.0
 10
44.76995619370001
 20
18.5969078657
 30
0.0
 10
44.5633957334
 20
18.42019694469999
 30
0.0
 10
44.3415474744
 20
18.263432872
 30
0.0
 10
44.0385229666
 20
18.10721183249999
 30
0.0
 10
43.71192740349999
 20
18.0098023412
 30
0.0
 10
43.44366645709999
 20
17.969168591
 30
0.0
 10
43.1729777351
 20
17.9536089534
 30
0.0
 10
42.96903505099999
 20
17.9704302981
 30
0.0
 10
42.8357803184
 20
17.994062258
 30
0.0
  0
SPLINE
  5
8ADA7
330
1F
100
AcDbEntity
  8
1
100
AcDbSpline
210
0.0
220
0.0
230
1.0
 70
     8
 71
     3
 72
     9
 73
     5
 74
     0
 42
0.000000001
 43
0.0000001
 40
0.0
 40
0.0
 40
0.0
 40
0.0
 40
0.2480690647
 40
1.0
 40
1.0
 40
1.0
 40
1.0
 10
44.31904292460001
 20
19.450019055
 30
0.0
 10
44.3157968795
 20
19.45178936179999
 30
0.0
 10
44.30237702609999
 20
19.4583098794
 30
0.0
 10
44.28786100349998
 20
19.46244231839999
 30
0.0
 10
44.27682593340001
 20
19.4643997448
 30
0.0
  0
SPLINE
  5
8ADA8
330
1F
100
AcDbEntity
  8
1
100
AcDbSpline
210
0.0
220
0.0
230
1.0
 70
     8
 71
     3
 72
    15
 73
    11
 74
     0
 42
0.000000001
 43
0.0000001
 40
0.0
 40
0.0
 40
0.0
 40
0.0
 40
0.0590197156
 40
0.1177723577
 40
0.2361015293
 40
0.3578712751
 40
0.4828034566
 40
0.6101965329
 40
0.7393564717000001
 40
1.0
 40
1.0
 40
1.0
 40
1.0
 10
43.21553467299997
 20
18.88659480459999
 30
0.0
 10
43.2192888169
 20
18.89573763209998
 30
0.0
 10
43.22439001160001
 20
18.9150608439
 30
0.0
 10
43.22473309970003
 20
18.9549372448
 30
0.0
 10
43.2087287448
 20
19.00366266429999
 30
0.0
 10
43.1735877814
 20
19.0542769912
 30
0.0
 10
43.12811948270002
 20
19.09784230559998
 30
0.0
 10
43.07550003590001
 20
19.134460389
 30
0.0
 10
42.99840570229999
 20
19.1742565432
 30
0.0
 10
42.93520332909998
 20
19.1936460481
 30
0.0
 10
42.89222648079999
 20
19.2012704328
 30
0.0
  0
SPLINE
  5
8ADA9
330
1F
100
AcDbEntity
  8
1
100
AcDbSpline
210
0.0
220
0.0
230
1.0
 70
     8
 71
     3
 72
     8
 73
     4
 74
     0
 42
0.000000001
 43
0.0000001
 40
0.0
 40
0.0
 40
0.0
 40
0.0
 40
1.0
 40
1.0
 40
1.0
 40
1.0
 10
42.40821235379999
 20
19.1052584961
 30
0.0
 10
42.39227228129999
 20
19.1122180343
 30
0.0
 10
42.37682278879997
 20
19.1203797926
 30
0.0
 10
42.36196638129999
 20
19.1294245832
 30
0.0
  0
SPLINE
  5
8ADAA
330
1F
100
AcDbEntity
  8
1
100
AcDbSpline
210
0.0
220
0.0
230
1.0
 70
     8
 71
     3
 72
    17
 73
    13
 74
     0
 42
0.000000001
 43
0.0000001
 40
0.0
 40
0.0
 40
0.0
 40
0.0
 40
0.1276546735
 40
0.2552452842
 40
0.3825401217
 40
0.5092899983
 40
0.635133918
 40
0.7593637193000001
 40
0.8207209585999999
 40
0.8812315733
 40
0.9409087237999999
 40
1.0
 40
1.0
 40
1.0
 40
1.0
 10
42.36196638129999
 20
19.1294245832
 30
0.0
 10
42.3411192202
 20
19.1421166289
 30
0.0
 10
42.3015523256
 20
19.17109110209999
 30
0.0
 10
42.24923668979999
 20
19.22250864009999
 30
0.0
 10
42.20445557649997
 20
19.2804041966
 30
0.0
 10
42.16836055919997
 20
19.3437463326
 30
0.0
 10
42.14297359429999
 20
19.4115195776
 30
0.0
 10
42.1336547418
 20
19.47102683999999
 30
0.0
 10
42.1367970057
 20
19.5181787243
 30
0.0
 10
42.14555120599999
 20
19.5520309668
 30
0.0
 10
42.16167001499999
 20
19.5826818728
 30
0.0
 10
42.17754127910001
 20
19.59942471719999
 30
0.0
 10
42.18640631799998
 20
19.606428541
 30
0.0
  0
SPLINE
  5
8ADAB
330
1F
100
AcDbEntity
  8
1
100
AcDbSpline
210
0.0
220
0.0
230
1.0
 70
     8
 71
     3
 72
    22
 73
    18
 74
     0
 42
0.000000001
 43
0.0000001
 40
0.0
 40
0.0
 40
0.0
 40
0.0
 40
0.0595740225
 40
0.1195259546
 40
0.1804185558
 40
0.2422672325
 40
0.3049200939999999
 40
0.3681979286
 40
0.4958170485000001
 40
0.5600119014000002
 40
0.6242195171000002
 40
0.6882888294000002
 40
0.7520523539
 40
0.81532204
 40
0.8778768099999998
 40
0.9394796044999999
 40
1.0
 40
1.0
 40
1.0
 40
1.0
 10
42.18640631799998
 20
19.606428541
 30
0.0
 10
42.20201099909999
 20
19.6089827303
 30
0.0
 10
42.23252791459997
 20
19.6206122391
 30
0.0
 10
42.2691377054
 20
19.65255796629999
 30
0.0
 10
42.29652405129999
 20
19.6930565338
 30
0.0
 10
42.3158282054
 20
19.7385696441
 30
0.0
 10
42.32821474209997
 20
19.7870095814
 30
0.0
 10
42.33664308739999
 20
19.8539041472
 30
0.0
 10
42.33409403830001
 20
19.922117284
 30
0.0
 10
42.32196359249999
 20
19.9890466712
 30
0.0
 10
42.30806600779999
 20
20.0382976023
 30
0.0
 10
42.2893701978
 20
20.0858126868
 30
0.0
 10
42.26572139489999
 20
20.1308139569
 30
0.0
 10
42.2368653133
 20
20.172224371
 30
0.0
 10
42.20242428200001
 20
20.2084617747
 30
0.0
 10
42.16216302629999
 20
20.23704938679999
 30
0.0
 10
42.13115898249998
 20
20.2484728359
 30
0.0
 10
42.11534142619997
 20
20.2512731481
 30
0.0
  0
SPLINE
  5
8ADAC
330
1F
100
AcDbEntity
  8
1
100
AcDbSpline
210
0.0
220
0.0
230
1.0
 70
     8
 71
     3
 72
    13
 73
     9
 74
     0
 42
0.000000001
 43
0.0000001
 40
0.0
 40
0.0
 40
0.0
 40
0.0
 40
0.1204895804
 40
0.243309549
 40
0.3679100212
 40
0.4936112961
 40
0.7462744678000001
 40
1.0
 40
1.0
 40
1.0
 40
1.0
 10
42.04970655779999
 20
20.2628823644
 30
0.0
 10
42.03635989610001
 20
20.2710623422
 30
0.0
 10
42.01243347219999
 20
20.2928254818
 30
0.0
 10
41.9879490853
 20
20.3344366044
 30
0.0
 10
41.97299006809998
 20
20.3808639445
 30
0.0
 10
41.96363669980001
 20
20.4457623569
 30
0.0
 10
41.96830943520001
 20
20.52854352919999
 30
0.0
 10
41.98508916989999
 20
20.59258408759999
 30
0.0
 10
41.9963215107
 20
20.6235752176
 30
0.0
  0
SPLINE
  5
8ADAD
330
1F
100
AcDbEntity
  8
1
100
AcDbSpline
210
0.0
220
0.0
230
1.0
 70
     8
 71
     3
 72
    11
 73
     7
 74
     0
 42
0.000000001
 43
0.0000001
 40
0.0
 40
0.0
 40
0.0
 40
0.0
 40
0.2516529989
 40
0.5029972071
 40
0.7531688041
 40
1.0
 40
1.0
 40
1.0
 40
1.0
 10
41.99632151119999
 20
20.6235752174
 30
0.0
 10
42.0053855776
 20
20.6485838657
 30
0.0
 10
42.02724789839999
 20
20.6973036624
 30
0.0
 10
42.07103883119997
 20
20.7642516495
 30
0.0
 10
42.12612274759999
 20
20.82167101459999
 30
0.0
 10
42.1718399471
 20
20.84976987410001
 30
0.0
 10
42.1963374126
 20
20.8587480792
 30
0.0
  0
SPLINE
  5
8ADAE
330
1F
100
AcDbEntity
  8
1
100
AcDbSpline
210
0.0
220
0.0
230
1.0
 70
     8
 71
     3
 72
    15
 73
    11
 74
     0
 42
0.000000001
 43
0.0000001
 40
0.0
 40
0.0
 40
0.0
 40
0.0
 40
0.0588703847
 40
0.1182236114
 40
0.2388838602
 40
0.3627516422999999
 40
0.4886120104
 40
0.6156764876
 40
0.7435153745000001
 40
1.0
 40
1.0
 40
1.0
 40
1.0
 10
42.7943243119
 20
21.2837338382
 30
0.0
 10
42.79217125909997
 20
21.2936570294
 30
0.0
 10
42.7904825288
 20
21.3142557727
 30
0.0
 10
42.7976184102
 20
21.3552121984
 30
0.0
 10
42.8235893721
 20
21.4022807795
 30
0.0
 10
42.8696663806
 20
21.4472749427
 30
0.0
 10
42.92455572030002
 20
21.4826975899
 30
0.0
 10
42.9848378705
 20
21.50934578299999
 30
0.0
 10
43.06967239819999
 20
21.5340335654
 30
0.0
 10
43.1365613766
 20
21.5407108859
 30
0.0
 10
43.18077765289999
 20
21.5392938155
 30
0.0
  0
SPLINE
  5
8ADAF
330
1F
100
AcDbEntity
  8
1
100
AcDbSpline
210
0.0
220
0.0
230
1.0
 70
     8
 71
     3
 72
     9
 73
     5
 74
     0
 42
0.000000001
 43
0.0000001
 40
0.0
 40
0.0
 40
0.0
 40
0.0
 40
0.4954777384000001
 40
1.0
 40
1.0
 40
1.0
 40
1.0
 10
44.04456492859997
 20
21.1739704923
 30
0.0
 10
44.05277530199998
 20
21.1813879508
 30
0.0
 10
44.07182972919996
 20
21.1938051753
 30
0.0
 10
44.0935841765
 20
21.20005065049999
 30
0.0
 10
44.10470549439998
 20
21.2018549994
 30
0.0
  0
SPLINE
  5
8ADB0
330
1F
100
AcDbEntity
  8
1
100
AcDbSpline
210
0.0
220
0.0
230
1.0
 70
     8
 71
     3
 72
    27
 73
    23
 74
     0
 42
0.000000001
 43
0.0000001
 40
0.0
 40
0.0
 40
0.0
 40
0.0
 40
0.0623606158
 40
0.0935766004
 40
0.1247945065
 40
0.1871766845
 40
0.249593738
 40
0.2808567593
 40
0.3121318869
 40
0.3746429342
 40
0.4371976939000001
 40
0.4997849417000002
 40
0.5623885472
 40
0.6249899033
 40
0.6875707237000001
 40
0.7188860713
 40
0.7501909342000001
 40
0.8126904059999999
 40
0.8751425023999999
 40
0.9063871247999999
 40
0.9376229653999999
 40
1.0
 40
1.0
 40
1.0
 40
1.0
 10
43.8410019707
 20
21.9510091168
 30
0.0
 10
43.7247895113
 20
21.99330569910001
 30
0.0
 10
43.54347204949998
 20
22.0396999656
 30
0.0
 10
43.296999555
 20
22.06505163300001
 30
0.0
 10
43.04910717600001
 20
22.0660849379
 30
0.0
 10
42.74077953159999
 20
22.0215243386
 30
0.0
 10
42.44707462459999
 20
21.917373489
 30
0.0
 10
42.22790483759999
 20
21.8009906528
 30
0.0
 10
42.0210230086
 20
21.66362231969999
 30
0.0
 10
41.7890865728
 20
21.4546181041
 30
0.0
 10
41.56509327679997
 20
21.1545152131
 30
0.0
 10
41.40361538899997
 20
20.81637318929999
 30
0.0
 10
41.3109311435
 20
20.4532031205
 30
0.0
 10
41.29054865469997
 20
20.07902076160001
 30
0.0
 10
41.3345819726
 20
19.7696222752
 30
0.0
 10
41.40526864599999
 20
19.5312477057
 30
0.0
 10
41.49882107479998
 20
19.3010529949
 30
0.0
 10
41.6573512331
 20
19.032328793
 30
0.0
 10
41.86527000189999
 20
18.7998672811
 30
0.0
 10
42.0560580282
 20
18.64122958849998
 30
0.0
 10
42.261288593
 20
18.5021857164
 30
0.0
 10
42.4300708883
 20
18.4211457434
 30
0.0
 10
42.54631394490002
 20
18.37883802499999
 30
0.0
  0
SPLINE
  5
8ADB1
330
1F
100
AcDbEntity
  8
1
100
AcDbSpline
210
0.0
220
0.0
230
1.0
 70
     8
 71
     3
 72
     9
 73
     5
 74
     0
 42
0.000000001
 43
0.0000001
 40
0.0
 40
0.0
 40
0.0
 40
0.0
 40
0.2525796354
 40
1.0
 40
1.0
 40
1.0
 40
1.0
 10
43.33074005409996
 20
18.7687863377
 30
0.0
 10
43.3261026358
 20
18.7704833556
 30
0.0
 10
43.30791780859999
 20
18.7776559441
 30
0.0
 10
43.29047212899999
 20
18.786825737
 30
0.0
 10
43.27833997729999
 20
18.7949709186
 30
0.0
  0
SPLINE
  5
8ADB2
330
1F
100
AcDbEntity
  8
1
100
AcDbSpline
210
0.0
220
0.0
230
1.0
 70
     8
 71
     3
 72
    10
 73
     6
 74
     0
 42
0.000000001
 43
0.0000001
 40
0.0
 40
0.0
 40
0.0
 40
0.0
 40
0.5067431510000002
 40
0.7546151981
 40
1.0
 40
1.0
 40
1.0
 40
1.0
 10
43.27833997729999
 20
18.7949709186
 30
0.0
 10
43.26233791419997
 20
18.8057142486
 30
0.0
 10
43.2403933031
 20
18.8255233663
 30
0.0
 10
43.2216925723
 20
18.8589849062
 30
0.0
 10
43.21677263429999
 20
18.8773440723
 30
0.0
 10
43.21553467299997
 20
18.88659480459999
 30
0.0
  0
SPLINE
  5
8ADB3
330
1F
100
AcDbEntity
  8
1
100
AcDbSpline
210
0.0
220
0.0
230
1.0
 70
     8
 71
     3
 72
    27
 73
    23
 74
     0
 42
0.000000001
 43
0.0000001
 40
0.0
 40
0.0
 40
0.0
 40
0.0
 40
0.0623770346
 40
0.0936128752
 40
0.1248574976
 40
0.187309594
 40
0.2498090658
 40
0.2811139287
 40
0.3124292763
 40
0.3750100967
 40
0.4376114528000001
 40
0.5002150583000002
 40
0.5628023061000002
 40
0.6253570658
 40
0.6878681131000001
 40
0.7191432406999999
 40
0.7504062620000001
 40
0.8128233155
 40
0.8752054935
 40
0.9064233995999998
 40
0.9376393842
 40
1.0
 40
1.0
 40
1.0
 40
1.0
 10
43.8410019707
 20
21.9510091168
 30
0.0
 10
43.95724502730002
 20
21.9087013984
 30
0.0
 10
44.1260273226
 20
21.8276614254
 30
0.0
 10
44.33125788739999
 20
21.68861755329999
 30
0.0
 10
44.5220459137
 20
21.5299798607
 30
0.0
 10
44.72996468249998
 20
21.2975183488
 30
0.0
 10
44.88849484079998
 20
21.0287941469
 30
0.0
 10
44.9820472696
 20
20.7985994362
 30
0.0
 10
45.05273394299999
 20
20.5602248666
 30
0.0
 10
45.09676726089997
 20
20.2508263802
 30
0.0
 10
45.0763847721
 20
19.87664402129999
 30
0.0
 10
44.98370052659999
 20
19.51347395249999
 30
0.0
 10
44.82222263879997
 20
19.1753319287
 30
0.0
 10
44.59822934279997
 20
18.8752290378
 30
0.0
 10
44.366292907
 20
18.6662248221
 30
0.0
 10
44.15941107809999
 20
18.528856489
 30
0.0
 10
43.94024129109999
 20
18.4124736528
 30
0.0
 10
43.64653638399999
 20
18.3083228032
 30
0.0
 10
43.33820873959999
 20
18.2637622039
 30
0.0
 10
43.09031636060001
 20
18.2647955088
 30
0.0
 10
42.8438438661
 20
18.29014717629999
 30
0.0
 10
42.66252640429999
 20
18.33654144269999
 30
0.0
 10
42.54631394490002
 20
18.37883802499999
 30
0.0
  0
SPLINE
  5
8ADB4
330
1F
100
AcDbEntity
  8
1
100
AcDbSpline
210
0.0
220
0.0
230
1.0
 70
     8
 71
     3
 72
     9
 73
     5
 74
     0
 42
0.000000001
 43
0.0000001
 40
0.0
 40
0.0
 40
0.0
 40
0.0
 40
0.7498240786000001
 40
1.0
 40
1.0
 40
1.0
 40
1.0
 10
43.9694737336
 20
22.2283659681
 30
0.0
 10
43.8805461955
 20
22.2607319549
 30
0.0
 10
43.7589199674
 20
22.296220271
 30
0.0
 10
43.63514398249998
 20
22.32095806620002
 30
0.0
 10
43.60405469799998
 20
22.3264715719
 30
0.0
  0
SPLINE
  5
8ADB5
330
1F
100
AcDbEntity
  8
1
100
AcDbSpline
210
0.0
220
0.0
230
1.0
 70
     8
 71
     3
 72
    13
 73
     9
 74
     0
 42
0.000000001
 43
0.0000001
 40
0.0
 40
0.0
 40
0.0
 40
0.0
 40
0.2618371462
 40
0.5160332993
 40
0.6398280026
 40
0.7610706261
 40
0.8804883335999999
 40
1.0
 40
1.0
 40
1.0
 40
1.0
 10
43.77171015900001
 20
21.0795230301
 30
0.0
 10
43.79857317720001
 20
21.074757311
 30
0.0
 10
43.8523756141
 20
21.0696041282
 30
0.0
 10
43.91942055499998
 20
21.0767653099
 30
0.0
 10
43.9688501617
 20
21.0937123585
 30
0.0
 10
44.00200149189998
 20
21.1128630881
 30
0.0
 10
44.0291560352
 20
21.1394698723
 30
0.0
 10
44.0408232936
 20
21.1620932252
 30
0.0
 10
44.04456492859997
 20
21.1739704923
 30
0.0
  0
SPLINE
  5
8ADB6
330
1F
100
AcDbEntity
  8
1
100
AcDbSpline
210
0.0
220
0.0
230
1.0
 70
     8
 71
     3
 72
    17
 73
    13
 74
     0
 42
0.000000001
 43
0.0000001
 40
0.0
 40
0.0
 40
0.0
 40
0.0
 40
0.1243108893
 40
0.2515985418
 40
0.380032132
 40
0.5083250919
 40
0.635367513
 40
0.7599600106000001
 40
0.8211313957999999
 40
0.8813428684999998
 40
0.9407366667999999
 40
1.0
 40
1.0
 40
1.0
 40
1.0
 10
42.37721650660001
 20
20.8181482755
 30
0.0
 10
42.40741486579998
 20
20.8127917285
 30
0.0
 10
42.47106375620001
 20
20.8163285337
 30
0.0
 10
42.5603259901
 20
20.8468736374
 30
0.0
 10
42.6425930069
 20
20.8950239845
 30
0.0
 10
42.71498950770001
 20
20.9567887503
 30
0.0
 10
42.7746740232
 20
21.029709809
 30
0.0
 10
42.81043342869997
 20
21.09913887200001
 30
0.0
 10
42.8255729601
 20
21.15818681539999
 30
0.0
 10
42.82815084610001
 20
21.2030813478
 30
0.0
 10
42.81934485679999
 20
21.2469488426
 30
0.0
 10
42.80400497240001
 20
21.27277626820001
 30
0.0
 10
42.7943243119
 20
21.2837338382
 30
0.0
  0
SPLINE
  5
8ADB7
330
1F
100
AcDbEntity
  8
1
100
AcDbSpline
210
0.0
220
0.0
230
1.0
 70
     8
 71
     3
 72
    11
 73
     7
 74
     0
 42
0.000000001
 43
0.0000001
 40
0.0
 40
0.0
 40
0.0
 40
0.0
 40
0.2503056302
 40
0.500364449
 40
0.7502365454000001
 40
1.0
 40
1.0
 40
1.0
 40
1.0
 10
37.81484521850001
 20
21.1993130445
 30
0.0
 10
37.74109198740001
 20
21.3579665192
 30
0.0
 10
37.55487011060001
 20
21.6586692699
 30
0.0
 10
37.1771669961
 20
22.0294530177
 30
0.0
 10
36.72255496
 20
22.29977864049999
 30
0.0
 10
36.3846564314
 20
22.4026707138
 30
0.0
 10
36.21275808970001
 20
22.4331495597
 30
0.0
  0
SPLINE
  5
8ADB8
330
1F
100
AcDbEntity
  8
1
100
AcDbSpline
210
0.0
220
0.0
230
1.0
 70
     8
 71
     3
 72
    21
 73
    17
 74
     0
 42
0.000000001
 43
0.0000001
 40
0.0
 40
0.0
 40
0.0
 40
0.0
 40
0.0625639922
 40
0.1251631699
 40
0.1877763968
 40
0.2504060547
 40
0.3130391257
 40
0.3756678583
 40
0.5005874806000002
 40
0.6253980500000002
 40
0.6878988601
 40
0.7503666213
 40
0.8128044443
 40
0.8752176523000001
 40
0.9376133739
 40
1.0
 40
1.0
 40
1.0
 40
1.0
 10
37.81484521850001
 20
21.1993130445
 30
0.0
 10
37.85694948060001
 20
21.108740911
 30
0.0
 10
37.92891158700002
 20
20.9215486282
 30
0.0
 10
37.99770743889999
 20
20.6288675868
 30
0.0
 10
38.02618246509999
 20
20.3293981705
 30
0.0
 10
38.01382506110002
 20
20.0288051305
 30
0.0
 10
37.96080734419999
 20
19.732588351
 30
0.0
 10
37.83759782200002
 20
19.3515850915
 30
0.0
 10
37.58815449459999
 20
18.9121955678
 30
0.0
 10
37.2295113898
 20
18.5565542261
 30
0.0
 10
36.89440588100001
 20
18.33851209849999
 30
0.0
 10
36.62290529070001
 20
18.21052237079999
 30
0.0
 10
36.33666900470001
 20
18.1208072134
 30
0.0
 10
36.04095760669998
 20
18.0709866078
 30
0.0
 10
35.7413533587
 20
18.06198886379999
 30
0.0
 10
35.54255177279998
 20
18.08335484869999
 30
0.0
 10
35.4444841907
 20
18.10074295559999
 30
0.0
  0
SPLINE
  5
8ADB9
330
1F
100
AcDbEntity
  8
1
100
AcDbSpline
210
0.0
220
0.0
230
1.0
 70
     8
 71
     3
 72
    21
 73
    17
 74
     0
 42
0.000000001
 43
0.0000001
 40
0.0
 40
0.0
 40
0.0
 40
0.0
 40
0.0623866261
 40
0.1247823477
 40
0.1871955557
 40
0.2496333787
 40
0.3121011399
 40
0.37460195
 40
0.4994125194
 40
0.6243321417000001
 40
0.6869608743000001
 40
0.7495939453
 40
0.8122236031999998
 40
0.8748368300999999
 40
0.9374360078
 40
1.0
 40
1.0
 40
1.0
 40
1.0
 10
36.13397943870001
 20
22.4471195277
 30
0.0
 10
36.03591185650001
 20
22.4645076345
 30
0.0
 10
35.8371102706
 20
22.4858736194
 30
0.0
 10
35.53750602259999
 20
22.4768758754
 30
0.0
 10
35.24179462469999
 20
22.4270552699
 30
0.0
 10
34.95555833859999
 20
22.3373401124
 30
0.0
 10
34.68405774839999
 20
22.20935038469999
 30
0.0
 10
34.34895223960001
 20
21.9913082572
 30
0.0
 10
33.99030913479999
 20
21.63566691539999
 30
0.0
 10
33.7408658073
 20
21.19627739169999
 30
0.0
 10
33.61765628519999
 20
20.81527413219999
 30
0.0
 10
33.56463856829999
 20
20.5190573528
 30
0.0
 10
33.55228116429998
 20
20.2184643127
 30
0.0
 10
33.58075619049998
 20
19.9189948965
 30
0.0
 10
33.6495520423
 20
19.62631385509999
 30
0.0
 10
33.72151414870001
 20
19.4391215722
 30
0.0
 10
33.76361841080001
 20
19.3485494388
 30
0.0
  0
SPLINE
  5
8ADBA
330
1F
100
AcDbEntity
  8
1
100
AcDbSpline
210
0.0
220
0.0
230
1.0
 70
     8
 71
     3
 72
    11
 73
     7
 74
     0
 42
0.000000001
 43
0.0000001
 40
0.0
 40
0.0
 40
0.0
 40
0.0
 40
0.2497634546
 40
0.499635551
 40
0.7496943698000002
 40
1.0
 40
1.0
 40
1.0
 40
1.0
 10
35.36570553960002
 20
18.1147129235
 30
0.0
 10
35.193807198
 20
18.1451917695
 30
0.0
 10
34.85590866929999
 20
18.2480838428
 30
0.0
 10
34.40129663319999
 20
18.5184094656
 30
0.0
 10
34.0235935188
 20
18.8891932133
 30
0.0
 10
33.83737164190002
 20
19.1898959641
 30
0.0
 10
33.76361841080001
 20
19.3485494388
 30
0.0
  0
SPLINE
  5
8ADBB
330
1F
100
AcDbEntity
  8
1
100
AcDbSpline
210
0.0
220
0.0
230
1.0
 70
     8
 71
     3
 72
    21
 73
    17
 74
     0
 42
0.000000001
 43
0.0000001
 40
0.0
 40
0.0
 40
0.0
 40
0.0
 40
0.0625639922
 40
0.1251631699
 40
0.1877763968
 40
0.2504060547
 40
0.3130391257
 40
0.3756678583
 40
0.5005874806000002
 40
0.6253980500000002
 40
0.6878988601
 40
0.7503666213
 40
0.8128044443
 40
0.8752176523000001
 40
0.9376133739
 40
1.0
 40
1.0
 40
1.0
 40
1.0
 10
37.73606656749999
 20
21.21328301240001
 30
0.0
 10
37.77817082960002
 20
21.122710879
 30
0.0
 10
37.850132936
 20
20.9355185961
 30
0.0
 10
37.91892878779999
 20
20.64283755469999
 30
0.0
 10
37.94740381399999
 20
20.3433681385
 30
0.0
 10
37.93504640999998
 20
20.0427750984
 30
0.0
 10
37.88202869309998
 20
19.746558319
 30
0.0
 10
37.758819171
 20
19.3655550595
 30
0.0
 10
37.50937584349998
 20
18.92616553579999
 30
0.0
 10
37.1507327388
 20
18.570524194
 30
0.0
 10
36.8156272299
 20
18.3524820665
 30
0.0
 10
36.54412663969998
 20
18.2244923388
 30
0.0
 10
36.2578903536
 20
18.13477718129998
 30
0.0
 10
35.96217895569998
 20
18.08495657579999
 30
0.0
 10
35.6625747077
 20
18.0759588318
 30
0.0
 10
35.4637731218
 20
18.09732481669999
 30
0.0
 10
35.36570553960002
 20
18.1147129235
 30
0.0
  0
SPLINE
  5
8ADBC
330
1F
100
AcDbEntity
  8
1
100
AcDbSpline
210
0.0
220
0.0
230
1.0
 70
     8
 71
     3
 72
    13
 73
     9
 74
     0
 42
0.000000001
 43
0.0000001
 40
0.0
 40
0.0
 40
0.0
 40
0.0
 40
0.1187214054
 40
0.2376422028
 40
0.3588819359
 40
0.4829186191
 40
0.7378344916
 40
1.0
 40
1.0
 40
1.0
 40
1.0
 10
36.072791951
 20
19.0224759056
 30
0.0
 10
36.07462116810001
 20
19.03649217789999
 30
0.0
 10
36.07276581629998
 20
19.065527107
 30
0.0
 10
36.05518285209999
 20
19.10517999999999
 30
0.0
 10
36.027624535
 20
19.13914122919999
 30
0.0
 10
35.98155892969999
 20
19.1773167132
 30
0.0
 10
35.91259849879998
 20
19.2120530611
 30
0.0
 10
35.8527780929
 20
19.2280269122
 30
0.0
 10
35.8220434923
 20
19.23347524789999
 30
0.0
  0
SPLINE
  5
8ADBD
330
1F
100
AcDbEntity
  8
1
100
AcDbSpline
210
0.0
220
0.0
230
1.0
 70
     8
 71
     3
 72
    17
 73
    13
 74
     0
 42
0.000000001
 43
0.0000001
 40
0.0
 40
0.0
 40
0.0
 40
0.0
 40
0.0593844552
 40
0.1189571671
 40
0.1793686828
 40
0.2407369992
 40
0.3656666699
 40
0.4928991249
 40
0.621229475
 40
0.7495278558000002
 40
0.8764445173999998
 40
1.0
 40
1.0
 40
1.0
 40
1.0
 10
34.89275284069999
 20
19.4501754154
 30
0.0
 10
34.9064363624
 20
19.45620339969998
 30
0.0
 10
34.93171221429998
 20
19.4737368768
 30
0.0
 10
34.9583935677
 20
19.5109637275
 30
0.0
 10
34.97483762019999
 20
19.55396669129999
 30
0.0
 10
34.98549539440001
 20
19.61544635829999
 30
0.0
 10
34.98124954420001
 20
19.6952237422
 30
0.0
 10
34.95609077009999
 20
19.7882021688
 30
0.0
 10
34.9142303658
 20
19.8758859504
 30
0.0
 10
34.85714548839999
 20
19.9545744538
 30
0.0
 10
34.78586090170001
 20
20.0189002935
 30
0.0
 10
34.72676689119999
 20
20.0463708797
 30
0.0
 10
34.69613445969998
 20
20.051801498
 30
0.0
  0
SPLINE
  5
8ADBE
330
1F
100
AcDbEntity
  8
1
100
AcDbSpline
210
0.0
220
0.0
230
1.0
 70
     8
 71
     3
 72
    15
 73
    11
 74
     0
 42
0.000000001
 43
0.0000001
 40
0.0
 40
0.0
 40
0.0
 40
0.0
 40
0.1231405982
 40
0.248404584
 40
0.3744177788
 40
0.5006671242000002
 40
0.6268584322000002
 40
0.7526871474
 40
0.8775656573999999
 40
1.0
 40
1.0
 40
1.0
 40
1.0
 10
34.5402937504
 20
20.0773787809
 30
0.0
 10
34.51922377459999
 20
20.0951927319
 30
0.0
 10
34.48526672100002
 20
20.1412718147
 30
0.0
 10
34.45634865509999
 20
20.2206215738
 30
0.0
 10
34.44362706630001
 20
20.3047439951
 30
0.0
 10
34.44510790700002
 20
20.389879118
 30
0.0
 10
34.45991094800002
 20
20.4736935248
 30
0.0
 10
34.48865110439998
 20
20.553646624
 30
0.0
 10
34.5327352086
 20
20.62540063620001
 30
0.0
 10
34.57583449560002
 20
20.6630043177
 30
0.0
 10
34.60032217079998
 20
20.6753706874
 30
0.0
  0
SPLINE
  5
8ADBF
330
1F
100
AcDbEntity
  8
1
100
AcDbSpline
210
0.0
220
0.0
230
1.0
 70
     8
 71
     3
 72
     8
 73
     4
 74
     0
 42
0.000000001
 43
0.0000001
 40
0.0
 40
0.0
 40
0.0
 40
0.0
 40
1.0
 40
1.0
 40
1.0
 40
1.0
 10
34.60786360409997
 20
20.67893504079999
 30
0.0
 10
34.61537697519998
 20
20.68224524959999
 30
0.0
 10
34.62318651409999
 20
20.6849684439
 30
0.0
 10
34.63115463840001
 20
20.6869476415
 30
0.0
  0
SPLINE
  5
8ADC0
330
1F
100
AcDbEntity
  8
1
100
AcDbSpline
210
0.0
220
0.0
230
1.0
 70
     8
 71
     3
 72
    14
 73
    10
 74
     0
 42
0.000000001
 43
0.0000001
 40
0.0
 40
0.0
 40
0.0
 40
0.0
 40
0.1189074491
 40
0.2400028076
 40
0.3636832344
 40
0.4892474711000001
 40
0.6160490055
 40
0.7436507411
 40
1.0
 40
1.0
 40
1.0
 40
1.0
 10
35.04766636060001
 20
21.2276638624
 30
0.0
 10
35.04030258609998
 20
21.2421789771
 30
0.0
 10
35.03163842250001
 20
21.2749815738
 30
0.0
 10
35.03766670260001
 20
21.32524282070001
 30
0.0
 10
35.05723780279999
 20
21.3724933977
 30
0.0
 10
35.08612061650001
 20
21.4154031491
 30
0.0
 10
35.12152872270002
 20
21.4537314889
 30
0.0
 10
35.1751357597
 20
21.49879606410001
 30
0.0
 10
35.2207591358
 20
21.5258574481
 30
0.0
 10
35.25252295140001
 20
21.5407679147
 30
0.0
  0
SPLINE
  5
8ADC1
330
1F
100
AcDbEntity
  8
1
100
AcDbSpline
210
0.0
220
0.0
230
1.0
 70
     8
 71
     3
 72
     9
 73
     5
 74
     0
 42
0.000000001
 43
0.0000001
 40
0.0
 40
0.0
 40
0.0
 40
0.0
 40
0.4998797037
 40
1.0
 40
1.0
 40
1.0
 40
1.0
 10
35.2525229516
 20
21.5407679142
 30
0.0
 10
35.28164718080001
 20
21.5544393148
 30
0.0
 10
35.34244961209998
 20
21.5766444331
 30
0.0
 10
35.4065928734
 20
21.5868832463
 30
0.0
 10
35.43876185649998
 20
21.5880151032
 30
0.0
  0
SPLINE
  5
8ADC2
330
1F
100
AcDbEntity
  8
1
100
AcDbSpline
210
0.0
220
0.0
230
1.0
 70
     8
 71
     3
 72
    11
 73
     7
 74
     0
 42
0.000000001
 43
0.0000001
 40
0.0
 40
0.0
 40
0.0
 40
0.0
 40
0.2428285996
 40
0.4894711318000002
 40
0.7419022784
 40
1.0
 40
1.0
 40
1.0
 40
1.0
 10
36.28405070029999
 20
21.4464734127
 30
0.0
 10
36.290210801
 20
21.4561050348
 30
0.0
 10
36.30584634109999
 20
21.4736417684
 30
0.0
 10
36.3361576344
 20
21.49184110629999
 30
0.0
 10
36.3705224016
 20
21.5023101453
 30
0.0
 10
36.39455599510001
 20
21.50483648839999
 30
0.0
 10
36.4067021793
 20
21.5052117382
 30
0.0
  0
SPLINE
  5
8ADC3
330
1F
100
AcDbEntity
  8
1
100
AcDbSpline
210
0.0
220
0.0
230
1.0
 70
     8
 71
     3
 72
    27
 73
    23
 74
     0
 42
0.000000001
 43
0.0000001
 40
0.0
 40
0.0
 40
0.0
 40
0.0
 40
0.0625472497
 40
0.0938707291
 40
0.1252004034
 40
0.1878025792
 40
0.2504060854
 40
0.2817403136
 40
0.3130683574
 40
0.3756231712
 40
0.4381342526
 40
0.5005970209
 40
0.5630142656000002
 40
0.6253957186
 40
0.6877565629000002
 40
0.7189728706000002
 40
0.7501909137000001
 40
0.8125657329999999
 40
0.8749740829
 40
0.9062297359
 40
0.9374982167
 40
1.0
 40
1.0
 40
1.0
 40
1.0
 10
37.43895827919999
 20
21.09079874289999
 30
0.0
 10
37.49124710889998
 20
20.97831818579999
 30
0.0
 10
37.5533321929
 20
20.8011536887
 30
0.0
 10
37.60029841250001
 20
20.5570569958
 30
0.0
 10
37.62326258140002
 20
20.3093575798
 30
0.0
 10
37.60634076800001
 20
19.99728145499999
 30
0.0
 10
37.5289940217
 20
19.69444986499999
 30
0.0
 10
37.43287234589999
 20
19.46500237049999
 30
0.0
 10
37.31489674030001
 20
19.24610537079999
 30
0.0
 10
37.12809734849998
 20
18.99581617370001
 30
0.0
 10
36.85009362649998
 20
18.7452804896
 30
0.0
 10
36.5287568712
 20
18.55385838579999
 30
0.0
 10
36.17644624109999
 20
18.4290024399
 30
0.0
 10
35.8067792487
 20
18.3754809884
 30
0.0
 10
35.49575376669998
 20
18.3921255975
 30
0.0
 10
35.25292853140002
 20
18.4416909815
 30
0.0
 10
35.01610921380001
 20
18.5148644931
 30
0.0
 10
34.73526705979998
 20
18.6496459572
 30
0.0
 10
34.48624625310002
 20
18.836899809
 30
0.0
 10
34.31198102669998
 20
19.01352561999999
 30
0.0
 10
34.15577452349999
 20
19.2064455743
 30
0.0
 10
34.0604584187
 20
19.36794822679999
 30
0.0
 10
34.00820759839998
 20
19.4803470203
 30
0.0
  0
SPLINE
  5
8ADC4
330
1F
100
AcDbEntity
  8
1
100
AcDbSpline
210
0.0
220
0.0
230
1.0
 70
     8
 71
     3
 72
     8
 73
     4
 74
     0
 42
0.000000001
 43
0.0000001
 40
0.0
 40
0.0
 40
0.0
 40
0.0
 40
1.0
 40
1.0
 40
1.0
 40
1.0
 10
35.16419724190001
 20
19.0437350869
 30
0.0
 10
35.14693822989999
 20
19.0497862789
 30
0.0
 10
35.13002050630002
 20
19.0568890493
 30
0.0
 10
35.113559614
 20
19.06485958549999
 30
0.0
  0
SPLINE
  5
8ADC5
330
1F
100
AcDbEntity
  8
1
100
AcDbSpline
210
0.0
220
0.0
230
1.0
 70
     8
 71
     3
 72
    15
 73
    11
 74
     0
 42
0.000000001
 43
0.0000001
 40
0.0
 40
0.0
 40
0.0
 40
0.0
 40
0.2563764671
 40
0.3841150356
 40
0.5110783627000001
 40
0.6368476284000001
 40
0.7606720897
 40
0.8814433074
 40
0.9409458509
 40
1.0
 40
1.0
 40
1.0
 40
1.0
 10
35.113559614
 20
19.06485958549999
 30
0.0
 10
35.07555543929999
 20
19.0832616047
 30
0.0
 10
35.02170359870002
 20
19.1179580899
 30
0.0
 10
34.96004143159999
 20
19.1754675541
 30
0.0
 10
34.92005488619998
 20
19.2239969355
 30
0.0
 10
34.88836853499999
 20
19.2776807098
 30
0.0
 10
34.86827136119999
 20
19.3358019305
 30
0.0
 10
34.86610120410001
 20
19.3870695659
 30
0.0
 10
34.87704609470001
 20
19.4252744433
 30
0.0
 10
34.88689052010001
 20
19.4424145096
 30
0.0
 10
34.89275284069999
 20
19.4501754154
 30
0.0
  0
SPLINE
  5
8ADC6
330
1F
100
AcDbEntity
  8
1
100
AcDbSpline
210
0.0
220
0.0
230
1.0
 70
     8
 71
     3
 72
     9
 73
     5
 74
     0
 42
0.000000001
 43
0.0000001
 40
0.0
 40
0.0
 40
0.0
 40
0.0
 40
0.5065363892
 40
1.0
 40
1.0
 40
1.0
 40
1.0
 10
36.13298556850001
 20
18.9613702685
 30
0.0
 10
36.11983488829998
 20
18.96797783579999
 30
0.0
 10
36.09536042249999
 20
18.98462714329999
 30
0.0
 10
36.07836314809997
 20
19.0092650672
 30
0.0
 10
36.072791951
 20
19.0224759056
 30
0.0
  0
SPLINE
  5
8ADC7
330
1F
100
AcDbEntity
  8
1
100
AcDbSpline
210
0.0
220
0.0
230
1.0
 70
     8
 71
     3
 72
    27
 73
    23
 74
     0
 42
0.000000001
 43
0.0000001
 40
0.0
 40
0.0
 40
0.0
 40
0.0
 40
0.0625017833
 40
0.0937702641
 40
0.1250259171
 40
0.187434267
 40
0.2498090863
 40
0.2810271294
 40
0.3122434371
 40
0.3746042814
 40
0.4369857344
 40
0.4994029791
 40
0.5618657474000001
 40
0.6243768288
 40
0.6869316426000001
 40
0.7182596864000002
 40
0.7495939146
 40
0.8121974208000001
 40
0.8747995965999999
 40
0.9061292708999999
 40
0.9374527502999999
 40
1.0
 40
1.0
 40
1.0
 40
1.0
 10
37.43895827919999
 20
21.09079874289999
 30
0.0
 10
37.38670745889999
 20
21.2031975364
 30
0.0
 10
37.29139135420002
 20
21.36470018889999
 30
0.0
 10
37.13518485090001
 20
21.5576201432
 30
0.0
 10
36.96091962450001
 20
21.7342459542
 30
0.0
 10
36.71189881780001
 20
21.921499806
 30
0.0
 10
36.43105666380001
 20
22.05628127009999
 30
0.0
 10
36.1942373462
 20
22.1294547817
 30
0.0
 10
35.95141211089998
 20
22.1790201656
 30
0.0
 10
35.6403866289
 20
22.1956647748
 30
0.0
 10
35.27071963650003
 20
22.1421433232
 30
0.0
 10
34.9184090064
 20
22.0172873773
 30
0.0
 10
34.5970722511
 20
21.8258652736
 30
0.0
 10
34.31906852909998
 20
21.5753295895
 30
0.0
 10
34.1322691373
 20
21.3250403924
 30
0.0
 10
34.01429353179998
 20
21.1061433927
 30
0.0
 10
33.9181718559
 20
20.8766958982
 30
0.0
 10
33.84082510959999
 20
20.5738643082
 30
0.0
 10
33.82390329629999
 20
20.26178818329999
 30
0.0
 10
33.84686746509999
 20
20.01408876740001
 30
0.0
 10
33.89383368469998
 20
19.7699920745
 30
0.0
 10
33.95591876879999
 20
19.5928275773
 30
0.0
 10
34.00820759839998
 20
19.4803470203
 30
0.0
  0
SPLINE
  5
8ADC8
330
1F
100
AcDbEntity
  8
1
100
AcDbSpline
210
0.0
220
0.0
230
1.0
 70
     8
 71
     3
 72
     8
 73
     4
 74
     0
 42
0.000000001
 43
0.0000001
 40
0.0
 40
0.0
 40
0.0
 40
0.0
 40
1.0
 40
1.0
 40
1.0
 40
1.0
 10
37.01669720299998
 20
20.4722332465
 30
0.0
 10
37.02248279380001
 20
20.4712075805
 30
0.0
 10
37.02834243749999
 20
20.4705223501
 30
0.0
 10
37.0342113781
 20
20.4702384689
 30
0.0
  0
SPLINE
  5
8ADC9
330
1F
100
AcDbEntity
  8
1
100
AcDbSpline
210
0.0
220
0.0
230
1.0
 70
     8
 71
     3
 72
    11
 73
     7
 74
     0
 42
0.000000001
 43
0.0000001
 40
0.0
 40
0.0
 40
0.0
 40
0.0
 40
0.2503056302
 40
0.500364449
 40
0.7502365454000001
 40
1.0
 40
1.0
 40
1.0
 40
1.0
 10
37.73606656749999
 20
21.21328301240001
 30
0.0
 10
37.66231333640003
 20
21.3719364872
 30
0.0
 10
37.4760914595
 20
21.67263923789999
 30
0.0
 10
37.09838834509998
 20
22.0434229856
 30
0.0
 10
36.64377630900001
 20
22.3137486085
 30
0.0
 10
36.30587778040001
 20
22.41664068169999
 30
0.0
 10
36.13397943870001
 20
22.4471195277
 30
0.0
  0
SPLINE
  5
8ADCA
330
1F
100
AcDbEntity
  8
1
100
AcDbSpline
210
0.0
220
0.0
230
1.0
 70
     8
 71
     3
 72
    15
 73
    11
 74
     0
 42
0.000000001
 43
0.0000001
 40
0.0
 40
0.0
 40
0.0
 40
0.0
 40
0.2613790309
 40
0.3904723579
 40
0.5176196153000002
 40
0.6422091798
 40
0.7636710586
 40
0.8819671723999999
 40
0.9408321525999999
 40
1.0
 40
1.0
 40
1.0
 40
1.0
 10
35.90235519729997
 20
21.28850829370001
 30
0.0
 10
35.9415616556
 20
21.2815581253
 30
0.0
 10
36.00153221419998
 20
21.2773993089
 30
0.0
 10
36.08012163209997
 20
21.28533265870001
 30
0.0
 10
36.13681719840001
 20
21.2985103614
 30
0.0
 10
36.1898257037
 20
21.3198434352
 30
0.0
 10
36.23657586610001
 20
21.35058844459999
 30
0.0
 10
36.26669517599999
 20
21.3860614985
 30
0.0
 10
36.28066575930001
 20
21.41953223709999
 30
0.0
 10
36.2836504826
 20
21.4374688438
 30
0.0
 10
36.28405070029999
 20
21.4464734127
 30
0.0
  0
SPLINE
  5
8ADCB
330
1F
100
AcDbEntity
  8
1
100
AcDbSpline
210
0.0
220
0.0
230
1.0
 70
     8
 71
     3
 72
    18
 73
    14
 74
     0
 42
0.000000001
 43
0.0000001
 40
0.0
 40
0.0
 40
0.0
 40
0.0
 40
0.1219316545
 40
0.1848035995
 40
0.2483294387
 40
0.3763301434000001
 40
0.5047606281000001
 40
0.6323966105
 40
0.7579677315000001
 40
0.8197294612999998
 40
0.8805327022
 40
0.9404237006
 40
1.0
 40
1.0
 40
1.0
 40
1.0
 10
34.72285151700001
 20
20.6705471069
 30
0.0
 10
34.7542032636
 20
20.6649946757
 30
0.0
 10
34.8045104661
 20
20.6723079999
 30
0.0
 10
34.863859975
 20
20.69824872799999
 30
0.0
 10
34.92061892449999
 20
20.7332468354
 30
0.0
 10
34.98332052500001
 20
20.7894521146
 30
0.0
 10
35.04423620630002
 20
20.8698289759
 30
0.0
 10
35.08890182390002
 20
20.959548605
 30
0.0
 10
35.10939183419998
 20
21.0402216722
 30
0.0
 10
35.11098204850001
 20
21.1052858136
 30
0.0
 10
35.10288088380001
 20
21.1526367297
 30
0.0
 10
35.08307684120001
 20
21.1960916703
 30
0.0
 10
35.060556714
 20
21.21895421039999
 30
0.0
 10
35.04766636060001
 20
21.2276638624
 30
0.0
  0
SPLINE
  5
8ADCC
330
1F
100
AcDbEntity
  8
1
100
AcDbSpline
210
0.0
220
0.0
230
1.0
 70
     8
 71
     3
 72
    10
 73
     6
 74
     0
 42
0.000000001
 43
0.0000001
 40
0.0
 40
0.0
 40
0.0
 40
0.0
 40
0.2848633835
 40
0.6474037783
 40
1.0
 40
1.0
 40
1.0
 40
1.0
 10
29.79900154719999
 20
21.0968235424
 30
0.0
 10
29.83170496100001
 20
21.1495864386
 30
0.0
 10
29.90764789619999
 20
21.2685104448
 30
0.0
 10
30.03147288829999
 20
21.4478877041
 30
0.0
 10
30.12439892930002
 20
21.57303595120001
 30
0.0
 10
30.1713570357
 20
21.6338530335
 30
0.0
  0
SPLINE
  5
8ADCD
330
1F
100
AcDbEntity
  8
1
100
AcDbSpline
210
0.0
220
0.0
230
1.0
 70
     8
 71
     3
 72
     8
 73
     4
 74
     0
 42
0.000000001
 43
0.0000001
 40
0.0
 40
0.0
 40
0.0
 40
0.0
 40
1.0
 40
1.0
 40
1.0
 40
1.0
 10
29.48979997129999
 20
20.5970172533
 30
0.0
 10
29.50236252849999
 20
20.6179208706
 30
0.0
 10
29.51507125950002
 20
20.63873728889999
 30
0.0
 10
29.52791959370001
 20
20.6594664801
 30
0.0
  0
SPLINE
  5
8ADCE
330
1F
100
AcDbEntity
  8
1
100
AcDbSpline
210
0.0
220
0.0
230
1.0
 70
     8
 71
     3
 72
     8
 73
     4
 74
     0
 42
0.000000001
 43
0.0000001
 40
0.0
 40
0.0
 40
0.0
 40
0.0
 40
1.0
 40
1.0
 40
1.0
 40
1.0
 10
29.46538431030001
 20
20.5523200786
 30
0.0
 10
29.47289610289999
 20
20.5675447613
 30
0.0
 10
29.48105495210001
 20
20.5824658743
 30
0.0
 10
29.48979997129999
 20
20.5970172533
 30
0.0
  0
SPLINE
  5
8ADCF
330
1F
100
AcDbEntity
  8
1
100
AcDbSpline
210
0.0
220
0.0
230
1.0
 70
     8
 71
     3
 72
     9
 73
     5
 74
     0
 42
0.000000001
 43
0.0000001
 40
0.0
 40
0.0
 40
0.0
 40
0.0
 40
0.5000250695
 40
1.0
 40
1.0
 40
1.0
 40
1.0
 10
29.38252295999999
 20
20.1970468262
 30
0.0
 10
29.38252295999999
 20
20.25825321959999
 30
0.0
 10
29.3965761554
 20
20.3810715437
 30
0.0
 10
29.43830508179999
 20
20.4974366865
 30
0.0
 10
29.46538431030001
 20
20.5523200786
 30
0.0
  0
SPLINE
  5
8ADD0
330
1F
100
AcDbEntity
  8
1
100
AcDbSpline
210
0.0
220
0.0
230
1.0
 70
     8
 71
     3
 72
     9
 73
     5
 74
     0
 42
0.000000001
 43
0.0000001
 40
0.0
 40
0.0
 40
0.0
 40
0.0
 40
0.4934525428
 40
1.0
 40
1.0
 40
1.0
 40
1.0
 10
46.47698177299997
 20
15.88191731919999
 30
0.0
 10
46.43994704039999
 20
15.828164144
 30
0.0
 10
46.35003696389997
 20
15.7290801812
 30
0.0
 10
46.24127846689997
 20
15.652186598
 30
0.0
 10
46.18333609219999
 20
15.6185293993
 30
0.0
  0
SPLINE
  5
8ADD1
330
1F
100
AcDbEntity
  8
1
100
AcDbSpline
210
0.0
220
0.0
230
1.0
 70
     8
 71
     3
 72
     9
 73
     5
 74
     0
 42
0.000000001
 43
0.0000001
 40
0.0
 40
0.0
 40
0.0
 40
0.0
 40
0.4963582308
 40
1.0
 40
1.0
 40
1.0
 40
1.0
 10
32.43759701790001
 20
24.56905120959999
 30
0.0
 10
32.47792278860001
 20
24.6221484989
 30
0.0
 10
32.57220245900001
 20
24.719546168
 30
0.0
 10
32.68311733920001
 20
24.7966185231
 30
0.0
 10
32.74161700209999
 20
24.8305994358
 30
0.0
  0
SPLINE
  5
8ADD2
330
1F
100
AcDbEntity
  8
1
100
AcDbSpline
210
0.0
220
0.0
230
1.0
 70
     8
 71
     3
 72
    15
 73
    11
 74
     0
 42
0.000000001
 43
0.0000001
 40
0.0
 40
0.0
 40
0.0
 40
0.0
 40
0.1252613933
 40
0.2504599884
 40
0.3755740706
 40
0.500595345
 40
0.625526513
 40
0.7503850189
 40
0.8752003454
 40
1.0
 40
1.0
 40
1.0
 40
1.0
 10
29.38252295960001
 20
19.3420180746
 30
0.0
 10
29.38252295960001
 20
19.0888251556
 30
0.0
 10
29.4311822151
 20
18.5813324645
 30
0.0
 10
29.644804776
 20
17.8483070547
 30
0.0
 10
29.9939650206
 20
17.16954472389999
 30
0.0
 10
30.46380727810002
 20
16.5687334106
 30
0.0
 10
31.03932764460001
 20
16.0690065416
 30
0.0
 10
31.69822290459999
 20
15.6865316115
 30
0.0
 10
32.4176502686
 20
15.437410742
 30
0.0
 10
32.92054467110001
 20
15.3644928812
 30
0.0
 10
33.1725175027
 20
15.35246801499999
 30
0.0
  0
SPLINE
  5
8ADD3
330
1F
100
AcDbEntity
  8
1
100
AcDbSpline
210
0.0
220
0.0
230
1.0
 70
     8
 71
     3
 72
    10
 73
     6
 74
     0
 42
0.000000001
 43
0.0000001
 40
0.0
 40
0.0
 40
0.0
 40
0.0
 40
0.2868035564
 40
0.6496261840999999
 40
1.0
 40
1.0
 40
1.0
 40
1.0
 10
48.89693687189997
 20
19.39291689919999
 30
0.0
 10
48.86511479500001
 20
19.3401311931
 30
0.0
 10
48.7920224502
 20
19.2211740365
 30
0.0
 10
48.6753491928
 20
19.0406728989
 30
0.0
 10
48.5892865063
 20
18.9138276101
 30
0.0
 10
48.5462428261
 20
18.8520461432
 30
0.0
  0
SPLINE
  5
8ADD4
330
1F
100
AcDbEntity
  8
1
100
AcDbSpline
210
0.0
220
0.0
230
1.0
 70
     8
 71
     3
 72
    15
 73
    11
 74
     0
 42
0.000000001
 43
0.0000001
 40
0.0
 40
0.0
 40
0.0
 40
0.0
 40
0.1252608915
 40
0.2504602238
 40
0.3755748338
 40
0.5005955978
 40
0.6255272535000001
 40
0.7503858404000001
 40
0.8751972889000001
 40
1.0
 40
1.0
 40
1.0
 40
1.0
 10
49.30575741619998
 20
21.1490803823
 30
0.0
 10
49.30575741619998
 20
21.4022723182
 30
0.0
 10
49.2571164807
 20
21.9097677563
 30
0.0
 10
49.04347359299999
 20
22.6427907343
 30
0.0
 10
48.69431083680002
 20
23.3215516512
 30
0.0
 10
48.22447229709999
 20
23.9223677901
 30
0.0
 10
47.6489486981
 20
24.4220917679
 30
0.0
 10
46.99005957419998
 20
24.8045630555
 30
0.0
 10
46.2706354832
 20
25.05368892990001
 30
0.0
 10
45.7677421344
 20
25.1266051448
 30
0.0
 10
45.51576310509999
 20
25.1386304008
 30
0.0
  0
SPLINE
  5
8ADD5
330
1F
100
AcDbEntity
  8
1
100
AcDbSpline
210
0.0
220
0.0
230
1.0
 70
     8
 71
     3
 72
     8
 73
     4
 74
     0
 42
0.000000001
 43
0.0000001
 40
0.0
 40
0.0
 40
0.0
 40
0.0
 40
1.0
 40
1.0
 40
1.0
 40
1.0
 10
49.2228969189
 20
19.938778227
 30
0.0
 10
49.2153941857
 20
19.9235726512
 30
0.0
 10
49.2073065079
 20
19.9086424852
 30
0.0
 10
49.19867826579999
 20
19.8940461165
 30
0.0
  0
SPLINE
  5
8ADD6
330
1F
100
AcDbEntity
  8
1
100
AcDbSpline
210
0.0
220
0.0
230
1.0
 70
     8
 71
     3
 72
     9
 73
     5
 74
     0
 42
0.000000001
 43
0.0000001
 40
0.0
 40
0.0
 40
0.0
 40
0.0
 40
0.5000253541
 40
1.0
 40
1.0
 40
1.0
 40
1.0
 10
49.30575741579997
 20
20.2940516307
 30
0.0
 10
49.30575741579997
 20
20.2328452495
 30
0.0
 10
49.2917021293
 20
20.1100276284
 30
0.0
 10
49.24997717880001
 20
19.9936610189
 30
0.0
 10
49.2228969189
 20
19.938778227
 30
0.0
  0
SPLINE
  5
8ADD7
330
1F
100
AcDbEntity
  8
1
100
AcDbSpline
210
0.0
220
0.0
230
1.0
 70
     8
 71
     3
 72
     8
 73
     4
 74
     0
 42
0.000000001
 43
0.0000001
 40
0.0
 40
0.0
 40
0.0
 40
0.0
 40
1.0
 40
1.0
 40
1.0
 40
1.0
 10
33.36716985120001
 20
15.3479593835
 30
0.0
 10
33.30360421169999
 20
15.347872351
 30
0.0
 10
33.2400181825
 20
15.3493126211
 30
0.0
 10
33.1765216343
 20
15.35227681829999
 30
0.0
  0
SPLINE
  5
8ADD8
330
1F
100
AcDbEntity
  8
1
100
AcDbSpline
210
0.0
220
0.0
230
1.0
 70
     8
 71
     3
 72
    13
 73
     9
 74
     0
 42
0.000000001
 43
0.0000001
 40
0.0
 40
0.0
 40
0.0
 40
0.0
 40
0.0544467936
 40
0.1281606712
 40
0.2218284549
 40
0.3360036136
 40
0.6270156066000001
 40
1.0
 40
1.0
 40
1.0
 40
1.0
 10
47.22688265369998
 20
13.4927686932
 30
0.0
 10
47.19063722639996
 20
13.4955621735
 30
0.0
 10
47.1051769851
 20
13.5002068221
 30
0.0
 10
46.95715332029998
 20
13.5053133731
 30
0.0
 10
46.76920147110002
 20
13.5093177718
 30
0.0
 10
46.43614917839999
 20
13.5133632392
 30
0.0
 10
45.9165692295
 20
13.5141281134
 30
0.0
 10
45.47324086489998
 20
13.5111465838
 30
0.0
 10
45.22421893809999
 20
13.5087554076
 30
0.0
  0
SPLINE
  5
8ADD9
330
1F
100
AcDbEntity
  8
1
100
AcDbSpline
210
0.0
220
0.0
230
1.0
 70
     8
 71
     3
 72
    18
 73
    14
 74
     0
 42
0.000000001
 43
0.0000001
 40
0.0
 40
0.0
 40
0.0
 40
0.0
 40
0.0103335284
 40
0.0280786331
 40
0.053148132
 40
0.085445539
 40
0.1248716142
 40
0.1713262832
 40
0.284920502
 40
0.4254227090000002
 40
0.5920132203000002
 40
0.7838410326
 40
1.0
 40
1.0
 40
1.0
 40
1.0
 10
26.80067549379999
 20
24.6249181913
 30
0.0
 10
26.8050998478
 20
24.6245965582
 30
0.0
 10
26.81701984099999
 20
24.6226568182
 30
0.0
 10
26.8394474486
 20
24.61853694749999
 30
0.0
 10
26.8710468843
 20
24.61208108200001
 30
0.0
 10
26.91169069590001
 20
24.60345445509999
 30
0.0
 10
26.96125880240001
 20
24.59264384799999
 30
0.0
 10
27.0448695957
 20
24.5741522444
 30
0.0
 10
27.17078681729999
 20
24.54601620700001
 30
0.0
 10
27.34709609289999
 20
24.5069076157
 30
0.0
 10
27.5563953649
 20
24.46144293799999
 30
0.0
 10
27.79778732259999
 20
24.41073816629999
 30
0.0
 10
27.9695111858
 20
24.376283589
 30
0.0
 10
28.06058626149999
 20
24.35850656870001
 30
0.0
  0
SPLINE
  5
8ADDA
330
1F
100
AcDbEntity
  8
1
100
AcDbSpline
210
0.0
220
0.0
230
1.0
 70
     8
 71
     3
 72
     9
 73
     5
 74
     0
 42
0.000000001
 43
0.0000001
 40
0.0
 40
0.0
 40
0.0
 40
0.0
 40
0.2440091349
 40
1.0
 40
1.0
 40
1.0
 40
1.0
 10
28.06058626149999
 20
24.35850656870001
 30
0.0
 10
28.0763938028
 20
24.3554210814
 30
0.0
 10
28.14118784420001
 20
24.3428349224
 30
0.0
 10
28.20602936520001
 20
24.3304930394
 30
0.0
 10
28.25507579160002
 20
24.3213068474
 30
0.0
  0
SPLINE
  5
8ADDB
330
1F
100
AcDbEntity
  8
1
100
AcDbSpline
210
0.0
220
0.0
230
1.0
 70
     8
 71
     3
 72
    11
 73
     7
 74
     0
 42
0.000000001
 43
0.0000001
 40
0.0
 40
0.0
 40
0.0
 40
0.0
 40
0.2464818384
 40
0.502975063
 40
0.7584078472
 40
1.0
 40
1.0
 40
1.0
 40
1.0
 10
26.80067549379999
 20
24.6249181913
 30
0.0
 10
26.57925733490002
 20
24.62468057450001
 30
0.0
 10
26.12742909119999
 20
24.62338300799999
 30
0.0
 10
25.4461398549
 20
24.6224872702
 30
0.0
 10
24.76924395980001
 20
24.6236705648
 30
0.0
 10
24.32276037399998
 20
24.6250001482
 30
0.0
 10
24.1057345646
 20
24.62500005680001
 30
0.0
  0
SPLINE
  5
8ADDC
330
1F
100
AcDbEntity
  8
1
100
AcDbSpline
210
0.0
220
0.0
230
1.0
 70
     8
 71
     3
 72
     9
 73
     5
 74
     0
 42
0.000000001
 43
0.0000001
 40
0.0
 40
0.0
 40
0.0
 40
0.0
 40
0.2586416813
 40
1.0
 40
1.0
 40
1.0
 40
1.0
 10
26.00786317339998
 20
19.4093506557
 30
0.0
 10
25.97453362959999
 20
19.4577803732
 30
0.0
 10
25.84868016499999
 20
19.64707562829999
 30
0.0
 10
25.73488088490001
 20
19.844424314
 30
0.0
 10
25.6583373613
 20
19.99455073829999
 30
0.0
  0
SPLINE
  5
8ADDD
330
1F
100
AcDbEntity
  8
1
100
AcDbSpline
210
0.0
220
0.0
230
1.0
 70
     8
 71
     3
 72
     9
 73
     5
 74
     0
 42
0.000000001
 43
0.0000001
 40
0.0
 40
0.0
 40
0.0
 40
0.0
 40
0.2506037644
 40
1.0
 40
1.0
 40
1.0
 40
1.0
 10
29.7777255698
 20
14.18565972749999
 30
0.0
 10
29.7460591032
 20
14.18766901329999
 30
0.0
 10
29.61981633879998
 20
14.19744305549999
 30
0.0
 10
29.49411629790001
 20
14.214264733
 30
0.0
 10
29.4006892708
 20
14.2308324745
 30
0.0
  0
SPLINE
  5
8ADDE
330
1F
100
AcDbEntity
  8
1
100
AcDbSpline
210
0.0
220
0.0
230
1.0
 70
     8
 71
     3
 72
     8
 73
     4
 74
     0
 42
0.000000001
 43
0.0000001
 40
0.0
 40
0.0
 40
0.0
 40
0.0
 40
1.0
 40
1.0
 40
1.0
 40
1.0
 10
41.6362874438
 20
13.4472200372
 30
0.0
 10
41.52697126459997
 20
13.4447201006
 30
0.0
 10
41.41744491639999
 20
13.44690585169999
 30
0.0
 10
41.30831983679999
 20
13.4538336015
 30
0.0
  0
SPLINE
  5
8ADDF
330
1F
100
AcDbEntity
  8
1
100
AcDbSpline
210
0.0
220
0.0
230
1.0
 70
     8
 71
     3
 72
     9
 73
     5
 74
     0
 42
0.000000001
 43
0.0000001
 40
0.0
 40
0.0
 40
0.0
 40
0.0
 40
0.2504786903
 40
1.0
 40
1.0
 40
1.0
 40
1.0
 10
30.4591650287
 20
14.7162781064
 30
0.0
 10
30.3988119439
 20
14.7177816575
 30
0.0
 10
30.15786783300001
 20
14.7240405406
 30
0.0
 10
29.9169507748
 20
14.73146822799999
 30
0.0
 10
29.73642315780001
 20
14.73822249669999
 30
0.0
  0
SPLINE
  5
8ADE0
330
1F
100
AcDbEntity
  8
1
100
AcDbSpline
210
0.0
220
0.0
230
1.0
 70
     8
 71
     3
 72
    11
 73
     7
 74
     0
 42
0.000000001
 43
0.0000001
 40
0.0
 40
0.0
 40
0.0
 40
0.0
 40
0.3064228362
 40
0.5732741185
 40
0.8032953884000001
 40
1.0
 40
1.0
 40
1.0
 40
1.0
 10
23.3518794309
 20
23.7764127334
 30
0.0
 10
23.29348744869998
 20
23.846411445
 30
0.0
 10
23.1806392359
 20
23.9744540005
 30
0.0
 10
23.00981638810001
 20
24.1419558544
 30
0.0
 10
22.84944750509999
 20
24.27229895539999
 30
0.0
 10
22.74145648619998
 20
24.3400279035
 30
0.0
 10
22.68934728080001
 20
24.3666517235
 30
0.0
  0
SPLINE
  5
8ADE1
330
1F
100
AcDbEntity
  8
1
100
AcDbSpline
210
0.0
220
0.0
230
1.0
 70
     8
 71
     3
 72
    10
 73
     6
 74
     0
 42
0.000000001
 43
0.0000001
 40
0.0
 40
0.0
 40
0.0
 40
0.0
 40
0.3130419465
 40
0.5797109103000002
 40
1.0
 40
1.0
 40
1.0
 40
1.0
 10
22.68934728080001
 20
24.3666517235
 30
0.0
 10
22.68385746479999
 20
24.3694565997
 30
0.0
 10
22.67387509240001
 20
24.3751018742
 30
0.0
 10
22.6580859975
 20
24.386759478
 30
0.0
 10
22.649064767
 20
24.39780391220001
 30
0.0
 10
22.6463337699
 20
24.40561729260001
 30
0.0
  0
SPLINE
  5
8ADE2
330
1F
100
AcDbEntity
  8
1
100
AcDbSpline
210
0.0
220
0.0
230
1.0
 70
     8
 71
     3
 72
    11
 73
     7
 74
     0
 42
0.000000001
 43
0.0000001
 40
0.0
 40
0.0
 40
0.0
 40
0.0
 40
0.0815560343
 40
0.2695359601
 40
0.5748713515999999
 40
1.0
 40
1.0
 40
1.0
 40
1.0
 10
47.37479387719996
 20
13.4801526403
 30
0.0
 10
47.37479387719996
 20
13.4803761384
 30
0.0
 10
47.3739468997
 20
13.4807968212
 30
0.0
 10
47.3725587907
 20
13.48110281599999
 30
0.0
 10
47.36998806989999
 20
13.48151677919999
 30
0.0
 10
47.36802295289999
 20
13.4817121036
 30
0.0
 10
47.3668628561
 20
13.48181923339999
 30
0.0
  0
SPLINE
  5
8ADE3
330
1F
100
AcDbEntity
  8
1
100
AcDbSpline
210
0.0
220
0.0
230
1.0
 70
     8
 71
     3
 72
     9
 73
     5
 74
     0
 42
0.000000001
 43
0.0000001
 40
0.0
 40
0.0
 40
0.0
 40
0.0
 40
0.2411935566
 40
1.0
 40
1.0
 40
1.0
 40
1.0
 10
28.27720623089999
 20
24.31766553120001
 30
0.0
 10
28.25972786459999
 20
24.3205270963
 30
0.0
 10
28.18728121409998
 20
24.3325100278
 30
0.0
 10
28.11491465500001
 20
24.34497713810002
 30
0.0
 10
28.0600507721
 20
24.354706315
 30
0.0
  0
SPLINE
  5
8ADE4
330
1F
100
AcDbEntity
  8
1
100
AcDbSpline
210
0.0
220
0.0
230
1.0
 70
     8
 71
     3
 72
     9
 73
     5
 74
     0
 42
0.000000001
 43
0.0000001
 40
0.0
 40
0.0
 40
0.0
 40
0.0
 40
0.7496588378000001
 40
1.0
 40
1.0
 40
1.0
 40
1.0
 10
29.59193866800001
 20
14.6967898335
 30
0.0
 10
29.5501933223
 20
14.6825956395
 30
0.0
 10
29.49376659309999
 20
14.6657363585
 30
0.0
 10
29.43664575700001
 20
14.65170507249999
 30
0.0
 10
29.42230432330001
 20
14.6483693553
 30
0.0
  0
SPLINE
  5
8ADE5
330
1F
100
AcDbEntity
  8
1
100
AcDbSpline
210
0.0
220
0.0
230
1.0
 70
     8
 71
     3
 72
     9
 73
     5
 74
     0
 42
0.000000001
 43
0.0000001
 40
0.0
 40
0.0
 40
0.0
 40
0.0
 40
0.2487888348
 40
1.0
 40
1.0
 40
1.0
 40
1.0
 10
29.42230432330001
 20
14.6483693553
 30
0.0
 10
29.38775396080001
 20
14.64033318259999
 30
0.0
 10
29.24794576619999
 20
14.61215379889999
 30
0.0
 10
29.10484241379999
 20
14.6006163631
 30
0.0
 10
28.99773470539998
 20
14.6010663816
 30
0.0
  0
SPLINE
  5
8ADE6
330
1F
100
AcDbEntity
  8
1
100
AcDbSpline
210
0.0
220
0.0
230
1.0
 70
     8
 71
     3
 72
     9
 73
     5
 74
     0
 42
0.000000001
 43
0.0000001
 40
0.0
 40
0.0
 40
0.0
 40
0.0
 40
0.2507744239
 40
1.0
 40
1.0
 40
1.0
 40
1.0
 10
26.94466201130001
 20
16.25668865319999
 30
0.0
 10
26.94296163889999
 20
16.2662860125
 30
0.0
 10
26.93652426379998
 20
16.3046168407
 30
0.0
 10
26.93146799799999
 20
16.3431800464
 30
0.0
 10
26.9284763897
 20
16.3721460428
 30
0.0
  0
SPLINE
  5
8ADE7
330
1F
100
AcDbEntity
  8
1
100
AcDbSpline
210
0.0
220
0.0
230
1.0
 70
     8
 71
     3
 72
     9
 73
     5
 74
     0
 42
0.000000001
 43
0.0000001
 40
0.0
 40
0.0
 40
0.0
 40
0.0
 40
0.2414123456
 40
1.0
 40
1.0
 40
1.0
 40
1.0
 10
29.28924991470001
 20
14.4430422436
 30
0.0
 10
29.3368757909
 20
14.41737375169999
 30
0.0
 10
29.53632728119999
 20
14.31514698129999
 30
0.0
 10
29.74479499609998
 20
14.2303365116
 30
0.0
 10
29.9063482464
 20
14.1773964194
 30
0.0
  0
SPLINE
  5
8ADE8
330
1F
100
AcDbEntity
  8
1
100
AcDbSpline
210
0.0
220
0.0
230
1.0
 70
     8
 71
     3
 72
    13
 73
     9
 74
     0
 42
0.000000001
 43
0.0000001
 40
0.0
 40
0.0
 40
0.0
 40
0.0
 40
0.1742826433
 40
0.3905602211
 40
0.5200318979000002
 40
0.6662907242000001
 40
0.8285738359999999
 40
1.0
 40
1.0
 40
1.0
 40
1.0
 10
26.25795770259998
 20
17.9728372224
 30
0.0
 10
26.29742382390001
 20
17.7611927349
 30
0.0
 10
26.4171490631
 20
17.2922545871
 30
0.0
 10
26.67005048530001
 20
16.6978865299
 30
0.0
 10
26.98607243250001
 20
16.1774755251
 30
0.0
 10
27.32106099070001
 20
15.75053891679999
 30
0.0
 10
27.75055368049999
 20
15.3386722799
 30
0.0
 10
28.09240949380001
 20
15.1038884461
 30
0.0
 10
28.277000797
 20
15.00010941009999
 30
0.0
  0
SPLINE
  5
8ADE9
330
1F
100
AcDbEntity
  8
1
100
AcDbSpline
210
0.0
220
0.0
230
1.0
 70
     8
 71
     3
 72
    10
 73
     6
 74
     0
 42
0.000000001
 43
0.0000001
 40
0.0
 40
0.0
 40
0.0
 40
0.0
 40
0.1760062213
 40
0.4055102292
 40
1.0
 40
1.0
 40
1.0
 40
1.0
 10
29.7489244686
 20
14.737767684
 30
0.0
 10
29.7596390901
 20
14.7397394349
 30
0.0
 10
29.7841459201
 20
14.7452261153
 30
0.0
 10
29.84413028310001
 20
14.76049727079999
 30
0.0
 10
29.8932109331
 20
14.7744140441
 30
0.0
 10
29.92852705909999
 20
14.7847518193
 30
0.0
  0
SPLINE
  5
8ADEA
330
1F
100
AcDbEntity
  8
1
100
AcDbSpline
210
0.0
220
0.0
230
1.0
 70
     8
 71
     3
 72
    15
 73
    11
 74
     0
 42
0.000000001
 43
0.0000001
 40
0.0
 40
0.0
 40
0.0
 40
0.0
 40
0.1450684683
 40
0.2835559539
 40
0.4154904128
 40
0.5413557902
 40
0.6618925550000001
 40
0.7779466059000001
 40
0.8903742301999999
 40
1.0
 40
1.0
 40
1.0
 40
1.0
 10
27.39855138019999
 20
15.1558865152
 30
0.0
 10
27.25444006659998
 20
15.23860833709999
 30
0.0
 10
26.985098072
 20
15.42308927419999
 30
0.0
 10
26.63874170090001
 20
15.7521927737
 30
0.0
 10
26.36060980089999
 20
16.1131515015
 30
0.0
 10
26.14913214860002
 20
16.4931508674
 30
0.0
 10
26.00020825280001
 20
16.88211575669999
 30
0.0
 10
25.90876390509999
 20
17.2724999438
 30
0.0
 10
25.86957010579999
 20
17.6587728874
 30
0.0
 10
25.87511107980001
 20
17.9137723546
 30
0.0
 10
25.88524378540002
 20
18.0389312898
 30
0.0
  0
SPLINE
  5
8ADEB
330
1F
100
AcDbEntity
  8
1
100
AcDbSpline
210
0.0
220
0.0
230
1.0
 70
     8
 71
     3
 72
    11
 73
     7
 74
     0
 42
0.000000001
 43
0.0000001
 40
0.0
 40
0.0
 40
0.0
 40
0.0
 40
0.248893956
 40
0.4965514776
 40
0.7460074041000002
 40
1.0
 40
1.0
 40
1.0
 40
1.0
 10
26.9284763897
 20
16.3721460428
 30
0.0
 10
26.919399046
 20
16.4600366607
 30
0.0
 10
26.91596577690001
 20
16.63728599709999
 30
0.0
 10
26.9564551972
 20
16.9002807889
 30
0.0
 10
27.04139513249999
 20
17.1543096983
 30
0.0
 10
27.12523100929999
 20
17.3131313911
 30
0.0
 10
27.17318229329999
 20
17.38949219089999
 30
0.0
  0
SPLINE
  5
8ADEC
330
1F
100
AcDbEntity
  8
1
100
AcDbSpline
210
0.0
220
0.0
230
1.0
 70
     8
 71
     3
 72
    15
 73
    11
 74
     0
 42
0.000000001
 43
0.0000001
 40
0.0
 40
0.0
 40
0.0
 40
0.0
 40
0.1185307236
 40
0.2385430328
 40
0.3604899962
 40
0.4846114772
 40
0.6109192242
 40
0.7392070053000001
 40
0.8690801456999999
 40
1.0
 40
1.0
 40
1.0
 40
1.0
 10
30.42970644230002
 20
14.9422744161
 30
0.0
 10
30.33344320750001
 20
14.93792121919999
 30
0.0
 10
30.13851318459999
 20
14.9465178387
 30
0.0
 10
29.8510821761
 20
15.01039180870001
 30
0.0
 10
29.5742897392
 20
15.1234898328
 30
0.0
 10
29.3153275434
 20
15.282775736
 30
0.0
 10
29.08072117910002
 20
15.4840537992
 30
0.0
 10
28.8763775505
 20
15.72213451709999
 30
0.0
 10
28.7074510379
 20
15.9908357519
 30
0.0
 10
28.62140452169999
 20
16.185556436
 30
0.0
 10
28.58545451099999
 20
16.2857347885
 30
0.0
  0
SPLINE
  5
8ADED
330
1F
100
AcDbEntity
  8
1
100
AcDbSpline
210
0.0
220
0.0
230
1.0
 70
     8
 71
     3
 72
     8
 73
     4
 74
     0
 42
0.000000001
 43
0.0000001
 40
0.0
 40
0.0
 40
0.0
 40
0.0
 40
1.0
 40
1.0
 40
1.0
 40
1.0
 10
27.3033950128
 20
15.7902897912
 30
0.0
 10
27.28238120360001
 20
15.83799539419999
 30
0.0
 10
27.26303925349998
 20
15.88647245609999
 30
0.0
 10
27.24543175970001
 20
15.9355375241
 30
0.0
  0
SPLINE
  5
8ADEE
330
1F
100
AcDbEntity
  8
1
100
AcDbSpline
210
0.0
220
0.0
230
1.0
 70
     8
 71
     3
 72
     9
 73
     5
 74
     0
 42
0.000000001
 43
0.0000001
 40
0.0
 40
0.0
 40
0.0
 40
0.0
 40
0.5317106976
 40
1.0
 40
1.0
 40
1.0
 40
1.0
 10
24.1057345646
 20
24.62500005680001
 30
0.0
 10
23.97211670830001
 20
24.62500000049999
 30
0.0
 10
23.720819527
 20
24.62451231180001
 30
0.0
 10
23.4695259568
 20
24.62145428799999
 30
0.0
 10
23.3518794309
 20
24.6186399203
 30
0.0
  0
SPLINE
  5
8ADEF
330
1F
100
AcDbEntity
  8
1
100
AcDbSpline
210
0.0
220
0.0
230
1.0
 70
     8
 71
     3
 72
     9
 73
     5
 74
     0
 42
0.000000001
 43
0.0000001
 40
0.0
 40
0.0
 40
0.0
 40
0.0
 40
0.5069807670000001
 40
1.0
 40
1.0
 40
1.0
 40
1.0
 10
29.4006892708
 20
14.2308324745
 30
0.0
 10
29.2143859352
 20
14.2638702967
 30
0.0
 10
28.851717815
 20
14.360385248
 30
0.0
 10
28.51104627469999
 20
14.5178555045
 30
0.0
 10
28.35140830669999
 20
14.60935147879999
 30
0.0
  0
SPLINE
  5
8ADF0
330
1F
100
AcDbEntity
  8
1
100
AcDbSpline
210
0.0
220
0.0
230
1.0
 70
     8
 71
     3
 72
    11
 73
     7
 74
     0
 42
0.000000001
 43
0.0000001
 40
0.0
 40
0.0
 40
0.0
 40
0.0
 40
0.2573549312
 40
0.5119510352000001
 40
0.7609450219000001
 40
1.0
 40
1.0
 40
1.0
 40
1.0
 10
28.4950147616
 20
18.5114698144
 30
0.0
 10
28.59466164110001
 20
18.6789364873
 30
0.0
 10
28.78221451669998
 20
19.0185396564
 30
0.0
 10
29.03071512709999
 20
19.53868611089999
 30
0.0
 10
29.24797326949999
 20
20.05755258829999
 30
0.0
 10
29.37797741399999
 20
20.4035432749
 30
0.0
 10
29.43986931770002
 20
20.5736473888
 30
0.0
  0
SPLINE
  5
8ADF1
330
1F
100
AcDbEntity
  8
1
100
AcDbSpline
210
0.0
220
0.0
230
1.0
 70
     8
 71
     3
 72
    11
 73
     7
 74
     0
 42
0.000000001
 43
0.0000001
 40
0.0
 40
0.0
 40
0.0
 40
0.0
 40
0.2427071971
 40
0.4925646368
 40
0.746745893
 40
1.0
 40
1.0
 40
1.0
 40
1.0
 10
27.31745622829999
 20
17.5884243323
 30
0.0
 10
27.39533869729999
 20
17.6824517923
 30
0.0
 10
27.56208105280001
 20
17.8662871411
 30
0.0
 10
27.84091518619999
 20
18.11902477709999
 30
0.0
 10
28.15099865190001
 20
18.3418464669
 30
0.0
 10
28.3777279162
 20
18.46172697879999
 30
0.0
 10
28.4950147616
 20
18.5114698144
 30
0.0
  0
SPLINE
  5
8ADF2
330
1F
100
AcDbEntity
  8
1
100
AcDbSpline
210
0.0
220
0.0
230
1.0
 70
     8
 71
     3
 72
     9
 73
     5
 74
     0
 42
0.000000001
 43
0.0000001
 40
0.0
 40
0.0
 40
0.0
 40
0.0
 40
0.2479498022
 40
1.0
 40
1.0
 40
1.0
 40
1.0
 10
27.17318229329999
 20
17.38949219089999
 30
0.0
 10
27.18398780839999
 20
17.4066996087
 30
0.0
 10
27.22875393519999
 20
17.4753485208
 30
0.0
 10
27.2781439334
 20
17.5409626212
 30
0.0
 10
27.31745622829999
 20
17.5884243323
 30
0.0
  0
SPLINE
  5
8ADF3
330
1F
100
AcDbEntity
  8
1
100
AcDbSpline
210
0.0
220
0.0
230
1.0
 70
     8
 71
     3
 72
     9
 73
     5
 74
     0
 42
0.000000001
 43
0.0000001
 40
0.0
 40
0.0
 40
0.0
 40
0.0
 40
0.5173494118999999
 40
1.0
 40
1.0
 40
1.0
 40
1.0
 10
27.17318229329999
 20
17.38949219089999
 30
0.0
 10
27.05085946150001
 20
17.35784875079999
 30
0.0
 10
26.81336037939999
 20
17.30068110389999
 30
0.0
 10
26.5737911766
 20
17.2527853084
 30
0.0
 10
26.45768475300001
 20
17.2324420781
 30
0.0
  0
SPLINE
  5
8ADF4
330
1F
100
AcDbEntity
  8
1
100
AcDbSpline
210
0.0
220
0.0
230
1.0
 70
     8
 71
     3
 72
     9
 73
     5
 74
     0
 42
0.000000001
 43
0.0000001
 40
0.0
 40
0.0
 40
0.0
 40
0.0
 40
0.2634846609
 40
1.0
 40
1.0
 40
1.0
 40
1.0
 10
31.0094318509
 20
14.7040342195
 30
0.0
 10
31.00880594450001
 20
14.6516469887
 30
0.0
 10
31.0067682303
 20
14.45281879539999
 30
0.0
 10
31.0060940905
 20
14.2539744027
 30
0.0
 10
31.0066491126
 20
14.10752763959999
 30
0.0
  0
SPLINE
  5
8ADF5
330
1F
100
AcDbEntity
  8
1
100
AcDbSpline
210
0.0
220
0.0
230
1.0
 70
     8
 71
     3
 72
     9
 73
     5
 74
     0
 42
0.000000001
 43
0.0000001
 40
0.0
 40
0.0
 40
0.0
 40
0.0
 40
0.2501678003
 40
1.0
 40
1.0
 40
1.0
 40
1.0
 10
31.0094318509
 20
14.7040342195
 30
0.0
 10
30.96354334590001
 20
14.7049542722
 30
0.0
 10
30.7801141274
 20
14.70871376759999
 30
0.0
 10
30.5966923968
 20
14.7128519447
 30
0.0
 10
30.4591650287
 20
14.7162781064
 30
0.0
  0
SPLINE
  5
8ADF6
330
1F
100
AcDbEntity
  8
1
100
AcDbSpline
210
0.0
220
0.0
230
1.0
 70
     8
 71
     3
 72
    11
 73
     7
 74
     0
 42
0.000000001
 43
0.0000001
 40
0.0
 40
0.0
 40
0.0
 40
0.0
 40
0.2498535852
 40
0.4997436736
 40
0.7497897225
 40
1.0
 40
1.0
 40
1.0
 40
1.0
 10
41.13813151490001
 20
15.11353708749999
 30
0.0
 10
40.2998253759
 20
15.0078404438
 30
0.0
 10
38.61694950989999
 20
14.8432676482
 30
0.0
 10
36.08408693460001
 20
14.71276985049999
 30
0.0
 10
33.5472435591
 20
14.6706006784
 30
0.0
 10
31.8554112464
 20
14.6870725507
 30
0.0
 10
31.0094318509
 20
14.7040342195
 30
0.0
  0
SPLINE
  5
8ADF7
330
1F
100
AcDbEntity
  8
1
100
AcDbSpline
210
0.0
220
0.0
230
1.0
 70
     8
 71
     3
 72
    19
 73
    15
 74
     0
 42
0.000000001
 43
0.0000001
 40
0.0
 40
0.0
 40
0.0
 40
0.0
 40
0.0177837322
 40
0.036969051
 40
0.0601004216
 40
0.0887146888
 40
0.1236627521
 40
0.1654343644
 40
0.2143420937
 40
0.2706063273
 40
0.4058106515000002
 40
0.5721150611
 40
0.7701553732999999
 40
1.0
 40
1.0
 40
1.0
 40
1.0
 10
22.6463337699
 20
24.40561729260001
 30
0.0
 10
22.64482440860001
 20
24.40993557410001
 30
0.0
 10
22.6435546397
 20
24.41971481120001
 30
0.0
 10
22.6483307138
 20
24.4347954599
 30
0.0
 10
22.658988577
 20
24.4498279036
 30
0.0
 10
22.6753319897
 20
24.4651404084
 30
0.0
 10
22.69749988320001
 20
24.4808222808
 30
0.0
 10
22.72563199210001
 20
24.49680194929999
 30
0.0
 10
22.75984645860001
 20
24.5129344671
 30
0.0
 10
22.81732668749999
 20
24.5358041804
 30
0.0
 10
22.90548687899999
 20
24.5627389742
 30
0.0
 10
23.03120103700002
 20
24.58993062179999
 30
0.0
 10
23.18278208430001
 20
24.61062352480001
 30
0.0
 10
23.29277398670001
 20
24.61722598610001
 30
0.0
 10
23.3518794309
 20
24.6186399203
 30
0.0
  0
SPLINE
  5
8ADF8
330
1F
100
AcDbEntity
  8
1
100
AcDbSpline
210
0.0
220
0.0
230
1.0
 70
     8
 71
     3
 72
     9
 73
     5
 74
     0
 42
0.000000001
 43
0.0000001
 40
0.0
 40
0.0
 40
0.0
 40
0.0
 40
0.2252569493
 40
1.0
 40
1.0
 40
1.0
 40
1.0
 10
28.0600507721
 20
24.354706315
 30
0.0
 10
27.96481291890001
 20
24.3715951291
 30
0.0
 10
27.5426624815
 20
24.4501697342
 30
0.0
 10
27.12334719839998
 20
24.5439753528
 30
0.0
 10
26.80067549379999
 20
24.6249181913
 30
0.0
  0
SPLINE
  5
8ADF9
330
1F
100
AcDbEntity
  8
1
100
AcDbSpline
210
0.0
220
0.0
230
1.0
 70
     8
 71
     3
 72
     9
 73
     5
 74
     0
 42
0.000000001
 43
0.0000001
 40
0.0
 40
0.0
 40
0.0
 40
0.0
 40
0.2590330082
 40
1.0
 40
1.0
 40
1.0
 40
1.0
 10
28.6955655495
 20
18.5764913244
 30
0.0
 10
28.67820736440001
 20
18.5710072945
 30
0.0
 10
28.61125126019999
 20
18.5496604457
 30
0.0
 10
28.54447841929999
 20
18.5277450208
 30
0.0
 10
28.4950147616
 20
18.5114698144
 30
0.0
  0
SPLINE
  5
8ADFA
330
1F
100
AcDbEntity
  8
1
100
AcDbSpline
210
0.0
220
0.0
230
1.0
 70
     8
 71
     3
 72
    15
 73
    11
 74
     0
 42
0.000000001
 43
0.0000001
 40
0.0
 40
0.0
 40
0.0
 40
0.0
 40
0.1304235137
 40
0.2604414301
 40
0.389222234
 40
0.5160805838
 40
0.6405654268
 40
0.7625291856000001
 40
0.8821651968000001
 40
1.0
 40
1.0
 40
1.0
 40
1.0
 10
28.58545451099999
 20
16.2857347885
 30
0.0
 10
28.54395514980001
 20
16.401376969
 30
0.0
 10
28.48007156279999
 20
16.6396219232
 30
0.0
 10
28.44441708030002
 20
17.0061535573
 30
0.0
 10
28.46994782889999
 20
17.3703129978
 30
0.0
 10
28.5559752874
 20
17.7197811006
 30
0.0
 10
28.6997650118
 20
18.0428111019
 30
0.0
 10
28.8967364138
 20
18.3284211716
 30
0.0
 10
29.14025790069999
 20
18.5666574906
 30
0.0
 10
29.32960382619999
 20
18.68916333999999
 30
0.0
 10
29.42849954069999
 20
18.73957693539999
 30
0.0
  0
SPLINE
  5
8ADFB
330
1F
100
AcDbEntity
  8
1
100
AcDbSpline
210
0.0
220
0.0
230
1.0
 70
     8
 71
     3
 72
    12
 73
     8
 74
     0
 42
0.000000001
 43
0.0000001
 40
0.0
 40
0.0
 40
0.0
 40
0.0
 40
0.2537905057
 40
0.5063288694
 40
0.6316000076
 40
0.7558000357
 40
1.0
 40
1.0
 40
1.0
 40
1.0
 10
27.24543175970001
 20
15.9355375241
 30
0.0
 10
27.19696403149999
 20
16.0705977664
 30
0.0
 10
27.1261256414
 20
16.35008727789999
 30
0.0
 10
27.1063071092
 20
16.7089898264
 30
0.0
 10
27.13262295319998
 20
16.9920523186
 30
0.0
 10
27.18607523150001
 20
17.2663269969
 30
0.0
 10
27.25711121789999
 20
17.4642386484
 30
0.0
 10
27.31745622829999
 20
17.5884243323
 30
0.0
  0
SPLINE
  5
8ADFC
330
1F
100
AcDbEntity
  8
1
100
AcDbSpline
210
0.0
220
0.0
230
1.0
 70
     8
 71
     3
 72
    11
 73
     7
 74
     0
 42
0.000000001
 43
0.0000001
 40
0.0
 40
0.0
 40
0.0
 40
0.0
 40
0.2974222941
 40
0.5627532330000001
 40
0.7958481344
 40
1.0
 40
1.0
 40
1.0
 40
1.0
 10
31.35401814610001
 20
15.89333526129999
 30
0.0
 10
31.35222933360001
 20
15.8183338376
 30
0.0
 10
31.3418416806
 20
15.6764104764
 30
0.0
 10
31.30166808519999
 20
15.4790177651
 30
0.0
 10
31.23841776399999
 20
15.3125035062
 30
0.0
 10
31.17741759500001
 20
15.2189950701
 30
0.0
 10
31.1432800069
 20
15.1804404991
 30
0.0
  0
ELLIPSE
  5
8ADFD
330
1F
100
AcDbEntity
  8
1
100
AcDbEllipse
 10
43.6081730856
 20
21.3086114148
 30
0.0
 11
0.3067078067000004
 21
-0.1118745319000001
 31
0.0
210
0.0
220
0.0
230
1.0
 40
0.5869011493000002
 41
3.142796325799918
 42
6.284388979400095
  0
ELLIPSE
  5
8ADFE
330
1F
100
AcDbEntity
  8
1
100
AcDbEllipse
 10
42.77914283000001
 20
19.0212357271
 30
0.0
 11
0.3067078067000004
 21
-0.1118745319000001
 31
0.0
210
0.0
220
0.0
230
1.0
 40
0.5869011493000002
 41
0.001203672200077
 42
3.142796325799918
  0
ELLIPSE
  5
8ADFF
330
1F
100
AcDbEntity
  8
1
100
AcDbEllipse
 10
42.41462434419998
 20
21.09573714329999
 30
0.0
 11
0.2496681855
 21
0.2114864395
 31
0.0
210
0.0
220
0.0
230
1.0
 40
0.5842965262
 41
3.138128609200141
 42
6.279721262799997
  0
ELLIPSE
  5
8AE00
330
1F
100
AcDbEntity
  8
1
100
AcDbEllipse
 10
43.97269157139999
 20
19.23410999849999
 30
0.0
 11
0.2496681855
 21
0.2114864395
 31
0.0
210
0.0
220
0.0
230
1.0
 40
0.5842965262
 41
6.279721262799811
 42
9.421313916400011
  0
ELLIPSE
  5
8AE01
330
1F
100
AcDbEntity
  8
1
100
AcDbEllipse
 10
43.40426313839997
 20
18.9663540541
 30
0.0
 11
0.3182542762
 21
0.0572228713
 31
0.0
210
0.0
220
0.0
230
1.0
 40
0.5950350855
 41
3.139234315900049
 42
6.280826969499869
  0
ELLIPSE
  5
8AE02
330
1F
100
AcDbEntity
  8
1
100
AcDbEllipse
 10
42.2645786525
 20
19.3811525953
 30
0.0
 11
-0.2072504368000001
 21
0.2487010554000001
 31
0.0
210
0.0
220
0.0
230
1.0
 40
0.5936456923
 41
0.0035793254000063
 42
3.145171978999854
  0
ELLIPSE
  5
8AE03
330
1F
100
AcDbEntity
  8
1
100
AcDbEllipse
 10
44.33334244369999
 20
19.7501250298
 30
0.0
 11
0.1103359944
 21
0.3051150585
 31
0.0
210
0.0
220
0.0
230
1.0
 40
0.5910275186999999
 41
3.140371464100028
 42
6.281964117699862
  0
ELLIPSE
  5
8AE04
330
1F
100
AcDbEntity
  8
1
100
AcDbEllipse
 10
44.12273726309999
 20
20.9486945466
 30
0.0
 11
-0.2072504368000001
 21
0.2487010554000001
 31
0.0
210
0.0
220
0.0
230
1.0
 40
0.5936456923
 41
3.14517197900004
 42
6.286764632600037
  0
ELLIPSE
  5
8AE05
330
1F
100
AcDbEntity
  8
1
100
AcDbEllipse
 10
44.38720669919999
 20
20.3777978423
 30
0.0
 11
-0.0562667565
 21
0.3227125888
 31
0.0
210
0.0
220
0.0
230
1.0
 40
0.5829426562
 41
0.0022605587999053
 42
3.143853212399856
  0
ELLIPSE
  5
8AE06
330
1F
100
AcDbEntity
  8
1
100
AcDbEllipse
 10
42.98305277719999
 20
21.3634930877
 30
0.0
 11
0.3182542762
 21
0.0572228713
 31
0.0
210
0.0
220
0.0
230
1.0
 40
0.5950350855
 41
6.280826969500026
 42
9.422419623000042
  0
ELLIPSE
  5
8AE07
330
1F
100
AcDbEntity
  8
1
100
AcDbEllipse
 10
42.00010921639999
 20
19.9520492995
 30
0.0
 11
-0.0562667565
 21
0.3227125888
 31
0.0
210
0.0
220
0.0
230
1.0
 40
0.5829426562
 41
3.143853212399966
 42
6.285445866000067
  0
ELLIPSE
  5
8AE08
330
1F
100
AcDbEntity
  8
1
100
AcDbEllipse
 10
42.05397347189999
 20
20.5797221121
 30
0.0
 11
0.1103359944
 21
0.3051150585
 31
0.0
210
0.0
220
0.0
230
1.0
 40
0.5910275186999999
 41
6.281964117699973
 42
9.423556771199836
  0
ELLIPSE
  5
8AE09
330
1F
100
AcDbEntity
  8
1
100
AcDbEllipse
 10
36.93179466379999
 20
20.1811279018
 30
0.0
 11
0.0282943443000001
 21
0.3232439408000005
 31
0.0
210
0.0
220
0.0
230
1.0
 40
0.5909265622999999
 41
3.142229906900073
 42
6.23099826510013
  0
ELLIPSE
  5
8AE0A
330
1F
100
AcDbEntity
  8
1
100
AcDbEllipse
 10
36.8219927708
 20
20.8011848192
 30
0.0
 11
-0.1374016179999999
 21
0.2970693342999999
 31
0.0
210
0.0
220
0.0
230
1.0
 40
0.5839219533000002
 41
0.0033069550001137
 42
3.144899608599721
  0
ELLIPSE
  5
8AE0B
330
1F
100
AcDbEntity
  8
1
100
AcDbEllipse
 10
34.62517310679999
 20
19.76996094389999
 30
0.0
 11
-0.1374016179999999
 21
0.2970693342999999
 31
0.0
210
0.0
220
0.0
230
1.0
 40
0.5839219533000002
 41
3.144899608599906
 42
6.286492262199923
  0
ELLIPSE
  5
8AE0C
330
1F
100
AcDbEntity
  8
1
100
AcDbEllipse
 10
35.82921231339998
 20
21.49757163509999
 30
0.0
 11
0.3252435541000004
 21
-0.0279950831
 31
0.0
210
0.0
220
0.0
230
1.0
 40
0.5870030098000002
 41
3.140964095100015
 42
6.282556748699948
  0
ELLIPSE
  5
8AE0D
330
1F
100
AcDbEntity
  8
1
100
AcDbEllipse
 10
35.61795356419998
 20
19.0735741281
 30
0.0
 11
0.3252435541000004
 21
-0.0279950831
 31
0.0
210
0.0
220
0.0
230
1.0
 40
0.5870030098000002
 41
6.282556748700042
 42
9.424149402299976
  0
ELLIPSE
  5
8AE0E
330
1F
100
AcDbEntity
  8
1
100
AcDbEllipse
 10
35.02793400900002
 20
19.28742388289998
 30
0.0
 11
0.2644786101
 21
-0.186174097
 31
0.0
210
0.0
220
0.0
230
1.0
 40
0.5947535894
 41
3.144381598400098
 42
6.285974251999827
  0
ELLIPSE
  5
8AE0F
330
1F
100
AcDbEntity
  8
1
100
AcDbEllipse
 10
36.7163633962
 20
19.5891860657
 30
0.0
 11
0.1868391373
 21
0.2689801407
 31
0.0
210
0.0
220
0.0
230
1.0
 40
0.5832153985000002
 41
6.280506800500061
 42
9.422099454100008
  0
ELLIPSE
  5
8AE10
330
1F
100
AcDbEntity
  8
1
100
AcDbEllipse
 10
34.51537121379999
 20
20.3900178613
 30
0.0
 11
0.0282943443000001
 21
0.3232439408000005
 31
0.0
210
0.0
220
0.0
230
1.0
 40
0.5909265622999999
 41
0.0006372533000523
 42
3.089405611499837
  0
ELLIPSE
  5
8AE11
330
1F
100
AcDbEntity
  8
1
100
AcDbEllipse
 10
36.23614573399999
 20
19.1829789032
 30
0.0
 11
0.2926796349
 21
0.1381163237
 31
0.0
210
0.0
220
0.0
230
1.0
 40
0.5940281134000003
 41
3.138166574700102
 42
6.279759228300032
  0
ELLIPSE
  5
8AE12
330
1F
100
AcDbEntity
  8
1
100
AcDbEllipse
 10
34.73080248140002
 20
20.98195969749999
 30
0.0
 11
0.1868391373
 21
0.2689801407
 31
0.0
210
0.0
220
0.0
230
1.0
 40
0.5832153985000002
 41
3.138914146899963
 42
6.280506800399918
  0
ELLIPSE
  5
8AE13
330
1F
100
AcDbEntity
  8
1
100
AcDbEllipse
 10
36.41923186860001
 20
21.2837218802
 30
0.0
 11
0.2644786101
 21
-0.186174097
 31
0.0
210
0.0
220
0.0
230
1.0
 40
0.5947535894
 41
6.285974251900022
 42
9.427566905500084
  0
ELLIPSE
  5
8AE14
330
1F
100
AcDbEntity
  8
1
100
AcDbEllipse
 10
35.2110201436
 20
21.38816686
 30
0.0
 11
0.2926796349
 21
0.1381163237
 31
0.0
210
0.0
220
0.0
230
1.0
 40
0.5940281134000003
 41
6.279759228300162
 42
9.421351881899823
  0
ELLIPSE
  5
8AE15
330
1F
100
AcDbEntity
  8
1
100
AcDbEllipse
 10
29.95247653019999
 20
-0.0000000010999983
 30
0.0
 11
-7.8983578277
 21
24.60455951820001
 31
0.0
210
0.0
220
0.0
230
1.0
 40
0.1270052676
 41
5.619145954299993
 42
5.979150157999993
  0
ELLIPSE
  5
8AE16
330
1F
100
AcDbEntity
  8
1
100
AcDbEllipse
 10
248.6446493082
 20
-0.0000000010999983
 30
0.0
 11
385.4031698386007
 21
-24.62378648750004
 31
0.0
210
0.0
220
0.0
230
1.0
 40
0.0006343145
 41
2.138866973199998
 42
2.174777970300032
  0
ELLIPSE
  5
8AE17
330
1F
100
AcDbEntity
  8
1
100
AcDbEllipse
 10
31.85560607950002
 20
43.99366516879999
 30
0.0
 11
16.11030175079999
 21
12.1070057284
 31
0.0
210
0.0
220
0.0
230
1.0
 40
0.9836751634999997
 41
3.896233721299998
 42
4.034222341199998
  0
ELLIPSE
  5
8AE18
330
1F
100
AcDbEntity
  8
1
100
AcDbEllipse
 10
34.10825912389999
 20
23.99913242459998
 30
0.0
 11
2.841282303000003
 21
-0.0733678427000002
 31
0.0
210
0.0
220
0.0
230
1.0
 40
0.0116962053
 41
3.833818949400003
 42
3.887959872900172
  0
ELLIPSE
  5
8AE19
330
1F
100
AcDbEntity
  8
1
100
AcDbEllipse
 10
30.2526951536
 20
14.6784067888
 30
0.0
 11
5.973927491799999
 21
-3.136548278099998
 31
0.0
210
0.0
220
0.0
230
1.0
 40
0.0978585058
 41
4.427119149400003
 42
4.601956250099996
  0
ELLIPSE
  5
8AE1A
330
1F
100
AcDbEntity
  8
1
100
AcDbEllipse
 10
29.62835677920001
 20
11.7573294337
 30
0.0
 11
-3.582356824600002
 21
13.2806422882
 31
0.0
210
0.0
220
0.0
230
1.0
 40
0.1372890746
 41
0.920217950799997
 42
1.047102725299994
  0
ELLIPSE
  5
8AE1B
330
1F
100
AcDbEntity
  8
1
100
AcDbEllipse
 10
36.1694233243
 20
17.0747859874
 30
0.0
 11
6.4541589849
 21
2.337832324699999
 31
0.0
210
0.0
220
0.0
230
1.0
 40
0.0161782067
 41
3.393581658399928
 42
4.037553911699973
  0
ELLIPSE
  5
8AE1C
330
1F
100
AcDbEntity
  8
1
100
AcDbEllipse
 10
27.59634152679999
 20
-0.0000000010999983
 30
0.0
 11
-0.332217092
 21
24.6249827815
 31
0.0
210
0.0
220
0.0
230
1.0
 40
0.0876553108
 41
0.661740011400001
 42
0.7475599636999848
  0
ELLIPSE
  5
8AE1D
330
1F
100
AcDbEntity
  8
1
100
AcDbEllipse
 10
55.676552447
 20
-0.0000000010999983
 30
0.0
 11
44.07684213329999
 21
-24.6169602403
 31
0.0
210
0.0
220
0.0
230
1.0
 40
0.0142750859
 41
4.023855955000011
 42
4.051716096800018
  0
ELLIPSE
  5
8AE1E
330
1F
100
AcDbEntity
  8
1
100
AcDbEllipse
 10
29.8375379517
 20
16.5685789788
 30
0.0
 11
7.0803521964
 21
11.7111636653
 31
0.0
210
0.0
220
0.0
230
1.0
 40
0.1813788431
 41
7.276879767799997
 42
7.538219695199992
  0
ELLIPSE
  5
8AE1F
330
1F
100
AcDbEntity
  8
1
100
AcDbEllipse
 10
29.8375379517
 20
16.5685789788
 30
0.0
 11
7.0803521964
 21
11.7111636653
 31
0.0
210
0.0
220
0.0
230
1.0
 40
0.1813788431
 41
7.555960467999996
 42
7.616340421599998
  0
ELLIPSE
  5
8AE20
330
1F
100
AcDbEntity
  8
1
100
AcDbEllipse
 10
10.81398496029999
 20
67.35092500189999
 30
0.0
 11
-24.6626840454
 21
70.908320013
 31
0.0
210
0.0
220
0.0
230
1.0
 40
0.0399310235
 41
3.978184226199998
 42
4.046438507300006
  0
ELLIPSE
  5
8AE21
330
1F
100
AcDbEntity
  8
1
100
AcDbEllipse
 10
31.64236977740002
 20
19.7087744634
 30
0.0
 11
3.636645362999999
 21
1.3132490417
 31
0.0
210
0.0
220
0.0
230
1.0
 40
0.0286981722
 41
3.757422067299931
 42
4.043829321099938
  0
VIEWPORT
  5
71
102
{ACAD_XDICTIONARY
360
8769D
102
}
330
55
100
AcDbEntity
 67
     1
  8
0
100
AcDbViewport
 10
150.1652135264906
 20
103.6581106594891
 30
0.0
 40
339.1973820494347
 41
168.6522697578383
 68
     1
 69
    -1
 12
150.1652135264906
 22
103.6581106594891
 13
0.0
 23
0.0
 14
10.0
 24
10.0
 15
10.0
 25
10.0
 16
0.0
 26
0.0
 36
1.0
 17
0.0
 27
0.0
 37
0.0
 42
50.0
 43
0.0
 44
0.0
 45
168.6522697578383
 50
0.0
 51
0.0
 72
  1000
 90
    32864
  1

281
     0
 71
     1
 74
     0
110
0.0
120
0.0
130
0.0
111
1.0
121
0.0
131
0.0
112
0.0
122
1.0
132
0.0
 79
     0
146
0.0
  0
VIEWPORT
  5
73
102
{ACAD_XDICTIONARY
360
8769F
102
}
330
55
100
AcDbEntity
 67
     1
  8
0
100
AcDbViewport
 10
133.3499939441681
 20
101.5999939441681
 30
0.0
 40
213.3599903106689
 41
162.5599903106689
 68
     2
 69
    -1
 12
210.0
 22
148.5
 13
0.0
 23
0.0
 14
10.0
 24
10.0
 15
10.0
 25
10.0
 16
0.0
 26
0.0
 36
1.0
 17
0.0
 27
0.0
 37
0.0
 42
50.0
 43
0.0
 44
0.0
 45
324.0677920111345
 50
0.0
 51
0.0
 72
   100
 90
    32864
  1

281
     0
 71
     1
 74
     0
110
0.0
120
0.0
130
0.0
111
1.0
121
0.0
131
0.0
112
0.0
122
1.0
132
0.0
 79
     0
146
0.0
  0
ENDSEC
  0
SECTION
  2
OBJECTS
  0
DICTIONARY
  5
C
330
0
100
AcDbDictionary
281
     1
  3
ACAD_CIP_PREVIOUS_PRODUCT_INFO
350
4A3C3
  3
ACAD_COLOR
350
85
  3
ACAD_DETAILVIEWSTYLE
350
4A3BB
  3
ACAD_GROUP
350
D
  3
ACAD_LAYOUT
350
1A
  3
ACAD_MATERIAL
350
84
  3
ACAD_MLEADERSTYLE
350
4A3B7
  3
ACAD_MLINESTYLE
350
17
  3
ACAD_PLOTSETTINGS
350
19
  3
ACAD_PLOTSTYLENAME
350
E
  3
ACAD_SCALELIST
350
4A3A5
  3
ACAD_SECTIONVIEWSTYLE
350
4A3B9
  3
ACAD_TABLESTYLE
350
A1
  3
ACAD_VISUALSTYLE
350
4A38C
  3
ACDB_RECOMPOSE_DATA
350
8B0CA
  3
ACDBHEADERROUNDTRIPXREC
350
8B25D
  3
AcDbVariableDictionary
350
5E
  3
ASE_INDEX_DICTIONARY
350
349E9
  3
DWGPROPS
350
8B260
  0
DICTIONARY
  5
87DC4
330
8
100
AcDbDictionary
280
     1
281
     1
  3
ACAD_XREC_ROUNDTRIP
360
8B265
  0
DICTIONARY
  5
E2
330
2
100
AcDbDictionary
280
     1
281
     1
  3
ACAD_LAYERFILTERS
360
4A339
  3
ACAD_LAYERSTATES
360
3759A
  3
ACLYDICTIONARY
360
4A338
  0
DICTIONARY
  5
4A86C
330
10
100
AcDbDictionary
280
     1
281
     1
  3
ADSK_XREC_LAYER_RECONCILED
360
4A86D
  0
DICTIONARY
  5
4A773
330
4A772
100
AcDbDictionary
280
     1
281
     1
  3
ADSK_XREC_LAYER_RECONCILED
360
4A86E
  0
DICTIONARY
  5
4A775
330
4A774
100
AcDbDictionary
280
     1
281
     1
  3
ADSK_XREC_LAYER_RECONCILED
360
4A86F
  0
DICTIONARY
  5
4A777
330
4A776
100
AcDbDictionary
280
     1
281
     1
  3
ADSK_XREC_LAYER_RECONCILED
360
4A870
  0
DICTIONARY
  5
4A779
330
4A778
100
AcDbDictionary
280
     1
281
     1
  3
ADSK_XREC_LAYER_RECONCILED
360
4A871
  0
DICTIONARY
  5
4A77B
330
4A77A
100
AcDbDictionary
280
     1
281
     1
  3
ADSK_XREC_LAYER_RECONCILED
360
4A872
  0
DICTIONARY
  5
4A77F
330
4A77E
100
AcDbDictionary
280
     1
281
     1
  3
ADSK_XREC_LAYER_RECONCILED
360
4A874
  0
DICTIONARY
  5
4A783
330
4A782
100
AcDbDictionary
280
     1
281
     1
  3
ADSK_XREC_LAYER_RECONCILED
360
4A876
  0
DICTIONARY
  5
31EE
330
1F
100
AcDbDictionary
280
     1
281
     1
  3
ACAD_SORTENTS
360
31EF
  0
DICTIONARY
  5
87699
330
6B
100
AcDbDictionary
280
     1
281
     1
  3
ACAD_XREC_ROUNDTRIP
360
8B263
  0
DICTIONARY
  5
8769B
330
6D
100
AcDbDictionary
280
     1
281
     1
  3
ACAD_XREC_ROUNDTRIP
360
8B264
  0
DICTIONARY
  5
8769D
330
71
100
AcDbDictionary
280
     1
281
     1
  3
ACAD_XREC_ROUNDTRIP
360
8B261
  0
DICTIONARY
  5
8769F
330
73
100
AcDbDictionary
280
     1
281
     1
  3
ACAD_XREC_ROUNDTRIP
360
8B262
  0
XRECORD
  5
4A3C3
102
{ACAD_REACTORS
330
C
102
}
330
C
100
AcDbXrecord
280
     1
300
ACDLT
300
2020
300

  0
DICTIONARY
  5
85
102
{ACAD_REACTORS
330
C
102
}
330
C
100
AcDbDictionary
281
     1
  0
DICTIONARY
  5
4A3BB
102
{ACAD_REACTORS
330
C
102
}
330
C
100
AcDbDictionary
281
     1
  3
Metric50
350
4A3BC
  0
DICTIONARY
  5
D
102
{ACAD_REACTORS
330
C
102
}
330
C
100
AcDbDictionary
281
     1
  0
DICTIONARY
  5
1A
102
{ACAD_REACTORS
330
C
102
}
330
C
100
AcDbDictionary
281
     1
  3
Model
350
22
  3
レイアウト1
350
51
  3
レイアウト2
350
56
  0
DICTIONARY
  5
84
102
{ACAD_REACTORS
330
C
102
}
330
C
100
AcDbDictionary
281
     1
  3
ByBlock
350
4A37C
  3
ByLayer
350
4A374
  3
Global
350
4A384
  0
DICTIONARY
  5
4A3B7
102
{ACAD_REACTORS
330
C
102
}
330
C
100
AcDbDictionary
281
     1
  3
Standard
350
4A3B8
  0
DICTIONARY
  5
17
102
{ACAD_REACTORS
330
C
102
}
330
C
100
AcDbDictionary
281
     1
  3
Standard
350
18
  0
DICTIONARY
  5
19
102
{ACAD_REACTORS
330
C
102
}
330
C
100
AcDbDictionary
281
     1
  0
ACDBDICTIONARYWDFLT
  5
E
102
{ACAD_REACTORS
330
C
102
}
330
C
100
AcDbDictionary
281
     1
  3
Normal
350
F
100
AcDbDictionaryWithDefault
340
F
  0
DICTIONARY
  5
4A3A5
102
{ACAD_REACTORS
330
C
102
}
330
C
100
AcDbDictionary
281
     1
  3
A0
350
4A3A6
  3
A1
350
4A3A7
  3
A2
350
4A3A8
  3
A3
350
4A3A9
  3
A4
350
4A3AA
  3
A5
350
4A3AB
  3
A6
350
4A3AC
  3
A7
350
4A3AD
  3
A8
350
4A3AE
  3
A9
350
4A3AF
  3
B0
350
4A3B0
  3
B1
350
4A3B1
  3
B2
350
4A3B2
  3
B3
350
4A3B3
  3
B4
350
4A3B4
  3
B5
350
4A3B5
  3
B6
350
4A3B6
  0
DICTIONARY
  5
4A3B9
102
{ACAD_REACTORS
330
C
102
}
330
C
100
AcDbDictionary
281
     1
  3
Metric50
350
4A3BA
  0
DICTIONARY
  5
A1
102
{ACAD_REACTORS
330
C
102
}
330
C
100
AcDbDictionary
281
     1
  3
Standard
350
A2
  0
DICTIONARY
  5
4A38C
102
{ACAD_REACTORS
330
C
102
}
330
C
100
AcDbDictionary
281
     1
  3
2dWireframe
350
4A392
  3
Basic
350
4A391
  3
Brighten
350
4A398
  3
ColorChange
350
4A39C
  3
Conceptual
350
4A395
  3
Dim
350
4A397
  3
EdgeColorOff
350
4A3A4
  3
Facepattern
350
4A39B
  3
Flat
350
4A38D
  3
FlatWithEdges
350
4A38E
  3
Gouraud
350
4A38F
  3
GouraudWithEdges
350
4A390
  3
Hidden
350
4A394
  3
JitterOff
350
4A3A2
  3
Linepattern
350
4A39A
  3
OverhangOff
350
4A3A3
  3
Realistic
350
4A396
  3
Shaded
350
4A3A1
  3
Shaded with edges
350
4A3A0
  3
Shades of Gray
350
4A39D
  3
Sketchy
350
4A39E
  3
Thicken
350
4A399
  3
Wireframe
350
4A393
  3
X-Ray
350
4A39F
  0
XRECORD
  5
8B0CA
102
{ACAD_REACTORS
330
C
102
}
330
C
100
AcDbXrecord
280
     1
 90
        1
330
A2
  0
DICTIONARY
  5
8B25D
102
{ACAD_REACTORS
330
C
102
}
330
C
100
AcDbDictionary
281
     1
  3
COLORDICT
350
8B25E
  3
MATERIALDICT
350
8B25F
  0
DICTIONARY
  5
5E
102
{ACAD_REACTORS
330
C
102
}
330
C
100
AcDbDictionary
281
     1
  3
CANNOSCALE
350
8B14B
  3
CMLEADERSTYLE
350
4A6CE
  3
CTABLESTYLE
350
B8
  3
CVIEWDETAILSTYLE
350
4A6CF
  3
CVIEWSECTIONSTYLE
350
4A6D0
  3
DIMASSOC
350
5F
  3
HIDETEXT
350
63
  3
INDEXCTL
350
4A879
  3
LAYEREVAL
350
4A6D4
  3
LAYERNOTIFY
350
4A6D5
  3
LIGHTINGUNITS
350
4A6D3
  3
MSLTSCALE
350
4A6D1
  3
PROJECTNAME
350
31CE
  3
SORTENTS
350
4A878
  3
XCLIPFRAME
350
5A559
  0
DICTIONARY
  5
349E9
102
{ACAD_REACTORS
330
C
102
}
330
C
100
AcDbDictionary
281
     1
  3
ASEBlockHierarchyIndexRecord
350
349EA
1001
DCO15
1040
1842496176.844
  0
XRECORD
  5
8B260
102
{ACAD_REACTORS
330
C
102
}
330
C
100
AcDbXrecord
280
     1
  1
DWGPROPS COOKIE
  2

  3

  4

  6

  7

  8
zhangnw
  9

300
=
301
=
302
=
303
=
304
=
305
=
306
=
307
=
308
=
309
=
 40
0.0
 41
2455489.391063368
 42
2458925.708421204
  1

 90
        0
  0
XRECORD
  5
8B265
102
{ACAD_REACTORS
330
87DC4
102
}
330
87DC4
100
AcDbXrecord
280
     1
102
VTR_0.000_0.000_1.000_1.000_VISUALSTYLE
340
4A392
102
VTR_0.000_0.000_1.000_1.000_GRIDDISPLAY
 70
     3
102
VTR_0.000_0.000_1.000_1.000_GRIDMAJOR
 70
     5
102
VTR_0.000_0.000_1.000_1.000_DEFAULTLIGHTING
280
     1
102
VTR_0.000_0.000_1.000_1.000_DEFAULTLIGHTINGTYPE
 70
     1
102
VTR_0.000_0.000_1.000_1.000_BRIGHTNESS
141
0.0
102
VTR_0.000_0.000_1.000_1.000_CONTRAST
142
0.0
  0
DICTIONARY
  5
4A339
102
{ACAD_REACTORS
330
E2
102
}
330
E2
100
AcDbDictionary
281
     1
  0
DICTIONARY
  5
3759A
102
{ACAD_REACTORS
330
E2
102
}
330
E2
100
AcDbDictionary
281
     1
  0
DICTIONARY
  5
4A338
102
{ACAD_REACTORS
330
E2
102
}
330
E2
100
AcDbDictionary
281
     1
1001
ACAD
1000
<All
  0
XRECORD
  5
4A86D
102
{ACAD_REACTORS
330
4A86C
102
}
330
4A86C
100
AcDbXrecord
280
     1
290
     1
  0
XRECORD
  5
4A86E
102
{ACAD_REACTORS
330
4A773
102
}
330
4A773
100
AcDbXrecord
280
     1
290
     1
  0
XRECORD
  5
4A86F
102
{ACAD_REACTORS
330
4A775
102
}
330
4A775
100
AcDbXrecord
280
     1
290
     1
  0
XRECORD
  5
4A870
102
{ACAD_REACTORS
330
4A777
102
}
330
4A777
100
AcDbXrecord
280
     1
290
     1
  0
XRECORD
  5
4A871
102
{ACAD_REACTORS
330
4A779
102
}
330
4A779
100
AcDbXrecord
280
     1
290
     1
  0
XRECORD
  5
4A872
102
{ACAD_REACTORS
330
4A77B
102
}
330
4A77B
100
AcDbXrecord
280
     1
290
     1
  0
XRECORD
  5
4A874
102
{ACAD_REACTORS
330
4A77F
102
}
330
4A77F
100
AcDbXrecord
280
     1
290
     1
  0
XRECORD
  5
4A876
102
{ACAD_REACTORS
330
4A783
102
}
330
4A783
100
AcDbXrecord
280
     1
290
     1
  0
SORTENTSTABLE
  5
31EF
102
{ACAD_REACTORS
330
31EE
102
}
330
31EE
100
AcDbSortentsTable
330
1F
  0
XRECORD
  5
8B263
102
{ACAD_REACTORS
330
87699
102
}
330
87699
100
AcDbXrecord
280
     1
102
GRIDDISPLAY
 70
     0
102
GRIDMAJOR
 70
     5
102
DEFAULTLIGHTING
280
     1
102
DEFAULTLIGHTINGTYPE
 70
     1
102
BRIGHTNESS
141
0.0
102
CONTRAST
142
0.0
  0
XRECORD
  5
8B264
102
{ACAD_REACTORS
330
8769B
102
}
330
8769B
100
AcDbXrecord
280
     1
102
GRIDDISPLAY
 70
     0
102
GRIDMAJOR
 70
     5
102
DEFAULTLIGHTING
280
     1
102
DEFAULTLIGHTINGTYPE
 70
     1
102
BRIGHTNESS
141
0.0
102
CONTRAST
142
0.0
  0
XRECORD
  5
8B261
102
{ACAD_REACTORS
330
8769D
102
}
330
8769D
100
AcDbXrecord
280
     1
102
GRIDDISPLAY
 70
     0
102
GRIDMAJOR
 70
     5
102
DEFAULTLIGHTING
280
     1
102
DEFAULTLIGHTINGTYPE
 70
     1
102
BRIGHTNESS
141
0.0
102
CONTRAST
142
0.0
  0
XRECORD
  5
8B262
102
{ACAD_REACTORS
330
8769F
102
}
330
8769F
100
AcDbXrecord
280
     1
102
GRIDDISPLAY
 70
     0
102
GRIDMAJOR
 70
     5
102
DEFAULTLIGHTING
280
     1
102
DEFAULTLIGHTINGTYPE
 70
     1
102
BRIGHTNESS
141
0.0
102
CONTRAST
142
0.0
  0
ACDBDETAILVIEWSTYLE
  5
4A3BC
102
{ACAD_XDICTIONARY
360
876D4
102
}
102
{ACAD_REACTORS
330
4A3BB
102
}
330
4A3BB
100
AcDbModelDocViewStyle
 70
     0
  3
Metric50
290
     0
100
AcDbDetailViewStyle
 70
     0
 71
     0
 90
        3
 71
     1
340
11
 40
5.0
340
0
 40
5.0
300

 40
0.0
280
     1
 71
     2
340
16
 90
       25
 71
     3
340
11
 40
5.0
 90
        0
 40
15.0
 90
        1
300
%<\AcVar ViewDetailId>% (%<\AcVar ViewScale \f "%sn">%)
 71
     4
340
16
 90
       25
340
16
 90
       25
280
     0
  0
LAYOUT
  5
22
102
{ACAD_REACTORS
330
1A
102
}
330
1A
100
AcDbPlotSettings
  1

  2
none_device
  4
ANSI_A_(8.50_x_11.00_Inches)
  6

 40
6.349999904632567
 41
19.04999923706055
 42
6.350006103515625
 43
19.04998779296875
 44
215.8999938964844
 45
279.3999938964844
 46
0.0
 47
0.0
 48
0.0
 49
0.0
140
0.0
141
0.0
142
1.0
143
78.436453180766
 70
 11952
 72
     0
 73
     1
 74
     0
  7

 75
     0
147
0.0127491741332998
148
0.0
149
0.0
100
AcDbLayout
  1
Model
 70
     1
 71
     0
 10
0.0
 20
0.0
 11
12.0
 21
9.0
 12
0.0
 22
0.0
 32
0.0
 14
0.0
 24
0.0
 34
0.0
 15
0.0
 25
0.0
 35
0.0
146
0.0
 13
0.0
 23
0.0
 33
0.0
 16
1.0
 26
0.0
 36
0.0
 17
0.0
 27
1.0
 37
0.0
 76
     0
330
1F
331
4A360
  0
LAYOUT
  5
51
102
{ACAD_REACTORS
330
1A
102
}
330
1A
100
AcDbPlotSettings
  1

  2
none_device
  4
Letter_(8.50_x_11.00_Inches)
  6

 40
6.349999904632567
 41
6.349999904632567
 42
6.350006103515625
 43
6.350006103515625
 44
215.8999938964844
 45
279.3999938964844
 46
0.0
 47
0.0
 48
0.0
 49
0.0
140
0.0
141
0.0
142
1.0
143
1.0
 70
   688
 72
     1
 73
     1
 74
     5
  7

 75
    16
147
1.0
148
0.0
149
0.0
100
AcDbLayout
  1
レイアウト1
 70
     1
 71
     1
 10
-6.350006103515625
 20
-6.349999904632567
 11
273.0499877929688
 21
209.5499939918518
 12
0.0
 22
0.0
 32
0.0
 14
26.66999878883364
 24
20.31999878883365
 34
0.0
 15
240.0299890995025
 25
182.8799890995025
 35
0.0
146
0.0
 13
0.0
 23
0.0
 33
0.0
 16
1.0
 26
0.0
 36
0.0
 17
0.0
 27
1.0
 37
0.0
 76
     0
330
50
331
6B
  0
LAYOUT
  5
56
102
{ACAD_REACTORS
330
1A
102
}
330
1A
100
AcDbPlotSettings
  1

  2
none_device
  4
Letter_(8.50_x_11.00_Inches)
  6

 40
6.349999904632567
 41
6.349999904632567
 42
6.350006103515625
 43
6.350006103515625
 44
215.8999938964844
 45
279.3999938964844
 46
0.0
 47
0.0
 48
0.0
 49
0.0
140
0.0
141
0.0
142
1.0
143
1.0
 70
   688
 72
     1
 73
     1
 74
     5
  7

 75
    16
147
1.0
148
0.0
149
0.0
100
AcDbLayout
  1
レイアウト2
 70
     1
 71
     2
 10
-6.350006103515625
 20
-6.349999904632567
 11
273.0499877929688
 21
209.5499939918518
 12
0.0
 22
0.0
 32
0.0
 14
26.66999878883364
 24
20.31999878883365
 34
0.0
 15
240.0299890995025
 25
182.8799890995025
 35
0.0
146
0.0
 13
0.0
 23
0.0
 33
0.0
 16
1.0
 26
0.0
 36
0.0
 17
0.0
 27
1.0
 37
0.0
 76
     0
330
55
331
71
  0
MATERIAL
  5
4A37C
102
{ACAD_XDICTIONARY
360
4A37D
102
}
102
{ACAD_REACTORS
330
84
102
}
330
84
100
AcDbMaterial
  1
ByBlock
 72
     0
 73
     2
 43
0.0008202099737533
 43
0.0
 43
0.0
 43
0.0
 43
0.0
 43
0.0008202099737533
 43
0.0
 43
0.0
 43
0.0
 43
0.0
 43
1.0
 43
0.0
 43
0.0
 43
0.0
 43
0.0
 43
1.0
 77
     0
 78
     2
 47
0.0008202099737533
 47
0.0
 47
0.0
 47
0.0
 47
0.0
 47
0.0008202099737533
 47
0.0
 47
0.0
 47
0.0
 47
0.0
 47
1.0
 47
0.0
 47
0.0
 47
0.0
 47
0.0
 47
1.0
171
     0
172
     2
 49
0.0008202099737533
 49
0.0
 49
0.0
 49
0.0
 49
0.0
 49
0.0008202099737533
 49
0.0
 49
0.0
 49
0.0
 49
0.0
 49
1.0
 49
0.0
 49
0.0
 49
0.0
 49
0.0
 49
1.0
175
     0
176
     2
142
0.0008202099737533
142
0.0
142
0.0
142
0.0
142
0.0
142
0.0008202099737533
142
0.0
142
0.0
142
0.0
142
0.0
142
1.0
142
0.0
142
0.0
142
0.0
142
0.0
142
1.0
179
     0
270
     2
144
0.0008202099737533
144
0.0
144
0.0
144
0.0
144
0.0
144
0.0008202099737533
144
0.0
144
0.0
144
0.0
144
0.0
144
1.0
144
0.0
144
0.0
144
0.0
144
0.0
144
1.0
274
     2
147
0.0008202099737533
147
0.0
147
0.0
147
0.0
147
0.0
147
0.0008202099737533
147
0.0
147
0.0
147
0.0
147
0.0
147
1.0
147
0.0
147
0.0
147
0.0
147
0.0
147
1.0
  0
MATERIAL
  5
4A374
102
{ACAD_XDICTIONARY
360
4A375
102
}
102
{ACAD_REACTORS
330
84
102
}
330
84
100
AcDbMaterial
  1
ByLayer
 72
     0
 73
     2
 43
0.0008202099737533
 43
0.0
 43
0.0
 43
0.0
 43
0.0
 43
0.0008202099737533
 43
0.0
 43
0.0
 43
0.0
 43
0.0
 43
1.0
 43
0.0
 43
0.0
 43
0.0
 43
0.0
 43
1.0
 77
     0
 78
     2
 47
0.0008202099737533
 47
0.0
 47
0.0
 47
0.0
 47
0.0
 47
0.0008202099737533
 47
0.0
 47
0.0
 47
0.0
 47
0.0
 47
1.0
 47
0.0
 47
0.0
 47
0.0
 47
0.0
 47
1.0
171
     0
172
     2
 49
0.0008202099737533
 49
0.0
 49
0.0
 49
0.0
 49
0.0
 49
0.0008202099737533
 49
0.0
 49
0.0
 49
0.0
 49
0.0
 49
1.0
 49
0.0
 49
0.0
 49
0.0
 49
0.0
 49
1.0
175
     0
176
     2
142
0.0008202099737533
142
0.0
142
0.0
142
0.0
142
0.0
142
0.0008202099737533
142
0.0
142
0.0
142
0.0
142
0.0
142
1.0
142
0.0
142
0.0
142
0.0
142
0.0
142
1.0
179
     0
270
     2
144
0.0008202099737533
144
0.0
144
0.0
144
0.0
144
0.0
144
0.0008202099737533
144
0.0
144
0.0
144
0.0
144
0.0
144
1.0
144
0.0
144
0.0
144
0.0
144
0.0
144
1.0
274
     2
147
0.0008202099737533
147
0.0
147
0.0
147
0.0
147
0.0
147
0.0008202099737533
147
0.0
147
0.0
147
0.0
147
0.0
147
1.0
147
0.0
147
0.0
147
0.0
147
0.0
147
1.0
  0
MATERIAL
  5
4A384
102
{ACAD_XDICTIONARY
360
4A385
102
}
102
{ACAD_REACTORS
330
84
102
}
330
84
100
AcDbMaterial
  1
Global
 72
     0
 73
     2
 43
0.0008202099737533
 43
0.0
 43
0.0
 43
0.0
 43
0.0
 43
0.0008202099737533
 43
0.0
 43
0.0
 43
0.0
 43
0.0
 43
1.0
 43
0.0
 43
0.0
 43
0.0
 43
0.0
 43
1.0
 77
     0
 78
     2
 47
0.0008202099737533
 47
0.0
 47
0.0
 47
0.0
 47
0.0
 47
0.0008202099737533
 47
0.0
 47
0.0
 47
0.0
 47
0.0
 47
1.0
 47
0.0
 47
0.0
 47
0.0
 47
0.0
 47
1.0
171
     0
172
     2
 49
0.0008202099737533
 49
0.0
 49
0.0
 49
0.0
 49
0.0
 49
0.0008202099737533
 49
0.0
 49
0.0
 49
0.0
 49
0.0
 49
1.0
 49
0.0
 49
0.0
 49
0.0
 49
0.0
 49
1.0
175
     0
176
     2
142
0.0008202099737533
142
0.0
142
0.0
142
0.0
142
0.0
142
0.0008202099737533
142
0.0
142
0.0
142
0.0
142
0.0
142
1.0
142
0.0
142
0.0
142
0.0
142
0.0
142
1.0
179
     0
270
     2
144
0.0008202099737533
144
0.0
144
0.0
144
0.0
144
0.0
144
0.0008202099737533
144
0.0
144
0.0
144
0.0
144
0.0
144
1.0
144
0.0
144
0.0
144
0.0
144
0.0
144
1.0
274
     2
147
0.0008202099737533
147
0.0
147
0.0
147
0.0
147
0.0
147
0.0008202099737533
147
0.0
147
0.0
147
0.0
147
0.0
147
1.0
147
0.0
147
0.0
147
0.0
147
0.0
147
1.0
  0
MLEADERSTYLE
  5
4A3B8
102
{ACAD_XDICTIONARY
360
87DC9
102
}
102
{ACAD_REACTORS
330
4A3B7
102
}
330
4A3B7
100
AcDbMLeaderStyle
170
     2
171
     1
172
     0
 90
        2
 40
0.0
 41
0.0
173
     1
 91
-1056964608
340
14
 92
       -2
290
     1
 42
2.0
291
     1
 43
0.36
  3
Standard
 44
4.0
300

342
11
174
     1
178
     6
175
     1
176
     0
 93
-1056964608
 45
4.0
292
     0
297
     0
 46
4.0
 94
-1056964608
 47
1.0
 49
1.0
140
1.0
293
     1
141
0.0
294
     1
177
     0
142
1.0
295
     0
296
     0
143
0.125
1001
ACAD_MLEADERVER
1070
     2
  0
MLINESTYLE
  5
18
102
{ACAD_REACTORS
330
17
102
}
330
17
100
AcDbMlineStyle
  2
STANDARD
 70
     0
  3

 62
   256
 51
90.0
 52
90.0
 71
     2
 49
0.5
 62
   256
  6
BYLAYER
 49
-0.5
 62
   256
  6
BYLAYER
  0
ACDBPLACEHOLDER
  5
F
102
{ACAD_REACTORS
330
E
102
}
330
E
  0
SCALE
  5
4A3A6
102
{ACAD_REACTORS
330
4A3A5
102
}
330
4A3A5
100
AcDbScale
 70
     0
300
1:1
140
1.0
141
1.0
290
     1
  0
SCALE
  5
4A3A7
102
{ACAD_REACTORS
330
4A3A5
102
}
330
4A3A5
100
AcDbScale
 70
     0
300
1:2
140
1.0
141
2.0
290
     0
  0
SCALE
  5
4A3A8
102
{ACAD_REACTORS
330
4A3A5
102
}
330
4A3A5
100
AcDbScale
 70
     0
300
1:4
140
1.0
141
4.0
290
     0
  0
SCALE
  5
4A3A9
102
{ACAD_REACTORS
330
4A3A5
102
}
330
4A3A5
100
AcDbScale
 70
     0
300
1:5
140
1.0
141
5.0
290
     0
  0
SCALE
  5
4A3AA
102
{ACAD_REACTORS
330
4A3A5
102
}
330
4A3A5
100
AcDbScale
 70
     0
300
1:8
140
1.0
141
8.0
290
     0
  0
SCALE
  5
4A3AB
102
{ACAD_REACTORS
330
4A3A5
102
}
330
4A3A5
100
AcDbScale
 70
     0
300
1:10
140
1.0
141
10.0
290
     0
  0
SCALE
  5
4A3AC
102
{ACAD_REACTORS
330
4A3A5
102
}
330
4A3A5
100
AcDbScale
 70
     0
300
1:16
140
1.0
141
16.0
290
     0
  0
SCALE
  5
4A3AD
102
{ACAD_REACTORS
330
4A3A5
102
}
330
4A3A5
100
AcDbScale
 70
     0
300
1:20
140
1.0
141
20.0
290
     0
  0
SCALE
  5
4A3AE
102
{ACAD_REACTORS
330
4A3A5
102
}
330
4A3A5
100
AcDbScale
 70
     0
300
1:30
140
1.0
141
30.0
290
     0
  0
SCALE
  5
4A3AF
102
{ACAD_REACTORS
330
4A3A5
102
}
330
4A3A5
100
AcDbScale
 70
     0
300
1:40
140
1.0
141
40.0
290
     0
  0
SCALE
  5
4A3B0
102
{ACAD_REACTORS
330
4A3A5
102
}
330
4A3A5
100
AcDbScale
 70
     0
300
1:50
140
1.0
141
50.0
290
     0
  0
SCALE
  5
4A3B1
102
{ACAD_REACTORS
330
4A3A5
102
}
330
4A3A5
100
AcDbScale
 70
     0
300
1:100
140
1.0
141
100.0
290
     0
  0
SCALE
  5
4A3B2
102
{ACAD_REACTORS
330
4A3A5
102
}
330
4A3A5
100
AcDbScale
 70
     0
300
2:1
140
2.0
141
1.0
290
     0
  0
SCALE
  5
4A3B3
102
{ACAD_REACTORS
330
4A3A5
102
}
330
4A3A5
100
AcDbScale
 70
     0
300
4:1
140
4.0
141
1.0
290
     0
  0
SCALE
  5
4A3B4
102
{ACAD_REACTORS
330
4A3A5
102
}
330
4A3A5
100
AcDbScale
 70
     0
300
8:1
140
8.0
141
1.0
290
     0
  0
SCALE
  5
4A3B5
102
{ACAD_REACTORS
330
4A3A5
102
}
330
4A3A5
100
AcDbScale
 70
     0
300
10:1
140
10.0
141
1.0
290
     0
  0
SCALE
  5
4A3B6
102
{ACAD_REACTORS
330
4A3A5
102
}
330
4A3A5
100
AcDbScale
 70
     0
300
100:1
140
100.0
141
1.0
290
     0
  0
ACDBSECTIONVIEWSTYLE
  5
4A3BA
102
{ACAD_XDICTIONARY
360
876D2
102
}
102
{ACAD_REACTORS
330
4A3B9
102
}
330
4A3B9
100
AcDbModelDocViewStyle
 70
     0
  3
Metric50
290
     0
100
AcDbSectionViewStyle
 70
     0
 71
     0
 90
      102
 71
     1
340
11
 40
5.0
340
0
340
0
 40
5.0
300
I, O, Q, S, X, Z
 40
10.0
 90
        0
 40
2.5
 90
        0
 71
     2
340
16
 90
       25
340
16
 90
       50
 40
5.0
 40
2.5
 40
5.0
 71
     3
340
11
 40
5.0
 90
        0
 40
15.0
 90
        1
300
%<\AcVar ViewSectionStartId>%-%<\AcVar ViewSectionEndId>% (%<\AcVar ViewScale \f "%sn">%)
 71
     4
300
ANSI31
 40
1.0
 90
        0
290
     0
290
     0
 90
        6
 40
0.0
 40
1.570796326794896
 40
0.2617993877991494
 40
1.308996938995747
 40
-0.2617993877991494
 40
1.832595714594044
  0
TABLESTYLE
  5
A2
102
{ACAD_XDICTIONARY
360
4CD9A
102
}
102
{ACAD_REACTORS
330
A1
102
}
330
A1
100
AcDbTableStyle
  3
Standard
 70
     0
 71
     0
 40
1.5
 41
1.5
280
     0
281
     0
  7
Standard
140
4.5
170
     2
 62
     0
 63
   257
283
     0
274
    -2
284
     1
 64
     0
275
    -2
285
     1
 65
     0
276
    -2
286
     1
 66
     0
277
    -2
287
     1
 67
     0
278
    -2
288
     1
 68
     0
279
    -2
289
     1
 69
     0
  7
Standard
140
6.0
170
     5
 62
     0
 63
   257
283
     0
274
    -2
284
     1
 64
     0
275
    -2
285
     1
 65
     0
276
    -2
286
     1
 66
     0
277
    -2
287
     1
 67
     0
278
    -2
288
     1
 68
     0
279
    -2
289
     1
 69
     0
  7
Standard
140
4.5
170
     5
 62
     0
 63
   257
283
     0
274
    -2
284
     1
 64
     0
275
    -2
285
     1
 65
     0
276
    -2
286
     1
 66
     0
277
    -2
287
     1
 67
     0
278
    -2
288
     1
 68
     0
279
    -2
289
     1
 69
     0
  0
VISUALSTYLE
  5
4A392
102
{ACAD_XDICTIONARY
360
876AC
102
}
102
{ACAD_REACTORS
330
4A38C
102
}
330
4A38C
100
AcDbVisualStyle
  2

 70
     4
 71
     0
 72
     2
 73
     0
 90
        0
 40
-0.6
 41
-30.0
 62
     5
 63
     7
 74
     1
 91
        4
 64
     7
 65
   257
 75
     1
175
     1
 42
1.0
 92
        0
 66
   257
 43
1.0
 76
     1
 77
     6
 78
     2
 67
     7
 79
     5
170
     0
171
     0
290
     0
174
     0
 93
        1
 44
0.0
173
     0
291
     0
 45
0.0
1001
ACAD
1000
AcDbSavedByObjectVersion
1070
     0
  0
VISUALSTYLE
  5
4A391
102
{ACAD_XDICTIONARY
360
876AA
102
}
102
{ACAD_REACTORS
330
4A38C
102
}
330
4A38C
100
AcDbVisualStyle
  2

 70
     7
 71
     1
 72
     0
 73
     1
 90
        0
 40
-0.6
 41
-30.0
 62
     5
 63
     7
 74
     0
 91
        4
 64
     7
 65
   257
 75
     1
175
     1
 42
1.0
 92
        8
 66
     7
 43
1.0
 76
     1
 77
     6
 78
     2
 67
     7
 79
     5
170
     0
171
     0
290
     0
174
     0
 93
        1
 44
0.0
173
     0
291
     1
 45
0.0
1001
ACAD
1000
AcDbSavedByObjectVersion
1070
     0
  0
VISUALSTYLE
  5
4A398
102
{ACAD_XDICTIONARY
360
876B8
102
}
102
{ACAD_REACTORS
330
4A38C
102
}
330
4A38C
100
AcDbVisualStyle
  2

 70
    12
 71
     2
 72
     2
 73
     0
 90
        0
 40
-0.6
 41
-30.0
 62
     5
 63
     7
 74
     1
 91
        4
 64
     7
 65
   257
 75
     1
175
     1
 42
1.0
 92
        8
 66
     7
 43
1.0
 76
     1
 77
     6
 78
     2
 67
     7
 79
     5
170
     0
171
     0
290
     0
174
     0
 93
        1
 44
50.0
173
     0
291
     1
 45
0.0
1001
ACAD
1000
AcDbSavedByObjectVersion
1070
     0
  0
VISUALSTYLE
  5
4A39C
102
{ACAD_XDICTIONARY
360
876C0
102
}
102
{ACAD_REACTORS
330
4A38C
102
}
330
4A38C
100
AcDbVisualStyle
  2

 70
    16
 71
     2
 72
     2
 73
     3
 90
        0
 40
-0.6
 41
-30.0
 62
     5
 63
     8
 74
     1
 91
        4
 64
     7
 65
   257
 75
     1
175
     1
 42
1.0
 92
        8
 66
     8
 43
1.0
 76
     1
 77
     6
 78
     2
 67
     7
 79
     5
170
     0
171
     0
290
     0
174
     0
 93
        1
 44
0.0
173
     0
291
     1
 45
0.0
1001
ACAD
1000
AcDbSavedByObjectVersion
1070
     0
  0
VISUALSTYLE
  5
4A395
102
{ACAD_XDICTIONARY
360
876B2
102
}
102
{ACAD_REACTORS
330
4A38C
102
}
330
4A38C
100
AcDbVisualStyle
  2

 70
     9
 71
     3
 72
     2
 73
     0
 90
        0
 40
-0.6
 41
-30.0
 62
     5
 63
     7
 74
     2
 91
        2
 64
     7
 65
   257
 75
     1
175
     1
 42
179.0
 92
        8
 66
     7
 43
1.0
 76
     1
 77
     6
 78
     2
 67
     7
 79
     3
170
     0
171
     0
290
     0
174
     0
 93
        1
 44
0.0
173
     0
291
     0
 45
0.0
1001
ACAD
1000
AcDbSavedByObjectVersion
1070
     0
  0
VISUALSTYLE
  5
4A397
102
{ACAD_XDICTIONARY
360
876B6
102
}
102
{ACAD_REACTORS
330
4A38C
102
}
330
4A38C
100
AcDbVisualStyle
  2

 70
    11
 71
     2
 72
     2
 73
     0
 90
        0
 40
-0.6
 41
-30.0
 62
     5
 63
     7
 74
     1
 91
        4
 64
     7
 65
   257
 75
     1
175
     1
 42
1.0
 92
        8
 66
     7
 43
1.0
 76
     1
 77
     6
 78
     2
 67
     7
 79
     5
170
     0
171
     0
290
     0
174
     0
 93
        1
 44
-50.0
173
     0
291
     1
 45
0.0
1001
ACAD
1000
AcDbSavedByObjectVersion
1070
     0
  0
VISUALSTYLE
  5
4A3A4
102
{ACAD_XDICTIONARY
360
876D0
102
}
102
{ACAD_REACTORS
330
4A38C
102
}
330
4A38C
100
AcDbVisualStyle
  2

 70
    22
 71
     2
 72
     2
 73
     0
 90
        0
 40
-0.6
 41
-30.0
 62
     5
 63
     7
 74
     1
 91
        4
 64
     7
 65
   257
 75
     1
175
     1
 42
1.0
 92
        8
 66
     7
 43
1.0
 76
     1
 77
     6
 78
     2
 67
     7
 79
     5
170
     0
171
     0
290
     0
174
     0
 93
        1
 44
0.0
173
     0
291
     1
 45
0.0
1001
ACAD
1000
AcDbSavedByObjectVersion
1070
     0
  0
VISUALSTYLE
  5
4A39B
102
{ACAD_XDICTIONARY
360
876BE
102
}
102
{ACAD_REACTORS
330
4A38C
102
}
330
4A38C
100
AcDbVisualStyle
  2

 70
    15
 71
     2
 72
     2
 73
     0
 90
        0
 40
-0.6
 41
-30.0
 62
     5
 63
     7
 74
     1
 91
        4
 64
     7
 65
   257
 75
     1
175
     1
 42
1.0
 92
        8
 66
     7
 43
1.0
 76
     1
 77
     6
 78
     2
 67
     7
 79
     5
170
     0
171
     0
290
     0
174
     0
 93
        1
 44
0.0
173
     0
291
     1
 45
0.0
1001
ACAD
1000
AcDbSavedByObjectVersion
1070
     0
  0
VISUALSTYLE
  5
4A38D
102
{ACAD_XDICTIONARY
360
876A2
102
}
102
{ACAD_REACTORS
330
4A38C
102
}
330
4A38C
100
AcDbVisualStyle
  2

 70
     0
 71
     2
 72
     1
 73
     1
 90
        2
 40
-0.6
 41
30.0
 62
     5
 63
     7
 74
     0
 91
        0
 64
     7
 65
   257
 75
     1
175
     1
 42
1.0
 92
        8
 66
     7
 43
1.0
 76
     1
 77
     6
 78
     2
 67
     7
 79
     5
170
     0
171
     0
290
     0
174
     0
 93
       13
 44
0.0
173
     0
291
     1
 45
0.0
1001
ACAD
1000
AcDbSavedByObjectVersion
1070
     0
  0
VISUALSTYLE
  5
4A38E
102
{ACAD_XDICTIONARY
360
876A4
102
}
102
{ACAD_REACTORS
330
4A38C
102
}
330
4A38C
100
AcDbVisualStyle
  2

 70
     1
 71
     2
 72
     1
 73
     1
 90
        2
 40
-0.6
 41
30.0
 62
     5
 63
     7
 74
     1
 91
        0
 64
     7
 65
   257
 75
     1
175
     1
 42
1.0
 92
        0
 66
   257
 43
1.0
 76
     1
 77
     6
 78
     2
 67
     7
 79
     5
170
     0
171
     0
290
     0
174
     0
 93
       13
 44
0.0
173
     0
291
     1
 45
0.0
1001
ACAD
1000
AcDbSavedByObjectVersion
1070
     0
  0
VISUALSTYLE
  5
4A38F
102
{ACAD_XDICTIONARY
360
876A6
102
}
102
{ACAD_REACTORS
330
4A38C
102
}
330
4A38C
100
AcDbVisualStyle
  2

 70
     2
 71
     2
 72
     2
 73
     1
 90
        2
 40
-0.6
 41
30.0
 62
     5
 63
     7
 74
     0
 91
        0
 64
     7
 65
   257
 75
     1
175
     1
 42
1.0
 92
        0
 66
     7
 43
1.0
 76
     1
 77
     6
 78
     2
 67
     7
 79
     5
170
     0
171
     0
290
     0
174
     0
 93
       13
 44
0.0
173
     0
291
     1
 45
0.0
1001
ACAD
1000
AcDbSavedByObjectVersion
1070
     0
  0
VISUALSTYLE
  5
4A390
102
{ACAD_XDICTIONARY
360
876A8
102
}
102
{ACAD_REACTORS
330
4A38C
102
}
330
4A38C
100
AcDbVisualStyle
  2

 70
     3
 71
     2
 72
     2
 73
     1
 90
        2
 40
-0.6
 41
30.0
 62
     5
 63
     7
 74
     1
 91
        0
 64
     7
 65
   257
 75
     1
175
     1
 42
1.0
 92
        0
 66
   257
 43
1.0
 76
     1
 77
     6
 78
     2
 67
     7
 79
     5
170
     0
171
     0
290
     0
174
     0
 93
       13
 44
0.0
173
     0
291
     1
 45
0.0
1001
ACAD
1000
AcDbSavedByObjectVersion
1070
     0
  0
VISUALSTYLE
  5
4A394
102
{ACAD_XDICTIONARY
360
876B0
102
}
102
{ACAD_REACTORS
330
4A38C
102
}
330
4A38C
100
AcDbVisualStyle
  2

 70
     6
 71
     1
 72
     2
 73
     2
 90
        0
 40
-0.6
 41
-30.0
 62
     5
 63
     7
 74
     2
 91
        2
 64
     7
 65
   257
 75
     2
175
     1
 42
40.0
 92
        0
 66
   257
 43
1.0
 76
     1
 77
     6
 78
     2
 67
     7
 79
     3
170
     0
171
     0
290
     0
174
     0
 93
        1
 44
0.0
173
     0
291
     0
 45
0.0
1001
ACAD
1000
AcDbSavedByObjectVersion
1070
     0
  0
VISUALSTYLE
  5
4A3A2
102
{ACAD_XDICTIONARY
360
876CC
102
}
102
{ACAD_REACTORS
330
4A38C
102
}
330
4A38C
100
AcDbVisualStyle
  2

 70
    20
 71
     2
 72
     2
 73
     0
 90
        0
 40
-0.6
 41
-30.0
 62
     5
 63
     7
 74
     1
 91
        4
 64
     7
 65
   257
 75
     1
175
     1
 42
1.0
 92
       10
 66
     7
 43
1.0
 76
     1
 77
     6
 78
     2
 67
     7
 79
     5
170
     0
171
     0
290
     0
174
     0
 93
        1
 44
0.0
173
     0
291
     1
 45
0.0
1001
ACAD
1000
AcDbSavedByObjectVersion
1070
     0
  0
VISUALSTYLE
  5
4A39A
102
{ACAD_XDICTIONARY
360
876BC
102
}
102
{ACAD_REACTORS
330
4A38C
102
}
330
4A38C
100
AcDbVisualStyle
  2

 70
    14
 71
     2
 72
     2
 73
     0
 90
        0
 40
-0.6
 41
-30.0
 62
     5
 63
     7
 74
     1
 91
        4
 64
     7
 65
   257
 75
     7
175
     7
 42
1.0
 92
        8
 66
     7
 43
1.0
 76
     1
 77
     6
 78
     2
 67
     7
 79
     5
170
     0
171
     0
290
     0
174
     0
 93
        1
 44
0.0
173
     0
291
     1
 45
0.0
1001
ACAD
1000
AcDbSavedByObjectVersion
1070
     0
  0
VISUALSTYLE
  5
4A3A3
102
{ACAD_XDICTIONARY
360
876CE
102
}
102
{ACAD_REACTORS
330
4A38C
102
}
330
4A38C
100
AcDbVisualStyle
  2

 70
    21
 71
     2
 72
     2
 73
     0
 90
        0
 40
-0.6
 41
-30.0
 62
     5
 63
     7
 74
     1
 91
        4
 64
     7
 65
   257
 75
     1
175
     1
 42
1.0
 92
        9
 66
     7
 43
1.0
 76
     1
 77
     6
 78
     2
 67
     7
 79
     5
170
     0
171
     0
290
     0
174
     0
 93
        1
 44
0.0
173
     0
291
     1
 45
0.0
1001
ACAD
1000
AcDbSavedByObjectVersion
1070
     0
  0
VISUALSTYLE
  5
4A396
102
{ACAD_XDICTIONARY
360
876B4
102
}
102
{ACAD_REACTORS
330
4A38C
102
}
330
4A38C
100
AcDbVisualStyle
  2

 70
     8
 71
     2
 72
     3
 73
     0
 90
        2
 40
-0.6
 41
30.0
 62
     5
 63
     7
 74
     0
 91
        0
 64
     7
 65
   257
 75
     1
175
     1
 42
1.0
 92
        8
 66
   257
 43
1.0
 76
     1
 77
     6
 78
     2
 67
     7
 79
     3
170
     0
171
     0
290
     0
174
     0
 93
       13
 44
0.0
173
     0
291
     0
 45
0.0
1001
ACAD
1000
AcDbSavedByObjectVersion
1070
     0
  0
VISUALSTYLE
  5
4A3A1
102
{ACAD_XDICTIONARY
360
876CA
102
}
102
{ACAD_REACTORS
330
4A38C
102
}
330
4A38C
100
AcDbVisualStyle
  2

 70
    27
 71
     2
 72
     2
 73
     1
 90
        2
 40
-0.6
 41
30.0
 62
     5
 63
     7
 74
     0
 91
        4
 64
     7
 65
   257
 75
     1
175
     1
 42
1.0
 92
        8
 66
   257
 43
1.0
 76
     1
 77
     6
 78
     2
 67
     8
 79
     3
170
     0
171
     0
290
     0
174
     0
 93
        5
 44
0.0
173
     0
291
     0
 45
0.0
1001
ACAD
1000
AcDbSavedByObjectVersion
1070
     0
  0
VISUALSTYLE
  5
4A3A0
102
{ACAD_XDICTIONARY
360
876C8
102
}
102
{ACAD_REACTORS
330
4A38C
102
}
330
4A38C
100
AcDbVisualStyle
  2

 70
    26
 71
     2
 72
     2
 73
     1
 90
        2
 40
-0.6
 41
30.0
 62
     5
 63
     7
 74
     1
 91
        2
 64
     7
 65
   257
 75
     2
175
     1
 42
1.0
 92
        8
 66
   257
 43
1.0
 76
     1
 77
     6
 78
     2
 67
     7
 79
     3
170
     0
171
     0
290
     0
174
     0
 93
        5
 44
0.0
173
     0
291
     0
 45
0.0
1001
ACAD
1000
AcDbSavedByObjectVersion
1070
     0
  0
VISUALSTYLE
  5
4A39D
102
{ACAD_XDICTIONARY
360
876C2
102
}
102
{ACAD_REACTORS
330
4A38C
102
}
330
4A38C
100
AcDbVisualStyle
  2

 70
    23
 71
     2
 72
     2
 73
     3
 90
        0
 40
-0.6
 41
-30.0
 62
     5
 63
     7
 74
     2
 91
        2
 64
     7
 65
     7
 75
     1
175
     1
 42
40.0
 92
        8
 66
     7
 43
1.0
 76
     1
 77
     6
 78
     2
 67
     7
 79
     3
170
     0
171
     0
290
     0
174
     0
 93
        1
 44
0.0
173
     0
291
     0
 45
0.0
1001
ACAD
1000
AcDbSavedByObjectVersion
1070
     0
  0
VISUALSTYLE
  5
4A39E
102
{ACAD_XDICTIONARY
360
876C4
102
}
102
{ACAD_REACTORS
330
4A38C
102
}
330
4A38C
100
AcDbVisualStyle
  2

 70
    24
 71
     1
 72
     2
 73
     2
 90
        0
 40
-0.6
 41
-30.0
 62
     5
 63
     7
 74
     2
 91
        2
 64
     7
 65
     7
 75
     1
175
     1
 42
40.0
 92
       11
 66
     7
 43
1.0
 76
     1
 77
     6
 78
     2
 67
     7
 79
     6
170
     0
171
     0
290
     0
174
     0
 93
        1
 44
0.0
173
     0
291
     0
 45
0.0
1001
ACAD
1000
AcDbSavedByObjectVersion
1070
     0
  0
VISUALSTYLE
  5
4A399
102
{ACAD_XDICTIONARY
360
876BA
102
}
102
{ACAD_REACTORS
330
4A38C
102
}
330
4A38C
100
AcDbVisualStyle
  2

 70
    13
 71
     2
 72
     2
 73
     0
 90
        0
 40
-0.6
 41
-30.0
 62
     5
 63
     7
 74
     1
 91
        4
 64
     7
 65
   257
 75
     1
175
     1
 42
1.0
 92
       12
 66
     7
 43
1.0
 76
     1
 77
     6
 78
     2
 67
     7
 79
     5
170
     0
171
     0
290
     0
174
     0
 93
        1
 44
0.0
173
     0
291
     1
 45
0.0
1001
ACAD
1000
AcDbSavedByObjectVersion
1070
     0
  0
VISUALSTYLE
  5
4A393
102
{ACAD_XDICTIONARY
360
876AE
102
}
102
{ACAD_REACTORS
330
4A38C
102
}
330
4A38C
100
AcDbVisualStyle
  2

 70
     5
 71
     0
 72
     2
 73
     0
 90
        0
 40
-0.6
 41
-30.0
 62
     5
 63
     7
 74
     1
 91
        4
 64
     7
 65
   257
 75
     1
175
     1
 42
1.0
 92
        0
 66
   257
 43
1.0
 76
     1
 77
     6
 78
     2
 67
     7
 79
     3
170
     0
171
     0
290
     0
174
     0
 93
        1
 44
0.0
173
     0
291
     0
 45
0.0
1001
ACAD
1000
AcDbSavedByObjectVersion
1070
     0
  0
VISUALSTYLE
  5
4A39F
102
{ACAD_XDICTIONARY
360
876C6
102
}
102
{ACAD_REACTORS
330
4A38C
102
}
330
4A38C
100
AcDbVisualStyle
  2

 70
    25
 71
     2
 72
     2
 73
     1
 90
        1
 40
0.5
 41
-30.0
 62
     5
 63
     7
 74
     1
 91
        0
 64
     7
 65
   257
 75
     1
175
     1
 42
1.0
 92
        8
 66
     7
 43
1.0
 76
     1
 77
     6
 78
     2
 67
     7
 79
     3
170
     0
171
     0
290
     0
174
     0
 93
       13
 44
0.0
173
     0
291
     0
 45
0.0
1001
ACAD
1000
AcDbSavedByObjectVersion
1070
     0
  0
XRECORD
  5
8B25E
102
{ACAD_REACTORS
330
8B25D
102
}
330
8B25D
100
AcDbXrecord
280
     1
340
85
  0
XRECORD
  5
8B25F
102
{ACAD_REACTORS
330
8B25D
102
}
330
8B25D
100
AcDbXrecord
280
     1
340
84
  0
DICTIONARYVAR
  5
8B14B
102
{ACAD_REACTORS
330
5E
102
}
330
5E
100
DictionaryVariables
280
     0
  1
1:1
  0
DICTIONARYVAR
  5
4A6CE
102
{ACAD_REACTORS
330
5E
102
}
330
5E
100
DictionaryVariables
280
     0
  1
STANDARD
  0
DICTIONARYVAR
  5
B8
102
{ACAD_REACTORS
330
5E
102
}
330
5E
100
DictionaryVariables
280
     0
  1
STANDARD
  0
DICTIONARYVAR
  5
4A6CF
102
{ACAD_REACTORS
330
5E
102
}
330
5E
100
DictionaryVariables
280
     0
  1
Metric50
  0
DICTIONARYVAR
  5
4A6D0
102
{ACAD_REACTORS
330
5E
102
}
330
5E
100
DictionaryVariables
280
     0
  1
Metric50
  0
DICTIONARYVAR
  5
5F
102
{ACAD_REACTORS
330
5E
102
}
330
5E
100
DictionaryVariables
280
     0
  1
2
  0
DICTIONARYVAR
  5
63
102
{ACAD_REACTORS
330
5E
102
}
330
5E
100
DictionaryVariables
280
     0
  1
1
  0
DICTIONARYVAR
  5
4A879
102
{ACAD_REACTORS
330
5E
102
}
330
5E
100
DictionaryVariables
280
     0
  1
0
  0
DICTIONARYVAR
  5
4A6D4
102
{ACAD_REACTORS
330
5E
102
}
330
5E
100
DictionaryVariables
280
     0
  1
1
  0
DICTIONARYVAR
  5
4A6D5
102
{ACAD_REACTORS
330
5E
102
}
330
5E
100
DictionaryVariables
280
     0
  1
15
  0
DICTIONARYVAR
  5
4A6D3
102
{ACAD_REACTORS
330
5E
102
}
330
5E
100
DictionaryVariables
280
     0
  1
0
  0
DICTIONARYVAR
  5
4A6D1
102
{ACAD_REACTORS
330
5E
102
}
330
5E
100
DictionaryVariables
280
     0
  1
0
  0
DICTIONARYVAR
  5
31CE
102
{ACAD_REACTORS
330
5E
102
}
330
5E
100
DictionaryVariables
280
     0
  1

  0
DICTIONARYVAR
  5
4A878
102
{ACAD_REACTORS
330
5E
102
}
330
5E
100
DictionaryVariables
280
     0
  1
127
  0
DICTIONARYVAR
  5
5A559
102
{ACAD_REACTORS
330
5E
102
}
330
5E
100
DictionaryVariables
280
     0
  1
2
  0
XRECORD
  5
349EA
102
{ACAD_REACTORS
330
349E9
102
}
330
349E9
100
AcDbXrecord
280
     1
330
0
330
0
330
0
330
0
330
0
330
0
330
0
330
0
330
0
330
0
330
0
330
0
330
0
330
0
330
0
330
0
330
0
330
0
330
0
330
0
330
0
330
0
330
0
330
0
330
0
330
0
330
0
330
0
330
0
330
0
330
0
330
0
330
0
330
0
330
0
330
0
330
0
330
0
330
0
330
0
330
0
330
0
330
0
330
0
330
0
330
0
330
0
330
0
330
0
330
0
330
0
330
0
330
0
330
0
330
0
330
0
330
0
330
0
330
0
330
0
330
0
330
0
330
0
330
0
330
0
330
0
330
0
330
0
330
0
330
0
330
0
330
0
330
0
330
0
330
0
330
0
330
0
330
0
330
0
330
0
330
0
330
0
330
0
330
0
330
0
330
0
330
0
330
0
330
0
330
0
330
0
330
0
330
0
330
0
330
0
330
0
330
0
330
0
330
0
330
0
330
0
330
0
330
0
330
0
330
0
330
0
330
0
330
0
330
0
330
0
  0
DICTIONARY
  5
876D4
330
4A3BC
100
AcDbDictionary
280
     1
281
     1
  3
ACAD_XREC_ROUNDTRIP
360
876D5
  0
DICTIONARY
  5
4A37D
330
4A37C
100
AcDbDictionary
280
     1
281
     1
  3
ACAD_XREC_ROUNDTRIP
360
8B266
  0
DICTIONARY
  5
4A375
330
4A374
100
AcDbDictionary
280
     1
281
     1
  3
ACAD_XREC_ROUNDTRIP
360
8B267
  0
DICTIONARY
  5
4A385
330
4A384
100
AcDbDictionary
280
     1
281
     1
  3
ACAD_XREC_ROUNDTRIP
360
8B268
  0
DICTIONARY
  5
87DC9
330
4A3B8
100
AcDbDictionary
280
     1
281
     1
  3
ACAD_XREC_ROUNDTRIP
360
8B269
  0
DICTIONARY
  5
876D2
330
4A3BA
100
AcDbDictionary
280
     1
281
     1
  3
ACAD_XREC_ROUNDTRIP
360
876D3
  0
DICTIONARY
  5
4CD9A
330
A2
100
AcDbDictionary
280
     1
281
     1
  3
ACAD_ROUNDTRIP_2008_TABLESTYLE_CELLSTYLEMAP
360
8B26B
  3
ACAD_XREC_ROUNDTRIP
360
8B26A
  0
DICTIONARY
  5
876AC
330
4A392
100
AcDbDictionary
280
     1
281
     1
  3
ACAD_XREC_ROUNDTRIP
360
8B26C
  0
DICTIONARY
  5
876AA
330
4A391
100
AcDbDictionary
280
     1
281
     1
  3
ACAD_XREC_ROUNDTRIP
360
8B26D
  0
DICTIONARY
  5
876B8
330
4A398
100
AcDbDictionary
280
     1
281
     1
  3
ACAD_XREC_ROUNDTRIP
360
8B26E
  0
DICTIONARY
  5
876C0
330
4A39C
100
AcDbDictionary
280
     1
281
     1
  3
ACAD_XREC_ROUNDTRIP
360
8B26F
  0
DICTIONARY
  5
876B2
330
4A395
100
AcDbDictionary
280
     1
281
     1
  3
ACAD_XREC_ROUNDTRIP
360
8B270
  0
DICTIONARY
  5
876B6
330
4A397
100
AcDbDictionary
280
     1
281
     1
  3
ACAD_XREC_ROUNDTRIP
360
8B271
  0
DICTIONARY
  5
876D0
330
4A3A4
100
AcDbDictionary
280
     1
281
     1
  3
ACAD_XREC_ROUNDTRIP
360
8B272
  0
DICTIONARY
  5
876BE
330
4A39B
100
AcDbDictionary
280
     1
281
     1
  3
ACAD_XREC_ROUNDTRIP
360
8B273
  0
DICTIONARY
  5
876A2
330
4A38D
100
AcDbDictionary
280
     1
281
     1
  3
ACAD_XREC_ROUNDTRIP
360
8B274
  0
DICTIONARY
  5
876A4
330
4A38E
100
AcDbDictionary
280
     1
281
     1
  3
ACAD_XREC_ROUNDTRIP
360
8B275
  0
DICTIONARY
  5
876A6
330
4A38F
100
AcDbDictionary
280
     1
281
     1
  3
ACAD_XREC_ROUNDTRIP
360
8B276
  0
DICTIONARY
  5
876A8
330
4A390
100
AcDbDictionary
280
     1
281
     1
  3
ACAD_XREC_ROUNDTRIP
360
8B277
  0
DICTIONARY
  5
876B0
330
4A394
100
AcDbDictionary
280
     1
281
     1
  3
ACAD_XREC_ROUNDTRIP
360
8B278
  0
DICTIONARY
  5
876CC
330
4A3A2
100
AcDbDictionary
280
     1
281
     1
  3
ACAD_XREC_ROUNDTRIP
360
8B279
  0
DICTIONARY
  5
876BC
330
4A39A
100
AcDbDictionary
280
     1
281
     1
  3
ACAD_XREC_ROUNDTRIP
360
8B27A
  0
DICTIONARY
  5
876CE
330
4A3A3
100
AcDbDictionary
280
     1
281
     1
  3
ACAD_XREC_ROUNDTRIP
360
8B27B
  0
DICTIONARY
  5
876B4
330
4A396
100
AcDbDictionary
280
     1
281
     1
  3
ACAD_XREC_ROUNDTRIP
360
8B27C
  0
DICTIONARY
  5
876CA
330
4A3A1
100
AcDbDictionary
280
     1
281
     1
  3
ACAD_XREC_ROUNDTRIP
360
8B27D
  0
DICTIONARY
  5
876C8
330
4A3A0
100
AcDbDictionary
280
     1
281
     1
  3
ACAD_XREC_ROUNDTRIP
360
8B27E
  0
DICTIONARY
  5
876C2
330
4A39D
100
AcDbDictionary
280
     1
281
     1
  3
ACAD_XREC_ROUNDTRIP
360
8B27F
  0
DICTIONARY
  5
876C4
330
4A39E
100
AcDbDictionary
280
     1
281
     1
  3
ACAD_XREC_ROUNDTRIP
360
8B280
  0
DICTIONARY
  5
876BA
330
4A399
100
AcDbDictionary
280
     1
281
     1
  3
ACAD_XREC_ROUNDTRIP
360
8B281
  0
DICTIONARY
  5
876AE
330
4A393
100
AcDbDictionary
280
     1
281
     1
  3
ACAD_XREC_ROUNDTRIP
360
8B282
  0
DICTIONARY
  5
876C6
330
4A39F
100
AcDbDictionary
280
     1
281
     1
  3
ACAD_XREC_ROUNDTRIP
360
8B283
  0
XRECORD
  5
876D5
102
{ACAD_REACTORS
330
876D4
102
}
330
876D4
100
AcDbXrecord
280
     1
102
DISPLAYNAME
  1
Metric50
102
FLAGS
 90
        0
  0
XRECORD
  5
8B266
102
{ACAD_REACTORS
330
4A37D
102
}
330
4A37D
100
AcDbXrecord
280
     1
102
MATERIAL
148
0.0
149
0.0
149
0.0
 93
        0
 94
      127
282
     0
 72
     0
 77
     0
171
     0
175
     0
179
     0
273
     0
  0
XRECORD
  5
8B267
102
{ACAD_REACTORS
330
4A375
102
}
330
4A375
100
AcDbXrecord
280
     1
102
MATERIAL
148
0.0
149
0.0
149
0.0
 93
        0
 94
      127
282
     0
 72
     0
 77
     0
171
     0
175
     0
179
     0
273
     0
  0
XRECORD
  5
8B268
102
{ACAD_REACTORS
330
4A385
102
}
330
4A385
100
AcDbXrecord
280
     1
102
MATERIAL
148
0.0
149
0.0
149
0.0
 93
        0
 94
      127
282
     0
 72
     0
 77
     0
171
     0
175
     0
179
     0
273
     0
  0
XRECORD
  5
8B269
102
{ACAD_REACTORS
330
87DC9
102
}
330
87DC9
100
AcDbXrecord
280
     1
102
ACAD_ROUNDTRIP_2010_MLEADER_STYLE
  0
XRECORD
  5
876D3
102
{ACAD_REACTORS
330
876D2
102
}
330
876D2
100
AcDbXrecord
280
     1
102
DISPLAYNAME
  1
Metric50
102
FLAGS
 90
        0
  0
CELLSTYLEMAP
  5
8B26B
102
{ACAD_REACTORS
330
4CD9A
102
}
330
4CD9A
100
AcDbCellStyleMap
 90
        3
300
CELLSTYLE
  1
TABLEFORMAT_BEGIN
 90
        5
170
     1
 91
        0
 92
    32768
 62
   257
 93
        1
300
CONTENTFORMAT
  1
CONTENTFORMAT_BEGIN
 90
        0
 91
        0
 92
        4
 93
        0
300

 40
0.0
140
1.0
 94
        5
 62
     0
340
11
144
6.0
309
CONTENTFORMAT_END
171
     1
301
MARGIN
  1
CELLMARGIN_BEGIN
 40
1.5
 40
1.5
 40
1.5
 40
1.5
 40
0.18
 40
0.18
309
CELLMARGIN_END
 94
        6
 95
        1
302
GRIDFORMAT
  1
GRIDFORMAT_BEGIN
 90
        0
 91
        1
 62
     0
 92
       -2
340
0
 93
        0
 40
0.045
309
GRIDFORMAT_END
 95
        2
302
GRIDFORMAT
  1
GRIDFORMAT_BEGIN
 90
        0
 91
        1
 62
     0
 92
       -2
340
0
 93
        0
 40
0.045
309
GRIDFORMAT_END
 95
        4
302
GRIDFORMAT
  1
GRIDFORMAT_BEGIN
 90
        0
 91
        1
 62
     0
 92
       -2
340
0
 93
        0
 40
0.045
309
GRIDFORMAT_END
 95
        8
302
GRIDFORMAT
  1
GRIDFORMAT_BEGIN
 90
        0
 91
        1
 62
     0
 92
       -2
340
0
 93
        0
 40
0.045
309
GRIDFORMAT_END
 95
       16
302
GRIDFORMAT
  1
GRIDFORMAT_BEGIN
 90
        0
 91
        1
 62
     0
 92
       -2
340
0
 93
        0
 40
0.045
309
GRIDFORMAT_END
 95
       32
302
GRIDFORMAT
  1
GRIDFORMAT_BEGIN
 90
        0
 91
        1
 62
     0
 92
       -2
340
0
 93
        0
 40
0.045
309
GRIDFORMAT_END
309
TABLEFORMAT_END
  1
CELLSTYLE_BEGIN
 90
        1
 91
        1
300
_TITLE
309
CELLSTYLE_END
300
CELLSTYLE
  1
TABLEFORMAT_BEGIN
 90
        5
170
     1
 91
        0
 92
        0
 62
   257
 93
        1
300
CONTENTFORMAT
  1
CONTENTFORMAT_BEGIN
 90
        0
 91
        0
 92
        4
 93
        0
300

 40
0.0
140
1.0
 94
        5
 62
     0
340
11
144
4.5
309
CONTENTFORMAT_END
171
     1
301
MARGIN
  1
CELLMARGIN_BEGIN
 40
1.5
 40
1.5
 40
1.5
 40
1.5
 40
0.18
 40
0.18
309
CELLMARGIN_END
 94
        6
 95
        1
302
GRIDFORMAT
  1
GRIDFORMAT_BEGIN
 90
        0
 91
        1
 62
     0
 92
       -2
340
0
 93
        0
 40
0.045
309
GRIDFORMAT_END
 95
        2
302
GRIDFORMAT
  1
GRIDFORMAT_BEGIN
 90
        0
 91
        1
 62
     0
 92
       -2
340
0
 93
        0
 40
0.045
309
GRIDFORMAT_END
 95
        4
302
GRIDFORMAT
  1
GRIDFORMAT_BEGIN
 90
        0
 91
        1
 62
     0
 92
       -2
340
0
 93
        0
 40
0.045
309
GRIDFORMAT_END
 95
        8
302
GRIDFORMAT
  1
GRIDFORMAT_BEGIN
 90
        0
 91
        1
 62
     0
 92
       -2
340
0
 93
        0
 40
0.045
309
GRIDFORMAT_END
 95
       16
302
GRIDFORMAT
  1
GRIDFORMAT_BEGIN
 90
        0
 91
        1
 62
     0
 92
       -2
340
0
 93
        0
 40
0.045
309
GRIDFORMAT_END
 95
       32
302
GRIDFORMAT
  1
GRIDFORMAT_BEGIN
 90
        0
 91
        1
 62
     0
 92
       -2
340
0
 93
        0
 40
0.045
309
GRIDFORMAT_END
309
TABLEFORMAT_END
  1
CELLSTYLE_BEGIN
 90
        2
 91
        1
300
_HEADER
309
CELLSTYLE_END
300
CELLSTYLE
  1
TABLEFORMAT_BEGIN
 90
        5
170
     1
 91
        0
 92
        0
 62
   257
 93
        1
300
CONTENTFORMAT
  1
CONTENTFORMAT_BEGIN
 90
        0
 91
        0
 92
        4
 93
        0
300

 40
0.0
140
1.0
 94
        2
 62
     0
340
11
144
4.5
309
CONTENTFORMAT_END
171
     1
301
MARGIN
  1
CELLMARGIN_BEGIN
 40
1.5
 40
1.5
 40
1.5
 40
1.5
 40
0.18
 40
0.18
309
CELLMARGIN_END
 94
        6
 95
        1
302
GRIDFORMAT
  1
GRIDFORMAT_BEGIN
 90
        0
 91
        1
 62
     0
 92
       -2
340
0
 93
        0
 40
0.045
309
GRIDFORMAT_END
 95
        2
302
GRIDFORMAT
  1
GRIDFORMAT_BEGIN
 90
        0
 91
        1
 62
     0
 92
       -2
340
0
 93
        0
 40
0.045
309
GRIDFORMAT_END
 95
        4
302
GRIDFORMAT
  1
GRIDFORMAT_BEGIN
 90
        0
 91
        1
 62
     0
 92
       -2
340
0
 93
        0
 40
0.045
309
GRIDFORMAT_END
 95
        8
302
GRIDFORMAT
  1
GRIDFORMAT_BEGIN
 90
        0
 91
        1
 62
     0
 92
       -2
340
0
 93
        0
 40
0.045
309
GRIDFORMAT_END
 95
       16
302
GRIDFORMAT
  1
GRIDFORMAT_BEGIN
 90
        0
 91
        1
 62
     0
 92
       -2
340
0
 93
        0
 40
0.045
309
GRIDFORMAT_END
 95
       32
302
GRIDFORMAT
  1
GRIDFORMAT_BEGIN
 90
        0
 91
        1
 62
     0
 92
       -2
340
0
 93
        0
 40
0.045
309
GRIDFORMAT_END
309
TABLEFORMAT_END
  1
CELLSTYLE_BEGIN
 90
        3
 91
        2
300
_DATA
309
CELLSTYLE_END
  0
XRECORD
  5
8B26A
102
{ACAD_REACTORS
330
4CD9A
102
}
330
4CD9A
100
AcDbXrecord
280
     1
102
ACAD_ROUNDTRIP_PRE2007_TABLESTYLE
 90
        4
 91
        0
  1

 92
        4
 93
        0
  2

 94
        4
 95
        0
  3

  0
XRECORD
  5
8B26C
102
{ACAD_REACTORS
330
876AC
102
}
330
876AC
100
AcDbXrecord
280
     1
102
RTVSPropertyOp0
 70
     1
102
RTVSPropertyOp1
 70
     1
102
RTVSPropertyOp2
 70
     1
102
RTVSPropertyOp3
 70
     1
102
RTVSPropertyOp4
 70
     1
102
RTVSPropertyOp5
 70
     1
102
RTVSPropertyOp6
 70
     1
102
RTVSPropertyOp7
 70
     1
102
RTVSPropertyOp8
 70
     1
102
RTVSPropertyOp9
 70
     1
102
RTVSPropertyOp10
 70
     1
102
RTVSPropertyOp11
 70
     1
102
RTVSPropertyOp12
 70
     1
102
RTVSPropertyOp13
 70
     1
102
RTVSPropertyOp14
 70
     1
102
RTVSPropertyOp15
 70
     1
102
RTVSPropertyOp16
 70
     1
102
RTVSPropertyOp17
 70
     1
102
RTVSPropertyOp18
 70
     1
102
RTVSPropertyOp19
 70
     1
102
RTVSPropertyOp20
 70
     1
102
RTVSPropertyOp21
 70
     1
102
RTVSPropertyOp22
 70
     1
102
RTVSPropertyOp23
 70
     1
102
RTVSPropertyOp24
 70
     1
102
RTVSPropertyOp25
 70
     1
102
RTVSPropertyOp26
 70
     1
102
RTVSPropertyOp27
 70
     1
102
RTVSPropertyOp28
 70
     1
102
RTVSPropertyOp29
 70
     1
102
RTVSPropertyOp30
 70
     1
102
RTVSPropertyOp31
 70
     1
102
RTVSPropertyOp32
 70
     1
102
RTVSPropertyOp33
 70
     1
102
RTVSPropertyOp34
 70
     1
102
RTVSPropertyOp35
 70
     1
102
RTVSPropertyOp36
 70
     1
102
RTVSPropertyOp37
 70
     1
102
RTVSPropertyOp38
 70
     1
102
RTVSPropertyOp39
 70
     1
102
RTVSPropertyOp40
 70
     1
102
RTVSPropertyOp41
 70
     1
102
RTVSPropertyOp42
 70
     1
102
RTVSPropertyOp43
 70
     1
102
RTVSPropertyOp44
 70
     1
102
RTVSPropertyOp45
 70
     1
102
RTVSPropertyOp46
 70
     1
102
RTVSPropertyOp47
 70
     1
102
RTVSPropertyOp48
 70
     1
102
RTVSPropertyOp49
 70
     1
102
RTVSPropertyOp50
 70
     1
102
RTVSPropertyOp51
 70
     0
102
RTVSPropertyOp52
 70
     0
102
RTVSPropertyOp53
 70
     1
102
RTVSPropertyOp54
 70
     1
102
RTVSPropertyOp55
 70
     1
102
RTVSPropertyOp56
 70
     1
102
RTVSPropertyOp57
 70
     1
102
RTVSPost2010Prop28
280
     1
102
RTVSPost2010PropOp28
 70
     1
102
RTVSPost2010Prop29
280
     1
102
RTVSPost2010PropOp29
 70
     1
102
RTVSPost2010Prop30
280
     0
102
RTVSPost2010PropOp30
 70
     1
102
RTVSPost2010Prop31
280
     0
102
RTVSPost2010PropOp31
 70
     1
102
RTVSPost2010Prop32
280
     0
102
RTVSPost2010PropOp32
 70
     1
102
RTVSPost2010Prop33
280
     0
102
RTVSPost2010PropOp33
 70
     1
102
RTVSPost2010Prop34
280
     0
102
RTVSPost2010PropOp34
 70
     1
102
RTVSPost2010Prop35
280
     0
102
RTVSPost2010PropOp35
 70
     1
102
RTVSPost2010Prop36
280
     0
102
RTVSPost2010PropOp36
 70
     1
102
RTVSPost2010Prop37
 90
       50
102
RTVSPost2010PropOp37
 70
     1
102
RTVSPost2010Prop38
140
0.0
102
RTVSPost2010PropOp38
 70
     1
102
RTVSPost2010Prop39
140
1.0
102
RTVSPost2010PropOp39
 70
     1
102
RTVSPost2010Prop40
 90
        0
102
RTVSPost2010PropOp40
 70
     1
102
RTVSPost2010Prop41ColorIndex
 90
       18
102
RTVSPost2010Prop41ColorRGB
 90
        0
102
RTVSPost2010PropOp41
 70
     1
102
RTVSPost2010Prop42
 90
       50
102
RTVSPost2010PropOp42
 70
     1
102
RTVSPost2010Prop43
 90
        3
102
RTVSPost2010PropOp43
 70
     1
102
RTVSPost2010Prop44ColorIndex
 90
        5
102
RTVSPost2010Prop44ColorRGB
 90
      255
102
RTVSPost2010PropOp44
 70
     1
102
RTVSPost2010Prop45
280
     0
102
RTVSPost2010PropOp45
 70
     1
102
RTVSPost2010Prop46
 90
       50
102
RTVSPost2010PropOp46
 70
     1
102
RTVSPost2010Prop47
 90
       50
102
RTVSPost2010PropOp47
 70
     1
102
RTVSPost2010Prop48
 90
       50
102
RTVSPost2010PropOp48
 70
     1
102
RTVSPost2010Prop49
280
     0
102
RTVSPost2010PropOp49
 70
     1
102
RTVSPost2010Prop50
 90
       50
102
RTVSPost2010PropOp50
 70
     1
102
RTVSPost2010Prop51ColorIndex
 90
      256
102
RTVSPost2010Prop51ColorRGB
 90
-16777216
102
RTVSPost2010PropOp51
 70
     0
102
RTVSPost2010Prop52
140
1.0
102
RTVSPost2010PropOp52
 70
     0
102
RTVSPost2010Prop53
 90
        2
102
RTVSPost2010PropOp53
 70
     1
102
RTVSPost2010Prop54
  1
strokes_ogs.tif
102
RTVSPost2010PropOp54
 70
     1
102
RTVSPost2010Prop55
280
     0
102
RTVSPost2010PropOp55
 70
     1
102
RTVSPost2010Prop56
140
1.0
102
RTVSPost2010PropOp56
 70
     1
102
RTVSPost2010Prop57
140
1.0
102
RTVSPost2010PropOp57
 70
     1
  0
XRECORD
  5
8B26D
102
{ACAD_REACTORS
330
876AA
102
}
330
876AA
100
AcDbXrecord
280
     1
102
RTVSPropertyOp0
 70
     1
102
RTVSPropertyOp1
 70
     1
102
RTVSPropertyOp2
 70
     1
102
RTVSPropertyOp3
 70
     1
102
RTVSPropertyOp4
 70
     1
102
RTVSPropertyOp5
 70
     1
102
RTVSPropertyOp6
 70
     1
102
RTVSPropertyOp7
 70
     1
102
RTVSPropertyOp8
 70
     1
102
RTVSPropertyOp9
 70
     1
102
RTVSPropertyOp10
 70
     1
102
RTVSPropertyOp11
 70
     1
102
RTVSPropertyOp12
 70
     1
102
RTVSPropertyOp13
 70
     1
102
RTVSPropertyOp14
 70
     1
102
RTVSPropertyOp15
 70
     1
102
RTVSPropertyOp16
 70
     1
102
RTVSPropertyOp17
 70
     1
102
RTVSPropertyOp18
 70
     1
102
RTVSPropertyOp19
 70
     1
102
RTVSPropertyOp20
 70
     1
102
RTVSPropertyOp21
 70
     1
102
RTVSPropertyOp22
 70
     1
102
RTVSPropertyOp23
 70
     1
102
RTVSPropertyOp24
 70
     1
102
RTVSPropertyOp25
 70
     1
102
RTVSPropertyOp26
 70
     1
102
RTVSPropertyOp27
 70
     1
102
RTVSPropertyOp28
 70
     1
102
RTVSPropertyOp29
 70
     1
102
RTVSPropertyOp30
 70
     1
102
RTVSPropertyOp31
 70
     1
102
RTVSPropertyOp32
 70
     1
102
RTVSPropertyOp33
 70
     1
102
RTVSPropertyOp34
 70
     1
102
RTVSPropertyOp35
 70
     1
102
RTVSPropertyOp36
 70
     1
102
RTVSPropertyOp37
 70
     1
102
RTVSPropertyOp38
 70
     1
102
RTVSPropertyOp39
 70
     1
102
RTVSPropertyOp40
 70
     1
102
RTVSPropertyOp41
 70
     1
102
RTVSPropertyOp42
 70
     1
102
RTVSPropertyOp43
 70
     1
102
RTVSPropertyOp44
 70
     1
102
RTVSPropertyOp45
 70
     1
102
RTVSPropertyOp46
 70
     1
102
RTVSPropertyOp47
 70
     1
102
RTVSPropertyOp48
 70
     1
102
RTVSPropertyOp49
 70
     1
102
RTVSPropertyOp50
 70
     1
102
RTVSPropertyOp51
 70
     0
102
RTVSPropertyOp52
 70
     0
102
RTVSPropertyOp53
 70
     1
102
RTVSPropertyOp54
 70
     1
102
RTVSPropertyOp55
 70
     1
102
RTVSPropertyOp56
 70
     1
102
RTVSPropertyOp57
 70
     1
102
RTVSPost2010Prop28
280
     0
102
RTVSPost2010PropOp28
 70
     1
102
RTVSPost2010Prop29
280
     1
102
RTVSPost2010PropOp29
 70
     1
102
RTVSPost2010Prop30
280
     1
102
RTVSPost2010PropOp30
 70
     1
102
RTVSPost2010Prop31
280
     0
102
RTVSPost2010PropOp31
 70
     1
102
RTVSPost2010Prop32
280
     0
102
RTVSPost2010PropOp32
 70
     1
102
RTVSPost2010Prop33
280
     0
102
RTVSPost2010PropOp33
 70
     1
102
RTVSPost2010Prop34
280
     0
102
RTVSPost2010PropOp34
 70
     1
102
RTVSPost2010Prop35
280
     0
102
RTVSPost2010PropOp35
 70
     1
102
RTVSPost2010Prop36
280
     0
102
RTVSPost2010PropOp36
 70
     1
102
RTVSPost2010Prop37
 90
       50
102
RTVSPost2010PropOp37
 70
     1
102
RTVSPost2010Prop38
140
0.0
102
RTVSPost2010PropOp38
 70
     1
102
RTVSPost2010Prop39
140
1.0
102
RTVSPost2010PropOp39
 70
     1
102
RTVSPost2010Prop40
 90
        0
102
RTVSPost2010PropOp40
 70
     1
102
RTVSPost2010Prop41ColorIndex
 90
       18
102
RTVSPost2010Prop41ColorRGB
 90
        0
102
RTVSPost2010PropOp41
 70
     1
102
RTVSPost2010Prop42
 90
       50
102
RTVSPost2010PropOp42
 70
     1
102
RTVSPost2010Prop43
 90
        3
102
RTVSPost2010PropOp43
 70
     1
102
RTVSPost2010Prop44ColorIndex
 90
        5
102
RTVSPost2010Prop44ColorRGB
 90
      255
102
RTVSPost2010PropOp44
 70
     1
102
RTVSPost2010Prop45
280
     0
102
RTVSPost2010PropOp45
 70
     1
102
RTVSPost2010Prop46
 90
       50
102
RTVSPost2010PropOp46
 70
     1
102
RTVSPost2010Prop47
 90
       50
102
RTVSPost2010PropOp47
 70
     1
102
RTVSPost2010Prop48
 90
       50
102
RTVSPost2010PropOp48
 70
     1
102
RTVSPost2010Prop49
280
     0
102
RTVSPost2010PropOp49
 70
     1
102
RTVSPost2010Prop50
 90
       50
102
RTVSPost2010PropOp50
 70
     1
102
RTVSPost2010Prop51ColorIndex
 90
      256
102
RTVSPost2010Prop51ColorRGB
 90
-16777216
102
RTVSPost2010PropOp51
 70
     0
102
RTVSPost2010Prop52
140
1.0
102
RTVSPost2010PropOp52
 70
     0
102
RTVSPost2010Prop53
 90
        2
102
RTVSPost2010PropOp53
 70
     1
102
RTVSPost2010Prop54
  1
strokes_ogs.tif
102
RTVSPost2010PropOp54
 70
     1
102
RTVSPost2010Prop55
280
     0
102
RTVSPost2010PropOp55
 70
     1
102
RTVSPost2010Prop56
140
1.0
102
RTVSPost2010PropOp56
 70
     1
102
RTVSPost2010Prop57
140
1.0
102
RTVSPost2010PropOp57
 70
     1
  0
XRECORD
  5
8B26E
102
{ACAD_REACTORS
330
876B8
102
}
330
876B8
100
AcDbXrecord
280
     1
102
RTVSPropertyOp0
 70
     1
102
RTVSPropertyOp1
 70
     1
102
RTVSPropertyOp2
 70
     1
102
RTVSPropertyOp3
 70
     1
102
RTVSPropertyOp4
 70
     1
102
RTVSPropertyOp5
 70
     1
102
RTVSPropertyOp6
 70
     1
102
RTVSPropertyOp7
 70
     1
102
RTVSPropertyOp8
 70
     1
102
RTVSPropertyOp9
 70
     1
102
RTVSPropertyOp10
 70
     1
102
RTVSPropertyOp11
 70
     1
102
RTVSPropertyOp12
 70
     1
102
RTVSPropertyOp13
 70
     1
102
RTVSPropertyOp14
 70
     1
102
RTVSPropertyOp15
 70
     1
102
RTVSPropertyOp16
 70
     1
102
RTVSPropertyOp17
 70
     1
102
RTVSPropertyOp18
 70
     1
102
RTVSPropertyOp19
 70
     1
102
RTVSPropertyOp20
 70
     1
102
RTVSPropertyOp21
 70
     1
102
RTVSPropertyOp22
 70
     1
102
RTVSPropertyOp23
 70
     1
102
RTVSPropertyOp24
 70
     1
102
RTVSPropertyOp25
 70
     1
102
RTVSPropertyOp26
 70
     1
102
RTVSPropertyOp27
 70
     1
102
RTVSPropertyOp28
 70
     1
102
RTVSPropertyOp29
 70
     1
102
RTVSPropertyOp30
 70
     1
102
RTVSPropertyOp31
 70
     1
102
RTVSPropertyOp32
 70
     1
102
RTVSPropertyOp33
 70
     1
102
RTVSPropertyOp34
 70
     1
102
RTVSPropertyOp35
 70
     1
102
RTVSPropertyOp36
 70
     1
102
RTVSPropertyOp37
 70
     1
102
RTVSPropertyOp38
 70
     1
102
RTVSPropertyOp39
 70
     1
102
RTVSPropertyOp40
 70
     1
102
RTVSPropertyOp41
 70
     1
102
RTVSPropertyOp42
 70
     1
102
RTVSPropertyOp43
 70
     1
102
RTVSPropertyOp44
 70
     1
102
RTVSPropertyOp45
 70
     1
102
RTVSPropertyOp46
 70
     1
102
RTVSPropertyOp47
 70
     1
102
RTVSPropertyOp48
 70
     1
102
RTVSPropertyOp49
 70
     1
102
RTVSPropertyOp50
 70
     1
102
RTVSPropertyOp51
 70
     0
102
RTVSPropertyOp52
 70
     0
102
RTVSPropertyOp53
 70
     1
102
RTVSPropertyOp54
 70
     1
102
RTVSPropertyOp55
 70
     1
102
RTVSPropertyOp56
 70
     1
102
RTVSPropertyOp57
 70
     1
102
RTVSPost2010Prop28
280
     0
102
RTVSPost2010PropOp28
 70
     1
102
RTVSPost2010Prop29
280
     1
102
RTVSPost2010PropOp29
 70
     1
102
RTVSPost2010Prop30
280
     1
102
RTVSPost2010PropOp30
 70
     1
102
RTVSPost2010Prop31
280
     0
102
RTVSPost2010PropOp31
 70
     1
102
RTVSPost2010Prop32
280
     0
102
RTVSPost2010PropOp32
 70
     1
102
RTVSPost2010Prop33
280
     0
102
RTVSPost2010PropOp33
 70
     1
102
RTVSPost2010Prop34
280
     0
102
RTVSPost2010PropOp34
 70
     1
102
RTVSPost2010Prop35
280
     0
102
RTVSPost2010PropOp35
 70
     1
102
RTVSPost2010Prop36
280
     0
102
RTVSPost2010PropOp36
 70
     1
102
RTVSPost2010Prop37
 90
       50
102
RTVSPost2010PropOp37
 70
     1
102
RTVSPost2010Prop38
140
0.0
102
RTVSPost2010PropOp38
 70
     1
102
RTVSPost2010Prop39
140
1.0
102
RTVSPost2010PropOp39
 70
     1
102
RTVSPost2010Prop40
 90
        0
102
RTVSPost2010PropOp40
 70
     1
102
RTVSPost2010Prop41ColorIndex
 90
       18
102
RTVSPost2010Prop41ColorRGB
 90
        0
102
RTVSPost2010PropOp41
 70
     1
102
RTVSPost2010Prop42
 90
       50
102
RTVSPost2010PropOp42
 70
     1
102
RTVSPost2010Prop43
 90
        3
102
RTVSPost2010PropOp43
 70
     1
102
RTVSPost2010Prop44ColorIndex
 90
        5
102
RTVSPost2010Prop44ColorRGB
 90
      255
102
RTVSPost2010PropOp44
 70
     1
102
RTVSPost2010Prop45
280
     0
102
RTVSPost2010PropOp45
 70
     1
102
RTVSPost2010Prop46
 90
       50
102
RTVSPost2010PropOp46
 70
     1
102
RTVSPost2010Prop47
 90
       50
102
RTVSPost2010PropOp47
 70
     1
102
RTVSPost2010Prop48
 90
       50
102
RTVSPost2010PropOp48
 70
     1
102
RTVSPost2010Prop49
280
     0
102
RTVSPost2010PropOp49
 70
     1
102
RTVSPost2010Prop50
 90
       50
102
RTVSPost2010PropOp50
 70
     1
102
RTVSPost2010Prop51ColorIndex
 90
      256
102
RTVSPost2010Prop51ColorRGB
 90
-16777216
102
RTVSPost2010PropOp51
 70
     0
102
RTVSPost2010Prop52
140
1.0
102
RTVSPost2010PropOp52
 70
     0
102
RTVSPost2010Prop53
 90
        2
102
RTVSPost2010PropOp53
 70
     1
102
RTVSPost2010Prop54
  1
strokes_ogs.tif
102
RTVSPost2010PropOp54
 70
     1
102
RTVSPost2010Prop55
280
     0
102
RTVSPost2010PropOp55
 70
     1
102
RTVSPost2010Prop56
140
1.0
102
RTVSPost2010PropOp56
 70
     1
102
RTVSPost2010Prop57
140
1.0
102
RTVSPost2010PropOp57
 70
     1
  0
XRECORD
  5
8B26F
102
{ACAD_REACTORS
330
876C0
102
}
330
876C0
100
AcDbXrecord
280
     1
102
RTVSPropertyOp0
 70
     1
102
RTVSPropertyOp1
 70
     1
102
RTVSPropertyOp2
 70
     1
102
RTVSPropertyOp3
 70
     1
102
RTVSPropertyOp4
 70
     1
102
RTVSPropertyOp5
 70
     1
102
RTVSPropertyOp6
 70
     1
102
RTVSPropertyOp7
 70
     1
102
RTVSPropertyOp8
 70
     1
102
RTVSPropertyOp9
 70
     1
102
RTVSPropertyOp10
 70
     1
102
RTVSPropertyOp11
 70
     1
102
RTVSPropertyOp12
 70
     1
102
RTVSPropertyOp13
 70
     1
102
RTVSPropertyOp14
 70
     1
102
RTVSPropertyOp15
 70
     1
102
RTVSPropertyOp16
 70
     1
102
RTVSPropertyOp17
 70
     1
102
RTVSPropertyOp18
 70
     1
102
RTVSPropertyOp19
 70
     1
102
RTVSPropertyOp20
 70
     1
102
RTVSPropertyOp21
 70
     1
102
RTVSPropertyOp22
 70
     1
102
RTVSPropertyOp23
 70
     1
102
RTVSPropertyOp24
 70
     1
102
RTVSPropertyOp25
 70
     1
102
RTVSPropertyOp26
 70
     1
102
RTVSPropertyOp27
 70
     1
102
RTVSPropertyOp28
 70
     1
102
RTVSPropertyOp29
 70
     1
102
RTVSPropertyOp30
 70
     1
102
RTVSPropertyOp31
 70
     1
102
RTVSPropertyOp32
 70
     1
102
RTVSPropertyOp33
 70
     1
102
RTVSPropertyOp34
 70
     1
102
RTVSPropertyOp35
 70
     1
102
RTVSPropertyOp36
 70
     1
102
RTVSPropertyOp37
 70
     1
102
RTVSPropertyOp38
 70
     1
102
RTVSPropertyOp39
 70
     1
102
RTVSPropertyOp40
 70
     1
102
RTVSPropertyOp41
 70
     1
102
RTVSPropertyOp42
 70
     1
102
RTVSPropertyOp43
 70
     1
102
RTVSPropertyOp44
 70
     1
102
RTVSPropertyOp45
 70
     1
102
RTVSPropertyOp46
 70
     1
102
RTVSPropertyOp47
 70
     1
102
RTVSPropertyOp48
 70
     1
102
RTVSPropertyOp49
 70
     1
102
RTVSPropertyOp50
 70
     1
102
RTVSPropertyOp51
 70
     0
102
RTVSPropertyOp52
 70
     0
102
RTVSPropertyOp53
 70
     1
102
RTVSPropertyOp54
 70
     1
102
RTVSPropertyOp55
 70
     1
102
RTVSPropertyOp56
 70
     1
102
RTVSPropertyOp57
 70
     1
102
RTVSPost2010Prop28
280
     0
102
RTVSPost2010PropOp28
 70
     1
102
RTVSPost2010Prop29
280
     1
102
RTVSPost2010PropOp29
 70
     1
102
RTVSPost2010Prop30
280
     1
102
RTVSPost2010PropOp30
 70
     1
102
RTVSPost2010Prop31
280
     0
102
RTVSPost2010PropOp31
 70
     1
102
RTVSPost2010Prop32
280
     0
102
RTVSPost2010PropOp32
 70
     1
102
RTVSPost2010Prop33
280
     0
102
RTVSPost2010PropOp33
 70
     1
102
RTVSPost2010Prop34
280
     0
102
RTVSPost2010PropOp34
 70
     1
102
RTVSPost2010Prop35
280
     0
102
RTVSPost2010PropOp35
 70
     1
102
RTVSPost2010Prop36
280
     0
102
RTVSPost2010PropOp36
 70
     1
102
RTVSPost2010Prop37
 90
       50
102
RTVSPost2010PropOp37
 70
     1
102
RTVSPost2010Prop38
140
0.0
102
RTVSPost2010PropOp38
 70
     1
102
RTVSPost2010Prop39
140
1.0
102
RTVSPost2010PropOp39
 70
     1
102
RTVSPost2010Prop40
 90
        0
102
RTVSPost2010PropOp40
 70
     1
102
RTVSPost2010Prop41ColorIndex
 90
       18
102
RTVSPost2010Prop41ColorRGB
 90
        0
102
RTVSPost2010PropOp41
 70
     1
102
RTVSPost2010Prop42
 90
       50
102
RTVSPost2010PropOp42
 70
     1
102
RTVSPost2010Prop43
 90
        3
102
RTVSPost2010PropOp43
 70
     1
102
RTVSPost2010Prop44ColorIndex
 90
        5
102
RTVSPost2010Prop44ColorRGB
 90
      255
102
RTVSPost2010PropOp44
 70
     1
102
RTVSPost2010Prop45
280
     0
102
RTVSPost2010PropOp45
 70
     1
102
RTVSPost2010Prop46
 90
       50
102
RTVSPost2010PropOp46
 70
     1
102
RTVSPost2010Prop47
 90
       50
102
RTVSPost2010PropOp47
 70
     1
102
RTVSPost2010Prop48
 90
       50
102
RTVSPost2010PropOp48
 70
     1
102
RTVSPost2010Prop49
280
     0
102
RTVSPost2010PropOp49
 70
     1
102
RTVSPost2010Prop50
 90
       50
102
RTVSPost2010PropOp50
 70
     1
102
RTVSPost2010Prop51ColorIndex
 90
      256
102
RTVSPost2010Prop51ColorRGB
 90
-16777216
102
RTVSPost2010PropOp51
 70
     0
102
RTVSPost2010Prop52
140
1.0
102
RTVSPost2010PropOp52
 70
     0
102
RTVSPost2010Prop53
 90
        2
102
RTVSPost2010PropOp53
 70
     1
102
RTVSPost2010Prop54
  1
strokes_ogs.tif
102
RTVSPost2010PropOp54
 70
     1
102
RTVSPost2010Prop55
280
     0
102
RTVSPost2010PropOp55
 70
     1
102
RTVSPost2010Prop56
140
1.0
102
RTVSPost2010PropOp56
 70
     1
102
RTVSPost2010Prop57
140
1.0
102
RTVSPost2010PropOp57
 70
     1
  0
XRECORD
  5
8B270
102
{ACAD_REACTORS
330
876B2
102
}
330
876B2
100
AcDbXrecord
280
     1
102
RTVSPropertyOp0
 70
     1
102
RTVSPropertyOp1
 70
     1
102
RTVSPropertyOp2
 70
     1
102
RTVSPropertyOp3
 70
     1
102
RTVSPropertyOp4
 70
     1
102
RTVSPropertyOp5
 70
     1
102
RTVSPropertyOp6
 70
     1
102
RTVSPropertyOp7
 70
     1
102
RTVSPropertyOp8
 70
     1
102
RTVSPropertyOp9
 70
     1
102
RTVSPropertyOp10
 70
     1
102
RTVSPropertyOp11
 70
     1
102
RTVSPropertyOp12
 70
     1
102
RTVSPropertyOp13
 70
     1
102
RTVSPropertyOp14
 70
     1
102
RTVSPropertyOp15
 70
     1
102
RTVSPropertyOp16
 70
     1
102
RTVSPropertyOp17
 70
     1
102
RTVSPropertyOp18
 70
     1
102
RTVSPropertyOp19
 70
     1
102
RTVSPropertyOp20
 70
     1
102
RTVSPropertyOp21
 70
     1
102
RTVSPropertyOp22
 70
     1
102
RTVSPropertyOp23
 70
     1
102
RTVSPropertyOp24
 70
     1
102
RTVSPropertyOp25
 70
     1
102
RTVSPropertyOp26
 70
     1
102
RTVSPropertyOp27
 70
     1
102
RTVSPropertyOp28
 70
     1
102
RTVSPropertyOp29
 70
     1
102
RTVSPropertyOp30
 70
     1
102
RTVSPropertyOp31
 70
     1
102
RTVSPropertyOp32
 70
     1
102
RTVSPropertyOp33
 70
     1
102
RTVSPropertyOp34
 70
     1
102
RTVSPropertyOp35
 70
     1
102
RTVSPropertyOp36
 70
     1
102
RTVSPropertyOp37
 70
     1
102
RTVSPropertyOp38
 70
     1
102
RTVSPropertyOp39
 70
     1
102
RTVSPropertyOp40
 70
     1
102
RTVSPropertyOp41
 70
     1
102
RTVSPropertyOp42
 70
     1
102
RTVSPropertyOp43
 70
     1
102
RTVSPropertyOp44
 70
     1
102
RTVSPropertyOp45
 70
     1
102
RTVSPropertyOp46
 70
     1
102
RTVSPropertyOp47
 70
     1
102
RTVSPropertyOp48
 70
     1
102
RTVSPropertyOp49
 70
     1
102
RTVSPropertyOp50
 70
     1
102
RTVSPropertyOp51
 70
     0
102
RTVSPropertyOp52
 70
     0
102
RTVSPropertyOp53
 70
     1
102
RTVSPropertyOp54
 70
     1
102
RTVSPropertyOp55
 70
     1
102
RTVSPropertyOp56
 70
     1
102
RTVSPropertyOp57
 70
     1
102
RTVSPost2010Prop28
280
     0
102
RTVSPost2010PropOp28
 70
     1
102
RTVSPost2010Prop29
280
     1
102
RTVSPost2010PropOp29
 70
     1
102
RTVSPost2010Prop30
280
     1
102
RTVSPost2010PropOp30
 70
     1
102
RTVSPost2010Prop31
280
     0
102
RTVSPost2010PropOp31
 70
     1
102
RTVSPost2010Prop32
280
     0
102
RTVSPost2010PropOp32
 70
     1
102
RTVSPost2010Prop33
280
     0
102
RTVSPost2010PropOp33
 70
     1
102
RTVSPost2010Prop34
280
     0
102
RTVSPost2010PropOp34
 70
     1
102
RTVSPost2010Prop35
280
     0
102
RTVSPost2010PropOp35
 70
     1
102
RTVSPost2010Prop36
280
     0
102
RTVSPost2010PropOp36
 70
     1
102
RTVSPost2010Prop37
 90
       50
102
RTVSPost2010PropOp37
 70
     1
102
RTVSPost2010Prop38
140
0.0
102
RTVSPost2010PropOp38
 70
     1
102
RTVSPost2010Prop39
140
1.0
102
RTVSPost2010PropOp39
 70
     1
102
RTVSPost2010Prop40
 90
        0
102
RTVSPost2010PropOp40
 70
     1
102
RTVSPost2010Prop41ColorIndex
 90
       18
102
RTVSPost2010Prop41ColorRGB
 90
        0
102
RTVSPost2010PropOp41
 70
     1
102
RTVSPost2010Prop42
 90
       50
102
RTVSPost2010PropOp42
 70
     1
102
RTVSPost2010Prop43
 90
        3
102
RTVSPost2010PropOp43
 70
     1
102
RTVSPost2010Prop44ColorIndex
 90
        5
102
RTVSPost2010Prop44ColorRGB
 90
      255
102
RTVSPost2010PropOp44
 70
     1
102
RTVSPost2010Prop45
280
     0
102
RTVSPost2010PropOp45
 70
     1
102
RTVSPost2010Prop46
 90
       50
102
RTVSPost2010PropOp46
 70
     1
102
RTVSPost2010Prop47
 90
       50
102
RTVSPost2010PropOp47
 70
     1
102
RTVSPost2010Prop48
 90
       50
102
RTVSPost2010PropOp48
 70
     1
102
RTVSPost2010Prop49
280
     0
102
RTVSPost2010PropOp49
 70
     1
102
RTVSPost2010Prop50
 90
       50
102
RTVSPost2010PropOp50
 70
     1
102
RTVSPost2010Prop51ColorIndex
 90
      256
102
RTVSPost2010Prop51ColorRGB
 90
-16777216
102
RTVSPost2010PropOp51
 70
     0
102
RTVSPost2010Prop52
140
1.0
102
RTVSPost2010PropOp52
 70
     0
102
RTVSPost2010Prop53
 90
        2
102
RTVSPost2010PropOp53
 70
     1
102
RTVSPost2010Prop54
  1
strokes_ogs.tif
102
RTVSPost2010PropOp54
 70
     1
102
RTVSPost2010Prop55
280
     0
102
RTVSPost2010PropOp55
 70
     1
102
RTVSPost2010Prop56
140
1.0
102
RTVSPost2010PropOp56
 70
     1
102
RTVSPost2010Prop57
140
1.0
102
RTVSPost2010PropOp57
 70
     1
  0
XRECORD
  5
8B271
102
{ACAD_REACTORS
330
876B6
102
}
330
876B6
100
AcDbXrecord
280
     1
102
RTVSPropertyOp0
 70
     1
102
RTVSPropertyOp1
 70
     1
102
RTVSPropertyOp2
 70
     1
102
RTVSPropertyOp3
 70
     1
102
RTVSPropertyOp4
 70
     1
102
RTVSPropertyOp5
 70
     1
102
RTVSPropertyOp6
 70
     1
102
RTVSPropertyOp7
 70
     1
102
RTVSPropertyOp8
 70
     1
102
RTVSPropertyOp9
 70
     1
102
RTVSPropertyOp10
 70
     1
102
RTVSPropertyOp11
 70
     1
102
RTVSPropertyOp12
 70
     1
102
RTVSPropertyOp13
 70
     1
102
RTVSPropertyOp14
 70
     1
102
RTVSPropertyOp15
 70
     1
102
RTVSPropertyOp16
 70
     1
102
RTVSPropertyOp17
 70
     1
102
RTVSPropertyOp18
 70
     1
102
RTVSPropertyOp19
 70
     1
102
RTVSPropertyOp20
 70
     1
102
RTVSPropertyOp21
 70
     1
102
RTVSPropertyOp22
 70
     1
102
RTVSPropertyOp23
 70
     1
102
RTVSPropertyOp24
 70
     1
102
RTVSPropertyOp25
 70
     1
102
RTVSPropertyOp26
 70
     1
102
RTVSPropertyOp27
 70
     1
102
RTVSPropertyOp28
 70
     1
102
RTVSPropertyOp29
 70
     1
102
RTVSPropertyOp30
 70
     1
102
RTVSPropertyOp31
 70
     1
102
RTVSPropertyOp32
 70
     1
102
RTVSPropertyOp33
 70
     1
102
RTVSPropertyOp34
 70
     1
102
RTVSPropertyOp35
 70
     1
102
RTVSPropertyOp36
 70
     1
102
RTVSPropertyOp37
 70
     1
102
RTVSPropertyOp38
 70
     1
102
RTVSPropertyOp39
 70
     1
102
RTVSPropertyOp40
 70
     1
102
RTVSPropertyOp41
 70
     1
102
RTVSPropertyOp42
 70
     1
102
RTVSPropertyOp43
 70
     1
102
RTVSPropertyOp44
 70
     1
102
RTVSPropertyOp45
 70
     1
102
RTVSPropertyOp46
 70
     1
102
RTVSPropertyOp47
 70
     1
102
RTVSPropertyOp48
 70
     1
102
RTVSPropertyOp49
 70
     1
102
RTVSPropertyOp50
 70
     1
102
RTVSPropertyOp51
 70
     0
102
RTVSPropertyOp52
 70
     0
102
RTVSPropertyOp53
 70
     1
102
RTVSPropertyOp54
 70
     1
102
RTVSPropertyOp55
 70
     1
102
RTVSPropertyOp56
 70
     1
102
RTVSPropertyOp57
 70
     1
102
RTVSPost2010Prop28
280
     0
102
RTVSPost2010PropOp28
 70
     1
102
RTVSPost2010Prop29
280
     1
102
RTVSPost2010PropOp29
 70
     1
102
RTVSPost2010Prop30
280
     1
102
RTVSPost2010PropOp30
 70
     1
102
RTVSPost2010Prop31
280
     0
102
RTVSPost2010PropOp31
 70
     1
102
RTVSPost2010Prop32
280
     0
102
RTVSPost2010PropOp32
 70
     1
102
RTVSPost2010Prop33
280
     0
102
RTVSPost2010PropOp33
 70
     1
102
RTVSPost2010Prop34
280
     0
102
RTVSPost2010PropOp34
 70
     1
102
RTVSPost2010Prop35
280
     0
102
RTVSPost2010PropOp35
 70
     1
102
RTVSPost2010Prop36
280
     0
102
RTVSPost2010PropOp36
 70
     1
102
RTVSPost2010Prop37
 90
       50
102
RTVSPost2010PropOp37
 70
     1
102
RTVSPost2010Prop38
140
0.0
102
RTVSPost2010PropOp38
 70
     1
102
RTVSPost2010Prop39
140
1.0
102
RTVSPost2010PropOp39
 70
     1
102
RTVSPost2010Prop40
 90
        0
102
RTVSPost2010PropOp40
 70
     1
102
RTVSPost2010Prop41ColorIndex
 90
       18
102
RTVSPost2010Prop41ColorRGB
 90
        0
102
RTVSPost2010PropOp41
 70
     1
102
RTVSPost2010Prop42
 90
       50
102
RTVSPost2010PropOp42
 70
     1
102
RTVSPost2010Prop43
 90
        3
102
RTVSPost2010PropOp43
 70
     1
102
RTVSPost2010Prop44ColorIndex
 90
        5
102
RTVSPost2010Prop44ColorRGB
 90
      255
102
RTVSPost2010PropOp44
 70
     1
102
RTVSPost2010Prop45
280
     0
102
RTVSPost2010PropOp45
 70
     1
102
RTVSPost2010Prop46
 90
       50
102
RTVSPost2010PropOp46
 70
     1
102
RTVSPost2010Prop47
 90
       50
102
RTVSPost2010PropOp47
 70
     1
102
RTVSPost2010Prop48
 90
       50
102
RTVSPost2010PropOp48
 70
     1
102
RTVSPost2010Prop49
280
     0
102
RTVSPost2010PropOp49
 70
     1
102
RTVSPost2010Prop50
 90
       50
102
RTVSPost2010PropOp50
 70
     1
102
RTVSPost2010Prop51ColorIndex
 90
      256
102
RTVSPost2010Prop51ColorRGB
 90
-16777216
102
RTVSPost2010PropOp51
 70
     0
102
RTVSPost2010Prop52
140
1.0
102
RTVSPost2010PropOp52
 70
     0
102
RTVSPost2010Prop53
 90
        2
102
RTVSPost2010PropOp53
 70
     1
102
RTVSPost2010Prop54
  1
strokes_ogs.tif
102
RTVSPost2010PropOp54
 70
     1
102
RTVSPost2010Prop55
280
     0
102
RTVSPost2010PropOp55
 70
     1
102
RTVSPost2010Prop56
140
1.0
102
RTVSPost2010PropOp56
 70
     1
102
RTVSPost2010Prop57
140
1.0
102
RTVSPost2010PropOp57
 70
     1
  0
XRECORD
  5
8B272
102
{ACAD_REACTORS
330
876D0
102
}
330
876D0
100
AcDbXrecord
280
     1
102
RTVSPropertyOp0
 70
     0
102
RTVSPropertyOp1
 70
     0
102
RTVSPropertyOp2
 70
     0
102
RTVSPropertyOp3
 70
     0
102
RTVSPropertyOp4
 70
     0
102
RTVSPropertyOp5
 70
     0
102
RTVSPropertyOp6
 70
     0
102
RTVSPropertyOp7
 70
     0
102
RTVSPropertyOp8
 70
     0
102
RTVSPropertyOp9
 70
     0
102
RTVSPropertyOp10
 70
     0
102
RTVSPropertyOp11
 70
     0
102
RTVSPropertyOp12
 70
     0
102
RTVSPropertyOp13
 70
     0
102
RTVSPropertyOp14
 70
     2
102
RTVSPropertyOp15
 70
     0
102
RTVSPropertyOp16
 70
     0
102
RTVSPropertyOp17
 70
     0
102
RTVSPropertyOp18
 70
     0
102
RTVSPropertyOp19
 70
     0
102
RTVSPropertyOp20
 70
     0
102
RTVSPropertyOp21
 70
     0
102
RTVSPropertyOp22
 70
     0
102
RTVSPropertyOp23
 70
     0
102
RTVSPropertyOp24
 70
     0
102
RTVSPropertyOp25
 70
     0
102
RTVSPropertyOp26
 70
     0
102
RTVSPropertyOp27
 70
     0
102
RTVSPropertyOp28
 70
     1
102
RTVSPropertyOp29
 70
     1
102
RTVSPropertyOp30
 70
     1
102
RTVSPropertyOp31
 70
     1
102
RTVSPropertyOp32
 70
     1
102
RTVSPropertyOp33
 70
     1
102
RTVSPropertyOp34
 70
     1
102
RTVSPropertyOp35
 70
     1
102
RTVSPropertyOp36
 70
     1
102
RTVSPropertyOp37
 70
     0
102
RTVSPropertyOp38
 70
     0
102
RTVSPropertyOp39
 70
     0
102
RTVSPropertyOp40
 70
     0
102
RTVSPropertyOp41
 70
     0
102
RTVSPropertyOp42
 70
     0
102
RTVSPropertyOp43
 70
     0
102
RTVSPropertyOp44
 70
     0
102
RTVSPropertyOp45
 70
     1
102
RTVSPropertyOp46
 70
     0
102
RTVSPropertyOp47
 70
     0
102
RTVSPropertyOp48
 70
     0
102
RTVSPropertyOp49
 70
     1
102
RTVSPropertyOp50
 70
     0
102
RTVSPropertyOp51
 70
     0
102
RTVSPropertyOp52
 70
     0
102
RTVSPropertyOp53
 70
     0
102
RTVSPropertyOp54
 70
     0
102
RTVSPropertyOp55
 70
     1
102
RTVSPropertyOp56
 70
     0
102
RTVSPropertyOp57
 70
     0
102
RTVSPost2010Prop28
280
     0
102
RTVSPost2010PropOp28
 70
     1
102
RTVSPost2010Prop29
280
     1
102
RTVSPost2010PropOp29
 70
     1
102
RTVSPost2010Prop30
280
     1
102
RTVSPost2010PropOp30
 70
     1
102
RTVSPost2010Prop31
280
     0
102
RTVSPost2010PropOp31
 70
     1
102
RTVSPost2010Prop32
280
     0
102
RTVSPost2010PropOp32
 70
     1
102
RTVSPost2010Prop33
280
     0
102
RTVSPost2010PropOp33
 70
     1
102
RTVSPost2010Prop34
280
     0
102
RTVSPost2010PropOp34
 70
     1
102
RTVSPost2010Prop35
280
     0
102
RTVSPost2010PropOp35
 70
     1
102
RTVSPost2010Prop36
280
     0
102
RTVSPost2010PropOp36
 70
     1
102
RTVSPost2010Prop37
 90
       50
102
RTVSPost2010PropOp37
 70
     0
102
RTVSPost2010Prop38
140
0.0
102
RTVSPost2010PropOp38
 70
     0
102
RTVSPost2010Prop39
140
1.0
102
RTVSPost2010PropOp39
 70
     0
102
RTVSPost2010Prop40
 90
        0
102
RTVSPost2010PropOp40
 70
     0
102
RTVSPost2010Prop41ColorIndex
 90
       18
102
RTVSPost2010Prop41ColorRGB
 90
        0
102
RTVSPost2010PropOp41
 70
     0
102
RTVSPost2010Prop42
 90
       50
102
RTVSPost2010PropOp42
 70
     0
102
RTVSPost2010Prop43
 90
        3
102
RTVSPost2010PropOp43
 70
     0
102
RTVSPost2010Prop44ColorIndex
 90
        5
102
RTVSPost2010Prop44ColorRGB
 90
      255
102
RTVSPost2010PropOp44
 70
     0
102
RTVSPost2010Prop45
280
     0
102
RTVSPost2010PropOp45
 70
     1
102
RTVSPost2010Prop46
 90
       50
102
RTVSPost2010PropOp46
 70
     0
102
RTVSPost2010Prop47
 90
       50
102
RTVSPost2010PropOp47
 70
     0
102
RTVSPost2010Prop48
 90
       50
102
RTVSPost2010PropOp48
 70
     0
102
RTVSPost2010Prop49
280
     0
102
RTVSPost2010PropOp49
 70
     1
102
RTVSPost2010Prop50
 90
       50
102
RTVSPost2010PropOp50
 70
     0
102
RTVSPost2010Prop51ColorIndex
 90
      256
102
RTVSPost2010Prop51ColorRGB
 90
-16777216
102
RTVSPost2010PropOp51
 70
     0
102
RTVSPost2010Prop52
140
1.0
102
RTVSPost2010PropOp52
 70
     0
102
RTVSPost2010Prop53
 90
        2
102
RTVSPost2010PropOp53
 70
     0
102
RTVSPost2010Prop54
  1
strokes_ogs.tif
102
RTVSPost2010PropOp54
 70
     0
102
RTVSPost2010Prop55
280
     0
102
RTVSPost2010PropOp55
 70
     1
102
RTVSPost2010Prop56
140
1.0
102
RTVSPost2010PropOp56
 70
     0
102
RTVSPost2010Prop57
140
1.0
102
RTVSPost2010PropOp57
 70
     0
  0
XRECORD
  5
8B273
102
{ACAD_REACTORS
330
876BE
102
}
330
876BE
100
AcDbXrecord
280
     1
102
RTVSPropertyOp0
 70
     1
102
RTVSPropertyOp1
 70
     1
102
RTVSPropertyOp2
 70
     1
102
RTVSPropertyOp3
 70
     1
102
RTVSPropertyOp4
 70
     1
102
RTVSPropertyOp5
 70
     1
102
RTVSPropertyOp6
 70
     1
102
RTVSPropertyOp7
 70
     1
102
RTVSPropertyOp8
 70
     1
102
RTVSPropertyOp9
 70
     1
102
RTVSPropertyOp10
 70
     1
102
RTVSPropertyOp11
 70
     1
102
RTVSPropertyOp12
 70
     1
102
RTVSPropertyOp13
 70
     1
102
RTVSPropertyOp14
 70
     1
102
RTVSPropertyOp15
 70
     1
102
RTVSPropertyOp16
 70
     1
102
RTVSPropertyOp17
 70
     1
102
RTVSPropertyOp18
 70
     1
102
RTVSPropertyOp19
 70
     1
102
RTVSPropertyOp20
 70
     1
102
RTVSPropertyOp21
 70
     1
102
RTVSPropertyOp22
 70
     1
102
RTVSPropertyOp23
 70
     1
102
RTVSPropertyOp24
 70
     1
102
RTVSPropertyOp25
 70
     1
102
RTVSPropertyOp26
 70
     1
102
RTVSPropertyOp27
 70
     1
102
RTVSPropertyOp28
 70
     1
102
RTVSPropertyOp29
 70
     1
102
RTVSPropertyOp30
 70
     1
102
RTVSPropertyOp31
 70
     1
102
RTVSPropertyOp32
 70
     1
102
RTVSPropertyOp33
 70
     1
102
RTVSPropertyOp34
 70
     1
102
RTVSPropertyOp35
 70
     1
102
RTVSPropertyOp36
 70
     1
102
RTVSPropertyOp37
 70
     1
102
RTVSPropertyOp38
 70
     1
102
RTVSPropertyOp39
 70
     1
102
RTVSPropertyOp40
 70
     1
102
RTVSPropertyOp41
 70
     1
102
RTVSPropertyOp42
 70
     1
102
RTVSPropertyOp43
 70
     1
102
RTVSPropertyOp44
 70
     1
102
RTVSPropertyOp45
 70
     1
102
RTVSPropertyOp46
 70
     1
102
RTVSPropertyOp47
 70
     1
102
RTVSPropertyOp48
 70
     1
102
RTVSPropertyOp49
 70
     1
102
RTVSPropertyOp50
 70
     1
102
RTVSPropertyOp51
 70
     0
102
RTVSPropertyOp52
 70
     0
102
RTVSPropertyOp53
 70
     1
102
RTVSPropertyOp54
 70
     1
102
RTVSPropertyOp55
 70
     1
102
RTVSPropertyOp56
 70
     1
102
RTVSPropertyOp57
 70
     1
102
RTVSPost2010Prop28
280
     0
102
RTVSPost2010PropOp28
 70
     1
102
RTVSPost2010Prop29
280
     1
102
RTVSPost2010PropOp29
 70
     1
102
RTVSPost2010Prop30
280
     1
102
RTVSPost2010PropOp30
 70
     1
102
RTVSPost2010Prop31
280
     0
102
RTVSPost2010PropOp31
 70
     1
102
RTVSPost2010Prop32
280
     0
102
RTVSPost2010PropOp32
 70
     1
102
RTVSPost2010Prop33
280
     0
102
RTVSPost2010PropOp33
 70
     1
102
RTVSPost2010Prop34
280
     0
102
RTVSPost2010PropOp34
 70
     1
102
RTVSPost2010Prop35
280
     0
102
RTVSPost2010PropOp35
 70
     1
102
RTVSPost2010Prop36
280
     0
102
RTVSPost2010PropOp36
 70
     1
102
RTVSPost2010Prop37
 90
       50
102
RTVSPost2010PropOp37
 70
     1
102
RTVSPost2010Prop38
140
0.0
102
RTVSPost2010PropOp38
 70
     1
102
RTVSPost2010Prop39
140
1.0
102
RTVSPost2010PropOp39
 70
     1
102
RTVSPost2010Prop40
 90
        0
102
RTVSPost2010PropOp40
 70
     1
102
RTVSPost2010Prop41ColorIndex
 90
       18
102
RTVSPost2010Prop41ColorRGB
 90
        0
102
RTVSPost2010PropOp41
 70
     1
102
RTVSPost2010Prop42
 90
       50
102
RTVSPost2010PropOp42
 70
     1
102
RTVSPost2010Prop43
 90
        3
102
RTVSPost2010PropOp43
 70
     1
102
RTVSPost2010Prop44ColorIndex
 90
        5
102
RTVSPost2010Prop44ColorRGB
 90
      255
102
RTVSPost2010PropOp44
 70
     1
102
RTVSPost2010Prop45
280
     0
102
RTVSPost2010PropOp45
 70
     1
102
RTVSPost2010Prop46
 90
       50
102
RTVSPost2010PropOp46
 70
     1
102
RTVSPost2010Prop47
 90
       50
102
RTVSPost2010PropOp47
 70
     1
102
RTVSPost2010Prop48
 90
       50
102
RTVSPost2010PropOp48
 70
     1
102
RTVSPost2010Prop49
280
     0
102
RTVSPost2010PropOp49
 70
     1
102
RTVSPost2010Prop50
 90
       50
102
RTVSPost2010PropOp50
 70
     1
102
RTVSPost2010Prop51ColorIndex
 90
      256
102
RTVSPost2010Prop51ColorRGB
 90
-16777216
102
RTVSPost2010PropOp51
 70
     0
102
RTVSPost2010Prop52
140
1.0
102
RTVSPost2010PropOp52
 70
     0
102
RTVSPost2010Prop53
 90
        2
102
RTVSPost2010PropOp53
 70
     1
102
RTVSPost2010Prop54
  1
strokes_ogs.tif
102
RTVSPost2010PropOp54
 70
     1
102
RTVSPost2010Prop55
280
     0
102
RTVSPost2010PropOp55
 70
     1
102
RTVSPost2010Prop56
140
1.0
102
RTVSPost2010PropOp56
 70
     1
102
RTVSPost2010Prop57
140
1.0
102
RTVSPost2010PropOp57
 70
     1
  0
XRECORD
  5
8B274
102
{ACAD_REACTORS
330
876A2
102
}
330
876A2
100
AcDbXrecord
280
     1
102
RTVSPropertyOp0
 70
     1
102
RTVSPropertyOp1
 70
     1
102
RTVSPropertyOp2
 70
     1
102
RTVSPropertyOp3
 70
     1
102
RTVSPropertyOp4
 70
     1
102
RTVSPropertyOp5
 70
     1
102
RTVSPropertyOp6
 70
     1
102
RTVSPropertyOp7
 70
     1
102
RTVSPropertyOp8
 70
     1
102
RTVSPropertyOp9
 70
     1
102
RTVSPropertyOp10
 70
     1
102
RTVSPropertyOp11
 70
     1
102
RTVSPropertyOp12
 70
     1
102
RTVSPropertyOp13
 70
     1
102
RTVSPropertyOp14
 70
     1
102
RTVSPropertyOp15
 70
     1
102
RTVSPropertyOp16
 70
     1
102
RTVSPropertyOp17
 70
     1
102
RTVSPropertyOp18
 70
     1
102
RTVSPropertyOp19
 70
     1
102
RTVSPropertyOp20
 70
     1
102
RTVSPropertyOp21
 70
     1
102
RTVSPropertyOp22
 70
     1
102
RTVSPropertyOp23
 70
     1
102
RTVSPropertyOp24
 70
     1
102
RTVSPropertyOp25
 70
     1
102
RTVSPropertyOp26
 70
     1
102
RTVSPropertyOp27
 70
     1
102
RTVSPropertyOp28
 70
     1
102
RTVSPropertyOp29
 70
     1
102
RTVSPropertyOp30
 70
     1
102
RTVSPropertyOp31
 70
     1
102
RTVSPropertyOp32
 70
     1
102
RTVSPropertyOp33
 70
     1
102
RTVSPropertyOp34
 70
     1
102
RTVSPropertyOp35
 70
     1
102
RTVSPropertyOp36
 70
     1
102
RTVSPropertyOp37
 70
     1
102
RTVSPropertyOp38
 70
     1
102
RTVSPropertyOp39
 70
     1
102
RTVSPropertyOp40
 70
     1
102
RTVSPropertyOp41
 70
     1
102
RTVSPropertyOp42
 70
     1
102
RTVSPropertyOp43
 70
     1
102
RTVSPropertyOp44
 70
     1
102
RTVSPropertyOp45
 70
     1
102
RTVSPropertyOp46
 70
     1
102
RTVSPropertyOp47
 70
     1
102
RTVSPropertyOp48
 70
     1
102
RTVSPropertyOp49
 70
     1
102
RTVSPropertyOp50
 70
     1
102
RTVSPropertyOp51
 70
     0
102
RTVSPropertyOp52
 70
     0
102
RTVSPropertyOp53
 70
     1
102
RTVSPropertyOp54
 70
     1
102
RTVSPropertyOp55
 70
     1
102
RTVSPropertyOp56
 70
     1
102
RTVSPropertyOp57
 70
     1
102
RTVSPost2010Prop28
280
     0
102
RTVSPost2010PropOp28
 70
     1
102
RTVSPost2010Prop29
280
     1
102
RTVSPost2010PropOp29
 70
     1
102
RTVSPost2010Prop30
280
     1
102
RTVSPost2010PropOp30
 70
     1
102
RTVSPost2010Prop31
280
     0
102
RTVSPost2010PropOp31
 70
     1
102
RTVSPost2010Prop32
280
     0
102
RTVSPost2010PropOp32
 70
     1
102
RTVSPost2010Prop33
280
     0
102
RTVSPost2010PropOp33
 70
     1
102
RTVSPost2010Prop34
280
     0
102
RTVSPost2010PropOp34
 70
     1
102
RTVSPost2010Prop35
280
     0
102
RTVSPost2010PropOp35
 70
     1
102
RTVSPost2010Prop36
280
     0
102
RTVSPost2010PropOp36
 70
     1
102
RTVSPost2010Prop37
 90
       50
102
RTVSPost2010PropOp37
 70
     1
102
RTVSPost2010Prop38
140
0.0
102
RTVSPost2010PropOp38
 70
     1
102
RTVSPost2010Prop39
140
1.0
102
RTVSPost2010PropOp39
 70
     1
102
RTVSPost2010Prop40
 90
        0
102
RTVSPost2010PropOp40
 70
     1
102
RTVSPost2010Prop41ColorIndex
 90
       18
102
RTVSPost2010Prop41ColorRGB
 90
        0
102
RTVSPost2010PropOp41
 70
     1
102
RTVSPost2010Prop42
 90
       50
102
RTVSPost2010PropOp42
 70
     1
102
RTVSPost2010Prop43
 90
        3
102
RTVSPost2010PropOp43
 70
     1
102
RTVSPost2010Prop44ColorIndex
 90
        5
102
RTVSPost2010Prop44ColorRGB
 90
      255
102
RTVSPost2010PropOp44
 70
     1
102
RTVSPost2010Prop45
280
     0
102
RTVSPost2010PropOp45
 70
     1
102
RTVSPost2010Prop46
 90
       50
102
RTVSPost2010PropOp46
 70
     1
102
RTVSPost2010Prop47
 90
       50
102
RTVSPost2010PropOp47
 70
     1
102
RTVSPost2010Prop48
 90
       50
102
RTVSPost2010PropOp48
 70
     1
102
RTVSPost2010Prop49
280
     0
102
RTVSPost2010PropOp49
 70
     1
102
RTVSPost2010Prop50
 90
       50
102
RTVSPost2010PropOp50
 70
     1
102
RTVSPost2010Prop51ColorIndex
 90
      256
102
RTVSPost2010Prop51ColorRGB
 90
-16777216
102
RTVSPost2010PropOp51
 70
     0
102
RTVSPost2010Prop52
140
1.0
102
RTVSPost2010PropOp52
 70
     0
102
RTVSPost2010Prop53
 90
        2
102
RTVSPost2010PropOp53
 70
     1
102
RTVSPost2010Prop54
  1
strokes_ogs.tif
102
RTVSPost2010PropOp54
 70
     1
102
RTVSPost2010Prop55
280
     0
102
RTVSPost2010PropOp55
 70
     1
102
RTVSPost2010Prop56
140
1.0
102
RTVSPost2010PropOp56
 70
     1
102
RTVSPost2010Prop57
140
1.0
102
RTVSPost2010PropOp57
 70
     1
  0
XRECORD
  5
8B275
102
{ACAD_REACTORS
330
876A4
102
}
330
876A4
100
AcDbXrecord
280
     1
102
RTVSPropertyOp0
 70
     1
102
RTVSPropertyOp1
 70
     1
102
RTVSPropertyOp2
 70
     1
102
RTVSPropertyOp3
 70
     1
102
RTVSPropertyOp4
 70
     1
102
RTVSPropertyOp5
 70
     1
102
RTVSPropertyOp6
 70
     1
102
RTVSPropertyOp7
 70
     1
102
RTVSPropertyOp8
 70
     1
102
RTVSPropertyOp9
 70
     1
102
RTVSPropertyOp10
 70
     1
102
RTVSPropertyOp11
 70
     1
102
RTVSPropertyOp12
 70
     1
102
RTVSPropertyOp13
 70
     1
102
RTVSPropertyOp14
 70
     1
102
RTVSPropertyOp15
 70
     1
102
RTVSPropertyOp16
 70
     1
102
RTVSPropertyOp17
 70
     1
102
RTVSPropertyOp18
 70
     1
102
RTVSPropertyOp19
 70
     1
102
RTVSPropertyOp20
 70
     1
102
RTVSPropertyOp21
 70
     1
102
RTVSPropertyOp22
 70
     1
102
RTVSPropertyOp23
 70
     1
102
RTVSPropertyOp24
 70
     1
102
RTVSPropertyOp25
 70
     1
102
RTVSPropertyOp26
 70
     1
102
RTVSPropertyOp27
 70
     1
102
RTVSPropertyOp28
 70
     1
102
RTVSPropertyOp29
 70
     1
102
RTVSPropertyOp30
 70
     1
102
RTVSPropertyOp31
 70
     1
102
RTVSPropertyOp32
 70
     1
102
RTVSPropertyOp33
 70
     1
102
RTVSPropertyOp34
 70
     1
102
RTVSPropertyOp35
 70
     1
102
RTVSPropertyOp36
 70
     1
102
RTVSPropertyOp37
 70
     1
102
RTVSPropertyOp38
 70
     1
102
RTVSPropertyOp39
 70
     1
102
RTVSPropertyOp40
 70
     1
102
RTVSPropertyOp41
 70
     1
102
RTVSPropertyOp42
 70
     1
102
RTVSPropertyOp43
 70
     1
102
RTVSPropertyOp44
 70
     1
102
RTVSPropertyOp45
 70
     1
102
RTVSPropertyOp46
 70
     1
102
RTVSPropertyOp47
 70
     1
102
RTVSPropertyOp48
 70
     1
102
RTVSPropertyOp49
 70
     1
102
RTVSPropertyOp50
 70
     1
102
RTVSPropertyOp51
 70
     0
102
RTVSPropertyOp52
 70
     0
102
RTVSPropertyOp53
 70
     1
102
RTVSPropertyOp54
 70
     1
102
RTVSPropertyOp55
 70
     1
102
RTVSPropertyOp56
 70
     1
102
RTVSPropertyOp57
 70
     1
102
RTVSPost2010Prop28
280
     0
102
RTVSPost2010PropOp28
 70
     1
102
RTVSPost2010Prop29
280
     1
102
RTVSPost2010PropOp29
 70
     1
102
RTVSPost2010Prop30
280
     1
102
RTVSPost2010PropOp30
 70
     1
102
RTVSPost2010Prop31
280
     0
102
RTVSPost2010PropOp31
 70
     1
102
RTVSPost2010Prop32
280
     0
102
RTVSPost2010PropOp32
 70
     1
102
RTVSPost2010Prop33
280
     0
102
RTVSPost2010PropOp33
 70
     1
102
RTVSPost2010Prop34
280
     0
102
RTVSPost2010PropOp34
 70
     1
102
RTVSPost2010Prop35
280
     0
102
RTVSPost2010PropOp35
 70
     1
102
RTVSPost2010Prop36
280
     0
102
RTVSPost2010PropOp36
 70
     1
102
RTVSPost2010Prop37
 90
       50
102
RTVSPost2010PropOp37
 70
     1
102
RTVSPost2010Prop38
140
0.0
102
RTVSPost2010PropOp38
 70
     1
102
RTVSPost2010Prop39
140
1.0
102
RTVSPost2010PropOp39
 70
     1
102
RTVSPost2010Prop40
 90
        0
102
RTVSPost2010PropOp40
 70
     1
102
RTVSPost2010Prop41ColorIndex
 90
       18
102
RTVSPost2010Prop41ColorRGB
 90
        0
102
RTVSPost2010PropOp41
 70
     1
102
RTVSPost2010Prop42
 90
       50
102
RTVSPost2010PropOp42
 70
     1
102
RTVSPost2010Prop43
 90
        3
102
RTVSPost2010PropOp43
 70
     1
102
RTVSPost2010Prop44ColorIndex
 90
        5
102
RTVSPost2010Prop44ColorRGB
 90
      255
102
RTVSPost2010PropOp44
 70
     1
102
RTVSPost2010Prop45
280
     0
102
RTVSPost2010PropOp45
 70
     1
102
RTVSPost2010Prop46
 90
       50
102
RTVSPost2010PropOp46
 70
     1
102
RTVSPost2010Prop47
 90
       50
102
RTVSPost2010PropOp47
 70
     1
102
RTVSPost2010Prop48
 90
       50
102
RTVSPost2010PropOp48
 70
     1
102
RTVSPost2010Prop49
280
     0
102
RTVSPost2010PropOp49
 70
     1
102
RTVSPost2010Prop50
 90
       50
102
RTVSPost2010PropOp50
 70
     1
102
RTVSPost2010Prop51ColorIndex
 90
      256
102
RTVSPost2010Prop51ColorRGB
 90
-16777216
102
RTVSPost2010PropOp51
 70
     0
102
RTVSPost2010Prop52
140
1.0
102
RTVSPost2010PropOp52
 70
     0
102
RTVSPost2010Prop53
 90
        2
102
RTVSPost2010PropOp53
 70
     1
102
RTVSPost2010Prop54
  1
strokes_ogs.tif
102
RTVSPost2010PropOp54
 70
     1
102
RTVSPost2010Prop55
280
     0
102
RTVSPost2010PropOp55
 70
     1
102
RTVSPost2010Prop56
140
1.0
102
RTVSPost2010PropOp56
 70
     1
102
RTVSPost2010Prop57
140
1.0
102
RTVSPost2010PropOp57
 70
     1
  0
XRECORD
  5
8B276
102
{ACAD_REACTORS
330
876A6
102
}
330
876A6
100
AcDbXrecord
280
     1
102
RTVSPropertyOp0
 70
     1
102
RTVSPropertyOp1
 70
     1
102
RTVSPropertyOp2
 70
     1
102
RTVSPropertyOp3
 70
     1
102
RTVSPropertyOp4
 70
     1
102
RTVSPropertyOp5
 70
     1
102
RTVSPropertyOp6
 70
     1
102
RTVSPropertyOp7
 70
     1
102
RTVSPropertyOp8
 70
     1
102
RTVSPropertyOp9
 70
     1
102
RTVSPropertyOp10
 70
     1
102
RTVSPropertyOp11
 70
     1
102
RTVSPropertyOp12
 70
     1
102
RTVSPropertyOp13
 70
     1
102
RTVSPropertyOp14
 70
     1
102
RTVSPropertyOp15
 70
     1
102
RTVSPropertyOp16
 70
     1
102
RTVSPropertyOp17
 70
     1
102
RTVSPropertyOp18
 70
     1
102
RTVSPropertyOp19
 70
     1
102
RTVSPropertyOp20
 70
     1
102
RTVSPropertyOp21
 70
     1
102
RTVSPropertyOp22
 70
     1
102
RTVSPropertyOp23
 70
     1
102
RTVSPropertyOp24
 70
     1
102
RTVSPropertyOp25
 70
     1
102
RTVSPropertyOp26
 70
     1
102
RTVSPropertyOp27
 70
     1
102
RTVSPropertyOp28
 70
     1
102
RTVSPropertyOp29
 70
     1
102
RTVSPropertyOp30
 70
     1
102
RTVSPropertyOp31
 70
     1
102
RTVSPropertyOp32
 70
     1
102
RTVSPropertyOp33
 70
     1
102
RTVSPropertyOp34
 70
     1
102
RTVSPropertyOp35
 70
     1
102
RTVSPropertyOp36
 70
     1
102
RTVSPropertyOp37
 70
     1
102
RTVSPropertyOp38
 70
     1
102
RTVSPropertyOp39
 70
     1
102
RTVSPropertyOp40
 70
     1
102
RTVSPropertyOp41
 70
     1
102
RTVSPropertyOp42
 70
     1
102
RTVSPropertyOp43
 70
     1
102
RTVSPropertyOp44
 70
     1
102
RTVSPropertyOp45
 70
     1
102
RTVSPropertyOp46
 70
     1
102
RTVSPropertyOp47
 70
     1
102
RTVSPropertyOp48
 70
     1
102
RTVSPropertyOp49
 70
     1
102
RTVSPropertyOp50
 70
     1
102
RTVSPropertyOp51
 70
     0
102
RTVSPropertyOp52
 70
     0
102
RTVSPropertyOp53
 70
     1
102
RTVSPropertyOp54
 70
     1
102
RTVSPropertyOp55
 70
     1
102
RTVSPropertyOp56
 70
     1
102
RTVSPropertyOp57
 70
     1
102
RTVSPost2010Prop28
280
     0
102
RTVSPost2010PropOp28
 70
     1
102
RTVSPost2010Prop29
280
     1
102
RTVSPost2010PropOp29
 70
     1
102
RTVSPost2010Prop30
280
     1
102
RTVSPost2010PropOp30
 70
     1
102
RTVSPost2010Prop31
280
     0
102
RTVSPost2010PropOp31
 70
     1
102
RTVSPost2010Prop32
280
     0
102
RTVSPost2010PropOp32
 70
     1
102
RTVSPost2010Prop33
280
     0
102
RTVSPost2010PropOp33
 70
     1
102
RTVSPost2010Prop34
280
     0
102
RTVSPost2010PropOp34
 70
     1
102
RTVSPost2010Prop35
280
     0
102
RTVSPost2010PropOp35
 70
     1
102
RTVSPost2010Prop36
280
     0
102
RTVSPost2010PropOp36
 70
     1
102
RTVSPost2010Prop37
 90
       50
102
RTVSPost2010PropOp37
 70
     1
102
RTVSPost2010Prop38
140
0.0
102
RTVSPost2010PropOp38
 70
     1
102
RTVSPost2010Prop39
140
1.0
102
RTVSPost2010PropOp39
 70
     1
102
RTVSPost2010Prop40
 90
        0
102
RTVSPost2010PropOp40
 70
     1
102
RTVSPost2010Prop41ColorIndex
 90
       18
102
RTVSPost2010Prop41ColorRGB
 90
        0
102
RTVSPost2010PropOp41
 70
     1
102
RTVSPost2010Prop42
 90
       50
102
RTVSPost2010PropOp42
 70
     1
102
RTVSPost2010Prop43
 90
        3
102
RTVSPost2010PropOp43
 70
     1
102
RTVSPost2010Prop44ColorIndex
 90
        5
102
RTVSPost2010Prop44ColorRGB
 90
      255
102
RTVSPost2010PropOp44
 70
     1
102
RTVSPost2010Prop45
280
     0
102
RTVSPost2010PropOp45
 70
     1
102
RTVSPost2010Prop46
 90
       50
102
RTVSPost2010PropOp46
 70
     1
102
RTVSPost2010Prop47
 90
       50
102
RTVSPost2010PropOp47
 70
     1
102
RTVSPost2010Prop48
 90
       50
102
RTVSPost2010PropOp48
 70
     1
102
RTVSPost2010Prop49
280
     0
102
RTVSPost2010PropOp49
 70
     1
102
RTVSPost2010Prop50
 90
       50
102
RTVSPost2010PropOp50
 70
     1
102
RTVSPost2010Prop51ColorIndex
 90
      256
102
RTVSPost2010Prop51ColorRGB
 90
-16777216
102
RTVSPost2010PropOp51
 70
     0
102
RTVSPost2010Prop52
140
1.0
102
RTVSPost2010PropOp52
 70
     0
102
RTVSPost2010Prop53
 90
        2
102
RTVSPost2010PropOp53
 70
     1
102
RTVSPost2010Prop54
  1
strokes_ogs.tif
102
RTVSPost2010PropOp54
 70
     1
102
RTVSPost2010Prop55
280
     0
102
RTVSPost2010PropOp55
 70
     1
102
RTVSPost2010Prop56
140
1.0
102
RTVSPost2010PropOp56
 70
     1
102
RTVSPost2010Prop57
140
1.0
102
RTVSPost2010PropOp57
 70
     1
  0
XRECORD
  5
8B277
102
{ACAD_REACTORS
330
876A8
102
}
330
876A8
100
AcDbXrecord
280
     1
102
RTVSPropertyOp0
 70
     1
102
RTVSPropertyOp1
 70
     1
102
RTVSPropertyOp2
 70
     1
102
RTVSPropertyOp3
 70
     1
102
RTVSPropertyOp4
 70
     1
102
RTVSPropertyOp5
 70
     1
102
RTVSPropertyOp6
 70
     1
102
RTVSPropertyOp7
 70
     1
102
RTVSPropertyOp8
 70
     1
102
RTVSPropertyOp9
 70
     1
102
RTVSPropertyOp10
 70
     1
102
RTVSPropertyOp11
 70
     1
102
RTVSPropertyOp12
 70
     1
102
RTVSPropertyOp13
 70
     1
102
RTVSPropertyOp14
 70
     1
102
RTVSPropertyOp15
 70
     1
102
RTVSPropertyOp16
 70
     1
102
RTVSPropertyOp17
 70
     1
102
RTVSPropertyOp18
 70
     1
102
RTVSPropertyOp19
 70
     1
102
RTVSPropertyOp20
 70
     1
102
RTVSPropertyOp21
 70
     1
102
RTVSPropertyOp22
 70
     1
102
RTVSPropertyOp23
 70
     1
102
RTVSPropertyOp24
 70
     1
102
RTVSPropertyOp25
 70
     1
102
RTVSPropertyOp26
 70
     1
102
RTVSPropertyOp27
 70
     1
102
RTVSPropertyOp28
 70
     1
102
RTVSPropertyOp29
 70
     1
102
RTVSPropertyOp30
 70
     1
102
RTVSPropertyOp31
 70
     1
102
RTVSPropertyOp32
 70
     1
102
RTVSPropertyOp33
 70
     1
102
RTVSPropertyOp34
 70
     1
102
RTVSPropertyOp35
 70
     1
102
RTVSPropertyOp36
 70
     1
102
RTVSPropertyOp37
 70
     1
102
RTVSPropertyOp38
 70
     1
102
RTVSPropertyOp39
 70
     1
102
RTVSPropertyOp40
 70
     1
102
RTVSPropertyOp41
 70
     1
102
RTVSPropertyOp42
 70
     1
102
RTVSPropertyOp43
 70
     1
102
RTVSPropertyOp44
 70
     1
102
RTVSPropertyOp45
 70
     1
102
RTVSPropertyOp46
 70
     1
102
RTVSPropertyOp47
 70
     1
102
RTVSPropertyOp48
 70
     1
102
RTVSPropertyOp49
 70
     1
102
RTVSPropertyOp50
 70
     1
102
RTVSPropertyOp51
 70
     0
102
RTVSPropertyOp52
 70
     0
102
RTVSPropertyOp53
 70
     1
102
RTVSPropertyOp54
 70
     1
102
RTVSPropertyOp55
 70
     1
102
RTVSPropertyOp56
 70
     1
102
RTVSPropertyOp57
 70
     1
102
RTVSPost2010Prop28
280
     0
102
RTVSPost2010PropOp28
 70
     1
102
RTVSPost2010Prop29
280
     1
102
RTVSPost2010PropOp29
 70
     1
102
RTVSPost2010Prop30
280
     1
102
RTVSPost2010PropOp30
 70
     1
102
RTVSPost2010Prop31
280
     0
102
RTVSPost2010PropOp31
 70
     1
102
RTVSPost2010Prop32
280
     0
102
RTVSPost2010PropOp32
 70
     1
102
RTVSPost2010Prop33
280
     0
102
RTVSPost2010PropOp33
 70
     1
102
RTVSPost2010Prop34
280
     0
102
RTVSPost2010PropOp34
 70
     1
102
RTVSPost2010Prop35
280
     0
102
RTVSPost2010PropOp35
 70
     1
102
RTVSPost2010Prop36
280
     0
102
RTVSPost2010PropOp36
 70
     1
102
RTVSPost2010Prop37
 90
       50
102
RTVSPost2010PropOp37
 70
     1
102
RTVSPost2010Prop38
140
0.0
102
RTVSPost2010PropOp38
 70
     1
102
RTVSPost2010Prop39
140
1.0
102
RTVSPost2010PropOp39
 70
     1
102
RTVSPost2010Prop40
 90
        0
102
RTVSPost2010PropOp40
 70
     1
102
RTVSPost2010Prop41ColorIndex
 90
       18
102
RTVSPost2010Prop41ColorRGB
 90
        0
102
RTVSPost2010PropOp41
 70
     1
102
RTVSPost2010Prop42
 90
       50
102
RTVSPost2010PropOp42
 70
     1
102
RTVSPost2010Prop43
 90
        3
102
RTVSPost2010PropOp43
 70
     1
102
RTVSPost2010Prop44ColorIndex
 90
        5
102
RTVSPost2010Prop44ColorRGB
 90
      255
102
RTVSPost2010PropOp44
 70
     1
102
RTVSPost2010Prop45
280
     0
102
RTVSPost2010PropOp45
 70
     1
102
RTVSPost2010Prop46
 90
       50
102
RTVSPost2010PropOp46
 70
     1
102
RTVSPost2010Prop47
 90
       50
102
RTVSPost2010PropOp47
 70
     1
102
RTVSPost2010Prop48
 90
       50
102
RTVSPost2010PropOp48
 70
     1
102
RTVSPost2010Prop49
280
     0
102
RTVSPost2010PropOp49
 70
     1
102
RTVSPost2010Prop50
 90
       50
102
RTVSPost2010PropOp50
 70
     1
102
RTVSPost2010Prop51ColorIndex
 90
      256
102
RTVSPost2010Prop51ColorRGB
 90
-16777216
102
RTVSPost2010PropOp51
 70
     0
102
RTVSPost2010Prop52
140
1.0
102
RTVSPost2010PropOp52
 70
     0
102
RTVSPost2010Prop53
 90
        2
102
RTVSPost2010PropOp53
 70
     1
102
RTVSPost2010Prop54
  1
strokes_ogs.tif
102
RTVSPost2010PropOp54
 70
     1
102
RTVSPost2010Prop55
280
     0
102
RTVSPost2010PropOp55
 70
     1
102
RTVSPost2010Prop56
140
1.0
102
RTVSPost2010PropOp56
 70
     1
102
RTVSPost2010Prop57
140
1.0
102
RTVSPost2010PropOp57
 70
     1
  0
XRECORD
  5
8B278
102
{ACAD_REACTORS
330
876B0
102
}
330
876B0
100
AcDbXrecord
280
     1
102
RTVSPropertyOp0
 70
     1
102
RTVSPropertyOp1
 70
     1
102
RTVSPropertyOp2
 70
     1
102
RTVSPropertyOp3
 70
     1
102
RTVSPropertyOp4
 70
     1
102
RTVSPropertyOp5
 70
     1
102
RTVSPropertyOp6
 70
     1
102
RTVSPropertyOp7
 70
     1
102
RTVSPropertyOp8
 70
     1
102
RTVSPropertyOp9
 70
     1
102
RTVSPropertyOp10
 70
     1
102
RTVSPropertyOp11
 70
     1
102
RTVSPropertyOp12
 70
     1
102
RTVSPropertyOp13
 70
     1
102
RTVSPropertyOp14
 70
     1
102
RTVSPropertyOp15
 70
     1
102
RTVSPropertyOp16
 70
     1
102
RTVSPropertyOp17
 70
     1
102
RTVSPropertyOp18
 70
     1
102
RTVSPropertyOp19
 70
     1
102
RTVSPropertyOp20
 70
     1
102
RTVSPropertyOp21
 70
     1
102
RTVSPropertyOp22
 70
     1
102
RTVSPropertyOp23
 70
     1
102
RTVSPropertyOp24
 70
     1
102
RTVSPropertyOp25
 70
     1
102
RTVSPropertyOp26
 70
     1
102
RTVSPropertyOp27
 70
     1
102
RTVSPropertyOp28
 70
     1
102
RTVSPropertyOp29
 70
     1
102
RTVSPropertyOp30
 70
     1
102
RTVSPropertyOp31
 70
     1
102
RTVSPropertyOp32
 70
     1
102
RTVSPropertyOp33
 70
     1
102
RTVSPropertyOp34
 70
     1
102
RTVSPropertyOp35
 70
     1
102
RTVSPropertyOp36
 70
     1
102
RTVSPropertyOp37
 70
     1
102
RTVSPropertyOp38
 70
     1
102
RTVSPropertyOp39
 70
     1
102
RTVSPropertyOp40
 70
     1
102
RTVSPropertyOp41
 70
     1
102
RTVSPropertyOp42
 70
     1
102
RTVSPropertyOp43
 70
     1
102
RTVSPropertyOp44
 70
     1
102
RTVSPropertyOp45
 70
     1
102
RTVSPropertyOp46
 70
     1
102
RTVSPropertyOp47
 70
     1
102
RTVSPropertyOp48
 70
     1
102
RTVSPropertyOp49
 70
     1
102
RTVSPropertyOp50
 70
     1
102
RTVSPropertyOp51
 70
     0
102
RTVSPropertyOp52
 70
     0
102
RTVSPropertyOp53
 70
     1
102
RTVSPropertyOp54
 70
     1
102
RTVSPropertyOp55
 70
     1
102
RTVSPropertyOp56
 70
     1
102
RTVSPropertyOp57
 70
     1
102
RTVSPost2010Prop28
280
     0
102
RTVSPost2010PropOp28
 70
     1
102
RTVSPost2010Prop29
280
     1
102
RTVSPost2010PropOp29
 70
     1
102
RTVSPost2010Prop30
280
     1
102
RTVSPost2010PropOp30
 70
     1
102
RTVSPost2010Prop31
280
     0
102
RTVSPost2010PropOp31
 70
     1
102
RTVSPost2010Prop32
280
     0
102
RTVSPost2010PropOp32
 70
     1
102
RTVSPost2010Prop33
280
     0
102
RTVSPost2010PropOp33
 70
     1
102
RTVSPost2010Prop34
280
     0
102
RTVSPost2010PropOp34
 70
     1
102
RTVSPost2010Prop35
280
     0
102
RTVSPost2010PropOp35
 70
     1
102
RTVSPost2010Prop36
280
     0
102
RTVSPost2010PropOp36
 70
     1
102
RTVSPost2010Prop37
 90
       50
102
RTVSPost2010PropOp37
 70
     1
102
RTVSPost2010Prop38
140
0.0
102
RTVSPost2010PropOp38
 70
     1
102
RTVSPost2010Prop39
140
1.0
102
RTVSPost2010PropOp39
 70
     1
102
RTVSPost2010Prop40
 90
        0
102
RTVSPost2010PropOp40
 70
     1
102
RTVSPost2010Prop41ColorIndex
 90
       18
102
RTVSPost2010Prop41ColorRGB
 90
        0
102
RTVSPost2010PropOp41
 70
     1
102
RTVSPost2010Prop42
 90
       50
102
RTVSPost2010PropOp42
 70
     1
102
RTVSPost2010Prop43
 90
        3
102
RTVSPost2010PropOp43
 70
     1
102
RTVSPost2010Prop44ColorIndex
 90
        5
102
RTVSPost2010Prop44ColorRGB
 90
      255
102
RTVSPost2010PropOp44
 70
     1
102
RTVSPost2010Prop45
280
     0
102
RTVSPost2010PropOp45
 70
     1
102
RTVSPost2010Prop46
 90
       50
102
RTVSPost2010PropOp46
 70
     1
102
RTVSPost2010Prop47
 90
       50
102
RTVSPost2010PropOp47
 70
     1
102
RTVSPost2010Prop48
 90
       50
102
RTVSPost2010PropOp48
 70
     1
102
RTVSPost2010Prop49
280
     0
102
RTVSPost2010PropOp49
 70
     1
102
RTVSPost2010Prop50
 90
       50
102
RTVSPost2010PropOp50
 70
     1
102
RTVSPost2010Prop51ColorIndex
 90
      256
102
RTVSPost2010Prop51ColorRGB
 90
-16777216
102
RTVSPost2010PropOp51
 70
     0
102
RTVSPost2010Prop52
140
1.0
102
RTVSPost2010PropOp52
 70
     0
102
RTVSPost2010Prop53
 90
        2
102
RTVSPost2010PropOp53
 70
     1
102
RTVSPost2010Prop54
  1
strokes_ogs.tif
102
RTVSPost2010PropOp54
 70
     1
102
RTVSPost2010Prop55
280
     0
102
RTVSPost2010PropOp55
 70
     1
102
RTVSPost2010Prop56
140
1.0
102
RTVSPost2010PropOp56
 70
     1
102
RTVSPost2010Prop57
140
1.0
102
RTVSPost2010PropOp57
 70
     1
  0
XRECORD
  5
8B279
102
{ACAD_REACTORS
330
876CC
102
}
330
876CC
100
AcDbXrecord
280
     1
102
RTVSPropertyOp0
 70
     0
102
RTVSPropertyOp1
 70
     0
102
RTVSPropertyOp2
 70
     0
102
RTVSPropertyOp3
 70
     0
102
RTVSPropertyOp4
 70
     0
102
RTVSPropertyOp5
 70
     0
102
RTVSPropertyOp6
 70
     0
102
RTVSPropertyOp7
 70
     0
102
RTVSPropertyOp8
 70
     0
102
RTVSPropertyOp9
 70
     0
102
RTVSPropertyOp10
 70
     0
102
RTVSPropertyOp11
 70
     0
102
RTVSPropertyOp12
 70
     0
102
RTVSPropertyOp13
 70
     0
102
RTVSPropertyOp14
 70
     2
102
RTVSPropertyOp15
 70
     0
102
RTVSPropertyOp16
 70
     0
102
RTVSPropertyOp17
 70
     0
102
RTVSPropertyOp18
 70
     0
102
RTVSPropertyOp19
 70
     0
102
RTVSPropertyOp20
 70
     0
102
RTVSPropertyOp21
 70
     0
102
RTVSPropertyOp22
 70
     0
102
RTVSPropertyOp23
 70
     0
102
RTVSPropertyOp24
 70
     0
102
RTVSPropertyOp25
 70
     0
102
RTVSPropertyOp26
 70
     0
102
RTVSPropertyOp27
 70
     0
102
RTVSPropertyOp28
 70
     1
102
RTVSPropertyOp29
 70
     1
102
RTVSPropertyOp30
 70
     1
102
RTVSPropertyOp31
 70
     1
102
RTVSPropertyOp32
 70
     1
102
RTVSPropertyOp33
 70
     1
102
RTVSPropertyOp34
 70
     1
102
RTVSPropertyOp35
 70
     1
102
RTVSPropertyOp36
 70
     1
102
RTVSPropertyOp37
 70
     0
102
RTVSPropertyOp38
 70
     0
102
RTVSPropertyOp39
 70
     0
102
RTVSPropertyOp40
 70
     0
102
RTVSPropertyOp41
 70
     0
102
RTVSPropertyOp42
 70
     0
102
RTVSPropertyOp43
 70
     0
102
RTVSPropertyOp44
 70
     0
102
RTVSPropertyOp45
 70
     1
102
RTVSPropertyOp46
 70
     0
102
RTVSPropertyOp47
 70
     0
102
RTVSPropertyOp48
 70
     0
102
RTVSPropertyOp49
 70
     1
102
RTVSPropertyOp50
 70
     0
102
RTVSPropertyOp51
 70
     0
102
RTVSPropertyOp52
 70
     0
102
RTVSPropertyOp53
 70
     0
102
RTVSPropertyOp54
 70
     0
102
RTVSPropertyOp55
 70
     1
102
RTVSPropertyOp56
 70
     0
102
RTVSPropertyOp57
 70
     0
102
RTVSPost2010Prop28
280
     0
102
RTVSPost2010PropOp28
 70
     1
102
RTVSPost2010Prop29
280
     1
102
RTVSPost2010PropOp29
 70
     1
102
RTVSPost2010Prop30
280
     1
102
RTVSPost2010PropOp30
 70
     1
102
RTVSPost2010Prop31
280
     0
102
RTVSPost2010PropOp31
 70
     1
102
RTVSPost2010Prop32
280
     0
102
RTVSPost2010PropOp32
 70
     1
102
RTVSPost2010Prop33
280
     0
102
RTVSPost2010PropOp33
 70
     1
102
RTVSPost2010Prop34
280
     0
102
RTVSPost2010PropOp34
 70
     1
102
RTVSPost2010Prop35
280
     0
102
RTVSPost2010PropOp35
 70
     1
102
RTVSPost2010Prop36
280
     0
102
RTVSPost2010PropOp36
 70
     1
102
RTVSPost2010Prop37
 90
       50
102
RTVSPost2010PropOp37
 70
     0
102
RTVSPost2010Prop38
140
0.0
102
RTVSPost2010PropOp38
 70
     0
102
RTVSPost2010Prop39
140
1.0
102
RTVSPost2010PropOp39
 70
     0
102
RTVSPost2010Prop40
 90
        0
102
RTVSPost2010PropOp40
 70
     0
102
RTVSPost2010Prop41ColorIndex
 90
       18
102
RTVSPost2010Prop41ColorRGB
 90
        0
102
RTVSPost2010PropOp41
 70
     0
102
RTVSPost2010Prop42
 90
       50
102
RTVSPost2010PropOp42
 70
     0
102
RTVSPost2010Prop43
 90
        3
102
RTVSPost2010PropOp43
 70
     0
102
RTVSPost2010Prop44ColorIndex
 90
        5
102
RTVSPost2010Prop44ColorRGB
 90
      255
102
RTVSPost2010PropOp44
 70
     0
102
RTVSPost2010Prop45
280
     0
102
RTVSPost2010PropOp45
 70
     1
102
RTVSPost2010Prop46
 90
       50
102
RTVSPost2010PropOp46
 70
     0
102
RTVSPost2010Prop47
 90
       50
102
RTVSPost2010PropOp47
 70
     0
102
RTVSPost2010Prop48
 90
       50
102
RTVSPost2010PropOp48
 70
     0
102
RTVSPost2010Prop49
280
     0
102
RTVSPost2010PropOp49
 70
     1
102
RTVSPost2010Prop50
 90
       50
102
RTVSPost2010PropOp50
 70
     0
102
RTVSPost2010Prop51ColorIndex
 90
      256
102
RTVSPost2010Prop51ColorRGB
 90
-16777216
102
RTVSPost2010PropOp51
 70
     0
102
RTVSPost2010Prop52
140
1.0
102
RTVSPost2010PropOp52
 70
     0
102
RTVSPost2010Prop53
 90
        2
102
RTVSPost2010PropOp53
 70
     0
102
RTVSPost2010Prop54
  1
strokes_ogs.tif
102
RTVSPost2010PropOp54
 70
     0
102
RTVSPost2010Prop55
280
     0
102
RTVSPost2010PropOp55
 70
     1
102
RTVSPost2010Prop56
140
1.0
102
RTVSPost2010PropOp56
 70
     0
102
RTVSPost2010Prop57
140
1.0
102
RTVSPost2010PropOp57
 70
     0
  0
XRECORD
  5
8B27A
102
{ACAD_REACTORS
330
876BC
102
}
330
876BC
100
AcDbXrecord
280
     1
102
RTVSPropertyOp0
 70
     1
102
RTVSPropertyOp1
 70
     1
102
RTVSPropertyOp2
 70
     1
102
RTVSPropertyOp3
 70
     1
102
RTVSPropertyOp4
 70
     1
102
RTVSPropertyOp5
 70
     1
102
RTVSPropertyOp6
 70
     1
102
RTVSPropertyOp7
 70
     1
102
RTVSPropertyOp8
 70
     1
102
RTVSPropertyOp9
 70
     1
102
RTVSPropertyOp10
 70
     1
102
RTVSPropertyOp11
 70
     1
102
RTVSPropertyOp12
 70
     1
102
RTVSPropertyOp13
 70
     1
102
RTVSPropertyOp14
 70
     1
102
RTVSPropertyOp15
 70
     1
102
RTVSPropertyOp16
 70
     1
102
RTVSPropertyOp17
 70
     1
102
RTVSPropertyOp18
 70
     1
102
RTVSPropertyOp19
 70
     1
102
RTVSPropertyOp20
 70
     1
102
RTVSPropertyOp21
 70
     1
102
RTVSPropertyOp22
 70
     1
102
RTVSPropertyOp23
 70
     1
102
RTVSPropertyOp24
 70
     1
102
RTVSPropertyOp25
 70
     1
102
RTVSPropertyOp26
 70
     1
102
RTVSPropertyOp27
 70
     1
102
RTVSPropertyOp28
 70
     1
102
RTVSPropertyOp29
 70
     1
102
RTVSPropertyOp30
 70
     1
102
RTVSPropertyOp31
 70
     1
102
RTVSPropertyOp32
 70
     1
102
RTVSPropertyOp33
 70
     1
102
RTVSPropertyOp34
 70
     1
102
RTVSPropertyOp35
 70
     1
102
RTVSPropertyOp36
 70
     1
102
RTVSPropertyOp37
 70
     1
102
RTVSPropertyOp38
 70
     1
102
RTVSPropertyOp39
 70
     1
102
RTVSPropertyOp40
 70
     1
102
RTVSPropertyOp41
 70
     1
102
RTVSPropertyOp42
 70
     1
102
RTVSPropertyOp43
 70
     1
102
RTVSPropertyOp44
 70
     1
102
RTVSPropertyOp45
 70
     1
102
RTVSPropertyOp46
 70
     1
102
RTVSPropertyOp47
 70
     1
102
RTVSPropertyOp48
 70
     1
102
RTVSPropertyOp49
 70
     1
102
RTVSPropertyOp50
 70
     1
102
RTVSPropertyOp51
 70
     0
102
RTVSPropertyOp52
 70
     0
102
RTVSPropertyOp53
 70
     1
102
RTVSPropertyOp54
 70
     1
102
RTVSPropertyOp55
 70
     1
102
RTVSPropertyOp56
 70
     1
102
RTVSPropertyOp57
 70
     1
102
RTVSPost2010Prop28
280
     0
102
RTVSPost2010PropOp28
 70
     1
102
RTVSPost2010Prop29
280
     1
102
RTVSPost2010PropOp29
 70
     1
102
RTVSPost2010Prop30
280
     1
102
RTVSPost2010PropOp30
 70
     1
102
RTVSPost2010Prop31
280
     0
102
RTVSPost2010PropOp31
 70
     1
102
RTVSPost2010Prop32
280
     0
102
RTVSPost2010PropOp32
 70
     1
102
RTVSPost2010Prop33
280
     0
102
RTVSPost2010PropOp33
 70
     1
102
RTVSPost2010Prop34
280
     0
102
RTVSPost2010PropOp34
 70
     1
102
RTVSPost2010Prop35
280
     0
102
RTVSPost2010PropOp35
 70
     1
102
RTVSPost2010Prop36
280
     0
102
RTVSPost2010PropOp36
 70
     1
102
RTVSPost2010Prop37
 90
       50
102
RTVSPost2010PropOp37
 70
     1
102
RTVSPost2010Prop38
140
0.0
102
RTVSPost2010PropOp38
 70
     1
102
RTVSPost2010Prop39
140
1.0
102
RTVSPost2010PropOp39
 70
     1
102
RTVSPost2010Prop40
 90
        0
102
RTVSPost2010PropOp40
 70
     1
102
RTVSPost2010Prop41ColorIndex
 90
       18
102
RTVSPost2010Prop41ColorRGB
 90
        0
102
RTVSPost2010PropOp41
 70
     1
102
RTVSPost2010Prop42
 90
       50
102
RTVSPost2010PropOp42
 70
     1
102
RTVSPost2010Prop43
 90
        3
102
RTVSPost2010PropOp43
 70
     1
102
RTVSPost2010Prop44ColorIndex
 90
        5
102
RTVSPost2010Prop44ColorRGB
 90
      255
102
RTVSPost2010PropOp44
 70
     1
102
RTVSPost2010Prop45
280
     0
102
RTVSPost2010PropOp45
 70
     1
102
RTVSPost2010Prop46
 90
       50
102
RTVSPost2010PropOp46
 70
     1
102
RTVSPost2010Prop47
 90
       50
102
RTVSPost2010PropOp47
 70
     1
102
RTVSPost2010Prop48
 90
       50
102
RTVSPost2010PropOp48
 70
     1
102
RTVSPost2010Prop49
280
     0
102
RTVSPost2010PropOp49
 70
     1
102
RTVSPost2010Prop50
 90
       50
102
RTVSPost2010PropOp50
 70
     1
102
RTVSPost2010Prop51ColorIndex
 90
      256
102
RTVSPost2010Prop51ColorRGB
 90
-16777216
102
RTVSPost2010PropOp51
 70
     0
102
RTVSPost2010Prop52
140
1.0
102
RTVSPost2010PropOp52
 70
     0
102
RTVSPost2010Prop53
 90
        2
102
RTVSPost2010PropOp53
 70
     1
102
RTVSPost2010Prop54
  1
strokes_ogs.tif
102
RTVSPost2010PropOp54
 70
     1
102
RTVSPost2010Prop55
280
     0
102
RTVSPost2010PropOp55
 70
     1
102
RTVSPost2010Prop56
140
1.0
102
RTVSPost2010PropOp56
 70
     1
102
RTVSPost2010Prop57
140
1.0
102
RTVSPost2010PropOp57
 70
     1
  0
XRECORD
  5
8B27B
102
{ACAD_REACTORS
330
876CE
102
}
330
876CE
100
AcDbXrecord
280
     1
102
RTVSPropertyOp0
 70
     0
102
RTVSPropertyOp1
 70
     0
102
RTVSPropertyOp2
 70
     0
102
RTVSPropertyOp3
 70
     0
102
RTVSPropertyOp4
 70
     0
102
RTVSPropertyOp5
 70
     0
102
RTVSPropertyOp6
 70
     0
102
RTVSPropertyOp7
 70
     0
102
RTVSPropertyOp8
 70
     0
102
RTVSPropertyOp9
 70
     0
102
RTVSPropertyOp10
 70
     0
102
RTVSPropertyOp11
 70
     0
102
RTVSPropertyOp12
 70
     0
102
RTVSPropertyOp13
 70
     0
102
RTVSPropertyOp14
 70
     2
102
RTVSPropertyOp15
 70
     0
102
RTVSPropertyOp16
 70
     0
102
RTVSPropertyOp17
 70
     0
102
RTVSPropertyOp18
 70
     0
102
RTVSPropertyOp19
 70
     0
102
RTVSPropertyOp20
 70
     0
102
RTVSPropertyOp21
 70
     0
102
RTVSPropertyOp22
 70
     0
102
RTVSPropertyOp23
 70
     0
102
RTVSPropertyOp24
 70
     0
102
RTVSPropertyOp25
 70
     0
102
RTVSPropertyOp26
 70
     0
102
RTVSPropertyOp27
 70
     0
102
RTVSPropertyOp28
 70
     1
102
RTVSPropertyOp29
 70
     1
102
RTVSPropertyOp30
 70
     1
102
RTVSPropertyOp31
 70
     1
102
RTVSPropertyOp32
 70
     1
102
RTVSPropertyOp33
 70
     1
102
RTVSPropertyOp34
 70
     1
102
RTVSPropertyOp35
 70
     1
102
RTVSPropertyOp36
 70
     1
102
RTVSPropertyOp37
 70
     0
102
RTVSPropertyOp38
 70
     0
102
RTVSPropertyOp39
 70
     0
102
RTVSPropertyOp40
 70
     0
102
RTVSPropertyOp41
 70
     0
102
RTVSPropertyOp42
 70
     0
102
RTVSPropertyOp43
 70
     0
102
RTVSPropertyOp44
 70
     0
102
RTVSPropertyOp45
 70
     1
102
RTVSPropertyOp46
 70
     0
102
RTVSPropertyOp47
 70
     0
102
RTVSPropertyOp48
 70
     0
102
RTVSPropertyOp49
 70
     1
102
RTVSPropertyOp50
 70
     0
102
RTVSPropertyOp51
 70
     0
102
RTVSPropertyOp52
 70
     0
102
RTVSPropertyOp53
 70
     0
102
RTVSPropertyOp54
 70
     0
102
RTVSPropertyOp55
 70
     1
102
RTVSPropertyOp56
 70
     0
102
RTVSPropertyOp57
 70
     0
102
RTVSPost2010Prop28
280
     0
102
RTVSPost2010PropOp28
 70
     1
102
RTVSPost2010Prop29
280
     1
102
RTVSPost2010PropOp29
 70
     1
102
RTVSPost2010Prop30
280
     1
102
RTVSPost2010PropOp30
 70
     1
102
RTVSPost2010Prop31
280
     0
102
RTVSPost2010PropOp31
 70
     1
102
RTVSPost2010Prop32
280
     0
102
RTVSPost2010PropOp32
 70
     1
102
RTVSPost2010Prop33
280
     0
102
RTVSPost2010PropOp33
 70
     1
102
RTVSPost2010Prop34
280
     0
102
RTVSPost2010PropOp34
 70
     1
102
RTVSPost2010Prop35
280
     0
102
RTVSPost2010PropOp35
 70
     1
102
RTVSPost2010Prop36
280
     0
102
RTVSPost2010PropOp36
 70
     1
102
RTVSPost2010Prop37
 90
       50
102
RTVSPost2010PropOp37
 70
     0
102
RTVSPost2010Prop38
140
0.0
102
RTVSPost2010PropOp38
 70
     0
102
RTVSPost2010Prop39
140
1.0
102
RTVSPost2010PropOp39
 70
     0
102
RTVSPost2010Prop40
 90
        0
102
RTVSPost2010PropOp40
 70
     0
102
RTVSPost2010Prop41ColorIndex
 90
       18
102
RTVSPost2010Prop41ColorRGB
 90
        0
102
RTVSPost2010PropOp41
 70
     0
102
RTVSPost2010Prop42
 90
       50
102
RTVSPost2010PropOp42
 70
     0
102
RTVSPost2010Prop43
 90
        3
102
RTVSPost2010PropOp43
 70
     0
102
RTVSPost2010Prop44ColorIndex
 90
        5
102
RTVSPost2010Prop44ColorRGB
 90
      255
102
RTVSPost2010PropOp44
 70
     0
102
RTVSPost2010Prop45
280
     0
102
RTVSPost2010PropOp45
 70
     1
102
RTVSPost2010Prop46
 90
       50
102
RTVSPost2010PropOp46
 70
     0
102
RTVSPost2010Prop47
 90
       50
102
RTVSPost2010PropOp47
 70
     0
102
RTVSPost2010Prop48
 90
       50
102
RTVSPost2010PropOp48
 70
     0
102
RTVSPost2010Prop49
280
     0
102
RTVSPost2010PropOp49
 70
     1
102
RTVSPost2010Prop50
 90
       50
102
RTVSPost2010PropOp50
 70
     0
102
RTVSPost2010Prop51ColorIndex
 90
      256
102
RTVSPost2010Prop51ColorRGB
 90
-16777216
102
RTVSPost2010PropOp51
 70
     0
102
RTVSPost2010Prop52
140
1.0
102
RTVSPost2010PropOp52
 70
     0
102
RTVSPost2010Prop53
 90
        2
102
RTVSPost2010PropOp53
 70
     0
102
RTVSPost2010Prop54
  1
strokes_ogs.tif
102
RTVSPost2010PropOp54
 70
     0
102
RTVSPost2010Prop55
280
     0
102
RTVSPost2010PropOp55
 70
     1
102
RTVSPost2010Prop56
140
1.0
102
RTVSPost2010PropOp56
 70
     0
102
RTVSPost2010Prop57
140
1.0
102
RTVSPost2010PropOp57
 70
     0
  0
XRECORD
  5
8B27C
102
{ACAD_REACTORS
330
876B4
102
}
330
876B4
100
AcDbXrecord
280
     1
102
RTVSPropertyOp0
 70
     1
102
RTVSPropertyOp1
 70
     1
102
RTVSPropertyOp2
 70
     1
102
RTVSPropertyOp3
 70
     1
102
RTVSPropertyOp4
 70
     1
102
RTVSPropertyOp5
 70
     1
102
RTVSPropertyOp6
 70
     1
102
RTVSPropertyOp7
 70
     1
102
RTVSPropertyOp8
 70
     1
102
RTVSPropertyOp9
 70
     1
102
RTVSPropertyOp10
 70
     1
102
RTVSPropertyOp11
 70
     1
102
RTVSPropertyOp12
 70
     1
102
RTVSPropertyOp13
 70
     1
102
RTVSPropertyOp14
 70
     1
102
RTVSPropertyOp15
 70
     1
102
RTVSPropertyOp16
 70
     1
102
RTVSPropertyOp17
 70
     1
102
RTVSPropertyOp18
 70
     1
102
RTVSPropertyOp19
 70
     1
102
RTVSPropertyOp20
 70
     1
102
RTVSPropertyOp21
 70
     1
102
RTVSPropertyOp22
 70
     1
102
RTVSPropertyOp23
 70
     1
102
RTVSPropertyOp24
 70
     1
102
RTVSPropertyOp25
 70
     1
102
RTVSPropertyOp26
 70
     1
102
RTVSPropertyOp27
 70
     1
102
RTVSPropertyOp28
 70
     1
102
RTVSPropertyOp29
 70
     1
102
RTVSPropertyOp30
 70
     1
102
RTVSPropertyOp31
 70
     1
102
RTVSPropertyOp32
 70
     1
102
RTVSPropertyOp33
 70
     1
102
RTVSPropertyOp34
 70
     1
102
RTVSPropertyOp35
 70
     1
102
RTVSPropertyOp36
 70
     1
102
RTVSPropertyOp37
 70
     1
102
RTVSPropertyOp38
 70
     1
102
RTVSPropertyOp39
 70
     1
102
RTVSPropertyOp40
 70
     1
102
RTVSPropertyOp41
 70
     1
102
RTVSPropertyOp42
 70
     1
102
RTVSPropertyOp43
 70
     1
102
RTVSPropertyOp44
 70
     1
102
RTVSPropertyOp45
 70
     1
102
RTVSPropertyOp46
 70
     1
102
RTVSPropertyOp47
 70
     1
102
RTVSPropertyOp48
 70
     1
102
RTVSPropertyOp49
 70
     1
102
RTVSPropertyOp50
 70
     1
102
RTVSPropertyOp51
 70
     0
102
RTVSPropertyOp52
 70
     0
102
RTVSPropertyOp53
 70
     1
102
RTVSPropertyOp54
 70
     1
102
RTVSPropertyOp55
 70
     1
102
RTVSPropertyOp56
 70
     1
102
RTVSPropertyOp57
 70
     1
102
RTVSPost2010Prop28
280
     0
102
RTVSPost2010PropOp28
 70
     1
102
RTVSPost2010Prop29
280
     1
102
RTVSPost2010PropOp29
 70
     1
102
RTVSPost2010Prop30
280
     1
102
RTVSPost2010PropOp30
 70
     1
102
RTVSPost2010Prop31
280
     0
102
RTVSPost2010PropOp31
 70
     1
102
RTVSPost2010Prop32
280
     0
102
RTVSPost2010PropOp32
 70
     1
102
RTVSPost2010Prop33
280
     0
102
RTVSPost2010PropOp33
 70
     1
102
RTVSPost2010Prop34
280
     0
102
RTVSPost2010PropOp34
 70
     1
102
RTVSPost2010Prop35
280
     0
102
RTVSPost2010PropOp35
 70
     1
102
RTVSPost2010Prop36
280
     0
102
RTVSPost2010PropOp36
 70
     1
102
RTVSPost2010Prop37
 90
       50
102
RTVSPost2010PropOp37
 70
     1
102
RTVSPost2010Prop38
140
0.0
102
RTVSPost2010PropOp38
 70
     1
102
RTVSPost2010Prop39
140
1.0
102
RTVSPost2010PropOp39
 70
     1
102
RTVSPost2010Prop40
 90
        0
102
RTVSPost2010PropOp40
 70
     1
102
RTVSPost2010Prop41ColorIndex
 90
       18
102
RTVSPost2010Prop41ColorRGB
 90
        0
102
RTVSPost2010PropOp41
 70
     1
102
RTVSPost2010Prop42
 90
       50
102
RTVSPost2010PropOp42
 70
     1
102
RTVSPost2010Prop43
 90
        3
102
RTVSPost2010PropOp43
 70
     1
102
RTVSPost2010Prop44ColorIndex
 90
        5
102
RTVSPost2010Prop44ColorRGB
 90
      255
102
RTVSPost2010PropOp44
 70
     1
102
RTVSPost2010Prop45
280
     0
102
RTVSPost2010PropOp45
 70
     1
102
RTVSPost2010Prop46
 90
       50
102
RTVSPost2010PropOp46
 70
     1
102
RTVSPost2010Prop47
 90
       50
102
RTVSPost2010PropOp47
 70
     1
102
RTVSPost2010Prop48
 90
       50
102
RTVSPost2010PropOp48
 70
     1
102
RTVSPost2010Prop49
280
     0
102
RTVSPost2010PropOp49
 70
     1
102
RTVSPost2010Prop50
 90
       50
102
RTVSPost2010PropOp50
 70
     1
102
RTVSPost2010Prop51ColorIndex
 90
      256
102
RTVSPost2010Prop51ColorRGB
 90
-16777216
102
RTVSPost2010PropOp51
 70
     0
102
RTVSPost2010Prop52
140
1.0
102
RTVSPost2010PropOp52
 70
     0
102
RTVSPost2010Prop53
 90
        2
102
RTVSPost2010PropOp53
 70
     1
102
RTVSPost2010Prop54
  1
strokes_ogs.tif
102
RTVSPost2010PropOp54
 70
     1
102
RTVSPost2010Prop55
280
     0
102
RTVSPost2010PropOp55
 70
     1
102
RTVSPost2010Prop56
140
1.0
102
RTVSPost2010PropOp56
 70
     1
102
RTVSPost2010Prop57
140
1.0
102
RTVSPost2010PropOp57
 70
     1
  0
XRECORD
  5
8B27D
102
{ACAD_REACTORS
330
876CA
102
}
330
876CA
100
AcDbXrecord
280
     1
102
RTVSPropertyOp0
 70
     1
102
RTVSPropertyOp1
 70
     1
102
RTVSPropertyOp2
 70
     1
102
RTVSPropertyOp3
 70
     1
102
RTVSPropertyOp4
 70
     1
102
RTVSPropertyOp5
 70
     1
102
RTVSPropertyOp6
 70
     1
102
RTVSPropertyOp7
 70
     1
102
RTVSPropertyOp8
 70
     1
102
RTVSPropertyOp9
 70
     1
102
RTVSPropertyOp10
 70
     1
102
RTVSPropertyOp11
 70
     1
102
RTVSPropertyOp12
 70
     1
102
RTVSPropertyOp13
 70
     1
102
RTVSPropertyOp14
 70
     1
102
RTVSPropertyOp15
 70
     1
102
RTVSPropertyOp16
 70
     1
102
RTVSPropertyOp17
 70
     1
102
RTVSPropertyOp18
 70
     1
102
RTVSPropertyOp19
 70
     1
102
RTVSPropertyOp20
 70
     1
102
RTVSPropertyOp21
 70
     1
102
RTVSPropertyOp22
 70
     1
102
RTVSPropertyOp23
 70
     1
102
RTVSPropertyOp24
 70
     1
102
RTVSPropertyOp25
 70
     1
102
RTVSPropertyOp26
 70
     1
102
RTVSPropertyOp27
 70
     1
102
RTVSPropertyOp28
 70
     1
102
RTVSPropertyOp29
 70
     1
102
RTVSPropertyOp30
 70
     1
102
RTVSPropertyOp31
 70
     1
102
RTVSPropertyOp32
 70
     1
102
RTVSPropertyOp33
 70
     1
102
RTVSPropertyOp34
 70
     1
102
RTVSPropertyOp35
 70
     1
102
RTVSPropertyOp36
 70
     1
102
RTVSPropertyOp37
 70
     1
102
RTVSPropertyOp38
 70
     1
102
RTVSPropertyOp39
 70
     1
102
RTVSPropertyOp40
 70
     1
102
RTVSPropertyOp41
 70
     1
102
RTVSPropertyOp42
 70
     1
102
RTVSPropertyOp43
 70
     1
102
RTVSPropertyOp44
 70
     1
102
RTVSPropertyOp45
 70
     1
102
RTVSPropertyOp46
 70
     1
102
RTVSPropertyOp47
 70
     1
102
RTVSPropertyOp48
 70
     1
102
RTVSPropertyOp49
 70
     1
102
RTVSPropertyOp50
 70
     1
102
RTVSPropertyOp51
 70
     0
102
RTVSPropertyOp52
 70
     0
102
RTVSPropertyOp53
 70
     1
102
RTVSPropertyOp54
 70
     1
102
RTVSPropertyOp55
 70
     1
102
RTVSPropertyOp56
 70
     1
102
RTVSPropertyOp57
 70
     1
102
RTVSPost2010Prop28
280
     0
102
RTVSPost2010PropOp28
 70
     1
102
RTVSPost2010Prop29
280
     1
102
RTVSPost2010PropOp29
 70
     1
102
RTVSPost2010Prop30
280
     1
102
RTVSPost2010PropOp30
 70
     1
102
RTVSPost2010Prop31
280
     0
102
RTVSPost2010PropOp31
 70
     1
102
RTVSPost2010Prop32
280
     0
102
RTVSPost2010PropOp32
 70
     1
102
RTVSPost2010Prop33
280
     0
102
RTVSPost2010PropOp33
 70
     1
102
RTVSPost2010Prop34
280
     0
102
RTVSPost2010PropOp34
 70
     1
102
RTVSPost2010Prop35
280
     0
102
RTVSPost2010PropOp35
 70
     1
102
RTVSPost2010Prop36
280
     0
102
RTVSPost2010PropOp36
 70
     1
102
RTVSPost2010Prop37
 90
       50
102
RTVSPost2010PropOp37
 70
     1
102
RTVSPost2010Prop38
140
0.0
102
RTVSPost2010PropOp38
 70
     1
102
RTVSPost2010Prop39
140
1.0
102
RTVSPost2010PropOp39
 70
     1
102
RTVSPost2010Prop40
 90
        0
102
RTVSPost2010PropOp40
 70
     1
102
RTVSPost2010Prop41ColorIndex
 90
       18
102
RTVSPost2010Prop41ColorRGB
 90
        0
102
RTVSPost2010PropOp41
 70
     1
102
RTVSPost2010Prop42
 90
       50
102
RTVSPost2010PropOp42
 70
     1
102
RTVSPost2010Prop43
 90
        3
102
RTVSPost2010PropOp43
 70
     1
102
RTVSPost2010Prop44ColorIndex
 90
        5
102
RTVSPost2010Prop44ColorRGB
 90
      255
102
RTVSPost2010PropOp44
 70
     1
102
RTVSPost2010Prop45
280
     0
102
RTVSPost2010PropOp45
 70
     1
102
RTVSPost2010Prop46
 90
       50
102
RTVSPost2010PropOp46
 70
     1
102
RTVSPost2010Prop47
 90
       50
102
RTVSPost2010PropOp47
 70
     1
102
RTVSPost2010Prop48
 90
       50
102
RTVSPost2010PropOp48
 70
     1
102
RTVSPost2010Prop49
280
     0
102
RTVSPost2010PropOp49
 70
     1
102
RTVSPost2010Prop50
 90
       50
102
RTVSPost2010PropOp50
 70
     1
102
RTVSPost2010Prop51ColorIndex
 90
      256
102
RTVSPost2010Prop51ColorRGB
 90
-16777216
102
RTVSPost2010PropOp51
 70
     0
102
RTVSPost2010Prop52
140
1.0
102
RTVSPost2010PropOp52
 70
     0
102
RTVSPost2010Prop53
 90
        2
102
RTVSPost2010PropOp53
 70
     1
102
RTVSPost2010Prop54
  1
strokes_ogs.tif
102
RTVSPost2010PropOp54
 70
     1
102
RTVSPost2010Prop55
280
     0
102
RTVSPost2010PropOp55
 70
     1
102
RTVSPost2010Prop56
140
1.0
102
RTVSPost2010PropOp56
 70
     1
102
RTVSPost2010Prop57
140
1.0
102
RTVSPost2010PropOp57
 70
     1
  0
XRECORD
  5
8B27E
102
{ACAD_REACTORS
330
876C8
102
}
330
876C8
100
AcDbXrecord
280
     1
102
RTVSPropertyOp0
 70
     1
102
RTVSPropertyOp1
 70
     1
102
RTVSPropertyOp2
 70
     1
102
RTVSPropertyOp3
 70
     1
102
RTVSPropertyOp4
 70
     1
102
RTVSPropertyOp5
 70
     1
102
RTVSPropertyOp6
 70
     1
102
RTVSPropertyOp7
 70
     1
102
RTVSPropertyOp8
 70
     1
102
RTVSPropertyOp9
 70
     1
102
RTVSPropertyOp10
 70
     1
102
RTVSPropertyOp11
 70
     1
102
RTVSPropertyOp12
 70
     1
102
RTVSPropertyOp13
 70
     1
102
RTVSPropertyOp14
 70
     1
102
RTVSPropertyOp15
 70
     1
102
RTVSPropertyOp16
 70
     1
102
RTVSPropertyOp17
 70
     1
102
RTVSPropertyOp18
 70
     1
102
RTVSPropertyOp19
 70
     1
102
RTVSPropertyOp20
 70
     1
102
RTVSPropertyOp21
 70
     1
102
RTVSPropertyOp22
 70
     1
102
RTVSPropertyOp23
 70
     1
102
RTVSPropertyOp24
 70
     1
102
RTVSPropertyOp25
 70
     1
102
RTVSPropertyOp26
 70
     1
102
RTVSPropertyOp27
 70
     1
102
RTVSPropertyOp28
 70
     1
102
RTVSPropertyOp29
 70
     1
102
RTVSPropertyOp30
 70
     1
102
RTVSPropertyOp31
 70
     1
102
RTVSPropertyOp32
 70
     1
102
RTVSPropertyOp33
 70
     1
102
RTVSPropertyOp34
 70
     1
102
RTVSPropertyOp35
 70
     1
102
RTVSPropertyOp36
 70
     1
102
RTVSPropertyOp37
 70
     1
102
RTVSPropertyOp38
 70
     1
102
RTVSPropertyOp39
 70
     1
102
RTVSPropertyOp40
 70
     1
102
RTVSPropertyOp41
 70
     1
102
RTVSPropertyOp42
 70
     1
102
RTVSPropertyOp43
 70
     1
102
RTVSPropertyOp44
 70
     1
102
RTVSPropertyOp45
 70
     1
102
RTVSPropertyOp46
 70
     1
102
RTVSPropertyOp47
 70
     1
102
RTVSPropertyOp48
 70
     1
102
RTVSPropertyOp49
 70
     1
102
RTVSPropertyOp50
 70
     1
102
RTVSPropertyOp51
 70
     0
102
RTVSPropertyOp52
 70
     0
102
RTVSPropertyOp53
 70
     1
102
RTVSPropertyOp54
 70
     1
102
RTVSPropertyOp55
 70
     1
102
RTVSPropertyOp56
 70
     1
102
RTVSPropertyOp57
 70
     1
102
RTVSPost2010Prop28
280
     0
102
RTVSPost2010PropOp28
 70
     1
102
RTVSPost2010Prop29
280
     1
102
RTVSPost2010PropOp29
 70
     1
102
RTVSPost2010Prop30
280
     1
102
RTVSPost2010PropOp30
 70
     1
102
RTVSPost2010Prop31
280
     0
102
RTVSPost2010PropOp31
 70
     1
102
RTVSPost2010Prop32
280
     0
102
RTVSPost2010PropOp32
 70
     1
102
RTVSPost2010Prop33
280
     0
102
RTVSPost2010PropOp33
 70
     1
102
RTVSPost2010Prop34
280
     0
102
RTVSPost2010PropOp34
 70
     1
102
RTVSPost2010Prop35
280
     0
102
RTVSPost2010PropOp35
 70
     1
102
RTVSPost2010Prop36
280
     0
102
RTVSPost2010PropOp36
 70
     1
102
RTVSPost2010Prop37
 90
       50
102
RTVSPost2010PropOp37
 70
     1
102
RTVSPost2010Prop38
140
0.0
102
RTVSPost2010PropOp38
 70
     1
102
RTVSPost2010Prop39
140
1.0
102
RTVSPost2010PropOp39
 70
     1
102
RTVSPost2010Prop40
 90
        0
102
RTVSPost2010PropOp40
 70
     1
102
RTVSPost2010Prop41ColorIndex
 90
       18
102
RTVSPost2010Prop41ColorRGB
 90
        0
102
RTVSPost2010PropOp41
 70
     1
102
RTVSPost2010Prop42
 90
       50
102
RTVSPost2010PropOp42
 70
     1
102
RTVSPost2010Prop43
 90
        3
102
RTVSPost2010PropOp43
 70
     1
102
RTVSPost2010Prop44ColorIndex
 90
        5
102
RTVSPost2010Prop44ColorRGB
 90
      255
102
RTVSPost2010PropOp44
 70
     1
102
RTVSPost2010Prop45
280
     0
102
RTVSPost2010PropOp45
 70
     1
102
RTVSPost2010Prop46
 90
       50
102
RTVSPost2010PropOp46
 70
     1
102
RTVSPost2010Prop47
 90
       50
102
RTVSPost2010PropOp47
 70
     1
102
RTVSPost2010Prop48
 90
       50
102
RTVSPost2010PropOp48
 70
     1
102
RTVSPost2010Prop49
280
     0
102
RTVSPost2010PropOp49
 70
     1
102
RTVSPost2010Prop50
 90
       50
102
RTVSPost2010PropOp50
 70
     1
102
RTVSPost2010Prop51ColorIndex
 90
      256
102
RTVSPost2010Prop51ColorRGB
 90
-16777216
102
RTVSPost2010PropOp51
 70
     0
102
RTVSPost2010Prop52
140
1.0
102
RTVSPost2010PropOp52
 70
     0
102
RTVSPost2010Prop53
 90
        2
102
RTVSPost2010PropOp53
 70
     1
102
RTVSPost2010Prop54
  1
strokes_ogs.tif
102
RTVSPost2010PropOp54
 70
     1
102
RTVSPost2010Prop55
280
     0
102
RTVSPost2010PropOp55
 70
     1
102
RTVSPost2010Prop56
140
1.0
102
RTVSPost2010PropOp56
 70
     1
102
RTVSPost2010Prop57
140
1.0
102
RTVSPost2010PropOp57
 70
     1
  0
XRECORD
  5
8B27F
102
{ACAD_REACTORS
330
876C2
102
}
330
876C2
100
AcDbXrecord
280
     1
102
RTVSPropertyOp0
 70
     1
102
RTVSPropertyOp1
 70
     1
102
RTVSPropertyOp2
 70
     1
102
RTVSPropertyOp3
 70
     1
102
RTVSPropertyOp4
 70
     1
102
RTVSPropertyOp5
 70
     1
102
RTVSPropertyOp6
 70
     1
102
RTVSPropertyOp7
 70
     1
102
RTVSPropertyOp8
 70
     1
102
RTVSPropertyOp9
 70
     1
102
RTVSPropertyOp10
 70
     1
102
RTVSPropertyOp11
 70
     1
102
RTVSPropertyOp12
 70
     1
102
RTVSPropertyOp13
 70
     1
102
RTVSPropertyOp14
 70
     1
102
RTVSPropertyOp15
 70
     1
102
RTVSPropertyOp16
 70
     1
102
RTVSPropertyOp17
 70
     1
102
RTVSPropertyOp18
 70
     1
102
RTVSPropertyOp19
 70
     1
102
RTVSPropertyOp20
 70
     1
102
RTVSPropertyOp21
 70
     1
102
RTVSPropertyOp22
 70
     1
102
RTVSPropertyOp23
 70
     1
102
RTVSPropertyOp24
 70
     1
102
RTVSPropertyOp25
 70
     1
102
RTVSPropertyOp26
 70
     1
102
RTVSPropertyOp27
 70
     1
102
RTVSPropertyOp28
 70
     1
102
RTVSPropertyOp29
 70
     1
102
RTVSPropertyOp30
 70
     1
102
RTVSPropertyOp31
 70
     1
102
RTVSPropertyOp32
 70
     1
102
RTVSPropertyOp33
 70
     1
102
RTVSPropertyOp34
 70
     1
102
RTVSPropertyOp35
 70
     1
102
RTVSPropertyOp36
 70
     1
102
RTVSPropertyOp37
 70
     1
102
RTVSPropertyOp38
 70
     1
102
RTVSPropertyOp39
 70
     1
102
RTVSPropertyOp40
 70
     1
102
RTVSPropertyOp41
 70
     1
102
RTVSPropertyOp42
 70
     1
102
RTVSPropertyOp43
 70
     1
102
RTVSPropertyOp44
 70
     1
102
RTVSPropertyOp45
 70
     1
102
RTVSPropertyOp46
 70
     1
102
RTVSPropertyOp47
 70
     1
102
RTVSPropertyOp48
 70
     1
102
RTVSPropertyOp49
 70
     1
102
RTVSPropertyOp50
 70
     1
102
RTVSPropertyOp51
 70
     0
102
RTVSPropertyOp52
 70
     0
102
RTVSPropertyOp53
 70
     1
102
RTVSPropertyOp54
 70
     1
102
RTVSPropertyOp55
 70
     1
102
RTVSPropertyOp56
 70
     1
102
RTVSPropertyOp57
 70
     1
102
RTVSPost2010Prop28
280
     0
102
RTVSPost2010PropOp28
 70
     1
102
RTVSPost2010Prop29
280
     1
102
RTVSPost2010PropOp29
 70
     1
102
RTVSPost2010Prop30
280
     1
102
RTVSPost2010PropOp30
 70
     1
102
RTVSPost2010Prop31
280
     0
102
RTVSPost2010PropOp31
 70
     1
102
RTVSPost2010Prop32
280
     0
102
RTVSPost2010PropOp32
 70
     1
102
RTVSPost2010Prop33
280
     0
102
RTVSPost2010PropOp33
 70
     1
102
RTVSPost2010Prop34
280
     0
102
RTVSPost2010PropOp34
 70
     1
102
RTVSPost2010Prop35
280
     0
102
RTVSPost2010PropOp35
 70
     1
102
RTVSPost2010Prop36
280
     0
102
RTVSPost2010PropOp36
 70
     1
102
RTVSPost2010Prop37
 90
       50
102
RTVSPost2010PropOp37
 70
     1
102
RTVSPost2010Prop38
140
0.0
102
RTVSPost2010PropOp38
 70
     1
102
RTVSPost2010Prop39
140
1.0
102
RTVSPost2010PropOp39
 70
     1
102
RTVSPost2010Prop40
 90
        0
102
RTVSPost2010PropOp40
 70
     1
102
RTVSPost2010Prop41ColorIndex
 90
       18
102
RTVSPost2010Prop41ColorRGB
 90
        0
102
RTVSPost2010PropOp41
 70
     1
102
RTVSPost2010Prop42
 90
       50
102
RTVSPost2010PropOp42
 70
     1
102
RTVSPost2010Prop43
 90
        3
102
RTVSPost2010PropOp43
 70
     1
102
RTVSPost2010Prop44ColorIndex
 90
        5
102
RTVSPost2010Prop44ColorRGB
 90
      255
102
RTVSPost2010PropOp44
 70
     1
102
RTVSPost2010Prop45
280
     0
102
RTVSPost2010PropOp45
 70
     1
102
RTVSPost2010Prop46
 90
       50
102
RTVSPost2010PropOp46
 70
     1
102
RTVSPost2010Prop47
 90
       50
102
RTVSPost2010PropOp47
 70
     1
102
RTVSPost2010Prop48
 90
       50
102
RTVSPost2010PropOp48
 70
     1
102
RTVSPost2010Prop49
280
     0
102
RTVSPost2010PropOp49
 70
     1
102
RTVSPost2010Prop50
 90
       50
102
RTVSPost2010PropOp50
 70
     1
102
RTVSPost2010Prop51ColorIndex
 90
      256
102
RTVSPost2010Prop51ColorRGB
 90
-16777216
102
RTVSPost2010PropOp51
 70
     0
102
RTVSPost2010Prop52
140
1.0
102
RTVSPost2010PropOp52
 70
     0
102
RTVSPost2010Prop53
 90
        2
102
RTVSPost2010PropOp53
 70
     1
102
RTVSPost2010Prop54
  1
strokes_ogs.tif
102
RTVSPost2010PropOp54
 70
     1
102
RTVSPost2010Prop55
280
     0
102
RTVSPost2010PropOp55
 70
     1
102
RTVSPost2010Prop56
140
1.0
102
RTVSPost2010PropOp56
 70
     1
102
RTVSPost2010Prop57
140
1.0
102
RTVSPost2010PropOp57
 70
     1
  0
XRECORD
  5
8B280
102
{ACAD_REACTORS
330
876C4
102
}
330
876C4
100
AcDbXrecord
280
     1
102
RTVSPropertyOp0
 70
     1
102
RTVSPropertyOp1
 70
     1
102
RTVSPropertyOp2
 70
     1
102
RTVSPropertyOp3
 70
     1
102
RTVSPropertyOp4
 70
     1
102
RTVSPropertyOp5
 70
     1
102
RTVSPropertyOp6
 70
     1
102
RTVSPropertyOp7
 70
     1
102
RTVSPropertyOp8
 70
     1
102
RTVSPropertyOp9
 70
     1
102
RTVSPropertyOp10
 70
     1
102
RTVSPropertyOp11
 70
     1
102
RTVSPropertyOp12
 70
     1
102
RTVSPropertyOp13
 70
     1
102
RTVSPropertyOp14
 70
     1
102
RTVSPropertyOp15
 70
     1
102
RTVSPropertyOp16
 70
     1
102
RTVSPropertyOp17
 70
     1
102
RTVSPropertyOp18
 70
     1
102
RTVSPropertyOp19
 70
     1
102
RTVSPropertyOp20
 70
     1
102
RTVSPropertyOp21
 70
     1
102
RTVSPropertyOp22
 70
     1
102
RTVSPropertyOp23
 70
     1
102
RTVSPropertyOp24
 70
     1
102
RTVSPropertyOp25
 70
     1
102
RTVSPropertyOp26
 70
     1
102
RTVSPropertyOp27
 70
     1
102
RTVSPropertyOp28
 70
     1
102
RTVSPropertyOp29
 70
     1
102
RTVSPropertyOp30
 70
     1
102
RTVSPropertyOp31
 70
     1
102
RTVSPropertyOp32
 70
     1
102
RTVSPropertyOp33
 70
     1
102
RTVSPropertyOp34
 70
     1
102
RTVSPropertyOp35
 70
     1
102
RTVSPropertyOp36
 70
     1
102
RTVSPropertyOp37
 70
     1
102
RTVSPropertyOp38
 70
     1
102
RTVSPropertyOp39
 70
     1
102
RTVSPropertyOp40
 70
     1
102
RTVSPropertyOp41
 70
     1
102
RTVSPropertyOp42
 70
     1
102
RTVSPropertyOp43
 70
     1
102
RTVSPropertyOp44
 70
     1
102
RTVSPropertyOp45
 70
     1
102
RTVSPropertyOp46
 70
     1
102
RTVSPropertyOp47
 70
     1
102
RTVSPropertyOp48
 70
     1
102
RTVSPropertyOp49
 70
     1
102
RTVSPropertyOp50
 70
     1
102
RTVSPropertyOp51
 70
     0
102
RTVSPropertyOp52
 70
     0
102
RTVSPropertyOp53
 70
     1
102
RTVSPropertyOp54
 70
     1
102
RTVSPropertyOp55
 70
     1
102
RTVSPropertyOp56
 70
     1
102
RTVSPropertyOp57
 70
     1
102
RTVSPost2010Prop28
280
     0
102
RTVSPost2010PropOp28
 70
     1
102
RTVSPost2010Prop29
280
     1
102
RTVSPost2010PropOp29
 70
     1
102
RTVSPost2010Prop30
280
     1
102
RTVSPost2010PropOp30
 70
     1
102
RTVSPost2010Prop31
280
     0
102
RTVSPost2010PropOp31
 70
     1
102
RTVSPost2010Prop32
280
     0
102
RTVSPost2010PropOp32
 70
     1
102
RTVSPost2010Prop33
280
     0
102
RTVSPost2010PropOp33
 70
     1
102
RTVSPost2010Prop34
280
     0
102
RTVSPost2010PropOp34
 70
     1
102
RTVSPost2010Prop35
280
     0
102
RTVSPost2010PropOp35
 70
     1
102
RTVSPost2010Prop36
280
     0
102
RTVSPost2010PropOp36
 70
     1
102
RTVSPost2010Prop37
 90
       50
102
RTVSPost2010PropOp37
 70
     1
102
RTVSPost2010Prop38
140
0.0
102
RTVSPost2010PropOp38
 70
     1
102
RTVSPost2010Prop39
140
1.0
102
RTVSPost2010PropOp39
 70
     1
102
RTVSPost2010Prop40
 90
        0
102
RTVSPost2010PropOp40
 70
     1
102
RTVSPost2010Prop41ColorIndex
 90
       18
102
RTVSPost2010Prop41ColorRGB
 90
        0
102
RTVSPost2010PropOp41
 70
     1
102
RTVSPost2010Prop42
 90
       50
102
RTVSPost2010PropOp42
 70
     1
102
RTVSPost2010Prop43
 90
        3
102
RTVSPost2010PropOp43
 70
     1
102
RTVSPost2010Prop44ColorIndex
 90
        5
102
RTVSPost2010Prop44ColorRGB
 90
      255
102
RTVSPost2010PropOp44
 70
     1
102
RTVSPost2010Prop45
280
     0
102
RTVSPost2010PropOp45
 70
     1
102
RTVSPost2010Prop46
 90
       50
102
RTVSPost2010PropOp46
 70
     1
102
RTVSPost2010Prop47
 90
       50
102
RTVSPost2010PropOp47
 70
     1
102
RTVSPost2010Prop48
 90
       50
102
RTVSPost2010PropOp48
 70
     1
102
RTVSPost2010Prop49
280
     0
102
RTVSPost2010PropOp49
 70
     1
102
RTVSPost2010Prop50
 90
       50
102
RTVSPost2010PropOp50
 70
     1
102
RTVSPost2010Prop51ColorIndex
 90
      256
102
RTVSPost2010Prop51ColorRGB
 90
-16777216
102
RTVSPost2010PropOp51
 70
     0
102
RTVSPost2010Prop52
140
1.0
102
RTVSPost2010PropOp52
 70
     0
102
RTVSPost2010Prop53
 90
        2
102
RTVSPost2010PropOp53
 70
     1
102
RTVSPost2010Prop54
  1
strokes_ogs.tif
102
RTVSPost2010PropOp54
 70
     1
102
RTVSPost2010Prop55
280
     0
102
RTVSPost2010PropOp55
 70
     1
102
RTVSPost2010Prop56
140
1.0
102
RTVSPost2010PropOp56
 70
     1
102
RTVSPost2010Prop57
140
1.0
102
RTVSPost2010PropOp57
 70
     1
  0
XRECORD
  5
8B281
102
{ACAD_REACTORS
330
876BA
102
}
330
876BA
100
AcDbXrecord
280
     1
102
RTVSPropertyOp0
 70
     1
102
RTVSPropertyOp1
 70
     1
102
RTVSPropertyOp2
 70
     1
102
RTVSPropertyOp3
 70
     1
102
RTVSPropertyOp4
 70
     1
102
RTVSPropertyOp5
 70
     1
102
RTVSPropertyOp6
 70
     1
102
RTVSPropertyOp7
 70
     1
102
RTVSPropertyOp8
 70
     1
102
RTVSPropertyOp9
 70
     1
102
RTVSPropertyOp10
 70
     1
102
RTVSPropertyOp11
 70
     1
102
RTVSPropertyOp12
 70
     1
102
RTVSPropertyOp13
 70
     1
102
RTVSPropertyOp14
 70
     1
102
RTVSPropertyOp15
 70
     1
102
RTVSPropertyOp16
 70
     1
102
RTVSPropertyOp17
 70
     1
102
RTVSPropertyOp18
 70
     1
102
RTVSPropertyOp19
 70
     1
102
RTVSPropertyOp20
 70
     1
102
RTVSPropertyOp21
 70
     1
102
RTVSPropertyOp22
 70
     1
102
RTVSPropertyOp23
 70
     1
102
RTVSPropertyOp24
 70
     1
102
RTVSPropertyOp25
 70
     1
102
RTVSPropertyOp26
 70
     1
102
RTVSPropertyOp27
 70
     1
102
RTVSPropertyOp28
 70
     1
102
RTVSPropertyOp29
 70
     1
102
RTVSPropertyOp30
 70
     1
102
RTVSPropertyOp31
 70
     1
102
RTVSPropertyOp32
 70
     1
102
RTVSPropertyOp33
 70
     1
102
RTVSPropertyOp34
 70
     1
102
RTVSPropertyOp35
 70
     1
102
RTVSPropertyOp36
 70
     1
102
RTVSPropertyOp37
 70
     1
102
RTVSPropertyOp38
 70
     1
102
RTVSPropertyOp39
 70
     1
102
RTVSPropertyOp40
 70
     1
102
RTVSPropertyOp41
 70
     1
102
RTVSPropertyOp42
 70
     1
102
RTVSPropertyOp43
 70
     1
102
RTVSPropertyOp44
 70
     1
102
RTVSPropertyOp45
 70
     1
102
RTVSPropertyOp46
 70
     1
102
RTVSPropertyOp47
 70
     1
102
RTVSPropertyOp48
 70
     1
102
RTVSPropertyOp49
 70
     1
102
RTVSPropertyOp50
 70
     1
102
RTVSPropertyOp51
 70
     0
102
RTVSPropertyOp52
 70
     0
102
RTVSPropertyOp53
 70
     1
102
RTVSPropertyOp54
 70
     1
102
RTVSPropertyOp55
 70
     1
102
RTVSPropertyOp56
 70
     1
102
RTVSPropertyOp57
 70
     1
102
RTVSPost2010Prop28
280
     0
102
RTVSPost2010PropOp28
 70
     1
102
RTVSPost2010Prop29
280
     1
102
RTVSPost2010PropOp29
 70
     1
102
RTVSPost2010Prop30
280
     1
102
RTVSPost2010PropOp30
 70
     1
102
RTVSPost2010Prop31
280
     0
102
RTVSPost2010PropOp31
 70
     1
102
RTVSPost2010Prop32
280
     0
102
RTVSPost2010PropOp32
 70
     1
102
RTVSPost2010Prop33
280
     0
102
RTVSPost2010PropOp33
 70
     1
102
RTVSPost2010Prop34
280
     0
102
RTVSPost2010PropOp34
 70
     1
102
RTVSPost2010Prop35
280
     0
102
RTVSPost2010PropOp35
 70
     1
102
RTVSPost2010Prop36
280
     0
102
RTVSPost2010PropOp36
 70
     1
102
RTVSPost2010Prop37
 90
       50
102
RTVSPost2010PropOp37
 70
     1
102
RTVSPost2010Prop38
140
0.0
102
RTVSPost2010PropOp38
 70
     1
102
RTVSPost2010Prop39
140
1.0
102
RTVSPost2010PropOp39
 70
     1
102
RTVSPost2010Prop40
 90
        0
102
RTVSPost2010PropOp40
 70
     1
102
RTVSPost2010Prop41ColorIndex
 90
       18
102
RTVSPost2010Prop41ColorRGB
 90
        0
102
RTVSPost2010PropOp41
 70
     1
102
RTVSPost2010Prop42
 90
       50
102
RTVSPost2010PropOp42
 70
     1
102
RTVSPost2010Prop43
 90
        3
102
RTVSPost2010PropOp43
 70
     1
102
RTVSPost2010Prop44ColorIndex
 90
        5
102
RTVSPost2010Prop44ColorRGB
 90
      255
102
RTVSPost2010PropOp44
 70
     1
102
RTVSPost2010Prop45
280
     0
102
RTVSPost2010PropOp45
 70
     1
102
RTVSPost2010Prop46
 90
       50
102
RTVSPost2010PropOp46
 70
     1
102
RTVSPost2010Prop47
 90
       50
102
RTVSPost2010PropOp47
 70
     1
102
RTVSPost2010Prop48
 90
       50
102
RTVSPost2010PropOp48
 70
     1
102
RTVSPost2010Prop49
280
     0
102
RTVSPost2010PropOp49
 70
     1
102
RTVSPost2010Prop50
 90
       50
102
RTVSPost2010PropOp50
 70
     1
102
RTVSPost2010Prop51ColorIndex
 90
      256
102
RTVSPost2010Prop51ColorRGB
 90
-16777216
102
RTVSPost2010PropOp51
 70
     0
102
RTVSPost2010Prop52
140
1.0
102
RTVSPost2010PropOp52
 70
     0
102
RTVSPost2010Prop53
 90
        2
102
RTVSPost2010PropOp53
 70
     1
102
RTVSPost2010Prop54
  1
strokes_ogs.tif
102
RTVSPost2010PropOp54
 70
     1
102
RTVSPost2010Prop55
280
     0
102
RTVSPost2010PropOp55
 70
     1
102
RTVSPost2010Prop56
140
1.0
102
RTVSPost2010PropOp56
 70
     1
102
RTVSPost2010Prop57
140
1.0
102
RTVSPost2010PropOp57
 70
     1
  0
XRECORD
  5
8B282
102
{ACAD_REACTORS
330
876AE
102
}
330
876AE
100
AcDbXrecord
280
     1
102
RTVSPropertyOp0
 70
     1
102
RTVSPropertyOp1
 70
     1
102
RTVSPropertyOp2
 70
     1
102
RTVSPropertyOp3
 70
     1
102
RTVSPropertyOp4
 70
     1
102
RTVSPropertyOp5
 70
     1
102
RTVSPropertyOp6
 70
     1
102
RTVSPropertyOp7
 70
     1
102
RTVSPropertyOp8
 70
     1
102
RTVSPropertyOp9
 70
     1
102
RTVSPropertyOp10
 70
     1
102
RTVSPropertyOp11
 70
     1
102
RTVSPropertyOp12
 70
     1
102
RTVSPropertyOp13
 70
     1
102
RTVSPropertyOp14
 70
     1
102
RTVSPropertyOp15
 70
     1
102
RTVSPropertyOp16
 70
     1
102
RTVSPropertyOp17
 70
     1
102
RTVSPropertyOp18
 70
     1
102
RTVSPropertyOp19
 70
     1
102
RTVSPropertyOp20
 70
     1
102
RTVSPropertyOp21
 70
     1
102
RTVSPropertyOp22
 70
     1
102
RTVSPropertyOp23
 70
     1
102
RTVSPropertyOp24
 70
     1
102
RTVSPropertyOp25
 70
     1
102
RTVSPropertyOp26
 70
     1
102
RTVSPropertyOp27
 70
     1
102
RTVSPropertyOp28
 70
     1
102
RTVSPropertyOp29
 70
     1
102
RTVSPropertyOp30
 70
     1
102
RTVSPropertyOp31
 70
     1
102
RTVSPropertyOp32
 70
     1
102
RTVSPropertyOp33
 70
     1
102
RTVSPropertyOp34
 70
     1
102
RTVSPropertyOp35
 70
     1
102
RTVSPropertyOp36
 70
     1
102
RTVSPropertyOp37
 70
     1
102
RTVSPropertyOp38
 70
     1
102
RTVSPropertyOp39
 70
     1
102
RTVSPropertyOp40
 70
     1
102
RTVSPropertyOp41
 70
     1
102
RTVSPropertyOp42
 70
     1
102
RTVSPropertyOp43
 70
     1
102
RTVSPropertyOp44
 70
     1
102
RTVSPropertyOp45
 70
     1
102
RTVSPropertyOp46
 70
     1
102
RTVSPropertyOp47
 70
     1
102
RTVSPropertyOp48
 70
     1
102
RTVSPropertyOp49
 70
     1
102
RTVSPropertyOp50
 70
     1
102
RTVSPropertyOp51
 70
     0
102
RTVSPropertyOp52
 70
     0
102
RTVSPropertyOp53
 70
     1
102
RTVSPropertyOp54
 70
     1
102
RTVSPropertyOp55
 70
     1
102
RTVSPropertyOp56
 70
     1
102
RTVSPropertyOp57
 70
     1
102
RTVSPost2010Prop28
280
     0
102
RTVSPost2010PropOp28
 70
     1
102
RTVSPost2010Prop29
280
     1
102
RTVSPost2010PropOp29
 70
     1
102
RTVSPost2010Prop30
280
     1
102
RTVSPost2010PropOp30
 70
     1
102
RTVSPost2010Prop31
280
     0
102
RTVSPost2010PropOp31
 70
     1
102
RTVSPost2010Prop32
280
     0
102
RTVSPost2010PropOp32
 70
     1
102
RTVSPost2010Prop33
280
     0
102
RTVSPost2010PropOp33
 70
     1
102
RTVSPost2010Prop34
280
     0
102
RTVSPost2010PropOp34
 70
     1
102
RTVSPost2010Prop35
280
     0
102
RTVSPost2010PropOp35
 70
     1
102
RTVSPost2010Prop36
280
     0
102
RTVSPost2010PropOp36
 70
     1
102
RTVSPost2010Prop37
 90
       50
102
RTVSPost2010PropOp37
 70
     1
102
RTVSPost2010Prop38
140
0.0
102
RTVSPost2010PropOp38
 70
     1
102
RTVSPost2010Prop39
140
1.0
102
RTVSPost2010PropOp39
 70
     1
102
RTVSPost2010Prop40
 90
        0
102
RTVSPost2010PropOp40
 70
     1
102
RTVSPost2010Prop41ColorIndex
 90
       18
102
RTVSPost2010Prop41ColorRGB
 90
        0
102
RTVSPost2010PropOp41
 70
     1
102
RTVSPost2010Prop42
 90
       50
102
RTVSPost2010PropOp42
 70
     1
102
RTVSPost2010Prop43
 90
        3
102
RTVSPost2010PropOp43
 70
     1
102
RTVSPost2010Prop44ColorIndex
 90
        5
102
RTVSPost2010Prop44ColorRGB
 90
      255
102
RTVSPost2010PropOp44
 70
     1
102
RTVSPost2010Prop45
280
     0
102
RTVSPost2010PropOp45
 70
     1
102
RTVSPost2010Prop46
 90
       50
102
RTVSPost2010PropOp46
 70
     1
102
RTVSPost2010Prop47
 90
       50
102
RTVSPost2010PropOp47
 70
     1
102
RTVSPost2010Prop48
 90
       50
102
RTVSPost2010PropOp48
 70
     1
102
RTVSPost2010Prop49
280
     0
102
RTVSPost2010PropOp49
 70
     1
102
RTVSPost2010Prop50
 90
       50
102
RTVSPost2010PropOp50
 70
     1
102
RTVSPost2010Prop51ColorIndex
 90
      256
102
RTVSPost2010Prop51ColorRGB
 90
-16777216
102
RTVSPost2010PropOp51
 70
     0
102
RTVSPost2010Prop52
140
1.0
102
RTVSPost2010PropOp52
 70
     0
102
RTVSPost2010Prop53
 90
        2
102
RTVSPost2010PropOp53
 70
     1
102
RTVSPost2010Prop54
  1
strokes_ogs.tif
102
RTVSPost2010PropOp54
 70
     1
102
RTVSPost2010Prop55
280
     0
102
RTVSPost2010PropOp55
 70
     1
102
RTVSPost2010Prop56
140
1.0
102
RTVSPost2010PropOp56
 70
     1
102
RTVSPost2010Prop57
140
1.0
102
RTVSPost2010PropOp57
 70
     1
  0
XRECORD
  5
8B283
102
{ACAD_REACTORS
330
876C6
102
}
330
876C6
100
AcDbXrecord
280
     1
102
RTVSPropertyOp0
 70
     1
102
RTVSPropertyOp1
 70
     1
102
RTVSPropertyOp2
 70
     1
102
RTVSPropertyOp3
 70
     1
102
RTVSPropertyOp4
 70
     1
102
RTVSPropertyOp5
 70
     1
102
RTVSPropertyOp6
 70
     1
102
RTVSPropertyOp7
 70
     1
102
RTVSPropertyOp8
 70
     1
102
RTVSPropertyOp9
 70
     1
102
RTVSPropertyOp10
 70
     1
102
RTVSPropertyOp11
 70
     1
102
RTVSPropertyOp12
 70
     1
102
RTVSPropertyOp13
 70
     1
102
RTVSPropertyOp14
 70
     1
102
RTVSPropertyOp15
 70
     1
102
RTVSPropertyOp16
 70
     1
102
RTVSPropertyOp17
 70
     1
102
RTVSPropertyOp18
 70
     1
102
RTVSPropertyOp19
 70
     1
102
RTVSPropertyOp20
 70
     1
102
RTVSPropertyOp21
 70
     1
102
RTVSPropertyOp22
 70
     1
102
RTVSPropertyOp23
 70
     1
102
RTVSPropertyOp24
 70
     1
102
RTVSPropertyOp25
 70
     1
102
RTVSPropertyOp26
 70
     1
102
RTVSPropertyOp27
 70
     1
102
RTVSPropertyOp28
 70
     1
102
RTVSPropertyOp29
 70
     1
102
RTVSPropertyOp30
 70
     1
102
RTVSPropertyOp31
 70
     1
102
RTVSPropertyOp32
 70
     1
102
RTVSPropertyOp33
 70
     1
102
RTVSPropertyOp34
 70
     1
102
RTVSPropertyOp35
 70
     1
102
RTVSPropertyOp36
 70
     1
102
RTVSPropertyOp37
 70
     1
102
RTVSPropertyOp38
 70
     1
102
RTVSPropertyOp39
 70
     1
102
RTVSPropertyOp40
 70
     1
102
RTVSPropertyOp41
 70
     1
102
RTVSPropertyOp42
 70
     1
102
RTVSPropertyOp43
 70
     1
102
RTVSPropertyOp44
 70
     1
102
RTVSPropertyOp45
 70
     1
102
RTVSPropertyOp46
 70
     1
102
RTVSPropertyOp47
 70
     1
102
RTVSPropertyOp48
 70
     1
102
RTVSPropertyOp49
 70
     1
102
RTVSPropertyOp50
 70
     1
102
RTVSPropertyOp51
 70
     0
102
RTVSPropertyOp52
 70
     0
102
RTVSPropertyOp53
 70
     1
102
RTVSPropertyOp54
 70
     1
102
RTVSPropertyOp55
 70
     1
102
RTVSPropertyOp56
 70
     1
102
RTVSPropertyOp57
 70
     1
102
RTVSPost2010Prop28
280
     0
102
RTVSPost2010PropOp28
 70
     1
102
RTVSPost2010Prop29
280
     1
102
RTVSPost2010PropOp29
 70
     1
102
RTVSPost2010Prop30
280
     1
102
RTVSPost2010PropOp30
 70
     1
102
RTVSPost2010Prop31
280
     0
102
RTVSPost2010PropOp31
 70
     1
102
RTVSPost2010Prop32
280
     0
102
RTVSPost2010PropOp32
 70
     1
102
RTVSPost2010Prop33
280
     0
102
RTVSPost2010PropOp33
 70
     1
102
RTVSPost2010Prop34
280
     0
102
RTVSPost2010PropOp34
 70
     1
102
RTVSPost2010Prop35
280
     0
102
RTVSPost2010PropOp35
 70
     1
102
RTVSPost2010Prop36
280
     0
102
RTVSPost2010PropOp36
 70
     1
102
RTVSPost2010Prop37
 90
       50
102
RTVSPost2010PropOp37
 70
     1
102
RTVSPost2010Prop38
140
0.0
102
RTVSPost2010PropOp38
 70
     1
102
RTVSPost2010Prop39
140
1.0
102
RTVSPost2010PropOp39
 70
     1
102
RTVSPost2010Prop40
 90
        0
102
RTVSPost2010PropOp40
 70
     1
102
RTVSPost2010Prop41ColorIndex
 90
       18
102
RTVSPost2010Prop41ColorRGB
 90
        0
102
RTVSPost2010PropOp41
 70
     1
102
RTVSPost2010Prop42
 90
       50
102
RTVSPost2010PropOp42
 70
     1
102
RTVSPost2010Prop43
 90
        3
102
RTVSPost2010PropOp43
 70
     1
102
RTVSPost2010Prop44ColorIndex
 90
        5
102
RTVSPost2010Prop44ColorRGB
 90
      255
102
RTVSPost2010PropOp44
 70
     1
102
RTVSPost2010Prop45
280
     0
102
RTVSPost2010PropOp45
 70
     1
102
RTVSPost2010Prop46
 90
       50
102
RTVSPost2010PropOp46
 70
     1
102
RTVSPost2010Prop47
 90
       50
102
RTVSPost2010PropOp47
 70
     1
102
RTVSPost2010Prop48
 90
       50
102
RTVSPost2010PropOp48
 70
     1
102
RTVSPost2010Prop49
280
     0
102
RTVSPost2010PropOp49
 70
     1
102
RTVSPost2010Prop50
 90
       50
102
RTVSPost2010PropOp50
 70
     1
102
RTVSPost2010Prop51ColorIndex
 90
      256
102
RTVSPost2010Prop51ColorRGB
 90
-16777216
102
RTVSPost2010PropOp51
 70
     0
102
RTVSPost2010Prop52
140
1.0
102
RTVSPost2010PropOp52
 70
     0
102
RTVSPost2010Prop53
 90
        2
102
RTVSPost2010PropOp53
 70
     1
102
RTVSPost2010Prop54
  1
strokes_ogs.tif
102
RTVSPost2010PropOp54
 70
     1
102
RTVSPost2010Prop55
280
     0
102
RTVSPost2010PropOp55
 70
     1
102
RTVSPost2010Prop56
140
1.0
102
RTVSPost2010PropOp56
 70
     1
102
RTVSPost2010Prop57
140
1.0
102
RTVSPost2010PropOp57
 70
     1
  0
ENDSEC
  0
EOF
