  0
SECTION
  2
HEADER
  9
$ACADVER
  1
AC1015
  9
$ACADMAINTVER
 70
    20
  9
$DWGCODEPAGE
  3
ANSI_936
  9
$INSBASE
 10
0.0
 20
0.0
 30
0.0
  9
$EXTMIN
 10
-77.71666666666665
 20
-46.02490261997752
 30
0.0
  9
$EXTMAX
 10
104.9833333333333
 20
94.6730621580151
 30
0.0
  9
$LIMMIN
 10
0.0
 20
0.0
  9
$LIMMAX
 10
420.0
 20
297.0
  9
$ORTHOMODE
 70
     0
  9
$REGENMODE
 70
     1
  9
$FILLMODE
 70
     1
  9
$QTEXTMODE
 70
     0
  9
$MIRRTEXT
 70
     1
  9
$LTSCALE
 40
1.0
  9
$ATTMODE
 70
     1
  9
$TEXTSIZE
 40
3.5
  9
$TRACEWID
 40
1.0
  9
$TEXTSTYLE
  7
simplex
  9
$CLAYER
  8
0
  9
$CELTYPE
  6
ByLayer
  9
$CECOLOR
 62
   256
  9
$CELTSCALE
 40
1.0
  9
$DISPSILH
 70
     0
  9
$DIMSCALE
 40
0.0
  9
$DIMASZ
 40
3.5
  9
$DIMEXO
 40
0.0
  9
$DIMDLI
 40
0.38
  9
$DIMRND
 40
0.0
  9
$DIMDLE
 40
0.0
  9
$DIMEXE
 40
1.5
  9
$DIMTP
 40
0.0
  9
$DIMTM
 40
0.0
  9
$DIMTXT
 40
3.5
  9
$DIMCEN
 40
0.09
  9
$DIMTSZ
 40
0.0
  9
$DIMTOL
 70
     0
  9
$DIMLIM
 70
     0
  9
$DIMTIH
 70
     0
  9
$DIMTOH
 70
     0
  9
$DIMSE1
 70
     0
  9
$DIMSE2
 70
     0
  9
$DIMTAD
 70
     1
  9
$DIMZIN
 70
     8
  9
$DIMBLK
  1

  9
$DIMASO
 70
     1
  9
$DIMSHO
 70
     1
  9
$DIMPOST
  1

  9
$DIMAPOST
  1

  9
$DIMALT
 70
     0
  9
$DIMALTD
 70
     2
  9
$DIMALTF
 40
25.4
  9
$DIMLFAC
 40
1.0
  9
$DIMTOFL
 70
     0
  9
$DIMTVP
 40
0.0
  9
$DIMTIX
 70
     0
  9
$DIMSOXD
 70
     0
  9
$DIMSAH
 70
     0
  9
$DIMBLK1
  1

  9
$DIMBLK2
  1

  9
$DIMSTYLE
  2
\M+18352\M+18373\M+1815B - ISO-25
  9
$DIMCLRD
 70
   256
  9
$DIMCLRE
 70
   256
  9
$DIMCLRT
 70
   256
  9
$DIMTFAC
 40
1.0
  9
$DIMGAP
 40
2.299999999999998
  9
$DIMJUST
 70
     0
  9
$DIMSD1
 70
     0
  9
$DIMSD2
 70
     0
  9
$DIMTOLJ
 70
     1
  9
$DIMTZIN
 70
     8
  9
$DIMALTZ
 70
     0
  9
$DIMALTTZ
 70
     0
  9
$DIMUPT
 70
     0
  9
$DIMDEC
 70
     2
  9
$DIMTDEC
 70
     2
  9
$DIMALTU
 70
     2
  9
$DIMALTTD
 70
     2
  9
$DIMTXSTY
  7
simplex
  9
$DIMAUNIT
 70
     0
  9
$DIMADEC
 70
     0
  9
$DIMALTRND
 40
0.0
  9
$DIMAZIN
 70
     0
  9
$DIMDSEP
 70
    46
  9
$DIMATFIT
 70
     3
  9
$DIMFRAC
 70
     0
  9
$DIMLDRBLK
  1

  9
$DIMLUNIT
 70
     2
  9
$DIMLWD
 70
    -1
  9
$DIMLWE
 70
    -1
  9
$DIMTMOVE
 70
     0
  9
$LUNITS
 70
     2
  9
$LUPREC
 70
     4
  9
$SKETCHINC
 40
1.0
  9
$FILLETRAD
 40
1.5
  9
$AUNITS
 70
     0
  9
$AUPREC
 70
     0
  9
$MENU
  1
.
  9
$ELEVATION
 40
0.0
  9
$PELEVATION
 40
0.0
  9
$THICKNESS
 40
0.0
  9
$LIMCHECK
 70
     0
  9
$CHAMFERA
 40
10.0
  9
$CHAMFERB
 40
10.0
  9
$CHAMFERC
 40
20.0
  9
$CHAMFERD
 40
0.0
  9
$SKPOLY
 70
     0
  9
$TDCREATE
 40
2455489.391063368
  9
$TDUCREATE
 40
2455489.057730035
  9
$TDUPDATE
 40
2458480.440560637
  9
$TDUUPDATE
 40
2458480.107227303
  9
$TDINDWG
 40
2.0962603009
  9
$TDUSRTIMER
 40
2.0962071528
  9
$USRTIMER
 70
     1
  9
$ANGBASE
 50
0.0
  9
$ANGDIR
 70
     0
  9
$PDMODE
 70
     0
  9
$PDSIZE
 40
0.0
  9
$PLINEWID
 40
0.0
  9
$SPLFRAME
 70
     0
  9
$SPLINETYPE
 70
     6
  9
$SPLINESEGS
 70
     8
  9
$HANDSEED
  5
61EB5
  9
$SURFTAB1
 70
     6
  9
$SURFTAB2
 70
     6
  9
$SURFTYPE
 70
     6
  9
$SURFU
 70
     6
  9
$SURFV
 70
     6
  9
$UCSBASE
  2

  9
$UCSNAME
  2

  9
$UCSORG
 10
0.0
 20
0.0
 30
0.0
  9
$UCSXDIR
 10
1.0
 20
0.0
 30
0.0
  9
$UCSYDIR
 10
0.0
 20
1.0
 30
0.0
  9
$UCSORTHOREF
  2

  9
$UCSORTHOVIEW
 70
     0
  9
$UCSORGTOP
 10
0.0
 20
0.0
 30
0.0
  9
$UCSORGBOTTOM
 10
0.0
 20
0.0
 30
0.0
  9
$UCSORGLEFT
 10
0.0
 20
0.0
 30
0.0
  9
$UCSORGRIGHT
 10
0.0
 20
0.0
 30
0.0
  9
$UCSORGFRONT
 10
0.0
 20
0.0
 30
0.0
  9
$UCSORGBACK
 10
0.0
 20
0.0
 30
0.0
  9
$PUCSBASE
  2

  9
$PUCSNAME
  2

  9
$PUCSORG
 10
0.0
 20
0.0
 30
0.0
  9
$PUCSXDIR
 10
1.0
 20
0.0
 30
0.0
  9
$PUCSYDIR
 10
0.0
 20
1.0
 30
0.0
  9
$PUCSORTHOREF
  2

  9
$PUCSORTHOVIEW
 70
     0
  9
$PUCSORGTOP
 10
0.0
 20
0.0
 30
0.0
  9
$PUCSORGBOTTOM
 10
0.0
 20
0.0
 30
0.0
  9
$PUCSORGLEFT
 10
0.0
 20
0.0
 30
0.0
  9
$PUCSORGRIGHT
 10
0.0
 20
0.0
 30
0.0
  9
$PUCSORGFRONT
 10
0.0
 20
0.0
 30
0.0
  9
$PUCSORGBACK
 10
0.0
 20
0.0
 30
0.0
  9
$USERI1
 70
     0
  9
$USERI2
 70
     0
  9
$USERI3
 70
     0
  9
$USERI4
 70
     0
  9
$USERI5
 70
     0
  9
$USERR1
 40
0.0
  9
$USERR2
 40
0.0
  9
$USERR3
 40
0.0
  9
$USERR4
 40
0.0
  9
$USERR5
 40
0.0
  9
$WORLDVIEW
 70
     1
  9
$SHADEDGE
 70
     3
  9
$SHADEDIF
 70
    70
  9
$TILEMODE
 70
     1
  9
$MAXACTVP
 70
    64
  9
$PINSBASE
 10
0.0
 20
0.0
 30
0.0
  9
$PLIMCHECK
 70
     0
  9
$PEXTMIN
 10
26.66999878883364
 20
20.31999878883365
 30
0.0
  9
$PEXTMAX
 10
240.0299890995025
 20
182.8799890995025
 30
0.0
  9
$PLIMMIN
 10
-6.350006103515625
 20
-6.349999904632567
  9
$PLIMMAX
 10
273.0499877929688
 20
209.5499939918518
  9
$UNITMODE
 70
     0
  9
$VISRETAIN
 70
     1
  9
$PLINEGEN
 70
     0
  9
$PSLTSCALE
 70
     1
  9
$TREEDEPTH
 70
  3020
  9
$CMLSTYLE
  2
Standard
  9
$CMLJUST
 70
     0
  9
$CMLSCALE
 40
20.0
  9
$PROXYGRAPHICS
 70
     1
  9
$MEASUREMENT
 70
     1
  9
$CELWEIGHT
370
    -1
  9
$ENDCAPS
280
     0
  9
$JOINSTYLE
280
     0
  9
$LWDISPLAY
290
     0
  9
$INSUNITS
 70
     4
  9
$HYPERLINKBASE
  1

  9
$STYLESHEET
  1

  9
$XEDIT
290
     1
  9
$CEPSNTYPE
380
     0
  9
$PSTYLEMODE
290
     1
  9
$FINGERPRINTGUID
  2
{601DDA01-5B13-4A4C-8F56-1333B78D855B}
  9
$VERSIONGUID
  2
{7BFCE192-5A28-4CA8-BE88-F3F6FCFE98CA}
  9
$EXTNAMES
290
     1
  9
$PSVPSCALE
 40
0.0
  9
$OLESTARTUP
290
     0
  0
ENDSEC
  0
SECTION
  2
CLASSES
  0
CLASS
  1
ACDBDICTIONARYWDFLT
  2
AcDbDictionaryWithDefault
  3
ObjectDBX Classes
 90
        0
280
     0
281
     0
  0
CLASS
  1
ACDBPLACEHOLDER
  2
AcDbPlaceHolder
  3
ObjectDBX Classes
 90
        0
280
     0
281
     0
  0
CLASS
  1
LAYOUT
  2
AcDbLayout
  3
ObjectDBX Classes
 90
        0
280
     0
281
     0
  0
CLASS
  1
DICTIONARYVAR
  2
AcDbDictionaryVar
  3
ObjectDBX Classes
 90
        0
280
     0
281
     0
  0
CLASS
  1
TABLESTYLE
  2
AcDbTableStyle
  3
ObjectDBX Classes
 90
     2047
280
     0
281
     0
  0
CLASS
  1
SORTENTSTABLE
  2
AcDbSortentsTable
  3
ObjectDBX Classes
 90
        0
280
     0
281
     0
  0
CLASS
  1
DIMASSOC
  2
AcDbDimAssoc
  3
"AcDbDimAssoc|Product Desc:     AcDim ARX App For Dimension|Company:          Autodesk, Inc.|WEB Address:      www.autodesk.com"
 90
    32768
280
     0
281
     0
  0
CLASS
  1
ACAD_EVALUATION_GRAPH
  2
AcDbEvalGraph
  3
ObjectDBX Classes
 90
    33921
280
     0
281
     0
  0
CLASS
  1
ACAECUSTOBJ
  2
AcAeEditorObj
  3
AcAeEditorObj
 90
    33792
280
     0
281
     0
  0
CLASS
  1
ACDB_DYNAMICBLOCKPURGEPREVENTER_VERSION
  2
AcDbDynamicBlockPurgePreventer
  3
ObjectDBX Classes
 90
    33921
280
     0
281
     0
  0
ENDSEC
  0
SECTION
  2
TABLES
  0
TABLE
  2
VPORT
  5
8
330
0
100
AcDbSymbolTable
 70
     2
  0
VPORT
  5
61EA6
330
8
100
AcDbSymbolTableRecord
100
AcDbViewportTableRecord
  2
*Active
 70
     0
 10
0.0
 20
0.0
 11
1.0
 21
1.0
 12
25.16777471233948
 22
17.7475091609856
 13
0.0
 23
0.0
 14
10.0
 24
10.0
 15
10.0
 25
10.0
 16
0.0
 26
0.0
 36
1.0
 17
0.0
 27
0.0
 37
0.0
 40
254.4731718963869
 41
1.381443298969072
 42
50.0
 43
0.0
 44
0.0
 50
0.0
 51
0.0
 71
     0
 72
  1000
 73
     1
 74
     1
 75
     0
 76
     0
 77
     0
 78
     0
281
     0
 65
     1
110
0.0
120
0.0
130
0.0
111
1.0
121
0.0
131
0.0
112
0.0
122
1.0
132
0.0
 79
     0
146
0.0
  0
ENDTAB
  0
TABLE
  2
LTYPE
  5
5
330
0
100
AcDbSymbolTable
 70
     4
  0
LTYPE
  5
14
330
5
100
AcDbSymbolTableRecord
100
AcDbLinetypeTableRecord
  2
ByBlock
 70
     0
  3

 72
    65
 73
     0
 40
0.0
  0
LTYPE
  5
15
330
5
100
AcDbSymbolTableRecord
100
AcDbLinetypeTableRecord
  2
ByLayer
 70
     0
  3

 72
    65
 73
     0
 40
0.0
  0
LTYPE
  5
16
330
5
100
AcDbSymbolTableRecord
100
AcDbLinetypeTableRecord
  2
Continuous
 70
     0
  3
Solid line
 72
    65
 73
     0
 40
0.0
  0
LTYPE
  5
D7
330
5
100
AcDbSymbolTableRecord
100
AcDbLinetypeTableRecord
  2
HIDDEN
 70
     0
  3
Hidden __ __ __ __ __ __ __ __ __ __ __ __ __ _
 72
    65
 73
     2
 40
9.524999999999996
 49
6.349999999999997
 74
     0
 49
-3.174999999999998
 74
     0
  0
LTYPE
  5
D9
330
5
100
AcDbSymbolTableRecord
100
AcDbLinetypeTableRecord
  2
CENTER
 70
     0
  3
Center ____ _ ____ _ ____ _ ____ _ ____ _ ____
 72
    65
 73
     4
 40
50.8
 49
31.75
 74
     0
 49
-6.349999999999997
 74
     0
 49
6.349999999999997
 74
     0
 49
-6.349999999999997
 74
     0
  0
LTYPE
  5
35815
330
5
100
AcDbSymbolTableRecord
100
AcDbLinetypeTableRecord
  2
PHANTOM
 70
     0
  3
_____ _ _ _____ _ _ _____ _ _ _____
 72
    65
 73
     6
 40
0.8
 49
0.45
 74
     0
 49
-0.05
 74
     0
 49
0.1
 74
     0
 49
-0.05
 74
     0
 49
0.1
 74
     0
 49
-0.05
 74
     0
  0
ENDTAB
  0
TABLE
  2
LAYER
  5
2
102
{ACAD_XDICTIONARY
360
E2
102
}
330
0
100
AcDbSymbolTable
 70
    14
  0
LAYER
  5
10
330
2
100
AcDbSymbolTableRecord
100
AcDbLayerTableRecord
  2
0
 70
     0
 62
     7
  6
Continuous
370
    -3
390
F
  0
LAYER
  5
D1
330
2
100
AcDbSymbolTableRecord
100
AcDbLayerTableRecord
  2
1
 70
     0
 62
     4
  6
Continuous
370
    50
390
F
1001
AcAecLayerStandard
1000

1000

  0
LAYER
  5
D3
330
2
100
AcDbSymbolTableRecord
100
AcDbLayerTableRecord
  2
2
 70
     0
 62
     7
  6
Continuous
370
    25
390
F
1001
AcAecLayerStandard
1000

1000

  0
LAYER
  5
D4
330
2
100
AcDbSymbolTableRecord
100
AcDbLayerTableRecord
  2
3
 70
     0
 62
     1
  6
HIDDEN
370
    35
390
F
1001
AcAecLayerStandard
1000

1000

  0
LAYER
  5
D8
330
2
100
AcDbSymbolTableRecord
100
AcDbLayerTableRecord
  2
4
 70
     0
 62
     2
  6
CENTER
370
    25
390
F
1001
AcAecLayerStandard
1000

1000

  0
LAYER
  5
DA
330
2
100
AcDbSymbolTableRecord
100
AcDbLayerTableRecord
  2
6
 70
     0
 62
     5
  6
Continuous
370
    35
390
F
1001
AcAecLayerStandard
1000

1000

  0
LAYER
  5
DB
330
2
100
AcDbSymbolTableRecord
100
AcDbLayerTableRecord
  2
cut
 70
     0
 62
     1
  6
Continuous
370
    25
390
F
1001
AcAecLayerStandard
1000

1000

  0
LAYER
  5
DC
330
2
100
AcDbSymbolTableRecord
100
AcDbLayerTableRecord
  2
nocut
 70
     0
 62
     7
  6
Continuous
370
    25
390
F
1001
AcAecLayerStandard
1000

1000

  0
LAYER
  5
DD
330
2
100
AcDbSymbolTableRecord
100
AcDbLayerTableRecord
  2
sk1
 70
     0
 62
     4
  6
Continuous
370
    50
390
F
1001
AcAecLayerStandard
1000

1000

  0
LAYER
  5
DE
330
2
100
AcDbSymbolTableRecord
100
AcDbLayerTableRecord
  2
sk2
 70
     0
 62
     7
  6
Continuous
370
    25
390
F
1001
AcAecLayerStandard
1000

1000

  0
LAYER
  5
DF
330
2
100
AcDbSymbolTableRecord
100
AcDbLayerTableRecord
  2
sk3
 70
     0
 62
     1
  6
HIDDEN
370
    35
390
F
1001
AcAecLayerStandard
1000

1000

  0
LAYER
  5
E0
330
2
100
AcDbSymbolTableRecord
100
AcDbLayerTableRecord
  2
sk4
 70
     0
 62
     2
  6
CENTER
370
    25
390
F
1001
AcAecLayerStandard
1000

1000

  0
LAYER
  5
E1
330
2
100
AcDbSymbolTableRecord
100
AcDbLayerTableRecord
  2
sk6
 70
     0
 62
     5
  6
Continuous
370
    35
390
F
1001
AcAecLayerStandard
1000

1000

  0
LAYER
  5
31B6
330
2
100
AcDbSymbolTableRecord
100
AcDbLayerTableRecord
  2
Defpoints
 70
     0
 62
     7
  6
Continuous
290
     0
370
    -3
390
F
  0
ENDTAB
  0
TABLE
  2
STYLE
  5
3
330
0
100
AcDbSymbolTable
 70
    11
  0
STYLE
  5
11
330
3
100
AcDbSymbolTableRecord
100
AcDbTextStyleTableRecord
  2
Standard
 70
     0
 40
0.0
 41
1.0
 50
0.0
 71
     0
 42
2.5
  3
txt.shx
  4
@extfont2.shx
  0
STYLE
  5
D6
330
3
100
AcDbSymbolTableRecord
100
AcDbTextStyleTableRecord
  2

 70
     1
 40
0.0
 41
1.0
 50
0.0
 71
     0
 42
2.5
  3
ltypeshp.shx
  4

  0
STYLE
  5
24A
330
3
100
AcDbSymbolTableRecord
100
AcDbTextStyleTableRecord
  2
simplex
 70
     0
 40
3.5
 41
1.0
 50
0.0
 71
     0
 42
3.5
  3
txt.shx
  4

  0
STYLE
  5
69E
330
3
100
AcDbSymbolTableRecord
100
AcDbTextStyleTableRecord
  2
MX_NOTE_STANDARD
 70
     0
 40
0.0
 41
1.0
 50
0.0
 71
     0
 42
4.2
  3
txt.shx
  4
extfont.shx
  0
STYLE
  5
3524
330
3
100
AcDbSymbolTableRecord
100
AcDbTextStyleTableRecord
  2
TEXTSTYLE_2
 70
     0
 40
0.0
 41
0.775
 50
0.0
 71
     0
 42
0.2
  3
gdt
  4

  0
STYLE
  5
3525
330
3
100
AcDbSymbolTableRecord
100
AcDbTextStyleTableRecord
  2
TEXTSTYLE_3
 70
     0
 40
0.0
 41
0.75
 50
0.0
 71
     0
 42
0.2
  3
txt
  4

  0
STYLE
  5
3526
330
3
100
AcDbSymbolTableRecord
100
AcDbTextStyleTableRecord
  2
TEXTSTYLE_13
 70
     0
 40
0.0
 41
1.0
 50
0.0
 71
     0
 42
0.2
  3
txt
  4

  0
STYLE
  5
519A
330
3
100
AcDbSymbolTableRecord
100
AcDbTextStyleTableRecord
  2
TEXTSTYLE_14
 70
     0
 40
0.0
 41
1.0
 50
0.0
 71
     0
 42
0.2
  3
txt
  4

  0
STYLE
  5
6F72
330
3
100
AcDbSymbolTableRecord
100
AcDbTextStyleTableRecord
  2
TEXTSTYLE_4
 70
     0
 40
0.0
 41
0.75
 50
0.0
 71
     0
 42
0.2
  3
txt
  4

  0
STYLE
  5
6F73
330
3
100
AcDbSymbolTableRecord
100
AcDbTextStyleTableRecord
  2
TEXTSTYLE_17
 70
     0
 40
0.0
 41
1.0
 50
0.0
 71
     0
 42
0.2
  3
txt
  4

  0
STYLE
  5
FE12
330
3
100
AcDbSymbolTableRecord
100
AcDbTextStyleTableRecord
  2
TEXTSTYLE_12
 70
     0
 40
0.0
 41
1.0
 50
0.0
 71
     0
 42
0.2
  3
txt
  4

  0
ENDTAB
  0
TABLE
  2
VIEW
  5
6
330
0
100
AcDbSymbolTable
 70
     0
  0
ENDTAB
  0
TABLE
  2
UCS
  5
7
330
0
100
AcDbSymbolTable
 70
     0
  0
ENDTAB
  0
TABLE
  2
APPID
  5
9
330
0
100
AcDbSymbolTable
 70
    11
  0
APPID
  5
12
330
9
100
AcDbSymbolTableRecord
100
AcDbRegAppTableRecord
  2
ACAD
 70
     0
  0
APPID
  5
D2
330
9
100
AcDbSymbolTableRecord
100
AcDbRegAppTableRecord
  2
AcAecLayerStandard
 70
     0
  0
APPID
  5
E6
330
9
100
AcDbSymbolTableRecord
100
AcDbRegAppTableRecord
  2
ACAD_DSTYLE_DIMTEXT_FILL
 70
     0
  0
APPID
  5
4C84
330
9
100
AcDbSymbolTableRecord
100
AcDbRegAppTableRecord
  2
ACAD_EXEMPT_FROM_CAD_STANDARDS
 70
     0
  0
APPID
  5
3493E
330
9
100
AcDbSymbolTableRecord
100
AcDbRegAppTableRecord
  2
DCO15
 70
     0
  0
APPID
  5
4366A
330
9
100
AcDbSymbolTableRecord
100
AcDbRegAppTableRecord
  2
ACAUTHENVIRON
 70
     0
  0
APPID
  5
4366D
330
9
100
AcDbSymbolTableRecord
100
AcDbRegAppTableRecord
  2
AcDbDynamicBlockTrueName
 70
     0
  0
APPID
  5
4366E
330
9
100
AcDbSymbolTableRecord
100
AcDbRegAppTableRecord
  2
AcDbDynamicBlockGUID
 70
     0
  0
APPID
  5
43670
330
9
100
AcDbSymbolTableRecord
100
AcDbRegAppTableRecord
  2
AcDbBlockRepETag
 70
     0
  0
APPID
  5
45C9F
330
9
100
AcDbSymbolTableRecord
100
AcDbRegAppTableRecord
  2
ACAD_DSTYLE_DIMEXT_ENABLED
 70
     0
  0
APPID
  5
45CA0
330
9
100
AcDbSymbolTableRecord
100
AcDbRegAppTableRecord
  2
ACAD_DSTYLE_DIMEXT_LENGTH
 70
     0
  0
ENDTAB
  0
TABLE
  2
DIMSTYLE
  5
A
330
0
100
AcDbSymbolTable
 70
    10
100
AcDbDimStyleTable
 71
     2
340
1BF
340
27
  0
DIMSTYLE
105
27
330
A
100
AcDbSymbolTableRecord
100
AcDbDimStyleTableRecord
  2
ISO-25
 70
     0
 41
2.5
 42
0.625
 43
3.75
 44
1.25
 73
     0
 74
     0
 77
     1
 78
     8
140
2.5
141
2.5
143
0.03937007874016
147
0.625
171
     3
172
     1
271
     2
272
     2
274
     3
278
    44
283
     0
284
     8
340
11
  0
DIMSTYLE
105
1BF
102
{ACAD_REACTORS
330
6099E
330
60984
330
6096A
330
60920
330
60908
330
60938
330
608F0
330
608D8
330
61552
330
619A3
102
}
330
A
100
AcDbSymbolTableRecord
100
AcDbDimStyleTableRecord
  2
\M+18352\M+18373\M+1815B - ISO-25
 70
     0
 40
0.0
 41
3.5
 42
0.0
 44
1.5
 73
     0
 74
     0
 77
     1
 78
     8
140
3.5
147
2.299999999999998
176
   256
177
   256
178
   256
271
     2
272
     2
284
     8
340
24A
371
    -1
372
    -1
  0
DIMSTYLE
105
69F
330
A
100
AcDbSymbolTableRecord
100
AcDbDimStyleTableRecord
  2
MXDIMSTYLE
 70
     0
 41
2.5
 42
0.5
 43
3.75
 44
1.5
 73
     0
 74
     0
 77
     1
 78
     8
140
4.2
141
2.5
143
0.03937
147
1.0
171
     4
172
     1
173
     1
271
     2
272
     2
274
     4
283
     0
288
     1
340
69E
341
697
343
697
344
697
  0
DIMSTYLE
105
3527
330
A
100
AcDbSymbolTableRecord
100
AcDbDimStyleTableRecord
  2
STANDARD
 70
     0
 41
3.0
 47
0.001
 48
0.001
 71
     1
 73
     0
 74
     0
 77
     1
 78
     8
140
4.0
271
     3
272
     3
284
     8
340
11
341
34B1
342
34B1
343
34B1
344
34B1
  0
DIMSTYLE
105
3528
330
A
100
AcDbSymbolTableRecord
100
AcDbDimStyleTableRecord
  2
DIMSTYLE_1
 70
     0
 41
3.0
 73
     0
 74
     0
 77
     1
 78
     8
140
4.0
271
     3
272
     3
284
     8
340
11
341
34B1
342
34B1
343
34B1
344
34B1
  0
DIMSTYLE
105
3529
330
A
100
AcDbSymbolTableRecord
100
AcDbDimStyleTableRecord
  2
DIMSTYLE_2
 70
     0
 41
3.0
 47
0.001
 48
0.001
 73
     0
 74
     0
 77
     1
 78
     8
140
4.0
271
     3
272
     3
284
     8
340
11
341
34B1
342
34B1
343
34B1
344
34B1
  0
DIMSTYLE
105
352A
330
A
100
AcDbSymbolTableRecord
100
AcDbDimStyleTableRecord
  2
DIMSTYLE_3
 70
     0
 41
3.0
 47
-0.1
 48
0.3
 71
     1
 73
     0
 74
     0
 77
     1
 78
     8
140
4.0
146
0.5
271
     3
272
     3
284
     8
340
11
341
34B1
342
34B1
343
34B1
344
34B1
  0
DIMSTYLE
105
352B
330
A
100
AcDbSymbolTableRecord
100
AcDbDimStyleTableRecord
  2
DIMSTYLE_4
 70
     0
 41
3.0
 47
0.1
 48
0.1
 71
     1
 73
     0
 74
     0
 77
     1
 78
     8
140
4.0
271
     3
272
     3
284
     8
340
11
341
34B1
342
34B1
343
34B1
344
34B1
  0
DIMSTYLE
105
27245
330
A
100
AcDbSymbolTableRecord
100
AcDbDimStyleTableRecord
  2
DIMSTYLE_5
 70
     0
 41
3.0
 47
0.001
 48
0.001
 73
     0
 74
     0
 77
     1
 78
     8
140
4.0
271
     3
272
     3
284
     8
340
11
341
34B1
342
34B1
343
34B1
344
34B1
  0
DIMSTYLE
105
4771C
330
A
100
AcDbSymbolTableRecord
100
AcDbDimStyleTableRecord
  2
\M+18352\M+18373\M+1815B_-_ISO-25
 70
     0
 40
0.0
 41
3.5
 42
0.0
 44
1.5
 73
     0
 74
     0
 77
     1
 78
     8
140
3.5
147
2.299999999999998
176
   256
177
   256
178
   256
279
     2
284
     8
285
     8
286
     8
340
24A
  0
ENDTAB
  0
TABLE
  2
BLOCK_RECORD
  5
1
330
0
100
AcDbSymbolTable
 70
    17
  0
BLOCK_RECORD
  5
1F
102
{ACAD_XDICTIONARY
360
31EE
102
}
330
1
100
AcDbSymbolTableRecord
100
AcDbBlockTableRecord
  2
*Model_Space
340
22
  0
BLOCK_RECORD
  5
50
330
1
100
AcDbSymbolTableRecord
100
AcDbBlockTableRecord
  2
*Paper_Space
340
51
  0
BLOCK_RECORD
  5
55
330
1
100
AcDbSymbolTableRecord
100
AcDbBlockTableRecord
  2
*Paper_Space0
340
56
  0
BLOCK_RECORD
  5
680
102
{ACAD_XDICTIONARY
360
43668
102
}
330
1
100
AcDbSymbolTableRecord
100
AcDbBlockTableRecord
  2
zero block
340
0
102
{BLKREFS
331
68C
102
}
1001
ACAD
1000
DesignCenter Data
1002
{
1070
     1
1070
     4
1002
}
1001
AcDbDynamicBlockGUID
1000
{A89DF4EB-B2CB-439E-AC69-1EAC9F242D1C}
1001
AcDbBlockRepETag
1070
     1
1071
        7
  0
BLOCK_RECORD
  5
697
330
1
100
AcDbSymbolTableRecord
100
AcDbBlockTableRecord
  2
_OPEN30
340
0
  0
BLOCK_RECORD
  5
32F1
330
1
100
AcDbSymbolTableRecord
100
AcDbBlockTableRecord
  2
_None
340
0
  0
BLOCK_RECORD
  5
34B1
330
1
100
AcDbSymbolTableRecord
100
AcDbBlockTableRecord
  2
_OPEN
340
0
  0
BLOCK_RECORD
  5
45B07
330
1
100
AcDbSymbolTableRecord
100
AcDbBlockTableRecord
  2
*D5
340
0
  0
BLOCK_RECORD
  5
45B1F
330
1
100
AcDbSymbolTableRecord
100
AcDbBlockTableRecord
  2
*D6
340
0
  0
BLOCK_RECORD
  5
608D9
330
1
100
AcDbSymbolTableRecord
100
AcDbBlockTableRecord
  2
*D7
340
0
  0
BLOCK_RECORD
  5
608F1
330
1
100
AcDbSymbolTableRecord
100
AcDbBlockTableRecord
  2
*D8
340
0
  0
BLOCK_RECORD
  5
60909
330
1
100
AcDbSymbolTableRecord
100
AcDbBlockTableRecord
  2
*D9
340
0
  0
BLOCK_RECORD
  5
60921
330
1
100
AcDbSymbolTableRecord
100
AcDbBlockTableRecord
  2
*D10
340
0
  0
BLOCK_RECORD
  5
60939
330
1
100
AcDbSymbolTableRecord
100
AcDbBlockTableRecord
  2
*D11
340
0
  0
BLOCK_RECORD
  5
6096B
330
1
100
AcDbSymbolTableRecord
100
AcDbBlockTableRecord
  2
*D12
340
0
  0
BLOCK_RECORD
  5
60985
330
1
100
AcDbSymbolTableRecord
100
AcDbBlockTableRecord
  2
*D13
340
0
  0
BLOCK_RECORD
  5
6099F
330
1
100
AcDbSymbolTableRecord
100
AcDbBlockTableRecord
  2
*D14
340
0
  0
BLOCK_RECORD
  5
61553
330
1
100
AcDbSymbolTableRecord
100
AcDbBlockTableRecord
  2
*D15
340
0
  0
BLOCK_RECORD
  5
619A4
330
1
100
AcDbSymbolTableRecord
100
AcDbBlockTableRecord
  2
*D16
340
0
  0
ENDTAB
  0
ENDSEC
  0
SECTION
  2
BLOCKS
  0
BLOCK
  5
20
330
1F
100
AcDbEntity
  8
0
100
AcDbBlockBegin
  2
*Model_Space
 70
     0
 10
0.0
 20
0.0
 30
0.0
  3
*Model_Space
  1

  0
ENDBLK
  5
21
330
1F
100
AcDbEntity
  8
0
100
AcDbBlockEnd
  0
BLOCK
  5
52
330
50
100
AcDbEntity
 67
     1
  8
0
100
AcDbBlockBegin
  2
*Paper_Space
 70
     0
 10
0.0
 20
0.0
 30
0.0
  3
*Paper_Space
  1

  0
ENDBLK
  5
53
330
50
100
AcDbEntity
 67
     1
  8
0
100
AcDbBlockEnd
  0
BLOCK
  5
57
330
55
100
AcDbEntity
 67
     1
  8
0
100
AcDbBlockBegin
  2
*Paper_Space0
 70
     0
 10
0.0
 20
0.0
 30
0.0
  3
*Paper_Space0
  1

  0
VIEWPORT
  5
71
102
{ACAD_XDICTIONARY
360
61EB1
102
}
330
55
100
AcDbEntity
 67
     1
  8
0
100
AcDbViewport
 10
150.1652135264906
 20
101.599997546291
 30
0.0
 40
339.1973820494347
 41
164.5360435314421
 68
     0
 69
     0
 12
150.1652135264906
 22
101.599997546291
 13
0.0
 23
0.0
 14
10.0
 24
10.0
 15
10.0
 25
10.0
 16
0.0
 26
0.0
 36
1.0
 17
0.0
 27
0.0
 37
0.0
 42
50.0
 43
0.0
 44
0.0
 45
164.5360435314421
 50
0.0
 51
0.0
 72
  1000
 90
    32864
  1

281
     0
 71
     1
 74
     0
110
0.0
120
0.0
130
0.0
111
1.0
121
0.0
131
0.0
112
0.0
122
1.0
132
0.0
 79
     0
146
0.0
  0
VIEWPORT
  5
73
102
{ACAD_XDICTIONARY
360
61EB3
102
}
330
55
100
AcDbEntity
 67
     1
  8
0
100
AcDbViewport
 10
133.3499939441681
 20
101.5999939441681
 30
0.0
 40
213.3599903106689
 41
162.5599903106689
 68
     0
 69
     0
 12
210.0
 22
148.5
 13
0.0
 23
0.0
 14
10.0
 24
10.0
 15
10.0
 25
10.0
 16
0.0
 26
0.0
 36
1.0
 17
0.0
 27
0.0
 37
0.0
 42
50.0
 43
0.0
 44
0.0
 45
324.0677920111345
 50
0.0
 51
0.0
 72
   100
 90
    32864
  1

281
     0
 71
     1
 74
     0
110
0.0
120
0.0
130
0.0
111
1.0
121
0.0
131
0.0
112
0.0
122
1.0
132
0.0
 79
     0
146
0.0
  0
ENDBLK
  5
58
330
55
100
AcDbEntity
 67
     1
  8
0
100
AcDbBlockEnd
  0
BLOCK
  5
68A
330
680
100
AcDbEntity
  8
0
100
AcDbBlockBegin
  2
zero block
 70
     0
 10
0.0
 20
0.0
 30
0.0
  3
zero block
  1

  0
HATCH
  5
43661
330
680
100
AcDbEntity
  8
0
 62
     7
100
AcDbHatch
 10
0.0
 20
0.0
 30
0.0
210
0.0
220
0.0
230
1.0
  2
SOLID
 70
     1
 71
     0
 91
        2
 92
        7
 72
     1
 73
     1
 93
        3
 10
0.0
 20
0.9999999999999875
 42
0.4142135623730915
 10
-1.0
 20
0.0
 42
0.0
 10
0.0
 20
0.0
 42
0.0
 97
        0
 92
        7
 72
     1
 73
     1
 93
        3
 10
1.000000000000007
 20
0.0
 42
0.0
 10
0.0
 20
0.0
 42
0.0
 10
0.0
 20
-1.0
 42
0.4142135623730974
 97
        0
 75
     0
 76
     1
 47
0.0090601366782909
 98
        2
 10
-0.380591363650975
 20
0.4885804701532896
 10
0.4350764810977559
 20
-0.4536738423704725
1001
AcDbBlockRepETag
1070
     1
1071
        0
1005
43661
  0
LINE
  5
43662
330
680
100
AcDbEntity
  8
0
 62
     7
 48
0.2
100
AcDbLine
 10
-1.0
 20
0.0
 30
0.0
 11
1.000000000000007
 21
0.0
 31
0.0
1001
AcDbBlockRepETag
1070
     1
1071
        1
1005
43662
  0
LINE
  5
43663
330
680
100
AcDbEntity
  8
0
 62
     7
 48
0.2
100
AcDbLine
 10
0.0
 20
-1.0
 30
0.0
 11
0.0
 21
0.9999999999999875
 31
0.0
1001
AcDbBlockRepETag
1070
     1
1071
        2
1005
43663
  0
ARC
  5
43664
330
680
100
AcDbEntity
  8
0
 62
     7
 48
0.2
100
AcDbCircle
 10
0.0
 20
0.0
 30
0.0
 40
1.0
100
AcDbArc
 50
270.0
 51
0.0
1001
AcDbBlockRepETag
1070
     1
1071
        3
1005
43664
  0
ARC
  5
43665
330
680
100
AcDbEntity
  8
0
 62
     7
 48
0.2
100
AcDbCircle
 10
0.0
 20
0.0
 30
0.0
 40
1.0
100
AcDbArc
 50
0.0
 51
90.0
1001
AcDbBlockRepETag
1070
     1
1071
        4
1005
43665
  0
ARC
  5
43666
330
680
100
AcDbEntity
  8
0
 62
     7
 48
0.2
100
AcDbCircle
 10
0.0
 20
0.0
 30
0.0
 40
1.0
100
AcDbArc
 50
180.0
 51
270.0
1001
AcDbBlockRepETag
1070
     1
1071
        5
1005
43666
  0
ARC
  5
43667
330
680
100
AcDbEntity
  8
0
 62
     7
 48
0.2
100
AcDbCircle
 10
0.0
 20
0.0
 30
0.0
 40
1.0
100
AcDbArc
 50
90.0
 51
180.0
1001
AcDbBlockRepETag
1070
     1
1071
        6
1005
43667
  0
ENDBLK
  5
68B
330
680
100
AcDbEntity
  8
0
100
AcDbBlockEnd
  0
BLOCK
  5
698
330
697
100
AcDbEntity
  8
0
  6
ByBlock
 62
     0
370
    -2
100
AcDbBlockBegin
  2
_OPEN30
 70
     2
 10
0.0
 20
0.0
 30
0.0
  3
_OPEN30
  1

  0
LINE
  5
699
330
697
100
AcDbEntity
  8
0
  6
ByBlock
 62
     0
370
    -2
100
AcDbLine
 10
-1.0
 20
0.267949
 30
0.0
 11
0.0
 21
0.0
 31
0.0
  0
LINE
  5
69A
330
697
100
AcDbEntity
  8
0
  6
ByBlock
 62
     0
370
    -2
100
AcDbLine
 10
0.0
 20
0.0
 30
0.0
 11
-1.0
 21
-0.267949
 31
0.0
  0
LINE
  5
69B
330
697
100
AcDbEntity
  8
0
  6
ByBlock
 62
     0
370
    -2
100
AcDbLine
 10
0.0
 20
0.0
 30
0.0
 11
-1.0
 21
0.0
 31
0.0
  0
ENDBLK
  5
69C
330
697
100
AcDbEntity
  8
0
  6
ByBlock
 62
     0
370
    -2
100
AcDbBlockEnd
  0
BLOCK
  5
32F2
330
32F1
100
AcDbEntity
  8
0
100
AcDbBlockBegin
  2
_None
 70
     0
 10
0.0
 20
0.0
 30
0.0
  3
_None
  1

  0
ENDBLK
  5
32F3
330
32F1
100
AcDbEntity
  8
0
100
AcDbBlockEnd
  0
BLOCK
  5
34B2
330
34B1
100
AcDbEntity
  8
0
100
AcDbBlockBegin
  2
_OPEN
 70
     0
 10
0.0
 20
0.0
 30
0.0
  3
_OPEN
  1

  0
LINE
  5
34B3
330
34B1
100
AcDbEntity
  8
0
  6
ByBlock
 62
     0
100
AcDbLine
 10
0.0
 20
0.0
 30
0.0
 11
-1.0
 21
0.1766666667
 31
0.0
  0
LINE
  5
34B4
330
34B1
100
AcDbEntity
  8
0
  6
ByBlock
 62
     0
100
AcDbLine
 10
-1.0
 20
-0.1766666667
 30
0.0
 11
0.0
 21
0.0
 31
0.0
  0
LINE
  5
34B5
330
34B1
100
AcDbEntity
  8
0
  6
ByBlock
 62
     0
100
AcDbLine
 10
-1.0
 20
0.0
 30
0.0
 11
0.0
 21
0.0
 31
0.0
  0
ENDBLK
  5
34B6
330
34B1
100
AcDbEntity
  8
0
  6
ByBlock
 62
     0
100
AcDbBlockEnd
  0
BLOCK
  5
45B11
330
45B07
100
AcDbEntity
  8
0
100
AcDbBlockBegin
  2
*D5
 70
     1
 10
0.0
 20
0.0
 30
0.0
  3
*D5
  1

  0
LINE
  5
5CCE5
330
45B07
100
AcDbEntity
  8
sk2
100
AcDbLine
 10
-0.0000000000000526
 20
-28.49999999999995
 30
0.0
 11
-0.0000000000000538
 21
-48.51991747839992
 31
0.0
  0
LINE
  5
5CCE6
330
45B07
100
AcDbEntity
  8
sk2
100
AcDbLine
 10
30.99999999999995
 20
-8.099999999999972
 30
0.0
 11
30.99999999999994
 21
-48.51991747839992
 31
0.0
  0
LINE
  5
5CCE7
330
45B07
100
AcDbEntity
  8
sk2
100
AcDbLine
 10
3.499999999999946
 20
-47.01991747839993
 30
0.0
 11
27.49999999999995
 21
-47.01991747839993
 31
0.0
  0
SOLID
  5
5CCE8
330
45B07
100
AcDbEntity
  8
sk2
100
AcDbTrace
 10
3.499999999999946
 20
-46.43658414506659
 30
0.0
 11
3.499999999999946
 21
-47.60325081173324
 31
0.0
 12
-0.0000000000000537
 22
-47.01991747839993
 32
0.0
 13
-0.0000000000000537
 23
-47.01991747839993
 33
0.0
  0
SOLID
  5
5CCE9
330
45B07
100
AcDbEntity
  8
sk2
100
AcDbTrace
 10
27.49999999999995
 20
-46.43658414506659
 30
0.0
 11
27.49999999999995
 21
-47.60325081173324
 31
0.0
 12
30.99999999999994
 22
-47.01991747839993
 32
0.0
 13
30.99999999999994
 23
-47.01991747839993
 33
0.0
  0
MTEXT
  5
5CCEA
330
45B07
100
AcDbEntity
  8
sk2
100
AcDbMText
 10
15.49999999999994
 20
-42.96991747839992
 30
0.0
 40
3.5
 41
0.0
 71
     5
 72
     1
  1
\A1;31
  7
simplex
 73
     1
 44
1.0
1001
ACAD
1000
MTEXTBEGIN
1070
    73
1070
     1
1070
    44
1040
1.0
1070
    74
1070
     0
1000
MTEXTEND
  0
POINT
  5
5CCEB
330
45B07
100
AcDbEntity
  8
Defpoints
 62
     0
100
AcDbPoint
 10
-0.0000000000000526
 20
-28.49999999999995
 30
0.0
  0
POINT
  5
5CCEC
330
45B07
100
AcDbEntity
  8
Defpoints
 62
     0
100
AcDbPoint
 10
30.99999999999995
 20
-8.099999999999972
 30
0.0
  0
POINT
  5
5CCED
330
45B07
100
AcDbEntity
  8
Defpoints
 62
     0
100
AcDbPoint
 10
30.99999999999994
 20
-47.01991747839993
 30
0.0
  0
ENDBLK
  5
45B12
330
45B07
100
AcDbEntity
  8
0
100
AcDbBlockEnd
  0
BLOCK
  5
45B29
330
45B1F
100
AcDbEntity
  8
0
100
AcDbBlockBegin
  2
*D6
 70
     1
 10
0.0
 20
0.0
 30
0.0
  3
*D6
  1

  0
LINE
  5
475A2
330
45B1F
100
AcDbEntity
  8
2
100
AcDbLine
 10
46.67862375679994
 20
31.50000000000006
 30
0.0
 11
83.68825656423609
 21
31.50000000000004
 31
0.0
  0
LINE
  5
475A3
330
45B1F
100
AcDbEntity
  8
2
100
AcDbLine
 10
82.18825656423609
 20
-31.49999999999995
 30
0.0
 11
82.18825656423609
 21
28.00000000000004
 31
0.0
  0
SOLID
  5
475A4
330
45B1F
100
AcDbEntity
  8
2
100
AcDbTrace
 10
81.60492323090277
 20
28.00000000000004
 30
0.0
 11
82.77158989756944
 21
28.00000000000004
 31
0.0
 12
82.18825656423609
 22
31.50000000000004
 32
0.0
 13
82.18825656423609
 23
31.50000000000004
 33
0.0
  0
MTEXT
  5
475A5
330
45B1F
100
AcDbEntity
  8
2
100
AcDbMText
 10
78.1382565642361
 20
-1.749999999999953
 30
0.0
 40
3.5
 41
0.0
 71
     5
 72
     1
  1
\A1;%%C63
  7
simplex
 11
0.0000000000000001
 21
1.0
 31
0.0
 73
     1
 44
1.0
1001
ACAD
1000
MTEXTBEGIN
1070
    73
1070
     1
1070
    44
1040
1.0
1070
    74
1070
     0
1000
MTEXTEND
  0
POINT
  5
475A6
330
45B1F
100
AcDbEntity
  8
Defpoints
 62
     0
100
AcDbPoint
 10
82.95119073979995
 20
-31.49999999999995
 30
0.0
  0
POINT
  5
475A7
330
45B1F
100
AcDbEntity
  8
Defpoints
 62
     0
100
AcDbPoint
 10
46.67862375679994
 20
31.50000000000006
 30
0.0
  0
POINT
  5
475A8
330
45B1F
100
AcDbEntity
  8
Defpoints
 62
     0
100
AcDbPoint
 10
82.18825656423609
 20
31.50000000000004
 30
0.0
  0
ENDBLK
  5
45B2A
330
45B1F
100
AcDbEntity
  8
0
100
AcDbBlockEnd
  0
BLOCK
  5
608E3
330
608D9
100
AcDbEntity
  8
0
100
AcDbBlockBegin
  2
*D7
 70
     1
 10
0.0
 20
0.0
 30
0.0
  3
*D7
  1

  0
LINE
  5
61E0D
330
608D9
100
AcDbEntity
  8
2
100
AcDbLine
 10
50.72185279433711
 20
17.68
 30
0.0
 11
76.56447778361417
 21
17.67999999999999
 31
0.0
  0
LINE
  5
61E0E
330
608D9
100
AcDbEntity
  8
2
100
AcDbLine
 10
75.06447778361416
 20
14.17999999999999
 30
0.0
 11
75.06447778361416
 21
-17.68000000000004
 31
0.0
  0
SOLID
  5
61E0F
330
608D9
100
AcDbEntity
  8
2
100
AcDbTrace
 10
74.48114445028085
 20
14.17999999999999
 30
0.0
 11
75.64781111694749
 21
14.17999999999999
 31
0.0
 12
75.06447778361416
 22
17.67999999999999
 32
0.0
 13
75.06447778361416
 23
17.67999999999999
 33
0.0
  0
MTEXT
  5
61E10
330
608D9
100
AcDbEntity
  8
2
100
AcDbMText
 10
71.01447778361417
 20
-7.697690027855286
 30
0.0
 40
3.5
 41
0.0
 71
     5
 72
     1
  1
\A1;%%C35.36 [%%C1.392"]
  7
simplex
 11
0.0000000000000001
 21
1.0
 31
0.0
 73
     1
 44
1.0
1001
ACAD
1000
MTEXTBEGIN
1070
    73
1070
     1
1070
    44
1040
1.0
1070
    74
1070
     0
1000
MTEXTEND
  0
POINT
  5
61E11
330
608D9
100
AcDbEntity
  8
Defpoints
 62
     0
100
AcDbPoint
 10
50.72185279433711
 20
17.68
 30
0.0
  0
POINT
  5
61E12
330
608D9
100
AcDbEntity
  8
Defpoints
 62
     0
100
AcDbPoint
 10
50.72185279433695
 20
-17.68000000000003
 30
0.0
  0
POINT
  5
61E13
330
608D9
100
AcDbEntity
  8
Defpoints
 62
     0
100
AcDbPoint
 10
75.06447778361416
 20
-17.68000000000004
 30
0.0
  0
ENDBLK
  5
608E4
330
608D9
100
AcDbEntity
  8
0
100
AcDbBlockEnd
  0
BLOCK
  5
608FB
330
608F1
100
AcDbEntity
  8
0
100
AcDbBlockBegin
  2
*D8
 70
     1
 10
0.0
 20
0.0
 30
0.0
  3
*D8
  1

  0
LINE
  5
6153E
330
608F1
100
AcDbEntity
  8
2
100
AcDbLine
 10
47.42717805819861
 20
25.4
 30
0.0
 11
89.58506974414797
 21
25.39999999999999
 31
0.0
  0
LINE
  5
6153F
330
608F1
100
AcDbEntity
  8
2
100
AcDbLine
 10
88.08506974414797
 20
21.89999999999999
 30
0.0
 11
88.08506974414797
 21
-25.40000000000001
 31
0.0
  0
SOLID
  5
61540
330
608F1
100
AcDbEntity
  8
2
100
AcDbTrace
 10
87.50173641081465
 20
21.89999999999999
 30
0.0
 11
88.66840307748129
 21
21.89999999999999
 31
0.0
 12
88.08506974414797
 22
25.39999999999999
 32
0.0
 13
88.08506974414797
 23
25.39999999999999
 33
0.0
  0
MTEXT
  5
61541
330
608F1
100
AcDbEntity
  8
2
100
AcDbMText
 10
84.03506974414797
 20
-1.042124427712449
 30
0.0
 40
3.5
 41
0.0
 71
     5
 72
     1
  1
\A1;%%C50.8 [%%C2.000"]
  7
simplex
 11
0.0000000000000001
 21
1.0
 31
0.0
 73
     1
 44
1.0
1001
ACAD
1000
MTEXTBEGIN
1070
    73
1070
     1
1070
    44
1040
1.0
1070
    74
1070
     0
1000
MTEXTEND
  0
POINT
  5
61542
330
608F1
100
AcDbEntity
  8
Defpoints
 62
     0
100
AcDbPoint
 10
47.42717805819861
 20
25.4
 30
0.0
  0
POINT
  5
61543
330
608F1
100
AcDbEntity
  8
Defpoints
 62
     0
100
AcDbPoint
 10
48.7
 20
-25.4
 30
0.0
  0
POINT
  5
61544
330
608F1
100
AcDbEntity
  8
Defpoints
 62
     0
100
AcDbPoint
 10
88.08506974414797
 20
-25.40000000000001
 30
0.0
  0
ENDBLK
  5
608FC
330
608F1
100
AcDbEntity
  8
0
100
AcDbBlockEnd
  0
BLOCK
  5
60913
330
60909
100
AcDbEntity
  8
0
100
AcDbBlockBegin
  2
*D9
 70
     1
 10
0.0
 20
0.0
 30
0.0
  3
*D9
  1

  0
LINE
  5
613CF
330
60909
100
AcDbEntity
  8
sk2
100
AcDbLine
 10
3.5
 20
9.5249999989
 30
0.0
 11
-18.83581029542597
 21
9.524999998900003
 31
0.0
  0
LINE
  5
613D0
330
60909
100
AcDbEntity
  8
sk2
100
AcDbLine
 10
3.5
 20
-9.5249999989
 30
0.0
 11
-18.83581029542597
 21
-9.524999998899993
 31
0.0
  0
LINE
  5
613D1
330
60909
100
AcDbEntity
  8
sk2
100
AcDbLine
 10
-17.33581029542597
 20
6.024999998900003
 30
0.0
 11
-17.33581029542597
 21
-6.024999998899994
 31
0.0
  0
SOLID
  5
613D2
330
60909
100
AcDbEntity
  8
sk2
100
AcDbTrace
 10
-17.9191436287593
 20
6.024999998900003
 30
0.0
 11
-16.75247696209264
 21
6.024999998900003
 31
0.0
 12
-17.33581029542597
 22
9.524999998900003
 32
0.0
 13
-17.33581029542597
 23
9.524999998900003
 33
0.0
  0
SOLID
  5
613D3
330
60909
100
AcDbEntity
  8
sk2
100
AcDbTrace
 10
-17.9191436287593
 20
-6.024999998899994
 30
0.0
 11
-16.75247696209264
 21
-6.024999998899994
 31
0.0
 12
-17.33581029542597
 22
-9.524999998899993
 32
0.0
 13
-17.33581029542597
 23
-9.524999998899993
 33
0.0
  0
MTEXT
  5
613D4
330
60909
100
AcDbEntity
  8
sk2
100
AcDbMText
 10
-21.38581029542597
 20
0.0000000000000033
 30
0.0
 40
3.5
 41
0.0
 71
     5
 72
     1
  1
\A1;%%C19.05 [%%c.750"]
  7
simplex
 11
0.0000000000000001
 21
1.0
 31
0.0
 73
     1
 44
1.0
1001
ACAD
1000
MTEXTBEGIN
1070
    73
1070
     1
1070
    44
1040
1.0
1070
    74
1070
     0
1000
MTEXTEND
  0
POINT
  5
613D5
330
60909
100
AcDbEntity
  8
Defpoints
 62
     0
100
AcDbPoint
 10
3.5
 20
9.5249999989
 30
0.0
  0
POINT
  5
613D6
330
60909
100
AcDbEntity
  8
Defpoints
 62
     0
100
AcDbPoint
 10
3.5
 20
-9.5249999989
 30
0.0
  0
POINT
  5
613D7
330
60909
100
AcDbEntity
  8
Defpoints
 62
     0
100
AcDbPoint
 10
-17.33581029542597
 20
-9.524999998899993
 30
0.0
  0
ENDBLK
  5
60914
330
60909
100
AcDbEntity
  8
0
100
AcDbBlockEnd
  0
BLOCK
  5
6092B
330
60921
100
AcDbEntity
  8
0
100
AcDbBlockBegin
  2
*D10
 70
     1
 10
0.0
 20
0.0
 30
0.0
  3
*D10
  1

  0
LINE
  5
613D8
330
60921
100
AcDbEntity
  8
sk2
100
AcDbLine
 10
1.5
 20
22.22500000000002
 30
0.0
 11
-33.55086043353003
 21
22.22500000000003
 31
0.0
  0
LINE
  5
613D9
330
60921
100
AcDbEntity
  8
sk2
100
AcDbLine
 10
1.5
 20
-22.225
 30
0.0
 11
-33.55086043353004
 21
-22.22499999999998
 31
0.0
  0
LINE
  5
613DA
330
60921
100
AcDbEntity
  8
sk2
100
AcDbLine
 10
-32.05086043353003
 20
18.72500000000003
 30
0.0
 11
-32.05086043353004
 21
-18.72499999999998
 31
0.0
  0
SOLID
  5
613DB
330
60921
100
AcDbEntity
  8
sk2
100
AcDbTrace
 10
-32.63419376686336
 20
18.72500000000003
 30
0.0
 11
-31.4675271001967
 21
18.72500000000003
 31
0.0
 12
-32.05086043353003
 22
22.22500000000003
 32
0.0
 13
-32.05086043353003
 23
22.22500000000003
 33
0.0
  0
SOLID
  5
613DC
330
60921
100
AcDbEntity
  8
sk2
100
AcDbTrace
 10
-32.63419376686338
 20
-18.72499999999998
 30
0.0
 11
-31.46752710019671
 21
-18.72499999999998
 31
0.0
 12
-32.05086043353004
 22
-22.22499999999998
 32
0.0
 13
-32.05086043353004
 23
-22.22499999999998
 33
0.0
  0
MTEXT
  5
613DD
330
60921
100
AcDbEntity
  8
sk2
100
AcDbMText
 10
-36.10086043353003
 20
0.0000000000000202
 30
0.0
 40
3.5
 41
0.0
 71
     5
 72
     1
  1
\A1;%%C44.45 [%%c1.750"]
  7
simplex
 11
0.0000000000000001
 21
1.0
 31
0.0
 73
     1
 44
1.0
1001
ACAD
1000
MTEXTBEGIN
1070
    73
1070
     1
1070
    44
1040
1.0
1070
    74
1070
     0
1000
MTEXTEND
  0
POINT
  5
613DE
330
60921
100
AcDbEntity
  8
Defpoints
 62
     0
100
AcDbPoint
 10
1.5
 20
22.22500000000002
 30
0.0
  0
POINT
  5
613DF
330
60921
100
AcDbEntity
  8
Defpoints
 62
     0
100
AcDbPoint
 10
1.5
 20
-22.225
 30
0.0
  0
POINT
  5
613E0
330
60921
100
AcDbEntity
  8
Defpoints
 62
     0
100
AcDbPoint
 10
-32.05086043353004
 20
-22.22499999999998
 30
0.0
  0
ENDBLK
  5
6092C
330
60921
100
AcDbEntity
  8
0
100
AcDbBlockEnd
  0
BLOCK
  5
60943
330
60939
100
AcDbEntity
  8
0
100
AcDbBlockBegin
  2
*D11
 70
     1
 10
0.0
 20
0.0
 30
0.0
  3
*D11
  1

  0
LINE
  5
61DF3
330
60939
100
AcDbEntity
  8
sk2
100
AcDbLine
 10
0.0
 20
-20.72499999999999
 30
0.0
 11
-0.0000000000000015
 21
-46.02490261997752
 31
0.0
  0
LINE
  5
61DF4
330
60939
100
AcDbEntity
  8
sk2
100
AcDbLine
 10
21.79999999999996
 20
-9.0
 30
0.0
 11
21.79999999999995
 21
-46.02490261997752
 31
0.0
  0
LINE
  5
61DF5
330
60939
100
AcDbEntity
  8
sk2
100
AcDbLine
 10
18.29999999999995
 20
-44.52490261997752
 30
0.0
 11
3.499999999999998
 21
-44.52490261997752
 31
0.0
  0
LINE
  5
61DF6
330
60939
100
AcDbEntity
  8
sk2
100
AcDbLine
 10
-0.0000000000000015
 20
-44.52490261997752
 30
0.0
 11
-41.05833333333332
 21
-44.52490261997752
 31
0.0
  0
SOLID
  5
61DF7
330
60939
100
AcDbEntity
  8
sk2
100
AcDbTrace
 10
18.29999999999995
 20
-43.94156928664417
 30
0.0
 11
18.29999999999995
 21
-45.10823595331086
 31
0.0
 12
21.79999999999995
 22
-44.52490261997752
 32
0.0
 13
21.79999999999995
 23
-44.52490261997752
 33
0.0
  0
SOLID
  5
61DF8
330
60939
100
AcDbEntity
  8
sk2
100
AcDbTrace
 10
3.499999999999998
 20
-43.94156928664417
 30
0.0
 11
3.499999999999998
 21
-45.10823595331086
 31
0.0
 12
-0.0000000000000015
 22
-44.52490261997752
 32
0.0
 13
-0.0000000000000015
 23
-44.52490261997752
 33
0.0
  0
MTEXT
  5
61DF9
330
60939
100
AcDbEntity
  8
sk2
100
AcDbMText
 10
-23.00833333333333
 20
-40.47490261997753
 30
0.0
 40
3.5
 41
0.0
 71
     5
 72
     1
  1
\A1;21.8 [.858"]
  7
simplex
 73
     1
 44
1.0
1001
ACAD
1000
MTEXTBEGIN
1070
    73
1070
     1
1070
    44
1040
1.0
1070
    74
1070
     0
1000
MTEXTEND
  0
POINT
  5
61DFA
330
60939
100
AcDbEntity
  8
Defpoints
 62
     0
100
AcDbPoint
 10
0.0
 20
-20.72499999999999
 30
0.0
  0
POINT
  5
61DFB
330
60939
100
AcDbEntity
  8
Defpoints
 62
     0
100
AcDbPoint
 10
21.79999999999996
 20
-9.0
 30
0.0
  0
POINT
  5
61DFC
330
60939
100
AcDbEntity
  8
Defpoints
 62
     0
100
AcDbPoint
 10
21.79999999999995
 20
-44.52490261997752
 30
0.0
  0
ENDBLK
  5
60944
330
60939
100
AcDbEntity
  8
0
100
AcDbBlockEnd
  0
BLOCK
  5
60976
330
6096B
100
AcDbEntity
  8
0
100
AcDbBlockBegin
  2
*D12
 70
     1
 10
0.0
 20
0.0
 30
0.0
  3
*D12
  1

  0
LINE
  5
61577
330
6096B
100
AcDbEntity
  8
2
100
AcDbLine
 10
50.8
 20
17.23064007435306
 30
0.0
 11
50.8
 21
47.7076906433345
 31
0.0
  0
LINE
  5
61578
330
6096B
100
AcDbEntity
  8
2
100
AcDbLine
 10
48.79999999999999
 20
24.06499907330295
 30
0.0
 11
48.79999999999999
 21
47.7076906433345
 31
0.0
  0
LINE
  5
61579
330
6096B
100
AcDbEntity
  8
2
100
AcDbLine
 10
54.29999999999999
 20
46.2076906433345
 30
0.0
 11
57.8
 21
46.2076906433345
 31
0.0
  0
LINE
  5
6157A
330
6096B
100
AcDbEntity
  8
2
100
AcDbLine
 10
45.3
 20
46.2076906433345
 30
0.0
 11
-77.71666666666665
 21
46.2076906433345
 31
0.0
  0
SOLID
  5
6157B
330
6096B
100
AcDbEntity
  8
2
100
AcDbTrace
 10
54.29999999999999
 20
46.79102397666784
 30
0.0
 11
54.29999999999999
 21
45.62435731000117
 31
0.0
 12
50.8
 22
46.2076906433345
 32
0.0
 13
50.8
 23
46.2076906433345
 33
0.0
  0
SOLID
  5
6157C
330
6096B
100
AcDbEntity
  8
2
100
AcDbTrace
 10
45.3
 20
46.79102397666784
 30
0.0
 11
45.3
 21
45.62435731000117
 31
0.0
 12
48.79999999999999
 22
46.2076906433345
 32
0.0
 13
48.79999999999999
 23
46.2076906433345
 33
0.0
  0
MTEXT
  5
6157D
330
6096B
100
AcDbEntity
  8
2
100
AcDbMText
 10
-17.95833333333333
 20
50.2576906433345
 30
0.0
 40
3.5
 41
0.0
 71
     5
 72
     1
  1
\A1;2 [.079"](APMX AT HIGH FEED PROCESS)
  7
simplex
 73
     1
 44
1.0
1001
ACAD
1000
MTEXTBEGIN
1070
    73
1070
     1
1070
    44
1040
1.0
1070
    74
1070
     0
1000
MTEXTEND
  0
POINT
  5
6157E
330
6096B
100
AcDbEntity
  8
Defpoints
 62
     0
100
AcDbPoint
 10
50.8
 20
17.23064007435306
 30
0.0
  0
POINT
  5
6157F
330
6096B
100
AcDbEntity
  8
Defpoints
 62
     0
100
AcDbPoint
 10
48.79999999999999
 20
24.06499907330295
 30
0.0
  0
POINT
  5
61580
330
6096B
100
AcDbEntity
  8
Defpoints
 62
     0
100
AcDbPoint
 10
48.79999999999999
 20
46.2076906433345
 30
0.0
  0
ENDBLK
  5
60977
330
6096B
100
AcDbEntity
  8
0
100
AcDbBlockEnd
  0
BLOCK
  5
60990
330
60985
100
AcDbEntity
  8
0
100
AcDbBlockBegin
  2
*D13
 70
     1
 10
0.0
 20
0.0
 30
0.0
  3
*D13
  1

  0
LINE
  5
61E1E
330
60985
100
AcDbEntity
  8
2
100
AcDbLine
 10
50.8
 20
17.23064007435306
 30
0.0
 11
50.8
 21
60.03842767741565
 31
0.0
  0
LINE
  5
61E1F
330
60985
100
AcDbEntity
  8
2
100
AcDbLine
 10
47.8
 20
24.95511108440877
 30
0.0
 11
47.8
 21
60.03842767741565
 31
0.0
  0
LINE
  5
61E20
330
60985
100
AcDbEntity
  8
2
100
AcDbLine
 10
54.29999999999999
 20
58.53842767741564
 30
0.0
 11
57.8
 21
58.53842767741564
 31
0.0
  0
LINE
  5
61E21
330
60985
100
AcDbEntity
  8
2
100
AcDbLine
 10
44.29999999999998
 20
58.53842767741564
 30
0.0
 11
-1.716666666666661
 21
58.53842767741564
 31
0.0
  0
SOLID
  5
61E22
330
60985
100
AcDbEntity
  8
2
100
AcDbTrace
 10
54.29999999999999
 20
59.12176101074898
 30
0.0
 11
54.29999999999999
 21
57.95509434408231
 31
0.0
 12
50.8
 22
58.53842767741564
 32
0.0
 13
50.8
 23
58.53842767741564
 33
0.0
  0
SOLID
  5
61E23
330
60985
100
AcDbEntity
  8
2
100
AcDbTrace
 10
44.29999999999998
 20
59.12176101074898
 30
0.0
 11
44.29999999999998
 21
57.95509434408231
 31
0.0
 12
47.8
 22
58.53842767741564
 32
0.0
 13
47.8
 23
58.53842767741564
 33
0.0
  0
MTEXT
  5
61E24
330
60985
100
AcDbEntity
  8
2
100
AcDbMText
 10
18.66666666666667
 20
62.58842767741565
 30
0.0
 40
3.5
 41
0.0
 71
     5
 72
     1
  1
\A1;APMX3 [.118"]
  7
simplex
 73
     1
 44
1.0
1001
ACAD
1000
MTEXTBEGIN
1070
    73
1070
     1
1070
    44
1040
1.0
1070
    74
1070
     0
1000
MTEXTEND
  0
POINT
  5
61E25
330
60985
100
AcDbEntity
  8
Defpoints
 62
     0
100
AcDbPoint
 10
50.8
 20
17.23064007435306
 30
0.0
  0
POINT
  5
61E26
330
60985
100
AcDbEntity
  8
Defpoints
 62
     0
100
AcDbPoint
 10
47.8
 20
24.95511108440877
 30
0.0
  0
POINT
  5
61E27
330
60985
100
AcDbEntity
  8
Defpoints
 62
     0
100
AcDbPoint
 10
47.8
 20
58.53842767741564
 30
0.0
  0
ENDBLK
  5
60991
330
60985
100
AcDbEntity
  8
0
100
AcDbBlockEnd
  0
BLOCK
  5
609A9
330
6099F
100
AcDbEntity
  8
0
100
AcDbBlockBegin
  2
*D14
 70
     1
 10
0.0
 20
0.0
 30
0.0
  3
*D14
  1

  0
LINE
  5
61594
330
6099F
100
AcDbEntity
  8
2
100
AcDbLine
 10
50.8
 20
17.23064007435306
 30
0.0
 11
50.8
 21
72.39384388109414
 31
0.0
  0
LINE
  5
61595
330
6099F
100
AcDbEntity
  8
2
100
AcDbLine
 10
0.0
 20
20.72500000000002
 30
0.0
 11
0.0000000000000032
 21
72.39384388109414
 31
0.0
  0
LINE
  5
61596
330
6099F
100
AcDbEntity
  8
2
100
AcDbLine
 10
47.29999999999999
 20
70.89384388109414
 30
0.0
 11
3.500000000000003
 21
70.89384388109414
 31
0.0
  0
SOLID
  5
61597
330
6099F
100
AcDbEntity
  8
2
100
AcDbTrace
 10
47.29999999999999
 20
71.47717721442747
 30
0.0
 11
47.29999999999999
 21
70.31051054776082
 31
0.0
 12
50.8
 22
70.89384388109414
 32
0.0
 13
50.8
 23
70.89384388109414
 33
0.0
  0
SOLID
  5
61598
330
6099F
100
AcDbEntity
  8
2
100
AcDbTrace
 10
3.500000000000003
 20
71.47717721442747
 30
0.0
 11
3.500000000000003
 21
70.31051054776082
 31
0.0
 12
0.0000000000000031
 22
70.89384388109414
 32
0.0
 13
0.0000000000000031
 23
70.89384388109414
 33
0.0
  0
MTEXT
  5
61599
330
6099F
100
AcDbEntity
  8
2
100
AcDbMText
 10
26.38026214938645
 20
74.94384388109414
 30
0.0
 40
3.5
 41
0.0
 71
     5
 72
     1
  1
\A1;50.8 [2.000"]
  7
simplex
 73
     1
 44
1.0
1001
ACAD
1000
MTEXTBEGIN
1070
    73
1070
     1
1070
    44
1040
1.0
1070
    74
1070
     0
1000
MTEXTEND
  0
POINT
  5
6159A
330
6099F
100
AcDbEntity
  8
Defpoints
 62
     0
100
AcDbPoint
 10
50.8
 20
17.23064007435306
 30
0.0
  0
POINT
  5
6159B
330
6099F
100
AcDbEntity
  8
Defpoints
 62
     0
100
AcDbPoint
 10
0.0
 20
20.72500000000002
 30
0.0
  0
POINT
  5
6159C
330
6099F
100
AcDbEntity
  8
Defpoints
 62
     0
100
AcDbPoint
 10
0.0000000000000031
 20
70.89384388109414
 30
0.0
  0
ENDBLK
  5
609AA
330
6099F
100
AcDbEntity
  8
0
100
AcDbBlockEnd
  0
BLOCK
  5
6155B
330
61553
100
AcDbEntity
  8
0
100
AcDbBlockBegin
  2
*D15
 70
     1
 10
0.0
 20
0.0
 30
0.0
  3
*D15
  1

  0
LINE
  5
615AD
330
61553
100
AcDbEntity
  8
2
100
AcDbLine
 10
90.89928324062125
 20
45.39402593767554
 30
0.0
 11
51.87498208191454
 21
25.73642848091681
 31
0.0
  0
MTEXT
  5
615AE
330
61553
100
AcDbEntity
  8
2
100
AcDbMText
 10
71.65455939558414
 20
40.2347456029094
 30
0.0
 40
3.5
 41
0.0
 71
     5
 72
     1
  1
\A1;R1.5 [R.059"]
  7
simplex
 11
0.893091775480644
 21
0.4498745164696827
 31
0.0
 73
     1
 44
1.0
1001
ACAD
1000
MTEXTBEGIN
1070
    73
1070
     1
1070
    44
1040
1.0
1070
    74
1070
     0
1000
MTEXTEND
  0
SOLID
  5
615AF
330
61553
100
AcDbEntity
  8
2
100
AcDbTrace
 10
51.61255528064057
 20
26.25739868328052
 30
0.0
 11
52.13740888318852
 21
25.2154582785531
 31
0.0
 12
48.74916086773229
 22
24.16186767327292
 32
0.0
 13
48.74916086773229
 23
24.16186767327292
 33
0.0
  0
LINE
  5
615B0
330
61553
100
AcDbEntity
  8
2
100
AcDbLine
 10
47.31952320451109
 20
23.48705589856828
 30
0.0
 11
47.4995232045111
 21
23.48705589856828
 31
0.0
  0
LINE
  5
615B1
330
61553
100
AcDbEntity
  8
2
100
AcDbLine
 10
47.40952320451111
 20
23.39705589856829
 30
0.0
 11
47.40952320451111
 21
23.57705589856829
 31
0.0
  0
POINT
  5
615B2
330
61553
100
AcDbEntity
  8
Defpoints
 62
     0
100
AcDbPoint
 10
48.74916086773229
 20
24.16186767327292
 30
0.0
  0
POINT
  5
615B3
330
61553
100
AcDbEntity
  8
Defpoints
 62
     0
100
AcDbPoint
 10
47.40952320451111
 20
23.48705589856828
 30
0.0
  0
ENDBLK
  5
6155C
330
61553
100
AcDbEntity
  8
0
100
AcDbBlockEnd
  0
BLOCK
  5
619AF
330
619A4
100
AcDbEntity
  8
0
100
AcDbBlockBegin
  2
*D16
 70
     1
 10
0.0
 20
0.0
 30
0.0
  3
*D16
  1

  0
LINE
  5
619DB
330
619A4
100
AcDbEntity
  8
2
100
AcDbLine
 10
50.8
 20
17.2306400794311
 30
0.0
 11
50.79999999999999
 21
-46.02490261997752
 31
0.0
  0
LINE
  5
619DC
330
619A4
100
AcDbEntity
  8
2
100
AcDbLine
 10
48.7
 20
10.98382363659772
 30
0.0
 11
48.7
 21
-46.02490261997752
 31
0.0
  0
LINE
  5
619DD
330
619A4
100
AcDbEntity
  8
2
100
AcDbLine
 10
45.19999999999998
 20
-44.52490261997752
 30
0.0
 11
41.69999999999999
 21
-44.52490261997752
 31
0.0
  0
LINE
  5
619DE
330
619A4
100
AcDbEntity
  8
2
100
AcDbLine
 10
54.29999999999999
 20
-44.52490261997752
 30
0.0
 11
104.9833333333333
 21
-44.52490261997752
 31
0.0
  0
SOLID
  5
619DF
330
619A4
100
AcDbEntity
  8
2
100
AcDbTrace
 10
45.19999999999998
 20
-43.94156928664417
 30
0.0
 11
45.19999999999998
 21
-45.10823595331086
 31
0.0
 12
48.7
 22
-44.52490261997752
 32
0.0
 13
48.7
 23
-44.52490261997752
 33
0.0
  0
SOLID
  5
619E0
330
619A4
100
AcDbEntity
  8
2
100
AcDbTrace
 10
54.29999999999999
 20
-43.94156928664417
 30
0.0
 11
54.29999999999999
 21
-45.10823595331086
 31
0.0
 12
50.79999999999999
 22
-44.52490261997752
 32
0.0
 13
50.79999999999999
 23
-44.52490261997752
 33
0.0
  0
MTEXT
  5
619E1
330
619A4
100
AcDbEntity
  8
2
100
AcDbMText
 10
81.39166666666666
 20
-40.47490261997753
 30
0.0
 40
3.5
 41
0.0
 71
     5
 72
     1
  1
\A1;2.1 [.083"](MAX)
  7
simplex
 73
     1
 44
1.0
1001
ACAD
1000
MTEXTBEGIN
1070
    73
1070
     1
1070
    44
1040
1.0
1070
    74
1070
     0
1000
MTEXTEND
  0
POINT
  5
619E2
330
619A4
100
AcDbEntity
  8
Defpoints
 62
     0
100
AcDbPoint
 10
50.8
 20
17.2306400794311
 30
0.0
  0
POINT
  5
619E3
330
619A4
100
AcDbEntity
  8
Defpoints
 62
     0
100
AcDbPoint
 10
48.7
 20
10.98382363659772
 30
0.0
  0
POINT
  5
619E4
330
619A4
100
AcDbEntity
  8
Defpoints
 62
     0
100
AcDbPoint
 10
48.7
 20
-44.52490261997752
 30
0.0
  0
ENDBLK
  5
619B0
330
619A4
100
AcDbEntity
  8
0
100
AcDbBlockEnd
  0
ENDSEC
  0
SECTION
  2
ENTITIES
  0
INSERT
  5
68C
330
1F
100
AcDbEntity
  8
0
100
AcDbBlockReference
  2
zero block
 10
0.0000000000000072
 20
0.0
 30
0.0
 50
180.0
  0
MTEXT
  5
5CD11
330
1F
100
AcDbEntity
  8
sk6
100
AcDbMText
 10
-11.46704854127563
 20
94.67306215801505
 30
0.0
 40
5.0
 41
85.25075165579854
 71
     1
 72
     5
  1
WJX14UR2_0003AA
  7
simplex
 73
     1
 44
1.0
1001
ACAD
1000
ACAD_MTEXT_DEFINED_HEIGHT_BEGIN
1070
    46
1040
0.0
1000
ACAD_MTEXT_DEFINED_HEIGHT_END
1000
MTEXTBEGIN
1070
    73
1070
     1
1070
    44
1040
1.0
1070
    74
1070
     0
1000
MTEXTEND
  0
DIMENSION
  5
608D8
330
1F
100
AcDbEntity
  8
2
100
AcDbDimension
  2
*D7
 10
75.06447778361416
 20
-17.68000000000004
 30
0.0
 11
75.06447778361416
 21
-7.697690027855286
 31
0.0
 70
   160
  1
%%C<>
 71
     5
 42
35.36000000000004
  3
\M+18352\M+18373\M+1815B - ISO-25
100
AcDbAlignedDimension
 13
50.72185279433711
 23
17.68
 33
0.0
 14
50.72185279433695
 24
-17.68000000000003
 34
0.0
 50
90.0
100
AcDbRotatedDimension
1001
ACAD
1000
DSTYLE
1002
{
1070
     4
1000
%%C[]"
1070
    40
1040
1.0
1070
    76
1070
     1
1070
   143
1040
0.0393700787401575
1070
   170
1070
     1
1070
   171
1070
     3
1070
   173
1070
     1
1070
   271
1070
     8
1070
   285
1070
     4
1070
   344
1005
32F1
1002
}
  0
DIMENSION
  5
608F0
330
1F
100
AcDbEntity
  8
2
100
AcDbDimension
  2
*D8
 10
88.08506974414797
 20
-25.40000000000001
 30
0.0
 11
88.08506974414797
 21
-1.042124427712449
 31
0.0
 70
   160
  1
%%C<>
 71
     5
 42
50.8
  3
\M+18352\M+18373\M+1815B - ISO-25
100
AcDbAlignedDimension
 13
47.42717805819861
 23
25.4
 33
0.0
 14
48.7
 24
-25.4
 34
0.0
 50
90.0
100
AcDbRotatedDimension
1001
ACAD
1000
DSTYLE
1002
{
1070
     4
1000
%%C[]"
1070
    40
1040
1.0
1070
    76
1070
     1
1070
   143
1040
0.0393700787401575
1070
   170
1070
     1
1070
   171
1070
     3
1070
   173
1070
     1
1070
   271
1070
     8
1070
   285
1070
     4
1070
   344
1005
32F1
1002
}
  0
DIMENSION
  5
60908
330
1F
100
AcDbEntity
  8
sk2
100
AcDbDimension
  2
*D9
 10
-17.33581029542597
 20
-9.524999998899993
 30
0.0
 11
-17.33581029542597
 21
0.0000000000000028
 31
0.0
 70
   160
  1
%%C<>
 71
     5
 42
19.0499999978
  3
\M+18352\M+18373\M+1815B - ISO-25
100
AcDbAlignedDimension
 13
3.5
 23
9.5249999989
 33
0.0
 14
3.5
 24
-9.5249999989
 34
0.0
 50
90.0
100
AcDbRotatedDimension
1001
ACAD
1000
DSTYLE
1002
{
1070
     4
1000
%%c[]"
1070
    40
1040
1.0
1070
   143
1040
0.0393700787401575
1070
   170
1070
     1
1070
   171
1070
     3
1070
   271
1070
     8
1070
   285
1070
     4
1002
}
  0
DIMENSION
  5
60920
330
1F
100
AcDbEntity
  8
sk2
100
AcDbDimension
  2
*D10
 10
-32.05086043353004
 20
-22.22499999999998
 30
0.0
 11
-32.05086043353003
 21
0.0000000000000197
 31
0.0
 70
   160
  1
%%C<>
 71
     5
 42
44.45000000000002
  3
\M+18352\M+18373\M+1815B - ISO-25
100
AcDbAlignedDimension
 13
1.5
 23
22.22500000000002
 33
0.0
 14
1.5
 24
-22.225
 34
0.0
 50
90.0
100
AcDbRotatedDimension
1001
ACAD
1000
DSTYLE
1002
{
1070
     4
1000
%%c[]"
1070
    40
1040
1.0
1070
   143
1040
0.0393700787401575
1070
   170
1070
     1
1070
   171
1070
     3
1070
   271
1070
     8
1070
   285
1070
     4
1002
}
  0
DIMENSION
  5
60938
330
1F
100
AcDbEntity
  8
sk2
100
AcDbDimension
  2
*D11
 10
21.79999999999995
 20
-44.52490261997752
 30
0.0
 11
-23.00833333333333
 21
-44.52490261997752
 31
0.0
 70
   160
 71
     5
 42
21.79999999999996
  3
\M+18352\M+18373\M+1815B - ISO-25
100
AcDbAlignedDimension
 13
0.0
 23
-20.72499999999999
 33
0.0
 14
21.79999999999996
 24
-9.0
 34
0.0
100
AcDbRotatedDimension
1001
ACAD
1000
DSTYLE
1002
{
1070
     4
1000
[]"
1070
    40
1040
1.0
1070
   143
1040
0.0393700787401575
1070
   170
1070
     1
1070
   171
1070
     3
1070
   271
1070
     8
1070
   285
1070
     4
1002
}
  0
DIMENSION
  5
6096A
330
1F
100
AcDbEntity
  8
2
100
AcDbDimension
  2
*D12
 10
48.79999999999999
 20
46.2076906433345
 30
0.0
 11
-17.95833333333333
 21
46.2076906433345
 31
0.0
 70
   160
  1
<>(APMX AT HIGH FEED PROCESS)
 71
     5
 42
2.0
  3
\M+18352\M+18373\M+1815B - ISO-25
100
AcDbAlignedDimension
 13
50.8
 23
17.23064007435306
 33
0.0
 14
48.79999999999999
 24
24.06499907330295
 34
0.0
100
AcDbRotatedDimension
1001
ACAD
1000
DSTYLE
1002
{
1070
     4
1000
"
1070
    40
1040
1.0
1070
   143
1040
0.0393700787401575
1070
   170
1070
     1
1070
   171
1070
     3
1070
   271
1070
     8
1070
   285
1070
     4
1002
}
  0
DIMENSION
  5
60984
330
1F
100
AcDbEntity
  8
2
100
AcDbDimension
  2
*D13
 10
47.8
 20
58.53842767741564
 30
0.0
 11
18.66666666666667
 21
58.53842767741564
 31
0.0
 70
   160
  1
APMX<>
 71
     5
 42
3.0
  3
\M+18352\M+18373\M+1815B - ISO-25
100
AcDbAlignedDimension
 13
50.8
 23
17.23064007435306
 33
0.0
 14
47.8
 24
24.95511108440877
 34
0.0
100
AcDbRotatedDimension
1001
ACAD
1000
DSTYLE
1002
{
1070
     4
1000
"
1070
    40
1040
1.0
1070
   143
1040
0.0393700787401575
1070
   170
1070
     1
1070
   171
1070
     3
1070
   271
1070
     8
1070
   285
1070
     4
1002
}
  0
DIMENSION
  5
6099E
330
1F
100
AcDbEntity
  8
2
100
AcDbDimension
  2
*D14
 10
0.0000000000000031
 20
70.89384388109414
 30
0.0
 11
26.38026214938645
 21
70.89384388109414
 31
0.0
 70
   160
 71
     5
 42
50.8
  3
\M+18352\M+18373\M+1815B - ISO-25
100
AcDbAlignedDimension
 13
50.8
 23
17.23064007435306
 33
0.0
 14
0.0
 24
20.72500000000002
 34
0.0
100
AcDbRotatedDimension
1001
ACAD
1000
DSTYLE
1002
{
1070
     4
1000
"
1070
    40
1040
1.0
1070
   143
1040
0.0393700787401575
1070
   170
1070
     1
1070
   171
1070
     3
1070
   271
1070
     8
1070
   285
1070
     4
1002
}
  0
LINE
  5
61174
330
1F
100
AcDbEntity
  8
4
100
AcDbLine
 10
-3.0
 20
0.0
 30
0.0
 11
53.20512785940002
 21
0.0
 31
0.0
1001
ACAD
1000
RTMaterial
1005
0
  0
LINE
  5
611C1
330
1F
100
AcDbEntity
  8
sk3
100
AcDbLine
 10
1.199999999999962
 20
4.762499998182811
 30
0.0
 11
1.199999999999988
 21
10.0249999989
 31
0.0
1001
ACAD
1000
RTMaterial
1005
0
  0
LINE
  5
611C2
330
1F
100
AcDbEntity
  8
sk3
100
AcDbLine
 10
3.5
 20
10.0249999989
 30
0.0
 11
3.499999999999975
 21
4.762499999356831
 31
0.0
1001
ACAD
1000
RTMaterial
1005
0
  0
LINE
  5
611C3
330
1F
100
AcDbEntity
  8
sk3
100
AcDbLine
 10
1.199999999999988
 20
10.0249999989
 30
0.0
 11
0.0
 21
11.22499999889999
 31
0.0
1001
ACAD
1000
RTMaterial
1005
0
  0
LINE
  5
611C4
330
1F
100
AcDbEntity
  8
sk3
100
AcDbLine
 10
12.99234537170002
 20
9.5249999989
 30
0.0
 11
12.99234537170002
 21
4.762500004202134
 31
0.0
1001
ACAD
1000
RTMaterial
1005
0
  0
LWPOLYLINE
  5
611C6
330
1F
100
AcDbEntity
  8
cut
100
AcDbPolyline
 90
       20
 70
     0
 43
0.0
 10
48.03457011469999
 20
11.20270835319999
 10
47.99779205170001
 20
11.19266268539999
 10
47.96073050510001
 20
11.18366586339999
 10
47.92338547510001
 20
11.17571788730001
 10
47.88569259609999
 20
11.16883887289998
 10
47.84771623370001
 20
11.1630087044
 10
47.80964948410002
 20
11.15816703440001
 10
47.77151822479999
 20
11.15432060199998
 10
47.73329657839997
 20
11.15146266799999
 10
47.69510000870003
 20
11.1495126682
 10
47.6569589211
 20
11.1484703939
 10
47.61884291010001
 20
11.14833605379999
 10
47.5807762239
 20
11.14902970899999
 10
47.54282697949999
 20
11.1505385113
 10
47.50492705979995
 20
11.15287530910001
 10
47.4668963616
 20
11.155998708
 10
47.42874980399999
 20
11.1598916792
 10
47.39047246770001
 20
11.16457125159999
 10
47.35183949219999
 20
11.1700471181
 10
47.31283660920001
 20
11.17629423260001
1001
ACAD
1000
RTMaterial
1005
0
  0
LINE
  5
611C7
330
1F
100
AcDbEntity
  8
sk3
100
AcDbLine
 10
42.80000000000001
 20
4.249999998899993
 30
0.0
 11
46.30000000000001
 21
4.249999998899993
 31
0.0
1001
ACAD
1000
RTMaterial
1005
0
  0
LWPOLYLINE
  5
611CA
330
1F
100
AcDbEntity
  8
cut
100
AcDbPolyline
 90
       10
 70
     0
 43
0.0
 10
42.07155724479997
 20
24.92424661620001
 10
42.09823108670003
 20
24.9324636867
 10
42.12536781999999
 20
24.9399845225
 10
42.15296744460006
 20
24.94680912370002
 10
42.18105433940002
 20
24.95295241700001
 10
42.20960412559999
 20
24.95839947570002
 10
42.23854366690001
 20
24.9631055191
 10
42.2678485847
 20
24.96705562040002
 10
42.2975432577
 20
24.97026470640003
 10
42.32762768579999
 20
24.97273277710002
1001
ACAD
1000
RTMaterial
1005
0
  0
LINE
  5
611CB
330
1F
100
AcDbEntity
  8
cut
100
AcDbLine
 10
41.59541207569999
 20
24.7018310284
 30
0.0
 11
41.67062639469999
 21
24.73903329280001
 31
0.0
1001
ACAD
1000
RTMaterial
1005
0
  0
LINE
  5
611CC
330
1F
100
AcDbEntity
  8
cut
100
AcDbLine
 10
41.67062639469999
 20
24.73903329280001
 30
0.0
 11
41.74526341760002
 21
24.77550334899999
 31
0.0
1001
ACAD
1000
RTMaterial
1005
0
  0
LINE
  5
611CD
330
1F
100
AcDbEntity
  8
cut
100
AcDbLine
 10
41.74526341760002
 20
24.77550334899999
 30
0.0
 11
41.81942613830001
 21
24.81129736140002
 31
0.0
1001
ACAD
1000
RTMaterial
1005
0
  0
LINE
  5
611CE
330
1F
100
AcDbEntity
  8
cut
100
AcDbLine
 10
41.81942613830001
 20
24.81129736140002
 30
0.0
 11
41.89342757330002
 21
24.8465827945
 31
0.0
1001
ACAD
1000
RTMaterial
1005
0
  0
LWPOLYLINE
  5
611CF
330
1F
100
AcDbEntity
  8
cut
100
AcDbPolyline
 90
        3
 70
     0
 43
0.0
 10
41.89342757330002
 20
24.8465827945
 10
41.96788413500002
 20
24.88166253179997
 10
41.99285146080002
 20
24.89333273620002
1001
ACAD
1000
RTMaterial
1005
0
  0
LWPOLYLINE
  5
611D0
330
1F
100
AcDbEntity
  8
cut
100
AcDbPolyline
 90
       10
 70
     0
 43
0.0
 10
41.99285146080002
 20
24.89333273620002
 10
42.00137963330003
 20
24.89724194990001
 10
42.00996395660002
 20
24.90103345780003
 10
42.0186044308
 20
24.90470725980001
 10
42.02730361839996
 20
24.90826452740001
 10
42.03605895690002
 20
24.9117040893
 10
42.04486275879999
 20
24.9150224309
 10
42.05371246150003
 20
24.91821838089999
 10
42.06261062769999
 20
24.92129311060002
 10
42.07155725730002
 20
24.92424662019999
1001
ACAD
1000
RTMaterial
1005
0
  0
LINE
  5
611D1
330
1F
100
AcDbEntity
  8
sk3
100
AcDbLine
 10
37.0
 20
7.499999998899992
 30
0.0
 11
42.0
 21
7.499999998899992
 31
0.0
1001
ACAD
1000
RTMaterial
1005
0
  0
LINE
  5
611D2
330
1F
100
AcDbEntity
  8
sk3
100
AcDbLine
 10
32.19999999566122
 20
8.499999998899994
 30
0.0
 11
32.8916198096
 21
8.499999998899994
 31
0.0
1001
ACAD
1000
RTMaterial
1005
0
  0
LINE
  5
611D3
330
1F
100
AcDbEntity
  8
cut
100
AcDbLine
 10
40.85588290240003
 20
24.31172445510001
 30
0.0
 11
40.93150289290004
 21
24.35375230080002
 31
0.0
1001
ACAD
1000
RTMaterial
1005
0
  0
LINE
  5
611D4
330
1F
100
AcDbEntity
  8
cut
100
AcDbLine
 10
40.93150289290004
 20
24.35375230080002
 30
0.0
 11
41.003477971
 21
24.39327889949999
 31
0.0
1001
ACAD
1000
RTMaterial
1005
0
  0
LINE
  5
611D5
330
1F
100
AcDbEntity
  8
cut
100
AcDbLine
 10
41.003477971
 20
24.39327889949999
 30
0.0
 11
41.07562986710003
 21
24.43245796350002
 31
0.0
1001
ACAD
1000
RTMaterial
1005
0
  0
LINE
  5
611D6
330
1F
100
AcDbEntity
  8
cut
100
AcDbLine
 10
41.07562986710003
 20
24.43245796350002
 30
0.0
 11
41.14818676880004
 21
24.47139958320003
 31
0.0
1001
ACAD
1000
RTMaterial
1005
0
  0
LINE
  5
611D7
330
1F
100
AcDbEntity
  8
cut
100
AcDbLine
 10
41.14818676880004
 20
24.47139958320003
 30
0.0
 11
41.22127578309998
 21
24.51016484749999
 31
0.0
1001
ACAD
1000
RTMaterial
1005
0
  0
LINE
  5
611D8
330
1F
100
AcDbEntity
  8
cut
100
AcDbLine
 10
41.22127578309998
 20
24.51016484749999
 30
0.0
 11
41.29495212580002
 21
24.54878584080002
 31
0.0
1001
ACAD
1000
RTMaterial
1005
0
  0
LINE
  5
611D9
330
1F
100
AcDbEntity
  8
cut
100
AcDbLine
 10
41.29495212580002
 20
24.54878584080002
 30
0.0
 11
41.36926110470001
 21
24.58729310659999
 31
0.0
1001
ACAD
1000
RTMaterial
1005
0
  0
LINE
  5
611DA
330
1F
100
AcDbEntity
  8
cut
100
AcDbLine
 10
41.36926110470001
 20
24.58729310659999
 30
0.0
 11
41.44426393249999
 21
24.62572080289999
 31
0.0
1001
ACAD
1000
RTMaterial
1005
0
  0
LINE
  5
611DB
330
1F
100
AcDbEntity
  8
cut
100
AcDbLine
 10
41.44426393249999
 20
24.62572080289999
 30
0.0
 11
41.51981809329999
 21
24.663989496
 31
0.0
1001
ACAD
1000
RTMaterial
1005
0
  0
LINE
  5
611DC
330
1F
100
AcDbEntity
  8
cut
100
AcDbLine
 10
41.51981809329999
 20
24.663989496
 30
0.0
 11
41.59541207569999
 21
24.7018310284
 31
0.0
1001
ACAD
1000
RTMaterial
1005
0
  0
LINE
  5
611DD
330
1F
100
AcDbEntity
  8
sk3
100
AcDbLine
 10
12.99234537170002
 20
9.5249999989
 30
0.0
 11
18.13926112069998
 21
11.92504622850001
 31
0.0
1001
ACAD
1000
RTMaterial
1005
0
  0
LINE
  5
611DE
330
1F
100
AcDbEntity
  8
sk3
100
AcDbLine
 10
34.67735573010003
 20
9.249999998899994
 30
0.0
 11
36.19999999999999
 21
9.249999998899994
 31
0.0
1001
ACAD
1000
RTMaterial
1005
0
  0
LINE
  5
611DF
330
1F
100
AcDbEntity
  8
sk3
100
AcDbLine
 10
3.5
 20
9.5249999989
 30
0.0
 11
12.99234537170002
 21
9.5249999989
 31
0.0
1001
ACAD
1000
RTMaterial
1005
0
  0
LINE
  5
611E0
330
1F
100
AcDbEntity
  8
sk3
100
AcDbLine
 10
1.199999999999988
 20
10.0249999989
 30
0.0
 11
3.5
 21
10.0249999989
 31
0.0
1001
ACAD
1000
RTMaterial
1005
0
  0
LINE
  5
611E1
330
1F
100
AcDbEntity
  8
sk3
100
AcDbLine
 10
18.47735573010004
 20
11.99999999889999
 30
0.0
 11
25.89999999999998
 21
11.99999999889999
 31
0.0
1001
ACAD
1000
RTMaterial
1005
0
  0
LINE
  5
611E2
330
1F
100
AcDbEntity
  8
sk3
100
AcDbLine
 10
26.58867512748191
 20
9.000000011142306
 30
0.0
 11
26.30000000000001
 21
9.499999998899994
 31
0.0
1001
ACAD
1000
RTMaterial
1005
0
  0
LINE
  5
611E4
330
1F
100
AcDbEntity
  8
sk3
100
AcDbLine
 10
26.30000000000001
 20
9.000000010994952
 30
0.0
 11
26.30000000000001
 21
11.59999999889999
 31
0.0
1001
ACAD
1000
RTMaterial
1005
0
  0
LINE
  5
611E6
330
1F
100
AcDbEntity
  8
cut
100
AcDbLine
 10
39.36859764440005
 20
22.88191758909997
 30
0.0
 11
40.54574781300003
 21
24.07337675830002
 31
0.0
1001
ACAD
1000
RTMaterial
1005
0
  0
LINE
  5
611E7
330
1F
100
AcDbEntity
  8
cut
100
AcDbLine
 10
38.68129001410001
 20
22.1904705961
 30
0.0
 11
39.36859764440005
 21
22.88191758909997
 31
0.0
1001
ACAD
1000
RTMaterial
1005
0
  0
LINE
  5
611E8
330
1F
100
AcDbEntity
  8
cut
100
AcDbLine
 10
38.02830626460003
 20
21.53677380690002
 30
0.0
 11
38.68129001410001
 21
22.1904705961
 31
0.0
1001
ACAD
1000
RTMaterial
1005
0
  0
LINE
  5
611E9
330
1F
100
AcDbEntity
  8
cut
100
AcDbLine
 10
37.55439195690003
 20
21.0644777693
 30
0.0
 11
38.02830626460003
 21
21.53677380690002
 31
0.0
1001
ACAD
1000
RTMaterial
1005
0
  0
LINE
  5
611EA
330
1F
100
AcDbEntity
  8
cut
100
AcDbLine
 10
37.05396335730001
 20
20.56786079470001
 30
0.0
 11
37.55439195690003
 21
21.0644777693
 31
0.0
1001
ACAD
1000
RTMaterial
1005
0
  0
LINE
  5
611EB
330
1F
100
AcDbEntity
  8
cut
100
AcDbLine
 10
36.66936033530005
 20
20.1877490835
 30
0.0
 11
37.05396335730001
 21
20.56786079470001
 31
0.0
1001
ACAD
1000
RTMaterial
1005
0
  0
LWPOLYLINE
  5
611EC
330
1F
100
AcDbEntity
  8
cut
100
AcDbPolyline
 90
       10
 70
     0
 43
0.0
 10
40.54574779360001
 20
24.07337673859999
 10
40.577948558
 20
24.10504477019998
 10
40.61075000100005
 20
24.13543092739999
 10
40.64415212260001
 20
24.16453521050002
 10
40.67820293010004
 20
24.1923767708
 10
40.71285441629997
 20
24.21893645679998
 10
40.74796255960001
 20
24.2441568141
 10
40.7834793526
 20
24.26801869120001
 10
40.81945280270003
 20
24.2905412396
 10
40.85588290980002
 20
24.3117244593
1001
ACAD
1000
RTMaterial
1005
0
  0
LINE
  5
611ED
330
1F
100
AcDbEntity
  8
cut
100
AcDbLine
 10
36.2860313869
 20
19.81033338280002
 30
0.0
 11
36.66936033530005
 21
20.1877490835
 31
0.0
1001
ACAD
1000
RTMaterial
1005
0
  0
LINE
  5
611EE
330
1F
100
AcDbEntity
  8
cut
100
AcDbLine
 10
36.03448905190005
 20
19.56349419609998
 30
0.0
 11
36.2860313869
 21
19.81033338280002
 31
0.0
1001
ACAD
1000
RTMaterial
1005
0
  0
LWPOLYLINE
  5
611EF
330
1F
100
AcDbEntity
  8
cut
100
AcDbPolyline
 90
        6
 70
     0
 43
0.0
 10
47.31283660920001
 20
11.17629423260001
 10
47.27347808680003
 20
11.18333764119998
 10
47.2335818684
 20
11.1912621749
 10
47.1930872685
 20
11.2000961105
 10
47.15205497260002
 20
11.20981117119999
 10
47.11048498080002
 20
11.22040735679999
1001
ACAD
1000
RTMaterial
1005
0
  0
LINE
  5
611F0
330
1F
100
AcDbEntity
  8
cut
100
AcDbLine
 10
47.1104849985
 20
11.22040735209998
 30
0.0
 11
40.68675869629998
 21
12.9246934006
 31
0.0
1001
ACAD
1000
RTMaterial
1005
0
  0
LWPOLYLINE
  5
611F1
330
1F
100
AcDbEntity
  8
cut
100
AcDbPolyline
 90
       10
 70
     0
 43
0.0
 10
40.68675869970003
 20
12.9246933997
 10
40.64304397919999
 20
12.93680259430002
 10
40.59965018629998
 20
12.9497975061
 10
40.55657732079999
 20
12.9636781353
 10
40.5138021532
 20
12.97845174530002
 10
40.47134791320003
 20
12.99411107260002
 10
40.42928428950001
 20
13.01063432649999
 10
40.38763451190003
 20
13.0280142437
 10
40.34637535059999
 20
13.04625808759999
 10
40.30550680560003
 20
13.06536585820001
1001
ACAD
1000
RTMaterial
1005
0
  0
LINE
  5
611F2
330
1F
100
AcDbEntity
  8
sk3
100
AcDbLine
 10
32.8916198096
 20
8.499999998899994
 30
0.0
 11
32.8916198096
 21
7.135000014359589
 31
0.0
1001
ACAD
1000
RTMaterial
1005
0
  0
LINE
  5
611F3
330
1F
100
AcDbEntity
  8
sk3
100
AcDbLine
 10
32.8916198096
 20
8.499999998899994
 30
0.0
 11
34.33926112069997
 21
9.175046228500006
 31
0.0
1001
ACAD
1000
RTMaterial
1005
0
  0
LINE
  5
611F5
330
1F
100
AcDbEntity
  8
cut
100
AcDbLine
 10
40.30550680690004
 20
13.0653658576
 30
0.0
 11
40.19959200789997
 21
13.11625523219999
 31
0.0
1001
ACAD
1000
RTMaterial
1005
0
  0
LINE
  5
611F6
330
1F
100
AcDbEntity
  8
cut
100
AcDbLine
 10
40.19959200789997
 20
13.11625523219999
 30
0.0
 11
40.12361572499997
 21
13.1532119101
 31
0.0
1001
ACAD
1000
RTMaterial
1005
0
  0
LINE
  5
611F7
330
1F
100
AcDbEntity
  8
cut
100
AcDbLine
 10
40.12361572499997
 20
13.1532119101
 30
0.0
 11
40.04768856900001
 21
13.1905763359
 31
0.0
1001
ACAD
1000
RTMaterial
1005
0
  0
LINE
  5
611F8
330
1F
100
AcDbEntity
  8
cut
100
AcDbLine
 10
40.04768856900001
 20
13.1905763359
 30
0.0
 11
39.97165926060001
 21
13.22843615830001
 31
0.0
1001
ACAD
1000
RTMaterial
1005
0
  0
LINE
  5
611F9
330
1F
100
AcDbEntity
  8
cut
100
AcDbLine
 10
39.97165926060001
 20
13.22843615830001
 30
0.0
 11
39.8954007278
 21
13.26686343969999
 31
0.0
1001
ACAD
1000
RTMaterial
1005
0
  0
LINE
  5
611FA
330
1F
100
AcDbEntity
  8
cut
100
AcDbLine
 10
39.8954007278
 20
13.26686343969999
 30
0.0
 11
39.81889076810001
 21
13.3058714627
 31
0.0
1001
ACAD
1000
RTMaterial
1005
0
  0
LINE
  5
611FB
330
1F
100
AcDbEntity
  8
cut
100
AcDbLine
 10
39.81889076810001
 20
13.3058714627
 30
0.0
 11
39.74207740980001
 21
13.34548180340002
 31
0.0
1001
ACAD
1000
RTMaterial
1005
0
  0
LINE
  5
611FC
330
1F
100
AcDbEntity
  8
cut
100
AcDbLine
 10
39.74207740980001
 20
13.34548180340002
 30
0.0
 11
39.66493322520001
 21
13.38570675400001
 31
0.0
1001
ACAD
1000
RTMaterial
1005
0
  0
LINE
  5
611FD
330
1F
100
AcDbEntity
  8
cut
100
AcDbLine
 10
39.66493322520001
 20
13.38570675400001
 30
0.0
 11
39.58771980450002
 21
13.42641899010002
 31
0.0
1001
ACAD
1000
RTMaterial
1005
0
  0
LINE
  5
611FE
330
1F
100
AcDbEntity
  8
cut
100
AcDbLine
 10
39.58771980450002
 20
13.42641899010002
 30
0.0
 11
39.51102921780001
 21
13.46731673740001
 31
0.0
1001
ACAD
1000
RTMaterial
1005
0
  0
LINE
  5
611FF
330
1F
100
AcDbEntity
  8
cut
100
AcDbLine
 10
39.51102921780001
 20
13.46731673740001
 30
0.0
 11
39.43518021270001
 21
13.50822958890001
 31
0.0
1001
ACAD
1000
RTMaterial
1005
0
  0
LINE
  5
61200
330
1F
100
AcDbEntity
  8
cut
100
AcDbLine
 10
39.43518021270001
 20
13.50822958890001
 30
0.0
 11
39.36030051559999
 21
13.54908248940001
 31
0.0
1001
ACAD
1000
RTMaterial
1005
0
  0
LINE
  5
61201
330
1F
100
AcDbEntity
  8
cut
100
AcDbLine
 10
39.36030051559999
 20
13.54908248940001
 30
0.0
 11
39.28617501090003
 21
13.58998616260001
 31
0.0
1001
ACAD
1000
RTMaterial
1005
0
  0
LINE
  5
61202
330
1F
100
AcDbEntity
  8
cut
100
AcDbLine
 10
39.28617501090003
 20
13.58998616260001
 30
0.0
 11
39.21241684940003
 21
13.63113747330001
 31
0.0
1001
ACAD
1000
RTMaterial
1005
0
  0
LINE
  5
61203
330
1F
100
AcDbEntity
  8
cut
100
AcDbLine
 10
39.21241684940003
 20
13.63113747330001
 30
0.0
 11
39.13837957089999
 21
13.67289438899999
 31
0.0
1001
ACAD
1000
RTMaterial
1005
0
  0
LWPOLYLINE
  5
61204
330
1F
100
AcDbEntity
  8
cut
100
AcDbPolyline
 90
       10
 70
     0
 43
0.0
 10
39.13837957089999
 20
13.6728943889
 10
39.12996459720001
 20
13.67773367340001
 10
39.12164461890002
 20
13.68265357369998
 10
39.11341963600001
 20
13.6876540899
 10
39.10528816390002
 20
13.69273708759999
 10
39.09725168710004
 20
13.69790070110002
 10
39.08931465929999
 20
13.7031393341
 10
39.08147856479997
 20
13.70845112110001
 10
39.07374191930001
 20
13.71383792750001
 10
39.06610472280006
 20
13.71929975329999
1001
ACAD
1000
RTMaterial
1005
0
  0
LINE
  5
61205
330
1F
100
AcDbEntity
  8
sk3
100
AcDbLine
 10
42.80000000000001
 20
4.249999998899993
 30
0.0
 11
42.39999999999997
 21
4.6499999989
 31
0.0
1001
ACAD
1000
RTMaterial
1005
0
  0
LINE
  5
61208
330
1F
100
AcDbEntity
  8
cut
100
AcDbLine
 10
35.62707698020001
 20
18.68500809170001
 30
0.0
 11
35.62803236470001
 21
18.695269897
 31
0.0
1001
ACAD
1000
RTMaterial
1005
0
  0
LINE
  5
61209
330
1F
100
AcDbEntity
  8
cut
100
AcDbLine
 10
35.62803236470001
 20
18.695269897
 30
0.0
 11
35.62905846940005
 21
18.7055198335
 31
0.0
1001
ACAD
1000
RTMaterial
1005
0
  0
LINE
  5
6120A
330
1F
100
AcDbEntity
  8
cut
100
AcDbLine
 10
35.62905846940005
 20
18.7055198335
 30
0.0
 11
35.63015529440003
 21
18.71575790130001
 31
0.0
1001
ACAD
1000
RTMaterial
1005
0
  0
LWPOLYLINE
  5
6120B
330
1F
100
AcDbEntity
  8
cut
100
AcDbPolyline
 90
       25
 70
     0
 43
0.0
 10
35.63015529400003
 20
18.7157578975
 10
35.635288571
 20
18.75675239179997
 10
35.64152710990005
 20
18.7974189562
 10
35.64887091079999
 20
18.8377575906
 10
35.65733935380003
 20
18.87781189820001
 10
35.66691305870001
 20
18.9175382759
 10
35.67753388569998
 20
18.95680591460001
 10
35.68919934120005
 20
18.99559946190001
 10
35.70191191870004
 20
19.03393427030002
 10
35.71562095960003
 20
19.07172558850001
 10
35.73032626080005
 20
19.10897440909997
 10
35.7460280254
 20
19.14567973949999
 10
35.76267620280005
 20
19.18175385089998
 10
35.78026624910002
 20
19.21717604450001
 10
35.7988027084
 20
19.25196701909999
 10
35.81824916260002
 20
19.28610114170001
 10
35.83858829270003
 20
19.31956381789998
 10
35.85983741780002
 20
19.3523696421
 10
35.88201207729998
 20
19.3845367653
 10
35.9051188688
 20
19.4160960113
 10
35.92915119470002
 20
19.44701655620002
 10
35.95410480240003
 20
19.47722408019999
 10
35.97997827400003
 20
19.50669380990001
 10
36.00677302740002
 20
19.5354505187
 10
36.03448906249998
 20
19.56349420649999
1001
ACAD
1000
RTMaterial
1005
0
  0
LWPOLYLINE
  5
6120C
330
1F
100
AcDbEntity
  8
cut
100
AcDbPolyline
 90
        7
 70
     0
 43
0.0
 10
48.08694430909998
 20
11.2201772962
 10
48.07847574030001
 20
11.21703208150001
 10
48.06990298440002
 20
11.21398035600001
 10
48.06122604130003
 20
11.21102211959999
 10
48.05244491109999
 20
11.20815737250001
 10
48.04355959370003
 20
11.2053861146
 10
48.03457008930003
 20
11.2027083458
1001
ACAD
1000
RTMaterial
1005
0
  0
LWPOLYLINE
  5
61210
330
1F
100
AcDbEntity
  8
cut
100
AcDbPolyline
 90
       10
 70
     0
 43
0.0
 10
39.06610472300003
 20
13.71929975309999
 10
39.04321366889997
 20
13.7363388254
 10
39.02078620330004
 20
13.75395552079999
 10
38.99882232620002
 20
13.7721498393
 10
38.97730558100001
 20
13.790939406
 10
38.95625242450002
 20
13.81030659570001
 10
38.93571222600004
 20
13.8301985331
 10
38.91570144210005
 20
13.8505975928
 10
38.8962036164
 20
13.87152140009999
 10
38.87721874870005
 20
13.89296995489999
1001
ACAD
1000
RTMaterial
1005
0
  0
LINE
  5
61211
330
1F
100
AcDbEntity
  8
sk3
100
AcDbLine
 10
36.19999999999999
 20
9.249999998899994
 30
0.0
 11
36.19999999999997
 21
7.135000016048332
 31
0.0
1001
ACAD
1000
RTMaterial
1005
0
  0
LINE
  5
61212
330
1F
100
AcDbEntity
  8
sk3
100
AcDbLine
 10
37.0
 20
8.449999998900011
 30
0.0
 11
37.0
 21
7.135000016456687
 31
0.0
1001
ACAD
1000
RTMaterial
1005
0
  0
LINE
  5
61213
330
1F
100
AcDbEntity
  8
cut
100
AcDbLine
 10
35.62491512819998
 20
18.60489164449998
 30
0.0
 11
35.62507668490003
 21
18.62688542539999
 31
0.0
1001
ACAD
1000
RTMaterial
1005
0
  0
LINE
  5
61214
330
1F
100
AcDbEntity
  8
cut
100
AcDbLine
 10
35.6250707836
 20
18.6264144061
 30
0.0
 11
35.62571730750001
 21
18.65370243159998
 31
0.0
1001
ACAD
1000
RTMaterial
1005
0
  0
LINE
  5
61215
330
1F
100
AcDbEntity
  8
cut
100
AcDbLine
 10
35.62571730750001
 20
18.65370243159998
 30
0.0
 11
35.62609822550002
 21
18.66416593879998
 31
0.0
1001
ACAD
1000
RTMaterial
1005
0
  0
LINE
  5
61216
330
1F
100
AcDbEntity
  8
cut
100
AcDbLine
 10
35.62609822550002
 20
18.66416593879998
 30
0.0
 11
35.62655144970001
 21
18.67460115890003
 31
0.0
1001
ACAD
1000
RTMaterial
1005
0
  0
LINE
  5
61217
330
1F
100
AcDbEntity
  8
cut
100
AcDbLine
 10
35.62655144970001
 20
18.67460115890003
 30
0.0
 11
35.62707698020001
 21
18.68500809170001
 31
0.0
1001
ACAD
1000
RTMaterial
1005
0
  0
LINE
  5
61218
330
1F
100
AcDbEntity
  8
cut
100
AcDbLine
 10
43.49292090699999
 20
25.04989276820001
 30
0.0
 11
47.28243779310004
 21
25.39385396839998
 31
0.0
1001
ACAD
1000
RTMaterial
1005
0
  0
LINE
  5
61219
330
1F
100
AcDbEntity
  8
cut
100
AcDbLine
 10
43.34137143499999
 20
25.0371013763
 30
0.0
 11
43.49292090699999
 21
25.04989276820001
 31
0.0
1001
ACAD
1000
RTMaterial
1005
0
  0
LINE
  5
6121A
330
1F
100
AcDbEntity
  8
cut
100
AcDbLine
 10
43.18987898389996
 20
25.02513072400001
 30
0.0
 11
43.34137143499999
 21
25.0371013763
 31
0.0
1001
ACAD
1000
RTMaterial
1005
0
  0
LINE
  5
6121B
330
1F
100
AcDbEntity
  8
cut
100
AcDbLine
 10
43.0382715389
 20
25.01396480820003
 30
0.0
 11
43.18987898389996
 21
25.02513072400001
 31
0.0
1001
ACAD
1000
RTMaterial
1005
0
  0
LINE
  5
6121C
330
1F
100
AcDbEntity
  8
cut
100
AcDbLine
 10
42.88640256929999
 20
25.00360375710002
 30
0.0
 11
43.0382715389
 21
25.01396480820003
 31
0.0
1001
ACAD
1000
RTMaterial
1005
0
  0
LINE
  5
6121D
330
1F
100
AcDbEntity
  8
cut
100
AcDbLine
 10
42.73413437740003
 20
24.99405221949999
 30
0.0
 11
42.88640256929999
 21
25.00360375710002
 31
0.0
1001
ACAD
1000
RTMaterial
1005
0
  0
LINE
  5
6121E
330
1F
100
AcDbEntity
  8
cut
100
AcDbLine
 10
42.58162492100002
 20
24.98533175890003
 30
0.0
 11
42.73413437740003
 21
24.99405221949999
 31
0.0
1001
ACAD
1000
RTMaterial
1005
0
  0
LINE
  5
6121F
330
1F
100
AcDbEntity
  8
cut
100
AcDbLine
 10
42.42915729639999
 20
24.97747660190001
 30
0.0
 11
42.58162492100002
 21
24.98533175890003
 31
0.0
1001
ACAD
1000
RTMaterial
1005
0
  0
LINE
  5
61220
330
1F
100
AcDbEntity
  8
cut
100
AcDbLine
 10
42.3276276602
 20
24.97273277530002
 30
0.0
 11
42.42915729639999
 21
24.97747660190001
 31
0.0
1001
ACAD
1000
RTMaterial
1005
0
  0
LINE
  5
61222
330
1F
100
AcDbEntity
  8
cut
100
AcDbLine
 10
38.87721874950001
 20
13.89296995399999
 30
0.0
 11
38.78384118350004
 21
14.0073424338
 31
0.0
1001
ACAD
1000
RTMaterial
1005
0
  0
LINE
  5
61223
330
1F
100
AcDbEntity
  8
cut
100
AcDbLine
 10
38.78384118350004
 20
14.0073424338
 30
0.0
 11
38.69108607240003
 21
14.12200973770001
 31
0.0
1001
ACAD
1000
RTMaterial
1005
0
  0
LINE
  5
61224
330
1F
100
AcDbEntity
  8
cut
100
AcDbLine
 10
38.69108607240003
 20
14.12200973770001
 30
0.0
 11
38.59882603879999
 21
14.23708038750001
 31
0.0
1001
ACAD
1000
RTMaterial
1005
0
  0
LINE
  5
61225
330
1F
100
AcDbEntity
  8
cut
100
AcDbLine
 10
38.59882603879999
 20
14.23708038750001
 30
0.0
 11
38.5069236352
 21
14.3526775716
 31
0.0
1001
ACAD
1000
RTMaterial
1005
0
  0
LINE
  5
61226
330
1F
100
AcDbEntity
  8
cut
100
AcDbLine
 10
38.5069236352
 20
14.3526775716
 30
0.0
 11
38.41530457160003
 21
14.46886429949998
 31
0.0
1001
ACAD
1000
RTMaterial
1005
0
  0
LINE
  5
61227
330
1F
100
AcDbEntity
  8
cut
100
AcDbLine
 10
38.41530457160003
 20
14.46886429949998
 30
0.0
 11
38.32400683700002
 21
14.58556223100001
 31
0.0
1001
ACAD
1000
RTMaterial
1005
0
  0
LINE
  5
61228
330
1F
100
AcDbEntity
  8
cut
100
AcDbLine
 10
38.32400683700002
 20
14.58556223100001
 30
0.0
 11
38.23310552670001
 21
14.7026502146
 31
0.0
1001
ACAD
1000
RTMaterial
1005
0
  0
LINE
  5
61229
330
1F
100
AcDbEntity
  8
cut
100
AcDbLine
 10
38.23310552670001
 20
14.7026502146
 30
0.0
 11
38.04762282330001
 21
14.94387823319999
 31
0.0
1001
ACAD
1000
RTMaterial
1005
0
  0
LINE
  5
6122A
330
1F
100
AcDbEntity
  8
cut
100
AcDbLine
 10
38.04762282330001
 20
14.94387823319999
 30
0.0
 11
37.76150087729997
 21
15.3173073865
 31
0.0
1001
ACAD
1000
RTMaterial
1005
0
  0
LINE
  5
6122B
330
1F
100
AcDbEntity
  8
cut
100
AcDbLine
 10
37.76150087729997
 20
15.3173073865
 30
0.0
 11
37.37988282070001
 21
15.81665402070001
 31
0.0
1001
ACAD
1000
RTMaterial
1005
0
  0
LINE
  5
6122C
330
1F
100
AcDbEntity
  8
cut
100
AcDbLine
 10
37.37988282070001
 20
15.81665402070001
 30
0.0
 11
37.00317932730003
 21
16.31087792010001
 31
0.0
1001
ACAD
1000
RTMaterial
1005
0
  0
LINE
  5
6122D
330
1F
100
AcDbEntity
  8
cut
100
AcDbLine
 10
37.00317932730003
 20
16.31087792010001
 30
0.0
 11
36.63395021110001
 21
16.79644816469999
 31
0.0
1001
ACAD
1000
RTMaterial
1005
0
  0
LINE
  5
6122E
330
1F
100
AcDbEntity
  8
cut
100
AcDbLine
 10
36.63395021110001
 20
16.79644816469999
 30
0.0
 11
36.26824636150003
 21
17.27841368659997
 31
0.0
1001
ACAD
1000
RTMaterial
1005
0
  0
LINE
  5
6122F
330
1F
100
AcDbEntity
  8
cut
100
AcDbLine
 10
36.26824636150003
 20
17.27841368659997
 30
0.0
 11
35.8998879422
 21
17.7648267879
 31
0.0
1001
ACAD
1000
RTMaterial
1005
0
  0
LWPOLYLINE
  5
61230
330
1F
100
AcDbEntity
  8
cut
100
AcDbPolyline
 90
       19
 70
     0
 43
0.0
 10
35.89988794580001
 20
17.76482678320002
 10
35.87747515389999
 20
17.79531718929999
 10
35.85588486370001
 20
17.82655489239999
 10
35.83511707530006
 20
17.85853989260002
 10
35.81513029220003
 20
17.89131252449999
 10
35.79596601079999
 20
17.92483245350001
 10
35.77774872060003
 20
17.95897867510001
 10
35.76050453300002
 20
17.99373386390002
 10
35.74420733649999
 20
18.02911534539999
 10
35.72890328620003
 20
18.0650540908
 10
35.71459714110001
 20
18.10153692719999
 10
35.70128414229999
 20
18.13857702769999
 10
35.6889961673
 20
18.17614488239999
 10
35.67771904789999
 20
18.21428295480001
 10
35.6674669524
 20
18.2529487816
 10
35.65831426350003
 20
18.291985463
 10
35.65028577560003
 20
18.33134069900001
 10
35.64335669440005
 20
18.37106678969998
 10
35.63752701990001
 20
18.41116373499997
1001
ACAD
1000
RTMaterial
1005
0
  0
LWPOLYLINE
  5
61231
330
1F
100
AcDbEntity
  8
cut
100
AcDbPolyline
 90
        9
 70
     0
 43
0.0
 10
35.63752701990001
 20
18.41116373449998
 10
35.63424206550003
 20
18.4381780745
 10
35.63145279610001
 20
18.46518428320002
 10
35.6291592115
 20
18.4921823608
 10
35.62736463720001
 20
18.51918333079998
 10
35.62606574770003
 20
18.5461761697
 10
35.62525256760001
 20
18.57312780629999
 10
35.62492177159999
 20
18.6000272169
 10
35.62491381040003
 20
18.60489164449998
1001
ACAD
1000
RTMaterial
1005
0
  0
LWPOLYLINE
  5
61232
330
1F
100
AcDbEntity
  8
cut
100
AcDbPolyline
 90
       10
 70
     0
 43
0.0
 10
48.27387798920001
 20
11.31079055410001
 10
48.25484015889998
 20
11.29948738909999
 10
48.2353624625
 20
11.288485119
 10
48.2154449002
 20
11.2777837438
 10
48.19507851060002
 20
11.26737278180002
 10
48.17427225500001
 20
11.2572627147
 10
48.15305301760004
 20
11.24748498760002
 10
48.13142975990004
 20
11.23805008249999
 10
48.10939352039998
 20
11.2289475174
 10
48.08694429920002
 20
11.22017729239999
1001
ACAD
1000
RTMaterial
1005
0
  0
LINE
  5
61235
330
1F
100
AcDbEntity
  8
sk3
100
AcDbLine
 10
42.39999999999997
 20
0.0
 30
0.0
 11
42.39999999999997
 21
7.099999998899987
 31
0.0
1001
ACAD
1000
RTMaterial
1005
0
  0
LINE
  5
61236
330
1F
100
AcDbEntity
  8
sk3
100
AcDbLine
 10
42.80000000000001
 20
0.0
 30
0.0
 11
42.80000000000001
 21
4.249999998899993
 31
0.0
1001
ACAD
1000
RTMaterial
1005
0
  0
LINE
  5
61237
330
1F
100
AcDbEntity
  8
sk3
100
AcDbLine
 10
46.30000000000001
 20
4.249999998899993
 30
0.0
 11
46.30000000000001
 21
0.0
 31
0.0
1001
ACAD
1000
RTMaterial
1005
0
  0
LINE
  5
61239
330
1F
100
AcDbEntity
  8
sk3
100
AcDbLine
 10
46.30000000000001
 20
4.249999998899993
 30
0.0
 11
46.80000000000001
 21
4.749999998899993
 31
0.0
1001
ACAD
1000
RTMaterial
1005
0
  0
LINE
  5
6123A
330
1F
100
AcDbEntity
  8
sk3
100
AcDbLine
 10
46.80000000000001
 20
7.416511361400011
 30
0.0
 11
46.80000000000001
 21
0.0
 31
0.0
1001
ACAD
1000
RTMaterial
1005
0
  0
LINE
  5
6123E
330
1F
100
AcDbEntity
  8
cut
100
AcDbLine
 10
49.77044424090003
 20
14.1218740656
 30
0.0
 11
49.56541836100002
 21
13.67616043869998
 31
0.0
1001
ACAD
1000
RTMaterial
1005
0
  0
LINE
  5
6123F
330
1F
100
AcDbEntity
  8
cut
100
AcDbLine
 10
49.56541836100002
 20
13.67616043869998
 30
0.0
 11
49.38825679429999
 21
13.2927577177
 31
0.0
1001
ACAD
1000
RTMaterial
1005
0
  0
LINE
  5
61240
330
1F
100
AcDbEntity
  8
cut
100
AcDbLine
 10
50.40699605550003
 20
15.5117454649
 30
0.0
 11
49.77044424090003
 21
14.1218740656
 31
0.0
1001
ACAD
1000
RTMaterial
1005
0
  0
LINE
  5
61241
330
1F
100
AcDbEntity
  8
cut
100
AcDbLine
 10
49.38825679429999
 20
13.2927577177
 30
0.0
 11
49.23926721240004
 21
12.97168662850001
 31
0.0
1001
ACAD
1000
RTMaterial
1005
0
  0
LINE
  5
61242
330
1F
100
AcDbEntity
  8
cut
100
AcDbLine
 10
49.23926721240004
 20
12.97168662850001
 30
0.0
 11
49.07388660499999
 21
12.61688391140001
 31
0.0
1001
ACAD
1000
RTMaterial
1005
0
  0
LINE
  5
61243
330
1F
100
AcDbEntity
  8
cut
100
AcDbLine
 10
50.55564474350003
 20
15.83024860500001
 30
0.0
 11
50.40699605550003
 21
15.5117454649
 31
0.0
1001
ACAD
1000
RTMaterial
1005
0
  0
LINE
  5
61244
330
1F
100
AcDbEntity
  8
cut
100
AcDbLine
 10
49.07388660499999
 20
12.61688391140001
 30
0.0
 11
48.90916410839999
 21
12.26528296969999
 31
0.0
1001
ACAD
1000
RTMaterial
1005
0
  0
LINE
  5
61245
330
1F
100
AcDbEntity
  8
cut
100
AcDbLine
 10
48.90916410839999
 20
12.26528296969999
 30
0.0
 11
48.77565143020002
 21
11.98171858680001
 31
0.0
1001
ACAD
1000
RTMaterial
1005
0
  0
LINE
  5
61246
330
1F
100
AcDbEntity
  8
cut
100
AcDbLine
 10
48.77565143020002
 20
11.98171858680001
 30
0.0
 11
48.67613676670003
 21
11.77124974449998
 31
0.0
1001
ACAD
1000
RTMaterial
1005
0
  0
LINE
  5
61247
330
1F
100
AcDbEntity
  8
cut
100
AcDbLine
 10
50.6841326604
 20
16.1025313504
 30
0.0
 11
50.55564474350003
 21
15.83024860500001
 31
0.0
1001
ACAD
1000
RTMaterial
1005
0
  0
LWPOLYLINE
  5
61248
330
1F
100
AcDbEntity
  8
cut
100
AcDbPolyline
 90
       25
 70
     0
 43
0.0
 10
48.67613676760004
 20
11.77124974629998
 10
48.66472235700002
 20
11.74775406579999
 10
48.65285041859999
 20
11.7245627849
 10
48.64052095249999
 20
11.70167590350001
 10
48.62773809409999
 20
11.6790836111
 10
48.61449770800005
 20
11.65679571840002
 10
48.60078738729999
 20
11.63484165709999
 10
48.58660720350003
 20
11.61321606379999
 10
48.5719570851
 20
11.59192430199999
 10
48.55682441160002
 20
11.57101189459999
 10
48.54120545929999
 20
11.55048259930001
 10
48.52510395180003
 20
11.5303326584
 10
48.50851843960004
 20
11.51059632179999
 10
48.49143878019999
 20
11.49126768970001
 10
48.47387511609998
 20
11.47235266180001
 10
48.45585642499997
 20
11.45390318709999
 10
48.4373915831
 20
11.4359202805
 10
48.4184717142
 20
11.41840292699999
 10
48.39909916789999
 20
11.40140003159999
 10
48.37925563030001
 20
11.38490913789999
 10
48.35895941530004
 20
11.3689327022
 10
48.33826781359999
 20
11.35352699809999
 10
48.31719992210004
 20
11.33871078320001
 10
48.29573664399999
 20
11.3244652999
 10
48.27387797910001
 20
11.310790548
1001
ACAD
1000
RTMaterial
1005
0
  0
LWPOLYLINE
  5
6124C
330
1F
100
AcDbEntity
  8
cut
100
AcDbPolyline
 90
        7
 70
     0
 43
0.0
 10
50.77199999980003
 20
16.41439246050001
 10
50.77082440890002
 20
16.40519406539999
 10
50.76955633490002
 20
16.3959619602
 10
50.76819577780003
 20
16.38669614490001
 10
50.76674273740003
 20
16.37739661969999
 10
50.76519721400003
 20
16.3680633843
 10
50.76355920729998
 20
16.358696439
1001
ACAD
1000
RTMaterial
1005
0
  0
LWPOLYLINE
  5
6124D
330
1F
100
AcDbEntity
  8
cut
100
AcDbPolyline
 90
       10
 70
     0
 43
0.0
 10
50.76355920840001
 20
16.35869644510001
 10
50.75804727320003
 20
16.33019177600002
 10
50.75170599379999
 20
16.30167683740001
 10
50.74453537020003
 20
16.2731516291
 10
50.73653402270004
 20
16.24458849869998
 10
50.72770333090002
 20
16.21601509869998
 10
50.71804743420001
 20
16.18751438680002
 10
50.70756771240002
 20
16.15911401540001
 10
50.69626278580001
 20
16.13078633199998
 10
50.68413265430002
 20
16.10253133669999
1001
ACAD
1000
RTMaterial
1005
0
  0
LINE
  5
6124F
330
1F
100
AcDbEntity
  8
cut
100
AcDbLine
 10
50.79999999990004
 20
17.7812112087
 30
0.0
 11
50.80142266370001
 21
17.6907029793
 31
0.0
1001
ACAD
1000
RTMaterial
1005
0
  0
LINE
  5
61250
330
1F
100
AcDbEntity
  8
cut
100
AcDbLine
 10
50.80140733270003
 20
17.69185637070001
 30
0.0
 11
50.802330827
 21
17.60484767789998
 31
0.0
1001
ACAD
1000
RTMaterial
1005
0
  0
LINE
  5
61251
330
1F
100
AcDbEntity
  8
cut
100
AcDbLine
 10
50.8022945327
 20
17.60921286550001
 30
0.0
 11
50.80282192670001
 21
17.51900296010001
 31
0.0
1001
ACAD
1000
RTMaterial
1005
0
  0
LINE
  5
61256
330
1F
100
AcDbEntity
  8
cut
100
AcDbLine
 10
50.80279343120004
 20
17.52714752400001
 30
0.0
 11
50.80279421492029
 21
17.4118029913064
 31
0.0
1001
ACAD
1000
RTMaterial
1005
0
  0
LINE
  5
61257
330
1F
100
AcDbEntity
  8
cut
100
AcDbLine
 10
50.80279421492029
 20
17.41180299130458
 30
0.0
 11
50.80251286870002
 21
17.34638447719999
 31
0.0
1001
ACAD
1000
RTMaterial
1005
0
  0
LINE
  5
61258
330
1F
100
AcDbEntity
  8
cut
100
AcDbLine
 10
50.80251286870002
 20
17.34638447719999
 30
0.0
 11
50.80170694359999
 21
17.2593966819
 31
0.0
1001
ACAD
1000
RTMaterial
1005
0
  0
LINE
  5
61259
330
1F
100
AcDbEntity
  8
cut
100
AcDbLine
 10
50.80170694359999
 20
17.2593966819
 30
0.0
 11
50.80047178910003
 21
17.17188174280002
 31
0.0
1001
ACAD
1000
RTMaterial
1005
0
  0
LINE
  5
6125A
330
1F
100
AcDbEntity
  8
cut
100
AcDbLine
 10
50.80047178910003
 20
17.17188174280002
 30
0.0
 11
50.7988077146
 21
17.0837675619
 31
0.0
1001
ACAD
1000
RTMaterial
1005
0
  0
LINE
  5
6125B
330
1F
100
AcDbEntity
  8
cut
100
AcDbLine
 10
50.7988077146
 20
17.0837675619
 30
0.0
 11
50.79671147700004
 21
16.99522474510002
 31
0.0
1001
ACAD
1000
RTMaterial
1005
0
  0
LINE
  5
6125C
330
1F
100
AcDbEntity
  8
cut
100
AcDbLine
 10
50.79671147700004
 20
16.99522474510002
 30
0.0
 11
50.79418880999998
 21
16.90685621469998
 31
0.0
1001
ACAD
1000
RTMaterial
1005
0
  0
LINE
  5
6125D
330
1F
100
AcDbEntity
  8
cut
100
AcDbLine
 10
50.79418880999998
 20
16.90685621469998
 30
0.0
 11
50.79125190400003
 21
16.81915382380001
 31
0.0
1001
ACAD
1000
RTMaterial
1005
0
  0
LINE
  5
6125E
330
1F
100
AcDbEntity
  8
cut
100
AcDbLine
 10
50.79125190400003
 20
16.81915382380001
 30
0.0
 11
50.78791332729998
 21
16.73234793190002
 31
0.0
1001
ACAD
1000
RTMaterial
1005
0
  0
LINE
  5
6125F
330
1F
100
AcDbEntity
  8
cut
100
AcDbLine
 10
50.78791332729998
 20
16.73234793190002
 30
0.0
 11
50.7841738825
 21
16.64631577220001
 31
0.0
1001
ACAD
1000
RTMaterial
1005
0
  0
LINE
  5
61260
330
1F
100
AcDbEntity
  8
cut
100
AcDbLine
 10
50.7841738825
 20
16.64631577220001
 30
0.0
 11
50.78003232750002
 21
16.5606830808
 31
0.0
1001
ACAD
1000
RTMaterial
1005
0
  0
LINE
  5
61261
330
1F
100
AcDbEntity
  8
cut
100
AcDbLine
 10
50.78003232750002
 20
16.5606830808
 30
0.0
 11
50.77546178519996
 21
16.474729494
 31
0.0
1001
ACAD
1000
RTMaterial
1005
0
  0
LINE
  5
61262
330
1F
100
AcDbEntity
  8
cut
100
AcDbLine
 10
50.77546178519996
 20
16.474729494
 30
0.0
 11
50.77199999980003
 21
16.4143924606
 31
0.0
1001
ACAD
1000
RTMaterial
1005
0
  0
LINE
  5
61263
330
1F
100
AcDbEntity
  8
cut
100
AcDbLine
 10
50.7360490277
 20
18.17788594640001
 30
0.0
 11
48.85254269829999
 21
24.33855755600002
 31
0.0
1001
ACAD
1000
RTMaterial
1005
0
  0
LWPOLYLINE
  5
61264
330
1F
100
AcDbEntity
  8
cut
100
AcDbPolyline
 90
       10
 70
     0
 43
0.0
 10
50.73604902739997
 20
18.17788594749998
 10
50.74863996510003
 20
18.13452151620001
 10
50.75986676380001
 20
18.09094260969999
 10
50.7697294235
 20
18.04714922810001
 10
50.7782375168
 20
18.003092251
 10
50.78538147109997
 20
17.95882079879999
 10
50.79113256839997
 20
17.91448223239999
 10
50.795481236
 20
17.870125672
 10
50.7984370464
 20
17.82570199739999
 10
50.79999999990004
 20
17.78121120859998
1001
ACAD
1000
RTMaterial
1005
0
  0
ARC
  5
61274
330
1F
100
AcDbEntity
  8
sk3
100
AcDbCircle
 10
61.80000000000001
 20
7.416511361400011
 30
0.0
 40
15.0
100
AcDbArc
 50
169.591434538355
 51
180.0
1001
ACAD
1000
RTMaterial
1005
0
  0
ARC
  5
61277
330
1F
100
AcDbEntity
  8
cut
100
AcDbCircle
 10
47.41808556440004
 20
23.89999999890003
 30
0.0
 40
1.5
100
AcDbArc
 50
16.99999999999936
 51
95.18845144070004
1001
ACAD
1000
RTMaterial
1005
0
  0
ARC
  5
6127A
330
1F
100
AcDbEntity
  8
sk3
100
AcDbCircle
 10
36.19999999999999
 20
8.449999998900011
 30
0.0
 40
0.8
100
AcDbArc
 50
0.0
 51
90.0
1001
ACAD
1000
RTMaterial
1005
0
  0
ARC
  5
6127B
330
1F
100
AcDbEntity
  8
sk3
100
AcDbCircle
 10
34.67735573010003
 20
8.449999998900011
 30
0.0
 40
0.8
100
AcDbArc
 50
90.0
 51
114.9999999999997
1001
ACAD
1000
RTMaterial
1005
0
  0
ARC
  5
6127D
330
1F
100
AcDbEntity
  8
sk3
100
AcDbCircle
 10
18.47735573010004
 20
11.19999999890001
 30
0.0
 40
0.8
100
AcDbArc
 50
90.0
 51
114.9999999999997
1001
ACAD
1000
RTMaterial
1005
0
  0
ARC
  5
6127F
330
1F
100
AcDbEntity
  8
sk3
100
AcDbCircle
 10
42.0
 20
7.099999998899987
 30
0.0
 40
0.4
100
AcDbArc
 50
0.0
 51
90.0
1001
ACAD
1000
RTMaterial
1005
0
  0
ARC
  5
61280
330
1F
100
AcDbEntity
  8
sk3
100
AcDbCircle
 10
25.89999999999998
 20
11.59999999889999
 30
0.0
 40
0.4
100
AcDbArc
 50
0.0
 51
90.0
1001
ACAD
1000
RTMaterial
1005
0
  0
LINE
  5
61319
330
1F
100
AcDbEntity
  8
sk3
100
AcDbLine
 10
1.199999999999962
 20
-4.762499999999987
 30
0.0
 11
1.199999999999988
 21
-10.0249999989
 31
0.0
1001
ACAD
1000
RTMaterial
1005
0
  0
LINE
  5
6131A
330
1F
100
AcDbEntity
  8
sk3
100
AcDbLine
 10
3.5
 20
-10.0249999989
 30
0.0
 11
3.499999999999976
 21
-4.762499999999987
 31
0.0
1001
ACAD
1000
RTMaterial
1005
0
  0
LINE
  5
6131B
330
1F
100
AcDbEntity
  8
sk3
100
AcDbLine
 10
1.199999999999988
 20
-10.0249999989
 30
0.0
 11
0.0
 21
-11.22499999889999
 31
0.0
1001
ACAD
1000
RTMaterial
1005
0
  0
LINE
  5
6131C
330
1F
100
AcDbEntity
  8
sk3
100
AcDbLine
 10
12.99234537170002
 20
-9.5249999989
 30
0.0
 11
12.99234537170002
 21
0.0
 31
0.0
1001
ACAD
1000
RTMaterial
1005
0
  0
LINE
  5
6131D
330
1F
100
AcDbEntity
  8
sk3
100
AcDbLine
 10
42.80000000000001
 20
-4.249999998899993
 30
0.0
 11
46.30000000000001
 21
-4.249999998899993
 31
0.0
1001
ACAD
1000
RTMaterial
1005
0
  0
LINE
  5
6131E
330
1F
100
AcDbEntity
  8
sk3
100
AcDbLine
 10
37.0
 20
-7.499999998899992
 30
0.0
 11
42.0
 21
-7.499999998899992
 31
0.0
1001
ACAD
1000
RTMaterial
1005
0
  0
LINE
  5
6131F
330
1F
100
AcDbEntity
  8
sk3
100
AcDbLine
 10
32.20000000000001
 20
-8.499999998899994
 30
0.0
 11
32.8916198096
 21
-8.499999998899994
 31
0.0
1001
ACAD
1000
RTMaterial
1005
0
  0
LINE
  5
61320
330
1F
100
AcDbEntity
  8
sk3
100
AcDbLine
 10
12.99234537170002
 20
-9.5249999989
 30
0.0
 11
18.13926112069998
 21
-11.92504622850001
 31
0.0
1001
ACAD
1000
RTMaterial
1005
0
  0
LINE
  5
61321
330
1F
100
AcDbEntity
  8
sk3
100
AcDbLine
 10
34.67735573010003
 20
-9.249999998899994
 30
0.0
 11
36.19999999999999
 21
-9.249999998899994
 31
0.0
1001
ACAD
1000
RTMaterial
1005
0
  0
LINE
  5
61322
330
1F
100
AcDbEntity
  8
sk3
100
AcDbLine
 10
3.5
 20
-9.5249999989
 30
0.0
 11
12.99234537170002
 21
-9.5249999989
 31
0.0
1001
ACAD
1000
RTMaterial
1005
0
  0
LINE
  5
61323
330
1F
100
AcDbEntity
  8
sk3
100
AcDbLine
 10
1.199999999999988
 20
-10.0249999989
 30
0.0
 11
3.5
 21
-10.0249999989
 31
0.0
1001
ACAD
1000
RTMaterial
1005
0
  0
LINE
  5
61324
330
1F
100
AcDbEntity
  8
sk3
100
AcDbLine
 10
18.47735573010004
 20
-11.99999999889999
 30
0.0
 11
25.89999999999998
 21
-11.99999999889999
 31
0.0
1001
ACAD
1000
RTMaterial
1005
0
  0
LINE
  5
61325
330
1F
100
AcDbEntity
  8
sk3
100
AcDbLine
 10
26.58867513391493
 20
-9.0
 30
0.0
 11
26.30000000000001
 21
-9.499999998899994
 31
0.0
1001
ACAD
1000
RTMaterial
1005
0
  0
LINE
  5
61326
330
1F
100
AcDbEntity
  8
sk3
100
AcDbLine
 10
26.30000000000001
 20
-8.999999999999998
 30
0.0
 11
26.30000000000001
 21
-11.59999999889999
 31
0.0
1001
ACAD
1000
RTMaterial
1005
0
  0
LINE
  5
61328
330
1F
100
AcDbEntity
  8
sk3
100
AcDbLine
 10
32.8916198096
 20
-8.499999998899994
 30
0.0
 11
32.8916198096
 21
-7.13499999999999
 31
0.0
1001
ACAD
1000
RTMaterial
1005
0
  0
LINE
  5
61329
330
1F
100
AcDbEntity
  8
sk3
100
AcDbLine
 10
32.8916198096
 20
-8.499999998899994
 30
0.0
 11
34.33926112069997
 21
-9.175046228500006
 31
0.0
1001
ACAD
1000
RTMaterial
1005
0
  0
LINE
  5
6132A
330
1F
100
AcDbEntity
  8
sk3
100
AcDbLine
 10
42.80000000000001
 20
-4.249999998899993
 30
0.0
 11
42.39999999999997
 21
-4.6499999989
 31
0.0
1001
ACAD
1000
RTMaterial
1005
0
  0
LINE
  5
6132B
330
1F
100
AcDbEntity
  8
sk3
100
AcDbLine
 10
36.19999999999999
 20
-9.249999998899994
 30
0.0
 11
36.19999999999997
 21
-7.13499999999999
 31
0.0
1001
ACAD
1000
RTMaterial
1005
0
  0
LINE
  5
6132C
330
1F
100
AcDbEntity
  8
sk3
100
AcDbLine
 10
37.0
 20
-8.449999998900011
 30
0.0
 11
37.0
 21
-7.13499999999999
 31
0.0
1001
ACAD
1000
RTMaterial
1005
0
  0
LINE
  5
6132D
330
1F
100
AcDbEntity
  8
sk3
100
AcDbLine
 10
42.39999999999997
 20
0.0
 30
0.0
 11
42.39999999999997
 21
-7.099999998899987
 31
0.0
1001
ACAD
1000
RTMaterial
1005
0
  0
LINE
  5
6132E
330
1F
100
AcDbEntity
  8
sk3
100
AcDbLine
 10
42.80000000000001
 20
0.0
 30
0.0
 11
42.80000000000001
 21
-4.249999998899993
 31
0.0
1001
ACAD
1000
RTMaterial
1005
0
  0
LINE
  5
6132F
330
1F
100
AcDbEntity
  8
sk3
100
AcDbLine
 10
46.30000000000001
 20
-4.249999998899993
 30
0.0
 11
46.30000000000001
 21
0.0
 31
0.0
1001
ACAD
1000
RTMaterial
1005
0
  0
LINE
  5
61330
330
1F
100
AcDbEntity
  8
sk3
100
AcDbLine
 10
48.19130777619999
 20
-13.72551254699999
 30
0.0
 11
49.5
 21
-16.54839831999999
 31
0.0
1001
ACAD
1000
RTMaterial
1005
0
  0
LINE
  5
61331
330
1F
100
AcDbEntity
  8
sk3
100
AcDbLine
 10
46.30000000000001
 20
-4.249999998899993
 30
0.0
 11
46.80000000000001
 21
-4.749999998899993
 31
0.0
1001
ACAD
1000
RTMaterial
1005
0
  0
LINE
  5
61332
330
1F
100
AcDbEntity
  8
sk3
100
AcDbLine
 10
46.80000000000001
 20
-7.416511361400011
 30
0.0
 11
46.80000000000001
 21
0.0
 31
0.0
1001
ACAD
1000
RTMaterial
1005
0
  0
ARC
  5
61333
330
1F
100
AcDbEntity
  8
sk3
100
AcDbCircle
 10
61.80000000000001
 20
-7.416511361400011
 30
0.0
 40
15.0
100
AcDbArc
 50
180.0
 51
204.8724787819007
1001
ACAD
1000
RTMaterial
1005
0
  0
ARC
  5
61334
330
1F
100
AcDbEntity
  8
sk3
100
AcDbCircle
 10
36.19999999999999
 20
-8.449999998900011
 30
0.0
 40
0.8
100
AcDbArc
 50
270.0
 51
0.0
1001
ACAD
1000
RTMaterial
1005
0
  0
ARC
  5
61335
330
1F
100
AcDbEntity
  8
sk3
100
AcDbCircle
 10
34.67735573010003
 20
-8.449999998900011
 30
0.0
 40
0.8
100
AcDbArc
 50
245.0000000000003
 51
270.0
1001
ACAD
1000
RTMaterial
1005
0
  0
ARC
  5
61336
330
1F
100
AcDbEntity
  8
sk3
100
AcDbCircle
 10
18.47735573010004
 20
-11.19999999890001
 30
0.0
 40
0.8
100
AcDbArc
 50
245.0000000000003
 51
270.0
1001
ACAD
1000
RTMaterial
1005
0
  0
ARC
  5
61337
330
1F
100
AcDbEntity
  8
sk3
100
AcDbCircle
 10
42.0
 20
-7.099999998899987
 30
0.0
 40
0.4
100
AcDbArc
 50
270.0
 51
0.0
1001
ACAD
1000
RTMaterial
1005
0
  0
ARC
  5
61338
330
1F
100
AcDbEntity
  8
sk3
100
AcDbCircle
 10
25.89999999999998
 20
-11.59999999889999
 30
0.0
 40
0.4
100
AcDbArc
 50
270.0
 51
0.0
1001
ACAD
1000
RTMaterial
1005
0
  0
DIMENSION
  5
61552
330
1F
100
AcDbEntity
  8
2
100
AcDbDimension
  2
*D15
 10
47.40952320451111
 20
23.48705589856828
 30
0.0
 11
73.47655118728635
 21
36.61772391221282
 31
0.0
 70
   164
 71
     5
 42
1.50000000000022
  3
\M+18352\M+18373\M+1815B - ISO-25
100
AcDbRadialDimension
 15
48.74916086773229
 25
24.16186767327292
 35
0.0
 40
0.0
1001
ACAD
1000
DSTYLE
1002
{
1070
     4
1000
"
1070
    40
1040
1.0
1070
   143
1040
0.0393700787401575
1070
   170
1070
     1
1070
   171
1070
     3
1070
   271
1070
     8
1070
   285
1070
     4
1002
}
  0
LINE
  5
617B1
330
1F
100
AcDbEntity
  8
1
100
AcDbLine
 10
40.39481285829999
 20
-23.87649559579998
 30
0.0
 11
41.67170571349998
 21
-23.55994986229999
 31
0.0
1001
ACAD
1000
RTMaterial
1005
0
  0
LINE
  5
617B2
330
1F
100
AcDbEntity
  8
1
100
AcDbLine
 10
36.11652497590001
 20
-23.90000000000001
 30
0.0
 11
40.20231717089996
 21
-23.90000000000001
 31
0.0
1001
ACAD
1000
RTMaterial
1005
0
  0
LINE
  5
617B3
330
1F
100
AcDbEntity
  8
1
100
AcDbLine
 10
9.562556682399986
 20
-22.225
 30
0.0
 11
1.5
 21
-22.225
 31
0.0
1001
ACAD
1000
RTMaterial
1005
0
  0
LINE
  5
617B4
330
1F
100
AcDbEntity
  8
1
100
AcDbLine
 10
41.93170633
 20
-23.53929861809999
 30
0.0
 11
46.78307789399997
 21
-23.95012818800001
 31
0.0
1001
ACAD
1000
RTMaterial
1005
0
  0
LINE
  5
617B5
330
1F
100
AcDbEntity
  8
1
100
AcDbLine
 10
27.61126847769998
 20
-21.97378519399999
 30
0.0
 11
33.5283345249
 21
-23.55925826289996
 31
0.0
1001
ACAD
1000
RTMaterial
1005
0
  0
LINE
  5
617B6
330
1F
100
AcDbEntity
  8
1
100
AcDbLine
 10
0.0
 20
-20.72499999999999
 30
0.0
 11
0.0
 21
-4.469999999999997
 31
0.0
1001
ACAD
1000
RTMaterial
1005
0
  0
LINE
  5
617B7
330
1F
100
AcDbEntity
  8
1
100
AcDbLine
 10
0.0
 20
4.469999999999997
 30
0.0
 11
0.0
 21
20.72500000000002
 31
0.0
1001
ACAD
1000
RTMaterial
1005
0
  0
LINE
  5
617B8
330
1F
100
AcDbEntity
  8
1
100
AcDbLine
 10
14.63725179459999
 20
-21.40732739230001
 30
0.0
 11
10.43079757069995
 21
-22.14903876509999
 31
0.0
1001
ACAD
1000
RTMaterial
1005
0
  0
LINE
  5
617B9
330
1F
100
AcDbEntity
  8
1
100
AcDbLine
 10
4.75999999999999
 20
2.969999999999998
 30
0.0
 11
4.75999999999999
 21
-2.969999999999998
 31
0.0
1001
ACAD
1000
RTMaterial
1005
0
  0
LINE
  5
617BA
330
1F
100
AcDbEntity
  8
1
100
AcDbLine
 10
0.0
 20
4.469999999999997
 30
0.0
 11
0.5
 21
3.969999999999998
 31
0.0
1001
ACAD
1000
RTMaterial
1005
0
  0
LINE
  5
617BB
330
1F
100
AcDbEntity
  8
1
100
AcDbLine
 10
3.75999999999999
 20
3.969999999999998
 30
0.0
 11
4.75999999999999
 21
2.969999999999998
 31
0.0
1001
ACAD
1000
RTMaterial
1005
0
  0
LINE
  5
617BC
330
1F
100
AcDbEntity
  8
1
100
AcDbLine
 10
0.5
 20
-3.969999999999998
 30
0.0
 11
0.0
 21
-4.469999999999997
 31
0.0
1001
ACAD
1000
RTMaterial
1005
0
  0
LINE
  5
617BD
330
1F
100
AcDbEntity
  8
1
100
AcDbLine
 10
0.5
 20
-3.969999999999998
 30
0.0
 11
3.75999999999999
 21
-3.969999999999998
 31
0.0
1001
ACAD
1000
RTMaterial
1005
0
  0
LINE
  5
617BE
330
1F
100
AcDbEntity
  8
1
100
AcDbLine
 10
4.75999999999999
 20
-2.969999999999998
 30
0.0
 11
3.75999999999999
 21
-3.969999999999998
 31
0.0
1001
ACAD
1000
RTMaterial
1005
0
  0
LINE
  5
617BF
330
1F
100
AcDbEntity
  8
1
100
AcDbLine
 10
41.99275596899997
 20
24.31913712830005
 30
0.0
 11
41.74177204909994
 21
24.19304077179999
 31
0.0
1001
ACAD
1000
RTMaterial
1005
0
  0
LINE
  5
617C0
330
1F
100
AcDbEntity
  8
1
100
AcDbLine
 10
41.74177204909994
 20
24.19304077179999
 30
0.0
 11
41.08235261969997
 21
23.86152271269998
 31
0.0
1001
ACAD
1000
RTMaterial
1005
0
  0
LINE
  5
617C1
330
1F
100
AcDbEntity
  8
1
100
AcDbLine
 10
41.08235261969997
 20
23.86152271269998
 30
0.0
 11
41.07477307699997
 21
23.8577561724
 31
0.0
1001
ACAD
1000
RTMaterial
1005
0
  0
LINE
  5
617C2
330
1F
100
AcDbEntity
  8
1
100
AcDbLine
 10
41.07477307699997
 20
23.8577561724
 30
0.0
 11
41.06698469129996
 21
23.85393844629999
 31
0.0
1001
ACAD
1000
RTMaterial
1005
0
  0
LINE
  5
617C3
330
1F
100
AcDbEntity
  8
1
100
AcDbLine
 10
41.06698469129996
 20
23.85393844629999
 30
0.0
 11
41.05900695889999
 21
23.85008366609998
 31
0.0
1001
ACAD
1000
RTMaterial
1005
0
  0
LINE
  5
617C4
330
1F
100
AcDbEntity
  8
1
100
AcDbLine
 10
41.05900695889999
 20
23.85008366609998
 30
0.0
 11
41.0508375736
 21
23.84619526590001
 31
0.0
1001
ACAD
1000
RTMaterial
1005
0
  0
LINE
  5
617C5
330
1F
100
AcDbEntity
  8
1
100
AcDbLine
 10
41.0508375736
 20
23.84619526590001
 30
0.0
 11
41.0285783594
 21
23.83590499720003
 31
0.0
1001
ACAD
1000
RTMaterial
1005
0
  0
LINE
  5
617C6
330
1F
100
AcDbEntity
  8
1
100
AcDbLine
 10
41.02870885419998
 20
23.8359640772
 30
0.0
 11
41.02855769369995
 21
23.83589569200001
 31
0.0
1001
ACAD
1000
RTMaterial
1005
0
  0
LINE
  5
617C8
330
1F
100
AcDbEntity
  8
1
100
AcDbLine
 10
0.5
 20
3.969999999999998
 30
0.0
 11
3.75999999999999
 21
3.969999999999998
 31
0.0
1001
ACAD
1000
RTMaterial
1005
0
  0
LINE
  5
617C9
330
1F
100
AcDbEntity
  8
1
100
AcDbLine
 10
36.0344890472
 20
18.5472462985
 30
0.0
 11
40.54574818420002
 21
23.3962937938
 31
0.0
1001
ACAD
1000
RTMaterial
1005
0
  0
LINE
  5
617CA
330
1F
100
AcDbEntity
  8
1
100
AcDbLine
 10
36.36908721409998
 20
19.14762009880002
 30
0.0
 11
39.9468394274
 21
22.96645852540001
 31
0.0
1001
ACAD
1000
RTMaterial
1005
0
  0
LINE
  5
617CB
330
1F
100
AcDbEntity
  8
1
100
AcDbLine
 10
39.50031524939999
 20
22.81657206810002
 30
0.0
 11
35.9499837935
 21
19.07972568400004
 31
0.0
1001
ACAD
1000
RTMaterial
1005
0
  0
LINE
  5
617CC
330
1F
100
AcDbEntity
  8
1
100
AcDbLine
 10
46.81960239249997
 20
10.02308625910001
 30
0.0
 11
46.93162426330003
 21
10.04618728880001
 31
0.0
1001
ACAD
1000
RTMaterial
1005
0
  0
LINE
  5
617CD
330
1F
100
AcDbEntity
  8
1
100
AcDbLine
 10
46.93162426330003
 20
10.04618728880001
 30
0.0
 11
46.99548552459996
 21
10.05936365310003
 31
0.0
1001
ACAD
1000
RTMaterial
1005
0
  0
LINE
  5
617CE
330
1F
100
AcDbEntity
  8
1
100
AcDbLine
 10
30.80515176770001
 20
6.964900086700025
 30
0.0
 11
45.4673888547
 21
6.385352899600036
 31
0.0
1001
ACAD
1000
RTMaterial
1005
0
  0
LINE
  5
617CF
330
1F
100
AcDbEntity
  8
1
100
AcDbLine
 10
39.50031524939999
 20
22.81657206810002
 30
0.0
 11
39.65857717950001
 21
23.04550424950003
 31
0.0
1001
ACAD
1000
RTMaterial
1005
0
  0
LINE
  5
617D3
330
1F
100
AcDbEntity
  8
1
100
AcDbLine
 10
46.92927484059999
 20
10.05757400909999
 30
0.0
 11
47.48350958859997
 21
10.07262659970001
 31
0.0
1001
ACAD
1000
RTMaterial
1005
0
  0
LINE
  5
617D4
330
1F
100
AcDbEntity
  8
1
100
AcDbLine
 10
46.73911719950001
 20
6.194732219299992
 30
0.0
 11
46.90613769839997
 21
6.151075603300028
 31
0.0
1001
ACAD
1000
RTMaterial
1005
0
  0
LINE
  5
617D5
330
1F
100
AcDbEntity
  8
1
100
AcDbLine
 10
40.05430135969999
 20
23.24835511340001
 30
0.0
 11
39.9468394274
 21
22.96645852540001
 31
0.0
1001
ACAD
1000
RTMaterial
1005
0
  0
LINE
  5
617D6
330
1F
100
AcDbEntity
  8
1
100
AcDbLine
 10
46.80820332019999
 20
9.993296794300023
 30
0.0
 11
46.83593856689998
 21
10.00658550909998
 31
0.0
1001
ACAD
1000
RTMaterial
1005
0
  0
LINE
  5
617D7
330
1F
100
AcDbEntity
  8
1
100
AcDbLine
 10
46.83593856689998
 20
10.00658550909998
 30
0.0
 11
46.90870861789998
 21
10.04145836539999
 31
0.0
1001
ACAD
1000
RTMaterial
1005
0
  0
LINE
  5
617D8
330
1F
100
AcDbEntity
  8
1
100
AcDbLine
 10
46.43220835069995
 20
10.1953078962
 30
0.0
 11
40.9609817465
 21
11.48283943460001
 31
0.0
1001
ACAD
1000
RTMaterial
1005
0
  0
LINE
  5
617D9
330
1F
100
AcDbEntity
  8
1
100
AcDbLine
 10
47.11048499709995
 20
10.1115249979
 30
0.0
 11
40.6867587917
 21
11.6232061403
 31
0.0
1001
ACAD
1000
RTMaterial
1005
0
  0
LINE
  5
617DA
330
1F
100
AcDbEntity
  8
1
100
AcDbLine
 10
42.42240442529999
 20
16.75344989019999
 30
0.0
 11
42.45141471099997
 21
16.7537860123
 31
0.0
1001
ACAD
1000
RTMaterial
1005
0
  0
LINE
  5
617DB
330
1F
100
AcDbEntity
  8
1
100
AcDbLine
 10
44.38450410049995
 20
16.24128120270001
 30
0.0
 11
44.60386891869996
 21
16.24128120270001
 31
0.0
1001
ACAD
1000
RTMaterial
1005
0
  0
LINE
  5
617DC
330
1F
100
AcDbEntity
  8
1
100
AcDbLine
 10
35.81113932350002
 20
16.16895257210001
 30
0.0
 11
29.09327534229999
 21
16.55307408229998
 31
0.0
1001
ACAD
1000
RTMaterial
1005
0
  0
LINE
  5
617DD
330
1F
100
AcDbEntity
  8
1
100
AcDbLine
 10
40.06085431369996
 20
23.26544647030005
 30
0.0
 11
40.058720236
 21
23.42591739350002
 31
0.0
1001
ACAD
1000
RTMaterial
1005
0
  0
LINE
  5
617E4
330
1F
100
AcDbEntity
  8
1
100
AcDbLine
 10
36.36908721409998
 20
19.14762009880002
 30
0.0
 11
36.21013368959996
 21
19.14514887050001
 31
0.0
1001
ACAD
1000
RTMaterial
1005
0
  0
LINE
  5
617E5
330
1F
100
AcDbEntity
  8
1
100
AcDbLine
 10
45.51397834310001
 20
18.34807394979998
 30
0.0
 11
45.48496805740001
 21
18.34773782770003
 31
0.0
1001
ACAD
1000
RTMaterial
1005
0
  0
LINE
  5
617E6
330
1F
100
AcDbEntity
  8
1
100
AcDbLine
 10
45.26560322999995
 20
18.3477195483
 30
0.0
 11
45.48496804819996
 21
18.3477195483
 31
0.0
1001
ACAD
1000
RTMaterial
1005
0
  0
LINE
  5
617E7
330
1F
100
AcDbEntity
  8
1
100
AcDbLine
 10
43.11314903159995
 20
18.86024263730002
 30
0.0
 11
43.33251384969996
 21
18.86024263730002
 31
0.0
1001
ACAD
1000
RTMaterial
1005
0
  0
LINE
  5
617E8
330
1F
100
AcDbEntity
  8
1
100
AcDbLine
 10
14.63725179459999
 20
21.40732739229997
 30
0.0
 11
10.43079757069995
 21
22.149038765
 31
0.0
1001
ACAD
1000
RTMaterial
1005
0
  0
LINE
  5
617E9
330
1F
100
AcDbEntity
  8
1
100
AcDbLine
 10
35.3970509807
 20
17.20324582889998
 30
0.0
 11
34.9484899295
 21
17.3123600454
 31
0.0
1001
ACAD
1000
RTMaterial
1005
0
  0
LINE
  5
617EA
330
1F
100
AcDbEntity
  8
1
100
AcDbLine
 10
47.11877837959997
 20
9.826433897000015
 30
0.0
 11
46.43220835069995
 21
10.1953078962
 31
0.0
1001
ACAD
1000
RTMaterial
1005
0
  0
LINE
  5
617EB
330
1F
100
AcDbEntity
  8
1
100
AcDbLine
 10
34.85149780799999
 20
18.41859525360002
 30
0.0
 11
35.2050193568
 21
18.16733438770001
 31
0.0
1001
ACAD
1000
RTMaterial
1005
0
  0
LINE
  5
617EC
330
1F
100
AcDbEntity
  8
1
100
AcDbLine
 10
35.3970509807
 20
17.20324582889998
 30
0.0
 11
35.7874546759
 21
16.92026435629998
 31
0.0
1001
ACAD
1000
RTMaterial
1005
0
  0
LINE
  5
617ED
330
1F
100
AcDbEntity
  8
1
100
AcDbLine
 10
39.45842522159995
 20
12.20416130180001
 30
0.0
 11
39.57135958629999
 21
12.12217183130002
 31
0.0
1001
ACAD
1000
RTMaterial
1005
0
  0
LINE
  5
617EE
330
1F
100
AcDbEntity
  8
1
100
AcDbLine
 10
39.370694857
 20
12.2686025516
 30
0.0
 11
39.45842522159995
 21
12.20416130180001
 31
0.0
1001
ACAD
1000
RTMaterial
1005
0
  0
LINE
  5
617EF
330
1F
100
AcDbEntity
  8
1
100
AcDbLine
 10
39.13713442199997
 20
12.44162471660002
 30
0.0
 11
39.2738234296
 21
12.34055716919999
 31
0.0
1001
ACAD
1000
RTMaterial
1005
0
  0
LINE
  5
617F0
330
1F
100
AcDbEntity
  8
1
100
AcDbLine
 10
39.2738234296
 20
12.34055716919999
 30
0.0
 11
39.370694857
 21
12.2686025516
 31
0.0
1001
ACAD
1000
RTMaterial
1005
0
  0
LINE
  5
617F1
330
1F
100
AcDbEntity
  8
1
100
AcDbLine
 10
35.43934564749998
 20
17.94696130940002
 30
0.0
 11
35.27809811240003
 21
18.10693118189998
 31
0.0
1001
ACAD
1000
RTMaterial
1005
0
  0
LINE
  5
617F2
330
1F
100
AcDbEntity
  8
1
100
AcDbLine
 10
35.81113932350002
 20
16.16895257210001
 30
0.0
 11
35.45987608909996
 21
16.6386929862
 31
0.0
1001
ACAD
1000
RTMaterial
1005
0
  0
LINE
  5
617F3
330
1F
100
AcDbEntity
  8
1
100
AcDbLine
 10
35.12045111389995
 20
17.48125339900002
 30
0.0
 11
35.30932386639995
 21
17.2245857899
 31
0.0
1001
ACAD
1000
RTMaterial
1005
0
  0
LINE
  5
617F4
330
1F
100
AcDbEntity
  8
1
100
AcDbLine
 10
38.61917847899997
 20
12.72667670280003
 30
0.0
 11
39.04917166159999
 21
12.14233978480001
 31
0.0
1001
ACAD
1000
RTMaterial
1005
0
  0
LINE
  5
617F5
330
1F
100
AcDbEntity
  8
1
100
AcDbLine
 10
38.1426761743
 20
13.69354442260004
 30
0.0
 11
35.89988821859999
 21
16.74136902740002
 31
0.0
1001
ACAD
1000
RTMaterial
1005
0
  0
LINE
  5
617F6
330
1F
100
AcDbEntity
  8
1
100
AcDbLine
 10
35.62707698089997
 20
17.64916146730002
 30
0.0
 11
35.48652280580001
 21
17.88806146210004
 31
0.0
1001
ACAD
1000
RTMaterial
1005
0
  0
LINE
  5
617F7
330
1F
100
AcDbEntity
  8
1
100
AcDbLine
 10
35.59249462809999
 20
17.3433835083
 30
0.0
 11
35.74717453019996
 21
17.00150790409998
 31
0.0
1001
ACAD
1000
RTMaterial
1005
0
  0
LINE
  5
617F8
330
1F
100
AcDbEntity
  8
1
100
AcDbLine
 10
38.43863323069996
 20
12.2722619104
 30
0.0
 11
38.4364551118
 21
12.28215787799996
 31
0.0
1001
ACAD
1000
RTMaterial
1005
0
  0
LINE
  5
617F9
330
1F
100
AcDbEntity
  8
1
100
AcDbLine
 10
38.4386364174
 20
12.27225782799996
 30
0.0
 11
38.43652356229995
 21
12.28207016290002
 31
0.0
1001
ACAD
1000
RTMaterial
1005
0
  0
LINE
  5
617FA
330
1F
100
AcDbEntity
  8
1
100
AcDbLine
 10
49.1640161995
 20
7.188257742400026
 30
0.0
 11
48.0344189886
 21
6.203699509400022
 31
0.0
1001
ACAD
1000
RTMaterial
1005
0
  0
LINE
  5
617FB
330
1F
100
AcDbEntity
  8
1
100
AcDbLine
 10
27.61126847769998
 20
21.97378519400002
 30
0.0
 11
33.5283345249
 21
23.55925826290002
 31
0.0
1001
ACAD
1000
RTMaterial
1005
0
  0
LINE
  5
617FC
330
1F
100
AcDbEntity
  8
1
100
AcDbLine
 10
41.28403460749995
 20
23.96313663109999
 30
0.0
 11
40.42831909680001
 21
23.80585591549999
 31
0.0
1001
ACAD
1000
RTMaterial
1005
0
  0
LINE
  5
617FD
330
1F
100
AcDbEntity
  8
1
100
AcDbLine
 10
43.54346343100002
 20
24.54954209380003
 30
0.0
 11
47.28467648929995
 21
24.98252754750001
 31
0.0
1001
ACAD
1000
RTMaterial
1005
0
  0
LINE
  5
617FF
330
1F
100
AcDbEntity
  8
1
100
AcDbLine
 10
9.562556682399986
 20
22.22500000000002
 30
0.0
 11
1.5
 21
22.22500000000002
 31
0.0
1001
ACAD
1000
RTMaterial
1005
0
  0
LINE
  5
61804
330
1F
100
AcDbEntity
  8
1
100
AcDbLine
 10
36.11652497590001
 20
23.04819694670005
 30
0.0
 11
39.43605053049998
 21
23.04856204060002
 31
0.0
1001
ACAD
1000
RTMaterial
1005
0
  0
LINE
  5
61805
330
1F
100
AcDbEntity
  8
1
100
AcDbLine
 10
39.43605053049998
 20
23.04856204060002
 30
0.0
 11
39.50031524939999
 21
22.81657206810002
 31
0.0
1001
ACAD
1000
RTMaterial
1005
0
  0
LINE
  5
61809
330
1F
100
AcDbEntity
  8
1
100
AcDbLine
 10
50.17456166739997
 20
14.4091992859
 30
0.0
 11
48.67613648089997
 21
10.9283891851
 31
0.0
1001
ACAD
1000
RTMaterial
1005
0
  0
LINE
  5
6180B
330
1F
100
AcDbEntity
  8
1
100
AcDbLine
 10
36.11652497590001
 20
23.89999999999998
 30
0.0
 11
38.34939951539997
 21
23.89999999999998
 31
0.0
1001
ACAD
1000
RTMaterial
1005
0
  0
LINE
  5
6180C
330
1F
100
AcDbEntity
  8
1
100
AcDbLine
 10
49.5
 20
-18.16375793270001
 30
0.0
 11
49.5
 21
12.84220676170003
 31
0.0
1001
ACAD
1000
RTMaterial
1005
0
  0
LINE
  5
61815
330
1F
100
AcDbEntity
  8
1
100
AcDbLine
 10
48.82358151369999
 20
23.99351446370002
 30
0.0
 11
50.73604858199995
 21
17.63278582589999
 31
0.0
1001
ACAD
1000
RTMaterial
1005
0
  0
LINE
  5
61816
330
1F
100
AcDbEntity
  8
1
100
AcDbLine
 10
48.03464458669997
 20
-23.0961512769
 30
0.0
 11
49.5
 21
-18.16375986849999
 31
0.0
1001
ACAD
1000
RTMaterial
1005
0
  0
ARC
  5
618BC
330
1F
100
AcDbEntity
  8
1
100
AcDbCircle
 10
19.84669712459998
 20
50.95155998260003
 30
0.0
 40
30.0
100
AcDbArc
 50
260.0000000000014
 51
285.0000000000012
1001
ACAD
1000
RTMaterial
1005
0
  0
ARC
  5
618BD
330
1F
100
AcDbEntity
  8
1
100
AcDbCircle
 10
19.84669712459998
 20
-50.9515599827
 30
0.0
 40
30.0
100
AcDbArc
 50
74.99999999999878
 51
99.99999999999857
1001
ACAD
1000
RTMaterial
1005
0
  0
ARC
  5
618BE
330
1F
100
AcDbEntity
  8
1
100
AcDbCircle
 10
36.11652497590001
 20
13.89999999999998
 30
0.0
 40
10.0
100
AcDbArc
 50
90.0
 51
105.0000000000012
1001
ACAD
1000
RTMaterial
1005
0
  0
ARC
  5
618BF
330
1F
100
AcDbEntity
  8
1
100
AcDbCircle
 10
36.11652497590001
 20
-13.9
 30
0.0
 40
10.0
100
AcDbArc
 50
254.9999999999988
 51
270.0
1001
ACAD
1000
RTMaterial
1005
0
  0
ARC
  5
618C0
330
1F
100
AcDbEntity
  8
1
100
AcDbCircle
 10
9.562556682399986
 20
17.22500000000002
 30
0.0
 40
5.0
100
AcDbArc
 50
80.00000000000147
 51
90.0
1001
ACAD
1000
RTMaterial
1005
0
  0
ARC
  5
618C1
330
1F
100
AcDbEntity
  8
1
100
AcDbCircle
 10
9.562556682399986
 20
-17.22499999999999
 30
0.0
 40
5.0
100
AcDbArc
 50
270.0
 51
279.9999999999986
1001
ACAD
1000
RTMaterial
1005
0
  0
ARC
  5
618C2
330
1F
100
AcDbEntity
  8
1
100
AcDbCircle
 10
1.5
 20
20.72500000000002
 30
0.0
 40
1.5
100
AcDbArc
 50
90.0
 51
180.0
1001
ACAD
1000
RTMaterial
1005
0
  0
ARC
  5
618C3
330
1F
100
AcDbEntity
  8
1
100
AcDbCircle
 10
1.5
 20
-20.72499999999999
 30
0.0
 40
1.5
100
AcDbArc
 50
180.0
 51
270.0
1001
ACAD
1000
RTMaterial
1005
0
  0
ARC
  5
618C4
330
1F
100
AcDbEntity
  8
1
100
AcDbCircle
 10
46.88433528769997
 20
-22.75440792800001
 30
0.0
 40
1.199999999999999
100
AcDbArc
 50
265.1595598184987
 51
343.4539353735004
1001
ACAD
1000
RTMaterial
1005
0
  0
ARC
  5
618C5
330
1F
100
AcDbEntity
  8
1
100
AcDbCircle
 10
40.20231717089996
 20
-23.1
 30
0.0
 40
0.8
100
AcDbArc
 50
270.0
 51
283.9231130791995
1001
ACAD
1000
RTMaterial
1005
0
  0
ARC
  5
618C6
330
1F
100
AcDbEntity
  8
1
100
AcDbCircle
 10
41.86420140089995
 20
-24.33644545809997
 30
0.0
 40
0.8
100
AcDbArc
 50
85.15955981849867
 51
103.9231130791995
1001
ACAD
1000
RTMaterial
1005
0
  0
SPLINE
  5
618D5
330
1F
100
AcDbEntity
  8
1
100
AcDbSpline
210
0.0
220
0.0
230
1.0
 70
     8
 71
     3
 72
    15
 73
    11
 74
     0
 42
0.0000000001
 43
0.0000000001
 40
0.0
 40
0.0
 40
0.0
 40
0.0
 40
0.1244514776
 40
0.2490242518
 40
0.3738114271
 40
0.498843241
 40
0.6240830983
 40
0.7494406878000001
 40
0.8747773967
 40
1.0
 40
1.0
 40
1.0
 40
1.0
 10
42.79359707110001
 20
18.99584044350001
 30
0.0
 10
42.76474873319995
 20
18.99583744919999
 30
0.0
 10
42.70672972249996
 20
18.98806469460003
 30
0.0
 10
42.62603048929997
 20
18.95389147330002
 30
0.0
 10
42.55698667339999
 20
18.89961915290001
 30
0.0
 10
42.50449260709996
 20
18.82904414149999
 30
0.0
 10
42.47216830920002
 20
18.74710576159998
 30
0.0
 10
42.46227428029999
 20
18.65949977740001
 30
0.0
 10
42.47543844959994
 20
18.57238537749998
 30
0.0
 10
42.49911189409999
 20
18.5184751813
 30
0.0
 10
42.51417460039998
 20
18.4936621461
 30
0.0
1001
ACAD
1000
RTMaterial
1005
0
  0
SPLINE
  5
618D6
330
1F
100
AcDbEntity
  8
1
100
AcDbSpline
210
0.0
220
0.0
230
1.0
 70
     8
 71
     3
 72
     9
 73
     5
 74
     0
 42
0.0000000001
 43
0.0000000001
 40
0.0
 40
0.0
 40
0.0
 40
0.0
 40
0.5000881161999999
 40
1.0
 40
1.0
 40
1.0
 40
1.0
 10
42.85324935419999
 20
20.8551990126
 30
0.0
 10
43.01242406889996
 20
20.90332125129998
 30
0.0
 10
43.33821727780002
 20
20.97629901280004
 30
0.0
 10
43.67118922690003
 20
21.00076361710002
 30
0.0
 10
43.83742055229999
 20
21.0007596438
 30
0.0
1001
ACAD
1000
RTMaterial
1005
0
  0
SPLINE
  5
618D7
330
1F
100
AcDbEntity
  8
1
100
AcDbSpline
210
0.0
220
0.0
230
1.0
 70
     8
 71
     3
 72
    17
 73
    13
 74
     0
 42
0.0000000001
 43
0.0000000001
 40
0.0
 40
0.0
 40
0.0
 40
0.0
 40
0.1247598381
 40
0.1874434034
 40
0.2502024794
 40
0.375444085
 40
0.5007119698000003
 40
0.5634992445
 40
0.6262282174
 40
0.7510631868000001
 40
0.8756079038999999
 40
1.0
 40
1.0
 40
1.0
 40
1.0
 10
42.24904986549995
 20
17.36342568970002
 30
0.0
 10
42.21922478359998
 20
17.3446813187
 30
0.0
 10
42.17864358989999
 20
17.30884679490003
 30
0.0
 10
42.13833816339994
 20
17.25055981650001
 30
0.0
 10
42.10772343589995
 20
17.18643361839997
 30
0.0
 10
42.08942337669998
 20
17.09823887670001
 30
0.0
 10
42.09994334839996
 20
17.00877119839998
 30
0.0
 10
42.12481748419998
 20
16.9421881458
 30
0.0
 10
42.15990317220001
 20
16.8805225584
 30
0.0
 10
42.22169974399998
 20
16.81535387710005
 30
0.0
 10
42.31646023569999
 20
16.76503897049997
 30
0.0
 10
42.38728203099998
 20
16.75343996800001
 30
0.0
 10
42.42240442319995
 20
16.75343503070002
 30
0.0
1001
ACAD
1000
RTMaterial
1005
0
  0
SPLINE
  5
618D8
330
1F
100
AcDbEntity
  8
1
100
AcDbSpline
210
0.0
220
0.0
230
1.0
 70
     8
 71
     3
 72
    15
 73
    11
 74
     0
 42
0.0000000001
 43
0.0000000001
 40
0.0
 40
0.0
 40
0.0
 40
0.0
 40
0.1254633772
 40
0.250841004
 40
0.3760926194
 40
0.5011746346
 40
0.6260782249
 40
0.7508206170000003
 40
0.87542962
 40
1.0
 40
1.0
 40
1.0
 40
1.0
 10
43.26964926239996
 20
15.95709279690004
 30
0.0
 10
43.26786336619995
 20
16.00978919940002
 30
0.0
 10
43.25419862069998
 20
16.1150803241
 30
0.0
 10
43.2041851564
 20
16.2659810024
 30
0.0
 10
43.1264942985
 20
16.40456085740004
 30
0.0
 10
43.0239633992
 20
16.5256457849
 30
0.0
 10
42.90036839219999
 20
16.62480229819999
 30
0.0
 10
42.76022715639999
 20
16.69835837430003
 30
0.0
 10
42.60876744789999
 20
16.74362418240002
 30
0.0
 10
42.50376608129999
 20
16.75379907889999
 30
0.0
 10
42.45141471239998
 20
16.75380329960001
 30
0.0
1001
ACAD
1000
RTMaterial
1005
0
  0
SPLINE
  5
618D9
330
1F
100
AcDbEntity
  8
1
100
AcDbSpline
210
0.0
220
0.0
230
1.0
 70
     8
 71
     3
 72
    11
 73
     7
 74
     0
 42
0.0000000001
 43
0.0000000001
 40
0.0
 40
0.0
 40
0.0
 40
0.0
 40
0.2508681339
 40
0.501205806
 40
0.7508463498000002
 40
1.0
 40
1.0
 40
1.0
 40
1.0
 10
43.26964926239996
 20
15.95709279690004
 30
0.0
 10
43.271071301
 20
15.91513273010003
 30
0.0
 10
43.2901914358
 20
15.83098110660001
 30
0.0
 10
43.36360958360001
 20
15.72531465880001
 30
0.0
 10
43.47094188959998
 20
15.65482367880003
 30
0.0
 10
43.55530149639998
 20
15.6383520645
 30
0.0
 10
43.59699872459998
 20
15.63835415120002
 30
0.0
1001
ACAD
1000
RTMaterial
1005
0
  0
SPLINE
  5
618DA
330
1F
100
AcDbEntity
  8
1
100
AcDbSpline
210
0.0
220
0.0
230
1.0
 70
     8
 71
     3
 72
     9
 73
     5
 74
     0
 42
0.0000000001
 43
0.0000000001
 40
0.0
 40
0.0
 40
0.0
 40
0.0
 40
0.5002345653
 40
1.0
 40
1.0
 40
1.0
 40
1.0
 10
44.98879078099998
 20
16.14442902720003
 30
0.0
 10
44.9300295552
 20
16.1759664429
 30
0.0
 10
44.8043254181
 20
16.22475602899999
 30
0.0
 10
44.67049588010001
 20
16.2412763881
 30
0.0
 10
44.60386891669997
 20
16.24128015760003
 30
0.0
1001
ACAD
1000
RTMaterial
1005
0
  0
SPLINE
  5
618DB
330
1F
100
AcDbEntity
  8
1
100
AcDbSpline
210
0.0
220
0.0
230
1.0
 70
     8
 71
     3
 72
     9
 73
     5
 74
     0
 42
0.0000000001
 43
0.0000000001
 40
0.0
 40
0.0
 40
0.0
 40
0.0
 40
0.5002415732
 40
1.0
 40
1.0
 40
1.0
 40
1.0
 10
44.98879078099998
 20
16.14442902720003
 30
0.0
 10
45.01229958789997
 20
16.13181174420003
 30
0.0
 10
45.06258944729995
 20
16.11229320749998
 30
0.0
 10
45.11613076489997
 20
16.10568062980002
 30
0.0
 10
45.14278569729998
 20
16.10568339650001
 30
0.0
1001
ACAD
1000
RTMaterial
1005
0
  0
SPLINE
  5
618DC
330
1F
100
AcDbEntity
  8
1
100
AcDbSpline
210
0.0
220
0.0
230
1.0
 70
     8
 71
     3
 72
    15
 73
    11
 74
     0
 42
0.0000000001
 43
0.0000000001
 40
0.0
 40
0.0
 40
0.0
 40
0.0
 40
0.1246152977
 40
0.2494026061
 40
0.3743679102000001
 40
0.499467338
 40
0.6246475461
 40
0.7498431609000003
 40
0.8749758731
 40
1.0
 40
1.0
 40
1.0
 40
1.0
 10
42.24904986549995
 20
17.36342568970002
 30
0.0
 10
42.29421928789998
 20
17.39181362229999
 30
0.0
 10
42.3792732274
 20
17.457686158
 30
0.0
 10
42.48513561419996
 20
17.57931023909998
 30
0.0
 10
42.56561443949999
 20
17.71933577430002
 30
0.0
 10
42.61758416010002
 20
17.8724105869
 30
0.0
 10
42.63910756219996
 20
18.03272503560004
 30
0.0
 10
42.6293452735
 20
18.1942106445
 30
0.0
 10
42.58872128339999
 20
18.35067892569998
 30
0.0
 10
42.54194940499997
 20
18.44790826960002
 30
0.0
 10
42.51417460039998
 20
18.4936621461
 30
0.0
1001
ACAD
1000
RTMaterial
1005
0
  0
SPLINE
  5
618DD
330
1F
100
AcDbEntity
  8
1
100
AcDbSpline
210
0.0
220
0.0
230
1.0
 70
     8
 71
     3
 72
    11
 73
     7
 74
     0
 42
0.0000000001
 43
0.0000000001
 40
0.0
 40
0.0
 40
0.0
 40
0.0
 40
0.249467058
 40
0.4991880220000002
 40
0.7493383976000001
 40
1.0
 40
1.0
 40
1.0
 40
1.0
 10
43.3325138517
 20
18.86024368240004
 30
0.0
 10
43.40547760689998
 20
18.86023955440004
 30
0.0
 10
43.55223685509996
 20
18.88015113210002
 30
0.0
 10
43.75600695920002
 20
18.96760286060004
 30
0.0
 10
43.92953785349999
 20
19.10619255699998
 30
0.0
 10
44.01683600049993
 20
19.22637604900001
 30
0.0
 10
44.05167191100002
 20
19.29088399379998
 30
0.0
1001
ACAD
1000
RTMaterial
1005
0
  0
SPLINE
  5
618DE
330
1F
100
AcDbEntity
  8
1
100
AcDbSpline
210
0.0
220
0.0
230
1.0
 70
     8
 71
     3
 72
    27
 73
    23
 74
     0
 42
0.0000000001
 43
0.0000000001
 40
0.0
 40
0.0
 40
0.0
 40
0.0
 40
0.062294034
 40
0.0934940525
 40
0.1247142261
 40
0.1871537106
 40
0.2496755421
 40
0.2809961991
 40
0.3123338451
 40
0.3749884616
 40
0.4376768220000001
 40
0.5003705172
 40
0.5630404831
 40
0.6256606482000003
 40
0.6882110874
 40
0.7194872326999999
 40
0.7507425555000001
 40
0.8131301215
 40
0.8754449565999998
 40
0.9066118812999999
 40
0.9377680168999999
 40
1.0
 40
1.0
 40
1.0
 40
1.0
 10
42.85324935419999
 20
20.8551990126
 30
0.0
 10
42.65867778080003
 20
20.79637547560003
 30
0.0
 10
42.37374354169998
 20
20.68148758109999
 30
0.0
 10
42.01975254919999
 20
20.47996135519998
 30
0.0
 10
41.6846327934
 20
20.24738094499998
 30
0.0
 10
41.30636083289997
 20
19.90160069040001
 30
0.0
 10
40.99521218459995
 20
19.49396165990004
 30
0.0
 10
40.79240343339995
 20
19.13885600880002
 30
0.0
 10
40.62161578690001
 20
18.7668191276
 30
0.0
 10
40.47090772159997
 20
18.27523662420003
 30
0.0
 10
40.39680011109999
 20
17.66299555440002
 30
0.0
 10
40.43146665459993
 20
17.04712835960004
 30
0.0
 10
40.57390943349997
 20
16.4471820073
 30
0.0
 10
40.8195312807
 20
15.88218262859999
 30
0.0
 10
41.10414720159996
 20
15.45487422650001
 30
0.0
 10
41.37389713419998
 20
15.14795274030001
 30
0.0
 10
41.66944505919996
 20
14.86654721440004
 30
0.0
 10
42.08380717189998
 20
14.56617641409997
 30
0.0
 10
42.54477773349996
 20
14.34451325830002
 30
0.0
 10
42.93208686559999
 20
14.21880552380003
 30
0.0
 10
43.32870473690002
 20
14.1282735945
 30
0.0
 10
43.6343539806
 20
14.10076904990001
 30
0.0
 10
43.83742055239998
 20
14.10076419620003
 30
0.0
1001
ACAD
1000
RTMaterial
1005
0
  0
SPLINE
  5
618DF
330
1F
100
AcDbEntity
  8
1
100
AcDbSpline
210
0.0
220
0.0
230
1.0
 70
     8
 71
     3
 72
    11
 73
     7
 74
     0
 42
0.0000000001
 43
0.0000000001
 40
0.0
 40
0.0
 40
0.0
 40
0.0
 40
0.2494663652
 40
0.4991917696
 40
0.7493306180000002
 40
1.0
 40
1.0
 40
1.0
 40
1.0
 10
44.3393840438
 20
19.46316968880001
 30
0.0
 10
44.31019371689999
 20
19.46316822799997
 30
0.0
 10
44.25147927170002
 20
19.45520689760002
 30
0.0
 10
44.16996093779999
 20
19.42021413269998
 30
0.0
 10
44.10053267170002
 20
19.364775071
 30
0.0
 10
44.06560904999998
 20
19.31669231
 30
0.0
 10
44.05167191100002
 20
19.29088399379998
 30
0.0
1001
ACAD
1000
RTMaterial
1005
0
  0
SPLINE
  5
618E0
330
1F
100
AcDbEntity
  8
1
100
AcDbSpline
210
0.0
220
0.0
230
1.0
 70
     8
 71
     3
 72
    27
 73
    23
 74
     0
 42
0.0000000001
 43
0.0000000001
 40
0.0
 40
0.0
 40
0.0
 40
0.0
 40
0.0622319831
 40
0.0933881187
 40
0.1245550434
 40
0.1868698785
 40
0.2492574445
 40
0.2805127673
 40
0.3117889126
 40
0.3743393518
 40
0.4369595169
 40
0.4996294828
 40
0.562323178
 40
0.6250115384
 40
0.6876661549
 40
0.7190038009000001
 40
0.7503244579000003
 40
0.8128462893999998
 40
0.8752857738999999
 40
0.9065059474999999
 40
0.9377059659999995
 40
1.0
 40
1.0
 40
1.0
 40
1.0
 10
43.9194436468
 20
21.0007596438
 30
0.0
 10
44.12251021849999
 20
21.00075479010002
 30
0.0
 10
44.42815946219996
 20
20.97325024549997
 30
0.0
 10
44.82477733359996
 20
20.8827183162
 30
0.0
 10
45.21208646569999
 20
20.7570105817
 30
0.0
 10
45.67305702729997
 20
20.5353474259
 30
0.0
 10
46.08741913999993
 20
20.23497662559998
 30
0.0
 10
46.382967065
 20
19.95357109970001
 30
0.0
 10
46.6527169976
 20
19.64664961350002
 30
0.0
 10
46.93733291849997
 20
19.21934121139998
 30
0.0
 10
47.18295476569999
 20
18.65434183270003
 30
0.0
 10
47.32539754449997
 20
18.05439548039998
 30
0.0
 10
47.36006408809998
 20
17.4385282856
 30
0.0
 10
47.28595647759999
 20
16.82628721579999
 30
0.0
 10
47.13524841229996
 20
16.33470471240002
 30
0.0
 10
46.96446076579997
 20
15.9626678312
 30
0.0
 10
46.76165201459997
 20
15.60756218010005
 30
0.0
 10
46.45050336629997
 20
15.19992314960001
 30
0.0
 10
46.07223140569999
 20
14.85414289499999
 30
0.0
 10
45.73711164999997
 20
14.62156248479999
 30
0.0
 10
45.3831206575
 20
14.42003625889998
 30
0.0
 10
45.09818641839996
 20
14.30514836439999
 30
0.0
 10
44.90361484499999
 20
14.24632482740003
 30
0.0
1001
ACAD
1000
RTMaterial
1005
0
  0
SPLINE
  5
618E1
330
1F
100
AcDbEntity
  8
1
100
AcDbSpline
210
0.0
220
0.0
230
1.0
 70
     8
 71
     3
 72
     9
 73
     5
 74
     0
 42
0.0000000001
 43
0.0000000001
 40
0.0
 40
0.0
 40
0.0
 40
0.0
 40
0.4999118838000002
 40
1.0
 40
1.0
 40
1.0
 40
1.0
 10
43.91944364689999
 20
14.10076419620003
 30
0.0
 10
44.08567497229995
 20
14.10076022290002
 30
0.0
 10
44.41864692139995
 20
14.12522482719998
 30
0.0
 10
44.74444013030001
 20
14.19820258870004
 30
0.0
 10
44.90361484499999
 20
14.24632482740003
 30
0.0
1001
ACAD
1000
RTMaterial
1005
0
  0
SPLINE
  5
618E2
330
1F
100
AcDbEntity
  8
1
100
AcDbSpline
210
0.0
220
0.0
230
1.0
 70
     8
 71
     3
 72
     9
 73
     5
 74
     0
 42
0.0000000001
 43
0.0000000001
 40
0.0
 40
0.0
 40
0.0
 40
0.0
 40
0.4997570725
 40
1.0
 40
1.0
 40
1.0
 40
1.0
 10
43.11314903189995
 20
18.86024708819997
 30
0.0
 10
43.0465232285
 20
18.86024773409997
 30
0.0
 10
42.91269297199999
 20
18.87676630219999
 30
0.0
 10
42.78698933749995
 20
18.9255568913
 30
0.0
 10
42.7282271693
 20
18.95709481280005
 30
0.0
1001
ACAD
1000
RTMaterial
1005
0
  0
SPLINE
  5
618E3
330
1F
100
AcDbEntity
  8
1
100
AcDbSpline
210
0.0
220
0.0
230
1.0
 70
     8
 71
     3
 72
    27
 73
    23
 74
     0
 42
0.0000000001
 43
0.0000000001
 40
0.0
 40
0.0
 40
0.0
 40
0.0
 40
0.062294034
 40
0.0934940525
 40
0.1247142261
 40
0.1871537106
 40
0.2496755421
 40
0.2809961991
 40
0.3123338451
 40
0.3749884616
 40
0.4376768220000001
 40
0.5003705172
 40
0.5630404831
 40
0.6256606482000003
 40
0.6882110874
 40
0.7194872326999999
 40
0.7507425555000001
 40
0.8131301215
 40
0.8754449565999998
 40
0.9066118812999999
 40
0.9377680168999999
 40
1.0
 40
1.0
 40
1.0
 40
1.0
 10
42.93527244869992
 20
20.8551990126
 30
0.0
 10
42.74070087529998
 20
20.79637547560003
 30
0.0
 10
42.45576663619999
 20
20.68148758109999
 30
0.0
 10
42.10177564369995
 20
20.47996135519998
 30
0.0
 10
41.7666558879
 20
20.24738094499998
 30
0.0
 10
41.38838392740001
 20
19.90160069040001
 30
0.0
 10
41.07723527909995
 20
19.49396165990004
 30
0.0
 10
40.87442652789997
 20
19.13885600880002
 30
0.0
 10
40.70363888139996
 20
18.7668191276
 30
0.0
 10
40.5529308161
 20
18.27523662420003
 30
0.0
 10
40.47882320560001
 20
17.66299555440002
 30
0.0
 10
40.51348974919998
 20
17.04712835960004
 30
0.0
 10
40.65593252799999
 20
16.4471820073
 30
0.0
 10
40.90155437519996
 20
15.88218262859999
 30
0.0
 10
41.18617029609999
 20
15.45487422650001
 30
0.0
 10
41.45592022869999
 20
15.14795274030001
 30
0.0
 10
41.75146815369997
 20
14.86654721440004
 30
0.0
 10
42.16583026639995
 20
14.56617641409997
 30
0.0
 10
42.626800828
 20
14.34451325830002
 30
0.0
 10
43.01410996010003
 20
14.21880552380003
 30
0.0
 10
43.41072783149996
 20
14.1282735945
 30
0.0
 10
43.71637707510001
 20
14.10076904990001
 30
0.0
 10
43.91944364689999
 20
14.10076419620003
 30
0.0
1001
ACAD
1000
RTMaterial
1005
0
  0
SPLINE
  5
618E4
330
1F
100
AcDbEntity
  8
1
100
AcDbSpline
210
0.0
220
0.0
230
1.0
 70
     8
 71
     3
 72
     9
 73
     5
 74
     0
 42
0.0000000001
 43
0.0000000001
 40
0.0
 40
0.0
 40
0.0
 40
0.0
 40
0.5000881161999999
 40
1.0
 40
1.0
 40
1.0
 40
1.0
 10
42.93527244869992
 20
20.8551990126
 30
0.0
 10
43.09444716339997
 20
20.90332125129998
 30
0.0
 10
43.42024037229998
 20
20.97629901280004
 30
0.0
 10
43.75321232139998
 20
21.00076361710002
 30
0.0
 10
43.9194436468
 20
21.0007596438
 30
0.0
1001
ACAD
1000
RTMaterial
1005
0
  0
SPLINE
  5
618E5
330
1F
100
AcDbEntity
  8
1
100
AcDbSpline
210
0.0
220
0.0
230
1.0
 70
     8
 71
     3
 72
    27
 73
    23
 74
     0
 42
0.0000000001
 43
0.0000000001
 40
0.0
 40
0.0
 40
0.0
 40
0.0
 40
0.0623165735
 40
0.0935372401
 40
0.124780875
 40
0.1872609599
 40
0.2498303926
 40
0.2811822964
 40
0.3125505372
 40
0.3752468673
 40
0.4379614894
 40
0.5006589028000003
 40
0.5633062567
 40
0.6258782629000002
 40
0.6883609695000003
 40
0.7196060297
 40
0.7508297534000003
 40
0.8131466078
 40
0.8754123264
 40
0.9065740271999999
 40
0.9377337935999999
 40
1.0
 40
1.0
 40
1.0
 40
1.0
 10
43.29752605779996
 20
19.80257683330001
 30
0.0
 10
43.15140669459998
 20
19.75840153270002
 30
0.0
 10
42.93788671539997
 20
19.6700205427
 30
0.0
 10
42.6754840076
 20
19.51256945199998
 30
0.0
 10
42.42938016429997
 20
19.32985311269998
 30
0.0
 10
42.1570029252
 20
19.0570896026
 30
0.0
 10
41.94295010019999
 20
18.73620121780004
 30
0.0
 10
41.81154746829998
 20
18.458370855
 30
0.0
 10
41.70770410299996
 20
18.16878487159999
 30
0.0
 10
41.6316539746
 20
17.7896391168
 30
0.0
 10
41.63030180519996
 20
17.3259883298
 30
0.0
 10
41.71869857079997
 20
16.87088305560002
 30
0.0
 10
41.8935472676
 20
16.44187718659997
 30
0.0
 10
42.1480350718
 20
16.05547481420001
 30
0.0
 10
42.4188075422
 20
15.78100550799996
 30
0.0
 10
42.66380110509999
 20
15.59681641989999
 30
0.0
 10
42.92534077959999
 20
15.43775879840001
 30
0.0
 10
43.27951066700001
 20
15.28857661490002
 30
0.0
 10
43.65595554859999
 20
15.21199780530003
 30
0.0
 10
43.96118015279999
 20
15.195995428
 30
0.0
 10
44.2664003507
 20
15.21012799010003
 30
0.0
 10
44.49285544759999
 20
15.25480741050001
 30
0.0
 10
44.6388567106
 20
15.29894700670002
 30
0.0
1001
ACAD
1000
RTMaterial
1005
0
  0
SPLINE
  5
618E6
330
1F
100
AcDbEntity
  8
1
100
AcDbSpline
210
0.0
220
0.0
230
1.0
 70
     8
 71
     3
 72
     8
 73
     4
 74
     0
 42
0.0000000001
 43
0.0000000001
 40
0.0
 40
0.0
 40
0.0
 40
0.0
 40
1.0
 40
1.0
 40
1.0
 40
1.0
 10
42.7282271693
 20
18.95709481280005
 30
0.0
 10
42.71403650439999
 20
18.96471100679997
 30
0.0
 10
42.6992378278
 20
18.97128610330003
 30
0.0
 10
42.68407863209995
 20
18.97672486810001
 30
0.0
1001
ACAD
1000
RTMaterial
1005
0
  0
SPLINE
  5
618E7
330
1F
100
AcDbEntity
  8
1
100
AcDbSpline
210
0.0
220
0.0
230
1.0
 70
     8
 71
     3
 72
    15
 73
    11
 74
     0
 42
0.0000000001
 43
0.0000000001
 40
0.0
 40
0.0
 40
0.0
 40
0.0
 40
0.1246152977
 40
0.2494026061
 40
0.3743679102000001
 40
0.499467338
 40
0.6246475461
 40
0.7498431609000003
 40
0.8749758731
 40
1.0
 40
1.0
 40
1.0
 40
1.0
 10
45.68733290289998
 20
17.7380981503
 30
0.0
 10
45.64216348049995
 20
17.70971021769998
 30
0.0
 10
45.55710954109996
 20
17.64383768200002
 30
0.0
 10
45.4512471542
 20
17.52221360089999
 30
0.0
 10
45.3707683289
 20
17.38218806570001
 30
0.0
 10
45.31879860829997
 20
17.22911325310002
 30
0.0
 10
45.29727520619997
 20
17.06879880440004
 30
0.0
 10
45.30703749489997
 20
16.90731319549996
 30
0.0
 10
45.347661485
 20
16.75084491429999
 30
0.0
 10
45.3944333635
 20
16.6536155704
 30
0.0
 10
45.42220816799999
 20
16.60786169390002
 30
0.0
1001
ACAD
1000
RTMaterial
1005
0
  0
SPLINE
  5
618E8
330
1F
100
AcDbEntity
  8
1
100
AcDbSpline
210
0.0
220
0.0
230
1.0
 70
     8
 71
     3
 72
    11
 73
     7
 74
     0
 42
0.0000000001
 43
0.0000000001
 40
0.0
 40
0.0
 40
0.0
 40
0.0
 40
0.2506668472
 40
0.5009535373
 40
0.7507429308
 40
1.0
 40
1.0
 40
1.0
 40
1.0
 10
44.44736868789997
 20
19.14443104309998
 30
0.0
 10
44.4462597407
 20
19.17715272639998
 30
0.0
 10
44.4342372575
 20
19.24262678180003
 30
0.0
 10
44.38834876679999
 20
19.3308730951
 30
0.0
 10
44.31876529659996
 20
19.40169936000001
 30
0.0
 10
44.2603492467
 20
19.43314549950003
 30
0.0
 10
44.22969791709999
 20
19.44411868610001
 30
0.0
1001
ACAD
1000
RTMaterial
1005
0
  0
SPLINE
  5
618E9
330
1F
100
AcDbEntity
  8
1
100
AcDbSpline
210
0.0
220
0.0
230
1.0
 70
     8
 71
     3
 72
    15
 73
    11
 74
     0
 42
0.0000000001
 43
0.0000000001
 40
0.0
 40
0.0
 40
0.0
 40
0.0
 40
0.1245736117
 40
0.2491833345
 40
0.3739245912
 40
0.4988276656
 40
0.623909795
 40
0.7491585484000001
 40
0.8745414947
 40
1.0
 40
1.0
 40
1.0
 40
1.0
 10
45.26560324970001
 20
18.34772084870002
 30
0.0
 10
45.2132504658
 20
18.34772651120005
 30
0.0
 10
45.10824735969999
 20
18.3578992331
 30
0.0
 10
44.95678594949999
 20
18.40316544479998
 30
0.0
 10
44.81664580400003
 20
18.47672274540002
 30
0.0
 10
44.69305052559995
 20
18.57587840280001
 30
0.0
 10
44.59052291089999
 20
18.69696433000001
 30
0.0
 10
44.51282876619996
 20
18.83554388930003
 30
0.0
 10
44.46282101119999
 20
18.98644573410001
 30
0.0
 10
44.44915451669999
 20
19.0917366296
 30
0.0
 10
44.44736868789997
 20
19.14443104309998
 30
0.0
1001
ACAD
1000
RTMaterial
1005
0
  0
SPLINE
  5
618EA
330
1F
100
AcDbEntity
  8
1
100
AcDbSpline
210
0.0
220
0.0
230
1.0
 70
     8
 71
     3
 72
    15
 73
    11
 74
     0
 42
0.0000000001
 43
0.0000000001
 40
0.0
 40
0.0
 40
0.0
 40
0.0
 40
0.1248508811
 40
0.2499694856
 40
0.3752986840999999
 40
0.5006607583
 40
0.6258783003000003
 40
0.7508282974
 40
0.8754861621999998
 40
1.0
 40
1.0
 40
1.0
 40
1.0
 10
45.46796808479995
 20
17.7380981503
 30
0.0
 10
45.49735852679996
 20
17.75656936019999
 30
0.0
 10
45.5506387803
 20
17.80334144330003
 30
0.0
 10
45.60439132779999
 20
17.89473763940003
 30
0.0
 10
45.62716326549997
 20
17.99852564370002
 30
0.0
 10
45.61655095719999
 20
18.10425912440001
 30
0.0
 10
45.57366612159994
 20
18.2013773557
 30
0.0
 10
45.50272240659995
 20
18.28013746240003
 30
0.0
 10
45.41093441179996
 20
18.33261428650002
 30
0.0
 10
45.34162928389998
 20
18.34651794569998
 30
0.0
 10
45.3070356997
 20
18.3478485562
 30
0.0
1001
ACAD
1000
RTMaterial
1005
0
  0
SPLINE
  5
618EB
330
1F
100
AcDbEntity
  8
1
100
AcDbSpline
210
0.0
220
0.0
230
1.0
 70
     8
 71
     3
 72
    15
 73
    11
 74
     0
 42
0.0000000001
 43
0.0000000001
 40
0.0
 40
0.0
 40
0.0
 40
0.0
 40
0.1250203904
 40
0.2501580999
 40
0.3753520207999999
 40
0.5005326659
 40
0.6256325262
 40
0.7505961423000001
 40
0.8753884264999999
 40
1.0
 40
1.0
 40
1.0
 40
1.0
 10
45.20284334989997
 20
16.60786169390002
 30
0.0
 10
45.1750693441
 20
16.65361425470002
 30
0.0
 10
45.12829863029998
 20
16.75084459049998
 30
0.0
 10
45.08766966029996
 20
16.90731172760002
 30
0.0
 10
45.07790989879999
 20
17.06879935810002
 30
0.0
 10
45.09943089559999
 20
17.22911393800001
 30
0.0
 10
45.1514028304
 20
17.3821877981
 30
0.0
 10
45.23188028459998
 20
17.52221626530001
 30
0.0
 10
45.33774662679996
 20
17.6438370921
 30
0.0
 10
45.42279996129997
 20
17.70971103400001
 30
0.0
 10
45.46796808479995
 20
17.7380981503
 30
0.0
1001
ACAD
1000
RTMaterial
1005
0
  0
SPLINE
  5
618EC
330
1F
100
AcDbEntity
  8
1
100
AcDbSpline
210
0.0
220
0.0
230
1.0
 70
     8
 71
     3
 72
    17
 73
    13
 74
     0
 42
0.0000000001
 43
0.0000000001
 40
0.0
 40
0.0
 40
0.0
 40
0.0
 40
0.1247598381
 40
0.1874434034
 40
0.2502024794
 40
0.375444085
 40
0.5007119698000003
 40
0.5634992445
 40
0.6262282174
 40
0.7510631868000001
 40
0.8756079038999999
 40
1.0
 40
1.0
 40
1.0
 40
1.0
 10
45.68733290289998
 20
17.7380981503
 30
0.0
 10
45.71715798479999
 20
17.75684252130003
 30
0.0
 10
45.7577391785
 20
17.79267704509999
 30
0.0
 10
45.79804460499997
 20
17.85096402350001
 30
0.0
 10
45.82865933260001
 20
17.91509022159999
 30
0.0
 10
45.84695939170001
 20
18.00328496330002
 30
0.0
 10
45.83643941999997
 20
18.09275264159998
 30
0.0
 10
45.8115652843
 20
18.15933569420002
 30
0.0
 10
45.77647959619997
 20
18.22100128160002
 30
0.0
 10
45.71468302449999
 20
18.28616996290003
 30
0.0
 10
45.6199225327
 20
18.3364848695
 30
0.0
 10
45.54910073740001
 20
18.34808387200002
 30
0.0
 10
45.51397834519995
 20
18.34808880930001
 30
0.0
1001
ACAD
1000
RTMaterial
1005
0
  0
SPLINE
  5
618ED
330
1F
100
AcDbEntity
  8
1
100
AcDbSpline
210
0.0
220
0.0
230
1.0
 70
     8
 71
     3
 72
    11
 73
     7
 74
     0
 42
0.0000000001
 43
0.0000000001
 40
0.0
 40
0.0
 40
0.0
 40
0.0
 40
0.2506659362
 40
0.5008094371000002
 40
0.750530873
 40
1.0
 40
1.0
 40
1.0
 40
1.0
 10
43.6653460393
 20
15.81063984620004
 30
0.0
 10
43.70018252549999
 20
15.87514885710004
 30
0.0
 10
43.78747921489996
 20
15.9953333437
 30
0.0
 10
43.96101353279997
 20
16.13391533290001
 30
0.0
 10
44.16477818739998
 20
16.22137908019999
 30
0.0
 10
44.31153979549997
 20
16.24127745909999
 30
0.0
 10
44.38450410019997
 20
16.2412767518
 30
0.0
1001
ACAD
1000
RTMaterial
1005
0
  0
SPLINE
  5
618EE
330
1F
100
AcDbEntity
  8
1
100
AcDbSpline
210
0.0
220
0.0
230
1.0
 70
     8
 71
     3
 72
    15
 73
    11
 74
     0
 42
0.0000000001
 43
0.0000000001
 40
0.0
 40
0.0
 40
0.0
 40
0.0
 40
0.1254633772
 40
0.250841004
 40
0.3760926194
 40
0.5011746346
 40
0.6260782249
 40
0.7508206170000003
 40
0.87542962
 40
1.0
 40
1.0
 40
1.0
 40
1.0
 10
44.66673350609999
 20
19.14443104309998
 30
0.0
 10
44.66851940219996
 20
19.09173464060001
 30
0.0
 10
44.68218414769995
 20
18.98644351590002
 30
0.0
 10
44.73219761209998
 20
18.83554283760003
 30
0.0
 10
44.80988846989998
 20
18.69696298260004
 30
0.0
 10
44.91241936919997
 20
18.57587805510002
 30
0.0
 10
45.03601437619994
 20
18.47672154179997
 30
0.0
 10
45.17615561199998
 20
18.4031654657
 30
0.0
 10
45.32761532049994
 20
18.3578996576
 30
0.0
 10
45.43261668709999
 20
18.34772476109998
 30
0.0
 10
45.48496805609999
 20
18.34772054040002
 30
0.0
1001
ACAD
1000
RTMaterial
1005
0
  0
SPLINE
  5
618EF
330
1F
100
AcDbEntity
  8
1
100
AcDbSpline
210
0.0
220
0.0
230
1.0
 70
     8
 71
     3
 72
    15
 73
    11
 74
     0
 42
0.0000000001
 43
0.0000000001
 40
0.0
 40
0.0
 40
0.0
 40
0.0
 40
0.1244514776
 40
0.2490242518
 40
0.3738114271
 40
0.498843241
 40
0.6240830983
 40
0.7494406878000001
 40
0.8747773967
 40
1.0
 40
1.0
 40
1.0
 40
1.0
 10
45.14278569729998
 20
16.10568339650001
 30
0.0
 10
45.17163403519997
 20
16.10568639080003
 30
0.0
 10
45.22965304589996
 20
16.11345914539998
 30
0.0
 10
45.31035227909995
 20
16.14763236670001
 30
0.0
 10
45.37939609499999
 20
16.20190468710001
 30
0.0
 10
45.43189016129997
 20
16.27247969850003
 30
0.0
 10
45.46421445919997
 20
16.35441807839999
 30
0.0
 10
45.47410848810001
 20
16.44202406260001
 30
0.0
 10
45.46094431879999
 20
16.52913846249998
 30
0.0
 10
45.43727087429997
 20
16.58304865870002
 30
0.0
 10
45.42220816799999
 20
16.60786169390002
 30
0.0
1001
ACAD
1000
RTMaterial
1005
0
  0
SPLINE
  5
618F0
330
1F
100
AcDbEntity
  8
1
100
AcDbSpline
210
0.0
220
0.0
230
1.0
 70
     8
 71
     3
 72
    15
 73
    11
 74
     0
 42
0.0000000001
 43
0.0000000001
 40
0.0
 40
0.0
 40
0.0
 40
0.0
 40
0.1245088864
 40
0.249204869
 40
0.3741068854
 40
0.4991943072
 40
0.6244130349
 40
0.7496748088
 40
0.8749067977999999
 40
1.0
 40
1.0
 40
1.0
 40
1.0
 10
45.03281693299999
 20
16.12463409200001
 30
0.0
 10
45.05566985739998
 20
16.13279282249999
 30
0.0
 10
45.0997336077
 20
16.15433272400003
 30
0.0
 10
45.156963781
 20
16.20043183159998
 30
0.0
 10
45.20271651519999
 20
16.25812336860002
 30
0.0
 10
45.2347031145
 20
16.32454576549998
 30
0.0
 10
45.25136372200001
 20
16.39643115850003
 30
0.0
 10
45.25188215470001
 20
16.47025564699999
 30
0.0
 10
45.2362447566
 20
16.54234755570002
 30
0.0
 10
45.21549434119997
 20
16.587021515
 30
0.0
 10
45.20284334989997
 20
16.60786169390002
 30
0.0
1001
ACAD
1000
RTMaterial
1005
0
  0
SPLINE
  5
618F1
330
1F
100
AcDbEntity
  8
1
100
AcDbSpline
210
0.0
220
0.0
230
1.0
 70
     8
 71
     3
 72
    11
 73
     7
 74
     0
 42
0.0000000001
 43
0.0000000001
 40
0.0
 40
0.0
 40
0.0
 40
0.0
 40
0.249467058
 40
0.4991880220000002
 40
0.7493383976000001
 40
1.0
 40
1.0
 40
1.0
 40
1.0
 10
44.60386891669997
 20
16.24128015760003
 30
0.0
 10
44.53090516159998
 20
16.24128428559999
 30
0.0
 10
44.38414591329999
 20
16.2213727079
 30
0.0
 10
44.18037580919997
 20
16.13392097940003
 30
0.0
 10
44.00684491489998
 20
15.99533128299998
 30
0.0
 10
43.91954676789999
 20
15.87514779100002
 30
0.0
 10
43.88471085740002
 20
15.81063984620004
 30
0.0
1001
ACAD
1000
RTMaterial
1005
0
  0
SPLINE
  5
618F2
330
1F
100
AcDbEntity
  8
1
100
AcDbSpline
210
0.0
220
0.0
230
1.0
 70
     8
 71
     3
 72
    11
 73
     7
 74
     0
 42
0.0000000001
 43
0.0000000001
 40
0.0
 40
0.0
 40
0.0
 40
0.0
 40
0.2508681339
 40
0.501205806
 40
0.7508463498000002
 40
1.0
 40
1.0
 40
1.0
 40
1.0
 10
44.66673350609999
 20
19.14443104309998
 30
0.0
 10
44.66531146739998
 20
19.1863911099
 30
0.0
 10
44.64619133269995
 20
19.27054273340002
 30
0.0
 10
44.57277318489997
 20
19.37620918120001
 30
0.0
 10
44.46544087879997
 20
19.4467001612
 30
0.0
 10
44.38108127209996
 20
19.46317177549997
 30
0.0
 10
44.3393840438
 20
19.46316968880001
 30
0.0
1001
ACAD
1000
RTMaterial
1005
0
  0
SPLINE
  5
618F3
330
1F
100
AcDbEntity
  8
1
100
AcDbSpline
210
0.0
220
0.0
230
1.0
 70
     8
 71
     3
 72
    11
 73
     7
 74
     0
 42
0.0000000001
 43
0.0000000001
 40
0.0
 40
0.0
 40
0.0
 40
0.0
 40
0.2494663652
 40
0.4991917696
 40
0.7493306180000002
 40
1.0
 40
1.0
 40
1.0
 40
1.0
 10
43.59699872459998
 20
15.63835415120002
 30
0.0
 10
43.62618905149997
 20
15.638355612
 30
0.0
 10
43.68490349669997
 20
15.6463169424
 30
0.0
 10
43.76642183059999
 20
15.68130970729999
 30
0.0
 10
43.83585009679996
 20
15.73674876900003
 30
0.0
 10
43.87077371839995
 20
15.78483153000002
 30
0.0
 10
43.88471085740002
 20
15.81063984620004
 30
0.0
1001
ACAD
1000
RTMaterial
1005
0
  0
SPLINE
  5
618F4
330
1F
100
AcDbEntity
  8
1
100
AcDbSpline
210
0.0
220
0.0
230
1.0
 70
     8
 71
     3
 72
     9
 73
     5
 74
     0
 42
0.0000000001
 43
0.0000000001
 40
0.0
 40
0.0
 40
0.0
 40
0.0
 40
0.4993111136
 40
1.0
 40
1.0
 40
1.0
 40
1.0
 10
43.48743798889995
 20
15.6574501064
 30
0.0
 10
43.52484495639997
 20
15.67085855440001
 30
0.0
 10
43.59539915379997
 20
15.7118965971
 30
0.0
 10
43.64641203479999
 20
15.7755785059
 30
0.0
 10
43.6653460393
 20
15.81063984620004
 30
0.0
1001
ACAD
1000
RTMaterial
1005
0
  0
SPLINE
  5
618F5
330
1F
100
AcDbEntity
  8
1
100
AcDbSpline
210
0.0
220
0.0
230
1.0
 70
     8
 71
     3
 72
     9
 73
     5
 74
     0
 42
0.0000000001
 43
0.0000000001
 40
0.0
 40
0.0
 40
0.0
 40
0.0
 40
0.5002345653
 40
1.0
 40
1.0
 40
1.0
 40
1.0
 10
42.94759198740002
 20
18.95709481280005
 30
0.0
 10
43.00635321329997
 20
18.92555739710002
 30
0.0
 10
43.13205735039995
 20
18.87676781100003
 30
0.0
 10
43.26588688829997
 20
18.86024745190002
 30
0.0
 10
43.3325138517
 20
18.86024368240004
 30
0.0
1001
ACAD
1000
RTMaterial
1005
0
  0
SPLINE
  5
618F6
330
1F
100
AcDbEntity
  8
1
100
AcDbSpline
210
0.0
220
0.0
230
1.0
 70
     8
 71
     3
 72
     9
 73
     5
 74
     0
 42
0.0000000001
 43
0.0000000001
 40
0.0
 40
0.0
 40
0.0
 40
0.0
 40
0.5002415732
 40
1.0
 40
1.0
 40
1.0
 40
1.0
 10
42.94759198740002
 20
18.95709481280005
 30
0.0
 10
42.92408318049996
 20
18.96971209579999
 30
0.0
 10
42.87379332109996
 20
18.98923063249998
 30
0.0
 10
42.8202520035
 20
18.9958432102
 30
0.0
 10
42.79359707110001
 20
18.99584044350001
 30
0.0
1001
ACAD
1000
RTMaterial
1005
0
  0
SPLINE
  5
618F7
330
1F
100
AcDbEntity
  8
1
100
AcDbSpline
210
0.0
220
0.0
230
1.0
 70
     8
 71
     3
 72
    27
 73
    23
 74
     0
 42
0.0000000001
 43
0.0000000001
 40
0.0
 40
0.0
 40
0.0
 40
0.0
 40
0.0622662064
 40
0.0934259728
 40
0.1245876736
 40
0.1868533922
 40
0.2491702466
 40
0.2803939703
 40
0.3116390305
 40
0.3741217371
 40
0.4366937433000003
 40
0.4993410972
 40
0.5620385106
 40
0.6247531327
 40
0.6874494628
 40
0.7188177036
 40
0.7501696074
 40
0.8127390401000001
 40
0.8752191249999999
 40
0.9064627598999999
 40
0.9376834264999999
 40
1.0
 40
1.0
 40
1.0
 40
1.0
 10
43.29752605779996
 20
19.80257683330001
 30
0.0
 10
43.44352732079999
 20
19.84671642950002
 30
0.0
 10
43.66998241770001
 20
19.89139584989999
 30
0.0
 10
43.97520261559996
 20
19.90552841200002
 30
0.0
 10
44.28042721979999
 20
19.8895260347
 30
0.0
 10
44.65687210139996
 20
19.8129472251
 30
0.0
 10
45.0110419888
 20
19.66376504160001
 30
0.0
 10
45.2725816633
 20
19.50470742010003
 30
0.0
 10
45.51757522619999
 20
19.320518332
 30
0.0
 10
45.78834769669997
 20
19.04604902580001
 30
0.0
 10
46.04283550079998
 20
18.65964665339999
 30
0.0
 10
46.21768419760002
 20
18.23064078440001
 30
0.0
 10
46.30608096319996
 20
17.77553551020003
 30
0.0
 10
46.3047287938
 20
17.31188472319997
 30
0.0
 10
46.22867866539997
 20
16.93273896839997
 30
0.0
 10
46.12483530010002
 20
16.64315298499997
 30
0.0
 10
45.99343266829999
 20
16.36532262219998
 30
0.0
 10
45.7793798432
 20
16.04443423740002
 30
0.0
 10
45.50700260409995
 20
15.77167072729998
 30
0.0
 10
45.26089876079999
 20
15.58895438799999
 30
0.0
 10
44.99849605299997
 20
15.43150329729997
 30
0.0
 10
44.78497607380001
 20
15.34312230730001
 30
0.0
 10
44.6388567106
 20
15.29894700670002
 30
0.0
1001
ACAD
1000
RTMaterial
1005
0
  0
SPLINE
  5
618FA
330
1F
100
AcDbEntity
  8
1
100
AcDbSpline
210
0.0
220
0.0
230
1.0
 70
     8
 71
     3
 72
     8
 73
     4
 74
     0
 42
0.0000000001
 43
0.0000000001
 40
0.0
 40
0.0
 40
0.0
 40
0.0
 40
1.0
 40
1.0
 40
1.0
 40
1.0
 10
42.00802436549998
 20
24.32681953060001
 30
0.0
 10
42.02871611159998
 20
24.33724224460002
 30
0.0
 10
42.0499430168
 20
24.34666525770001
 30
0.0
 10
42.07155734759999
 20
24.35500804080005
 30
0.0
1001
ACAD
1000
RTMaterial
1005
0
  0
SPLINE
  5
618FB
330
1F
100
AcDbEntity
  8
1
100
AcDbSpline
210
0.0
220
0.0
230
1.0
 70
     8
 71
     3
 72
     9
 73
     5
 74
     0
 42
0.0000000001
 43
0.0000000001
 40
0.0
 40
0.0
 40
0.0
 40
0.0
 40
0.2477538056
 40
1.0
 40
1.0
 40
1.0
 40
1.0
 10
42.32762763749996
 20
24.41867926110001
 30
0.0
 10
42.42812074199997
 20
24.42868347310002
 30
0.0
 10
42.8336561717
 20
24.4698759762
 30
0.0
 10
43.23886467799996
 20
24.51428966970003
 30
0.0
 10
43.54346343100002
 20
24.54954209380003
 30
0.0
1001
ACAD
1000
RTMaterial
1005
0
  0
SPLINE
  5
618FC
330
1F
100
AcDbEntity
  8
1
100
AcDbSpline
210
0.0
220
0.0
230
1.0
 70
     8
 71
     3
 72
     8
 73
     4
 74
     0
 42
0.0000000001
 43
0.0000000001
 40
0.0
 40
0.0
 40
0.0
 40
0.0
 40
1.0
 40
1.0
 40
1.0
 40
1.0
 10
39.09632961379998
 20
12.47150751639998
 30
0.0
 10
39.08606040350004
 20
12.4789940723
 30
0.0
 10
39.07597871089996
 20
12.48674488720002
 30
0.0
 10
39.0661048541
 20
12.49474564659999
 30
0.0
1001
ACAD
1000
RTMaterial
1005
0
  0
SPLINE
  5
618FD
330
1F
100
AcDbEntity
  8
1
100
AcDbSpline
210
0.0
220
0.0
230
1.0
 70
     8
 71
     3
 72
     9
 73
     5
 74
     0
 42
0.0000000001
 43
0.0000000001
 40
0.0
 40
0.0
 40
0.0
 40
0.0
 40
0.750240345
 40
1.0
 40
1.0
 40
1.0
 40
1.0
 10
38.87721874919999
 20
12.68989936130003
 30
0.0
 10
38.69415958669998
 20
12.94135502069997
 30
0.0
 10
38.44953501309999
 20
13.276068452
 30
0.0
 10
38.20404574679998
 20
13.61014657280003
 30
0.0
 10
38.1426761743
 20
13.69354442260004
 30
0.0
1001
ACAD
1000
RTMaterial
1005
0
  0
SPLINE
  5
618FE
330
1F
100
AcDbEntity
  8
1
100
AcDbSpline
210
0.0
220
0.0
230
1.0
 70
     8
 71
     3
 72
     9
 73
     5
 74
     0
 42
0.0000000001
 43
0.0000000001
 40
0.0
 40
0.0
 40
0.0
 40
0.0
 40
0.2497542023
 40
1.0
 40
1.0
 40
1.0
 40
1.0
 10
50.6841326635
 20
15.54370713759999
 30
0.0
 10
50.64026897489998
 20
15.44991586949999
 30
0.0
 10
50.46606381949999
 20
15.07371852699998
 30
0.0
 10
50.29754402190002
 20
14.69488470120001
 30
0.0
 10
50.17456166739997
 20
14.4091992859
 30
0.0
1001
ACAD
1000
RTMaterial
1005
0
  0
LINE
  5
618FF
330
1F
100
AcDbEntity
  8
1
100
AcDbLine
 10
39.25580521469999
 20
12.35391430380002
 30
0.0
 11
39.25942689119995
 21
12.35123117739999
 31
0.0
1001
ACAD
1000
RTMaterial
1005
0
  0
SPLINE
  5
61900
330
1F
100
AcDbEntity
  8
1
100
AcDbSpline
210
0.0
220
0.0
230
1.0
 70
     8
 71
     3
 72
     9
 73
     5
 74
     0
 42
0.0000000001
 43
0.0000000001
 40
0.0
 40
0.0
 40
0.0
 40
0.0
 40
0.2571631894
 40
1.0
 40
1.0
 40
1.0
 40
1.0
 10
40.42831860659997
 20
23.80585858009999
 30
0.0
 10
40.40306779409997
 20
23.8012161369
 30
0.0
 10
40.30534668249996
 20
23.78071768609999
 30
0.0
 10
40.20962469719999
 20
23.75056813729998
 30
0.0
 10
40.14085481539996
 20
23.72280781910001
 30
0.0
1001
ACAD
1000
RTMaterial
1005
0
  0
SPLINE
  5
61901
330
1F
100
AcDbEntity
  8
1
100
AcDbSpline
210
0.0
220
0.0
230
1.0
 70
     8
 71
     3
 72
     9
 73
     5
 74
     0
 42
0.0000000001
 43
0.0000000001
 40
0.0
 40
0.0
 40
0.0
 40
0.0
 40
0.252222464
 40
1.0
 40
1.0
 40
1.0
 40
1.0
 10
35.89988795630001
 20
16.74136883649999
 30
0.0
 10
35.88484130389998
 20
16.76181640390001
 30
0.0
 10
35.82725806369996
 20
16.84438716919999
 30
0.0
 10
35.77819374659997
 20
16.9329305732
 30
0.0
 10
35.74717170949997
 20
17.0015066556
 30
0.0
1001
ACAD
1000
RTMaterial
1005
0
  0
LINE
  5
61902
330
1F
100
AcDbEntity
  8
1
100
AcDbLine
 10
34.85531650669998
 20
18.44926496729999
 30
0.0
 11
34.85149780799999
 21
18.41859525360002
 31
0.0
1001
ACAD
1000
RTMaterial
1005
0
  0
SPLINE
  5
61903
330
1F
100
AcDbEntity
  8
1
100
AcDbSpline
210
0.0
220
0.0
230
1.0
 70
     8
 71
     3
 72
     9
 73
     5
 74
     0
 42
0.0000000001
 43
0.0000000001
 40
0.0
 40
0.0
 40
0.0
 40
0.0
 40
0.2495322353
 40
1.0
 40
1.0
 40
1.0
 40
1.0
 10
34.89437103479998
 20
18.63724358440004
 30
0.0
 10
34.8900416802
 20
18.62186466970001
 30
0.0
 10
34.87376801969998
 20
18.55993565310001
 30
0.0
 10
34.8618069831
 20
18.49687442160001
 30
0.0
 10
34.85531634670002
 20
18.4492649819
 30
0.0
1001
ACAD
1000
RTMaterial
1005
0
  0
SPLINE
  5
61904
330
1F
100
AcDbEntity
  8
1
100
AcDbSpline
210
0.0
220
0.0
230
1.0
 70
     8
 71
     3
 72
    11
 73
     7
 74
     0
 42
0.0000000001
 43
0.0000000001
 40
0.0
 40
0.0
 40
0.0
 40
0.0
 40
0.2484427789
 40
0.497319756
 40
0.7476898144
 40
1.0
 40
1.0
 40
1.0
 40
1.0
 10
34.84949593479996
 20
18.3881489176
 30
0.0
 10
34.84516320329999
 20
18.30839353580001
 30
0.0
 10
34.84992679389995
 20
18.14768086409998
 30
0.0
 10
34.89816389249995
 20
17.91098911149999
 30
0.0
 10
34.98749146109999
 20
17.6852020883
 30
0.0
 10
35.0723743598
 20
17.54658704479999
 30
0.0
 10
35.12045111389995
 20
17.48125339900002
 30
0.0
1001
ACAD
1000
RTMaterial
1005
0
  0
LINE
  5
61905
330
1F
100
AcDbEntity
  8
1
100
AcDbLine
 10
34.85149780799999
 20
18.41859525360002
 30
0.0
 11
34.84949593479996
 21
18.3881489176
 31
0.0
1001
ACAD
1000
RTMaterial
1005
0
  0
SPLINE
  5
61906
330
1F
100
AcDbEntity
  8
1
100
AcDbSpline
210
0.0
220
0.0
230
1.0
 70
     8
 71
     3
 72
     9
 73
     5
 74
     0
 42
0.0000000001
 43
0.0000000001
 40
0.0
 40
0.0
 40
0.0
 40
0.0
 40
0.4972557303000002
 40
1.0
 40
1.0
 40
1.0
 40
1.0
 10
48.03457009709996
 20
10.20650309950002
 30
0.0
 10
47.949510895
 20
10.16526171999999
 30
0.0
 10
47.76911255399999
 20
10.10033022940001
 30
0.0
 10
47.57904735869998
 20
10.0752203733
 30
0.0
 10
47.48350920819996
 20
10.07262557889998
 30
0.0
1001
ACAD
1000
RTMaterial
1005
0
  0
SPLINE
  5
61907
330
1F
100
AcDbEntity
  8
1
100
AcDbSpline
210
0.0
220
0.0
230
1.0
 70
     8
 71
     3
 72
     9
 73
     5
 74
     0
 42
0.0000000001
 43
0.0000000001
 40
0.0
 40
0.0
 40
0.0
 40
0.0
 40
0.2490889008
 40
1.0
 40
1.0
 40
1.0
 40
1.0
 10
48.27387788179999
 20
10.36919966600004
 30
0.0
 10
48.25940993789998
 20
10.35667239849999
 30
0.0
 10
48.20019640619995
 20
10.30769895859998
 30
0.0
 10
48.13657811369996
 20
10.26406140040001
 30
0.0
 10
48.08694282159996
 20
10.23465302690005
 30
0.0
1001
ACAD
1000
RTMaterial
1005
0
  0
SPLINE
  5
61908
330
1F
100
AcDbEntity
  8
1
100
AcDbSpline
210
0.0
220
0.0
230
1.0
 70
     8
 71
     3
 72
     9
 73
     5
 74
     0
 42
0.0000000001
 43
0.0000000001
 40
0.0
 40
0.0
 40
0.0
 40
0.0
 40
0.5018159991
 40
1.0
 40
1.0
 40
1.0
 40
1.0
 10
48.67613676759996
 20
10.92838905690001
 30
0.0
 10
48.63028691929996
 20
10.82188082729999
 30
0.0
 10
48.51711469049996
 20
10.61822245819996
 30
0.0
 10
48.3609074245
 20
10.44455286440001
 30
0.0
 10
48.27387902919998
 20
10.36919813790001
 30
0.0
1001
ACAD
1000
RTMaterial
1005
0
  0
SPLINE
  5
61909
330
1F
100
AcDbEntity
  8
1
100
AcDbSpline
210
0.0
220
0.0
230
1.0
 70
     8
 71
     3
 72
     9
 73
     5
 74
     0
 42
0.0000000001
 43
0.0000000001
 40
0.0
 40
0.0
 40
0.0
 40
0.0
 40
0.4990121195000001
 40
1.0
 40
1.0
 40
1.0
 40
1.0
 10
48.25596707950001
 20
24.76623720010002
 30
0.0
 10
48.38963770779997
 20
24.67501406940006
 30
0.0
 10
48.62903315850002
 20
24.44599000229999
 30
0.0
 10
48.77680006809999
 20
24.14910620460001
 30
0.0
 10
48.82358151369999
 20
23.99351446370002
 30
0.0
1001
ACAD
1000
RTMaterial
1005
0
  0
SPLINE
  5
6190A
330
1F
100
AcDbEntity
  8
1
100
AcDbSpline
210
0.0
220
0.0
230
1.0
 70
     8
 71
     3
 72
     9
 73
     5
 74
     0
 42
0.0000000001
 43
0.0000000001
 40
0.0
 40
0.0
 40
0.0
 40
0.0
 40
0.2492626428
 40
1.0
 40
1.0
 40
1.0
 40
1.0
 10
47.98364054569996
 20
24.90115118910001
 30
0.0
 10
48.00254491869998
 20
24.89426579580004
 30
0.0
 10
48.0777853156
 20
24.86501882690004
 30
0.0
 10
48.15052458139996
 20
24.8293493329
 30
0.0
 10
48.20313525860001
 20
24.79928329120003
 30
0.0
1001
ACAD
1000
RTMaterial
1005
0
  0
SPLINE
  5
6190B
330
1F
100
AcDbEntity
  8
1
100
AcDbSpline
210
0.0
220
0.0
230
1.0
 70
     8
 71
     3
 72
     9
 73
     5
 74
     0
 42
0.0000000001
 43
0.0000000001
 40
0.0
 40
0.0
 40
0.0
 40
0.0
 40
0.4945018121000003
 40
1.0
 40
1.0
 40
1.0
 40
1.0
 10
47.2846764459
 20
24.9825278678
 30
0.0
 10
47.40067978939999
 20
24.99595339530003
 30
0.0
 10
47.639118027
 20
24.99654028909998
 30
0.0
 10
47.87147502119995
 20
24.94200641480001
 30
0.0
 10
47.98364124279999
 20
24.9011529791
 30
0.0
1001
ACAD
1000
RTMaterial
1005
0
  0
SPLINE
  5
6190C
330
1F
100
AcDbEntity
  8
1
100
AcDbSpline
210
0.0
220
0.0
230
1.0
 70
     8
 71
     3
 72
     9
 73
     5
 74
     0
 42
0.0000000001
 43
0.0000000001
 40
0.0
 40
0.0
 40
0.0
 40
0.0
 40
0.7495971945000001
 40
1.0
 40
1.0
 40
1.0
 40
1.0
 10
50.76355920809999
 20
15.80253206129998
 30
0.0
 10
50.75167004029998
 20
15.73584730790003
 30
0.0
 10
50.72730208249999
 20
15.64812996609999
 30
0.0
 10
50.69324997369995
 20
15.56441630350002
 30
0.0
 10
50.6841326635
 20
15.54370713759999
 30
0.0
1001
ACAD
1000
RTMaterial
1005
0
  0
SPLINE
  5
6190D
330
1F
100
AcDbEntity
  8
1
100
AcDbSpline
210
0.0
220
0.0
230
1.0
 70
     8
 71
     3
 72
     8
 73
     4
 74
     0
 42
0.0000000001
 43
0.0000000001
 40
0.0
 40
0.0
 40
0.0
 40
0.0
 40
1.0
 40
1.0
 40
1.0
 40
1.0
 10
50.77199999999999
 20
15.85864169760003
 30
0.0
 10
50.76970021459999
 20
15.83986837989999
 30
0.0
 10
50.76687895830002
 20
15.82115209710002
 30
0.0
 10
50.76355920809999
 20
15.80253206129998
 30
0.0
1001
ACAD
1000
RTMaterial
1005
0
  0
LINE
  5
6190E
330
1F
100
AcDbEntity
  8
1
100
AcDbLine
 10
50.77384028249998
 20
15.89035048699997
 30
0.0
 11
50.77199999999999
 21
15.85864169760003
 31
0.0
1001
ACAD
1000
RTMaterial
1005
0
  0
SPLINE
  5
6190F
330
1F
100
AcDbEntity
  8
1
100
AcDbSpline
210
0.0
220
0.0
230
1.0
 70
     8
 71
     3
 72
     9
 73
     5
 74
     0
 42
0.0000000001
 43
0.0000000001
 40
0.0
 40
0.0
 40
0.0
 40
0.0
 40
0.2434369802
 40
1.0
 40
1.0
 40
1.0
 40
1.0
 10
50.80058774539998
 20
17.19743088990003
 30
0.0
 10
50.80229268389996
 20
17.09134541809999
 30
0.0
 10
50.80545865760001
 20
16.65550997939999
 30
0.0
 10
50.79254252319998
 20
16.21955887839999
 30
0.0
 10
50.77384136019997
 20
15.890350447
 30
0.0
1001
ACAD
1000
RTMaterial
1005
0
  0
LINE
  5
61910
330
1F
100
AcDbEntity
  8
1
100
AcDbLine
 10
50.79999999999995
 20
17.23061580990003
 30
0.0
 11
50.80058666119999
 21
17.1974308563
 31
0.0
1001
ACAD
1000
RTMaterial
1005
0
  0
SPLINE
  5
61911
330
1F
100
AcDbEntity
  8
1
100
AcDbSpline
210
0.0
220
0.0
230
1.0
 70
     8
 71
     3
 72
     9
 73
     5
 74
     0
 42
0.0000000001
 43
0.0000000001
 40
0.0
 40
0.0
 40
0.0
 40
0.0
 40
0.2584925282
 40
1.0
 40
1.0
 40
1.0
 40
1.0
 10
50.73604903059997
 20
17.63278596280003
 30
0.0
 10
50.74616984299996
 20
17.59912486310003
 30
0.0
 10
50.78092983929996
 20
17.46762932860002
 30
0.0
 10
50.79805652739998
 20
17.33142690569997
 30
0.0
 10
50.80000046789996
 20
17.23061582530005
 30
0.0
1001
ACAD
1000
RTMaterial
1005
0
  0
SPLINE
  5
61912
330
1F
100
AcDbEntity
  8
1
100
AcDbSpline
210
0.0
220
0.0
230
1.0
 70
     8
 71
     3
 72
     9
 73
     5
 74
     0
 42
0.0000000001
 43
0.0000000001
 40
0.0
 40
0.0
 40
0.0
 40
0.0
 40
0.2470685076
 40
1.0
 40
1.0
 40
1.0
 40
1.0
 10
40.11065894869995
 20
23.71057444360002
 30
0.0
 10
40.08781561379999
 20
23.7012852332
 30
0.0
 10
39.99543631869995
 20
23.6634955966
 30
0.0
 10
39.9033837545
 20
23.62490652870002
 30
0.0
 10
39.83427763650002
 20
23.59537947749999
 30
0.0
1001
ACAD
1000
RTMaterial
1005
0
  0
LINE
  5
61913
330
1F
100
AcDbEntity
  8
1
100
AcDbLine
 10
40.140854987
 20
23.72280738009999
 30
0.0
 11
40.11065934940001
 21
23.71057342419998
 31
0.0
1001
ACAD
1000
RTMaterial
1005
0
  0
SPLINE
  5
61914
330
1F
100
AcDbEntity
  8
1
100
AcDbSpline
210
0.0
220
0.0
230
1.0
 70
     8
 71
     3
 72
     9
 73
     5
 74
     0
 42
0.0000000001
 43
0.0000000001
 40
0.0
 40
0.0
 40
0.0
 40
0.0
 40
0.2505101048
 40
1.0
 40
1.0
 40
1.0
 40
1.0
 10
42.07155727359998
 20
24.35500822950002
 30
0.0
 10
42.09214242979999
 20
24.36295376819999
 30
0.0
 10
42.17532946959994
 20
24.3920003133
 30
0.0
 10
42.26211103060001
 20
24.41057156740004
 30
0.0
 10
42.32762763749996
 20
24.41867926110001
 30
0.0
1001
ACAD
1000
RTMaterial
1005
0
  0
SPLINE
  5
61915
330
1F
100
AcDbEntity
  8
1
100
AcDbSpline
210
0.0
220
0.0
230
1.0
 70
     8
 71
     3
 72
     9
 73
     5
 74
     0
 42
0.0000000001
 43
0.0000000001
 40
0.0
 40
0.0
 40
0.0
 40
0.0
 40
0.2577677601
 40
1.0
 40
1.0
 40
1.0
 40
1.0
 10
39.0491712851
 20
12.1423395036
 30
0.0
 10
39.06997852999996
 20
12.114063611
 30
0.0
 10
39.15436263179998
 20
12.00711424680003
 30
0.0
 10
39.25305376389997
 20
11.91143376470001
 30
0.0
 10
39.3324985877
 20
11.84892557730001
 30
0.0
1001
ACAD
1000
RTMaterial
1005
0
  0
SPLINE
  5
61916
330
1F
100
AcDbEntity
  8
1
100
AcDbSpline
210
0.0
220
0.0
230
1.0
 70
     8
 71
     3
 72
    10
 73
     6
 74
     0
 42
0.0000000001
 43
0.0000000001
 40
0.0
 40
0.0
 40
0.0
 40
0.0
 40
0.2415405381
 40
0.6190348767
 40
1.0
 40
1.0
 40
1.0
 40
1.0
 10
39.35877070879996
 20
11.82831231100005
 30
0.0
 10
39.42401431769996
 20
11.77726946450002
 30
0.0
 10
39.5920920552
 20
11.64755748679999
 30
0.0
 10
39.8674360289
 20
11.44305218290003
 30
0.0
 10
40.07942594359996
 20
11.29227557720003
 30
0.0
 10
40.18673388539997
 20
11.21773999049998
 30
0.0
1001
ACAD
1000
RTMaterial
1005
0
  0
LINE
  5
61917
330
1F
100
AcDbEntity
  8
1
100
AcDbLine
 10
39.33249887879997
 20
11.84892594670003
 30
0.0
 11
39.35877138350003
 21
11.82831317100005
 31
0.0
1001
ACAD
1000
RTMaterial
1005
0
  0
SPLINE
  5
61918
330
1F
100
AcDbEntity
  8
1
100
AcDbSpline
210
0.0
220
0.0
230
1.0
 70
     8
 71
     3
 72
     9
 73
     5
 74
     0
 42
0.0000000001
 43
0.0000000001
 40
0.0
 40
0.0
 40
0.0
 40
0.0
 40
0.2502927672
 40
1.0
 40
1.0
 40
1.0
 40
1.0
 10
39.0661047265
 20
12.4947454892
 30
0.0
 10
39.04847598819998
 20
12.5090300077
 30
0.0
 10
38.97985210049995
 20
12.56830963150003
 30
0.0
 10
38.91849056639996
 20
12.63590329769999
 30
0.0
 10
38.87721874919999
 20
12.68989936130003
 30
0.0
1001
ACAD
1000
RTMaterial
1005
0
  0
SPLINE
  5
61919
330
1F
100
AcDbEntity
  8
1
100
AcDbSpline
210
0.0
220
0.0
230
1.0
 70
     8
 71
     3
 72
     8
 73
     4
 74
     0
 42
0.0000000001
 43
0.0000000001
 40
0.0
 40
0.0
 40
0.0
 40
0.0
 40
1.0
 40
1.0
 40
1.0
 40
1.0
 10
48.20313649999997
 20
24.79928537760003
 30
0.0
 10
48.22117117069996
 20
24.788978886
 30
0.0
 10
48.2388100971
 20
24.77794662060001
 30
0.0
 10
48.2559675727
 20
24.7662378997
 30
0.0
1001
ACAD
1000
RTMaterial
1005
0
  0
SPLINE
  5
6191A
330
1F
100
AcDbEntity
  8
1
100
AcDbSpline
210
0.0
220
0.0
230
1.0
 70
     8
 71
     3
 72
     8
 73
     4
 74
     0
 42
0.0000000001
 43
0.0000000001
 40
0.0
 40
0.0
 40
0.0
 40
0.0
 40
1.0
 40
1.0
 40
1.0
 40
1.0
 10
48.08694395579999
 20
10.23465087810001
 30
0.0
 10
48.06989259889996
 20
10.2245481402
 30
0.0
 10
48.05240416949999
 20
10.2151494057
 30
0.0
 10
48.03457044089999
 20
10.20650231299998
 30
0.0
1001
ACAD
1000
RTMaterial
1005
0
  0
SPLINE
  5
6191B
330
1F
100
AcDbEntity
  8
1
100
AcDbSpline
210
0.0
220
0.0
230
1.0
 70
     8
 71
     3
 72
    10
 73
     6
 74
     0
 42
0.0000000001
 43
0.0000000001
 40
0.0
 40
0.0
 40
0.0
 40
0.0
 40
0.2480505399
 40
0.4979866614000001
 40
1.0
 40
1.0
 40
1.0
 40
1.0
 10
35.6301552863
 20
17.67954532589999
 30
0.0
 10
35.63907303949998
 20
17.7593513292
 30
0.0
 10
35.67046616459999
 20
17.91841774889997
 30
0.0
 10
35.78384928290001
 20
18.22266095309998
 30
0.0
 10
35.92378962659996
 20
18.42825806659998
 30
0.0
 10
36.0344890472
 20
18.5472462985
 30
0.0
1001
ACAD
1000
RTMaterial
1005
0
  0
LINE
  5
6191C
330
1F
100
AcDbEntity
  8
1
100
AcDbLine
 10
35.62707698089997
 20
17.64916146730002
 30
0.0
 11
35.6301552863
 21
17.67954532589999
 31
0.0
1001
ACAD
1000
RTMaterial
1005
0
  0
LINE
  5
6191D
330
1F
100
AcDbEntity
  8
1
100
AcDbLine
 10
35.62571730719998
 20
17.61834902890001
 30
0.0
 11
35.62707698089997
 21
17.64916146730002
 31
0.0
1001
ACAD
1000
RTMaterial
1005
0
  0
SPLINE
  5
6191E
330
1F
100
AcDbEntity
  8
1
100
AcDbSpline
210
0.0
220
0.0
230
1.0
 70
     8
 71
     3
 72
     9
 73
     5
 74
     0
 42
0.0000000001
 43
0.0000000001
 40
0.0
 40
0.0
 40
0.0
 40
0.0
 40
0.2483916791
 40
1.0
 40
1.0
 40
1.0
 40
1.0
 10
35.63752700160001
 20
17.38193490660001
 30
0.0
 10
35.63489446979998
 20
17.40136927179998
 30
0.0
 10
35.62597574080001
 20
17.47982964580001
 30
0.0
 10
35.62373068709997
 20
17.55903878859999
 30
0.0
 10
35.62571714310003
 20
17.6183490331
 30
0.0
1001
ACAD
1000
RTMaterial
1005
0
  0
SPLINE
  5
6191F
330
1F
100
AcDbEntity
  8
1
100
AcDbSpline
210
0.0
220
0.0
230
1.0
 70
     8
 71
     3
 72
     9
 73
     5
 74
     0
 42
0.0000000001
 43
0.0000000001
 40
0.0
 40
0.0
 40
0.0
 40
0.0
 40
0.2291627328
 40
1.0
 40
1.0
 40
1.0
 40
1.0
 10
35.48652280580001
 20
17.88806146210004
 30
0.0
 10
35.48359493249995
 20
17.89303796960001
 30
0.0
 10
35.46992068250001
 20
17.91422706600002
 30
0.0
 10
35.45313343249996
 20
17.93328277339998
 30
0.0
 10
35.43934564749998
 20
17.94696130940002
 30
0.0
1001
ACAD
1000
RTMaterial
1005
0
  0
SPLINE
  5
61920
330
1F
100
AcDbEntity
  8
1
100
AcDbSpline
210
0.0
220
0.0
230
1.0
 70
     8
 71
     3
 72
     9
 73
     5
 74
     0
 42
0.0000000001
 43
0.0000000001
 40
0.0
 40
0.0
 40
0.0
 40
0.0
 40
0.2708286476
 40
1.0
 40
1.0
 40
1.0
 40
1.0
 10
35.2050193568
 20
18.16733438770001
 30
0.0
 10
35.21199997740001
 20
18.16237300189999
 30
0.0
 10
35.23747312350002
 20
18.14364509450001
 30
0.0
 10
35.26172903930001
 20
18.12317055290003
 30
0.0
 10
35.27809811240003
 20
18.10693118189998
 30
0.0
1001
ACAD
1000
RTMaterial
1005
0
  0
SPLINE
  5
61921
330
1F
100
AcDbEntity
  8
1
100
AcDbSpline
210
0.0
220
0.0
230
1.0
 70
     8
 71
     3
 72
     9
 73
     5
 74
     0
 42
0.0000000001
 43
0.0000000001
 40
0.0
 40
0.0
 40
0.0
 40
0.0
 40
0.2479687034
 40
1.0
 40
1.0
 40
1.0
 40
1.0
 10
47.48350920819996
 20
10.07262557889998
 30
0.0
 10
47.45247175470001
 20
10.0717826087
 30
0.0
 10
47.32721630700001
 20
10.0725636926
 30
0.0
 10
47.20214523659996
 20
10.08995479840001
 30
0.0
 10
47.11048499709995
 20
10.1115249979
 30
0.0
1001
ACAD
1000
RTMaterial
1005
0
  0
SPLINE
  5
61922
330
1F
100
AcDbEntity
  8
1
100
AcDbSpline
210
0.0
220
0.0
230
1.0
 70
     8
 71
     3
 72
     9
 73
     5
 74
     0
 42
0.0000000001
 43
0.0000000001
 40
0.0
 40
0.0
 40
0.0
 40
0.0
 40
0.4970104694
 40
1.0
 40
1.0
 40
1.0
 40
1.0
 10
35.74717170949997
 20
17.0015066556
 30
0.0
 10
35.720065966
 20
17.06142553479998
 30
0.0
 10
35.6739600427
 20
17.18599158990002
 30
0.0
 10
35.6464589735
 20
17.31598114190001
 30
0.0
 10
35.63752507369998
 20
17.38193464490001
 30
0.0
1001
ACAD
1000
RTMaterial
1005
0
  0
SPLINE
  5
61923
330
1F
100
AcDbEntity
  8
1
100
AcDbSpline
210
0.0
220
0.0
230
1.0
 70
     8
 71
     3
 72
     9
 73
     5
 74
     0
 42
0.0000000001
 43
0.0000000001
 40
0.0
 40
0.0
 40
0.0
 40
0.0
 40
0.2595888317
 40
1.0
 40
1.0
 40
1.0
 40
1.0
 10
40.54574781759998
 20
23.3962941401
 30
0.0
 10
40.56959835749995
 20
23.42193052979997
 30
0.0
 10
40.66458326830002
 20
23.5177434913
 30
0.0
 10
40.7715828652
 20
23.60170888010003
 30
0.0
 10
40.85588262649998
 20
23.65526284949999
 30
0.0
1001
ACAD
1000
RTMaterial
1005
0
  0
SPLINE
  5
61924
330
1F
100
AcDbEntity
  8
1
100
AcDbSpline
210
0.0
220
0.0
230
1.0
 70
     8
 71
     3
 72
     9
 73
     5
 74
     0
 42
0.0000000001
 43
0.0000000001
 40
0.0
 40
0.0
 40
0.0
 40
0.0
 40
0.2436610234
 40
1.0
 40
1.0
 40
1.0
 40
1.0
 10
40.88345504199997
 20
23.67275088909997
 30
0.0
 10
40.97156699799995
 20
23.72854204610002
 30
0.0
 10
41.33521732319997
 20
23.9542850981
 30
0.0
 10
41.70730648299996
 20
24.16643476770004
 30
0.0
 10
41.992850841
 20
24.31894851870004
 30
0.0
1001
ACAD
1000
RTMaterial
1005
0
  0
LINE
  5
61925
330
1F
100
AcDbEntity
  8
1
100
AcDbLine
 10
40.85588289190002
 20
23.65526241980001
 30
0.0
 11
40.8834556159
 21
23.6727499566
 31
0.0
1001
ACAD
1000
RTMaterial
1005
0
  0
SPLINE
  5
61926
330
1F
100
AcDbEntity
  8
1
100
AcDbSpline
210
0.0
220
0.0
230
1.0
 70
     8
 71
     3
 72
    10
 73
     6
 74
     0
 42
0.0000000001
 43
0.0000000001
 40
0.0
 40
0.0
 40
0.0
 40
0.0
 40
0.2423405613
 40
0.6225996136000001
 40
1.0
 40
1.0
 40
1.0
 40
1.0
 10
40.27602940669999
 20
11.78210398089999
 30
0.0
 10
40.19301916679995
 20
11.82639159440003
 30
0.0
 10
39.98061053089998
 20
11.94178060410002
 30
0.0
 10
39.64333206309999
 20
12.13413567880002
 30
0.0
 10
39.39125027360001
 20
12.28578918020003
 30
0.0
 10
39.26665247379998
 20
12.36288474260003
 30
0.0
1001
ACAD
1000
RTMaterial
1005
0
  0
SPLINE
  5
61927
330
1F
100
AcDbEntity
  8
1
100
AcDbSpline
210
0.0
220
0.0
230
1.0
 70
     8
 71
     3
 72
     9
 73
     5
 74
     0
 42
0.0000000001
 43
0.0000000001
 40
0.0
 40
0.0
 40
0.0
 40
0.0
 40
0.250828918
 40
1.0
 40
1.0
 40
1.0
 40
1.0
 10
39.26665247379998
 20
12.36288474260003
 30
0.0
 10
39.2559002535
 20
12.36953773700003
 30
0.0
 10
39.21306104549996
 20
12.39610625900002
 30
0.0
 10
39.17033099269998
 20
12.42285074990002
 30
0.0
 10
39.13837887289998
 20
12.44298189929998
 30
0.0
1001
ACAD
1000
RTMaterial
1005
0
  0
LINE
  5
61928
330
1F
100
AcDbEntity
  8
1
100
AcDbLine
 10
40.30550679179998
 20
11.7664075303
 30
0.0
 11
40.2760299226
 21
11.78210494710004
 31
0.0
1001
ACAD
1000
RTMaterial
1005
0
  0
SPLINE
  5
61929
330
1F
100
AcDbEntity
  8
1
100
AcDbSpline
210
0.0
220
0.0
230
1.0
 70
     8
 71
     3
 72
     9
 73
     5
 74
     0
 42
0.0000000001
 43
0.0000000001
 40
0.0
 40
0.0
 40
0.0
 40
0.0
 40
0.2572621253
 40
1.0
 40
1.0
 40
1.0
 40
1.0
 10
40.68675868510001
 20
11.62320568050001
 30
0.0
 10
40.65270964429998
 20
11.63121836570002
 30
0.0
 10
40.52140893440003
 20
11.66668015740004
 30
0.0
 10
40.39467946369994
 20
11.71900744769999
 30
0.0
 10
40.3055065707
 20
11.76640711409999
 30
0.0
1001
ACAD
1000
RTMaterial
1005
0
  0
SPLINE
  5
6192A
330
1F
100
AcDbEntity
  8
1
100
AcDbSpline
210
0.0
220
0.0
230
1.0
 70
     8
 71
     3
 72
     8
 73
     4
 74
     0
 42
0.0000000001
 43
0.0000000001
 40
0.0
 40
0.0
 40
0.0
 40
0.0
 40
1.0
 40
1.0
 40
1.0
 40
1.0
 10
39.13837956650003
 20
12.44298299990004
 30
0.0
 10
39.1240493336
 20
12.45201163569999
 30
0.0
 10
39.1100159673
 20
12.46152976260004
 30
0.0
 10
39.09632961379998
 20
12.47150751639998
 30
0.0
1001
ACAD
1000
RTMaterial
1005
0
  0
LINE
  5
6192B
330
1F
100
AcDbEntity
  8
1
100
AcDbLine
 10
41.9928514536
 20
24.31894737100004
 30
0.0
 11
42.00802436549998
 21
24.32681953060001
 31
0.0
1001
ACAD
1000
RTMaterial
1005
0
  0
SPLINE
  5
6192C
330
1F
100
AcDbEntity
  8
1
100
AcDbSpline
210
0.0
220
0.0
230
1.0
 70
     8
 71
     3
 72
     9
 73
     5
 74
     0
 42
0.0000000001
 43
0.0000000001
 40
0.0
 40
0.0
 40
0.0
 40
0.0
 40
0.4920494957
 40
1.0
 40
1.0
 40
1.0
 40
1.0
 10
48.4656132907
 20
8.170027267499987
 30
0.0
 10
48.57436793580001
 20
8.005000036200016
 30
0.0
 10
48.8023016729
 20
7.6741420891
 30
0.0
 10
49.04078882949999
 20
7.350867657800022
 30
0.0
 10
49.1640161995
 20
7.188257742400026
 30
0.0
1001
ACAD
1000
RTMaterial
1005
0
  0
SPLINE
  5
6192D
330
1F
100
AcDbEntity
  8
1
100
AcDbSpline
210
0.0
220
0.0
230
1.0
 70
     8
 71
     3
 72
    13
 73
     9
 74
     0
 42
0.0000000001
 43
0.0000000001
 40
0.0
 40
0.0
 40
0.0
 40
0.0
 40
0.1180533237
 40
0.2374894973
 40
0.420352694
 40
0.6085707257000001
 40
0.8020933215999999
 40
1.0
 40
1.0
 40
1.0
 40
1.0
 10
31.53552474079999
 20
11.39966513770002
 30
0.0
 10
31.43962820920001
 20
11.33740293710002
 30
0.0
 10
31.24036931030004
 20
11.22165837779999
 30
0.0
 10
30.87049785569997
 20
11.05040147569997
 30
0.0
 10
30.41951519790002
 20
10.89729105219999
 30
0.0
 10
29.88504689129996
 20
10.77781128610002
 30
0.0
 10
29.3278852858
 20
10.7042910499
 30
0.0
 10
28.94901092749996
 20
10.68297718050001
 30
0.0
 10
28.75738375579999
 20
10.67869857710002
 30
0.0
1001
ACAD
1000
RTMaterial
1005
0
  0
SPLINE
  5
6192E
330
1F
100
AcDbEntity
  8
1
100
AcDbSpline
210
0.0
220
0.0
230
1.0
 70
     8
 71
     3
 72
    27
 73
    23
 74
     0
 42
0.0000000001
 43
0.0000000001
 40
0.0
 40
0.0
 40
0.0
 40
0.0
 40
0.2293789491
 40
0.430120859
 40
0.5195255592
 40
0.6015245982000002
 40
0.6760570787000001
 40
0.7430629780000002
 40
0.8024805779000001
 40
0.8542454730999999
 40
0.8982881413999999
 40
0.9345343934999995
 40
0.9497093239999999
 40
0.9629051923
 40
0.9741113904
 40
0.9833174531
 40
0.9905130756
 40
0.9956886262999999
 40
0.9975167873
 40
0.9988385747
 40
0.9996575251999999
 40
1.0
 40
1.0
 40
1.0
 40
1.0
 10
39.16090726959999
 20
23.80871445740002
 30
0.0
 10
39.09867038170001
 20
23.81392612490004
 30
0.0
 10
38.98202205999997
 20
23.82437423940002
 30
0.0
 10
38.84127302709999
 20
23.83851427960002
 30
0.0
 10
38.74053068589996
 20
23.84938522890002
 30
0.0
 10
38.67398669779999
 20
23.8568655409
 30
0.0
 10
38.61353227379999
 20
23.86391775460004
 30
0.0
 10
38.55921068089998
 20
23.8704749899
 30
0.0
 10
38.51106664190002
 20
23.8764775908
 30
0.0
 10
38.46914775069996
 20
23.88187111960002
 30
0.0
 10
38.43350608470002
 20
23.88661008260005
 30
0.0
 10
38.40775676239997
 20
23.89016038110003
 30
0.0
 10
38.39034069089996
 20
23.8926535928
 30
0.0
 10
38.3796793798
 20
23.89422420220001
 30
0.0
 10
38.3706347648
 20
23.89560603569998
 30
0.0
 10
38.363208843
 20
23.89679503819997
 30
0.0
 10
38.35742705269996
 20
23.89778765469998
 30
0.0
 10
38.35360978159997
 20
23.89850884930002
 30
0.0
 10
38.35142144800001
 20
23.89900006929997
 30
0.0
 10
38.35033487799996
 20
23.8992786782
 30
0.0
 10
38.34976905420001
 20
23.89948439810002
 30
0.0
 10
38.3493983102
 20
23.89964838740002
 30
0.0
 10
38.34939706709997
 20
23.89974162729999
 30
0.0
1001
ACAD
1000
RTMaterial
1005
0
  0
SPLINE
  5
6192F
330
1F
100
AcDbEntity
  8
1
100
AcDbSpline
210
0.0
220
0.0
230
1.0
 70
     8
 71
     3
 72
     9
 73
     5
 74
     0
 42
0.0000000001
 43
0.0000000001
 40
0.0
 40
0.0
 40
0.0
 40
0.0
 40
0.2545580323999999
 40
1.0
 40
1.0
 40
1.0
 40
1.0
 10
18.060617584
 20
16.1488905608
 30
0.0
 10
18.0470427807
 20
16.1678316947
 30
0.0
 10
17.9944994297
 20
16.2427957525
 30
0.0
 10
17.94518088080002
 20
16.32003845210005
 30
0.0
 10
17.9106308867
 20
16.37888652319998
 30
0.0
1001
ACAD
1000
RTMaterial
1005
0
  0
SPLINE
  5
61930
330
1F
100
AcDbEntity
  8
1
100
AcDbSpline
210
0.0
220
0.0
230
1.0
 70
     8
 71
     3
 72
    11
 73
     7
 74
     0
 42
0.0000000001
 43
0.0000000001
 40
0.0
 40
0.0
 40
0.0
 40
0.0
 40
0.2690694085
 40
0.5278431728000001
 40
0.7728492728000002
 40
1.0
 40
1.0
 40
1.0
 40
1.0
 10
20.17983707369996
 20
14.5333657333
 30
0.0
 10
19.95983622699998
 20
14.6328189788
 30
0.0
 10
19.53778050299996
 20
14.85003206990001
 30
0.0
 10
18.9586565317
 20
15.23431357300001
 30
0.0
 10
18.45936401220001
 20
15.66222318299998
 30
0.0
 10
18.17934982139997
 20
15.98322162409999
 30
0.0
 10
18.060617584
 20
16.1488905608
 30
0.0
1001
ACAD
1000
RTMaterial
1005
0
  0
SPLINE
  5
61931
330
1F
100
AcDbEntity
  8
1
100
AcDbSpline
210
0.0
220
0.0
230
1.0
 70
     8
 71
     3
 72
     9
 73
     5
 74
     0
 42
0.0000000001
 43
0.0000000001
 40
0.0
 40
0.0
 40
0.0
 40
0.0
 40
0.2616553004
 40
1.0
 40
1.0
 40
1.0
 40
1.0
 10
47.09866257099998
 20
9.721188403500036
 30
0.0
 10
47.0970941251
 20
9.71283704299998
 30
0.0
 10
47.09126990689997
 20
9.680888278599979
 30
0.0
 10
47.08606938649999
 20
9.648823056600008
 30
0.0
 10
47.08270844269996
 20
9.625081715199996
 30
0.0
1001
ACAD
1000
RTMaterial
1005
0
  0
LINE
  5
61932
330
1F
100
AcDbEntity
  8
1
100
AcDbLine
 10
47.11877837959997
 20
9.826433897000015
 30
0.0
 11
47.09866257099998
 21
9.721188403500036
 31
0.0
1001
ACAD
1000
RTMaterial
1005
0
  0
SPLINE
  5
61933
330
1F
100
AcDbEntity
  8
1
100
AcDbSpline
210
0.0
220
0.0
230
1.0
 70
     8
 71
     3
 72
    13
 73
     9
 74
     0
 42
0.0000000001
 43
0.0000000001
 40
0.0
 40
0.0
 40
0.0
 40
0.0
 40
0.3164069958
 40
0.4577431725000001
 40
0.5876623104
 40
0.7062633452
 40
0.8139764457
 40
1.0
 40
1.0
 40
1.0
 40
1.0
 10
47.5309577415
 20
9.5206775515
 30
0.0
 10
47.52594757799999
 20
9.391580764400032
 30
0.0
 10
47.5249966495
 20
9.204370057900007
 30
0.0
 10
47.54181179069997
 20
8.964903762200007
 30
0.0
 10
47.56216017989999
 20
8.806936049499991
 30
0.0
 10
47.59088551119996
 20
8.664126154099987
 30
0.0
 10
47.63818408159998
 20
8.502576664700001
 30
0.0
 10
47.68963618919997
 20
8.392172668200004
 30
0.0
 10
47.73308344959997
 20
8.329869351700011
 30
0.0
1001
ACAD
1000
RTMaterial
1005
0
  0
SPLINE
  5
61934
330
1F
100
AcDbEntity
  8
1
100
AcDbSpline
210
0.0
220
0.0
230
1.0
 70
     8
 71
     3
 72
     9
 73
     5
 74
     0
 42
0.0000000001
 43
0.0000000001
 40
0.0
 40
0.0
 40
0.0
 40
0.0
 40
0.2317684943
 40
1.0
 40
1.0
 40
1.0
 40
1.0
 10
40.43938463619997
 20
11.1601741691
 30
0.0
 10
40.45497444179999
 20
11.16509280000002
 30
0.0
 10
40.5217443742
 20
11.18784646189999
 30
0.0
 10
40.58638413760002
 20
11.21689706360001
 30
0.0
 10
40.6341002259
 20
11.24257313290002
 30
0.0
1001
ACAD
1000
RTMaterial
1005
0
  0
SPLINE
  5
61935
330
1F
100
AcDbEntity
  8
1
100
AcDbSpline
210
0.0
220
0.0
230
1.0
 70
     8
 71
     3
 72
     9
 73
     5
 74
     0
 42
0.0000000001
 43
0.0000000001
 40
0.0
 40
0.0
 40
0.0
 40
0.0
 40
0.2506844926
 40
1.0
 40
1.0
 40
1.0
 40
1.0
 10
38.68443185749999
 20
11.85649080569999
 30
0.0
 10
38.67925313519999
 20
11.86223590909998
 30
0.0
 10
38.65910652700001
 20
11.8856096842
 30
0.0
 10
38.64106125789999
 20
11.91079494429999
 30
0.0
 10
38.6288971564
 20
11.93045581149999
 30
0.0
1001
ACAD
1000
RTMaterial
1005
0
  0
SPLINE
  5
61936
330
1F
100
AcDbEntity
  8
1
100
AcDbSpline
210
0.0
220
0.0
230
1.0
 70
     8
 71
     3
 72
    10
 73
     6
 74
     0
 42
0.0000000001
 43
0.0000000001
 40
0.0
 40
0.0
 40
0.0
 40
0.0
 40
0.5649912902000001
 40
0.8081113826999999
 40
1.0
 40
1.0
 40
1.0
 40
1.0
 10
38.5207809625
 20
12.04410389759999
 30
0.0
 10
38.51224110949999
 20
12.1150910531
 30
0.0
 10
38.50797192919998
 20
12.21789778280004
 30
0.0
 10
38.51842929290001
 20
12.34409044850002
 30
0.0
 10
38.5272028622
 20
12.3985210047
 30
0.0
 10
38.53231529739998
 20
12.4222600173
 30
0.0
1001
ACAD
1000
RTMaterial
1005
0
  0
SPLINE
  5
61937
330
1F
100
AcDbEntity
  8
1
100
AcDbSpline
210
0.0
220
0.0
230
1.0
 70
     8
 71
     3
 72
     9
 73
     5
 74
     0
 42
0.0000000001
 43
0.0000000001
 40
0.0
 40
0.0
 40
0.0
 40
0.0
 40
0.2562015682999999
 40
1.0
 40
1.0
 40
1.0
 40
1.0
 10
38.46402300279999
 20
12.16503938600004
 30
0.0
 10
38.4617165473
 20
12.17416263310002
 30
0.0
 10
38.45285794329999
 20
12.20980856490001
 30
0.0
 10
38.44454053249997
 20
12.24558851249998
 30
0.0
 10
38.43863323069996
 20
12.2722619104
 30
0.0
1001
ACAD
1000
RTMaterial
1005
0
  0
SPLINE
  5
61938
330
1F
100
AcDbEntity
  8
1
100
AcDbSpline
210
0.0
220
0.0
230
1.0
 70
     8
 71
     3
 72
     9
 73
     5
 74
     0
 42
0.0000000001
 43
0.0000000001
 40
0.0
 40
0.0
 40
0.0
 40
0.0
 40
0.2691748384
 40
1.0
 40
1.0
 40
1.0
 40
1.0
 10
38.4364551118
 20
12.28215787799996
 30
0.0
 10
38.4271478252
 20
12.32470757420003
 30
0.0
 10
38.39521000740001
 20
12.48335783150003
 30
0.0
 10
38.37199989069996
 20
12.64369126859998
 30
0.0
 10
38.3588230236
 20
12.76121118079999
 30
0.0
1001
ACAD
1000
RTMaterial
1005
0
  0
SPLINE
  5
61939
330
1F
100
AcDbEntity
  8
1
100
AcDbSpline
210
0.0
220
0.0
230
1.0
 70
     8
 71
     3
 72
    23
 73
    19
 74
     0
 42
0.0000000001
 43
0.0000000001
 40
0.0
 40
0.0
 40
0.0
 40
0.0
 40
0.0625031981
 40
0.1250053662
 40
0.187507693
 40
0.2500085901
 40
0.3125095356
 40
0.3750092255
 40
0.4375085605
 40
0.5000068623000003
 40
0.562505006
 40
0.6250030587
 40
0.6875011361
 40
0.7499997601999999
 40
0.8124984626999999
 40
0.8749982862999999
 40
0.9374981762999999
 40
1.0
 40
1.0
 40
1.0
 40
1.0
 10
34.98733534249999
 20
16.93619303420001
 30
0.0
 10
34.94212228969997
 20
16.98104471929997
 30
0.0
 10
34.85822096940001
 20
17.07761423479996
 30
0.0
 10
34.75535892779999
 20
17.23941633420003
 30
0.0
 10
34.67764464619995
 20
17.41473964870005
 30
0.0
 10
34.62700097049999
 20
17.59969982659999
 30
0.0
 10
34.60462732449997
 20
17.79016935280003
 30
0.0
 10
34.6113256063
 20
17.98183575389998
 30
0.0
 10
34.646975845
 20
18.17028631479997
 30
0.0
 10
34.71110556709998
 20
18.3510451349
 30
0.0
 10
34.80213905220001
 20
18.51987050510001
 30
0.0
 10
34.91821725159997
 20
18.67256805170001
 30
0.0
 10
35.05641089749996
 20
18.80558542199998
 30
0.0
 10
35.2135626668
 20
18.91556265870002
 30
0.0
 10
35.3857459578
 20
19.00007248740002
 30
0.0
 10
35.56890405839999
 20
19.05703559429997
 30
0.0
 10
35.75855616109999
 20
19.08540417900002
 30
0.0
 10
35.88650273909997
 20
19.08481205480001
 30
0.0
 10
35.9499837935
 20
19.07972568400004
 30
0.0
1001
ACAD
1000
RTMaterial
1005
0
  0
LINE
  5
6193A
330
1F
100
AcDbEntity
  8
1
100
AcDbLine
 10
38.35158726839996
 20
23.89999997690001
 30
0.0
 11
38.3635161337
 21
23.89939756659999
 31
0.0
1001
ACAD
1000
RTMaterial
1005
0
  0
SPLINE
  5
6193B
330
1F
100
AcDbEntity
  8
1
100
AcDbSpline
210
0.0
220
0.0
230
1.0
 70
     8
 71
     3
 72
    14
 73
    10
 74
     0
 42
0.0000000001
 43
0.0000000001
 40
0.0
 40
0.0
 40
0.0
 40
0.0
 40
0.0343413009
 40
0.0968069234
 40
0.1875523253
 40
0.3059669757
 40
0.4503266194
 40
0.6174929906000001
 40
1.0
 40
1.0
 40
1.0
 40
1.0
 10
38.3635161337
 20
23.89939756659999
 30
0.0
 10
38.38455280030002
 20
23.89792421999999
 30
0.0
 10
38.44374319399998
 20
23.89232747860001
 30
0.0
 10
38.5584213538
 20
23.88173385319999
 30
0.0
 10
38.72456292369998
 20
23.8669000305
 30
0.0
 10
38.94096250409996
 20
23.84958359670003
 30
0.0
 10
39.20437349909997
 20
23.83158295139998
 30
0.0
 10
39.62995196589998
 20
23.80858379010005
 30
0.0
 10
39.967444124
 20
23.79882573470002
 30
0.0
 10
40.20231717089996
 20
23.79611398150001
 30
0.0
1001
ACAD
1000
RTMaterial
1005
0
  0
SPLINE
  5
6193C
330
1F
100
AcDbEntity
  8
1
100
AcDbSpline
210
0.0
220
0.0
230
1.0
 70
     8
 71
     3
 72
    24
 73
    20
 74
     0
 42
0.0000000001
 43
0.0000000001
 40
0.0
 40
0.0
 40
0.0
 40
0.0
 40
0.1483659394
 40
0.2215641283
 40
0.2933824439
 40
0.3629798456
 40
0.4292062344
 40
0.4907471558000001
 40
0.5468094058000002
 40
0.5730733920000001
 40
0.5985111494
 40
0.623544377
 40
0.6485976441
 40
0.6999534949
 40
0.7542758457
 40
0.8118091555999999
 40
0.8722381099999999
 40
0.9351115602
 40
1.0
 40
1.0
 40
1.0
 40
1.0
 10
27.93565613979997
 20
10.72937755489999
 30
0.0
 10
27.81162153869997
 20
10.74854199229998
 30
0.0
 10
27.62743742209995
 20
10.7857393054
 30
0.0
 10
27.38948366770001
 20
10.85676550810001
 30
0.0
 10
27.21956899690002
 20
10.92127669379999
 30
0.0
 10
27.06140459569997
 20
10.99836381
 30
0.0
 10
26.92060809830002
 20
11.0890826602
 30
0.0
 10
26.80452263769996
 20
11.19386018019997
 30
0.0
 10
26.73422356240002
 20
11.29527258109999
 30
0.0
 10
26.70109941649997
 20
11.38061222960004
 30
0.0
 10
26.68792463879999
 20
11.44449620910001
 30
0.0
 10
26.68583918780001
 20
11.50865506080004
 30
0.0
 10
26.69708206859997
 20
11.59406680519998
 30
0.0
 10
26.73606943999999
 20
11.69904632110001
 30
0.0
 10
26.81147894700001
 20
11.8155157274
 30
0.0
 10
26.90851618149999
 20
11.92478651089999
 30
0.0
 10
27.02200702530002
 20
12.027666839
 30
0.0
 10
27.14810018319997
 20
12.12503940110002
 30
0.0
 10
27.23745024109997
 20
12.1859411616
 30
0.0
 10
27.28348750449999
 20
12.21583368109998
 30
0.0
1001
ACAD
1000
RTMaterial
1005
0
  0
SPLINE
  5
6193D
330
1F
100
AcDbEntity
  8
1
100
AcDbSpline
210
0.0
220
0.0
230
1.0
 70
     8
 71
     3
 72
     9
 73
     5
 74
     0
 42
0.0000000001
 43
0.0000000001
 40
0.0
 40
0.0
 40
0.0
 40
0.0
 40
0.4989229406000001
 40
1.0
 40
1.0
 40
1.0
 40
1.0
 10
28.75738375579999
 20
10.67869857710002
 30
0.0
 10
28.62036866879999
 20
10.67563933859998
 30
0.0
 10
28.34539670240003
 20
10.6802216415
 30
0.0
 10
28.071682985
 20
10.70836021030004
 30
0.0
 10
27.93565613979997
 20
10.72937755489999
 30
0.0
1001
ACAD
1000
RTMaterial
1005
0
  0
SPLINE
  5
6193E
330
1F
100
AcDbEntity
  8
1
100
AcDbSpline
210
0.0
220
0.0
230
1.0
 70
     8
 71
     3
 72
     8
 73
     4
 74
     0
 42
0.0000000001
 43
0.0000000001
 40
0.0
 40
0.0
 40
0.0
 40
0.0
 40
1.0
 40
1.0
 40
1.0
 40
1.0
 10
28.3723176588
 20
10.33442664749998
 30
0.0
 10
28.4934609947
 20
10.32339921510004
 30
0.0
 10
28.61466330799999
 20
10.3130009006
 30
0.0
 10
28.73591561929999
 20
10.30324441070002
 30
0.0
1001
ACAD
1000
RTMaterial
1005
0
  0
SPLINE
  5
6193F
330
1F
100
AcDbEntity
  8
1
100
AcDbSpline
210
0.0
220
0.0
230
1.0
 70
     8
 71
     3
 72
    11
 73
     7
 74
     0
 42
0.0000000001
 43
0.0000000001
 40
0.0
 40
0.0
 40
0.0
 40
0.0
 40
0.2424258847
 40
0.4908837489000001
 40
0.7440368934000002
 40
1.0
 40
1.0
 40
1.0
 40
1.0
 10
21.59684014499999
 20
13.20732998749997
 30
0.0
 10
22.04493033289998
 20
12.80177268940002
 30
0.0
 10
23.02723081749997
 20
12.0600442722
 30
0.0
 10
24.67972425649998
 20
11.20033838299997
 30
0.0
 10
26.47936491819996
 20
10.60314933090001
 30
0.0
 10
27.7368280302
 20
10.39227398069999
 30
0.0
 10
28.3723176588
 20
10.33442664749998
 30
0.0
1001
ACAD
1000
RTMaterial
1005
0
  0
SPLINE
  5
61940
330
1F
100
AcDbEntity
  8
1
100
AcDbSpline
210
0.0
220
0.0
230
1.0
 70
     8
 71
     3
 72
     9
 73
     5
 74
     0
 42
0.0000000001
 43
0.0000000001
 40
0.0
 40
0.0
 40
0.0
 40
0.0
 40
0.5062824873
 40
1.0
 40
1.0
 40
1.0
 40
1.0
 10
20.17983707369996
 20
14.5333657333
 30
0.0
 10
20.41515028859999
 20
14.3055517592
 30
0.0
 10
20.88402667639997
 20
13.85978907039998
 30
0.0
 10
21.36003491049996
 20
13.4216575799
 30
0.0
 10
21.59684014499999
 20
13.20732998749997
 30
0.0
1001
ACAD
1000
RTMaterial
1005
0
  0
SPLINE
  5
61941
330
1F
100
AcDbEntity
  8
1
100
AcDbSpline
210
0.0
220
0.0
230
1.0
 70
     8
 71
     3
 72
    11
 73
     7
 74
     0
 42
0.0000000001
 43
0.0000000001
 40
0.0
 40
0.0
 40
0.0
 40
0.0
 40
0.2478375543
 40
0.4998074767000002
 40
0.7519651628
 40
1.0
 40
1.0
 40
1.0
 40
1.0
 10
38.3588230236
 20
12.76121118079999
 30
0.0
 10
38.14124280760001
 20
13.03732009449999
 30
0.0
 10
37.70619379569996
 20
13.5970969498
 30
0.0
 10
37.06208537539999
 20
14.447276498
 30
0.0
 10
36.42829302209998
 20
15.30552301270001
 30
0.0
 10
36.01427523179996
 20
15.88170720160002
 30
0.0
 10
35.81113932350002
 20
16.16895257210001
 30
0.0
1001
ACAD
1000
RTMaterial
1005
0
  0
SPLINE
  5
61942
330
1F
100
AcDbEntity
  8
1
100
AcDbSpline
210
0.0
220
0.0
230
1.0
 70
     8
 71
     3
 72
    15
 73
    11
 74
     0
 42
0.0000000001
 43
0.0000000001
 40
0.0
 40
0.0
 40
0.0
 40
0.0
 40
0.1315389088
 40
0.2625423463
 40
0.3912648543
 40
0.5168882181000001
 40
0.6395956569
 40
0.7602507386
 40
0.8800014423
 40
1.0
 40
1.0
 40
1.0
 40
1.0
 10
39.94799031209999
 20
11.27221802180003
 30
0.0
 10
39.8618735526
 20
11.26679171850003
 30
0.0
 10
39.6887778986
 20
11.26990501680001
 30
0.0
 10
39.4352464836
 20
11.31646400829999
 30
0.0
 10
39.1963620057
 20
11.40262561439999
 30
0.0
 10
38.97971384260001
 20
11.52430599900003
 30
0.0
 10
38.79040027249999
 20
11.67692693549998
 30
0.0
 10
38.63167103080002
 20
11.85603632390001
 30
0.0
 10
38.5060625749
 20
12.05758612049999
 30
0.0
 10
38.44619414059997
 20
12.20397320900002
 30
0.0
 10
38.42260853059997
 20
12.27907397260003
 30
0.0
1001
ACAD
1000
RTMaterial
1005
0
  0
SPLINE
  5
61943
330
1F
100
AcDbEntity
  8
1
100
AcDbSpline
210
0.0
220
0.0
230
1.0
 70
     8
 71
     3
 72
     9
 73
     5
 74
     0
 42
0.0000000001
 43
0.0000000001
 40
0.0
 40
0.0
 40
0.0
 40
0.0
 40
0.2495768706
 40
1.0
 40
1.0
 40
1.0
 40
1.0
 10
42.38396169299995
 20
10.71764539100002
 30
0.0
 10
42.18128694569998
 20
10.76369051479997
 30
0.0
 10
41.3692362159
 20
10.948283215
 30
0.0
 10
40.55726960609996
 20
11.13324589609999
 30
0.0
 10
39.94799031209999
 20
11.27221802180003
 30
0.0
1001
ACAD
1000
RTMaterial
1005
0
  0
SPLINE
  5
61944
330
1F
100
AcDbEntity
  8
1
100
AcDbSpline
210
0.0
220
0.0
230
1.0
 70
     8
 71
     3
 72
     9
 73
     5
 74
     0
 42
0.0000000001
 43
0.0000000001
 40
0.0
 40
0.0
 40
0.0
 40
0.0
 40
0.5002030120000001
 40
1.0
 40
1.0
 40
1.0
 40
1.0
 10
28.73591561929999
 20
10.30324441070002
 30
0.0
 10
30.99698820219999
 20
10.1213086468
 30
0.0
 10
35.517808437
 20
9.763905284299994
 30
0.0
 10
40.04000019479996
 20
9.42406209249998
 30
0.0
 10
42.3006945467
 20
9.261394305099996
 30
0.0
1001
ACAD
1000
RTMaterial
1005
0
  0
SPLINE
  5
61945
330
1F
100
AcDbEntity
  8
1
100
AcDbSpline
210
0.0
220
0.0
230
1.0
 70
     8
 71
     3
 72
     9
 73
     5
 74
     0
 42
0.0000000001
 43
0.0000000001
 40
0.0
 40
0.0
 40
0.0
 40
0.0
 40
0.2508162164
 40
1.0
 40
1.0
 40
1.0
 40
1.0
 10
43.18287998709997
 20
10.53384464549998
 30
0.0
 10
43.11613009989996
 20
10.5494016257
 30
0.0
 10
42.84995356139996
 20
10.61123012950003
 30
0.0
 10
42.58359870399997
 20
10.67229040220002
 30
0.0
 10
42.38396169299995
 20
10.71764539100002
 30
0.0
1001
ACAD
1000
RTMaterial
1005
0
  0
SPLINE
  5
61946
330
1F
100
AcDbEntity
  8
1
100
AcDbSpline
210
0.0
220
0.0
230
1.0
 70
     8
 71
     3
 72
     9
 73
     5
 74
     0
 42
0.0000000001
 43
0.0000000001
 40
0.0
 40
0.0
 40
0.0
 40
0.0
 40
0.5008552388
 40
1.0
 40
1.0
 40
1.0
 40
1.0
 10
42.3006945467
 20
9.261394305099996
 30
0.0
 10
42.46288560919999
 20
9.249723881199996
 30
0.0
 10
42.78627357819997
 20
9.219766520000009
 30
0.0
 10
43.10814843849999
 20
9.176629913999986
 30
0.0
 10
43.26836775789995
 20
9.152306841200015
 30
0.0
1001
ACAD
1000
RTMaterial
1005
0
  0
LINE
  5
61947
330
1F
100
AcDbEntity
  8
1
100
AcDbLine
 10
47.5309577415
 20
9.5206775515
 30
0.0
 11
43.18287998709997
 21
10.53384464549998
 31
0.0
1001
ACAD
1000
RTMaterial
1005
0
  0
SPLINE
  5
61948
330
1F
100
AcDbEntity
  8
1
100
AcDbSpline
210
0.0
220
0.0
230
1.0
 70
     8
 71
     3
 72
     9
 73
     5
 74
     0
 42
0.0000000001
 43
0.0000000001
 40
0.0
 40
0.0
 40
0.0
 40
0.0
 40
0.2501077393
 40
1.0
 40
1.0
 40
1.0
 40
1.0
 10
46.04171041699999
 20
8.701502351599996
 30
0.0
 10
46.24373885530002
 20
8.656963781500023
 30
0.0
 10
47.05155180999997
 20
8.479100994900022
 30
0.0
 10
47.85956272789997
 20
8.302136802400013
 30
0.0
 10
48.4656132907
 20
8.170027267499987
 30
0.0
1001
ACAD
1000
RTMaterial
1005
0
  0
SPLINE
  5
61949
330
1F
100
AcDbEntity
  8
1
100
AcDbSpline
210
0.0
220
0.0
230
1.0
 70
     8
 71
     3
 72
     9
 73
     5
 74
     0
 42
0.0000000001
 43
0.0000000001
 40
0.0
 40
0.0
 40
0.0
 40
0.0
 40
0.5007848569
 40
1.0
 40
1.0
 40
1.0
 40
1.0
 10
44.75868456679996
 20
8.93273096659999
 30
0.0
 10
44.97414601719996
 20
8.901856822700011
 30
0.0
 10
45.40343837869992
 20
8.833235020699989
 30
0.0
 10
45.8298184643
 20
8.748215401799996
 30
0.0
 10
46.04171041699999
 20
8.701502351599996
 30
0.0
1001
ACAD
1000
RTMaterial
1005
0
  0
SPLINE
  5
6194A
330
1F
100
AcDbEntity
  8
1
100
AcDbSpline
210
0.0
220
0.0
230
1.0
 70
     8
 71
     3
 72
     9
 73
     5
 74
     0
 42
0.0000000001
 43
0.0000000001
 40
0.0
 40
0.0
 40
0.0
 40
0.0
 40
0.2497120605
 40
1.0
 40
1.0
 40
1.0
 40
1.0
 10
43.26836775789995
 20
9.152306841200015
 30
0.0
 10
43.3923367886
 20
9.133486964999974
 30
0.0
 10
43.88887621749995
 20
9.058723821700027
 30
0.0
 10
44.38574723879997
 20
8.986170320699983
 30
0.0
 10
44.75868456679996
 20
8.93273096659999
 30
0.0
1001
ACAD
1000
RTMaterial
1005
0
  0
SPLINE
  5
6194B
330
1F
100
AcDbEntity
  8
1
100
AcDbSpline
210
0.0
220
0.0
230
1.0
 70
     8
 71
     3
 72
     9
 73
     5
 74
     0
 42
0.0000000001
 43
0.0000000001
 40
0.0
 40
0.0
 40
0.0
 40
0.0
 40
0.2626999117
 40
1.0
 40
1.0
 40
1.0
 40
1.0
 10
34.8833888511
 20
17.3295125729
 30
0.0
 10
34.86784947839999
 20
17.33392448030002
 30
0.0
 10
34.808994493
 20
17.35175255620004
 30
0.0
 10
34.751313058
 20
17.3734353186
 30
0.0
 10
34.70970433690002
 20
17.3914395557
 30
0.0
1001
ACAD
1000
RTMaterial
1005
0
  0
SPLINE
  5
6194C
330
1F
100
AcDbEntity
  8
1
100
AcDbSpline
210
0.0
220
0.0
230
1.0
 70
     8
 71
     3
 72
     9
 73
     5
 74
     0
 42
0.0000000001
 43
0.0000000001
 40
0.0
 40
0.0
 40
0.0
 40
0.0
 40
0.2480316314
 40
1.0
 40
1.0
 40
1.0
 40
1.0
 10
34.9484899295
 20
17.3123600454
 30
0.0
 10
34.94308139899999
 20
17.31367569139996
 30
0.0
 10
34.92130069809997
 20
17.31908271110001
 30
0.0
 10
34.89962267199997
 20
17.32490349919999
 30
0.0
 10
34.8833888511
 20
17.3295125729
 30
0.0
1001
ACAD
1000
RTMaterial
1005
0
  0
SPLINE
  5
6194D
330
1F
100
AcDbEntity
  8
1
100
AcDbSpline
210
0.0
220
0.0
230
1.0
 70
     8
 71
     3
 72
    10
 73
     6
 74
     0
 42
0.0000000001
 43
0.0000000001
 40
0.0
 40
0.0
 40
0.0
 40
0.0
 40
0.4609974391
 40
0.7156194273000001
 40
1.0
 40
1.0
 40
1.0
 40
1.0
 10
35.45987608909996
 20
16.6386929862
 30
0.0
 10
35.36608588030003
 20
16.70064142360002
 30
0.0
 10
35.22207612619997
 20
16.79927469799998
 30
0.0
 10
35.02601114519996
 20
16.94425434780004
 30
0.0
 10
34.92301531599999
 20
17.02596411310003
 30
0.0
 10
34.86977702819995
 20
17.07038860620002
 30
0.0
1001
ACAD
1000
RTMaterial
1005
0
  0
SPLINE
  5
6194E
330
1F
100
AcDbEntity
  8
1
100
AcDbSpline
210
0.0
220
0.0
230
1.0
 70
     8
 71
     3
 72
     8
 73
     4
 74
     0
 42
0.0000000001
 43
0.0000000001
 40
0.0
 40
0.0
 40
0.0
 40
0.0
 40
1.0
 40
1.0
 40
1.0
 40
1.0
 10
34.70969793569999
 20
17.39142091370001
 30
0.0
 10
34.70226624819999
 20
17.3946372881
 30
0.0
 10
34.69490271580003
 20
17.39801598580004
 30
0.0
 10
34.68761806340001
 20
17.40155277580004
 30
0.0
1001
ACAD
1000
RTMaterial
1005
0
  0
SPLINE
  5
6194F
330
1F
100
AcDbEntity
  8
1
100
AcDbSpline
210
0.0
220
0.0
230
1.0
 70
     8
 71
     3
 72
     9
 73
     5
 74
     0
 42
0.0000000001
 43
0.0000000001
 40
0.0
 40
0.0
 40
0.0
 40
0.0
 40
0.2517332017
 40
1.0
 40
1.0
 40
1.0
 40
1.0
 10
38.63893233339997
 20
12.79894379580003
 30
0.0
 10
38.6374312059
 20
12.81909218980002
 30
0.0
 10
38.6315924726
 20
12.8991401037
 30
0.0
 10
38.62623530959996
 20
12.97922307750002
 30
0.0
 10
38.6224880451
 20
13.03916233490002
 30
0.0
1001
ACAD
1000
RTMaterial
1005
0
  0
SPLINE
  5
61950
330
1F
100
AcDbEntity
  8
1
100
AcDbSpline
210
0.0
220
0.0
230
1.0
 70
     8
 71
     3
 72
     8
 73
     4
 74
     0
 42
0.0000000001
 43
0.0000000001
 40
0.0
 40
0.0
 40
0.0
 40
0.0
 40
1.0
 40
1.0
 40
1.0
 40
1.0
 10
40.77278926149999
 20
11.32767722069996
 30
0.0
 10
40.8395744874
 20
11.37404450620005
 30
0.0
 10
40.90273818539997
 20
11.42611308139999
 30
0.0
 10
40.9609817465
 20
11.48283943460001
 30
0.0
1001
ACAD
1000
RTMaterial
1005
0
  0
SPLINE
  5
61951
330
1F
100
AcDbEntity
  8
1
100
AcDbSpline
210
0.0
220
0.0
230
1.0
 70
     8
 71
     3
 72
     9
 73
     5
 74
     0
 42
0.0000000001
 43
0.0000000001
 40
0.0
 40
0.0
 40
0.0
 40
0.0
 40
0.2494384359
 40
1.0
 40
1.0
 40
1.0
 40
1.0
 10
40.6341002259
 20
11.24257313290002
 30
0.0
 10
40.64601786899999
 20
11.24898602720003
 30
0.0
 10
40.69342815789997
 20
11.2753729469
 30
0.0
 10
40.7393384833
 20
11.30445319530003
 30
0.0
 10
40.77278926149999
 20
11.32767722069996
 30
0.0
1001
ACAD
1000
RTMaterial
1005
0
  0
LINE
  5
61952
330
1F
100
AcDbEntity
  8
1
100
AcDbLine
 10
38.6390632258
 20
12.79753076150001
 30
0.0
 11
38.63893233339997
 21
12.79894379580003
 31
0.0
1001
ACAD
1000
RTMaterial
1005
0
  0
SPLINE
  5
61953
330
1F
100
AcDbEntity
  8
1
100
AcDbSpline
210
0.0
220
0.0
230
1.0
 70
     8
 71
     3
 72
     9
 73
     5
 74
     0
 42
0.0000000001
 43
0.0000000001
 40
0.0
 40
0.0
 40
0.0
 40
0.0
 40
0.2626579531
 40
1.0
 40
1.0
 40
1.0
 40
1.0
 10
38.6000458067
 20
12.57845582420003
 30
0.0
 10
38.60087020250001
 20
12.59795703650002
 30
0.0
 10
38.60628468649998
 20
12.67206096590001
 30
0.0
 10
38.62137485990002
 20
12.74567102970002
 30
0.0
 10
38.6390632258
 20
12.79753076150001
 30
0.0
1001
ACAD
1000
RTMaterial
1005
0
  0
SPLINE
  5
61954
330
1F
100
AcDbEntity
  8
1
100
AcDbSpline
210
0.0
220
0.0
230
1.0
 70
     8
 71
     3
 72
     9
 73
     5
 74
     0
 42
0.0000000001
 43
0.0000000001
 40
0.0
 40
0.0
 40
0.0
 40
0.0
 40
0.2368969621
 40
1.0
 40
1.0
 40
1.0
 40
1.0
 10
38.53231529739998
 20
12.4222600173
 30
0.0
 10
38.5335179434
 20
12.42784709450001
 30
0.0
 10
38.53918856190001
 20
12.45130230979998
 30
0.0
 10
38.54709061969998
 20
12.47419614149999
 30
0.0
 10
38.5540825837
 20
12.49122625460001
 30
0.0
1001
ACAD
1000
RTMaterial
1005
0
  0
SPLINE
  5
61955
330
1F
100
AcDbEntity
  8
1
100
AcDbSpline
210
0.0
220
0.0
230
1.0
 70
     8
 71
     3
 72
     9
 73
     5
 74
     0
 42
0.0000000001
 43
0.0000000001
 40
0.0
 40
0.0
 40
0.0
 40
0.0
 40
0.2525884928
 40
1.0
 40
1.0
 40
1.0
 40
1.0
 10
38.53073862290001
 20
12.37296625810001
 30
0.0
 10
38.53150428839996
 20
12.37695949740003
 30
0.0
 10
38.53465899369997
 20
12.39274478370004
 30
0.0
 10
38.53831213490003
 20
12.40843097819999
 30
0.0
 10
38.54133405119995
 20
12.42007655930001
 30
0.0
1001
ACAD
1000
RTMaterial
1005
0
  0
SPLINE
  5
61956
330
1F
100
AcDbEntity
  8
1
100
AcDbSpline
210
0.0
220
0.0
230
1.0
 70
     8
 71
     3
 72
     9
 73
     5
 74
     0
 42
0.0000000001
 43
0.0000000001
 40
0.0
 40
0.0
 40
0.0
 40
0.0
 40
0.2538006098999999
 40
1.0
 40
1.0
 40
1.0
 40
1.0
 10
38.54133405119995
 20
12.42007655930001
 30
0.0
 10
38.54283902520001
 20
12.42587628850003
 30
0.0
 10
38.5490537696
 20
12.44865253810002
 30
0.0
 10
38.55642759879998
 20
12.47111539620005
 30
0.0
 10
38.56260928360001
 20
12.48761172630003
 30
0.0
1001
ACAD
1000
RTMaterial
1005
0
  0
SPLINE
  5
61957
330
1F
100
AcDbEntity
  8
1
100
AcDbSpline
210
0.0
220
0.0
230
1.0
 70
     8
 71
     3
 72
     8
 73
     4
 74
     0
 42
0.0000000001
 43
0.0000000001
 40
0.0
 40
0.0
 40
0.0
 40
0.0
 40
1.0
 40
1.0
 40
1.0
 40
1.0
 10
38.56260928360001
 20
12.48761172630003
 30
0.0
 10
38.5652935878
 20
12.49477501109999
 30
0.0
 10
38.56810705369998
 20
12.50189131450003
 30
0.0
 10
38.5710517463
 20
12.50895154990002
 30
0.0
1001
ACAD
1000
RTMaterial
1005
0
  0
SPLINE
  5
61958
330
1F
100
AcDbEntity
  8
1
100
AcDbSpline
210
0.0
220
0.0
230
1.0
 70
     8
 71
     3
 72
    11
 73
     7
 74
     0
 42
0.0000000001
 43
0.0000000001
 40
0.0
 40
0.0
 40
0.0
 40
0.0
 40
0.2615591517
 40
0.5084963344000001
 40
0.7507675928000001
 40
1.0
 40
1.0
 40
1.0
 40
1.0
 10
38.6288971564
 20
11.93045581149999
 30
0.0
 10
38.60761184670002
 20
11.9648699434
 30
0.0
 10
38.56986692339996
 20
12.03421603039999
 30
0.0
 10
38.53152383690002
 20
12.14455786130003
 30
0.0
 10
38.51661963619995
 20
12.2586832536
 30
0.0
 10
38.5234778099
 20
12.33509833080001
 30
0.0
 10
38.53073862290001
 20
12.37296625810001
 30
0.0
1001
ACAD
1000
RTMaterial
1005
0
  0
SPLINE
  5
61959
330
1F
100
AcDbEntity
  8
1
100
AcDbSpline
210
0.0
220
0.0
230
1.0
 70
     8
 71
     3
 72
     9
 73
     5
 74
     0
 42
0.0000000001
 43
0.0000000001
 40
0.0
 40
0.0
 40
0.0
 40
0.0
 40
0.24923109
 40
1.0
 40
1.0
 40
1.0
 40
1.0
 10
40.20231717089996
 20
23.79611398150001
 30
0.0
 10
40.2131709153
 20
23.79598866830002
 30
0.0
 10
40.25670668469995
 20
23.79467739770001
 30
0.0
 10
40.3001451115
 20
23.79011793289999
 30
0.0
 10
40.33242111199996
 20
23.78488565909998
 30
0.0
1001
ACAD
1000
RTMaterial
1005
0
  0
SPLINE
  5
6195A
330
1F
100
AcDbEntity
  8
1
100
AcDbSpline
210
0.0
220
0.0
230
1.0
 70
     8
 71
     3
 72
     9
 73
     5
 74
     0
 42
0.0000000001
 43
0.0000000001
 40
0.0
 40
0.0
 40
0.0
 40
0.0
 40
0.2398851644
 40
1.0
 40
1.0
 40
1.0
 40
1.0
 10
38.5540825837
 20
12.49122625460001
 30
0.0
 10
38.55707934549997
 20
12.49852537560002
 30
0.0
 10
38.57032978400003
 20
12.52863908429998
 30
0.0
 10
38.58648824479997
 20
12.55744901299999
 30
0.0
 10
38.6000458067
 20
12.57845582420003
 30
0.0
1001
ACAD
1000
RTMaterial
1005
0
  0
SPLINE
  5
6195B
330
1F
100
AcDbEntity
  8
1
100
AcDbSpline
210
0.0
220
0.0
230
1.0
 70
     8
 71
     3
 72
    11
 73
     7
 74
     0
 42
0.0000000001
 43
0.0000000001
 40
0.0
 40
0.0
 40
0.0
 40
0.0
 40
0.2535392088
 40
0.5052346771
 40
0.7541997883000003
 40
1.0
 40
1.0
 40
1.0
 40
1.0
 10
36.11652497590001
 20
1.550212603199979
 30
0.0
 10
35.86647443879997
 20
1.645687219900024
 30
0.0
 10
35.38046900709998
 20
1.8696734927
 30
0.0
 10
34.7023140769
 20
2.290147462899994
 30
0.0
 10
34.08205870249998
 20
2.778614386000015
 30
0.0
 10
33.70610782450001
 20
3.142589096000021
 30
0.0
 10
33.5283345249
 20
3.331614424299998
 30
0.0
1001
ACAD
1000
RTMaterial
1005
0
  0
SPLINE
  5
6195C
330
1F
100
AcDbEntity
  8
1
100
AcDbSpline
210
0.0
220
0.0
230
1.0
 70
     8
 71
     3
 72
     9
 73
     5
 74
     0
 42
0.0000000001
 43
0.0000000001
 40
0.0
 40
0.0
 40
0.0
 40
0.0
 40
0.5000005847
 40
1.0
 40
1.0
 40
1.0
 40
1.0
 10
33.5283345249
 20
22.69368956260001
 30
0.0
 10
33.94870079809999
 20
22.81089807159998
 30
0.0
 10
34.80631596319995
 20
22.98854291309999
 30
0.0
 10
35.68012522219999
 20
23.0481489444
 30
0.0
 10
36.11652497590001
 20
23.04819694670005
 30
0.0
1001
ACAD
1000
RTMaterial
1005
0
  0
SPLINE
  5
6195D
330
1F
100
AcDbEntity
  8
1
100
AcDbSpline
210
0.0
220
0.0
230
1.0
 70
     8
 71
     3
 72
    11
 73
     7
 74
     0
 42
0.0000000001
 43
0.0000000001
 40
0.0
 40
0.0
 40
0.0
 40
0.0
 40
0.2460658701
 40
0.4950664566
 40
0.7465195382
 40
1.0
 40
1.0
 40
1.0
 40
1.0
 10
30.80515176770001
 20
6.964900086700025
 30
0.0
 10
30.98487649089998
 20
6.637667463199989
 30
0.0
 10
31.37521981269998
 20
5.994806920200002
 30
0.0
 10
32.03249881569997
 20
5.071430277999978
 30
0.0
 10
32.75232491690002
 20
4.181634198700038
 30
0.0
 10
33.26485534950001
 20
3.611770317800021
 30
0.0
 10
33.5283345249
 20
3.331614424299998
 30
0.0
1001
ACAD
1000
RTMaterial
1005
0
  0
SPLINE
  5
6195E
330
1F
100
AcDbEntity
  8
1
100
AcDbSpline
210
0.0
220
0.0
230
1.0
 70
     8
 71
     3
 72
     9
 73
     5
 74
     0
 42
0.0000000001
 43
0.0000000001
 40
0.0
 40
0.0
 40
0.0
 40
0.0
 40
0.4960693805
 40
1.0
 40
1.0
 40
1.0
 40
1.0
 10
38.42260853059997
 20
12.27907397260003
 30
0.0
 10
38.39842347219997
 20
12.35608348620002
 30
0.0
 10
38.36300224489998
 20
12.51582343149999
 30
0.0
 10
38.35557873080001
 20
12.67927832870003
 30
0.0
 10
38.3588230236
 20
12.76121118079999
 30
0.0
1001
ACAD
1000
RTMaterial
1005
0
  0
SPLINE
  5
6195F
330
1F
100
AcDbEntity
  8
1
100
AcDbSpline
210
0.0
220
0.0
230
1.0
 70
     8
 71
     3
 72
     8
 73
     4
 74
     0
 42
0.0000000001
 43
0.0000000001
 40
0.0
 40
0.0
 40
0.0
 40
0.0
 40
1.0
 40
1.0
 40
1.0
 40
1.0
 10
33.5283345249
 20
22.69368956260001
 30
0.0
 10
31.94488277779999
 20
22.25218407040001
 30
0.0
 10
30.3616853556
 20
21.80976499799999
 30
0.0
 10
28.77879468510002
 20
21.36625213400003
 30
0.0
1001
ACAD
1000
RTMaterial
1005
0
  0
SPLINE
  5
61960
330
1F
100
AcDbEntity
  8
1
100
AcDbSpline
210
0.0
220
0.0
230
1.0
 70
     8
 71
     3
 72
     9
 73
     5
 74
     0
 42
0.0000000001
 43
0.0000000001
 40
0.0
 40
0.0
 40
0.0
 40
0.0
 40
0.2495409828
 40
1.0
 40
1.0
 40
1.0
 40
1.0
 10
27.61126847759999
 20
21.02225822809999
 30
0.0
 10
27.70798697479995
 20
21.05219118310003
 30
0.0
 10
28.09598993959998
 20
21.17079126420003
 30
0.0
 10
28.48560749639995
 20
21.28410351050002
 30
0.0
 10
28.77879468510002
 20
21.36625213400003
 30
0.0
1001
ACAD
1000
RTMaterial
1005
0
  0
SPLINE
  5
61961
330
1F
100
AcDbEntity
  8
1
100
AcDbSpline
210
0.0
220
0.0
230
1.0
 70
     8
 71
     3
 72
     9
 73
     5
 74
     0
 42
0.0000000001
 43
0.0000000001
 40
0.0
 40
0.0
 40
0.0
 40
0.0
 40
0.2517589964
 40
1.0
 40
1.0
 40
1.0
 40
1.0
 10
29.20804903789997
 20
7.330460365199995
 30
0.0
 10
29.0710626005
 20
7.362043557499986
 30
0.0
 10
28.52952826310002
 20
7.49851079030003
 30
0.0
 10
27.99893806670002
 20
7.677902990200009
 30
0.0
 10
27.61126847769998
 20
7.833719757800025
 30
0.0
1001
ACAD
1000
RTMaterial
1005
0
  0
SPLINE
  5
61962
330
1F
100
AcDbEntity
  8
1
100
AcDbSpline
210
0.0
220
0.0
230
1.0
 70
     8
 71
     3
 72
     9
 73
     5
 74
     0
 42
0.0000000001
 43
0.0000000001
 40
0.0
 40
0.0
 40
0.0
 40
0.0
 40
0.2497419567
 40
1.0
 40
1.0
 40
1.0
 40
1.0
 10
29.20804903789997
 20
7.330460365199995
 30
0.0
 10
29.34095522269996
 20
7.299817904000008
 30
0.0
 10
29.87317958699998
 20
7.177339778400011
 30
0.0
 10
30.40559946759998
 20
7.055711537400013
 30
0.0
 10
30.80515176770001
 20
6.964900086700025
 30
0.0
1001
ACAD
1000
RTMaterial
1005
0
  0
SPLINE
  5
61963
330
1F
100
AcDbEntity
  8
1
100
AcDbSpline
210
0.0
220
0.0
230
1.0
 70
     8
 71
     3
 72
     9
 73
     5
 74
     0
 42
0.0000000001
 43
0.0000000001
 40
0.0
 40
0.0
 40
0.0
 40
0.0
 40
0.2228867865
 40
1.0
 40
1.0
 40
1.0
 40
1.0
 10
34.82400730329999
 20
17.13447699290003
 30
0.0
 10
34.8365238632
 20
17.12692522449998
 30
0.0
 10
34.89339494090001
 20
17.09423657889999
 30
0.0
 10
34.95319969169998
 20
17.06670326960005
 30
0.0
 10
35.00065678189999
 20
17.04811462150002
 30
0.0
1001
ACAD
1000
RTMaterial
1005
0
  0
SPLINE
  5
61964
330
1F
100
AcDbEntity
  8
1
100
AcDbSpline
210
0.0
220
0.0
230
1.0
 70
     8
 71
     3
 72
    16
 73
    12
 74
     0
 42
0.0000000001
 43
0.0000000001
 40
0.0
 40
0.0
 40
0.0
 40
0.0
 40
0.0644625626
 40
0.1288457969
 40
0.193079085
 40
0.2570997493
 40
0.3842597225
 40
0.5101620494
 40
0.6346974934000002
 40
0.7578447284000001
 40
1.0
 40
1.0
 40
1.0
 40
1.0
 10
28.50482752469998
 20
16.57486693290002
 30
0.0
 10
28.36334739770001
 20
16.5771408068
 30
0.0
 10
28.08060870269997
 20
16.59190940920001
 30
0.0
 10
27.65981711789999
 20
16.64553164220001
 30
0.0
 10
27.24511266449997
 20
16.73012244199998
 30
0.0
 10
26.70485743889998
 20
16.88146476529999
 30
0.0
 10
26.0551834872
 20
17.13675396050001
 30
0.0
 10
25.32184699499999
 20
17.52595687670003
 30
0.0
 10
24.63573488079999
 20
17.97699810749998
 30
0.0
 10
23.78627664479996
 20
18.63744748409999
 30
0.0
 10
23.20517111319998
 20
19.19390067609998
 30
0.0
 10
22.8420951265
 20
19.58211854910002
 30
0.0
1001
ACAD
1000
RTMaterial
1005
0
  0
SPLINE
  5
61965
330
1F
100
AcDbEntity
  8
1
100
AcDbSpline
210
0.0
220
0.0
230
1.0
 70
     8
 71
     3
 72
     8
 73
     4
 74
     0
 42
0.0000000001
 43
0.0000000001
 40
0.0
 40
0.0
 40
0.0
 40
0.0
 40
1.0
 40
1.0
 40
1.0
 40
1.0
 10
29.09327534229999
 20
16.55307408229998
 30
0.0
 10
28.89731168679998
 20
16.56427911049997
 30
0.0
 10
28.70108591939999
 20
16.57171266059998
 30
0.0
 10
28.50482752469998
 20
16.57486693290002
 30
0.0
1001
ACAD
1000
RTMaterial
1005
0
  0
SPLINE
  5
61966
330
1F
100
AcDbEntity
  8
1
100
AcDbSpline
210
0.0
220
0.0
230
1.0
 70
     8
 71
     3
 72
    17
 73
    13
 74
     0
 42
0.0000000001
 43
0.0000000001
 40
0.0
 40
0.0
 40
0.0
 40
0.0
 40
0.2482389298
 40
0.3730141661
 40
0.4980805293000001
 40
0.6233640693
 40
0.7488038025
 40
0.8115780996999999
 40
0.8743754862999999
 40
0.9371802077999999
 40
0.9685949478999999
 40
1.0
 40
1.0
 40
1.0
 40
1.0
 10
28.8899621256
 20
12.99734887670001
 30
0.0
 10
29.17393274530002
 20
13.11578391069997
 30
0.0
 10
29.6048303618
 20
13.28392995490003
 30
0.0
 10
30.1872810685
 20
13.48865107130001
 30
0.0
 10
30.62985564119998
 20
13.63137918590001
 30
0.0
 10
31.07764610789997
 20
13.75984778309998
 30
0.0
 10
31.45588916970002
 20
13.8499509019
 30
0.0
 10
31.7622948911
 20
13.90454086299996
 30
0.0
 10
31.99417691600002
 20
13.93285350940004
 30
0.0
 10
32.18908835589997
 20
13.94062244120005
 30
0.0
 10
32.34461503889998
 20
13.93066362080003
 30
0.0
 10
32.4216920925
 20
13.91825853749998
 30
0.0
 10
32.45962579219997
 20
13.90953048130001
 30
0.0
1001
ACAD
1000
RTMaterial
1005
0
  0
SPLINE
  5
61967
330
1F
100
AcDbEntity
  8
1
100
AcDbSpline
210
0.0
220
0.0
230
1.0
 70
     8
 71
     3
 72
     9
 73
     5
 74
     0
 42
0.0000000001
 43
0.0000000001
 40
0.0
 40
0.0
 40
0.0
 40
0.0
 40
0.5098833393
 40
1.0
 40
1.0
 40
1.0
 40
1.0
 10
21.85517337179999
 20
12.27877289089997
 30
0.0
 10
21.56505216239998
 20
12.65792705929999
 30
0.0
 10
21.00058748060002
 20
13.40501884030004
 30
0.0
 10
20.44740089319998
 20
14.16052778060003
 30
0.0
 10
20.17983707369996
 20
14.5333657333
 30
0.0
1001
ACAD
1000
RTMaterial
1005
0
  0
SPLINE
  5
61968
330
1F
100
AcDbEntity
  8
1
100
AcDbSpline
210
0.0
220
0.0
230
1.0
 70
     8
 71
     3
 72
    18
 73
    14
 74
     0
 42
0.0000000001
 43
0.0000000001
 40
0.0
 40
0.0
 40
0.0
 40
0.0
 40
0.136761563
 40
0.262789492
 40
0.3223765897
 40
0.3801933589
 40
0.4368552216
 40
0.4930809208
 40
0.5496317043
 40
0.6072307947
 40
0.7277512296
 40
0.8582386665999999
 40
1.0
 40
1.0
 40
1.0
 40
1.0
 10
17.9106308867
 20
16.37888652319998
 30
0.0
 10
17.84701993189998
 20
16.4872333431
 30
0.0
 10
17.73875548429998
 20
16.70424205429998
 30
0.0
 10
17.65552137660001
 20
16.99081715220001
 30
0.0
 10
17.6308617903
 20
17.2135902224
 30
0.0
 10
17.63305505189999
 20
17.37392867310001
 30
0.0
 10
17.65581529389999
 20
17.5295648311
 30
0.0
 10
17.6990929749
 20
17.67958612699999
 30
0.0
 10
17.76251694089995
 20
17.82318868070001
 30
0.0
 10
17.87445584289997
 20
18.00804040880001
 30
0.0
 10
18.06410743249995
 20
18.2220450886
 30
0.0
 10
18.35078132819996
 20
18.44350183569997
 30
0.0
 10
18.5685597922
 20
18.5679040942
 30
0.0
 10
18.68470912020001
 20
18.62681072999999
 30
0.0
1001
ACAD
1000
RTMaterial
1005
0
  0
SPLINE
  5
61969
330
1F
100
AcDbEntity
  8
1
100
AcDbSpline
210
0.0
220
0.0
230
1.0
 70
     8
 71
     3
 72
    23
 73
    19
 74
     0
 42
0.0000000001
 43
0.0000000001
 40
0.0
 40
0.0
 40
0.0
 40
0.0
 40
0.0338860954
 40
0.0676887073
 40
0.1013350563
 40
0.1347611497
 40
0.1679498951
 40
0.2009099263
 40
0.2336522147
 40
0.2661890245
 40
0.3306325696
 40
0.3943301882
 40
0.4572887329000002
 40
0.5195292121000003
 40
0.6419703753000002
 40
0.7622884511
 40
0.8813015167999999
 40
1.0
 40
1.0
 40
1.0
 40
1.0
 10
32.45962579219997
 20
13.90953048130001
 30
0.0
 10
32.49486795690001
 20
13.90142171270003
 30
0.0
 10
32.56440368149998
 20
13.88081777650001
 30
0.0
 10
32.66196127310002
 20
13.83255340760001
 30
0.0
 10
32.74606554759998
 20
13.76351842299999
 30
0.0
 10
32.80890359479997
 20
13.675386645
 30
0.0
 10
32.84798588019999
 20
13.57563017040002
 30
0.0
 10
32.86688965359997
 20
13.4713068762
 30
0.0
 10
32.87048405269997
 20
13.36625465780002
 30
0.0
 10
32.85998557379997
 20
13.22801271309998
 30
0.0
 10
32.82532256880001
 20
13.05941991690003
 30
0.0
 10
32.76152284230001
 20
12.86541442679999
 30
0.0
 10
32.68163931909999
 20
12.68007046010001
 30
0.0
 10
32.5589651674
 20
12.4457772984
 30
0.0
 10
32.37923434619995
 20
12.17323223919999
 30
0.0
 10
32.12825360869999
 20
11.87867460220002
 30
0.0
 10
31.84713336929997
 20
11.61865466360001
 30
0.0
 10
31.6417695843
 20
11.46864612839999
 30
0.0
 10
31.53552474079999
 20
11.39966513770002
 30
0.0
1001
ACAD
1000
RTMaterial
1005
0
  0
SPLINE
  5
6196A
330
1F
100
AcDbEntity
  8
1
100
AcDbSpline
210
0.0
220
0.0
230
1.0
 70
     8
 71
     3
 72
    11
 73
     7
 74
     0
 42
0.0000000001
 43
0.0000000001
 40
0.0
 40
0.0
 40
0.0
 40
0.0
 40
0.2560665498
 40
0.510201541
 40
0.7593731047
 40
1.0
 40
1.0
 40
1.0
 40
1.0
 10
27.61126847769998
 20
7.833719757800025
 30
0.0
 10
27.02870657339997
 20
8.06786996049999
 30
0.0
 10
25.90030209269997
 20
8.619772451900017
 30
0.0
 10
24.35634833149999
 20
9.670940095200023
 30
0.0
 10
22.99872464650002
 20
10.89701343979999
 30
0.0
 10
22.21370928209996
 20
11.81020878570001
 30
0.0
 10
21.85517337179999
 20
12.27877289089997
 30
0.0
1001
ACAD
1000
RTMaterial
1005
0
  0
SPLINE
  5
6196B
330
1F
100
AcDbEntity
  8
1
100
AcDbSpline
210
0.0
220
0.0
230
1.0
 70
     8
 71
     3
 72
    11
 73
     7
 74
     0
 42
0.0000000001
 43
0.0000000001
 40
0.0
 40
0.0
 40
0.0
 40
0.0
 40
0.2380966557
 40
0.4856557483
 40
0.7404347231
 40
1.0
 40
1.0
 40
1.0
 40
1.0
 10
22.8420951265
 20
19.58211854910002
 30
0.0
 10
23.21784156489997
 20
19.7052179113
 30
0.0
 10
23.98820580590001
 20
19.94424520400002
 30
0.0
 10
25.1676049015
 20
20.29200754960005
 30
0.0
 10
26.38173585419997
 20
20.64806132050001
 30
0.0
 10
27.19948887969997
 20
20.89481848769998
 30
0.0
 10
27.61126847759999
 20
21.02225822809999
 30
0.0
1001
ACAD
1000
RTMaterial
1005
0
  0
SPLINE
  5
6196C
330
1F
100
AcDbEntity
  8
1
100
AcDbSpline
210
0.0
220
0.0
230
1.0
 70
     8
 71
     3
 72
     9
 73
     5
 74
     0
 42
0.0000000001
 43
0.0000000001
 40
0.0
 40
0.0
 40
0.0
 40
0.0
 40
0.4999943658000002
 40
1.0
 40
1.0
 40
1.0
 40
1.0
 10
35.45987608909996
 20
16.6386929862
 30
0.0
 10
35.37166404199997
 20
16.67007422159997
 30
0.0
 10
35.20168966749998
 20
16.75264146799998
 30
0.0
 10
35.05380672489997
 20
16.87025292780004
 30
0.0
 10
34.98733534249999
 20
16.93619303420001
 30
0.0
1001
ACAD
1000
RTMaterial
1005
0
  0
SPLINE
  5
6196D
330
1F
100
AcDbEntity
  8
1
100
AcDbSpline
210
0.0
220
0.0
230
1.0
 70
     8
 71
     3
 72
     9
 73
     5
 74
     0
 42
0.0000000001
 43
0.0000000001
 40
0.0
 40
0.0
 40
0.0
 40
0.0
 40
0.2511323983
 40
1.0
 40
1.0
 40
1.0
 40
1.0
 10
47.11941553069999
 20
10.06272700150003
 30
0.0
 10
47.11576355889996
 20
10.04485423889997
 30
0.0
 10
47.10128624429995
 20
9.973672354799989
 30
0.0
 10
47.08707556489996
 20
9.90243618740004
 30
0.0
 10
47.07659686419996
 20
9.849057865000018
 30
0.0
1001
ACAD
1000
RTMaterial
1005
0
  0
SPLINE
  5
6196E
330
1F
100
AcDbEntity
  8
1
100
AcDbSpline
210
0.0
220
0.0
230
1.0
 70
     8
 71
     3
 72
    14
 73
    10
 74
     0
 42
0.0000000001
 43
0.0000000001
 40
0.0
 40
0.0
 40
0.0
 40
0.0
 40
0.1045106964
 40
0.2169254273
 40
0.3363418071
 40
0.4616872651
 40
0.5918431127
 40
0.7256862782
 40
1.0
 40
1.0
 40
1.0
 40
1.0
 10
18.68470912020001
 20
18.62681072999999
 30
0.0
 10
18.81778388679999
 20
18.69430132120004
 30
0.0
 10
19.10233615599998
 20
18.81809613720003
 30
0.0
 10
19.55724896229998
 20
18.97289154470002
 30
0.0
 10
20.04930685319999
 20
19.10768808649999
 30
0.0
 10
20.57148814829998
 20
19.22591351479997
 30
0.0
 10
21.11750737659997
 20
19.33052486620005
 30
0.0
 10
21.87580962670001
 20
19.45596297669999
 30
0.0
 10
22.45337764979996
 20
19.5343619647
 30
0.0
 10
22.8420951265
 20
19.58211854910002
 30
0.0
1001
ACAD
1000
RTMaterial
1005
0
  0
SPLINE
  5
6196F
330
1F
100
AcDbEntity
  8
1
100
AcDbSpline
210
0.0
220
0.0
230
1.0
 70
     8
 71
     3
 72
     9
 73
     5
 74
     0
 42
0.0000000001
 43
0.0000000001
 40
0.0
 40
0.0
 40
0.0
 40
0.0
 40
0.249465517
 40
1.0
 40
1.0
 40
1.0
 40
1.0
 10
47.01652533109999
 20
-2.149468470399964
 30
0.0
 10
46.99652057819998
 20
-2.146892803699984
 30
0.0
 10
46.91672440420001
 20
-2.133580270799996
 30
0.0
 10
46.83899038109996
 20
-2.108812772500014
 30
0.0
 10
46.78307789399997
 20
-2.085229717299994
 30
0.0
1001
ACAD
1000
RTMaterial
1005
0
  0
SPLINE
  5
61970
330
1F
100
AcDbEntity
  8
1
100
AcDbSpline
210
0.0
220
0.0
230
1.0
 70
     8
 71
     3
 72
    18
 73
    14
 74
     0
 42
0.0000000001
 43
0.0000000001
 40
0.0
 40
0.0
 40
0.0
 40
0.0
 40
0.047083243
 40
0.0911517896
 40
0.1347297399
 40
0.1801606038
 40
0.2289653993
 40
0.281850478
 40
0.4002371191
 40
0.5341448583
 40
0.6808542622
 40
0.8372435398
 40
1.0
 40
1.0
 40
1.0
 40
1.0
 10
48.03464458669997
 20
-2.067223015599978
 30
0.0
 10
48.0274845972
 20
-2.082489874899975
 30
0.0
 10
48.01103862769998
 20
-2.110993191299966
 30
0.0
 10
47.97786370549999
 20
-2.146642963799962
 30
0.0
 10
47.93770693909999
 20
-2.173071635099971
 30
0.0
 10
47.89156137709993
 20
-2.191307114599993
 30
0.0
 10
47.8400397876
 20
-2.203002530299983
 30
0.0
 10
47.76164233479999
 20
-2.212070172300002
 30
0.0
 10
47.6521092172
 20
-2.212506867499996
 30
0.0
 10
47.50946641749999
 20
-2.203841220200017
 30
0.0
 10
47.35361352139995
 20
-2.189247494500023
 30
0.0
 10
47.18778875299995
 20
-2.17084400829998
 30
0.0
 10
47.07433793309997
 20
-2.156912000999994
 30
0.0
 10
47.01652533109999
 20
-2.149468470399964
 30
0.0
1001
ACAD
1000
RTMaterial
1005
0
  0
SPLINE
  5
61971
330
1F
100
AcDbEntity
  8
1
100
AcDbSpline
210
0.0
220
0.0
230
1.0
 70
     8
 71
     3
 72
     9
 73
     5
 74
     0
 42
0.0000000001
 43
0.0000000001
 40
0.0
 40
0.0
 40
0.0
 40
0.0
 40
0.2427831189
 40
1.0
 40
1.0
 40
1.0
 40
1.0
 10
35.00065678189999
 20
17.04811462150002
 30
0.0
 10
35.0230338527
 20
17.0393496616
 30
0.0
 10
35.11631356429996
 20
17.00614358440003
 30
0.0
 10
35.21376779579997
 20
16.98472186190002
 30
0.0
 10
35.28814074909997
 20
16.97540048630003
 30
0.0
1001
ACAD
1000
RTMaterial
1005
0
  0
SPLINE
  5
61972
330
1F
100
AcDbEntity
  8
1
100
AcDbSpline
210
0.0
220
0.0
230
1.0
 70
     8
 71
     3
 72
    11
 73
     7
 74
     0
 42
0.0000000001
 43
0.0000000001
 40
0.0
 40
0.0
 40
0.0
 40
0.0
 40
0.199358831
 40
0.4389582107
 40
0.7083796065000004
 40
1.0
 40
1.0
 40
1.0
 40
1.0
 10
48.14220734629997
 20
-1.901393358600016
 30
0.0
 10
48.13150358989997
 20
-1.90916534529998
 30
0.0
 10
48.11150842209997
 20
-1.930914800999999
 30
0.0
 10
48.08519840549998
 20
-1.969836334099993
 30
0.0
 10
48.05926154379999
 20
-2.016281609599985
 30
0.0
 10
48.04286059619994
 20
-2.049704461699974
 30
0.0
 10
48.03464458669997
 20
-2.067223015599978
 30
0.0
1001
ACAD
1000
RTMaterial
1005
0
  0
SPLINE
  5
61973
330
1F
100
AcDbEntity
  8
1
100
AcDbSpline
210
0.0
220
0.0
230
1.0
 70
     8
 71
     3
 72
     9
 73
     5
 74
     0
 42
0.0000000001
 43
0.0000000001
 40
0.0
 40
0.0
 40
0.0
 40
0.0
 40
0.2444463152
 40
1.0
 40
1.0
 40
1.0
 40
1.0
 10
34.6895309345
 20
18.28557065040001
 30
0.0
 10
34.70139482359997
 20
18.29791920989999
 30
0.0
 10
34.75096043830002
 20
18.34743839269998
 30
0.0
 10
34.80443920639999
 20
18.39300460539998
 30
0.0
 10
34.84648562519999
 20
18.42515367830003
 30
0.0
1001
ACAD
1000
RTMaterial
1005
0
  0
LINE
  5
61974
330
1F
100
AcDbEntity
  8
1
100
AcDbLine
 10
34.84648562519999
 20
18.42515367830003
 30
0.0
 11
34.8528102625
 21
18.42996296249998
 31
0.0
1001
ACAD
1000
RTMaterial
1005
0
  0
SPLINE
  5
61975
330
1F
100
AcDbEntity
  8
1
100
AcDbSpline
210
0.0
220
0.0
230
1.0
 70
     8
 71
     3
 72
     9
 73
     5
 74
     0
 42
0.0000000001
 43
0.0000000001
 40
0.0
 40
0.0
 40
0.0
 40
0.0
 40
0.5034762294
 40
1.0
 40
1.0
 40
1.0
 40
1.0
 10
41.93170633
 20
0.1093403137000166
 30
0.0
 10
41.89130542219999
 20
0.129067219999996
 30
0.0
 10
41.80650348819995
 20
0.1599625517999925
 30
0.0
 10
41.71587979839995
 20
0.1665230808000047
 30
0.0
 10
41.67170571349998
 20
0.1627029217000313
 30
0.0
1001
ACAD
1000
RTMaterial
1005
0
  0
SPLINE
  5
61976
330
1F
100
AcDbEntity
  8
1
100
AcDbSpline
210
0.0
220
0.0
230
1.0
 70
     8
 71
     3
 72
     9
 73
     5
 74
     0
 42
0.0000000001
 43
0.0000000001
 40
0.0
 40
0.0
 40
0.0
 40
0.0
 40
0.2676203132
 40
1.0
 40
1.0
 40
1.0
 40
1.0
 10
38.45612499600004
 20
12.33639345159997
 30
0.0
 10
38.45692875480001
 20
12.31774945170002
 30
0.0
 10
38.46117995399999
 20
12.24814373079999
 30
0.0
 10
38.47025917069999
 20
12.17882733089999
 30
0.0
 10
38.47968492899997
 20
12.12863546150004
 30
0.0
1001
ACAD
1000
RTMaterial
1005
0
  0
SPLINE
  5
61977
330
1F
100
AcDbEntity
  8
1
100
AcDbSpline
210
0.0
220
0.0
230
1.0
 70
     8
 71
     3
 72
     9
 73
     5
 74
     0
 42
0.0000000001
 43
0.0000000001
 40
0.0
 40
0.0
 40
0.0
 40
0.0
 40
0.5031960461000003
 40
1.0
 40
1.0
 40
1.0
 40
1.0
 10
38.60780464479996
 20
13.05917451970003
 30
0.0
 10
38.55290556900003
 20
12.94705587909999
 30
0.0
 10
38.47140915659998
 20
12.70965421929998
 30
0.0
 10
38.4508164248
 20
12.45953114960002
 30
0.0
 10
38.45612499600004
 20
12.33639345159997
 30
0.0
1001
ACAD
1000
RTMaterial
1005
0
  0
SPLINE
  5
61978
330
1F
100
AcDbEntity
  8
1
100
AcDbSpline
210
0.0
220
0.0
230
1.0
 70
     8
 71
     3
 72
     9
 73
     5
 74
     0
 42
0.0000000001
 43
0.0000000001
 40
0.0
 40
0.0
 40
0.0
 40
0.0
 40
0.500807449
 40
1.0
 40
1.0
 40
1.0
 40
1.0
 10
49.5
 20
-0.9003918446999819
 30
0.0
 10
49.2749144828
 20
-1.069619276400004
 30
0.0
 10
48.823445037
 20
-1.404837932599972
 30
0.0
 10
48.36934389159996
 20
-1.736469742299988
 30
0.0
 10
48.14220734629997
 20
-1.901393358600016
 30
0.0
1001
ACAD
1000
RTMaterial
1005
0
  0
SPLINE
  5
61979
330
1F
100
AcDbEntity
  8
1
100
AcDbSpline
210
0.0
220
0.0
230
1.0
 70
     8
 71
     3
 72
    12
 73
     8
 74
     0
 42
0.0000000001
 43
0.0000000001
 40
0.0
 40
0.0
 40
0.0
 40
0.0
 40
0.2805623827
 40
0.5404570111
 40
0.7782372735
 40
0.8906103169999999
 40
1.0
 40
1.0
 40
1.0
 40
1.0
 10
39.51481096129999
 20
11.70759979659999
 30
0.0
 10
39.4355066329
 20
11.68306628460004
 30
0.0
 10
39.27732808219997
 20
11.65094524150004
 30
0.0
 10
39.04492121599998
 20
11.65836130729997
 30
0.0
 10
38.87002364440002
 20
11.71456059280001
 30
0.0
 10
38.75471883789998
 20
11.78773573339998
 30
0.0
 10
38.7061024179
 20
11.83245020200001
 30
0.0
 10
38.68443185749999
 20
11.85649080569999
 30
0.0
1001
ACAD
1000
RTMaterial
1005
0
  0
SPLINE
  5
6197A
330
1F
100
AcDbEntity
  8
1
100
AcDbSpline
210
0.0
220
0.0
230
1.0
 70
     8
 71
     3
 72
     9
 73
     5
 74
     0
 42
0.0000000001
 43
0.0000000001
 40
0.0
 40
0.0
 40
0.0
 40
0.0
 40
0.4961954035
 40
1.0
 40
1.0
 40
1.0
 40
1.0
 10
40.39481285829999
 20
0.0527344240000218
 30
0.0
 10
40.36264687019996
 20
0.04997548770001
 30
0.0
 10
40.29700449869992
 20
0.0518122407000021
 30
0.0
 10
40.23334018959996
 20
0.0673092344000281
 30
0.0
 10
40.20231717089996
 20
0.0778944259000127
 30
0.0
1001
ACAD
1000
RTMaterial
1005
0
  0
SPLINE
  5
6197B
330
1F
100
AcDbEntity
  8
1
100
AcDbSpline
210
0.0
220
0.0
230
1.0
 70
     8
 71
     3
 72
     8
 73
     4
 74
     0
 42
0.0000000001
 43
0.0000000001
 40
0.0
 40
0.0
 40
0.0
 40
0.0
 40
1.0
 40
1.0
 40
1.0
 40
1.0
 10
41.67170571349998
 20
0.1627029217000313
 30
0.0
 10
41.24608780339996
 20
0.1258956372000171
 30
0.0
 10
40.82045652339997
 20
0.0892426692000186
 30
0.0
 10
40.39481285829999
 20
0.0527344240000218
 30
0.0
1001
ACAD
1000
RTMaterial
1005
0
  0
SPLINE
  5
6197C
330
1F
100
AcDbEntity
  8
1
100
AcDbSpline
210
0.0
220
0.0
230
1.0
 70
     8
 71
     3
 72
    12
 73
     8
 74
     0
 42
0.0000000001
 43
0.0000000001
 40
0.0
 40
0.0
 40
0.0
 40
0.0
 40
0.1181405279
 40
0.2391490941
 40
0.4875074584
 40
0.7418072604000001
 40
1.0
 40
1.0
 40
1.0
 40
1.0
 10
27.28348750449999
 20
12.21583368109998
 30
0.0
 10
27.34256211479999
 20
12.2541914985
 30
0.0
 10
27.46439251649997
 20
12.32839907520002
 30
0.0
 10
27.71879360859998
 20
12.46907428489999
 30
0.0
 10
28.05250142540002
 20
12.6334816977
 30
0.0
 10
28.46647397469997
 20
12.81903706989999
 30
0.0
 10
28.74788914100003
 20
12.93809479340001
 30
0.0
 10
28.8899621256
 20
12.99734887670001
 30
0.0
1001
ACAD
1000
RTMaterial
1005
0
  0
ELLIPSE
  5
6197D
330
1F
100
AcDbEntity
  8
1
100
AcDbEllipse
 10
105.4029414873999
 20
-63.87254379379996
 30
0.0
 11
-49.81798131760001
 21
89.16284472639999
 31
0.0
210
0.0
220
0.0
230
1.0
 40
0.2929598145
 41
0.5034107877000002
 42
0.5941811649000001
1001
ACAD
1000
RTMaterial
1005
0
  0
ELLIPSE
  5
6197E
330
1F
100
AcDbEntity
  8
1
100
AcDbEllipse
 10
21.93874565709996
 20
0.0
 30
0.0
 11
28.6325901612
 21
17.9542224452
 31
0.0
210
0.0
220
0.0
230
1.0
 40
0.5509514505
 41
0.620267254
 42
0.6334547892
1001
ACAD
1000
RTMaterial
1005
0
  0
ELLIPSE
  5
6197F
330
1F
100
AcDbEntity
  8
1
100
AcDbEllipse
 10
35.49688954860001
 20
0.0
 30
0.0
 11
3.617844523
 21
23.8814740813
 31
0.0
210
0.0
220
0.0
230
0.9999999999999998
 40
0.2600577191
 41
-0.1601332816
 42
-0.0612402919
1001
ACAD
1000
RTMaterial
1005
0
  0
ELLIPSE
  5
61980
330
1F
100
AcDbEntity
  8
1
100
AcDbEllipse
 10
38.46989911930001
 20
18.71735871890001
 30
0.0
 11
2.5186665521
 21
-0.3785610472999999
 31
0.0
210
0.0
220
0.0
230
0.9999999999999998
 40
0.0794023216
 41
2.6959893311
 42
2.972625815799998
1001
ACAD
1000
RTMaterial
1005
0
  0
ELLIPSE
  5
61981
330
1F
100
AcDbEntity
  8
1
100
AcDbEllipse
 10
43.07431989949996
 20
19.55158747289999
 30
0.0
 11
12.1249646645
 21
28.05744992920002
 31
0.0
210
0.0
220
0.0
230
0.9999999999999996
 40
0.0455322121
 41
-4.4416016868
 42
-4.439043917
1001
ACAD
1000
RTMaterial
1005
0
  0
ELLIPSE
  5
61982
330
1F
100
AcDbEntity
  8
1
100
AcDbEllipse
 10
39.8944508761
 20
20.23790364920001
 30
0.0
 11
0.5582687664999999
 21
3.598597516999997
 31
0.0
210
0.0
220
0.0
230
1.0
 40
0.1469760863
 41
0.5942922381
 42
0.6030117561
1001
ACAD
1000
RTMaterial
1005
0
  0
ELLIPSE
  5
61983
330
1F
100
AcDbEntity
  8
1
100
AcDbEllipse
 10
48.79787661469999
 20
0.0
 30
0.0
 11
-8.20443724
 21
23.6519044215
 31
0.0
210
0.0
220
0.0
230
1.0
 40
0.4186438083000001
 41
0.0552973112
 42
0.1235137018
1001
ACAD
1000
RTMaterial
1005
0
  0
ELLIPSE
  5
61984
330
1F
100
AcDbEntity
  8
1
100
AcDbEllipse
 10
161.1186168871
 20
0.0
 30
0.0
 11
139.7278813854
 21
-12.3130447325
 31
0.0
210
0.0
220
0.0
230
1.0
 40
0.1466000477
 41
-2.6652711722
 42
-2.603622339699998
1001
ACAD
1000
RTMaterial
1005
0
  0
ELLIPSE
  5
61985
330
1F
100
AcDbEntity
  8
1
100
AcDbEllipse
 10
45.6104914531
 20
-4.375177024699977
 30
0.0
 11
-0.7962232526000003
 21
10.7493407438
 31
0.0
210
0.0
220
0.0
230
1.0
 40
0.7299931288
 41
-0.2447111843
 42
-0.0829785379
1001
ACAD
1000
RTMaterial
1005
0
  0
ELLIPSE
  5
61986
330
1F
100
AcDbEntity
  8
1
100
AcDbEllipse
 10
46.63256634539997
 20
6.961901653399991
 30
0.0
 11
1.482368008799999
 21
-0.6507009777000003
 31
0.0
210
0.0
220
0.0
230
1.0
 40
0.4180876720000001
 41
-1.2067615644
 42
-0.1944705983
1001
ACAD
1000
RTMaterial
1005
0
  0
ELLIPSE
  5
61987
330
1F
100
AcDbEntity
  8
1
100
AcDbEllipse
 10
290.1036152378
 20
-11.12022773739997
 30
0.0
 11
260.4915105449
 21
-22.831057551
 31
0.0
210
0.0
220
0.0
230
1.0
 40
0.1273741392
 41
-2.8214582348
 42
-2.765150468
1001
ACAD
1000
RTMaterial
1005
0
  0
ELLIPSE
  5
61988
330
1F
100
AcDbEntity
  8
1
100
AcDbEllipse
 10
35.99240609970002
 20
16.71369070809999
 30
0.0
 11
2.365834335999997
 21
-0.3498189192
 31
0.0
210
0.0
220
0.0
230
0.9999999999999998
 40
0.068494087
 41
1.6648322312
 42
1.8831709546
1001
ACAD
1000
RTMaterial
1005
0
  0
ELLIPSE
  5
61989
330
1F
100
AcDbEntity
  8
1
100
AcDbEllipse
 10
40.34836330830001
 20
20.7224028919
 30
0.0
 11
-0.3854220559000001
 21
2.542344636
 31
0.0
210
0.0
220
0.0
230
1.0
 40
0.3618571872
 41
-0.1043418917
 42
0.3669041346
1001
ACAD
1000
RTMaterial
1005
0
  0
DIMENSION
  5
619A3
330
1F
100
AcDbEntity
  8
2
100
AcDbDimension
  2
*D16
 10
48.7
 20
-44.52490261997752
 30
0.0
 11
81.39166666666666
 21
-44.52490261997752
 31
0.0
 70
   160
  1
<>(MAX)
 71
     5
 42
2.1
  3
\M+18352\M+18373\M+1815B - ISO-25
100
AcDbAlignedDimension
 13
50.8
 23
17.2306400794311
 33
0.0
 14
48.7
 24
10.98382363659772
 34
0.0
100
AcDbRotatedDimension
1001
ACAD
1000
DSTYLE
1002
{
1070
     4
1000
"
1070
    40
1040
1.0
1070
   143
1040
0.0393700787401575
1070
   170
1070
     1
1070
   171
1070
     3
1070
   271
1070
     8
1070
   285
1070
     4
1002
}
  0
LINE
  5
61C00
330
1F
100
AcDbEntity
  8
sk3
100
AcDbLine
 10
0.4499999999999888
 20
-4.762499999999987
 30
0.0
 11
0.4499999999999886
 21
-4.020000000000009
 31
0.0
1001
ACAD
1000
RTMaterial
1005
0
  0
LINE
  5
61C0D
330
1F
100
AcDbEntity
  8
sk3
100
AcDbLine
 10
21.79999999999996
 20
-9.0
 30
0.0
 11
31.79999999999996
 21
-9.0
 31
0.0
1001
ACAD
1000
RTMaterial
1005
0
  0
LINE
  5
61C10
330
1F
100
AcDbEntity
  8
sk3
100
AcDbLine
 10
41.22499999999996
 20
-7.13499999999999
 30
0.0
 11
32.19999999999999
 21
-7.13499999999999
 31
0.0
1001
ACAD
1000
RTMaterial
1005
0
  0
LINE
  5
61C24
330
1F
100
AcDbEntity
  8
sk3
100
AcDbLine
 10
32.20000000000002
 20
-4.762499999999987
 30
0.0
 11
0.4499999999999888
 21
-4.762499999999987
 31
0.0
1001
ACAD
1000
RTMaterial
1005
0
  0
LINE
  5
61C41
330
1F
100
AcDbEntity
  8
sk3
100
AcDbLine
 10
21.79999999999996
 20
-9.0
 30
0.0
 11
21.79999999999996
 21
-4.762499999999987
 31
0.0
1001
ACAD
1000
RTMaterial
1005
0
  0
LINE
  5
61C9A
330
1F
100
AcDbEntity
  8
sk3
100
AcDbLine
 10
32.19999999999999
 20
-8.599999999999994
 30
0.0
 11
32.19999999999999
 21
-4.762499999999987
 31
0.0
1001
ACAD
1000
RTMaterial
1005
0
  0
LINE
  5
61D4E
330
1F
100
AcDbEntity
  8
sk3
100
AcDbLine
 10
41.72499999999995
 20
-6.63499999999999
 30
0.0
 11
41.72499999999995
 21
-0.0000000011000054
 31
0.0
1001
ACAD
1000
RTMaterial
1005
0
  0
LINE
  5
61D51
330
1F
100
AcDbEntity
  8
sk3
100
AcDbLine
 10
31.79999999999996
 20
-9.0
 30
0.0
 11
32.19999999999999
 21
-8.599999999999994
 31
0.0
1001
ACAD
1000
RTMaterial
1005
0
  0
LINE
  5
61DAE
330
1F
100
AcDbEntity
  8
sk3
100
AcDbLine
 10
41.72499999999995
 20
-6.63499999999999
 30
0.0
 11
41.22499999999996
 21
-7.13499999999999
 31
0.0
1001
ACAD
1000
RTMaterial
1005
0
  0
LINE
  5
61DDF
330
1F
100
AcDbEntity
  8
sk3
100
AcDbLine
 10
21.79999999540596
 20
9.000000008697959
 30
0.0
 11
31.79999999540596
 21
9.000000013802392
 31
0.0
1001
ACAD
1000
RTMaterial
1005
0
  0
LINE
  5
61DE0
330
1F
100
AcDbEntity
  8
sk3
100
AcDbLine
 10
41.22499999635794
 20
7.13500001861331
 30
0.0
 11
32.19999999635798
 21
7.135000014006558
 31
0.0
1001
ACAD
1000
RTMaterial
1005
0
  0
LINE
  5
61DE1
330
1F
100
AcDbEntity
  8
sk3
100
AcDbLine
 10
23.15070330956903
 20
4.762384754387403
 30
0.0
 11
23.14999999756898
 21
4.762500009387043
 31
0.0
1001
ACAD
1000
RTMaterial
1005
0
  0
LINE
  5
61DE7
330
1F
100
AcDbEntity
  8
sk3
100
AcDbLine
 10
32.19999999756903
 20
4.762500014006554
 30
0.0
 11
0.4499999975689947
 21
4.762499997799978
 31
0.0
1001
ACAD
1000
RTMaterial
1005
0
  0
LINE
  5
61DE8
330
1F
100
AcDbEntity
  8
sk3
100
AcDbLine
 10
21.79999999540596
 20
9.000000008697959
 30
0.0
 11
21.79999999756896
 21
4.762500008697942
 31
0.0
1001
ACAD
1000
RTMaterial
1005
0
  0
LINE
  5
61DE9
330
1F
100
AcDbEntity
  8
sk3
100
AcDbLine
 10
32.19999999561017
 20
8.600000014006562
 30
0.0
 11
32.19999999756899
 21
4.762500014006554
 31
0.0
1001
ACAD
1000
RTMaterial
1005
0
  0
LINE
  5
61DEA
330
1F
100
AcDbEntity
  8
sk3
100
AcDbLine
 10
41.72499999661318
 20
6.635000018868531
 30
0.0
 11
41.72499999999995
 21
0.0000000199685433
 31
0.0
1001
ACAD
1000
RTMaterial
1005
0
  0
LINE
  5
61DEB
330
1F
100
AcDbEntity
  8
sk3
100
AcDbLine
 10
31.79999999540596
 20
9.000000013802392
 30
0.0
 11
32.19999999561017
 21
8.600000014006562
 31
0.0
1001
ACAD
1000
RTMaterial
1005
0
  0
LINE
  5
61DEC
330
1F
100
AcDbEntity
  8
sk3
100
AcDbLine
 10
41.72499999661318
 20
6.635000018868531
 30
0.0
 11
41.22499999635794
 21
7.13500001861331
 31
0.0
1001
ACAD
1000
RTMaterial
1005
0
  0
LINE
  5
61DED
330
1F
100
AcDbEntity
  8
sk1
100
AcDbLine
 10
0.4499999999999886
 20
-4.020000000000009
 30
0.0
 11
0.4499999999999888
 21
4.020000000000009
 31
0.0
1001
ACAD
1000
RTMaterial
1005
0
  0
LINE
  5
61DEE
330
1F
100
AcDbEntity
  8
sk3
100
AcDbLine
 10
0.4499999999999888
 20
4.020000000000009
 30
0.0
 11
0.4499999999999888
 21
4.762499997799978
 31
0.0
1001
ACAD
1000
RTMaterial
1005
0
  0
LINE
  5
61DF0
330
1F
100
AcDbEntity
  8
sk3
100
AcDbLine
 10
31.79999999540596
 20
9.000000013802392
 30
0.0
 11
31.79999999648746
 21
4.762500013802377
 31
0.0
  0
LINE
  5
61DF1
330
1F
100
AcDbEntity
  8
sk3
100
AcDbLine
 10
41.22499999635794
 20
7.13500001861331
 30
0.0
 11
41.22499999999996
 21
-7.13499999999999
 31
0.0
  0
LINE
  5
61DF2
330
1F
100
AcDbEntity
  8
sk3
100
AcDbLine
 10
31.79999999891845
 20
-4.762499999999987
 30
0.0
 11
31.79999999999996
 21
-9.0
 31
0.0
  0
LINE
  5
61E6A
330
1F
100
AcDbEntity
  8
nocut
100
AcDbLine
 10
0.0000003100985993
 20
0.0000001584269285
 30
0.0
 11
0.0000003100985993
 21
20.72500015732695
 31
0.0
1001
ACAD
1000
RTMaterial
1005
0
  0
LINE
  5
61E6B
330
1F
100
AcDbEntity
  8
nocut
100
AcDbLine
 10
49.50000031009861
 20
0.0000001584269285
 30
0.0
 11
0.0000003100985993
 21
0.0000001584269285
 31
0.0
1001
ACAD
1000
RTMaterial
1005
0
  0
LINE
  5
61E6C
330
1F
100
AcDbEntity
  8
nocut
100
AcDbLine
 10
10.4307978807986
 20
22.14903892232694
 30
0.0
 11
14.6372521045986
 21
21.40732754962693
 31
0.0
1001
ACAD
1000
RTMaterial
1005
0
  0
LINE
  5
61E6D
330
1F
100
AcDbEntity
  8
nocut
100
AcDbLine
 10
27.61126878769859
 20
21.97378535122695
 30
0.0
 11
33.52833483489861
 21
23.55925842022691
 31
0.0
1001
ACAD
1000
RTMaterial
1005
0
  0
LINE
  5
61E6E
330
1F
100
AcDbEntity
  8
nocut
100
AcDbLine
 10
41.9317066399986
 20
23.53929877542692
 30
0.0
 11
46.78307820399857
 21
23.95012834522692
 31
0.0
1001
ACAD
1000
RTMaterial
1005
0
  0
LINE
  5
61E6F
330
1F
100
AcDbEntity
  8
nocut
100
AcDbLine
 10
1.500000310098599
 20
22.22500015732695
 30
0.0
 11
9.562556992398596
 21
22.22500015732695
 31
0.0
1001
ACAD
1000
RTMaterial
1005
0
  0
LINE
  5
61E70
330
1F
100
AcDbEntity
  8
nocut
100
AcDbLine
 10
36.11652528589863
 20
23.90000015732696
 30
0.0
 11
40.20231748089861
 21
23.90000015732696
 31
0.0
1001
ACAD
1000
RTMaterial
1005
0
  0
LINE
  5
61E71
330
1F
100
AcDbEntity
  8
nocut
100
AcDbLine
 10
40.39481316829859
 20
23.87649575312693
 30
0.0
 11
41.67170602349859
 21
23.55995001962694
 31
0.0
1001
ACAD
1000
RTMaterial
1005
0
  0
LINE
  5
61E72
330
1F
100
AcDbEntity
  8
nocut
100
AcDbLine
 10
49.5000003100986
 20
18.16376002572696
 30
0.0
 11
49.5000003100986
 21
0.0000001584269143
 31
0.0
1001
ACAD
1000
RTMaterial
1005
0
  0
LINE
  5
61E73
330
1F
100
AcDbEntity
  8
nocut
100
AcDbLine
 10
48.03464489669859
 20
23.09615143422693
 30
0.0
 11
49.5000003100986
 21
18.16376002572696
 31
0.0
1001
ACAD
1000
RTMaterial
1005
0
  0
ARC
  5
61E74
330
1F
100
AcDbEntity
  8
nocut
100
AcDbCircle
 10
19.84669743459859
 20
50.95156013992692
 30
0.0
 40
30.0
100
AcDbArc
 50
260.0000000000013
 51
285.0000000000012
1001
ACAD
1000
RTMaterial
1005
0
  0
ARC
  5
61E75
330
1F
100
AcDbEntity
  8
nocut
100
AcDbCircle
 10
36.11652528589863
 20
13.90000015732693
 30
0.0
 40
10.0
100
AcDbArc
 50
90.0
 51
105.0000000000011
1001
ACAD
1000
RTMaterial
1005
0
  0
ARC
  5
61E76
330
1F
100
AcDbEntity
  8
nocut
100
AcDbCircle
 10
9.562556992398596
 20
17.22500015732695
 30
0.0
 40
5.0
100
AcDbArc
 50
80.0000000000014
 51
90.0
1001
ACAD
1000
RTMaterial
1005
0
  0
ARC
  5
61E77
330
1F
100
AcDbEntity
  8
nocut
100
AcDbCircle
 10
1.500000310098599
 20
20.72500015732695
 30
0.0
 40
1.5
100
AcDbArc
 50
90.0
 51
180.0
1001
ACAD
1000
RTMaterial
1005
0
  0
ARC
  5
61E78
330
1F
100
AcDbEntity
  8
nocut
100
AcDbCircle
 10
46.88433559769863
 20
22.75440808522692
 30
0.0
 40
1.199999999999999
100
AcDbArc
 50
16.54606462649924
 51
94.84044018150131
1001
ACAD
1000
RTMaterial
1005
0
  0
ARC
  5
61E79
330
1F
100
AcDbEntity
  8
nocut
100
AcDbCircle
 10
41.86420171089863
 20
24.33644561542692
 30
0.0
 40
0.8
100
AcDbArc
 50
256.0768869208004
 51
274.8404401815013
1001
ACAD
1000
RTMaterial
1005
0
  0
ARC
  5
61E7A
330
1F
100
AcDbEntity
  8
nocut
100
AcDbCircle
 10
40.20231748089861
 20
23.10000015732695
 30
0.0
 40
0.8
100
AcDbArc
 50
76.07688692080046
 51
90.0
1001
ACAD
1000
RTMaterial
1005
0
  0
VIEWPORT
  5
6B
102
{ACAD_XDICTIONARY
360
61EAD
102
}
330
50
100
AcDbEntity
 67
     1
  8
0
100
AcDbViewport
 10
155.3592437148233
 20
160.4455827878762
 30
0.0
 40
349.5854424261001
 41
282.2272140146125
 68
     1
 69
     1
 12
155.3592437148233
 22
160.4455827878762
 13
0.0
 23
0.0
 14
10.0
 24
10.0
 15
10.0
 25
10.0
 16
0.0
 26
0.0
 36
1.0
 17
0.0
 27
0.0
 37
0.0
 42
50.0
 43
0.0
 44
0.0
 45
282.2272140146125
 50
0.0
 51
0.0
 72
  1000
 90
    32864
  1

281
     0
 71
     1
 74
     0
110
0.0
120
0.0
130
0.0
111
1.0
121
0.0
131
0.0
112
0.0
122
1.0
132
0.0
 79
     0
146
0.0
  0
VIEWPORT
  5
6D
102
{ACAD_XDICTIONARY
360
61EAF
102
}
330
50
100
AcDbEntity
 67
     1
  8
0
100
AcDbViewport
 10
133.3499939441681
 20
101.5999939441681
 30
0.0
 40
213.3599903106689
 41
162.5599903106689
 68
     2
 69
     2
 12
210.0
 22
148.5
 13
0.0
 23
0.0
 14
10.0
 24
10.0
 15
10.0
 25
10.0
 16
0.0
 26
0.0
 36
1.0
 17
0.0
 27
0.0
 37
0.0
 42
50.0
 43
0.0
 44
0.0
 45
324.0677920111345
 50
0.0
 51
0.0
 72
   100
 90
    32864
  1

281
     0
 71
     1
 74
     0
110
0.0
120
0.0
130
0.0
111
1.0
121
0.0
131
0.0
112
0.0
122
1.0
132
0.0
 79
     0
146
0.0
  0
ENDSEC
  0
SECTION
  2
OBJECTS
  0
DICTIONARY
  5
C
330
0
100
AcDbDictionary
281
     1
  3
ACAD_COLOR
350
85
  3
ACAD_GROUP
350
D
  3
ACAD_LAYOUT
350
1A
  3
ACAD_MATERIAL
350
84
  3
ACAD_MLINESTYLE
350
17
  3
ACAD_PLOTSETTINGS
350
19
  3
ACAD_PLOTSTYLENAME
350
E
  3
ACAD_TABLESTYLE
350
A1
  3
ACDBHEADERROUNDTRIPXREC
350
61EA8
  3
AcDbVariableDictionary
350
5E
  3
ASE_INDEX_DICTIONARY
350
349E9
  3
DWGPROPS
350
61EA7
  0
DICTIONARY
  5
E2
330
2
100
AcDbDictionary
280
     1
281
     1
  3
ACAD_LAYERFILTERS
360
61E7C
  3
ACAD_LAYERSTATES
360
3759A
  3
ACLYDICTIONARY
360
61E7B
  0
DICTIONARY
  5
31EE
330
1F
100
AcDbDictionary
280
     1
281
     1
  3
ACAD_SORTENTS
360
31EF
  0
DICTIONARY
  5
43668
330
680
100
AcDbDictionary
280
     1
281
     1
  3
ACAD_SORTENTS
360
43669
  0
DICTIONARY
  5
61EB1
330
71
100
AcDbDictionary
280
     1
281
     1
  3
ACAD_XREC_ROUNDTRIP
360
61EB2
  0
DICTIONARY
  5
61EB3
330
73
100
AcDbDictionary
280
     1
281
     1
  3
ACAD_XREC_ROUNDTRIP
360
61EB4
  0
DICTIONARY
  5
61EAD
330
6B
100
AcDbDictionary
280
     1
281
     1
  3
ACAD_XREC_ROUNDTRIP
360
61EAE
  0
DICTIONARY
  5
61EAF
330
6D
100
AcDbDictionary
280
     1
281
     1
  3
ACAD_XREC_ROUNDTRIP
360
61EB0
  0
DICTIONARY
  5
85
102
{ACAD_REACTORS
330
C
102
}
330
C
100
AcDbDictionary
281
     1
  0
DICTIONARY
  5
D
102
{ACAD_REACTORS
330
C
102
}
330
C
100
AcDbDictionary
281
     1
  0
DICTIONARY
  5
1A
102
{ACAD_REACTORS
330
C
102
}
330
C
100
AcDbDictionary
281
     1
  3
\M+1838C\M+18343\M+18341\M+18345\M+183671
350
51
  3
\M+1838C\M+18343\M+18341\M+18345\M+183672
350
56
  3
Model
350
22
  0
DICTIONARY
  5
84
102
{ACAD_REACTORS
330
C
102
}
330
C
100
AcDbDictionary
281
     1
  0
DICTIONARY
  5
17
102
{ACAD_REACTORS
330
C
102
}
330
C
100
AcDbDictionary
281
     1
  3
Standard
350
18
  0
DICTIONARY
  5
19
102
{ACAD_REACTORS
330
C
102
}
330
C
100
AcDbDictionary
281
     1
  0
ACDBDICTIONARYWDFLT
  5
E
102
{ACAD_REACTORS
330
C
102
}
330
C
100
AcDbDictionary
281
     1
  3
Normal
350
F
100
AcDbDictionaryWithDefault
340
F
  0
DICTIONARY
  5
A1
102
{ACAD_REACTORS
330
C
102
}
330
C
100
AcDbDictionary
281
     1
  3
Standard
350
A2
  0
DICTIONARY
  5
61EA8
102
{ACAD_REACTORS
330
C
102
}
330
C
100
AcDbDictionary
281
     1
  0
DICTIONARY
  5
5E
102
{ACAD_REACTORS
330
C
102
}
330
C
100
AcDbDictionary
281
     1
  3
CTABLESTYLE
350
B8
  3
DIMASSOC
350
5F
  3
HIDETEXT
350
63
  3
PROJECTNAME
350
31CE
  0
DICTIONARY
  5
349E9
102
{ACAD_REACTORS
330
C
102
}
330
C
100
AcDbDictionary
281
     1
  3
ASEBlockHierarchyIndexRecord
350
349EA
1001
DCO15
1040
1842496176.844
  0
XRECORD
  5
61EA7
102
{ACAD_REACTORS
330
C
102
}
330
C
100
AcDbXrecord
280
     1
  1
DWGPROPS COOKIE
  2

  3

  4

  6

  7

  8

  9

300
=
301
=
302
=
303
=
304
=
305
=
306
=
307
=
308
=
309
=
 40
2.096260300925925
 41
2455489.391063368
 42
2458480.440560637
  1

 90
        0
  0
DICTIONARY
  5
61E7C
102
{ACAD_REACTORS
330
E2
102
}
330
E2
100
AcDbDictionary
281
     1
  0
DICTIONARY
  5
3759A
102
{ACAD_REACTORS
330
E2
102
}
330
E2
100
AcDbDictionary
281
     1
  0
DICTIONARY
  5
61E7B
102
{ACAD_REACTORS
330
E2
102
}
330
E2
100
AcDbDictionary
281
     1
1001
ACAD
1000
<All
  0
SORTENTSTABLE
  5
31EF
102
{ACAD_REACTORS
330
31EE
102
}
330
31EE
100
AcDbSortentsTable
330
1F
331
617B9
  5
617BC
331
6127A
  5
61283
331
61247
  5
61256
331
6124F
  5
6125C
331
617C1
  5
617C4
331
6131A
  5
61323
331
61257
  5
61260
331
611F6
  5
611FF
331
611FE
  5
61209
331
611C7
  5
611D2
331
611CF
  5
611D8
331
6191C
  5
6191F
331
617CB
  5
617CE
331
618E5
  5
618E8
331
61D51
  5
61D54
331
61957
  5
6195A
331
61924
  5
61927
331
6192C
  5
6192F
331
617D3
  5
617D6
331
6195F
  5
61962
331
618ED
  5
618F0
331
61322
  5
6132B
331
618F5
  5
618FA
331
61967
  5
6196A
331
61934
  5
61937
331
617DB
  5
617E4
331
61228
  5
61231
331
6132A
  5
61333
331
61230
  5
6123A
331
6125B
  5
61264
331
61332
  5
61413
331
61263
  5
6126C
331
611D7
  5
611E0
331
61216
  5
6121F
331
6121E
  5
61227
331
611DF
  5
611E9
331
61226
  5
6122F
331
611E7
  5
611F0
331
618C2
  5
618C5
331
618FD
  5
61900
331
6196F
  5
61972
331
6193C
  5
6193F
331
611EF
  5
611F8
331
61DE1
  5
61DE9
331
617EB
  5
617EE
331
61905
  5
61908
331
61DE9
  5
61DEC
331
61977
  5
6197A
331
61944
  5
61947
331
6194C
  5
6194F
331
617F3
  5
617F6
331
6197F
  5
61982
331
6190D
  5
61910
331
618DA
  5
618DD
331
61240
  5
6124A
331
617B2
  5
617B3
331
61915
  5
61918
331
61987
  5
619A1
331
617FB
  5
617FF
331
61248
  5
61257
331
6127B
  5
61284
331
617BA
  5
617BD
331
61250
  5
6125D
331
617C2
  5
617C5
331
6131B
  5
61324
331
611F7
  5
61200
331
611FF
  5
6120A
331
61950
  5
61953
331
6191D
  5
61920
331
6180B
  5
61816
331
618E6
  5
618E9
331
61958
  5
6195B
331
61925
  5
61928
331
617CC
  5
617CF
331
617D4
  5
617D7
331
618EE
  5
618F1
331
61960
  5
61963
331
6192D
  5
61930
331
608D8
  5
608D8
331
617DC
  5
617E5
331
618F6
  5
618FB
331
61935
  5
61938
331
61323
  5
6132C
331
6132B
  5
61334
331
61229
  5
61232
331
61231
  5
6123E
331
6125C
  5
61265
331
61333
  5
61420
331
61264
  5
6127B
331
61239
  5
61245
331
611D0
  5
611D9
331
611D8
  5
611E1
331
61217
  5
61220
331
611E0
  5
611EA
331
6121F
  5
61228
331
611E8
  5
611F1
331
61227
  5
61230
331
61968
  5
6196B
331
6193D
  5
61940
331
617E4
  5
617E7
331
61970
  5
61973
331
618FE
  5
61901
331
618C3
  5
618C6
331
61906
  5
61909
331
61978
  5
6197B
331
61945
  5
61948
331
61DEA
  5
61DED
331
617EC
  5
617EF
331
617F4
  5
617F7
331
618DB
  5
618DE
331
6190E
  5
61911
331
61980
  5
61983
331
6194D
  5
61950
331
61241
  5
6124C
331
617FC
  5
61804
331
61916
  5
61919
331
61274
  5
6127D
331
617B3
  5
617B4
331
61DF0
  5
61DF1
331
617BB
  5
617BE
331
61251
  5
6125E
331
617C3
  5
617C6
331
6131C
  5
61325
331
5CD11
  5
5CD11
331
611F0
  5
611F9
331
611F8
  5
61201
331
61200
  5
6120B
331
611C1
  5
611CC
331
61208
  5
61211
331
61988
  5
619A2
331
61804
  5
6180B
331
61C00
  5
61C02
331
61951
  5
61954
331
6191E
  5
61921
331
61926
  5
61929
331
617CD
  5
617D3
331
618E7
  5
618EA
331
6180C
  5
618BC
331
61959
  5
6195C
331
6192E
  5
61931
331
617D5
  5
617D8
331
61961
  5
61964
331
61C10
  5
61C13
331
618EF
  5
618F2
331
618BC
  5
618BF
331
61324
  5
6132D
331
618F7
  5
618FC
331
61936
  5
61939
331
617DD
  5
617E6
331
6122A
  5
61233
331
6132C
  5
61335
331
61232
  5
6123F
331
6125D
  5
61266
331
61334
  5
614CC
331
6123A
  5
61246
331
611D1
  5
611DA
331
61210
  5
61219
331
611D9
  5
611E2
331
61218
  5
61221
331
61220
  5
61229
331
611E1
  5
611EB
331
611E9
  5
611F2
331
61969
  5
6196C
331
617E5
  5
617E8
331
618C4
  5
618D5
331
618FF
  5
61902
331
61971
  5
61974
331
6193E
  5
61941
331
617ED
  5
617F0
331
61907
  5
6190A
331
61DEB
  5
61DEE
331
61979
  5
6197C
331
61946
  5
61949
331
6194E
  5
61951
331
617F5
  5
617F8
331
61981
  5
61984
331
6190F
  5
61912
331
618DC
  5
618DF
331
61242
  5
6124D
331
617B4
  5
617B5
331
61DF1
  5
61DFD
331
61917
  5
6191A
331
617FD
  5
61805
331
6127D
  5
61286
331
617BC
  5
617BF
331
617C4
  5
617C8
331
6131D
  5
61326
331
611F1
  5
611FA
331
611F9
  5
61202
331
611C2
  5
611CD
331
61201
  5
6120C
331
61989
  5
619A3
331
611CA
  5
611D3
331
61209
  5
61212
331
61805
  5
6180C
331
6191F
  5
61922
331
61952
  5
61955
331
618E0
  5
618E3
331
618E8
  5
618EB
331
6195A
  5
6195D
331
61927
  5
6192A
331
617CE
  5
617D4
331
617D6
  5
617D9
331
61815
  5
618BD
331
618F0
  5
618F3
331
61962
  5
61965
331
6192F
  5
61932
331
61325
  5
6132E
331
61937
  5
6193A
331
618BD
  5
618C0
331
61552
  5
617B1
331
6132D
  5
61336
331
6122B
  5
61235
331
6125E
  5
61267
331
61335
  5
61514
331
61211
  5
6121A
331
611D2
  5
611DB
331
611DA
  5
611E4
331
61219
  5
61222
331
611E2
  5
611EC
331
611EA
  5
611F3
331
6196A
  5
6196D
331
6193F
  5
61942
331
617E6
  5
617E9
331
61972
  5
61975
331
61C41
  5
61C46
331
61900
  5
61903
331
618C5
  5
618D6
331
618D5
  5
618D8
331
61908
  5
6190B
331
6197A
  5
6197D
331
61947
  5
6194A
331
61DEC
  5
61DF0
331
617EE
  5
617F1
331
617F6
  5
617F9
331
618DD
  5
618E0
331
61910
  5
61913
331
61982
  5
61985
331
6194F
  5
61952
331
61243
  5
6124E
331
617B5
  5
617B6
331
617BD
  5
617C0
331
617C5
  5
617C9
331
6131E
  5
61327
331
611F2
  5
611FB
331
611FA
  5
61203
331
61202
  5
6120D
331
611C3
  5
611CE
331
611CB
  5
611D4
331
6120A
  5
61213
331
61918
  5
6191B
331
618E1
  5
618E4
331
61953
  5
61956
331
61920
  5
61923
331
61928
  5
6192B
331
617CF
  5
617D5
331
6195B
  5
6195E
331
618E9
  5
618EC
331
61816
  5
618BE
331
61930
  5
61933
331
617D7
  5
617DA
331
61963
  5
61966
331
618F1
  5
618F4
331
618BE
  5
618C1
331
61326
  5
61330
331
6122C
  5
61236
331
6132E
  5
61337
331
61336
  5
61515
331
619A3
  5
61BF9
331
6125F
  5
61268
331
611D3
  5
611DC
331
61212
  5
6121B
331
611DB
  5
611E5
331
6121A
  5
61223
331
61222
  5
6122B
331
611EB
  5
611F4
331
6196B
  5
6196E
331
61938
  5
6193B
331
617E7
  5
617EA
331
618C6
  5
618D7
331
61901
  5
61904
331
61973
  5
61976
331
61940
  5
61943
331
61948
  5
6194B
331
617EF
  5
617F2
331
61C9A
  5
61C9E
331
61909
  5
6190C
331
618D6
  5
618D9
331
61DED
  5
61C04
331
6197B
  5
6197E
331
617F7
  5
617FA
331
61983
  5
61986
331
61911
  5
61914
331
618DE
  5
618E1
331
61244
  5
6124F
331
61277
  5
61280
331
617B6
  5
617B7
331
617FF
  5
61809
331
6124C
  5
61259
331
6127F
  5
61288
331
617BE
  5
617C1
331
617C6
  5
617CA
331
6131F
  5
61328
331
611F3
  5
611FC
331
61174
  5
61179
331
611FB
  5
61204
331
611C4
  5
611CF
331
61203
  5
6120E
331
61919
  5
6191C
331
60920
  5
60920
331
60984
  5
60984
331
6120B
  5
61214
331
6099E
  5
6099E
331
611CC
  5
611D5
331
6096A
  5
6096A
331
618E2
  5
618E5
331
61954
  5
61957
331
61921
  5
61924
331
61D4E
  5
61D53
331
617C8
  5
617CB
331
618EA
  5
618ED
331
6195C
  5
6195F
331
61929
  5
6192C
331
617D8
  5
617DB
331
60908
  5
60908
331
618F2
  5
618F5
331
61DAE
  5
61DB1
331
61964
  5
61967
331
61931
  5
61934
331
60938
  5
60938
331
618BF
  5
618C2
331
6122D
  5
61237
331
6132F
  5
61338
331
61258
  5
61261
331
61235
  5
61241
331
61260
  5
61269
331
61337
  5
61516
331
61213
  5
6121C
331
611D4
  5
611DD
331
611DC
  5
611E6
331
6121B
  5
61224
331
611E4
  5
611EE
331
61223
  5
6122C
331
61939
  5
6193C
331
6196C
  5
6196F
331
611EC
  5
611F5
331
618FA
  5
618FD
331
61941
  5
61944
331
617E8
  5
617EB
331
61974
  5
61977
331
61902
  5
61905
331
618D7
  5
618DA
331
6190A
  5
6190D
331
6197C
  5
6197F
331
61949
  5
6194C
331
61DEE
  5
61C06
331
617F0
  5
617F3
331
617F8
  5
617FB
331
61912
  5
61915
331
618DF
  5
618E2
331
61984
  5
61987
331
617B7
  5
617BA
331
61245
  5
61250
331
617BF
  5
617C2
331
61280
  5
61321
331
6124D
  5
6125A
331
611FC
  5
61205
331
61204
  5
6120F
331
611CD
  5
611D6
331
6120C
  5
61215
331
6191A
  5
6191D
331
617C9
  5
617CC
331
618E3
  5
618E6
331
61955
  5
61958
331
61922
  5
61925
331
6192A
  5
6192D
331
6195D
  5
61960
331
618EB
  5
618EE
331
61320
  5
61329
331
618F3
  5
618F6
331
61965
  5
61968
331
61932
  5
61935
331
617D9
  5
617DC
331
61328
  5
61331
331
6122E
  5
61238
331
61259
  5
61262
331
61330
  5
61411
331
61338
  5
61552
331
61261
  5
6126A
331
61236
  5
61242
331
6123E
  5
61247
331
611D5
  5
611DE
331
61214
  5
6121D
331
6121C
  5
61225
331
611DD
  5
611E7
331
61224
  5
6122D
331
618C0
  5
618C3
331
618FB
  5
618FE
331
6193A
  5
6193D
331
6196D
  5
61970
331
611ED
  5
611F6
331
61DDF
  5
61DE2
331
61C24
  5
61C31
331
617E9
  5
617EC
331
61903
  5
61906
331
61DE7
  5
61DEA
331
61975
  5
61978
331
61942
  5
61945
331
6194A
  5
6194D
331
617F1
  5
617F4
331
6197D
  5
61980
331
6190B
  5
6190E
331
618D8
  5
618DB
331
617F9
  5
617FC
331
61985
  5
61988
331
61913
  5
61916
331
61246
  5
61251
331
617B8
  5
617BB
331
617C0
  5
617C3
331
61319
  5
61322
331
61256
  5
6125F
331
611F5
  5
611FE
331
611FD
  5
61208
331
611C6
  5
611D1
331
61205
  5
61210
331
6191B
  5
6191E
331
611CE
  5
611D7
331
61809
  5
61815
331
618E4
  5
618E7
331
61956
  5
61959
331
61923
  5
61926
331
617CA
  5
617CD
331
618EC
  5
618EF
331
6192B
  5
6192E
331
6195E
  5
61961
331
61C0D
  5
61C12
331
608F0
  5
608F0
331
617DA
  5
617DD
331
618F4
  5
618F7
331
61966
  5
61969
331
61933
  5
61936
331
61321
  5
6132A
331
61329
  5
61332
331
6122F
  5
61239
331
6125A
  5
61263
331
61331
  5
61412
331
61262
  5
6126B
331
61237
  5
61244
331
6123F
  5
61248
331
68C
  5
435D5
331
61215
  5
6121E
331
611D6
  5
611DF
331
611DE
  5
611E8
331
6121D
  5
61226
331
611E6
  5
611EF
331
61225
  5
6122E
331
6193B
  5
6193E
331
6196E
  5
61971
331
61DE0
  5
61DE3
331
611EE
  5
611F7
331
618FC
  5
618FF
331
618C1
  5
618C4
331
61904
  5
61907
331
61976
  5
61979
331
61943
  5
61946
331
61DE8
  5
61DEB
331
617EA
  5
617ED
331
618D9
  5
618DC
331
6190C
  5
6190F
331
6197E
  5
61981
331
6194B
  5
6194E
331
617F2
  5
617F5
331
617FA
  5
617FD
331
61914
  5
61917
331
61986
  5
61989
331
617B1
  5
617B2
  0
SORTENTSTABLE
  5
43669
102
{ACAD_REACTORS
330
43668
102
}
330
43668
100
AcDbSortentsTable
330
680
  0
XRECORD
  5
61EB2
102
{ACAD_REACTORS
330
61EB1
102
}
330
61EB1
100
AcDbXrecord
280
     1
102
SHADEPLOT
 70
     0
  0
XRECORD
  5
61EB4
102
{ACAD_REACTORS
330
61EB3
102
}
330
61EB3
100
AcDbXrecord
280
     1
102
SHADEPLOT
 70
     0
  0
XRECORD
  5
61EAE
102
{ACAD_REACTORS
330
61EAD
102
}
330
61EAD
100
AcDbXrecord
280
     1
102
SHADEPLOT
 70
     0
  0
XRECORD
  5
61EB0
102
{ACAD_REACTORS
330
61EAF
102
}
330
61EAF
100
AcDbXrecord
280
     1
102
SHADEPLOT
 70
     0
  0
LAYOUT
  5
51
102
{ACAD_XDICTIONARY
360
B2
102
}
102
{ACAD_REACTORS
330
1A
102
}
330
1A
100
AcDbPlotSettings
  1

  2
none_device
  4
Letter_(8.50_x_11.00_Inches)
  6

 40
6.349999904632567
 41
6.349999904632567
 42
6.350006103515625
 43
6.350006103515625
 44
215.8999938964844
 45
279.3999938964844
 46
0.0
 47
0.0
 48
0.0
 49
0.0
140
0.0
141
0.0
142
1.0
143
1.0
 70
   688
 72
     1
 73
     1
 74
     5
  7

 75
    16
147
1.0
148
0.0
149
0.0
100
AcDbLayout
  1
\M+1838C\M+18343\M+18341\M+18345\M+183671
 70
     1
 71
     1
 10
-6.350006103515625
 20
-6.349999904632567
 11
273.0499877929688
 21
209.5499939918518
 12
0.0
 22
0.0
 32
0.0
 14
26.66999878883364
 24
20.31999878883365
 34
0.0
 15
240.0299890995025
 25
182.8799890995025
 35
0.0
146
0.0
 13
0.0
 23
0.0
 33
0.0
 16
1.0
 26
0.0
 36
0.0
 17
0.0
 27
1.0
 37
0.0
 76
     0
330
50
331
6B
  0
LAYOUT
  5
56
102
{ACAD_XDICTIONARY
360
B5
102
}
102
{ACAD_REACTORS
330
1A
102
}
330
1A
100
AcDbPlotSettings
  1

  2
none_device
  4
Letter_(8.50_x_11.00_Inches)
  6

 40
6.349999904632567
 41
6.349999904632567
 42
6.350006103515625
 43
6.350006103515625
 44
215.8999938964844
 45
279.3999938964844
 46
0.0
 47
0.0
 48
0.0
 49
0.0
140
0.0
141
0.0
142
1.0
143
1.0
 70
   688
 72
     1
 73
     1
 74
     5
  7

 75
    16
147
1.0
148
0.0
149
0.0
100
AcDbLayout
  1
\M+1838C\M+18343\M+18341\M+18345\M+183672
 70
     1
 71
     2
 10
-6.350006103515625
 20
-6.349999904632567
 11
273.0499877929688
 21
209.5499939918518
 12
0.0
 22
0.0
 32
0.0
 14
26.66999878883363
 24
20.31999878883363
 34
0.0
 15
240.0299890995026
 25
182.8799890995025
 35
0.0
146
0.0
 13
0.0
 23
0.0
 33
0.0
 16
1.0
 26
0.0
 36
0.0
 17
0.0
 27
1.0
 37
0.0
 76
     0
330
55
331
71
  0
LAYOUT
  5
22
102
{ACAD_XDICTIONARY
360
61EA9
102
}
102
{ACAD_REACTORS
330
1A
102
}
330
1A
100
AcDbPlotSettings
  1

  2
none_device
  4
ANSI_A_(8.50_x_11.00_Inches)
  6

 40
6.349999904632567
 41
19.04999923706055
 42
6.350006103515625
 43
19.04998779296875
 44
215.8999938964844
 45
279.3999938964844
 46
0.0
 47
0.0
 48
0.0
 49
0.0
140
0.0
141
0.0
142
1.0
143
78.436453180766
 70
 11952
 72
     0
 73
     1
 74
     0
  7

 75
     0
147
0.0127491741332998
148
0.0
149
0.0
100
AcDbLayout
  1
Model
 70
     1
 71
     0
 10
0.0
 20
0.0
 11
12.0
 21
9.0
 12
0.0
 22
0.0
 32
0.0
 14
0.0
 24
0.0
 34
0.0
 15
0.0
 25
0.0
 35
0.0
146
0.0
 13
0.0
 23
0.0
 33
0.0
 16
1.0
 26
0.0
 36
0.0
 17
0.0
 27
1.0
 37
0.0
 76
     0
330
1F
  0
MLINESTYLE
  5
18
102
{ACAD_REACTORS
330
17
102
}
330
17
100
AcDbMlineStyle
  2
STANDARD
 70
     0
  3

 62
   256
 51
90.0
 52
90.0
 71
     2
 49
0.5
 62
   256
  6
BYLAYER
 49
-0.5
 62
   256
  6
BYLAYER
  0
ACDBPLACEHOLDER
  5
F
102
{ACAD_REACTORS
330
E
102
}
330
E
  0
TABLESTYLE
  5
A2
102
{ACAD_REACTORS
330
A1
102
}
330
A1
100
AcDbTableStyle
  3
Standard
 70
     0
 71
     0
 40
1.5
 41
1.5
280
     0
281
     0
  7
Standard
140
4.5
170
     2
 62
     0
 63
     7
283
     0
274
    -2
284
     1
 64
     0
275
    -2
285
     1
 65
     0
276
    -2
286
     1
 66
     0
277
    -2
287
     1
 67
     0
278
    -2
288
     1
 68
     0
279
    -2
289
     1
 69
     0
  7
Standard
140
6.0
170
     5
 62
     0
 63
     7
283
     0
274
    -2
284
     1
 64
     0
275
    -2
285
     1
 65
     0
276
    -2
286
     1
 66
     0
277
    -2
287
     1
 67
     0
278
    -2
288
     1
 68
     0
279
    -2
289
     1
 69
     0
  7
Standard
140
4.5
170
     5
 62
     0
 63
     7
283
     0
274
    -2
284
     1
 64
     0
275
    -2
285
     1
 65
     0
276
    -2
286
     1
 66
     0
277
    -2
287
     1
 67
     0
278
    -2
288
     1
 68
     0
279
    -2
289
     1
 69
     0
  0
DICTIONARYVAR
  5
B8
102
{ACAD_REACTORS
330
5E
102
}
330
5E
100
DictionaryVariables
280
     0
  1
STANDARD
  0
DICTIONARYVAR
  5
5F
102
{ACAD_REACTORS
330
5E
102
}
330
5E
100
DictionaryVariables
280
     0
  1
2
  0
DICTIONARYVAR
  5
63
102
{ACAD_REACTORS
330
5E
102
}
330
5E
100
DictionaryVariables
280
     0
  1
1
  0
DICTIONARYVAR
  5
31CE
102
{ACAD_REACTORS
330
5E
102
}
330
5E
100
DictionaryVariables
280
     0
  1

  0
XRECORD
  5
349EA
102
{ACAD_REACTORS
330
349E9
102
}
330
349E9
100
AcDbXrecord
280
     1
330
68C
330
431D
330
431E
330
4329
330
4334
330
4335
330
4B09
330
4B0A
330
5153
330
5154
330
515D
330
515E
330
516A
330
516B
330
5177
330
5178
330
85B4
330
85B5
330
8620
330
8621
330
862A
330
862B
330
8637
330
8638
330
8644
330
8645
330
9773
330
9774
330
977D
330
977E
330
978A
330
978B
330
9797
330
9798
330
BD86
330
BD87
330
BD8F
330
BD90
330
BD98
330
BDA0
330
BDA1
330
BDDD
330
BDDE
330
BDE7
330
BDE8
330
BDF4
330
BDF5
330
BE01
330
BE02
330
E473
330
E474
330
E48D
330
E48E
330
E485
330
E47C
330
E47D
330
E4CC
330
E4CD
330
E4D7
330
E4D8
330
1C63B
330
1C63C
330
1C705
330
1C706
330
1C719
330
1C71A
330
1C72E
330
1C72F
330
1C738
330
1C739
330
27043
330
27044
330
2703A
330
2703B
330
2CF2C
330
2CF2D
330
2CF38
330
2CF39
330
2CF42
330
2CF43
330
2CF4F
330
2CF50
330
2CF59
330
2CF5A
330
2FA31
330
2FA32
330
2FA3D
330
2FA3E
330
2FA4A
330
2FA4B
330
2FA54
330
2FA55
330
329D8
330
329D9
330
329E1
330
329E2
330
329EA
330
329EB
330
329F3
330
329F4
330
32E63
330
32E64
330
32E6F
330
32E70
330
32E79
330
32E7A
330
32E88
330
32E89
330
32E92
330
32E93
  0
DICTIONARY
  5
B2
330
51
100
AcDbDictionary
280
     1
281
     1
  3
ACAD_XREC_ROUNDTRIP
360
61EAB
  3
ADSK_XREC_LAYOUTTHUMBNAIL
360
B3
  0
DICTIONARY
  5
B5
330
56
100
AcDbDictionary
280
     1
281
     1
  3
ACAD_XREC_ROUNDTRIP
360
61EAC
  3
ADSK_XREC_LAYOUTTHUMBNAIL
360
B6
  0
DICTIONARY
  5
61EA9
330
22
100
AcDbDictionary
280
     1
281
     1
  3
ACAD_XREC_ROUNDTRIP
360
61EAA
  0
XRECORD
  5
61EAB
102
{ACAD_REACTORS
330
B2
102
}
330
B2
100
AcDbXrecord
280
     1
102
SHADEPLOT
 70
     0
102
SHADEPLOTRESLEVEL
 70
     2
102
SHADEPLOTCUSTOMDPI
 70
   300
  0
XRECORD
  5
B3
102
{ACAD_REACTORS
330
B2
102
}
330
B2
100
AcDbXrecord
280
     1
310
28000000B40000008B0000000100080000000000BC61000000000000000000000001000000000000FFFFFF0000000000FFFFFF000000000000000000000000000000000000000000000000000000000000000000330000006600000099000000CC000000FF00000000330000333300006633000099330000CC330000FF3300
310
0000660000336600006666000099660000CC660000FF66000000990000339900006699000099990000CC990000FF99000000CC000033CC000066CC000099CC0000CCCC0000FFCC000000FF000033FF000066FF000099FF0000CCFF0000FFFF000000003300330033006600330099003300CC003300FF003300003333003333
310
33006633330099333300CC333300FF33330000663300336633006666330099663300CC663300FF66330000993300339933006699330099993300CC993300FF99330000CC330033CC330066CC330099CC3300CCCC3300FFCC330000FF330033FF330066FF330099FF3300CCFF3300FFFF330000006600330066006600660099
310
006600CC006600FF00660000336600333366006633660099336600CC336600FF33660000666600336666006666660099666600CC666600FF66660000996600339966006699660099996600CC996600FF99660000CC660033CC660066CC660099CC6600CCCC6600FFCC660000FF660033FF660066FF660099FF6600CCFF6600
310
FFFF660000009900330099006600990099009900CC009900FF00990000339900333399006633990099339900CC339900FF33990000669900336699006666990099669900CC669900FF66990000999900339999006699990099999900CC999900FF99990000CC990033CC990066CC990099CC9900CCCC9900FFCC990000FF99
310
0033FF990066FF990099FF9900CCFF9900FFFF99000000CC003300CC006600CC009900CC00CC00CC00FF00CC000033CC003333CC006633CC009933CC00CC33CC00FF33CC000066CC003366CC006666CC009966CC00CC66CC00FF66CC000099CC003399CC006699CC009999CC00CC99CC00FF99CC0000CCCC0033CCCC0066CC
310
CC0099CCCC00CCCCCC00FFCCCC0000FFCC0033FFCC0066FFCC0099FFCC00CCFFCC00FFFFCC000000FF003300FF006600FF009900FF00CC00FF00FF00FF000033FF003333FF006633FF009933FF00CC33FF00FF33FF000066FF003366FF006666FF009966FF00CC66FF00FF66FF000099FF003399FF006699FF009999FF00CC
310
99FF00FF99FF0000CCFF0033CCFF0066CCFF0099CCFF00CCCCFF00FFCCFF0000FFFF0033FFFF0066FFFF0099FFFF00CCFFFF00FFFFFF00000000000D0D0D001A1A1A00282828003535350043434300505050005D5D5D006B6B6B00787878008686860093939300A1A1A100AEAEAE00BBBBBB00C9C9C900D6D6D600E4E4E400
310
F1F1F100FFFFFF0000000000000000000000000000000000000000000000000000000000000000000000000000000000EFEFEFE2E2E2E2E2E2E2E2E2E2E2E2E2E2E2E2E2E2E2E2E2E2E2E2E2E2E2E2E2E2E2E2E2E2E2E2E2E2E2E2E2E2E2E2E2E2E2E2E2E2E2E2E2E2E2E2E2E2E2E2E2E2E2E2E2E2E2E2E2E2E2E2E2E2E2E2
310
E2E2E2E2E2E2E2E2E2E2E2E2E2E2E2E2E2E2E2E2E2E2E2E2E2E2E2E2E2E2E2E2E2E2E2E2E2E2E2E2E2E2E2E2E2E2E2E2E2E2E2E2E2E2E2E2E2E2E2E2E2E2E2E2E2E2E2E2E2E2E2E2E2E2E2E2E2E2E2E2E2E2E2E2E2E2E2E2E2E2E2E2E2E2E2E2E2E2E2E2E2E2E2E2E2E2E2E2E2E2E2E2E2E2E2E2E2E2E2E2E2E2E2E2E2E2E2
310
E2E2E2E2E2E2E2E2E2E2E2E2E2E2E2E2E2E2E2E2E2E2E2E2E2E2E2E2E2E2E2E2E2E2E2E2E2E2E2E2E2E2E2E2E2E2E2E2E2E2E2E2E2E2E2E2E2E2E2E2E2E2E2E2E2E2E2E2E2E2E2E2E2E2E2E2E2E2E2E2E2E2E2E2E2E2E2E2E2E2E2E2E2E2E2E2E2E2E2E2E2E2E2E2E2E2E2E2E2E2E2E2E2E2E2E2E2E2E2E2E2E2E2E2E2E2E2
310
E2E2E2E2E2E2E2E2E2E2E2E2E2E2E2E2E2E2E2E2E2E2E2E2E2E2E2E2F5F5F5F5F5F5F5F5F5F5F5F5F5F5F5F5F5F5F5F5F5F5F5F5F5F5F5F5F5F5F5F5F5F5F5F5F5F5F5F5F5F5F5F5F5F5F5F5F5F5F5F5F5F5F5F5F5F5F5F5F5F5F5F5F5F5F5F5F5F5F5F5F5F5F5F5F5F5F5F5F5F5F5F5F5F5F5F5F5F5F5F5F5F5F5F5F5F5F5
310
F5F5F5F5F5F5F5F5F5F5F5F5F5F5F5F5F5F5F5F5F5F5F5F5F5F5F5F5F5F5F5F5F5F5F5F5F5F5F5F5F5F5F5F5F5F5F5F5F5F5F5F5F5F5F5F5F5F5F5F5F5F5F5F5F5F5F5F5F5F5F5F5F5F5F5F5F5F5F5E2E2F5F5F5F5F5F5F5F5F5F5F5F5F5F5F5F5F5F5F5F5F5F5F5F5F5F5F5F5F5F5F5F5F5F5F5F5F5F5F5F5F5F5F5F5F5F5
310
F5F5F5F5F5F5F5F5F5F5F5F5F5F5F5F5F5F5F5F5F5F5F5F5F5F5F5F5F5F5F5F5F5F5F5F5F5F5F5F5F5F5F5F5F5F5F5F5F5F5F5F5F5F5F5F5F5F5F5F5F5F5F5F5F5F5F5F5F5F5F5F5F5F5F5F5F5F5F5F5F5F5F5F5F5F5F5F5F5F5F5F5F5F5F5F5F5F5F5F5F5F5F5F5F5F5F5F5F5F5F5F5F5F5F5F5F5F5F5F5F5F5F5F5F5F5F5
310
F5F5F5F5F5E2E2F5F5F5F5F5F5F5F5F5F5F5F5F5F5F5F5F5F5F5F5F5F5F5F5F5F5F5F5F5F5F5F5F5F5F5F5F5F5F5F5F5F5F5F5F5F5F5F5F5F5F5F5F5F5F5F5F5F5F5F5F5F5F5F5F5F5F5F5F5F5F5F5F5F5F5F5F5F5F5F5F5F5F5F5F5F5F5F5F5F5F5F5F5F5F5F5F5F5F5F5F5F5F5F5F5F5F5F5F5F5F5F5F5F5F5F5F5F5F5F5
310
F5F5F5F5F5F5F5F5F5F5F5F5F5F5F5F5F5F5F5F5F5F5F5F5F5F5F5F5F5F5F5F5F5F5F5F5F5F5F5F5F5F5F5F5F5F5F5F5F5F5F5F5F5F5F5F5F5F5E2E2F5F5F5F5E2E2E2E2E2E2E2E2F5F5F5F5F5F5F5F5F5E2E2E2E2E2E2E2E2E2E2E2E2E2E2E2F5F5F5F5F5F5F5F5F5E2E2E2E2E2E2E2E2E2E2E2E2E2E2E2E2F5F5F5F5F5F5
310
F5F5E2E2E2E2E2E2E2E2E2E2E2E2E2E2E2E2F5F5F5F5F5F5F5F5E2E2E2E2E2E2E2E2E2E2E2E2E2E2E2E2F5F5F5F5F5F5F5F5E2E2E2E2E2E2E2E2E2E2E2E2E2E2E2E2F5F5F5F5F5F5F5F5F5E2E2E2E2E2E2E2E2E2E2E2E2E2E2E2F5F5F5F5F5F5F5F5F5E2E2E2E2E2E2E2E2F5F5F5F5E2E2F5F5F5F5E2F5F5F5F5F5F5F5F5F5
310
F5F5F5F5F5F5F5F5F5F5F5F5F5F5F5F5F5F5F5F5F5F5F5F5F5F5F5F5F5F5F5F5F5F5F5F5F5F5F5F5F5F5F5F5F5F5F5F5F5F5F5F5F5F5F5F5F5F5F5F5F5F5F5F5F5F5F5F5F5F5F5F5F5F5F5F5F5F5F5F5F5F5F5F5F5F5F5F5F5F5F5F5F5F5F5F5F5F5F5F5F5F5F5F5F5F5F5F5F5F5F5F5F5F5F5F5F5F5F5F5F5F5F5F5F5F5F5
310
F5F5F5F5F5F5F5F5F5F5F5F5F5F5F5F5F5F5F5F5F5F5F5F5F5F5F5F5F5F5F5F5E2F5F5F5F5E2E2F5F5F5F5E2F5F5F5F5F5F5F5F5F5F5F5F5F5F5F5F5F5F5F5F5F5F5F5F5F5F5F5F5F5F5F5F5F5F5F5F5F5F5F5F5F5F5F5F5F5F5F5F5F5F5F5F5F5F5F5F5F5F5F5F5F5F5F5F5F5F5F5F5F5F5F5F5F5F5F5F5F5F5F5F5F5F5F5
310
F5F5F5F5F5F5F5F5F5F5F5F5F5F5F5F5F5F5F5F5F5F5F5F5F5F5F5F5F5F5F5F5F5F5F5F5F5F5F5F5F5F5F5F5F5F5F5F5F5F5F5F5F5F5F5F5F5F5F5F5F5F5F5F5F5F5F5F5F5F5F5F5F5F5F5F5F5F5F5F5F5F5F5F5F5E2F5F5F5F5E2E2F5F5F5F5E2F5F5F5F5F5F5F5F5F5F5F5F5F5F5F5F5F5F5F5F5F5F5F5F5F5F5F5F5F5F5
310
F5F5F5F5F5F5F5F5F5F5F5F5F5F5F5F5F5F5F5F5F5F5F5F5F5F5F5F5F5F5F5F5F5F5F5F5F5F5F5F5F5F5F5F5F5F5F5F5F5F5F5F5F5F5F5F5F5F5F5F5F5F5F5F5F5F5F5F5F5F5F5F5F5F5F5F5F5F5F5F5F5F5F5F5F5F5F5F5F5F5F5F5F5F5F5F5F5F5F5F5F5F5F5F5F5F5F5F5F5F5F5F5F5F5F5F5F5F5F5F5F5F5F5F5F5F5F5
310
F5F5F5F5F5F5F5F5F5F5F5E2F5F5F5F5E2E2F5F5F5F5E2F5F5F5F5F5F5F5F5F5F5F5F5F5F5F5F5F5F5F5F5F5F5F5F5F5F5F5F5F5F5F5F5F5F5F5F5F5F5F5F5F5F5F5F5F5F5F5F5F5F5F5F5F5F5F5F5F5F5F5F5F5F5F5F5F5F5F5F5F5F5F5F5F5F5F5F5F5F5F5F5F5F5F5F5F5F5F5F5F5F5F5F5F5F5F5F5F5F5F5F5F5F5F5F5
310
F5F5F5F5F5F5F5F5F5F5F5F5F5F5F5F5F5F5F5F5F5F5F5F5F5F5F5F5F5F5F5F5F5F5F5F5F5F5F5F5F5F5F5F5F5F5F5F5F5F5F5F5F5F5F5F5F5F5F5F5F5F5F5F5E2F5F5F5F5E2E2F5F5F5F5E2F5F5F5F5F5F5F5F5F5F5F5F5F5F5F5F5F5F5F5F5F5F5F5F5F5F5F5F5F5F5F5F5F5F5F5F5F5F5F5F5F5F5F5F5F5F5F5F5F5F5F5
310
F5F5F5F5F5F5F5F5F5F5F5F5F5F5F5F5F5F5F5F5F5F5F5F5F5F5F5F5F5F5F5F5F5F5F5F5F5F5F5F5F5F5F5F5F5F5F5F5F5F5F5F5F5F5F5F5F5F5F5F5F5F5F5F5F5F5F5F5F5F5F5F5F5F5F5F5F5F5F5F5F5F5F5F5F5F5F5F5F5F5F5F5F5F5F5F5F5F5F5F5F5F5F5F5F5F5F5F5F5F5F5F5F5F5F5F5F5E2F5F5F5F5E2E2F5F5F5
310
F5E2F5F5F5F5F5F5F5F5F5F5F5F5F5F5F5F5F5F5F5F5F5F5F5F5F5F5F5F5F5F5F5F5F5F5F5F5F5F5F5F5F5F5F5F5F5F5F5F5F5F5F5F5F5F5F5F5F5F5F5F5F5F5F5F5F5F5F5F5F5F5F5F5F5F5F5F5F5F5F5F5F5F5F5F5F5F5F5F5F5F5F5F5F5F5F5F5F5F5F5F5F5F5F5F5F5F5F5F5F5F5F5F5F5F5F5F5F5F5F5F5F5F5F5F5F5
310
F5F5F5F5F5F5F5F5F5F5F5F5F5F5F5F5F5F5F5F5F5F5F5F5F5F5F5F5F5F5F5F5F5F5F5F5F5F5F5F5F5F5F5E2F5F5F5F5E2E2F5F5F5F5E2F5F5F5F5F5F5F5F5F5F5F5F5F5F5F5F5F5F5F5F5F5F5F5F5F5F5F5F5F5F5F5F5F5F5F5F5F5F5F5F5F5F5F5F5F5F5F5F5F5F5F5F5F5F5F5F5F5F5F5F5F5F5F5F5F5F5F5F5F5F5F5F5
310
F5F5F5F5F5F5F5F5F5F5F5F5F5F5F5F5F5F5F5F5F5F5F5F5F5F5F5F5F5F5F5F5F5F5F5F5F5F5F5F5F5F5F5F5F5F5F5F5F5F5F5F5F5F5F5F5F5F5F5F5F5F5F5F5F5F5F5F5F5F5F5F5F5F5F5F5F5F5F5F5F5F5F5F5F5F5F5F5F5F5F5F5F5F5F5F5E2F5F5F5F5E2E2F5F5F5F5E2F5F5F5F5F5F5F5F5F5F5F5F5F5F5F5F5F5F5F5
310
F5F5F5F5F5F5F5F5F5F5F5F5F5F5F5F5F5F5F5F5F5F5F5F5F5F5F5F5F5F5F5F5F5F5F5F5F5F5F5F5F5F5F5F5F5F5F5F5F5F5F5F5F5F5F5F5F5F5F5F5F5F5F5F5F5F5F5F5F5F5F5F5F5F5F5F5F5F5F5F5F5F5F5F5F5F5F5F5F5F5F5F5F5F5F5F5F5F5F5F5F5F5F5F5F5F5F5F5F5F5F5F5F5F5F5F5F5F5F5F5F5F5F5F5F5F5F5
310
F5F5F5F5F5F5F5F5F5F5F5F5F5F5F5F5F5F5F5F5F5F5E2F5F5F5F5E2E2F5F5F5F5F5F5F5F5F5F5F5F5F5F5F5F5F5F5F5F5F5F5F5F5F5F5F5F5F5F5F5F5F5F5F5F5F5F5F5F5F5F5F5F5F5F5F5F5F5F5F5F5F5F5F5F5F5F5F5F5F5F5F5F5F5F5F5F5F5F5F5F5F5F5F5F5F5F5F5F5F5F5F5F5F5F5F5F5F5F5F5F5F5F5F5F5F5F5
310
F5F5F5F5F5F5F5F5F5F5F5F5F5F5F5F5F5F5F5F5F5F5F5F5F5F5F5F5F5F5F5F5F5F5F5F5F5F5F5F5F5F5F5F5F5F5F5F5F5F5F5F5F5F5F5F5F5F5F5F5F5F5F5F5F5F5F5F5F5F5F5F5F5F5F5F5F5F5F5F5E2E2F5F5F5F5F5F5F5F5F5F5F5F5F5F5F5F5F5F5F5F5F5F5F5F5F5F5F5F5F5F5F5F5F5F5F5F5F5F5F5F5F5F5F5F5F5
310
F5F5F5F5F5F5F5F5F5F5F5F5F5F5F5F5F5F5F5F5F5F5F5F5F5F5F5F5F5F5F5F5F5F5F5F5F5F5F5F5F5F5F5F5F5F5F5F5F5F5F5F5F5F5F5F5F5F5F5F5F5F5F5F5F5F5F5F5F5F5F5F5F5F5F5F5F5F5F5F5F5F5F5F5F5F5F5F5F5F5F5F5F5F5F5F5F5F5F5F5F5F5F5F5F5F5F5F5F5F5F5F5F5F5F5F5F5F5F5F5F5F5F5F5F5F5F5
310
F5F5F5F5F5F5E2E2F5F5F5F5F5F5F5F5F5F5F5F5F5F5F5F5F5F5F5F5F5F5F5F5F5F5F5F5F5F5F5F5F5F5F5F5F5F5F5F5F5F5F5F5F5F5F5F5F5F5F5F5F5F5F5F5F5F5F5F5F5F5F5F5F5F5F5F5F5F5F5F5F5F5F5F5F5F5F5F5F5F5F5F5F5F5F5F5F5F5F5F5F5F5F5F5F5F5F5F5F5F5F5F5F5F5F5F5F5F5F5F5F5F5F5F5F5F5F5
310
F5F5F5F5F5F5F5F5F5F5F5F5F5F5F5F5F5F5F5F5F5F5F5F5F5F5F5F5F5F5F5F5F5F5F5F5F5F5F5F5F5F5F5F5F5F5F5F5F5F5F5F5F5F5F5F5F5F5F5E2E2F5F5F5F5F5F5F5F5F5F5F5F5F5F5F5F5F5F5F5F5F5F5F5F5F5F5F5F5F5F5F5F5F5F5F5F5F5F5F5F5F5F5F5F5F5F5F5F5F5F5F5F5F5F5F5F5F5F5F5F5F5F5F5F5F5F5
310
F5F5F5F5F5F5F5F5F5F5F5F5F5F5F5F5F5F5F5F5F5F5F5F5F5F5F5F5F5F5F5F5F5F5F5F5F5F5F5F5F5F5F5F5F5F5F5F5F5F5F5F5F5F5F5F5F5F5F5F5F5F5F5F5F5F5F5F5F5F5F5F5F5F5F5F5F5F5F5F5F5F5F5F5F5F5F5F5F5F5F5F5F5F5F5F5F5F5F5F5F5F5F5F5F5F5F5F5F5F5F5F5E2E2F5F5F5F5F5F5F5F5F5F5F5F5F5
310
F5F5F5F5F5F5F5F5E2E2E2E2E2E2E2E2E2E2E2E2E2E2E2E2E2E2E2E2E2E2E2E2E2E2E2E2E2E2E2E2E2E2E2E2E2E2E2E2E2E2E2E2E2E2E2E2E2E2E2E2E2E2E2E2E2E2E2E2E2E2E2E2E2E2E2E2E2E2E2E2E2E2E2E2E2E2E2E2E2E2E2E2E2E2E2E2E2E2E2E2E2E2E2E2E2E2E2E2E2E2E2E2E2E2E2E2E2E2E2E2E2E2E2E2E2E2E2
310
E2E2E2E2E2E2E2E2E2E2E2E2E2E2E2E2E2F5F5F5F5F5F5F5F5F5F5F5F5F5F5F5F5F5F5F5F5F5E2E2F5F5F5F5F5F5F5F5F5F5F5F5F5F5F5F5F5F5F5F5F5E22D2D2D2DF5F5F5F5E2F5F5F5F5F5F5F52DF5F5F5F5F5F5F5F5F5F5F5F5F5F5F5F5F5F5E2F5F5F5F5F5F5F5F5F5F5F5F5F5F5F5F5F5F5F5F5F5F5F5F5F5F5F5F5F5
310
F5F5F5F5F5F5F5F5F5F5F5F5F5F5F5F5F5F5F5F5F5F5F5F5F5F5F5F5F5F5F5F5F5F5F5F5F5F5F5F5F5F5F5F5F5F5F5F5F5F5F5F5F5F5F5F5F5F5F5F5F5F5F5F5F5F5F5F5F5E2F5F5F5F5F5F5F5F5F5F5F5F5F5F5F5F5F5F5F5F5F5E2E2F5F5F5F5F5F5F5F5F5F5F5F5F5F5F5F5F5F5F5F5F5E2DCF5F52DF5F5F5F5E2F5F5F5
310
F5F5F5F52DF5F5F5F5F5F5F5F5F5F5F5F5F5F5F5F5F5F5E2F5F5F5F5F5F5F5F5F5F5F5F5F5F5F5F5F5F5F5F5F5F5F5F5F5F5F5F5F5F5F5F5F5F5F5F5F5F5F5F5F5F5F5F5F5F5F5F5F5F5F5F5F5F5F5F5F5F5F5F5F5F5F5F5F5F5F5F5F5F5F5F5F5F5F5F5F5F5F5F5F5F5F5F5F5F5F5F5F5F5F5F5F5F5F5F5F5F5E2F5F5F5F5
310
F5F5F5F5F5F5F5F5F5F5F5F5F5F5F5F5F5E2E2F5F5F5F5F5F5F5F5F5F5F5F5F5F5F5F5F5F5F5F5F5E2DCF5F52DF5F5F5F5E2F5F5F5F5F5F5F52DF5F5F5F5F5F5F5F5F5F5F5F5F5F5F5F5F5F5E2E2F5F5F5F5F5F5F5F5F5F5F5F5F5F5F5F5F5F5F5F5F5F5F5F5F5F5F5F5F5F5F5F5F5F5F5F5F5F5F5F5F5F5F5F5F5F5F5F5F5
310
F5F5F5F5F5F5F5F5F5F5F5F5F5F5F5F5F5F5F5F5F5F5F5F5F5F5F5F5F5F5F5F5F5F5F5F5F5F5F5F5F5F5F5F5F5F5F5F5E2F5F5F5F5F5F5F5F5F5F5F5F5F5F5F5F5F5F5F5F5F5E2E2F5F5F5F5F5F5F5F5F5F5F5F5F5F5F5F5F5F5F5F5F5E2BEF5F52D2D2D2D2D2D2D2D2D2D2D2D2D2DE2E2E2E2E2E2E2E2E2E2E2E2E2E2E2E2
310
E2E2E2E2F5F5F5F5F5F5F5F5F5F5F5F5F5F5F5F5F5F5F5F5F5F5F5F5F5F5F5F5F5F5F5F5F5F5F5F5F5F5F5F5F5F5F5F5F5F5F5F5F5F5F5F5F5F5F5F5F5F5F5F5F5F5F5F5F5F5F5F5F5F5F5F5F5F5F5F5F5F5F5F5F5F5F5F5F5F5F5F5F5F5F5F5F5F5F5F5F5E2F5F5F5F5F5F5F5F5F5F5F5F5F5F5F5F5F5F5F5F5F5E2E2F5F5
310
F5F5E2F5F5F5F5F5F5F5F5F5F5F5F5F5F5F5F5E2DCF5F5F5F5F5F5F5E2F5F5F5F5F5F5F5E2F5F5F5F5F5F5F5F5F5F5F5F5F5F5F5F5F5F5F5F5F5F5F5F5F5F5F5F5F5F5F5F5F5F5F5F5F5F5F5F5F5F5F5F5F5F5F5F5F5F5F5F5F5F5F5F5F5F5F5F5F5F5F5F5F5F5F5F5F5F5F5F5F5F5F5F5F5F5F5F5F5F5F5F5F5F5F5F5F5F5
310
F5F5F5F5F5F5F5F5F5F5F5F5F5F5F5F5F5F5F5F5F5F5F5F5F5F5F5E2F5F5F5F5F5F5F5F5F5F5F5F5F5F5F5F5E2F5F5F5F5E2E2F5F5F5F5E2F5F5F5F5F5F5F5F5F5F5F5F5F5F5F5F5E2F5F5F5F5F5F5F5F5E2F5F5F5F5F5F5F5E2F5F5F5F5F5F5F5F5F5F5F5F5F5F5F5F5F5F5F5F5F5F5F5F5F5F5F5F5F5F5F5F5F5F5F5F5F5
310
F5F5F5F5F5F5F5F5F5F5F5F5F5F5F5F5F5F5F5F5F5F5F5F5F5F5F5F5F5F5F5F5F5F5F5F5F5F5F5F5F5F5F5F5F5F5F5F5F5F5F5F5F5F5F5F5F5F5F5F5F5F5F5F5F5F5F5F5F5F5F5F5F5F5F5F5F5F5F5F5E2F5F5F5F5F5F5F5F5F5F5F5F5F5F5F5F5E2F5F5F5F5E2E2F5F5F5F5E2F5F5F5F5F5F5F5F5F5F5F5F5F5F5F5F5E2E2
310
E2E2E2E2E2E2E2E2F5F5F5F5F5F5F5E2F5F5F5F5F5F5F5F5F5F5F5F5F5F5F5F5F5F5F5F5F5F5F5F5F5F5F5F5F5F5F5F5F5F5F5F5F5F5F5F5F5F5F5F5F5F5F5F5F5F5F5F5F5F5F5F5F5F5F5F5F5F5F5F5F5F5F5F5F5F5F5F5F5F5F5F5F5F5F5F5F5F5F5F5F5F5F5F5F5F5F5F5F5F5F5F5F5F5F5F5F5F5F5F5F5F5F5F5F5F5F5
310
F5F5F5F5F5F5E2F5F5F5F5F5F5F5F5F5F5F5F5F5F5F5F5E2F5F5F5F5E2E2F5F5F5F5E2F5F5F5F5F5F5F5F5F5F5F5F5F5F5F5F5E2E2E2E2F5F5F5F5F5F5F5F5F5F5F5F5F5E2F5F5F5F5F5F5F5F5F5F5F5F5F5F5F5F5F5F5F5F5F5F5F5F5F5F5F5F5F5F5F5F5F5F5F5F5F5F5F5F5F5F5F5F5F5F5F5F5F5F5F5F5F5F5F5F5F5F5
310
F5F5F5F5F5F5F5F5F5F5F5F5F5F5F5F5F5F5F5F5F5F5F5F5F5F5F5F5F5F5F5F5F5F5F5F5F5F5F5F5F5F5F5F5F5F5F5F5F5F5F5F5F5F5F5F5F5F5F5E2F5F5F5F5F5F5F5F5F5F5F5F5F5F5F5F5E2F5F5F5F5E2E2F5F5F5F5E2F5F5F5F5F5F5F5F5F5F5F5F5F5F5F5F5E2E2E2E2F5F5F5F5F5F5F5F5F5F5F5F5F5E2F5F5F5F5F5
310
F5F5F5F5F5F5F5F5F5F5F5F5F5F5F5F5F5F5F5F5F5F5F5F5F5F5F5F5F5F5F5F5F5F5F5F5F5F5F5F5F5F5F5F5F5F5F5F5F5F5F5F5F5F5F5F5F5F5F5F5F5F5F5F5F5F5F5F5F5F5F5F5F5F5F5F5F5F5F5F5F5F5F5F5F5F5F5F5F5F5F5F5F5F5F5F5F5F5F5F5F5F5F5F5F5F5F5F5F5F5F5F5E2F5F5F5F5F5F5F5F5F5F5F5F5F5F5
310
F5F5E2F5F5F5F5E2E2F5F5F5F5E2F5F5F5F5F5F5F5F5F5F5F5F5F5F5F5F5E2F5F5F5F5F5F5F5F5F5F5F5F5F5F5F5F5E2F5F5F5F5F5F5F5F5F5F5F5F5F5F5F5F5F5F5F5F5F5F5F5F5F5F5F5F5F5F5F5F5F5F5F5F5F5F5F5F5F5F5F5F5F5F5F5F5F5F5F5F5F5F5F5F5F5F5F5F5F5F5F5F5F5F5F5F5F5F5F5F5F5F5F5F5F5F5F5
310
F5F5F5F5F5F5F5F5F5F5F5F5F5F5F5F5F5F5F5F5F5F5F5F5F5F5F5F5F5F5F5F5F5F5F5F5F5F5E2F5F5F5F5F5F5F5F5F5F5F5F5F5F5F5F5E2F5F5F5F5E2E2F5F5F5F5E2F5F5F5F5F5F5F5F5F5F5F5F5F5F5F5F5E2E2E2E2E2E2E2E2E2E2E2E2E2E2E2E2E2E2F5F5F5F5F5F5F5F5F5F5F5F5F5F5F5F5F5F5F5F5F5F5F5F5F5F5
310
F5F5F5F5F5F5F5F5F5F5F5F5F5F5F5F5F5F5F5F5F5F5F5F5F5F5F5F5F5F5F5F5F5F5F5F5F5F5F5F5F5F5F5F5F5F5F5F5F5F5F5F5F5F5F5F5F5F5F5F5F5F5F5F5F5F5F5F5F5F5F5F5F5F5F5F5F5F5F5F5F5F5F5F5F5F5F5F5F5F5F5E2F5F5F5F5F5F5F5F5F5F5F5F5F5F5F5F5E2F5F5F5F5E2E2F5F5F5F5E2F5F5F5F5F5F5F5
310
F5F5F5F5F5F5F5F5F5E2E2E2F5F5F5F5F5F5F5F5F5F5F5F5F5F5F5F5F5F5F5F5F5F5F5F5F5F5F5F5F5F5F5F5F5F5F5F5F5F5F5F5F5F5F5F5F5F5F5F5F5F5F5F5F5F5F5F5F5F5F5F5F5F5F5F5F5F5F5F5F5F5F5F5F5F5F5F5F5F5F5F5F5F5F5F5F5F5F5F5F5F5F5F5F5F5F5F5F5F5F5F5F5F5F5F5F5F5F5F5F5F5F5F5F5F5F5
310
F5F5F5F5F5F5F5F5F5F5F5F5F5F5F5F5F5E2F5F5F5F5F5F5F5F5F5F5F5F5F5F5F5F5E2F5F5F5F5E2E2F5F5F5F5E2F5F5F5F5F5F5F5F5F5F5F5F5F5F5F5F5E2E2E2F5F5F5F5F5F5F5F5F5F5F5F5F5F5F5F5F5F5F5F5F5F5F5F5F5F5F5F5F5F5F5F5F5F5F5F5F5F5F5F5F5F5F5F5F5F5F5F5F5F5F5F5F5F5F5F5F5F5F5F5F5F5
310
F5F5F5F5F5F5F5F5F5F5F5F5F5F5F5F5F5F5F5F5F5F5F5F5F5F5F5F5F5F5F5F5F5F5F5F5F5F5F5F5F5F5F5F5F5F5F5F5F5F5F5F5F5F5F5F5F5F5F5F5F5F5F5F5F5F5F5F5F5F5E2F5F5F5F5F5F5F5F5F5F5F5F5F5F5F5F5E2F5F5F5F5E2E2F5F5F5F5E2F5F5F5F5F5F5F5F5F5F5F5F5F5F5F5F5E2F5F5F5F5F5F5F5F5F5F5F5
310
F5F5F5F5F5F5F5F5F5F5F5F5F5F5F5F5F5F5F5F5F5F5F5F5F5F5F5F5F5F5F5F5F5F5F5F5F5F5F5F5F5F5F5F5F5F5F5F5F5F5F5F5F5F5F5F5F5F5F5F5F5F5F5F5F5F5F5F5F5F5F5F5F5F5F5F5F5F5F5F5F5F5F5F5F5F5F5F5F5F5F5F5F5F5F5F5F5F5F5F5F5F5F5F5F5F5F5F5F5F5F5F5F5F5F5F5F5F5F5F5F5F5F5E2F5F5F5
310
F5F5F5F5F5F5F5F5F5F5F5F5F5E2F5F5F5F5E2E2F5F5F5F5E2F5F5F5F5F5F5F5F5F5F5F5F5F5F5F5F5E20F0F0F0F0F0F0F0F0F0F0FF5F5F5F5F5F5F5F5F5F5F5F5F5F5F5F5F5F5F5F5F5F5F5F5F5F5F5F5F5F5F5F5F5F5F5F5F5F5F5F5F5F5F5F5F5F5F5F5F5F5F5F5F5F5F5F5F5F5F5F5F5F5F5F5F5F5F5F5F5F5F5F5F5F5
310
F5F5F5F5F5F5F5F5F5F5F5F5F5F5F5F5F5F5F5F5F5F5F5F5F5F5F5F5F5F5F5F5F5F5F5F5F5F5F5F5F5F5F5F5F5F5F5F5F5E2F5F5F5F5F5F5F5F5F5F5F5F5F5F5F5F5E2F5F5F5F5E2E2F5F5F5F5E2F5F5F5F5F5F5F5F5F5F5F5F5F5F5F5F5E20F0F0F0F0F0F0F0F0F0FF5F5F5F5F5F5F5F5F5F5F5F5F5F5F5F5F5F5F5F5F5F5
310
F5F5F5F5F5F5F5F5F5F5F5F5F5F5F5F5F5F5F5F5F5F5F5F5F5F5F5F5F5F5F5F5F5F5F5F5F5F5F5F5F5F5F5F5F5F5F5F5F5F5F5F5F5F5F5F5F5F5F5F5F5F5F5F5F5F5F5F5F5F5F5F5F5F5F5F5F5F5F5F5F5F5F5F5F5F5F5F5F5F5F5F5F5F5F5F5F5F5F5F5F5F5E2F5F5F5F5F5F5F5F5F5F5F5F5F5F5F5F5E2F5F5F5F5E2E2F5
310
F5F5F5E2F5F5F5F5F5F5F5F5F5F5F5F5F5F5F5F5E2F5F5F5F5F5F5F5F5F5F5F5F5F5F5F5F5F5F5F5F5F5F5F5F5F5F5F5F5F5F5F5F5F5F5F5F5F5F5F5F5F5F5F5F5F5F5F5F5F5F5F5F5F5F5F5F5F5F5F5F5F5F5F5F5F5F5F5F5F5F5F5F5F5F5F5F5F5F5F5F5F5F5F5F5F5F5F5F5F5F5F5F5F5F5F5F5F5F5F5F5F5F5F5F5F5F5
310
F5F5F5F5F5F5F5F5F5F5F5F5F5F5F5F5F5F5F5F5F5F5F5F5F5F5F5F5E2F5F5F5F5F5F5F5F5F5F5F5F5F5F5F5F5E2F5F5F5F5E2E2F5F5F5F5E2F5F5F5F5F5F5F5F5F5F5F5F5F5F5F5F5E2F5F5F5F5F5F5F5F5F5F5F5F5F5F5F5F5F5F5F5F5F5F5F5F5F5F5F5F5F5F5F5F5F5F5F5F5F5F5F5F5F5F5F5F5F5F5F5F5F5F5F5F5F5
310
F5F5F5F5F5F5F5F5F5F5F5F5F5F5F5F5F5F5F5F5F5F5F5F5F5F5F5F5F5F5F5F5F5F5F5F5F5F5F5F5F5F5F5F5F5F5F5F5F5F5F5F5F5F5F5F5F5F5F5F5F5F5F5F5F5F5F5F5F5F5F5F5F5F5F5F5F5F5F5F5F5E2F5F5F5F5F5F5F5F5F5F5F5F5F5F5F5F5E2F5F5F5F5E2E2F5F5F5F5E2F5F5F5F5F5F5F5F5F5F5F5F5F5F5F5F5E2
310
F5F5F5F5F5F5F5F5F5F5F5F5F5F5F5F5F5F5F5F5F5F5F5F5F5F5F5F5F5F5F5F5F5F5F5F5F5F5F5F5F5F5F5F5F5F5F5F5F5F5F5F5F5F5F5F5F5F5F5F5F5F5F5F5F5F5F5F5F5F5F5F5F5F5F5F5F5F5F5F5F5F5F5F5F5F5F5F5F5F5F5F5F5F5F5F5F5F5F5F5F5F5F5F5F5F5F5F5F5F5F5F5F5F5F5F5F5F5F5F5F5F5F5F5F5F5F5
310
F5F5F5F5F5F5F5E2F5F5F5F5F5F5F5F5F5F5F5F5F5F5F5F5E2F5F5F5F5E2E2F5F5F5F5E2F5F5F5F5F5F5F5F5F5F5F5F5F5F5F5F5E2F5F5F5F5F5F5F5F5F5F5F5F5F5F5F5F5F5F5F5F5F5F5F5F5F5F5F5F5F5F5F5F5F5F5F5F5F5F5F5F5F5F5F5F5F5F5F5F5F5F5F5F5F5F5F5F5F5F5F5F5F5F5F5F5F5F5F5F5F5F5F5F5F5F5
310
F5F5F5F5F5F5F5F5F5F5F5F5F5F5F5F5F5F5F5F5F5F5F5F5F5F5F5F5F5F5F5F5F5F5F5F5F5F5F5F5F5F5F5F5F5F5F5F5F5F5F5F5F5F5F5F5F5F5F5F5E2F5F5F5F5F5F5F5F5F5F5F5F5F5F5F5F5E2F5F5F5F5E2E2F5F5F5F5F5F5F5F5F5F5F5F5F5F5F5F5F5F5F5F5F5E2F5F5F5F5F5F5F5F5F5F5F5F5F5F5F5F5F5F5F5F5F5
310
F5F5F5F5F5F5F5F5F5F5F5F5F5F5F5F5F5F5F5F5F5F5F5F5F5F5F5F5F5F5F5F5F5F5F5F5F5F5F5F5F5F5F5F5F5F5F5F5F5F5F5F5F5F5F5F5F5F5F5F5F5F5F5F5F5F5F5F5F5F5F5F5F5F5F5F5F5F5F5F5F5F5F5F5F5F5F5F5F5F5F5F5F5F5F5F5F5F5F5F5F5F5F5F5F5F5F5F5F5F5F5F5F5E2F5F5F5F5F5F5F5F5F5F5F5F5F5
310
F5F5F5F5F5F5F5F5E2E2F5F5F5F5F5F5F5F5F5F5F5F5F5F5F5F5F5F5F5F5F5E2F5F5F5F5F5F5F5F5F5F5F5F5F5F5F5F5F5F5F5F5F5F5F5F5F5F5F5F5F5F5F5F5F5F5F5F5F5F5F5F5F5F5F5F5F5F5F5F5F5F5F5F5F5F5F5F5F5F5F5F5F5F5F5F5F5F5F5F5F5F5F5F5F5F5F5F5F5F5F5F5F5F5F5F5F5F5F5F5F5F5F5F5F5F5F5
310
F5F5F5F5F5F5F5F5F5F5F5F5F5F5F5F5F5F5F5F5F5F5F5F5F5F5F5F5F5F5F5F5F5F5F5F5F5F5F5E2F5F5F5F5F5F5F5F5F5F5F5F5F5F5F5F5F5F5F5F5F5E2E2F5F5F5F5F5F5F5F5F5F5F5F5F5F5F5F5F5F5F5F5F5E2F5F5F5F5F5F5F5F5F5F5F5F5F5F5F5F5F5F5F5F5F5F5F5F5F5F5F5F5F5F5F5F5F5F5F5F5F5F5F5F5F5F5
310
F5F5F5F5F5F5F5F5F5F5F5F5F5F5F5F5F5F5F5F5F5F5F5F5F5F5F5F5F5F5F5F5F5F5F5F5F5F5F5F5F5F5F5F5F5F5F5F5F5F5F5F5F5F5F5F5F5F5F5F5F5F5F5F5F5F5F5F5F5F5F5F5F5F5F5F5F5F5F5F5F5F5F5F5F5F5F5F5F5F5F5F5E2F5F5F5F5F5F5F5F5F5F5F5F5F5F5F5F5F5F5F5F5F5E2E2F5F5F5F5F5F5F5F5F5F5F5
310
F5F5F5F5F5F5F5F5F5F5E2F5F5F5F5F5F5F5F5F5F5F5F5F5F5F5F5F5F5F5F5F5F5F5F5F5F5F5F5F5F5F5F5F5F5F5F5F5F5F5F5F5F5F5F5F5F5F5F5F5F5F5F5F5F5F5F5F5F5F5F5F5F5F5F5F5F5F5F5F5F5F5F5F5F5F5F5F5F5F5F5F5F5F5F5F5F5F5F5F5F5F5F5F5F5F5F5F5F5F5F5F5F5F5F5F5F5F5F5F5F5F5F5F5F5F5F5
310
F5F5F5F5F5F5F5F5F5F5F5F5F5F5F5F5F5F5E2F5F5F5F5F5F5F5F5F5F5F5F5F5F5F5F5F5F5F5F5F5E2E2F5F5F5F5F5F5F5F5F5F5F5F5F5F5F5F5F5F5F5F5F5E2F5F5F5F5F5F5F5F5F5F5F5F5F5F5F5F5F5F5F5F5F5F5F5F5F5F5F5F5F5F5F5F5F5F5F5F5F5F5F5F5F5F5F5F5F5F5F5F5F5F5F5F5F5F5F5F5F5F5F5F5F5F5F5
310
F5F5F5F5F5F5F5F5F5F5F5F5F5F5F5F5F5F5F5F5F5F5F5F5F5F5F5F5F5F5F5F5F5F5F5F5F5F5F5F5F5F5F5F5F5F5F5F5F5F5F5F5F5F5F5F5F5F5F5F5F5F5F5F5F5F5F5F5F5F5F5E2F5F5F5F5F5F5F5F5F5F5F5F5F5F5F5F5F5F5F5F5F5E2E2F5F5F5F5F5F5F5F5F5F5F5F5F5F5F5F5F5F5F5F5F5E2F5F5F5F5F5F5F5F5F5F5
310
F5F5F5F5F5F5F5F5F5F5F5F5F5F5F5F5F5F5F5F5F5F5F5F5F5F5F5F5F5F5F5F5F5F5F5F5F5F5F5F5F5F5F5F5F5F5F5F5F5F5F5F5F5F5F5F5F5F5F5F5F5F5F5F5F5F5F5F5F5F5F5F5F5F5F5F5F5F5F5F5F5F5F5F5F5F5F5F5F5F5F5F5F5F5F5F5F5F5F5F5F5F5F5F5F5F5F5F5F5F5F5F5F5F5F5F5F5F5F5F5F5F5F5F5E2F5F5
310
F5F5F5F5F5F5F5F5F5F5F5F5F5F5F5F5F5F5F5E2E2F5F5F5F5F5F5F5F5F5F5F5F5F5F5F5F5F5F5F5F5F5E2F5F5F5F5F5F5F5F5F5F5F5F5F5F5F5F5F5F5F5F5F5F5F5F5F5F5F5F5F5F5F5F5F5F5F5F5F5F5F5F5F5F5F5F5F5F5F5F5F5F5F5F5F5F5F5F5F5F5F5F5F5F5F5F5F5F5F5F5F5F5F5F5F5F5F5F5F5F5F5F5F5F5F5F5
310
F5F5F5F5F5F5F5F5F5F5F5F5F5F5F5F5F5F5F5F5F5F5F5F5F5F5F5F5F5F5F5F5F5F5F5F5F5F5F5F5F5F5F5F5F5F5F5F5F5F5E2F5F5F5F5F5F5F5F5F5F5F5F5F5F5F5F5F5F5F5F5F5E2E2F5F5F5F5F5F5F5F5F5F5F5F5F5F5F5F5F5F5F5F5F5E2F5F5F5F5F5F5F5F5F5F5F5F5F5F5F5F5F5F5F5F5F5F5F5F5F5F5F5F5F5F5F5
310
F5F5F5F5F5F5F5F5F5F5F5F5F5F5F5F5F5F5F5F5F5F5F5F5F5F5F5F5F5F5F5F5F5F5F5F5F5F5F5F5F5F5F5F5F5F5F5F5F5F5F5F5F5F5F5F5F5F5F5F5F5F5F5F5F5F5F5F5F5F5F5F5F5F5F5F5F5F5F5F5F5F5F5F5F5F5F5F5F5F5F5F5F5F5F5F5F5F5F5F5F5F5F5E2F5F5F5F5F5F5F5F5F5F5F5F5F5F5F5F5F5F5F5F5F5E2E2
310
F5F5F5F5F5F5F5F5F5F5F5F5F5F5F5F5F5F5F5F5F5E2F5F5F5F5F5F5F5F5F5F5F5F5F5F5F5F5F5F5F5F5F5F5F5F5F5F5F5F5F5F5F5F5F5F5F5F5F5F5F5F5F5F5F5F5F5F5F5F5F5F5F5F5F5F5F5F5F5F5F5F5F5F5F5F5F5F5F5F5F5F5F5F5F5F5F5F5F5F5F5F5F5F5F5F5F5F5F5F5F5F5F5F5F5F5F5F5F5F5F5F5F5F5F5F5F5
310
F5F5F5F5F5F5F5F5F5F5F5F5F5F5F5F5F5F5F5F5F5F5F5F5F5F5F5F5F5E2F5F5F5F5F5F5F5F5F5F5F5F5F5F5F5F5F5F5F5F5F5E2E2F5F5F5F5F5F5F5F5F5F5F5F5F5F5F5F5F5F5F5F5F5E2F5F5F5F5F5F5F5F5F5F5F5F5F5F5F5F5F5F5F5F5F5F5F5F5F5F5F5F5F5F5F5F5F5F5F5F5F5F5F5F5F5F5F5F5F5F5F5F5F5F5F5F5
310
F5F5F5F5F5F5F5F5F5F5F5F5F5F5F5F5F5F5F5F5F5F5F5F5F5F5F5F5F5F5F5F5F5F5F5F5F5F5F5F5F5F5F5F5F5F5F5F5F5F5F5F5F5F5F5F5F5F5F5F5F5F5F5F5F5F5F5F5F5F5F5F5F5F5F5F5F5F5F5F5F5F5E2F5F5F5F5F5F5F5F5F5F5F5F5F5F5F5F5F5F5F5F5F5E2E2F5F5F5F5E2F5F5F5F5F5F5F5F5F5F5F5F5F5F5F5F5
310
E2F5F5F5F5F5F5F5F5F5F5F5F5F5F5F5F5F5F5F5F5F5F5F5F5F5F5F5F5F5F5F5F5F5F5F5F5F5F5F5F5F5F5F5F5F5F5F5F5F5F5F5F5F5F5F5F5F5F5F5F5F5F5F5F5F5F5F5F5F5F5F5F5F5F5F5F5F5F5F5F5F5F5F5F5F5F5F5F5F5F5F5F5F5F5F5F5F5F5F5F5F5F5F5F5F5F5F5F5F5F5F5F5F5F5F5F5F5F5F5F5F5F5F5F5F5F5
310
F5F5F5F5F5F5F5F5E2F5F5F5F5F5F5F5F5F5F5F5F5F5F5F5F5E2F5F5F5F5E2E2F5F5F5F5E2F5F5F5F5F5F5F5F5F5F5F5F5F5F5F5F5E2F5F5F5F5F5F5F5F5F5F5F5F5F5F5F5F5F5F5F5F5F5F5F5F5F5F5F5F5F5F5F5F5F5F5F5F5F5F5F5F5F5F5F5F5F5F5F5F5F5F5F5F5F5F5F5F5F5F5F5F5F5F5F5F5F5F5F5F5F5F5F5F5F5
310
F5F5F5F5F5F5F5F5F5F5F5F5F5F5F5F5F5F5F5F5F5F5F5F5F5F5F5F5F5F5F5F5F5F5F5F5F5F5F5F5F5F5F5F5F5F5F5F5F5F5F5F5F5F5F5F5F5F5F5F5F5E2F5F5F5F5F5F5F5F5F5F5F5F5F5F5F5F5E2F5F5F5F5E2E2F5F5F5F5E2F5F5F5F5F5F5F5F5F5F5F5F5F5F5F5F5E2F5F5F5F5F5F5F5F5F5F5F5F5F5F5F5F5F5F5F5F5
310
F5F5F5F5F5F5F5F5F5F5F5F5F5F5F5F5F5F5F5F5F5F5F5F5F5F5F5F5F5F5F5F5F5F5F5F5F5F5F5F5F5F5F5F5F5F5F5F5F5F5F5F5F5F5F5F5F5F5F5F5F5F5F5F5F5F5F5F5F5F5F5F5F5F5F5F5F5F5F5F5F5F5F5F5F5F5F5F5F5F5F5F5F5F5F5F5F5F5F5F5F5F5F5F5F5F5F5F5F5F5F5F5F5F5E2F5F5F5F5F5F5F5F5F5F5F5F5
310
F5F5F5F5E2F5F5F5F5E2E2F5F5F5F5E2F5F5F5F5F5F5F5F5F5F5F5F5F5F5F5F5E2F5F5F5F5F5F5F5F5F5F5F5F5F5F5F5F5F5F5F5F5F5F5F5F5F5F5F5F5F5F5F5F5F5F5F5F5F5F5F5F5F5F5F5F5F5F5F5F5F5F5F5F5F5F5F5F5F5F5F5F5F5F5F5F5F5F5F5F5F5F5F5F5F5F5F5F5F5F5F5F5F5F5F5F5F5F5F5F5F5F5F5F5F5F5
310
F5F5F5F5F5F5F5F5F5F5F5F5F5F5F5F5F5F5F5F5F5F5F5F5F5F5F5F5F5F5F5F5F5F5F5F5F5F5F5F5E2F5F5F5F5F5F5F5F5F5F5F5F5F5F5F5F5E2F5F5F5F5E2E2F5F5F5F5E2F5F5F5F5F5F5F5F5F5F5F5F5F5F5F5F5E2F5F5F5F5F5F5F5F5F5F5F5F5F5F5F5F5F5F5F5F5F5F5F5F5F5F5F5F5F5F5F5F5F5F5F5F5F5F5F5F5F5
310
F5F5F5F5F5F5F5F5F5F5F5F5F5F5F5F5F5F5F5F5F5F5F5F5F5F5F5F5F5F5F5F5F5F5F5F5F5F5F5F5F5F5F5F5F5F5F5F5F5F5F5F5F5F5F5F5F5F5F5F5F5F5F5F5F5F5F5F5F5F5F5F5F5F5F5F5F5F5F5F5F5F5F5F5F5F5F5F5F5F5F5F5F5E2F5F5F5F5F5F5F5F5F5F5F5F5F5F5F5F5E2F5F5F5F5E2E2F5F5F5F5E2F5F5F5F5F5
310
F5F5F5F5F5F5F5F5F5F5F5E2F5F5F5F5F5F5F5F5F5F5F5F5F5F5F5F5F5F5F5F5F5F5F5F5F5F5F5F5F5F5F5F5F5F5F5F5F5F5F5F5F5F5F5F5F5F5F5F5F5F5F5F5F5F5F5F5F5F5F5F5F5F5F5F5F5F5F5F5F5F5F5F5F5F5F5F5F5F5F5F5F5F5F5F5F5F5F5F5F5F5F5F5F5F5F5F5F5F5F5F5F5F5F5F5F5F5F5F5F5F5F5F5F5F5F5
310
F5F5F5F5F5F5F5F5F5F5F5F5F5F5F5F5F5F5F5E2F5F5F5F5F5F5F5F5F5F5F5F5F5F5F5F5E2F5F5F5F5E2E2F5F5F5F5E2F5F5F5F5F5F5F5F5F5F5F5F5F5F5F5F5E2F5F5F5F5F5F5F5F5F5F5F5F5F5F5F5F5F5F5F5F5F5F5F5F5F5F5F5F5F5F5F5F5F5F5F5F5F5F5F5F5F5F5F5F5F5F5F5F5F5F5F5F5F5F5F5F5F5F5F5F5F5F5
310
F5F5F5F5F5F5F5F5F5F5F5F5F5F5F5F5F5F5F5F5F5F5F5F5F5F5F5F5F5F5F5F5F5F5F5F5F5F5F5F5F5F5F5F5F5F5F5F5F5F5F5F5F5F5F5F5F5F5F5F5F5F5F5F5F5F5F5F5F5F5F5F5E2F5F5F5F5F5F5F5F5F5F5F5F5F5F5F5F5E2F5F5F5F5E2E2F5F5F5F5E2F5F5F5F5F5F5F5F5F5F5F5F5F5F5F5F5E2F5F5F5F5F5F5F5F5F5
310
F5F5F5F5F5F5F5F5F5F5F5F5F5F5F5F5F5F5F5F5F5F5F5F5F5F5F5F5F5F5F5F5F5F5F5F5F5F5F5F5F5F5F5F5F5F5F5F5F5F5F5F5F5F5F5F5F5F5F5F5F5F5F5F5F5F5F5F5F5F5F5F5F5F5F5F5F5F5F5F5F5F5F5F5F5F5F5F5F5F5F5F5F5F5F5F5F5F5F5F5F5F5F5F5F5F5F5F5F5F5F5F5F5F5F5F5F5F5F5F5F5F5F5F5F5E2F5
310
F5F5F5F5F5F5F5F5F5F5F5F5F5F5F5E2F5F5F5F5E2E2F5F5F5F5E2F5F5F5F5F5F5F5F5F5F5F5F5F5F5F5F5E2F5F5F5F5F5F5F5F5F5F5F5F5F5F5F5F5F5F5F5F5F5F5F5F5F5F5F5F5F5F5F5F5F5F5F5F5F5F5F5F5F5F5F5F5F5F5F5F5F5F5F5F5F5F5F5F5F5F5F5F5F5F5F5F5F5F5F5F5F5F5F5F5F5F5F5F5F5F5F5F5F5F5F5
310
F5F5F5F5F5F5F5F5F5F5F5F5F5F5F5F5F5F5F5F5F5F5F5F5F5F5F5F5F5F5F5F5F5F5F5F5F5F5F5F5F5F5F5F5F5F5F5F5F5F5F5E2F5F5F5F5F5F5F5F5F5F5F5F5F5F5F5F5E2F5F5F5F5E2E2F5F5F5F5E2F5F5F5F5F5F5F5F5F5F5F5F5F5F5F5F5E2F5F5F5F5F5F5F5F5F5F5F5F5F5F5F5F5F5F5F5F5F5F5F5F5F5F5F5F5F5F5
310
F5F5F5F5F5F5F5F5F5F5F5F5F5F5F5F5F5F5F5F5F5F5F5F5F5F5F5F5F5F5F5F5F5F5F5F5F5F5F5F5F5F5F5F5F5F5F5F5F5F5F5F5F5F5F5F5F5F5F5F5F5F5F5F5F5F5F5F5F5F5F5F5F5F5F5F5F5F5F5F5F5F5F5F5F5F5F5F5F5F5F5F5F5F5F5F5F5F5F5F5F5F5F5F5E2F5F5F5F5F5F5F5F5F5F5F5F5F5F5F5F5E2F5F5F5F5E2
310
E2F5F5F5F5E2F5F5F5F5F5F5F5F5F5F5F5F5F5F5F5F5E2F5F5F5F5F5F5F5F5F5F5F5F5F5F5F5F5F5F5F5F5F5F5F5F5F5F5F5F5F5F5F5F5F5F5F5F5F5F5F5F5F5F5F5F5F5F5F5F5F5F5F5F5F5F5F5F5F5F5F5F5F5F5F5F5F5F5F5F5F5F5F5F5F5F5F5F5F5F5F5F5F5F5F5F5F5F5F5F5F5F5F5F5F5F5F5F5F5F5F5F5F5F5F5F5
310
F5F5F5F5F5F5F5F5F5F5F5F5F5F5F5F5F5F5F5F5F5F5F5F5F5F5F5F5F5F5E2F5F5F5F5F5F5F5F5F5F5F5F5F5F5F5F5E2F5F5F5F5E2E2F5F5F5F5E2F5F5F5F5F5F5F5F5F5F5F5F5F5F5F5F5E2F5F5F5F5F5F5F5F5F5F5F5F5F5F5F5F5F5F5F5F5F5F5F5F5F5F5F5F5F5F5F5F5F5F5F5F5F5F5F5F5F5F5F5F5F5F5F5F5F5F5F5
310
F5F5F5F5F5F5F5F5F5F5F5F5F5F5F5F5F5F5F5F5F5F5F5F5F5F5F5F5F5F5F5F5F5F5F5F5F5F5F5F5F5F5F5F5F5F5F5F5F5F5F5F5F5F5F5F5F5F5F5F5F5F5F5F5F5F5F5F5F5F5F5F5F5F5F5F5F5F5F5F5F5F5F5E2F5F5F5F5F5F5F5F5F5F5F5F5F5F5F5F5E2F5F5F5F5E2E2F5F5F5F5E2F5F5F5F5F5F5F5F5F5F5F5F5F5F5F5
310
F5E2F5F5F5F5F5F5F5F5F5F5F5F5F5F5F5F5F5F5F5F5F5F5F5F5F5F5F5F5F5F5F5F5F5F5F5F5F5F5F5F5F5F5F5F5F5F5F5F5F5F5F5F5F5F5F5F5F5F5F5F5F5F5F5F5F5F5F5F5F5F5F5F5F5F5F5F5F5F5F5F5F5F5F5F5F5F5F5F5F5F5F5F5F5F5F5F5F5F5F5F5F5F5F5F5F5F5F5F5F5F5F5F5F5F5F5F5F5F5F5F5F5F5F5F5F5
310
F5F5F5F5F5F5F5F5F5E2F5F5F5F5F5F5F5F5F5F5F5F5F5F5F5F5E2F5F5F5F5E2E2F5F5F5F5E2F5F5F5F5F5F5F5F5F5F5F5F5F5F5F5F5E2F5F5F5F5F5F5F5F5F5F5F5F5F5F5F5F5F5F5F5F5F5F5F5F5F5F5F5F5F5F5F5F5F5F5F5F5F5F5F5F5F5F5F5F5F5F5F5F5F5F5F5F5F5F5F5F5F5F5F5F5F5F5F5F5F5F5F5F5F5F5F5F5
310
F5F5F5F5F5F5F5F5F5F5F5F5F5F5F5F5F5F5F5F5F5F5F5F5F5F5F5F5F5F5F5F5F5F5F5F5F5F5F5F5F5F5F5F5F5F5F5F5F5F5F5F5F5F5F5F5F5F5F5F5F5F5E2F5F5F5F5F5F5F5F5F5F5F5F5F5F5F5F5E2F5F5F5F5E2E2F5F5F5F5E2F5F5F5F5F5F5F5F5F5F5F5F5F5F5F5F5E2F5F5F5F5F5F5F5F5F5F5F5F5F5F5F5F5F5F5F5
310
F5F5F5F5F5F5F5F5F5F5F5F5F5F5F5F5F5F5F5F5F5F5F5F5F5F5F5F5F5F5F5F5F5F5F5F5F5F5F5F5F5F5F5F5F5F5F5F5F5F5F5F5F5F5F5F5F5F5F5F5F5F5F5F5F5F5F5F5F5F5F5F5F5F5F5F5F5F5F5F5F5F5F5F5F5F5F5F5F5F5F5F5F5F5F5F5F5F5F5F5F5F5F5F5F5F5F5F5F5F5F5F5F5F5F5E2F5F5F5F5F5F5F5F5F5F5F5
310
F5F5F5F5F5E2F5F5F5F5E2E2F5F5F5F5E2F5F5F5F5F5F5F5F5F5F5F5F5F5F5F5F5E2F5F5F5F5F5F5F5F5F5F5F5F5F5F5F5F5F5F5F5F5F5F5F5F5F5F5F5F5F5F5F5F5F5F5F5F5F5F5F5F5F5F5F5F5F5F5F5F5F5F5F5F5F5F5F5F5F5F5F5F5F5F5F5F5F5F5F5F5F5F5F5F5F5F5F5F5F5F5F5F5F5F5F5F5F5F5F5F5F5F5F5F5F5
310
F5F5F5F5F5F5F5F5F5F5F5F5F5F5F5F5F5F5F5F5F5F5F5F5F5F5F5F5F5F5F5F5F5F5F5F5F5F5F5F5F5E2F5F5F5F5F5F5F5F5F5F5F5F5F5F5F5F5E2F5F5F5F5E2E2F5F5F5F5F5F5F5F5F5F5F5F5F5F5F5F5F5F5F5F5F5E2F5F5F5F5F5F5F5F5F5F5F5F5F5F5F5F5F5F5F5F5F5F5F5F5F5F5F5F5F5F5F5F5F5F5F5F5F5F5F5F5
310
F5F5F5F5F5F5F5F5F5F5F5F5F5F5F5F5F5F5F5F5F5F5F5F5F5F5F5F5F5F5F5F5F5F5F5F5F5F5F5F5F5F5F5F5F5F5F5F5F5F5F5F5F5F5F5F5F5F5F5F5F5F5F5F5F5F5F5F5F5F5F5F5F5F5F5F5F5F5F5F5F5F5F5F5F5F5F5F5F5F5F5F5F5F5E2F5F5F5F5F5F5F5F5F5F5F5F5F5F5F5F5F5F5F5F5F5E2E2F5F5F5F5F5F5F5F5F5
310
F5F5F5F5F5F5F5F5F5F5F5F5E2F5F5F5F5F5F5F5F5F5F5F5F5F5F5F5F5F5F5F5F5F5F5F5F5F5F5F5F5F5F5F5F5F5F5F5F5F5F5F5F5F5F5F5F5F5F5F5F5F5F5F5F5F5F5F5F5F5F5F5F5F5F5F5F5F5F5F5F5F5F5F5F5F5F5F5F5F5F5F5F5F5F5F5F5F5F5F5F5F5F5F5F5F5F5F5F5F5F5F5F5F5F5F5F5F5F5F5F5F5F5F5F5F5F5
310
F5F5F5F5F5F5F5F5F5F5F5F5F5F5F5F5F5F5F5F5E2F5F5F5F5F5F5F5F5F5F5F5F5F5F5F5F5F5F5F5F5F5E2E2F5F5F5F5F5F5F5F5F5F5F5F5F5F5F5F5F5F5F5F5F5E2F5F5F5F5F5F5F5F5F5F5F5F5F5F5F5F5F5F5F5F5F5F5F5F5F5F5F5F5F5F5F5F5F5F5F5F5F5F5F5F5F5F5F5F5F5F5F5F5F5F5F5F5F5F5F5F5F5F5F5F5F5
310
F5F5F5F5F5F5F5F5F5F5F5F5F5F5F5F5F5F5F5F5F5F5F5F5F5F5F5F5F5F5F5F5F5F5F5F5F5F5F5F5F5F5F5F5F5F5F5F5F5F5F5F5F5F5F5F5F5F5F5F5F5F5F5F5F5F5F5F5F5F5F5F5F5E2F5F5F5F5F5F5F5F5F5F5F5F5F5F5F5F5F5F5F5F5F5E2E2F5F5F5F5F5F5F5F5F5F5F5F5F5F5F5F5F5F5F5F5F5E2F5F5F5F5F5F5F5F5
310
F5F5F5F5F5F5F5F5F5F5F5F5F5F5F5F5F5F5F5F5F5F5F5F5F5F5F5F5F5F5F5F5F5F5F5F5F5F5F5F5F5F5F5F5F5F5F5F5F5F5F5F5F5F5F5F5F5F5F5F5F5F5F5F5F5F5F5F5F5F5F5F5F5F5F5F5F5F5F5F5F5F5F5F5F5F5F5F5F5F5F5F5F5F5F5F5F5F5DCF5F5F5F5F5F5F5F5F5F5F5F5F5F5F5F5F5F5F5F5F5F5F5F5F5F5F5E2
310
F5F5F5F5F5F5F5F5F5F5F5F5F5F5F5F5F5F5F5F5F5E2E2F5F5F5F5F5F5F5F5F5F5F5F5F5F5F5F5F5F5F5F5F5E2F5F5F5F5F5F5F5F5F5F5F5F5F5F5F5F5F5F5F5F5F5F5F5F5F5F5F5F5F5F5F5F5F5F5F5F5F5F5F5F5F5F5F5F5F5F5F5F5F5F5F5F5F5F5F5F5F5F5F5F5F5F5F5F5F5F5F5F5F5F5F5F5F5F5F5F5F5F5F5F5F5E2
310
ECE2E2E2E2E2E2E2E2E2E2E2E2E2E2E2E2E2E2E2E2E2E2E2DCE2E2E2E2E2E2E2E2E2E2E2E2E2E2E2E2E2E2E2E2E2E2E2ECE2F5F5E2F5F5F5F5F5F5F5F5F5F5F5F5F5F5F5F5F5F5F5F5F5E2E2F5F5F5F5F5F5F5F5F5F5F5F5F5F5F5F5F5F5F5F5F5E2F5F5F5F5F5F5F5F5F5F5F5F5F5F5F5F5F5F5F5F5F5F5F5F5F5F5F5F5F5
310
F5F5F5F5F5F5F5F5F5F5F5F5F5F5F5F5F5F5F5F5F5F5F5F5F5F5F5F5F5F5F5F5F5F5F5F5F5F5F5F5F5F5F5F5F5F5F5F5F5F5F5E2F5F5ECF5F5F5F5F5F5F5F5F5F5F5F5F5F5F5F5F5F5F5F5F5F5DCF5F5F5F5F5F5F5F5F5F5F5F5F5F5F5F5F5F5F5F5F5F5ECF5F5E2F5E2F5F5F5F5F5F5F5F5F5F5F5F5F5F5F5F5F5F5F5F5F5
310
E2E2F5F5F5F5F5F5F5F5F5F5F5F5F5F5F5F5F5F5F5F5F5E2F5F5F5F5F5F5F5F5F5F5F5F5F5F5F5F5F5F5F5F5F5F5F5F5F5F5F5F5F5F5F5F5F5F5F5F5F5F5F5F5F5F5F5F5F5F5F5F5F5F5F5F5F5F5F5F5F5F5F5F5F5F5F5F5F5F5F5F5F5F5F5F5F5F5F5F5F5F5F5E2F5F5F5F5ECF5F5F5F5F5F5F5F5F5F5F5F5F5F5F5F5F5F5
310
F5F5F5DCF5F5F5F5F5F5F5F5F5F5F5F5F5F5F5F5F5F5F5F5F5ECF5F5F5F5E2E2F5F5F5F5F5F5F5F5F5F5F5F5F5F5F5F5F5F5F5F5F5E2E2F5F5F5F5F5F5F5F5F5F5F5F5F5F5F5F5F5F5F5F5F5E2F5F5F5F5F5F5F5F5F5F5F5F5F5F5F5F5F5F5F5F5F5F5F5F5F5F5F5F5F5F5F5F5F5F5F5F5F5F5F5F5F5F5F5F5F5F5F5F5F5F5
310
F5F5F5F5F5F5F5F5F5F5F5F5F5F5F5F5F5F5F5F5F5F5F5F5F5F5F5F5E2E2E2E2E2E2ECE2E2E2E2E2E2E2E2E2ECECECECECECE2ECECECECECDCECECECECECE2ECECECECECECE2E2E2E2E2E2E2E2ECE2E2E2E2E2E2E2F5F5F5F5F5F5F5F5F5F5F5F5F5F5F5F5F5F5F5F5F5E2E2F5F5F5F5F5F5F5F5F5F5F5F5F5F5F5F5F5F5F5
310
F5F5E2F5F5F5F5F5F5F5F5F5F5F5F5F5F5F5F5F5F5F5F5F5F5F5F5F5F5F5F5F5F5F5F5F5F5F5F5F5F5F5F5F5F5F5F5F5F5F5F5F5F5F5F5F5F5F5F5F5F5F5F5F5F5F5F5F5F5F5F5F5F5F5F5F5F5F5F5F5F5E2F5F5F5F5F5F5F5F5F5F5F5F5F5F5F5ECF5F5F5F5F5F5F5F5F5F5F5DCF5F5F5F5F5F5F5F5F5F5ECF5F5F5F5F5F5
310
F5F5F5F5F5F5F5F5F5E2E2F5F5F5F5F5F5F5F5F5F5F5F5F5F5F5F5F5F5F5F5F5E2E2F5F5F5F5E2F5F5F5F5F5F5F5F5F5F5F5F5F5F5F5F5E2F5F5F5F5F5F5F5F5F5F5F5F5F5F5F5F5F5F5F5F5F5F5F5F5F5F5F5F5F5F5F5F5F5F5F5F5F5F5F5F5F5F5F5F5F5F5F5F5F5F5F5F5F5F5F5F5F5F5F5F5F5F5F5F5F5F5F5F5F5F5F5
310
F5F5F5F5F5F5F5E2F5F5F5F5F5F5F5F5F5F5F5F5F5F5F5ECECECECECECECECECECECECECECECECECECECECECECECECF5F5F5F5F5F5F5F5F5F5F5F5F5F5F5E2E2F5F5F5F5F5F5F5F5F5F5F5F5F5F5F5F5E2F5F5F5F5E2E2F5F5F5F5E2F5F5F5F5F5F5F5F5F5F5F5F5F5F5F5F5E2F5F5F5F5F5F5F5F5F5F5F5F5F5F5F5F5F5F5
310
F5F5F5F5F5F5F5F5F5F5F5F5F5F5F5F5F5F5F5F5F5F5F5F5F5F5F5F5F5F5F5F5F5F5F5F5F5F5F5F5F5F5F5F5F5F5F5F5F5F5F5F5F5F5F5F5F5F5F5F5F5E2F5F5F5F5F5F5F5F5F5F5F5F5F5F5F5F5F5F5F5ECF5F5F5F5F5F5DCF5F5F5F5F5ECF5F5F5F5F5F5F5F5F5F5F5F5F5F5F5F5F5F5F5F5E2E2F5F5F5F5F5F5F5F5F5F5
310
F5F5F5F5F5F5E2F5F5F5F5E2E2F5F5F5F5E2F5F5F5F5F5F5F5F5F5F5F5F5F5F5F5F5E2F5F5F5F5F5F5F5F5F5F5F5F5F5F5F5F5F5F5F5F5F5F5F5F5F5F5F5F5F5F5F5F5F5F5F5F5F5F5F5F5F5F5F5F5F5F5F5F5F5F5F5F5F5F5F5F5F5F5F5F5F5F5F5F5F5F5F5F5F5F5F5F5F5F5F5F5F5F5F5F5E2F5F5F5F5F5F5F5F5F5F5F5
310
F5F5F5F5F5ECECECECECECF5ECECECECECF5ECECECECECF5F5F5F5F5F5F5F5F5F5F5F5F5F5F5F5F5E2F5E2F5F5F5F5F5F5F5F5F5F5F5F5F5F5F5F5E2F5F5F5F5E2E2F5F5F5F5E2F5F5F5F5F5F5F5F5F5F5F5F5F5F5F5F5E2F5F5F5F5F5F5F5F5F5F5F5F5F5F5F5F5F5F5F5F5F5F5F5F5F5F5F5F5F5F5F5F5F5F5F5F5F5F5F5
310
F5F5F5F5F5F5F5F5F5F5F5F5F5F5F5F5F5F5F5F5F5F5F5F5F5F5F5F5F5F5F5F5F5F5F5F5F5F5F5F5F5F5E2E2F5F5F5F5F5F5F5F5F5F5F5F5F5F5ECF5F5F5F5F5F5F5F5DCF5F5F5F5F5F5F5ECF5F5F5F5F5F5F5F5F5F5F5F5F5F5F5E2E2F5F5E2F5F5F5F5F5F5F5F5F5F5F5F5F5F5F5F5E2F5F5F5F5E2E2F5F5F5F5E2F5F5F5
310
F5F5F5F5F5F5F5F5F5F5F5F5F5E2F5F5F5F5F5F5F5F5F5F5F5F5F5F5F5F5F5F5F5F5F5F5F5F5F5F5F5F5F5F5F5F5F5F5F5F5F5F5F5F5F5F5F5F5F5F5F5F5F5F5F5F5F5F5F5F5F5F5F5F5F5F5F5F5F5F5F5F5F5F5F5F5F5F5F5F5F5F5F5F5F5F5F5E2F5F5F5F5F5F5F5F5F5F5F5F5F5ECF5F5F5F5F5F5F5F5DCF5F5F5F5F5F5
310
F5ECF5F5F5F5F5F5F5F5F5F5F5F5F5E2E2F5F5F5F5E2F5F5F5F5F5F5F5F5F5F5F5F5F5F5F5F5E2F5F5F5F5E2E2F5F5F5F5E2F5F5F5F5F5F5F5F5F5F5F5F5F5F5F5F5E2F5F5F5F5F5F5F5F5F5F5F5F5F5F5F5F5F5F5F5F5F5F5F5F5F5F5F5F5F5F5F5F5F5F5F5F5F5F5F5F5F5F5F5F5F5F5F5F5F5F5F5F5F5F5F5F5F5F5F5F5
310
F5F5F5F5F5F5F5F5F5F5F5F5F5F5F5F5F5F5F5F5F5F5F5F5E2E2F5F5F5F5F5F5F5F5F5F5F5ECF5F5F5F5F5F5F5F5DCF5F5F5F5F5F5F5ECF5F5F5F5F5F5F5F5F5F5F5F5E2F5F5F5F5F5F5E2F5F5F5F5F5F5F5F5F5F5F5F5F5F5F5F5E2F5F5F5F5E2E2F5F5F5F5E2F5F5F5F5F5F5F5F5F5F5F5F5F5F5F5F5E2F5F5F5F5F5F5F5
310
F5F5F5F5F5F5F5F5F5F5F5F5F5F5F5F5F5F5F5F5F5F5F5F5F5F5F5F5F5F5F5F5F5F5F5F5F5F5F5F5F5F5F5F5F5F5F5F5F5F5F5F5F5F5F5F5F5F5F5F5F5F5F5F5F5F5F5F5F5F5F5F5F5F5F5F5F5F5F5E2F5F5F5F5F5F5F5F5F5F5ECF5F5F5F5F5F5F5F5DCF5F5F5F5F5F5F5ECF5F5F5F5F5F5F5F5F5F5E2E2F5F5F5F5F5F5F5
310
E2F5F5F5F5F5F5F5F5F5F5F5F5F5F5F5F5E2F5F5F5F5E2E2F5F5F5F5E2F5F5F5F5F5F5F5F5F5F5F5F5F5F5F5F5E2F5F5F5F5F5F5F5F5F5F5F5F5F5F5F5F5F5F5F5F5F5F5F5F5F5F5F5F5F5F5F5F5F5F5F5F5F5F5F5F5F5F5F5F5F5F5F5F5F5F5F5F5F5F5F5F5F5F5F5F5F5F5F5F5F5F5F5F5F5F5F5F5F5F5F5F5F5F5F5F5F5
310
F5F5F5F5F5F5E2E2F5F5F5F5F5F5F5F5F5ECECECECECF5ECECECECECF5ECECECECECF5F5F5F5F5F5F5F5E2E2F5F5F5F5F5F5F5F5F5E2F5F5F5F5F5F5F5F5F5F5F5F5F5F5F5F5E2F5F5F5F5E2E2F5F5F5F5E2F5F5F5F5F5F5F5F5F5F5F5F5F5F5F5F5E2F5F5F5F5F5F5F5F5F5F5F5F5F5F5F5F5F5F5F5F5F5F5F5F5F5F5F5F5
310
F5F5F5F5F5F5F5F5F5F5F5F5F5F5F5F5F5F5F5F5F5F5F5F5F5F5F5F5F5F5F5F5F5F5F5F5F5F5F5F5F5F5F5F5F5F5F5F5F5F5F5F5F5F5F5F5F5F5F5F5F5E2E2F5F5F5F5F5F5F5ECF5F5F5F5F5F5F5DCF5F5F5F5F5F5F5ECF5F5F5F5F5F5F5E2F5F5F5F5F5F5F5F5F5F5F5E2F5F5F5F5F5F5F5F5F5F5F5F5F5F5F5F5E2F5F5F5
310
F5E2E2F5F5F5F5E2F5F5F5F5F5F5F5F5F5F5F5F5F5F5F5F5E2F5F5F5F5F5F5F5F5F5F5F5F5F5F5F5F5F5F5F5F5F5F5F5F5F5F5F5F5F5F5F5F5F5F5F5F5F5F5F5F5F5F5F5F5F5F5F5F5F5F5F5F5F5F5F5F5F5F5F5F5F5F5F5F5F5F5F5F5F5F5F5F5F5F5F5F5F5F5F5F5F5F5F5F5F5F5F5F5F5F5E2F5F5F5F5F5F5F5ECF5F5F5
310
F5F5F5F5DCF5F5F5F5F5F5F5ECF5F5F5F5F5F5F5E2F5F5F5F5F5F5F5F5F5F5F5E2F5F5F5F5F5F5F5F5F5F5F5F5F5F5F5F5E2F5F5F5F5E2E2F5F5F5F5E2F5F5F5F5F5F5F5F5F5F5F5F5F5F5F5F5E2F5F5F5F5F5F5F5F5F5F5F5F5F5F5F5F5F5F5F5F5F5F5F5F5F5F5F5F5F5F5F5F5F5F5F5F5F5F5F5F5F5F5F5F5F5F5F5F5F5
310
F5F5F5F5F5F5F5F5F5F5F5F5F5F5F5F5F5F5F5F5F5F5F5F5F5F5F5F5F5F5F5F5F5F5F5F5F5F5F5F5F5E2F5F5F5F5F5F5F5ECF5F5F5F5F5F5F5DCF5F5F5F5F5F5F5ECF5F5F5F5F5F5F5E2F5F5F5F5F5F5F5F5F5F5F5E2F5F5F5F5F5F5F5F5F5F5F5F5F5F5F5F5E2F5F5F5F5E2E2F5F5F5F5E2F5F5F5F5F5F5F5F5F5F5F5F5F5
310
F5F5F5E2F5F5F5F5F5F5F5F5F5F5F5F5F5F5F5F5F5F5F5F5F5F5F5F5F5F5F5F5F5F5F5F5F5F5F5F5F5F5F5F5F5F5F5F5F5F5F5F5F5F5F5F5F5F5F5F5F5F5F5F5F5F5F5F5F5F5F5F5F5F5F5F5F5F5F5F5F5F5F5F5F5F5F5F5F5F5F5F5F5F5E2F5F5F5F5F5F5F5ECF5F5F5F5E2E2E2E2E2E2E2F5F5F5F5ECF5F5F5F5F5F5F5E2
310
F5F5F5F5F5F5F5F5F5F5F5E2F5F5F5F5F5F5F5F5F5F5F5F5F5F5F5F5E2F5F5F5F5E2E2F5F5F5F5E2F5F5F5F5F5F5F5F5F5F5F5F5F5F5F5F5E2F5F5F5F5F5F5F5F5F5F5F5F5F5F5F5F5F5F5F5F5F5F5F5F5F5F5F5F5F5F5F5F5F5F5F5F5F5F5F5F5F5F5F5F5F5F5F5F5F5F5F5F5F5F5F5F5F5F5F5F5F5F5F5F5F5F5F5F5F5F5
310
F5F5F5F5F5F5F5F5F5F5F5F5F5F5F5F5F5F5F5F5E2F5F5F5F5F5F5F5ECECECECECECF5F5DCF5F5ECECECECECECF5F5F5F5F5F5F5E2F5F5F5F5F5F5F5F5F5F5F5E2F5F5F5F5F5F5F5F5F5F5F5F5F5F5F5F5E2F5F5F5F5E2E2F5F5F5F5E2F5F5F5F5F5F5F5F5F5F5F5F5F5F5F5F5E2F5F5F5F5F5F5F5F5F5F5F5F5F5F5F5F5F5
310
F5F5F5F5F5F5F5F5F5F5F5F5F5F5F5F5F5F5F5F5F5F5F5F5F5F5F5F5F5F5F5F5F5F5F5F5F5F5F5F5F5F5F5F5F5F5F5F5F5F5F5F5F5F5F5F5F5F5F5F5F5F5F5F5F5F5F5F5F5F5F5F5F5E2F5F5F5F5F5F5F5ECF5F5F5F5E2F5F5DCF5F5E2F5F5F5F5ECF5F5F5F5F5F5F5E2F5F5F5F5F5F5F5F5F5F5F5E2F5F5F5F5F5F5F5F5F5
310
F5F5F5F5F5F5F5E2F5F5F5F5E2E2F5F5F5F5E2F5F5F5F5F5F5F5F5F5F5F5F5F5F5F5F5E2F5F5F5F5F5F5F5F5F5F5F5F5F5F5F5F5F5F5F5F5F5F5F5F5F5F5F5F5F5F5F5F5F5F5F5F5F5F5F5F5F5F5F5F5F5F5F5F5F5F5F5F5F5F5F5F5F5F5F5F5F5F5F5F5F5F5F5F5F5F5F5F5F5F5F5F5F5F5F5F5F5F5F5F5F5F5F5F5F5F5E2
310
E2E2E2E2E2E2E2E2E2E2E2E2ECF5F5DCF5F5E2E2E2E2E2E2E2E2E2E2E2E2E2E2F5F5F5F5F5F5F5F5F5F5F5E2F5F5F5F5F5F5F5F5F5F5F5F5F5F5F5F5E2F5F5F5F5E2E2F5F5F5F5E2F5F5F5F5F5F5F5F5F5F5F5F5F5F5F5F5E2F5F5F5F5F5F5F5F5F5F5F5F5F5F5F5F5F5F5F5F5F5F5F5F5F5F5F5F5F5F5F5F5F5F5F5F5F5F5
310
F5F5F5F5F5F5F5F5F5F5F5F5F5F5F5F5F5F5F5F5F5F5F5F5F5F5F5F5F5F5F5F5F5F5F5F5F5F5F5F5F5F5F5F5F5F5F5F5F5F5F5F5F5F5F5F5F5F5F5F5F5F5F5F5F5F5F5F5DCF5F5F5F5F5F5F5F5F5F5F5F5F5F5F5F5F5F5F5F5F5F5F5F5F5F5F5E2F5F5F5F5F5F5F5F5F5F5F5F5F5F5F5F5E2F5F5F5F5E2E2F5F5F5F5F5F5F5
310
F5F5F5F5F5F5F5F5F5F5F5F5F5F5E2F5F5F5F5F5F5F5F5F5F5F5F5F5F5F5F5F5F5F5F5F5F5F5F5F5F5F5F5F5F5F5F5F5F5F5F5F5F5F5F5F5F5F5F5F5F5F5F5F5F5F5F5F5F5F5F5F5F5F5F5F5F5F5F5F5F5F5F5F5F5F5F5F5F5F5F5F5F5F5F5F5F5F5F5F5F5F5F5F5F5F5F5F5F5F5F5F5F5F5F5F5F5F5F5F5F5F5F5F5F5F5F5
310
F5F5F5F5F5F5F5F5F5F5F5F5F5F5F5F5F5F5F5F5F5F5E2F5F5F5F5F5F5F5F5F5F5F5F5F5F5F5F5F5F5F5F5F5E2E2F5F5F5F5F5F5F5F5F5F5F5F5F5F5F5F5F5F5F5F5F5E2F5F5F5F5F5F5F5F5F5F5F5F5F5F5F5F5F5F5F5F5F5F5F5F5F5F5F5F5F5F5F5F5F5F5F5F5F5F5F5F5F5F5F5F5F5F5F5F5F5F5F5F5F5F5F5F5F5F5F5
310
F5F5F5F5F5F5F5F5F5F5F5F5F5F5F5F5F5F5F5F5F5F5F5F5F5F5F5F5F5F5F5F5F5F5F5F5F5F5F5F5F5F5F5F5F5F5F5F5F5F5F5F5F5F5F5F5F5F5F5F5F5F5F5F5F5F5F5F5F5F5F5F5F5F5F5E2F5F5F5F5F5F5F5F5F5F5F5F5F5F5F5F5F5F5F5F5F5E2E2F5F5F5F5F5F5F5F5F5F5F5F5F5F5F5F5F5F5F5F5F5E2F5F5F5F5F5F5
310
F5F5F5F5F5F5F5F5F5F5F5F5F5F5F5F5F5F5F5F5F5F5F5F5F5F5F5F5F5F5F5F5F5F5F5F5F5F5F5F5F5F5F5F5F5F5F5F5F5F5F5F5F5F5F5F5F5F5F5F5F5F5F5F5F5F5F5F5F5F5F5F5F5F5F5F5F5F5F5F5F5F5F5F5F5F5F5F5F5F5F5F5F5F5F5F5F5F5F5F5F5F5F5F5F5F5F5F5F5F5F5F5F5F5F5F5F5F5F5F5F5F5F5F5F5F5F5
310
F5E2F5F5F5F5F5F5F5F5F5F5F5F5F5F5F5F5F5F5F5F5F5E2E2F5F5F5F5F5F5F5F5F5F5F5F5F5F5F5F5F5F5F5F5F5E2F5F5F5F5F5F5F5F5F5F5F5F5F5F5F5F5F5F5F5F5F5F5F5F5F5F5F5F5F5F5F5F5F5F5F5F5F5F5F5F5F5F5F5F5F5F5F5F5F5F5F5F5F5F5F5F5F5F5F5F5F5F5F5F5F5F5F5F5F5F5F5F5F5F5F5F5F5F5F5F5
310
F5F5F5F5F5F5F5F5F5F5F5F5F5F5F5F5F5F5F5F5F5F5F5F5F5F5F5F5F5F5F5F5F5F5F5F5F5F5F5F5F5F5F5F5F5F5F5F5F5F5F5F5F5F5E2F5F5F5F5F5F5F5F5F5F5F5F5F5F5F5F5F5F5F5F5F5E2E2F5F5F5F5F5F5F5F5F5F5F5F5F5F5F5F5F5F5F5F5F5E2F5F5F5F5F5F5F5F5F5F5F5F5F5F5F5F5F5F5F5F5F5F5F5F5F5F5F5
310
F5F5F5F5F5F5F5F5F5F5F5F5F5F5F5F5F5F5F5F5F5F5F5F5F5F5F5F5F5F5F5F5F5F5F5F5F5F5F5F5F5F5F5F5F5F5F5F5F5F5F5F5F5F5F5F5F5F5F5F5F5F5F5F5F5F5F5F5F5F5F5F5F5F5F5F5F5F5F5F5F5F5F5F5F5F5F5F5F5F5F5F5F5F5F5F5F5F5F5F5F5F5F5F5F5F5F5E2F5F5F5F5F5F5F5F5F5F5F5F5F5F5F5F5F5F5F5
310
F5F5E2E2F5F5F5F5F5F5F5F5F5F5F5F5F5F5F5F5F5F5F5F5F5E2F5F5F5F5F5F5F5F5F5F5F5F5F5F5F5F5F5F5F5F5F5F5F5F5F5F5F5F5F5F5F5F5F5F5F5F5F5F5F5F5F5F5F5F5F5F5F5F5F5F5F5F5F5F5F5F5F5F5F5F5F5F5F5F5F5F5F5F5F5F5F5F5F5F5F5F5F5F5F5F5F5F5F5F5F5F5F5F5F5F5F5F5F5F5F5F5F5F5F5F5F5
310
F5F5F5F5F5F5F5F5F5F5F5F5F5F5F5F5F5F5F5F5F5F5F5F5F5F5F5F5F5F5F5F5F5E2F5F5F5F5F5F5F5F5F5F5F5F5F5F5F5F5F5F5F5F5F5E2E2F5F5F5F5F5F5F5F5F5F5F5F5F5F5F5F5F5F5F5F5F5E2F5F5F5F5F5F5F5F5F5F5F5F5F5F5F5F5F5F5F5F5F5F5F5F5F5F5F5F5F5F5F5F5F5F5F5F5F5F5F5F5F5F5F5F5F5F5F5F5
310
F5F5F5F5F5F5F5F5F5F5F5F5F5F5F5F5F5F5F5F5F5F5F5F5F5F5F5F5F5F5F5F5F5F5F5F5F5F5F5F5F5F5F5F5F5F5F5F5F5F5F5F5F5F5F5F5F5F5F5F5F5F5F5F5F5F5F5F5F5F5F5F5F5F5F5F5F5F5F5F5F5F5F5F5F5F5E2F5F5F5F5F5F5F5F5F5F5F5F5F5F5F5F5F5F5F5F5F5E2E2F5F5F5F5F5F5F5F5F5F5F5F5F5F5F5F5F5
310
F5F5F5F5E2F5F5F5F5F5F5F5F5F5F5F5F5F5F5F5F5F5F5F5F5F5F5F5F5F5F5F5F5F5F5F5F5F5F5F5F5F5F5F5F5F5F5F5F5F5F5F5F5F5F5F5F5F5F5F5F5F5F5F5F5F5F5F5F5F5F5F5F5F5F5F5F5F5F5F5F5F5F5F5F5F5F5F5F5F5F5F5F5F5F5F5F5F5F5F5F5F5F5F5F5F5F5F5F5F5F5F5F5F5F5F5F5F5F5F5F5F5F5F5F5F5F5
310
F5F5F5F5F5F5F5F5F5F5F5F5E2F5F5F5F5F5F5F5F5F5F5F5F5F5F5F5F5F5F5F5F5F5E2E2F5F5F5F5F5F5F5F5F5F5F5F5F5F5F5F5F5F5F5F5F5E2F5F5F5F5F5F5F5F5F5F5F5F5F5F5F5F5F5F5F5F5F5F5F5F5F5F5F5F5F5F5F5F5F5F5F5F5F5F5F5F5F5F5F5F5F5F5F5F5F5F5F5F5F5F5F5F5F5F5F5F5F5F5F5F5F5F5F5F5F5
310
F5F5F5F5F5F5F5F5F5F5F5F5F5F5F5F5F5F5F5F5F5F5F5F5F5F5F5F5F5F5F5F5F5F5F5F5F5F5F5F5F5F5F5F5F5F5F5F5F5F5F5F5F5F5F5F5F5F5F5F5F5F5F5F5F5E2F5F5F5F5F5F5F5F5F5F5F5F5F5F5F5F5F5F5F5F5F5E2E2F5F5F5F5F5F5F5F5F5F5F5F5F5F5F5F5F5F5F5F5F5E2F5F5F5F5F5F5F5F5F5F5F5F5F5F5F5F5
310
F5F5F5F5F5F5F5F5F5F5F5F5F5F5F5F5F5F5F5F5F5F5F5F5F5F5F5F5F5F5F5F5F5F5F5F5F5F5F5F5F5F5F5F5F5F5F5F5F5F5F5F5F5F5F5F5F5F5F5F5F5F5F5F5F5F5F5F5F5F5F5F5F5F5F5F5F5F5F5F5F5F5F5F5F5F5F5F5F5F5F5F5F5F5F5F5F5F5F5F5F5F5F5F5F5F5F5F5F5F5F5F5F5F5F5F5F5F5E2F5F5F5F5F5F5F5F5
310
F5F5F5F5F5F5F5F5F5F5F5F5F5E2E2F5F5F5F5E2F5F5F5F5F5F5F5F5F5F5F5F5F5F5F5F5E2F5F5F5F5F5F5F5F5F5F5F5F5F5F5F5F5F5F5F5F5F5F5F5F5F5F5F5F5F5F5F5F5F5F5F5F5F5F5F5F5F5F5F5F5F5F5F5F5F5F5F5F5F5F5F5F5F5F5F5F5F5F5F5F5F5F5F5F5F5F5F5F5F5F5F5F5F5F5F5F5F5F5F5F5F5F5F5F5F5F5
310
F5F5F5F5F5F5F5F5F5F5F5F5F5F5F5F5F5F5F5F5F5F5F5F5F5F5F5F5F5F5F5F5F5F5F5F5F5F5F5F5F5F5F5F5E2F5F5F5F5F5F5F5F5F5F5F5F5F5F5F5F5E2F5F5F5F5E2E2F5F5F5F5E2F5F5F5F5F5F5F5F5F5F5F5F5F5F5F5F5E2F5F5F5F5F5F5F5F5F5F5F5F5F5F5F5F5F5F5F5F5F5F5F5F5F5F5F5F5F5F5F5F5F5F5F5F5F5
310
F5F5F5F5F5F5F5F5F5F5F5F5F5F5F5F5F5F5F5F5F5F5F5F5F5F5F5F5F5F5F5F5F5F5F5F5F5F5F5F5F5F5F5F5F5F5F5F5F5F5F5F5F5F5F5F5F5F5F5F5F5F5F5F5F5F5F5F5F5F5F5F5F5F5F5F5F5F5F5F5F5F5F5F5F5F5F5F5F5F5F5F5F5F5F5F5F5E2F5F5F5F5F5F5F5F5F5F5F5F5F5F5F5F5E2F5F5F5F5E2E2F5F5F5F5E2F5
310
F5F5F5F5F5F5F5F5F5F5F5F5F5F5F5E2F5F5F5F5F5F5F5F5F5F5F5F5F5F5F5F5F5F5F5F5F5F5F5F5F5F5F5F5F5F5F5F5F5F5F5F5F5F5F5F5F5F5F5F5F5F5F5F5F5F5F5F5F5F5F5F5F5F5F5F5F5F5F5F5F5F5F5F5F5F5F5F5F5F5F5F5F5F5F5F5F5F5F5F5F5F5F5F5F5F5F5F5F5F5F5F5F5F5F5F5F5F5F5F5F5F5F5F5F5F5F5
310
F5F5F5F5F5F5F5F5F5F5F5F5F5F5F5F5F5F5F5F5F5F5F5E2F5F5F5F5F5F5F5F5F5F5F5F5F5F5F5F5E2F5F5F5F5E2E2F5F5F5F5E2F5F5F5F5F5F5F5F5F5F5F5F5F5F5F5F5E2F5F5F5F5F5F5F5F5F5F5F5F5F5F5F5F5F5F5F5F5F5F5F5F5F5F5F5F5F5F5F5F5F5F5F5F5F5F5F5F5F5F5F5F5F5F5F5F5F5F5F5F5F5F5F5F5F5F5
310
F5F5F5F5F5F5F5F5F5F5F5F5F5F5F5F5F5F5F5F5F5F5F5F5F5F5F5F5F5F5F5F5F5F5F5F5F5F5F5F5F5F5F5F5F5F5F5F5F5F5F5F5F5F5F5F5F5F5F5F5F5F5F5F5F5F5F5F5F5F5F5F5F5F5F5F5E2F5F5F5F5F5F5F5F5F5F5F5F5F5F5F5F5E2F5F5F5F5E2E2F5F5F5F5E2F5F5F5F5F5F5F5F5F5F5F5F5F5F5F5F5E2F5F5F5F5F5
310
F5F5F5F5F5F5F5F5F5F5F5F5F5F5F5F5F5F5F5F5F5F5F5F5F5F5F5F5F5F5F5F5F5F5F5F5F5F5F5F5F5F5F5F5F5F5F5F5F5F5F5F5F5F5F5F5F5F5F5F5F5F5F5F5F5F5F5F5F5F5F5F5F5F5F5F5F5F5F5F5F5F5F5F5F5F5F5F5F5F5F5F5F5F5F5F5F5F5F5F5F5F5F5F5F5F5F5F5F5F5F5F5F5F5F5F5F5F5F5F5F5F5F5F5F5F5F5
310
F5F5E2F5F5F5F5F5F5F5F5F5F5F5F5F5F5F5F5E2F5F5F5F5E2E2F5F5F5F5E2F5F5F5F5F5F5F5F5F5F5F5F5F5F5F5F5E2F5F5F5F5F5F5F5F5F5F5F5F5F5F5F5F5F5F5F5F5F5F5F5F5F5F5F5F5F5F5F5F5F5F5F5F5F5F5F5F5F5F5F5F5F5F5F5F5F5F5F5F5F5F5F5F5F5F5F5F5F5F5F5F5F5F5F5F5F5F5F5F5F5F5F5F5F5F5F5
310
F5F5F5F5F5F5F5F5F5F5F5F5F5F5F5F5F5F5F5F5F5F5F5F5F5F5F5F5F5F5F5F5F5F5F5F5F5F5F5F5F5F5F5F5F5F5F5F5F5F5F5F5F5F5F5E2F5F5F5F5F5F5F5F5F5F5F5F5F5F5F5F5E2F5F5F5F5E2E2F5F5F5F5E2F5F5F5F5F5F5F5F5F5F5F5F5F5F5F5F5E2F5F5F5F5F5F5F5F5F5F5F5F5F5F5F5F5F5F5F5F5F5F5F5F5F5F5
310
F5F5F5F5F5F5F5F5F5F5F5F5F5F5F5F5F5F5F5F5F5F5F5F5F5F5F5F5F5F5F5F5F5F5F5F5F5F5F5F5F5F5F5F5F5F5F5F5F5F5F5F5F5F5F5F5F5F5F5F5F5F5F5F5F5F5F5F5F5F5F5F5F5F5F5F5F5F5F5F5F5F5F5F5F5F5F5F5F5F5F5F5F5F5F5F5F5F5F5F5F5F5F5F5F5F5F5F5E2F5F5F5F5F5F5F5F5F5F5F5F5F5F5F5F5E2F5
310
F5F5F5E2E2F5F5F5F5E2F5F5F5F5F5F5F5F5F5F5F5F5F5F5F5F5E2F5F5F5F5F5F5F5F5F5F5F5F5F5F5F5F5F5F5F5F5F5F5F5F5F5F5F5F5F5F5F5F5F5F5F5F5F5F5F5F5F5F5F5F5F5F5F5F5F5F5F5F5F5F5F5F5F5F5F5F5F5F5F5F5F5F5F5F5F5F5F5F5F5F5F5F5F5F5F5F5F5F5F5F5F5F5F5F5F5F5F5F5F5F5F5F5F5F5F5F5
310
F5F5F5F5F5F5F5F5F5F5F5F5F5F5F5F5F5F5F5F5F5F5F5F5F5F5F5F5F5F5F5F5F5F5E2F5F5F5F5F5F5F5F5F5F5F5F5F5F5F5F5E2F5F5F5F5E2E2F5F5F5F5E2F5F5F5F5F5F5F5F5F5F5F5F5F5F5F5F5E2F5F5F5F5F5F5F5F5F5F5F5F5F5F5F5F5F5F5F5F5F5F5F5F5F5F5F5F5F5F5F5F5F5F5F5F5F5F5F5F5F5F5F5F5F5F5F5
310
F5F5F5F5F5F5F5F5F5F5F5F5F5F5F5F5F5F5F5F5F5F5F5F5F5F5F5F5F5F5F5F5F5F5F5F5F5F5F5F5F5F5F5F5F5F5F5F5F5F5F5F5F5F5F5F5F5F5F5F5F5F5F5F5F5F5F5F5F5F5F5F5F5F5F5F5F5F5F5F5F5F5F5F5F5F5F5E2F5F5F5F5F5F5F5F5F5F5F5F5F5F5F5F5E2F5F5F5F5E2E2F5F5F5F5E2F5F5F5F5F5F5F5F5F5F5F5
310
F5F5F5F5F5E2F5F5F5F5F5F5F5F5F5F5F5F5F5F5F5F5F5F5F5F5F5F5F5F5F5F5F5F5F5F5F5F5F5F5F5F5F5F5F5F5F5F5F5F5F5F5F5F5F5F5F5F5F5F5F5F5F5F5F5F5F5F5F5F5F5F5F5F5F5F5F5F5F5F5F5F5F5F5F5F5F5F5F5F5F5F5F5F5F5F5F5F5F5F5F5F5F5F5F5F5F5F5F5F5F5F5F5F5F5F5F5F5F5F5F5F5F5F5F5F5F5
310
F5F5F5F5F5F5F5F5F5F5F5F5F5E2F5F5F5F5F5F5F5F5F5F5F5F5F5F5F5F5E2F5F5F5F5E2E2F5F5F5F5E2F5F5F5F5F5F5F5F5F5F5F5F5F5F5F5F5E2F5F5F5F5F5F5F5F5F5F5F5F5F5F5F5F5F5F5F5F5F5F5F5F5F5F5F5F5F5F5F5F5F5F5F5F5F5F5F5F5F5F5F5F5F5F5F5F5F5F5F5F5F5F5F5F5F5F5F5F5F5F5F5F5F5F5F5F5
310
F5F5F5F5F5F5F5F5F5F5F5F5F5F5F5F5F5F5F5F5F5F5F5F5F5F5F5F5F5F5F5F5F5F5F5F5F5F5F5F5F5F5F5F5F5F5F5F5F5F5F5F5F5F5F5F5F5F5F5F5F5F5F5F5F5F5E2F5F5F5F5F5F5F5F5F5F5F5F5F5F5F5F5E2F5F5F5F5E2E2F5F5F5F5E2F5F5F5F5F5F5F5F5F5F5F5F5F5F5F5F5E2F5F5F5F5F5F5F5F5F5F5F5F5F5F5F5
310
F5F5F5F5F5F5F5F5F5F5F5F5F5F5F5F5F5F5F5F5F5F5F5F5F5F5F5F5F5F5F5F5F5F5F5F5F5F5F5F5F5F5F5F5F5F5F5F5F5F5F5F5F5F5F5F5F5F5F5F5F5F5F5F5F5F5F5F5F5F5F5F5F5F5F5F5F5F5F5F5F5F5F5F5F5F5F5F5F5F5F5F5F5F5F5F5F5F5F5F5F5F5F5F5F5F5F5F5F5F5F5F5F5F5F5F5F5F5F5E2F5F5F5F5F5F5F5
310
F5F5F5F5F5F5F5F5F5E2F5F5F5F5E2E2F5F5F5F5E2F5F5F5F5F5F5F5F5F5F5F5F5F5F5F5F5E2F5F5F5F5F5F5F5F5F5F5F5F5F5F5F5F5F5F5F5F5F5F5F5F5F5F5F5F5F5F5F5F5F5F5F5F5F5F5F5F5F5F5F5F5F5F5F5F5F5F5F5F5F5F5F5F5F5F5F5F5F5F5F5F5F5F5F5F5F5F5F5F5F5F5F5F5F5F5F5F5F5F5F5F5F5F5F5F5F5
310
F5F5F5F5F5F5F5F5F5F5F5F5F5F5F5F5F5F5F5F5F5F5F5F5F5F5F5F5F5F5F5F5F5F5F5F5F5F5F5F5F5F5F5F5F5E2F5F5F5F5F5F5F5F5F5F5F5F5F5F5F5F5E2F5F5F5F5E2E2F5F5F5F5E2F5F5F5F5F5F5F5F5F5F5F5F5F5F5F5F5E2F5F5F5F5F5F5F5F5F5F5F5F5F5F5F5F5F5F5F5F5F5F5F5F5F5F5F5F5F5F5F5F5F5F5F5F5
310
F5F5F5F5F5F5F5F5F5F5F5F5F5F5F5F5F5F5F5F5F5F5F5F5F5F5F5F5F5F5F5F5F5F5F5F5F5F5F5F5F5F5F5F5F5F5F5F5F5F5F5F5F5F5F5F5F5F5F5F5F5F5F5F5F5F5F5F5F5F5F5F5F5F5F5F5F5F5F5F5F5F5F5F5F5F5F5F5F5F5F5F5F5F5F5F5F5F5E2F5F5F5F5F5F5F5F5F5F5F5F5F5F5F5F5E2F5F5F5F5E2E2F5F5F5F5E2
310
F5F5F5F5F5F5F5F5F5F5F5F5F5F5F5F5E2F5F5F5F5F5F5F5F5F5F5F5F5F5F5F5F5F5F5F5F5F5F5F5F5F5F5F5F5F5F5F5F5F5F5F5F5F5F5F5F5F5F5F5F5F5F5F5F5F5F5F5F5F5F5F5F5F5F5F5F5F5F5F5F5F5F5F5F5F5F5F5F5F5F5F5F5F5F5F5F5F5F5F5F5F5F5F5F5F5F5F5F5F5F5F5F5F5F5F5F5F5F5F5F5F5F5F5F5F5F5
310
F5F5F5F5F5F5F5F5F5F5F5F5F5F5F5F5F5F5F5F5F5F5F5F5E2F5F5F5F5F5F5F5F5F5F5F5F5F5F5F5F5E2F5F5F5F5E2E2F5F5F5F5E2F5F5F5F5F5F5F5F5F5F5F5F5F5F5F5F5E2F5F5F5F5F5F5F5F5F5F5F5F5F5F5F5F5F5F5F5F5F5F5F5F5F5F5F5F5F5F5F5F5F5F5F5F5F5F5F5F5F5F5F5F5F5F5F5F5F5F5F5F5F5F5F5F5F5
310
F5F5F5F5F5F5F5F5F5F5F5F5F5F5F5F5F5F5F5F5F5F5F5F5F5F5F5F5F5F5F5F5F5F5F5F5F5F5F5F5F5F5F5F5F5F5F5F5F5F5F5F5F5F5F5F5F5F5F5F5F5F5F5F5F5F5F5F5F5F5F5F5F5F5F5F5F5E2F5F5F5F5F5F5F5F5F5F5F5F5F5F5F5F5E2F5F5F5F5E2E2F5F5F5F5F5F5F5F5F5F5F5F5F5F5F5F5F5F5F5F5F5E2F5F5F5F5
310
F5F5F5F5F5F5F5F5F5F5F5F5F5F5F5F5F5F5F5F5F5F5F5F5F5F5F5F5F5F5F5F5F5F5F5F5F5F5F5F5F5F5F5F5F5F5F5F5F5F5F5F5F5F5F5F5F5F5F5F5F5F5F5F5F5F5F5F5F5F5F5F5F5F5F5F5F5F5F5F5F5F5F5F5F5F5F5F5F5F5F5F5F5F5F5F5F5F5F5F5F5F5F5F5F5F5F5F5F5F5F5F5F5F5F5F5F5F5F5F5F5F5F5F5F5F5F5
310
F5F5F5E2F5F5F5F5F5F5F5F5F5F5F5F5F5F5F5F5F5F5F5F5F5E2E2F5F5F5F5F5F5F5F5F5F5F5F5F5F5F5F5F5F5F5F5F5E2F5F5F5F5F5F5F5F5F5F5F5F5F5F5F5F5F5F5F5F5F5F5F5F5F5F5F5F5F5F5F5F5F5F5F5F5F5F5F5F5F5F5F5F5F5F5F5F5F5F5F5F5F5F5F5F5F5F5F5F5F5F5F5F5F5F5F5F5F5F5F5F5F5F5F5F5F5F5
310
F5F5F5F5F5F5F5F5F5F5F5F5F5F5F5F5F5F5F5F5F5F5F5F5F5F5F5F5F5F5F5F5F5F5F5F5F5F5F5F5F5F5F5F5F5F5F5F5F5F5F5F5F5F5F5F5E2F5F5F5F5F5F5F5F5F5F5F5F5F5F5F5F5F5F5F5F5F5E2E2F5F5F5F5F5F5F5F5F5F5F5F5F5F5F5F5F5F5F5F5F5E2F5F5F5F5F5F5F5F5F5F5F5F5F5F5F5F5F5F5F5F5F5F5F5F5F5
310
F5F5F5F5F5F5F5F5F5F5F5F5F5F5F5F5F5F5F5F5F5F5F5F5F5F5F5F5F5F5F5F5F5F5F5F5F5F5F5F5F5F5F5F5F5F5F5F5F5F5F5F5F5F5F5F5F5F5F5F5F5F5F5F5F5F5F5F5F5F5F5F5F5F5F5F5F5F5F5F5F5F5F5F5F5F5F5F5F5F5F5F5F5F5F5F5F5F5F5F5F5F5F5F5F5F5F5F5F5E2F5F5F5F5F5F5F5F5F5F5F5F5F5F5F5F5F5
310
F5F5F5F5E2E2F5F5F5F5F5F5F5F5F5F5F5F5F5F5F5F5F5F5F5F5F5E2F5F5F5F5F5F5F5F5F5F5F5F5F5F5F5F5F5F5F5F5F5F5F5F5F5F5F5F5F5F5F5F5F5F5F5F5F5F5F5F5F5F5F5F5F5F5F5F5F5F5F5F5F5F5F5F5F5F5F5F5F5F5F5F5F5F5F5F5F5F5F5F5F5F5F5F5F5F5F5F5F5F5F5F5F5F5F5F5F5F5F5F5F5F5F5F5F5F5F5
310
F5F5F5F5F5F5F5F5F5F5F5F5F5F5F5F5F5F5F5F5F5F5F5F5F5F5F5F5F5F5F5F5F5F5F5E2F5F5F5F5F5F5F5F5F5F5F5F5F5F5F5F5F5F5F5F5F5E2E2F5F5F5F5F5F5F5F5F5F5F5F5F5F5F5F5F5F5F5F5F5E2E2E2E2E2E2E2E2E2E2E2E2E2E2E2E2E2E2E2E2E2E2E2E2E2E2E2E2E2E2E2E2E2E2E2E2E2E2E2E2E2E2E2E2E2E2E2
310
E2E2E2E2E2E2E2E2E2E2E2E2E2E2E2E2E2E2E2E2E2E2E2E2E2E2E2E2E2E2E2E2E2E2E2E2E2E2E2E2E2E2E2E2E2E2E2E2E2E2E2E2E2E2E2E2E2E2E2E2E2E2E2E2E2E2E2E2E2E2E2E2E2E2E2E2E2E2E2E2E2E2E2E2E2E2E2E2E2F5F5F5F5F5F5F5F5F5F5F5F5F5F5F5F5F5F5F5F5F5E2E2F5F5F5F5F5F5F5F5F5F5F5F5F5F5F5
310
F5F5F5F5F5F5F5F5F5F5F5F5F5F5F5F5F5F5F5F5F5F5F5F5F5F5F5F5F5F5F5F5F5F5F5F5F5F5F5F5F5F5F5F5F5F5F5F5F5F5F5F5F5F5F5F5F5F5F5F5F5F5F5F5F5F5F5F5F5F5F5F5F5F5F5F5F5F5F5F5F5F5F5F5F5F5F5F5F5F5F5F5F5F5F5F5F5F5F5F5F5F5F5F5F5F5F5F5F5F5F5F5F5F5F5F5F5F5F5F5F5F5F5F5F5F5F5
310
F5F5F5F5F5F5F5F5F5F5F5F5F5F5F5F5F5F5F5F5F5F5F5F5F5F5F5F5F5F5F5F5F5F5F5F5E2E2F5F5F5F5F5F5F5F5F5F5F5F5F5F5F5F5F5F5F5F5F5F5F5F5F5F5F5F5F5F5F5F5F5F5F5F5F5F5F5F5F5F5F5F5F5F5F5F5F5F5F5F5F5F5F5F5F5F5F5F5F5F5F5F5F5F5F5F5F5F5F5F5F5F5F5F5F5F5F5F5F5F5F5F5F5F5F5F5F5
310
F5F5F5F5F5F5F5F5F5F5F5F5F5F5F5F5F5F5F5F5F5F5F5F5F5F5F5F5F5F5F5F5F5F5F5F5F5F5F5F5F5F5F5F5F5F5F5F5F5F5F5F5F5F5F5F5F5F5F5F5F5F5F5F5F5F5F5F5F5F5F5F5F5F5F5F5F5F5F5F5F5F5F5F5F5F5F5F5F5E2E2F5F5F5F5F5F5F5F5F5F5F5F5F5F5F5F5F5F5F5F5F5F5F5F5F5F5F5F5F5F5F5F5F5F5F5F5
310
F5F5F5F5F5F5F5F5F5F5F5F5F5F5F5F5F5F5F5F5F5F5F5F5F5F5F5F5F5F5F5F5F5F5F5F5F5F5F5F5F5F5F5F5F5F5F5F5F5F5F5F5F5F5F5F5F5F5F5F5F5F5F5F5F5F5F5F5F5F5F5F5F5F5F5F5F5F5F5F5F5F5F5F5F5F5F5F5F5F5F5F5F5F5F5F5F5F5F5F5F5F5F5F5F5F5F5F5F5F5F5F5F5F5F5F5F5F5F5F5F5F5F5F5F5F5F5
310
F5F5F5F5F5F5F5F5F5F5F5F5F5F5F5E2E2F5F5F5F5F5F5F5F5F5F5F5F5F5F5F5F5F5F5F5F5F5F5F5F5F5F5F5F5F5F5F5F5F5F5F5F5F5F5F5F5F5F5F5F5F5F5F5F5F5F5F5F5F5F5F5F5F5F5F5F5F5F5F5F5F5F5F5F5F5F5F5F5F5F5F5F5F5F5F5F5F5F5F5F5F5F5F5F5F5F5F5F5F5F5F5F5F5F5F5F5F5F5F5F5F5F5F5F5F5F5
310
F5F5F5F5F5F5F5F5F5F5F5F5F5F5F5F5F5F5F5F5F5F5F5F5F5F5F5F5F5F5F5F5F5F5F5F5F5F5F5F5F5F5F5F5F5F5F5F5F5F5F5F5F5F5F5F5F5F5F5F5F5F5F5F5F5F5F5F5E2E2F5F5F5F5E2F5F5F5F5F5F5F5F5F5F5F5F5F5F5F5F5F5F5F5F5F5F5F5F5F5F5F5F5F5F5F5F5F5F5F5F5F5F5F5F5F5F5F5F5F5F5F5F5F5F5F5F5
310
F5F5F5F5F5F5F5F5F5F5F5F5F5F5F5F5F5F5F5F5F5F5F5F5F5F5F5F5F5F5F5F5F5F5F5F5F5F5F5F5F5F5F5F5F5F5F5F5F5F5F5F5F5F5F5F5F5F5F5F5F5F5F5F5F5F5F5F5F5F5F5F5F5F5F5F5F5F5F5F5F5F5F5F5F5F5F5F5F5F5F5F5F5F5F5F5F5F5F5F5F5F5F5F5F5F5F5F5F5F5F5F5F5F5F5F5E2F5F5F5F5E2E2F5F5F5F5
310
E2F5F5F5F5F5F5F5F5F5F5F5F5F5F5F5F5F5F5F5F5F5F5F5F5F5F5F5F5F5F5F5F5F5F5F5F5F5F5F5F5F5F5F5F5F5F5F5F5F5F5F5F5F5F5F5F5F5F5F5F5F5F5F5F5F5F5F5F5F5F5F5F5F5F5F5F5F5F5F5F5F5F5F5F5F5F5F5F5F5F5F5F5F5F5F5F5F5F5F5F5F5F5F5F5F5F5F5F5F5F5F5F5F5F5F5F5F5F5F5F5F5F5F5F5F5F5
310
F5F5F5F5F5F5F5F5F5F5F5F5F5F5F5F5F5F5F5F5F5F5F5F5F5F5F5F5F5F5F5F5F5F5F5F5F5F5F5F5F5F5E2F5F5F5F5E2E2F5F5F5F5E2F5F5F5F5F5F5F5F5F5F5F5F5F5F5F5F5F5F5F5F5F5F5F5F5F5F5F5F5F5F5F5F5F5F5F5F5F5F5F5F5F5F5F5F5F5F5F5F5F5F5F5F5F5F5F5F5F5F5F5F5F5F5F5F5F5F5F5F5F5F5F5F5F5
310
F5F5F5F5F5F5F5F5F5F5F5F5F5F5F5F5F5F5F5F5F5F5F5F5F5F5F5F5F5F5F5F5F5F5F5F5F5F5F5F5F5F5F5F5F5F5F5F5F5F5F5F5F5F5F5F5F5F5F5F5F5F5F5F5F5F5F5F5F5F5F5F5F5F5F5F5F5F5F5F5F5F5F5F5F5F5F5F5F5F5F5F5F5F5F5E2F5F5F5F5E2E2F5F5F5F5E2F5F5F5F5F5F5F5F5F5F5F5F5F5F5F5F5F5F5F5F5
310
F5F5F5F5F5F5F5F5F5F5F5F5F5F5F5F5F5F5F5F5F5F5F5F5F5F5F5F5F5F5F5F5F5F5F5F5F5F5F5F5F5F5F5F5F5F5F5F5F5F5F5F5F5F5F5F5F5F5F5F5F5F5F5F5F5F5F5F5F5F5F5F5F5F5F5F5F5F5F5F5F5F5F5F5F5F5F5F5F5F5F5F5F5F5F5F5F5F5F5F5F5F5F5F5F5F5F5F5F5F5F5F5F5F5F5F5F5F5F5F5F5F5F5F5F5F5F5
310
F5F5F5F5F5F5F5F5F5F5F5F5F5F5F5F5F5F5F5F5F5E2F5F5F5F5E2E2F5F5F5F5E2F5F5F5F5F5F5F5F5F5F5F5F5F5F5F5F5F5F5F5F5F5F5F5F5F5F5F5F5F5F5F5F5F5F5F5F5F5F5F5F5F5F5F5F5F5F5F5F5F5F5F5F5F5F5F5F5F5F5F5F5F5F5F5F5F5F5F5F5F5F5F5F5F5F5F5F5F5F5F5F5F5F5F5F5F5F5F5F5F5F5F5F5F5F5
310
F5F5F5F5F5F5F5F5F5F5F5F5F5F5F5F5F5F5F5F5F5F5F5F5F5F5F5F5F5F5F5F5F5F5F5F5F5F5F5F5F5F5F5F5F5F5F5F5F5F5F5F5F5F5F5F5F5F5F5F5F5F5F5F5F5F5F5F5F5F5F5F5F5F5E2F5F5F5F5E2E2F5F5F5F5E2F5F5F5F5F5F5F5F5F5F5F5F5F5F5F5F5F5F5F5F5F5F5F5F5F5F5F5F5F5F5F5F5F5F5F5F5F5F5F5F5F5
310
F5F5F5F5F5F5F5F5F5F5F5F5F5F5F5F5F5F5F5F5F5F5F5F5F5F5F5F5F5F5F5F5F5F5F5F5F5F5F5F5F5F5F5F5F5F5F5F5F5F5F5F5F5F5F5F5F5F5F5F5F5F5F5F5F5F5F5F5F5F5F5F5F5F5F5F5F5F5F5F5F5F5F5F5F5F5F5F5F5F5F5F5F5F5F5F5F5F5F5F5F5F5F5F5F5F5F5F5F5F5F5F5F5F5F5F5F5F5F5F5F5F5F5F5F5F5F5
310
E2F5F5F5F5E2E2F5F5F5F5E2F5F5F5F5F5F5F5F5F5F5F5F5F5F5F5F5F5F5F5F5F5F5F5F5F5F5F5F5F5F5F5F5F5F5F5F5F5F5F5F5F5F5F5F5F5F5F5F5F5F5F5F5F5F5F5F5F5F5F5F5F5F5F5F5F5F5F5F5F5F5F5F5F5F5F5F5F5F5F5F5F5F5F5F5F5F5F5F5F5F5F5F5F5F5F5F5F5F5F5F5F5F5F5F5F5F5F5F5F5F5F5F5F5F5F5
310
F5F5F5F5F5F5F5F5F5F5F5F5F5F5F5F5F5F5F5F5F5F5F5F5F5F5F5F5F5F5F5F5F5F5F5F5F5F5F5F5F5F5F5F5F5F5F5F5F5F5F5F5F5E2F5F5F5F5E2E2F5F5F5F5E2F5F5F5F5F5F5F5F5F5F5F5F5F5F5F5F5F5F5F5F5F5F5F5F5F5F5F5F5F5F5F5F5F5F5F5F5F5F5F5F5F5F5F5F5F5F5F5F5F5F5F5F5F5F5F5F5F5F5F5F5F5F5
310
F5F5F5F5F5F5F5F5F5F5F5F5F5F5F5F5F5F5F5F5F5F5F5F5F5F5F5F5F5F5F5F5F5F5F5F5F5F5F5F5F5F5F5F5F5F5F5F5F5F5F5F5F5F5F5F5F5F5F5F5F5F5F5F5F5F5F5F5F5F5F5F5F5F5F5F5F5F5F5F5F5F5F5F5F5F5F5F5F5F5F5F5F5F5F5F5F5F5F5F5F5F5F5F5F5F5E2F5F5F5F5E2E2F5F5F5F5E2E2E2E2E2E2E2E2F5F5
310
F5F5F5F5F5F5F5E2E2E2E2E2E2E2E2E2E2E2E2E2E2E2F5F5F5F5F5F5F5F5F5E2E2E2E2E2E2E2E2E2E2E2E2E2E2E2E2F5F5F5F5F5F5F5F5E2E2E2E2E2E2E2E2E2E2E2E2E2E2E2E2F5F5F5F5F5F5F5F5E2E2E2E2E2E2E2E2E2E2E2E2E2E2E2E2F5F5F5F5F5F5F5F5E2E2E2E2E2E2E2E2E2E2E2E2E2E2E2E2F5F5F5F5F5F5F5F5
310
F5E2E2E2E2E2E2E2E2E2E2E2E2E2E2E2F5F5F5F5F5F5F5F5F5E2E2E2E2E2E2E2E2F5F5F5F5E2E2F5F5F5F5F5F5F5F5F5F5F5F5F5F5F5F5F5F5F5F5F5F5F5F5F5F5F5F5F5F5F5F5F5F5F5F5F5F5F5F5F5F5F5F5F5F5F5F5F5F5F5F5F5F5F5F5F5F5F5F5F5F5F5F5F5F5F5F5F5F5F5F5F5F5F5F5F5F5F5F5F5F5F5F5F5F5F5F5
310
F5F5F5F5F5F5F5F5F5F5F5F5F5F5F5F5F5F5F5F5F5F5F5F5F5F5F5F5F5F5F5F5F5F5F5F5F5F5F5F5F5F5F5F5F5F5F5F5F5F5F5F5F5F5F5F5F5F5F5F5F5F5F5F5F5F5F5F5F5F5F5F5F5F5F5F5F5F5F5F5F5F5F5F5F5F5F5F5F5F5E2E2F5F5F5F5F5F5F5F5F5F5F5F5F5F5F5F5F5F5F5F5F5F5F5F5F5F5F5F5F5F5F5F5F5F5F5
310
F5F5F5F5F5F5F5F5F5F5F5F5F5F5F5F5F5F5F5F5F5F5F5F5F5F5F5F5F5F5F5F5F5F5F5F5F5F5F5F5F5F5F5F5F5F5F5F5F5F5F5F5F5F5F5F5F5F5F5F5F5F5F5F5F5F5F5F5F5F5F5F5F5F5F5F5F5F5F5F5F5F5F5F5F5F5F5F5F5F5F5F5F5F5F5F5F5F5F5F5F5F5F5F5F5F5F5F5F5F5F5F5F5F5F5F5F5F5F5F5F5F5F5F5F5F5F5
310
F5F5F5F5F5F5F5F5F5F5F5F5F5F5F5F5E2E2F5F5F5F5F5F5F5F5F5F5F5F5F5F5F5F5F5F5F5F5F5F5F5F5F5F5F5F5F5F5F5F5F5F5F5F5F5F5F5F5F5F5F5F5F5F5F5F5F5F5F5F5F5F5F5F5F5F5F5F5F5F5F5F5F5F5F5F5F5F5F5F5F5F5F5F5F5F5F5F5F5F5F5F5F5F5F5F5F5F5F5F5F5F5F5F5F5F5F5F5F5F5F5F5F5F5F5F5F5
310
F5F5F5F5F5F5F5F5F5F5F5F5F5F5F5F5F5F5F5F5F5F5F5F5F5F5F5F5F5F5F5F5F5F5F5F5F5F5F5F5F5F5F5F5F5F5F5F5F5F5F5F5F5F5F5F5F5F5F5F5F5F5F5F5F5F5F5F5F5E2E2E2E2E2E2E2E2E2E2E2E2E2E2E2E2E2E2E2E2E2E2E2E2E2E2E2E2E2E2E2E2E2E2E2E2E2E2E2E2E2E2E2E2E2E2E2E2E2E2E2E2E2E2E2E2E2E2
310
E2E2E2E2E2E2E2E2E2E2E2E2E2E2E2E2E2E2E2E2E2E2E2E2E2E2E2E2E2E2E2E2E2E2E2E2E2E2E2E2E2E2E2E2E2E2E2E2E2E2E2E2E2E2E2E2E2E2E2E2E2E2E2E2E2E2E2E2E2E2E2E2E2E2E2E2E2E2E2E2E2E2E2E2E2E2E2E2E2E2E2E2E2E2E2E2E2E2E2E2E2E2E2E2E2E2E2E2E2E2E2E2E2E2E2E2E2E2E2E2E2E2E2EFEFEFEF
310
EFEFEFEFEFEFEFEFEFEFEFEFEFEFEFEFEFEFEFEFEFEFEFEFEFEFEFEFEFEFEFEFEFEFEFEFEFEFEFEFEFEFEFEFEFEFEFEFEFEFEFEFEFEFEFEFEFEFEFEFEFEFEFEFEFEFEFEFEFEFEFEFEFEFEFEFEFEFEFEFEFEFEFEFEFEFEFEFEFEFEFEFEFEFEFEFEFEFEFEFEFEFEFEFEFEFEFEFEFEFEFEFEFEFEFEFEFEFEFEFEFEFEFEFEFEFEF
310
EFEFEFEFEFEFEFEFEFEFEFEFEFEFEFEFEFEFEFEFEFEFEFEFEFEFEFEFEFEFEFEFEFEFEFEFEFEFEFEFEFEFEFEFEFEFEFEFEF
  0
XRECORD
  5
61EAC
102
{ACAD_REACTORS
330
B5
102
}
330
B5
100
AcDbXrecord
280
     1
102
SHADEPLOT
 70
     0
102
SHADEPLOTRESLEVEL
 70
     2
102
SHADEPLOTCUSTOMDPI
 70
   300
  0
XRECORD
  5
B6
102
{ACAD_REACTORS
330
B5
102
}
330
B5
100
AcDbXrecord
280
     1
310
28000000B40000008B0000000100080000000000BC610000000000000000000000010000000000000000000000000000FFFFFF000000000000000000000000000000000000000000000000000000000000000000330000006600000099000000CC000000FF00000000330000333300006633000099330000CC330000FF3300
310
0000660000336600006666000099660000CC660000FF66000000990000339900006699000099990000CC990000FF99000000CC000033CC000066CC000099CC0000CCCC0000FFCC000000FF000033FF000066FF000099FF0000CCFF0000FFFF000000003300330033006600330099003300CC003300FF003300003333003333
310
33006633330099333300CC333300FF33330000663300336633006666330099663300CC663300FF66330000993300339933006699330099993300CC993300FF99330000CC330033CC330066CC330099CC3300CCCC3300FFCC330000FF330033FF330066FF330099FF3300CCFF3300FFFF330000006600330066006600660099
310
006600CC006600FF00660000336600333366006633660099336600CC336600FF33660000666600336666006666660099666600CC666600FF66660000996600339966006699660099996600CC996600FF99660000CC660033CC660066CC660099CC6600CCCC6600FFCC660000FF660033FF660066FF660099FF6600CCFF6600
310
FFFF660000009900330099006600990099009900CC009900FF00990000339900333399006633990099339900CC339900FF33990000669900336699006666990099669900CC669900FF66990000999900339999006699990099999900CC999900FF99990000CC990033CC990066CC990099CC9900CCCC9900FFCC990000FF99
310
0033FF990066FF990099FF9900CCFF9900FFFF99000000CC003300CC006600CC009900CC00CC00CC00FF00CC000033CC003333CC006633CC009933CC00CC33CC00FF33CC000066CC003366CC006666CC009966CC00CC66CC00FF66CC000099CC003399CC006699CC009999CC00CC99CC00FF99CC0000CCCC0033CCCC0066CC
310
CC0099CCCC00CCCCCC00FFCCCC0000FFCC0033FFCC0066FFCC0099FFCC00CCFFCC00FFFFCC000000FF003300FF006600FF009900FF00CC00FF00FF00FF000033FF003333FF006633FF009933FF00CC33FF00FF33FF000066FF003366FF006666FF009966FF00CC66FF00FF66FF000099FF003399FF006699FF009999FF00CC
310
99FF00FF99FF0000CCFF0033CCFF0066CCFF0099CCFF00CCCCFF00FFCCFF0000FFFF0033FFFF0066FFFF0099FFFF00CCFFFF00FFFFFF00000000000D0D0D001A1A1A00282828003535350043434300505050005D5D5D006B6B6B00787878008686860093939300A1A1A100AEAEAE00BBBBBB00C9C9C900D6D6D600E4E4E400
310
F1F1F100FFFFFF0000000000000000000000000000000000000000000000000000000000000000000000000000000000F5F5F5F5F5F5F5F5F5F5F5F5F5F5F5F5F5F5F5F5F5F5F5F5F5F5F5F5F5F5F5F5F5F5F5F5F5F5F5F5F5F5F5F5F5F5F5F5F5F5F5F5F5F5F5F5F5F5F5F5F5F5F5F5F5F5F5F5F5F5F5F5F5F5F5F5F5F5F5
310
F5F5F5F5F5F5F5F5F5F5F5F5F5F5F5F5F5F5F5F5F5F5F5F5F5F5F5F5F5F5F5F5F5F5F5F5F5F5F5F5F5F5F5F5F5F5F5F5F5F5F5F5F5F5F5F5F5F5F5F5F5F5F5F5F5F5F5F5F5F5F5F5F5F5F5F5F5F5F5F5F5F5F5F5F5F5F5F5F5F5F5F5F5F5F5F5F5F5F5F5F5F5E2E2E2E2E2E2E2E2E2E2E2E2E2E2E2E2E2E2E2E2E2E2E2E2E2
310
E2E2E2E2E2E2E2E2E2E2E2E2E2E2E2E2E2E2E2E2E2E2E2E2E2E2E2E2E2E2E2E2E2E2E2E2E2E2E2E2E2E2E2E2E2E2E2E2E2E2E2E2E2E2E2E2E2E2E2E2E2E2E2E2E2E2E2E2E2E2E2E2E2E2E2E2E2E2E2E2E2E2E2E2E2E2E2E2E2E2E2E2E2E2E2E2E2E2E2E2E2E2E2E2E2E2E2E2E2E2E2E2E2E2E2E2E2E2E2E2E2E2E2E2E2E2E2
310
E2E2E2E2E2E2E2E2E2E2E2E2E2E2E2E2E2E2E2E2E2E2E2E2E2E2F5F5E2E2E2E2E2E2E2E2E2E2E2E2E2E2E2E2E2E2E2E2E2E2E2E2E2E2E2E2E2E2E2E2E2E2E2E2E2E2E2E2E2E2E2E2E2E2E2E2E2E2E2E2E2E2E2E2E2E2E2E2E2E2E2E2E2E2E2E2E2E2E2E2E2E2E2E2E2E2E2E2E2E2E2E2E2E2E2E2E2E2E2E2E2E2E2E2E2E2E2
310
E2E2E2E2E2E2E2E2E2E2E2E2E2E2E2E2E2E2E2E2E2E2E2E2E2E2E2E2E2E2E2E2E2E2E2E2E2E2E2E2E2E2E2E2E2E2E2E2E2E2E2E2E2E2E2E2E2E2E2E2E2E2E2E2E2E2E2E2E2E2E2E2E2E2E2E2E2E2E2F5F5E2E2E2E2E2E2E2E2E2E2E2E2E2E2E2E2E2E2E2E2E2E2E2E2E2E2E2E2E2E2E2E2E2E2E2E2E2E2E2E2E2E2E2E2E2E2
310
E2E2E2E2E2E2E2E2E2E2E2E2E2E2E2E2E2E2E2E2E2E2E2E2E2E2E2E2E2E2E2E2E2E2E2E2E2E2E2E2E2E2E2E2E2E2E2E2E2E2E2E2E2E2E2E2E2E2E2E2E2E2E2E2E2E2E2E2E2E2E2E2E2E2E2E2E2E2E2E2E2E2E2E2E2E2E2E2E2E2E2E2E2E2E2E2E2E2E2E2E2E2E2E2E2E2E2E2E2E2E2E2E2E2E2E2E2E2E2E2E2E2E2E2E2E2E2
310
E2E2E2E2E2F5F5E2E2E2E2E2E2E2E2E2E2E2E2E2E2E2E2E2E2E2E2E2E2E2E2E2E2E2E2E2E2E2E2E2E2E2E2E2E2E2E2E2E2E2E2E2E2E2E2E2E2E2E2E2E2E2E2E2E2E2E2E2E2E2E2E2E2E2E2E2E2E2E2E2E2E2E2E2E2E2E2E2E2E2E2E2E2E2E2E2E2E2E2E2E2E2E2E2E2E2E2E2E2E2E2E2E2E2E2E2E2E2E2E2E2E2E2E2E2E2E2
310
E2E2E2E2E2E2E2E2E2E2E2E2E2E2E2E2E2E2E2E2E2E2E2E2E2E2E2E2E2E2E2E2E2E2E2E2E2E2E2E2E2E2E2E2E2E2E2E2E2E2E2E2E2E2E2E2E2E2F5F5E2E2E2F5F5F5F5F5F5F5F5E2E2E2E2E2E2E2E2E2F5F5F5F5F5F5F5F5F5F5F5F5F5F5F5F5E2E2E2E2E2E2E2E2E2F5F5F5F5F5F5F5F5F5F5F5F5F5F5F5E2E2E2E2E2E2E2
310
E2E2F5F5F5F5F5F5F5F5F5F5F5F5F5F5F5F5E2E2E2E2E2E2E2E2F5F5F5F5F5F5F5F5F5F5F5F5F5F5F5F5E2E2E2E2E2E2E2E2E2F5F5F5F5F5F5F5F5F5F5F5F5F5F5F5E2E2E2E2E2E2E2E2E2F5F5F5F5F5F5F5F5F5F5F5F5F5F5F5F5E2E2E2E2E2E2E2E2E2F5F5F5F5F5F5F5F5E2E2E2F5F5E2E2E2F5E2E2E2E2E2E2E2E2E2E2
310
E2E2E2E2E2E2E2E2E2E2E2E2E2E2E2E2E2E2E2E2E2E2E2E2E2E2E2E2E2E2E2E2E2E2E2E2E2E2E2E2E2E2E2E2E2E2E2E2E2E2E2E2E2E2E2E2E2E2E2E2E2E2E2E2E2E2E2E2E2E2E2E2E2E2E2E2E2E2E2E2E2E2E2E2E2E2E2E2E2E2E2E2E2E2E2E2E2E2E2E2E2E2E2E2E2E2E2E2E2E2E2E2E2E2E2E2E2E2E2E2E2E2E2E2E2E2E2
310
E2E2E2E2E2E2E2E2E2E2E2E2E2E2E2E2E2E2E2E2E2E2E2E2E2E2E2E2E2E2E2E2E2F5E2E2E2F5F5E2E2E2F5E2E2E2E2E2E2E2E2E2E2E2E2E2E2E2E2E2E2E2E2E2E2E2E2E2E2E2E2E2E2E2E2E2E2E2E2E2E2E2E2E2E2E2E2E2E2E2E2E2E2E2E2E2E2E2E2E2E2E2E2E2E2E2E2E2E2E2E2E2E2E2E2E2E2E2E2E2E2E2E2E2E2E2E2
310
E2E2E2E2E2E2E2E2E2E2E2E2E2E2E2E2E2E2E2E2E2E2E2E2E2E2E2E2E2E2E2E2E2E2E2E2E2E2E2E2E2E2E2E2E2E2E2E2E2E2E2E2E2E2E2E2E2E2E2E2E2E2E2E2E2E2E2E2E2E2E2E2E2E2E2E2E2E2E2E2E2E2E2E2E2E2F5E2E2E2F5F5E2E2E2F5E2E2E2E2E2E2E2E2E2E2E2E2E2E2E2E2E2E2E2E2E2E2E2E2E2E2E2E2E2E2E2
310
E2E2E2E2E2E2E2E2E2E2E2E2E2E2E2E2E2E2E2E2E2E2E2E2E2E2E2E2E2E2E2E2E2E2E2E2E2E2E2E2E2E2E2E2E2E2E2E2E2E2E2E2E2E2E2E2E2E2E2E2E2E2E2E2E2E2E2E2E2E2E2E2E2E2E2E2E2E2E2E2E2E2E2E2E2E2E2E2E2E2E2E2E2E2E2E2E2E2E2E2E2E2E2E2E2E2E2E2E2E2E2E2E2E2E2E2E2E2E2E2E2E2E2E2E2E2E2
310
E2E2E2E2E2E2E2E2E2E2E2E2F5E2E2E2F5F5E2E2E2F5E2E2E2E2E2E2E2E2E2E2E2E2E2E2E2E2E2E2E2E2E2E2E2E2E2E2E2E2E2E2E2E2E2E2E2E2E2E2E2E2E2E2E2E2E2E2E2E2E2E2E2E2E2E2E2E2E2E2E2E2E2E2E2E2E2E2E2E2E2E2E2E2E2E2E2E2E2E2E2E2E2E2E2E2E2E2E2E2E2E2E2E2E2E2E2E2E2E2E2E2E2E2E2E2E2
310
E2E2E2E2E2E2E2E2E2E2E2E2E2E2E2E2E2E2E2E2E2E2E2E2E2E2E2E2E2E2E2E2E2E2E2E2E2E2E2E2E2E2E2E2E2E2E2E2E2E2E2E2E2E2E2E2E2E2E2E2E2E2E2E2E2F5E2E2E2F5F5E2E2E2F5E2E2E2E2E2E2E2E2E2E2E2E2E2E2E2E2E2E2E2E2E2E2E2E2E2E2E2E2E2E2E2E2E2E2E2E2E2E2E2E2E2E2E2E2E2E2E2E2E2E2E2E2
310
E2E2E2E2E2E2E2E2E2E2E2E2E2E2E2E2E2E2E2E2E2E2E2E2E2E2E2E2E2E2E2E2E2E2E2E2E2E2E2E2E2E2E2E2E2E2E2E2E2E2E2E2E2E2E2E2E2E2E2E2E2E2E2E2E2E2E2E2E2E2E2E2E2E2E2E2E2E2E2E2E2E2E2E2E2E2E2E2E2E2E2E2E2E2E2E2E2E2E2E2E2E2E2E2E2E2E2E2E2E2E2E2E2E2E2E2E2E2F5E2E2E2F5F5E2E2E2
310
F5E2E2E2E2E2E2E2E2E2E2E2E2E2E2E2E2E2E2E2E2E2E2E2E2E2E2E2E2E2E2E2E2E2E2E2E2E2E2E2E2E2E2E2E2E2E2E2E2E2E2E2E2E2E2E2E2E2E2E2E2E2E2E2E2E2E2E2E2E2E2E2E2E2E2E2E2E2E2E2E2E2E2E2E2E2E2E2E2E2E2E2E2E2E2E2E2E2E2E2E2E2E2E2E2E2E2E2E2E2E2E2E2E2E2E2E2E2E2E2E2E2E2E2E2E2E2
310
E2E2E2E2E2E2E2E2E2E2E2E2E2E2E2E2E2E2E2E2E2E2E2E2E2E2E2E2E2E2E2E2E2E2E2E2E2E2E2E2E2E2E2E2F5E2E2E2F5F5E2E2E2F5E2E2E2E2E2E2E2E2E2E2E2E2E2E2E2E2E2E2E2E2E2E2E2E2E2E2E2E2E2E2E2E2E2E2E2E2E2E2E2E2E2E2E2E2E2E2E2E2E2E2E2E2E2E2E2E2E2E2E2E2E2E2E2E2E2E2E2E2E2E2E2E2E2
310
E2E2E2E2E2E2E2E2E2E2E2E2E2E2E2E2E2E2E2E2E2E2E2E2E2E2E2E2E2E2E2E2E2E2E2E2E2E2E2E2E2E2E2E2E2E2E2E2E2E2E2E2E2E2E2E2E2E2E2E2E2E2E2E2E2E2E2E2E2E2E2E2E2E2E2E2E2E2E2E2E2E2E2E2E2E2E2E2E2E2E2E2E2E2E2E2E2F5E2E2E2F5F5E2E2E2F5E2E2E2E2E2E2E2E2E2E2E2E2E2E2E2E2E2E2E2E2
310
E2E2E2E2E2E2E2E2E2E2E2E2E2E2E2E2E2E2E2E2E2E2E2E2E2E2E2E2E2E2E2E2E2E2E2E2E2E2E2E2E2E2E2E2E2E2E2E2E2E2E2E2E2E2E2E2E2E2E2E2E2E2E2E2E2E2E2E2E2E2E2E2E2E2E2E2E2E2E2E2E2E2E2E2E2E2E2E2E2E2E2E2E2E2E2E2E2E2E2E2E2E2E2E2E2E2E2E2E2E2E2E2E2E2E2E2E2E2E2E2E2E2E2E2E2E2E2
310
E2E2E2E2E2E2E2E2E2E2E2E2E2E2E2E2E2E2E2E2E2E2E2F5E2E2E2F5F5E2E2E2E2E2E2E2E2E2E2E2E2E2E2E2E2E2E2E2E2E2E2E2E2E2E2E2E2E2E2E2E2E2E2E2E2E2E2E2E2E2E2E2E2E2E2E2E2E2E2E2E2E2E2E2E2E2E2E2E2E2E2E2E2E2E2E2E2E2E2E2E2E2E2E2E2E2E2E2E2E2E2E2E2E2E2E2E2E2E2E2E2E2E2E2E2E2E2
310
E2E2E2E2E2E2E2E2E2E2E2E2E2E2E2E2E2E2E2E2E2E2E2E2E2E2E2E2E2E2E2E2E2E2E2E2E2E2E2E2E2E2E2E2E2E2E2E2E2E2E2E2E2E2E2E2E2E2E2E2E2E2E2E2E2E2E2E2E2E2E2E2E2E2E2E2E2E2E2E2F5F5E2E2E2E2E2E2E2E2E2E2E2E2E2E2E2E2E2E2E2E2E2E2E2E2E2E2E2E2E2E2E2E2E2E2E2E2E2E2E2E2E2E2E2E2E2
310
E2E2E2E2E2E2E2E2E2E2E2E2E2E2E2E2E2E2E2E2E2E2E2E2E2E2E2E2E2E2E2E2E2E2E2E2E2E2E2E2E2E2E2E2E2E2E2E2E2E2E2E2E2E2E2E2E2E2E2E2E2E2E2E2E2E2E2E2E2E2E2E2E2E2E2E2E2E2E2E2E2E2E2E2E2E2E2E2E2E2E2E2E2E2E2E2E2E2E2E2E2E2E2E2E2E2E2E2E2E2E2E2E2E2E2E2E2E2E2E2E2E2E2E2E2E2E2
310
E2E2E2E2E2E2F5F5E2E2E2E2E2E2E2E2E2E2E2E2E2E2E2E2E2E2E2E2E2E2E2E2E2E2E2E2E2E2E2E2E2E2E2E2E2E2E2E2E2E2E2E2E2E2E2E2E2E2E2E2E2E2E2E2E2E2E2E2E2E2E2E2E2E2E2E2E2E2E2E2E2E2E2E2E2E2E2E2E2E2E2E2E2E2E2E2E2E2E2E2E2E2E2E2E2E2E2E2E2E2E2E2E2E2E2E2E2E2E2E2E2E2E2E2E2E2E2
310
E2E2E2E2E2E2E2E2E2E2E2E2E2E2E2E2E2E2E2E2E2E2E2E2E2E2E2E2E2E2E2E2E2E2E2E2E2E2E2E2E2E2E2E2E2E2E2E2E2E2E2E2E2E2E2E2E2E2E2F5F5E2E2E2E2E2E2E2E2E2E2E2E2E2E2E2E2E2E2E2E2E2E2E2E2E2E2E2E2E2E2E2E2E2E2E2E2E2E2E2E2E2E2E2E2E2E2E2E2E2E2E2E2E2E2E2E2E2E2E2E2E2E2E2E2E2E2
310
E2E2E2E2E2E2E2E2E2E2E2E2E2E2E2E2E2E2E2E2E2E2E2E2E2E2E2E2E2E2E2E2E2E2E2E2E2E2E2E2E2E2E2E2E2E2E2E2E2E2E2E2E2E2E2E2E2E2E2E2E2E2E2E2E2E2E2E2E2E2E2E2E2E2E2E2E2E2E2E2E2E2E2E2E2E2E2E2E2E2E2E2E2E2E2E2E2E2E2E2E2E2E2E2E2E2E2E2E2E2E2E2F5F5E2E2E2E2E2E2E2E2E2E2E2E2E2
310
E2E2E2E2E2E2E2F5F5F5F5F5F5F5F5F5F5F5F5F5F5F5F5F5F5F5F5F5F5F5F5F5F5F5F5F5F5F5F5F5F5F5F5F5F5F5F5F5F5F5F5F5F5F5F5F5F5F5F5F5F5F5F5F5F5F5F5F5F5F5F5F5F5F5F5F5F5F5F5F5F5F5F5F5F5F5F5F5F5F5F5F5F5F5F5F5F5F5F5F5F5F5F5F5F5F5F5F5F5F5F5F5F5F5F5F5F5F5F5F5F5F5F5F5F5F5F5
310
F5F5F5F5F5F5F5F5F5F5F5F5F5F5F5F5F5F5E2E2E2E2E2E2E2E2E2E2E2E2E2E2E2E2E2E2E2E2F5F5E2E2E2E2E2E2E2E2E2E2E2E2E2E2E2E2E2E2E2E2F5E2E2E2E2E2E2E2E2E2E2E2E2E2E2E2E2E2E2E2E2E2E2E2E2E2E2E2E2E2E2E2E2E2E2E2E2E2E2E2E2E2E2E2E2E2E2E2E2E2E2E2E2E2E2E2E2E2E2E2E2E2E2E2E2E2E2
310
E2E2E2E2E2E2E2E2E2E2E2E2E2E2E2E2E2E2E2E2E2E2E2E2E2E2E2E2E2E2E2E2E2E2E2E2E2E2E2E2E2E2E2E2E2E2E2E2E2E2E2E2E2E2E2E2E2E2E2E2E2E2E2E2E2E2E2E2E2E2F5E2E2E2E2E2E2E2E2E2E2E2E2E2E2E2E2E2E2E2E2F5F5E2E2E2E2E2E2E2E2E2E2E2E2E2E2E2E2E2E2E2E2F5E2E2E2E2E2E2E2E2E2E2E2E2E2
310
E2E2E2E2E2E2E2E2E2E2E2E2E2E2E2E2E2E2E2E2E2E2E2E2E2E2E2E2E2E2E2E2E2E2E2E2E2E2E2E2E2E2E2E2E2E2E2E2E2E2E2E2E2E2E2E2E2E2E2E2E2E2E2E2E2E2E2E2E2E2E2E2E2E2E2E2E2E2E2E2E2E2E2E2E2E2E2E2E2E2E2E2E2E2E2E2E2E2E2E2E2E2E2E2E2E2E2E2E2E2E2E2E2E2E2E2E2E2E2E2E2E2E2F5E2E2E2
310
E2E2E2E2E2E2E2E2E2E2E2E2E2E2E2E2E2F5F5E2E2E2E2E2E2E2E2E2E2E2E2E2E2E2E2E2E2E2E2F5E2E2E2E2E2E2E2E2E2E2E2E2E2E2E2E2E2E2E2E2E2E2E2E2E2E2E2E2E2E2E2E2E2E2E2E2E2E2E2E2E2E2E2E2E2E2E2E2E2E2E2E2E2E2E2E2E2E2E2E2E2E2E2E2E2E2E2E2E2E2E2E2E2E2E2E2E2E2E2E2E2E2E2E2E2E2E2
310
E2E2E2E2E2E2E2E2E2E2E2E2E2E2E2E2E2E2E2E2E2E2E2E2E2E2E2E2E2E2E2E2E2E2E2E2E2E2E2E2E2E2E2E2E2E2E2E2E2F5E2E2E2E2E2E2E2E2E2E2E2E2E2E2E2E2E2E2E2E2F5F5E2E2E2E2E2E2E2E2E2E2E2E2E2E2E2E2E2E2E2E2F5E2E2E2E2E2E2E2E2E2E2E2E2E2E2E2E2E2E2E2E2E2E2E2E2E2E2E2E2E2E2E2E2E2E2
310
E2E2E2E2E2E2E2E2E2E2E2E2E2E2E2E2E2E2E2E2E2E2E2E2E2E2E2E2E2E2E2E2E2E2E2E2E2E2E2E2E2E2E2E2E2E2E2E2E2E2E2E2E2E2E2E2E2E2E2E2E2E2E2E2E2E2E2E2E2E2E2E2E2E2E2E2E2E2E2E2E2E2E2E2E2E2E2E2E2E2E2E2E2E2E2E2E2E2E2E2E2E2F5E2E2E2E2E2E2E2E2E2E2E2E2E2E2E2E2E2E2E2E2F5F5E2E2
310
E2F5E2E2E2E2E2E2E2E2E2E2E2E2E2E2E2E2F5E2E2E2E2E2E2E2E2E2E2E2E2E2E2E2E2E2E2E2E2E2E2E2E2E2E2E2E2E2E2E2E2E2E2E2E2E2E2E2E2E2E2E2E2E2E2E2E2E2E2E2E2E2E2E2E2E2E2E2E2E2E2E2E2E2E2E2E2E2E2E2E2E2E2E2E2E2E2E2E2E2E2E2E2E2E2E2E2E2E2E2E2E2E2E2E2E2E2E2E2E2E2E2E2E2E2E2E2
310
E2E2E2E2E2E2E2E2E2E2E2E2E2E2E2E2E2E2E2E2E2E2E2E2E2E2E2E2F5E2E2E2E2E2E2E2E2E2E2E2E2E2E2E2E2F5E2E2E2F5F5E2E2E2F5E2E2E2E2E2E2E2E2E2E2E2E2E2E2E2E2F5E2E2E2E2E2E2E2E2E2E2E2E2E2E2E2E2E2E2E2E2E2E2E2E2E2E2E2E2E2E2E2E2E2E2E2E2E2E2E2E2E2E2E2E2E2E2E2E2E2E2E2E2E2E2E2
310
E2E2E2E2E2E2E2E2E2E2E2E2E2E2E2E2E2E2E2E2E2E2E2E2E2E2E2E2E2E2E2E2E2E2E2E2E2E2E2E2E2E2E2E2E2E2E2E2E2E2E2E2E2E2E2E2E2E2E2E2E2E2E2E2E2E2E2E2E2E2E2E2E2E2E2E2E2E2E2E2E2F5E2E2E2E2E2E2E2E2E2E2E2E2E2E2E2E2F5E2E2E2F5F5E2E2E2F5E2E2E2E2E2E2E2E2E2E2E2E2E2E2E2E2F5E2E2
310
E2E2E2E2E2E2E2E2E2E2E2E2E2E2E2E2E2E2E2E2E2E2E2E2E2E2E2E2E2E2E2E2E2E2E2E2E2E2E2E2E2E2E2E2E2E2E2E2E2E2E2E2E2E2E2E2E2E2E2E2E2E2E2E2E2E2E2E2E2E2E2E2E2E2E2E2E2E2E2E2E2E2E2E2E2E2E2E2E2E2E2E2E2E2E2E2E2E2E2E2E2E2E2E2E2E2E2E2E2E2E2E2E2E2E2E2E2E2E2E2E2E2E2E2E2E2E2
310
E2E2E2E2E2E2E2F5E2E2E2E2E2E2E2E2E2E2E2E2E2E2E2E2F5E2E2E2F5F5E2E2E2F5E2E2E2E2E2E2E2E2E2E2E2E2E2E2E2E2F5E2E2E2E2E2E2E2E2E2E2E2E2E2E2E2E2E2E2E2E2E2E2E2E2E2E2E2E2E2E2E2E2E2E2E2E2E2E2E2E2E2E2E2E2E2E2E2E2E2E2E2E2E2E2E2E2E2E2E2E2E2E2E2E2E2E2E2E2E2E2E2E2E2E2E2E2
310
E2E2E2E2E2E2E2E2E2E2E2E2E2E2E2E2E2E2E2E2E2E2E2E2E2E2E2E2E2E2E2E2E2E2E2E2E2E2E2E2E2E2E2E2E2E2E2E2E2E2E2E2E2E2E2E2E2E2E2E2F5E2E2E2E2E2E2E2E2E2E2E2E2E2E2E2E2F5E2E2E2F5F5E2E2E2F5E2E2E2E2E2E2E2E2E2E2E2E2E2E2E2E2F5E2E2E2E2E2E2E2E2E2E2E2E2E2E2E2E2E2E2E2E2E2E2E2
310
E2E2E2E2E2E2E2E2E2E2E2E2E2E2E2E2E2E2E2E2E2E2E2E2E2E2E2E2E2E2E2E2E2E2E2E2E2E2E2E2E2E2E2E2E2E2E2E2E2E2E2E2E2E2E2E2E2E2E2E2E2E2E2E2E2E2E2E2E2E2E2E2E2E2E2E2E2E2E2E2E2E2E2E2E2E2E2E2E2E2E2E2E2E2E2E2E2E2E2E2E2E2E2E2E2E2E2E2E2E2E2E2E2F5E2E2E2E2E2E2E2E2E2E2E2E2E2
310
E2E2E2F5E2E2E2F5F5E2E2E2F5E2E2E2E2E2E2E2E2E2E2E2E2E2E2E2E2F5E2E2E2E2E2E2E2E2E2E2E2E2E2E2E2E2E2E2E2E2E2E2E2E2E2E2E2E2E2E2E2E2E2E2E2E2E2E2E2E2E2E2E2E2E2E2E2E2E2E2E2E2E2E2E2E2E2E2E2E2E2E2E2E2E2E2E2E2E2E2E2E2E2E2E2E2E2E2E2E2E2E2E2E2E2E2E2E2E2E2E2E2E2E2E2E2E2
310
E2E2E2E2E2E2E2E2E2E2E2E2E2E2E2E2E2E2E2E2E2E2E2E2E2E2E2E2E2E2E2E2E2E2E2E2E2E2E2F5E2E2E2E2E2E2E2E2E2E2E2E2E2E2E2E2F5E2E2E2F5F5E2E2E2F5E2E2E2E2E2E2E2E2E2E2E2E2E2E2E2E2F5E2E2E2E2E2E2E2E2E2E2E2E2E2E2E2E2E2E2E2E2E2E2E2E2E2E2E2E2E2E2E2E2E2E2E2E2E2E2E2E2E2E2E2E2
310
E2E2E2E2E2E2E2E2E2E2E2E2E2E2E2E2E2E2E2E2E2E2E2E2E2E2E2E2E2E2E2E2E2E2E2E2E2E2E2E2E2E2E2E2E2E2E2E2E2E2E2E2E2E2E2E2E2E2E2E2E2E2E2E2E2E2E2E2E2E2E2E2E2E2E2E2E2E2E2E2E2E2E2E2E2E2E2E2E2E2E2E2F5E2E2E2E2E2E2E2E2E2E2E2E2E2E2E2E2F5E2E2E2F5F5E2E2E2F5E2E2E2E2E2E2E2E2
310
E2E2E2E2E2E2E2E2F5E2E2E2E2E2E2E2E2E2E2E2E2E2E2E2E2E2E2E2E2E2E2E2E2E2E2E2E2E2E2E2E2E2E2E2E2E2E2E2E2E2E2E2E2E2E2E2E2E2E2E2E2E2E2E2E2E2E2E2E2E2E2E2E2E2E2E2E2E2E2E2E2E2E2E2E2E2E2E2E2E2E2E2E2E2E2E2E2E2E2E2E2E2E2E2E2E2E2E2E2E2E2E2E2E2E2E2E2E2E2E2E2E2E2E2E2E2E2
310
E2E2E2E2E2E2E2E2E2E2E2E2E2E2E2E2E2E2F5E2E2E2E2E2E2E2E2E2E2E2E2E2E2E2E2F5E2E2E2F5F5E2E2E2F5E2E2E2E2E2E2E2E2E2E2E2E2E2E2E2E2F5E2E2E2E2E2E2E2E2E2E2E2E2E2E2E2E2E2E2E2E2E2E2E2E2E2E2E2E2E2E2E2E2E2E2E2E2E2E2E2E2E2E2E2E2E2E2E2E2E2E2E2E2E2E2E2E2E2E2E2E2E2E2E2E2E2
310
E2E2E2E2E2E2E2E2E2E2E2E2E2E2E2E2E2E2E2E2E2E2E2E2E2E2E2E2E2E2E2E2E2E2E2E2E2E2E2E2E2E2E2E2E2E2E2E2E2E2E2E2E2E2E2E2E2E2E2E2E2E2E2E2E2E2E2E2E2E2E2F5E2E2E2E2E2E2E2E2E2E2E2E2E2E2E2E2F5E2E2E2F5F5E2E2E2F5E2E2E2E2E2E2E2E2E2E2E2E2E2E2E2E2F5E2E2E2E2E2E2E2E2E2E2E2E2
310
E2E2E2E2E2E2E2E2E2E2E2E2E2E2E2E2E2E2E2E2E2E2E2E2E2E2E2E2E2E2E2E2E2E2E2E2E2E2E2E2E2E2E2E2E2E2E2E2E2E2E2E2E2E2E2E2E2E2E2E2E2E2E2E2E2E2E2E2E2E2E2E2E2E2E2E2E2E2E2E2E2E2E2E2E2E2E2E2E2E2E2E2E2E2E2E2E2E2E2E2E2E2E2E2E2E2E2E2E2E2E2E2E2E2E2E2E2E2E2E2E2E2E2E2F5E2E2
310
E2E2E2E2E2E2E2E2E2E2E2E2E2E2F5E2E2E2F5F5E2E2E2F5E2E2E2E2E2E2E2E2E2E2E2E2E2E2E2E2F5E2E2E2E2E2E2E2E2E2E2E2E2E2E2E2E2E2E2E2E2E2E2E2E2E2E2E2E2E2E2E2E2E2E2E2E2E2E2E2E2E2E2E2E2E2E2E2E2E2E2E2E2E2E2E2E2E2E2E2E2E2E2E2E2E2E2E2E2E2E2E2E2E2E2E2E2E2E2E2E2E2E2E2E2E2E2
310
E2E2E2E2E2E2E2E2E2E2E2E2E2E2E2E2E2E2E2E2E2E2E2E2E2E2E2E2E2E2E2E2E2E2E2E2E2E2E2E2E2E2E2E2E2E2E2E2E2E2F5E2E2E2E2E2E2E2E2E2E2E2E2E2E2E2E2F5E2E2E2F5F5E2E2E2F5E2E2E2E2E2E2E2E2E2E2E2E2E2E2E2E2F5E2E2E2E2E2E2E2E2E2E2E2E2E2E2E2E2E2E2E2E2E2E2E2E2E2E2E2E2E2E2E2E2E2
310
E2E2E2E2E2E2E2E2E2E2E2E2E2E2E2E2E2E2E2E2E2E2E2E2E2E2E2E2E2E2E2E2E2E2E2E2E2E2E2E2E2E2E2E2E2E2E2E2E2E2E2E2E2E2E2E2E2E2E2E2E2E2E2E2E2E2E2E2E2E2E2E2E2E2E2E2E2E2E2E2E2E2E2E2E2E2E2E2E2E2E2E2E2E2E2E2E2E2E2E2E2E2E2F5E2E2E2E2E2E2E2E2E2E2E2E2E2E2E2E2F5E2E2E2F5F5E2
310
E2E2F5E2E2E2E2E2E2E2E2E2E2E2E2E2E2E2E2F5E2E2E2E2E2E2E2E2E2E2E2E2E2E2E2E2E2E2E2E2E2E2E2E2E2E2E2E2E2E2E2E2E2E2E2E2E2E2E2E2E2E2E2E2E2E2E2E2E2E2E2E2E2E2E2E2E2E2E2E2E2E2E2E2E2E2E2E2E2E2E2E2E2E2E2E2E2E2E2E2E2E2E2E2E2E2E2E2E2E2E2E2E2E2E2E2E2E2E2E2E2E2E2E2E2E2E2
310
E2E2E2E2E2E2E2E2E2E2E2E2E2E2E2E2E2E2E2E2E2E2E2E2E2E2E2E2E2F5E2E2E2E2E2E2E2E2E2E2E2E2E2E2E2E2F5E2E2E2F5F5E2E2E2F5E2E2E2E2E2E2E2E2E2E2E2E2E2E2E2E2F5E2E2E2E2E2E2E2E2E2E2E2E2E2E2E2E2E2E2E2E2E2E2E2E2E2E2E2E2E2E2E2E2E2E2E2E2E2E2E2E2E2E2E2E2E2E2E2E2E2E2E2E2E2E2
310
E2E2E2E2E2E2E2E2E2E2E2E2E2E2E2E2E2E2E2E2E2E2E2E2E2E2E2E2E2E2E2E2E2E2E2E2E2E2E2E2E2E2E2E2E2E2E2E2E2E2E2E2E2E2E2E2E2E2E2E2E2E2E2E2E2E2E2E2E2E2E2E2E2E2E2E2E2E2E2E2E2E2F5E2E2E2E2E2E2E2E2E2E2E2E2E2E2E2E2F5E2E2E2F5F5E2E2E2F5E2E2E2E2E2E2E2E2E2E2E2E2E2E2E2E2F5E2
310
E2E2E2E2E2E2E2E2E2E2E2E2E2E2E2E2E2E2E2E2E2E2E2E2E2E2E2E2E2E2E2E2E2E2E2E2E2E2E2E2E2E2E2E2E2E2E2E2E2E2E2E2E2E2E2E2E2E2E2E2E2E2E2E2E2E2E2E2E2E2E2E2E2E2E2E2E2E2E2E2E2E2E2E2E2E2E2E2E2E2E2E2E2E2E2E2E2E2E2E2E2E2E2E2E2E2E2E2E2E2E2E2E2E2E2E2E2E2E2E2E2E2E2E2E2E2E2
310
E2E2E2E2E2E2E2E2F5E2E2E2E2E2E2E2E2E2E2E2E2E2E2E2E2F5E2E2E2F5F5E2E2E2F5E2E2E2E2E2E2E2E2E2E2E2E2E2E2E2E2F5E2E2E2E2E2E2E2E2E2E2E2E2E2E2E2E2E2E2E2E2E2E2E2E2E2E2E2E2E2E2E2E2E2E2E2E2E2E2E2E2E2E2E2E2E2E2E2E2E2E2E2E2E2E2E2E2E2E2E2E2E2E2E2E2E2E2E2E2E2E2E2E2E2E2E2
310
E2E2E2E2E2E2E2E2E2E2E2E2E2E2E2E2E2E2E2E2E2E2E2E2E2E2E2E2E2E2E2E2E2E2E2E2E2E2E2E2E2E2E2E2E2E2E2E2E2E2E2E2E2E2E2E2E2E2E2E2E2F5E2E2E2E2E2E2E2E2E2E2E2E2E2E2E2E2F5E2E2E2F5F5E2E2E2F5E2E2E2E2E2E2E2E2E2E2E2E2E2E2E2E2F5E2E2E2E2E2E2E2E2E2E2E2E2E2E2E2E2E2E2E2E2E2E2
310
E2E2E2E2E2E2E2E2E2E2E2E2E2E2E2E2E2E2E2E2E2E2E2E2E2E2E2E2E2E2E2E2E2E2E2E2E2E2E2E2E2E2E2E2E2E2E2E2E2E2E2E2E2E2E2E2E2E2E2E2E2E2E2E2E2E2E2E2E2E2E2E2E2E2E2E2E2E2E2E2E2E2E2E2E2E2E2E2E2E2E2E2E2E2E2E2E2E2E2E2E2E2E2E2E2E2E2E2E2E2E2E2E2E2F5E2E2E2E2E2E2E2E2E2E2E2E2
310
E2E2E2E2F5E2E2E2F5F5E2E2E2E2E2E2E2E2E2E2E2E2E2E2E2E2E2E2E2E2F5E2E2E2E2E2E2E2E2E2E2E2E2E2E2E2E2E2E2E2E2E2E2E2E2E2E2E2E2E2E2E2E2E2E2E2E2E2E2E2E2E2E2E2E2E2E2E2E2E2E2E2E2E2E2E2E2E2E2E2E2E2E2E2E2E2E2E2E2E2E2E2E2E2E2E2E2E2E2E2E2E2E2E2E2E2E2E2E2E2E2E2E2E2E2E2E2
310
E2E2E2E2E2E2E2E2E2E2E2E2E2E2E2E2E2E2E2E2E2E2E2E2E2E2E2E2E2E2E2E2E2E2E2E2E2E2E2E2F5E2E2E2E2E2E2E2E2E2E2E2E2E2E2E2E2E2E2E2E2F5F5E2E2E2E2E2E2E2E2E2E2E2E2E2E2E2E2E2E2E2E2F5E2E2E2E2E2E2E2E2E2E2E2E2E2E2E2E2E2E2E2E2E2E2E2E2E2E2E2E2E2E2E2E2E2E2E2E2E2E2E2E2E2E2E2
310
E2E2E2E2E2E2E2E2E2E2E2E2E2E2E2E2E2E2E2E2E2E2E2E2E2E2E2E2E2E2E2E2E2E2E2E2E2E2E2E2E2E2E2E2E2E2E2E2E2E2E2E2E2E2E2E2E2E2E2E2E2E2E2E2E2E2E2E2E2E2E2E2E2E2E2E2E2E2E2E2E2E2E2E2E2E2E2E2E2E2E2E2E2F5E2E2E2E2E2E2E2E2E2E2E2E2E2E2E2E2E2E2E2E2F5F5E2E2E2E2E2E2E2E2E2E2E2
310
E2E2E2E2E2E2E2E2E2F5E2E2E2E2E2E2E2E2E2E2E2E2E2E2E2E2E2E2E2E2E2E2E2E2E2E2E2E2E2E2E2E2E2E2E2E2E2E2E2E2E2E2E2E2E2E2E2E2E2E2E2E2E2E2E2E2E2E2E2E2E2E2E2E2E2E2E2E2E2E2E2E2E2E2E2E2E2E2E2E2E2E2E2E2E2E2E2E2E2E2E2E2E2E2E2E2E2E2E2E2E2E2E2E2E2E2E2E2E2E2E2E2E2E2E2E2E2
310
E2E2E2E2E2E2E2E2E2E2E2E2E2E2E2E2E2E2E2F5E2E2E2E2E2E2E2E2E2E2E2E2E2E2E2E2E2E2E2E2F5F5E2E2E2E2E2E2E2E2E2E2E2E2E2E2E2E2E2E2E2E2F5E2E2E2E2E2E2E2E2E2E2E2E2E2E2E2E2E2E2E2E2E2E2E2E2E2E2E2E2E2E2E2E2E2E2E2E2E2E2E2E2E2E2E2E2E2E2E2E2E2E2E2E2E2E2E2E2E2E2E2E2E2E2E2E2
310
E2E2E2E2E2E2E2E2E2E2E2E2E2E2E2E2E2E2E2E2E2E2E2E2E2E2E2E2E2E2E2E2E2E2E2E2E2E2E2E2E2E2E2E2E2E2E2E2E2E2E2E2E2E2E2E2E2E2E2E2E2E2E2E2E2E2E2E2E2E2E2E2F5E2E2E2E2E2E2E2E2E2E2E2E2E2E2E2E2E2E2E2E2F5F5E2E2E2E2E2E2E2E2E2E2E2E2E2E2E2E2E2E2E2E2F5E2E2E2E2E2E2E2E2E2E2E2
310
E2E2E2E2E2E2E2E2E2E2E2E2E2E2E2E2E2E2E2E2E2E2E2E2E2E2E2E2E2E2E2E2E2E2E2E2E2E2E2E2E2E2E2E2E2E2E2E2E2E2E2E2E2E2E2E2E2E2E2E2E2E2E2E2E2E2E2E2E2E2E2E2E2E2E2E2E2E2E2E2E2E2E2E2E2E2E2E2E2E2E2E2E2E2E2E2E2E2E2E2E2E2E2E2E2E2E2E2E2E2E2E2E2E2E2E2E2E2E2E2E2E2E2E2E2F5E2
310
E2E2E2E2E2E2E2E2E2E2E2E2E2E2E2E2E2E2E2F5F5E2E2E2E2E2E2E2E2E2E2E2E2E2E2E2E2E2E2E2E2F5E2E2E2E2E2E2E2E2E2E2E2E2E2E2E2E2E2E2E2E2E2E2E2E2E2E2E2E2E2E2E2E2E2E2E2E2E2E2E2E2E2E2E2E2E2E2E2E2E2E2E2E2E2E2E2E2E2E2E2E2E2E2E2E2E2E2E2E2E2E2E2E2E2E2E2E2E2E2E2E2E2E2E2E2E2
310
E2E2E2E2E2E2E2E2E2E2E2E2E2E2E2E2E2E2E2E2E2E2E2E2E2E2E2E2E2E2E2E2E2E2E2E2E2E2E2E2E2E2E2E2E2E2E2E2E2E2E2F5E2E2E2E2E2E2E2E2E2E2E2E2E2E2E2E2E2E2E2E2F5F5E2E2E2E2E2E2E2E2E2E2E2E2E2E2E2E2E2E2E2E2F5E2E2E2E2E2E2E2E2E2E2E2E2E2E2E2E2E2E2E2E2E2E2E2E2E2E2E2E2E2E2E2E2
310
E2E2E2E2E2E2E2E2E2E2E2E2E2E2E2E2E2E2E2E2E2E2E2E2E2E2E2E2E2E2E2E2E2E2E2E2E2E2E2E2E2E2E2E2E2E2E2E2E2E2E2E2E2E2E2E2E2E2E2E2E2E2E2E2E2E2E2E2E2E2E2E2E2E2E2E2E2E2E2E2E2E2E2E2E2E2E2E2E2E2E2E2E2E2E2E2E2E2E2E2E2E2E2E2F5E2E2E2E2E2E2E2E2E2E2E2E2E2E2E2E2E2E2E2E2F5F5
310
E2E2E2E2E2E2E2E2E2E2E2E2E2E2E2E2E2E2E2E2F5E2E2E2E2E2E2E2E2E2E2E2E2E2E2E2E2E2E2E2E2E2E2E2E2E2E2E2E2E2E2E2E2E2E2E2E2E2E2E2E2E2E2E2E2E2E2E2E2E2E2E2E2E2E2E2E2E2E2E2E2E2E2E2E2E2E2E2E2E2E2E2E2E2E2E2E2E2E2E2E2E2E2E2E2E2E2E2E2E2E2E2E2E2E2E2E2E2E2E2E2E2E2E2E2E2E2
310
E2E2E2E2E2E2E2E2E2E2E2E2E2E2E2E2E2E2E2E2E2E2E2E2E2E2E2E2E2E2F5E2E2E2E2E2E2E2E2E2E2E2E2E2E2E2E2E2E2E2E2F5F5E2E2E2E2E2E2E2E2E2E2E2E2E2E2E2E2E2E2E2E2F5E2E2E2E2E2E2E2E2E2E2E2E2E2E2E2E2E2E2E2E2E2E2E2E2E2E2E2E2E2E2E2E2E2E2E2E2E2E2E2E2E2E2E2E2E2E2E2E2E2E2E2E2E2
310
E2E2E2E2E2E2E2E2E2E2E2E2E2E2E2E2E2E2E2E2E2E2E2E2E2E2E2E2E2E2E2E2E2E2E2E2E2E2E2E2E2E2E2E2E2E2E2E2E2E2E2E2E2E2E2E2E2E2E2E2E2E2E2E2E2E2E2E2E2E2E2E2E2E2E2E2E2E2E2E2E2E2E2F5E2E2E2E2E2E2E2E2E2E2E2E2E2E2E2E2E2E2E2E2F5F5E2E2E2F5E2E2E2E2E2E2E2E2E2E2E2E2E2E2E2E2F5
310
E2E2E2E2E2E2E2E2E2E2E2E2E2E2E2E2E2E2E2E2E2E2E2E2E2E2E2E2E2E2E2E2E2E2E2E2E2E2E2E2E2E2E2E2E2E2E2E2E2E2E2E2E2E2E2E2E2E2E2E2E2E2E2E2E2E2E2E2E2E2E2E2E2E2E2E2E2E2E2E2E2E2E2E2E2E2E2E2E2E2E2E2E2E2E2E2E2E2E2E2E2E2E2E2E2E2E2E2E2E2E2E2E2E2E2E2E2E2E2E2E2E2E2E2E2E2E2
310
E2E2E2E2E2E2E2E2E2F5E2E2E2E2E2E2E2E2E2E2E2E2E2E2E2E2F5E2E2E2F5F5E2E2E2F5E2E2E2E2E2E2E2E2E2E2E2E2E2E2E2E2F5E2E2E2E2E2E2E2E2E2E2E2E2E2E2E2E2E2E2E2E2E2E2E2E2E2E2E2E2E2E2E2E2E2E2E2E2E2E2E2E2E2E2E2E2E2E2E2E2E2E2E2E2E2E2E2E2E2E2E2E2E2E2E2E2E2E2E2E2E2E2E2E2E2E2
310
E2E2E2E2E2E2E2E2E2E2E2E2E2E2E2E2E2E2E2E2E2E2E2E2E2E2E2E2E2E2E2E2E2E2E2E2E2E2E2E2E2E2E2E2E2E2E2E2E2E2E2E2E2E2E2E2E2E2E2E2E2E2F5E2E2E2E2E2E2E2E2E2E2E2E2E2E2E2E2F5E2E2E2F5F5E2E2E2F5E2E2E2E2E2E2E2E2E2E2E2E2E2E2E2E2F5E2E2E2E2E2E2E2E2E2E2E2E2E2E2E2E2E2E2E2E2E2
310
E2E2E2E2E2E2E2E2E2E2E2E2E2E2E2E2E2E2E2E2E2E2E2E2E2E2E2E2E2E2E2E2E2E2E2E2E2E2E2E2E2E2E2E2E2E2E2E2E2E2E2E2E2E2E2E2E2E2E2E2E2E2E2E2E2E2E2E2E2E2E2E2E2E2E2E2E2E2E2E2E2E2E2E2E2E2E2E2E2E2E2E2E2E2E2E2E2E2E2E2E2E2E2E2E2E2E2E2E2E2E2E2E2E2E2F5E2E2E2E2E2E2E2E2E2E2E2
310
E2E2E2E2E2F5E2E2E2F5F5E2E2E2F5E2E2E2E2E2E2E2E2E2E2E2E2E2E2E2E2F5E2E2E2E2E2E2E2E2E2E2E2E2E2E2E2E2E2E2E2E2E2E2E2E2E2E2E2E2E2E2E2E2E2E2E2E2E2E2E2E2E2E2E2E2E2E2E2E2E2E2E2E2E2E2E2E2E2E2E2E2E2E2E2E2E2E2E2E2E2E2E2E2E2E2E2E2E2E2E2E2E2E2E2E2E2E2E2E2E2E2E2E2E2E2E2
310
E2E2E2E2E2E2E2E2E2E2E2E2E2E2E2E2E2E2E2E2E2E2E2E2E2E2E2E2E2E2E2E2E2E2E2E2E2E2E2E2E2F5E2E2E2E2E2E2E2E2E2E2E2E2E2E2E2E2F5E2E2E2F5F5E2E2E2F5E2E2E2E2E2E2E2E2E2E2E2E2E2E2E2E2F5E2E2E2E2E2E2E2E2E2E2E2E2E2E2E2E2E2E2E2E2E2E2E2E2E2E2E2E2E2E2E2E2E2E2E2E2E2E2E2E2E2E2
310
E2E2E2E2E2E2E2E2E2E2E2E2E2E2E2E2E2E2E2E2E2E2E2E2E2E2E2E2E2E2E2E2E2E2E2E2E2E2E2E2E2E2E2E2E2E2E2E2E2E2E2E2E2E2E2E2E2E2E2E2E2E2E2E2E2E2E2E2E2E2E2E2E2E2E2E2E2E2E2E2E2E2E2E2E2E2E2E2E2E2E2E2E2E2F5E2E2E2E2E2E2E2E2E2E2E2E2E2E2E2E2F5E2E2E2F5F5E2E2E2F5E2E2E2E2E2E2
310
E2E2E2E2E2E2E2E2E2E2F5E2E2E2E2E2E2E2E2E2E2E2E2E2E2E2E2E2E2E2E2E2E2E2E2E2E2E2E2E2E2E2E2E2E2E2E2E2E2E2E2E2E2E2E2E2E2E2E2E2E2E2E2E2E2E2E2E2E2E2E2E2E2E2E2E2E2E2E2E2E2E2E2E2E2E2E2E2E2E2E2E2E2E2E2E2E2E2E2E2E2E2E2E2E2E2E2E2E2E2E2E2E2E2E2E2E2E2E2E2E2E2E2E2E2E2E2
310
E2E2E2E2E2E2E2E2E2E2E2E2E2E2E2E2E2E2E2E2F5E2E2E2E2E2E2E2E2E2E2E2E2E2E2E2E2F5E2E2E2F5F5E2E2E2F5E2E2E2E2E2E2E2E2E2E2E2E2E2E2E2E2F5E2E2E2E2E2E2E2E2E2E2E2E2E2E2E2E2E2E2E2E2E2E2E2E2E2E2E2E2E2E2E2E2E2E2E2E2E2E2E2E2E2E2E2E2E2E2E2E2E2E2E2E2E2E2E2E2E2E2E2E2E2E2E2
310
E2E2E2E2E2E2E2E2E2E2E2E2E2E2E2E2E2E2E2E2E2E2E2E2E2E2E2E2E2E2E2E2E2E2E2E2E2E2E2E2E2E2E2E2E2E2E2E2E2E2E2E2E2E2E2E2E2E2E2E2E2E2E2E2E2E2E2E2E2E2E2E2E2F5E2E2E2E2E2E2E2E2E2E2E2E2E2E2E2E2F5E2E2E2F5F5E2E2E2F5E2E2E2E2E2E2E2E2E2E2E2E2E2E2E2E2F5E2E2E2E2E2E2E2E2E2E2
310
E2E2E2E2E2E2E2E2E2E2E2E2E2E2E2E2E2E2E2E2E2E2E2E2E2E2E2E2E2E2E2E2E2E2E2E2E2E2E2E2E2E2E2E2E2E2E2E2E2E2E2E2E2E2E2E2E2E2E2E2E2E2E2E2E2E2E2E2E2E2E2E2E2E2E2E2E2E2E2E2E2E2E2E2E2E2E2E2E2E2E2E2E2E2E2E2E2E2E2E2E2E2E2E2E2E2E2E2E2E2E2E2E2E2E2E2E2E2E2E2E2E2E2E2E2E2F5
310
E2E2E2E2E2E2E2E2E2E2E2E2E2E2E2E2F5E2E2E2F5F5E2E2E2F5E2E2E2E2E2E2E2E2E2E2E2E2E2E2E2E2F5E2E2E2E2E2E2E2E2E2E2E2E2E2E2E2E2E2E2E2E2E2E2E2E2E2E2E2E2E2E2E2E2E2E2E2E2E2E2E2E2E2E2E2E2E2E2E2E2E2E2E2E2E2E2E2E2E2E2E2E2E2E2E2E2E2E2E2E2E2E2E2E2E2E2E2E2E2E2E2E2E2E2E2E2
310
E2E2E2E2E2E2E2E2E2E2E2E2E2E2E2E2E2E2E2E2E2E2E2E2E2E2E2E2E2E2E2E2E2E2E2E2E2E2E2E2E2E2E2E2E2E2E2E2E2E2E2E2F5E2E2E2E2E2E2E2E2E2E2E2E2E2E2E2E2F5E2E2E2F5F5E2E2E2F5E2E2E2E2E2E2E2E2E2E2E2E2E2E2E2E2F5E2E2E2E2E2E2E2E2E2E2E2E2E2E2E2E2E2E2E2E2E2E2E2E2E2E2E2E2E2E2E2
310
E2E2E2E2E2E2E2E2E2E2E2E2E2E2E2E2E2E2E2E2E2E2E2E2E2E2E2E2E2E2E2E2E2E2E2E2E2E2E2E2E2E2E2E2E2E2E2E2E2E2E2E2E2E2E2E2E2E2E2E2E2E2E2E2E2E2E2E2E2E2E2E2E2E2E2E2E2E2E2E2E2E2E2E2E2E2E2E2E2E2E2E2E2E2E2E2E2E2E2E2E2E2E2E2E2F5E2E2E2E2E2E2E2E2E2E2E2E2E2E2E2E2F5E2E2E2F5
310
F5E2E2E2F5E2E2E2E2E2E2E2E2E2E2E2E2E2E2E2E2F5E2E2E2E2E2E2E2E2E2E2E2E2E2E2E2E2E2E2E2E2E2E2E2E2E2E2E2E2E2E2E2E2E2E2E2E2E2E2E2E2E2E2E2E2E2E2E2E2E2E2E2E2E2E2E2E2E2E2E2E2E2E2E2E2E2E2E2E2E2E2E2E2E2E2E2E2E2E2E2E2E2E2E2E2E2E2E2E2E2E2E2E2E2E2E2E2E2E2E2E2E2E2E2E2E2
310
E2E2E2E2E2E2E2E2E2E2E2E2E2E2E2E2E2E2E2E2E2E2E2E2E2E2E2E2E2E2E2F5E2E2E2E2E2E2E2E2E2E2E2E2E2E2E2E2F5E2E2E2F5F5E2E2E2F5E2E2E2E2E2E2E2E2E2E2E2E2E2E2E2E2F5E2E2E2E2E2E2E2E2E2E2E2E2E2E2E2E2E2E2E2E2E2E2E2E2E2E2E2E2E2E2E2E2E2E2E2E2E2E2E2E2E2E2E2E2E2E2E2E2E2E2E2E2
310
E2E2E2E2E2E2E2E2E2E2E2E2E2E2E2E2E2E2E2E2E2E2E2E2E2E2E2E2E2E2E2E2E2E2E2E2E2E2E2E2E2E2E2E2E2E2E2E2E2E2E2E2E2E2E2E2E2E2E2E2E2E2E2E2E2E2E2E2E2E2E2E2E2E2E2E2E2E2E2E2E2E2E2E2F5E2E2E2E2E2E2E2E2E2E2E2E2E2E2E2E2F5E2E2E2F5F5E2E2E2F5E2E2E2E2E2E2E2E2E2E2E2E2E2E2E2E2
310
F5E2E2E2E2E2E2E2E2E2E2E2E2E2E2E2E2E2E2E2E2E2E2E2E2E2E2E2E2E2E2E2E2E2E2E2E2E2E2E2E2E2E2E2E2E2E2E2E2E2E2E2E2E2E2E2E2E2E2E2E2E2E2E2E2E2E2E2E2E2E2E2E2E2E2E2E2E2E2E2E2E2E2E2E2E2E2E2E2E2E2E2E2E2E2E2E2E2E2E2E2E2E2E2E2E2E2E2E2E2E2E2E2E2E2E2E2E2E2E2E2E2E2E2E2E2E2
310
E2E2E2E2E2E2E2E2E2E2F5E2E2E2E2E2E2E2E2E2E2E2E2E2E2E2E2F5E2E2E2F5F5E2E2E2F5E2E2E2E2E2E2E2E2E2E2E2E2E2E2E2E2F5E2E2E2E2E2E2E2E2E2E2E2E2E2E2E2E2E2E2E2E2E2E2E2E2E2E2E2E2E2E2E2E2E2E2E2E2E2E2E2E2E2E2E2E2E2E2E2E2E2E2E2E2E2E2E2E2E2E2E2E2E2E2E2E2E2E2E2E2E2E2E2E2E2
310
E2E2E2E2E2E2E2E2E2E2E2E2E2E2E2E2E2E2E2E2E2E2E2E2E2E2E2E2E2E2E2E2E2E2E2E2E2E2E2E2E2E2E2E2E2E2E2E2E2E2E2E2E2E2E2E2E2E2E2E2E2E2E2F5E2E2E2E2E2E2E2E2E2E2E2E2E2E2E2E2F5E2E2E2F5F5E2E2E2F5E2E2E2E2E2E2E2E2E2E2E2E2E2E2E2E2F5E2E2E2E2E2E2E2E2E2E2E2E2E2E2E2E2E2E2E2E2
310
E2E2E2E2E2E2E2E2E2E2E2E2E2E2E2E2E2E2E2E2E2E2E2E2E2E2E2E2E2E2E2E2E2E2E2E2E2E2E2E2E2E2E2E2E2E2E2E2E2E2E2E2E2E2E2E2E2E2E2E2E2E2E2E2E2E2E2E2E2E2E2E2E2E2E2E2E2E2E2E2E2E2E2E2E2E2E2E2E2E2E2E2E2E2E2E2E2E2E2E2E2E2E2E2E2E2E2E2E2E2E2E2E2E2E2E2F5E2E2E2E2E2E2E2E2E2E2
310
E2E2E2E2E2E2F5E2E2E2F5F5E2E2E2F5E2E2E2E2E2E2E2E2E2E2E2E2E2E2E2E2F5E2E2E2E2E2E2E2E2E2E2E2E2E2E2E2E2E2E2E2E2E2E2E2E2E2E2E2E2E2E2E2E2E2E2E2E2E2E2E2E2E2E2E2E2E2E2E2E2E2E2E2E2E2E2E2E2E2E2E2E2E2E2E2E2E2E2E2E2E2E2E2E2E2E2E2E2E2E2E2E2E2E2E2E2E2E2E2E2E2E2E2E2E2E2
310
E2E2E2E2E2E2E2E2E2E2E2E2E2E2E2E2E2E2E2E2E2E2E2E2E2E2E2E2E2E2E2E2E2E2E2E2E2E2E2E2E2E2F5E2E2E2E2E2E2E2E2E2E2E2E2E2E2E2E2F5E2E2E2F5F5E2E2E2E2E2E2E2E2E2E2E2E2E2E2E2E2E2E2E2E2F5E2E2E2E2E2E2E2E2E2E2E2E2E2E2E2E2E2E2E2E2E2E2E2E2E2E2E2E2E2E2E2E2E2E2E2E2E2E2E2E2E2
310
E2E2E2E2E2E2E2E2E2E2E2E2E2E2E2E2E2E2E2E2E2E2E2E2E2E2E2E2E2E2E2E2E2E2E2E2E2E2E2E2E2E2E2E2E2E2E2E2E2E2E2E2E2E2E2E2E2E2E2E2E2E2E2E2E2E2E2E2E2E2E2E2E2E2E2E2E2E2E2E2E2E2E2E2E2E2E2E2E2E2E2E2E2E2E2F5E2E2E2E2E2E2E2E2E2E2E2E2E2E2E2E2E2E2E2E2F5F5E2E2E2E2E2E2E2E2E2
310
E2E2E2E2E2E2E2E2E2E2E2F5E2E2E2E2E2E2E2E2E2E2E2E2E2E2E2E2E2E2E2E2E2E2E2E2E2E2E2E2E2E2E2E2E2E2E2E2E2E2E2E2E2E2E2E2E2E2E2E2E2E2E2E2E2E2E2E2E2E2E2E2E2E2E2E2E2E2E2E2E2E2E2E2E2E2E2E2E2E2E2E2E2E2E2E2E2E2E2E2E2E2E2E2E2E2E2E2E2E2E2E2E2E2E2E2E2E2E2E2E2E2E2E2E2E2E2
310
E2E2E2E2E2E2E2E2E2E2E2E2E2E2E2E2E2E2E2E2E2F5E2E2E2E2E2E2E2E2E2E2E2E2E2E2E2E2E2E2E2E2F5F5E2E2E2E2E2E2E2E2E2E2E2E2E2E2E2E2E2E2E2E2F5E2E2E2E2E2E2E2E2E2E2E2E2E2E2E2E2E2E2E2E2E2E2E2E2E2E2E2E2E2E2E2E2E2E2E2E2E2E2E2E2E2E2E2E2E2E2E2E2E2E2E2E2E2E2E2E2E2E2E2E2E2E2
310
E2E2E2E2E2E2E2E2E2E2E2E2E2E2E2E2E2E2E2E2E2E2E2E2E2E2E2E2E2E2E2E2E2E2E2E2E2E2E2E2E2E2E2E2E2E2E2E2E2E2E2E2E2E2E2E2E2E2E2E2E2E2E2E2E2E2E2E2E2E2E2E2E2E2F5E2E2E2E2E2E2E2E2E2E2E2E2E2E2E2E2E2E2E2E2F5F5E2E2E2E2E2E2E2E2E2E2E2E2E2E2E2E2E2E2E2E2F5E2E2E2E2E2E2E2E2E2
310
E2E2E2E2E2E2E2E2E2E2E2E2E2E2E2E2E2E2E2E2E2E2E2E2E2E2E2E2E2E2E2E2E2E2E2E2E2E2E2E2E2E2E2E2E2E2E2E2E2E2E2E2E2E2E2E2E2E2E2E2E2E2E2E2E2E2E2E2E2E2E2E2E2E2E2E2E2E2E2E2E2E2E2E2E2E2E2E2E2E2E2E2E2E2E2E2E2E2E2E2E2E2E2E2E2E2E2E2E2E2E2E2E2E2E2E2E2E2E2E2E2E2E2E2E2E2E2
310
F5E2E2E2E2E2E2E2E2E2E2E2E2E2E2E2E2E2E2E2E2F5F5E2E2E2E2E2E2E2E2E2E2E2E2E2E2E2E2E2E2E2E2F5E2E2E2E2E2E2E2E2E2E2E2E2E2E2E2E2E2E2E2E2E2E2E2E2E2E2E2E2E2E2E2E2E2E2E2E2E2E2E2E2E2E2E2E2E2E2E2E2E2E2E2E2E2E2E2E2E2E2E2E2E2E2E2E2E2E2E2E2E2E2E2E2E2E2E2E2E2E2E2E2E2E2E2
310
E2E2E2E2E2E2E2E2E2E2E2E2E2E2E2E2E2E2E2E2E2E2E2E2E2E2E2E2E2E2E2E2E2E2E2E2E2E2E2E2E2E2E2E2E2E2E2E2E2E2E2E2E2F5E2E2E2E2E2E2E2E2E2E2E2E2E2E2E2E2E2E2E2E2F5F5E2E2E2E2E2E2E2E2E2E2E2E2E2E2E2E2E2E2E2E2F5E2E2E2E2E2E2E2E2E2E2E2E2E2E2E2E2E2E2E2E2E2E2E2E2E2E2E2E2E2E2
310
E2E2E2E2E2E2E2E2E2E2E2E2E2E2E2E2E2E2E2E2E2E2E2E2E2E2E2E2E2E2E2E2E2E2E2E2E2E2E2E2E2E2E2E2E2E2E2E2E2E2E2E2E2E2E2E2E2E2E2E2E2E2E2E2E2E2E2E2E2E2E2E2E2E2E2E2E2E2E2E2E2E2E2E2E2E2E2E2E2E2E2E2E2E2E2E2E2E2E2E2E2E2E2E2E2E2F5E2E2E2E2E2E2E2E2E2E2E2E2E2E2E2E2E2E2E2E2
310
F5F5E2E2E2E2E2E2E2E2E2E2E2E2E2E2E2E2E2E2E2E2F5E2E2E2E2E2E2E2E2E2E2E2E2E2E2E2E2E2E2E2E2E2E2E2E2E2E2E2E2E2E2E2E2E2E2E2E2E2E2E2E2E2E2E2E2E2E2E2E2E2E2E2E2E2E2E2E2E2E2E2E2E2E2E2E2E2E2E2E2E2E2E2E2E2E2E2E2E2E2E2E2E2E2E2E2E2E2E2E2E2E2E2E2E2E2E2E2E2E2E2E2E2E2E2E2
310
E2E2E2E2E2E2E2E2E2E2E2E2E2E2E2E2E2E2E2E2E2E2E2E2E2E2E2E2E2E2E2E2F5E2E2E2E2E2E2E2E2E2E2E2E2E2E2E2E2E2E2E2E2F5F5E2E2E2E2E2E2E2E2E2E2E2E2E2E2E2E2E2E2E2E2F5E2E2E2E2E2E2E2E2E2E2E2E2E2E2E2E2E2E2E2E2E2E2E2E2E2E2E2E2E2E2E2E2E2E2E2E2E2E2E2E2E2E2E2E2E2E2E2E2E2E2E2
310
E2E2E2E2E2E2E2E2E2E2E2E2E2E2E2E2E2E2E2E2E2E2E2E2E2E2E2E2E2E2E2E2E2E2E2E2E2E2E2E2E2E2E2E2E2E2E2E2E2E2E2E2E2E2E2E2E2E2E2E2E2E2E2E2E2E2E2E2E2E2E2E2E2E2E2E2E2E2E2E2E2E2E2E2E2F5E2E2E2E2E2E2E2E2E2E2E2E2E2E2E2E2E2E2E2E2F5F5E2E2E2E2E2E2E2E2E2E2E2E2E2E2E2E2E2E2E2
310
E2F5E2E2E2E2E2E2E2E2E2E2E2E2E2E2E2E2E2E2E2E2E2E2E2E2E2E2E2E2E2E2E2E2E2E2E2E2E2E2E2E2E2E2E2E2E2E2E2E2E2E2E2E2E2E2E2E2E2E2E2E2E2E2E2E2E2E2E2E2E2E2E2E2E2E2E2E2E2E2E2E2E2E2E2E2E2E2E2E2E2E2E2E2E2E2E2E2E2E2E2E2E2E2E2E2E2E2E2E2E2E2E2E2E2E2E2E2E2E2E2E2E2E2E2E2E2
310
E2E2E2E2E2E2E2E2E2E2E2F5E2E2E2E2E2E2E2E2E2E2E2E2E2E2E2E2E2E2E2E2F5F5E2E2E2E2E2E2E2E2E2E2E2E2E2E2E2E2E2E2E2E2F5E2E2E2E2E2E2E2E2E2E2E2E2E2E2E2E2E2E2E2E2E2E2E2E2E2E2E2E2E2E2E2E2E2E2E2E2E2E2E2E2E2E2E2E2E2E2E2E2E2E2E2E2E2E2E2E2E2E2E2E2E2E2E2E2E2E2E2E2E2E2E2E2
310
E2E2E2E2E2E2E2E2E2E2E2E2E2E2E2E2E2E2E2E2E2E2E2E2E2E2E2E2E2E2E2E2E2E2E2E2E2E2E2E2E2E2E2E2E2E2E2E2E2E2E2E2E2E2E2E2E2E2E2E2E2E2E2E2F5E2E2E2E2E2E2E2E2E2E2E2E2E2E2E2E2E2E2E2E2F5F5E2E2E2F5E2E2E2E2E2E2E2E2E2E2E2E2E2E2E2E2F5E2E2E2E2E2E2E2E2E2E2E2E2E2E2E2E2E2E2E2
310
E2E2E2E2E2E2E2E2E2E2E2E2E2E2E2E2E2E2E2E2E2E2E2E2E2E2E2E2E2E2E2E2E2E2E2E2E2E2E2E2E2E2E2E2E2E2E2E2E2E2E2E2E2E2E2E2E2E2E2E2E2E2E2E2E2E2E2E2E2E2E2E2E2E2E2E2E2E2E2E2E2E2E2E2E2E2E2E2E2E2E2E2E2E2E2E2E2E2E2E2E2E2E2E2E2E2E2E2E2E2E2E2E2E2E2E2E2F5E2E2E2E2E2E2E2E2E2
310
E2E2E2E2E2E2E2F5E2E2E2F5F5E2E2E2F5E2E2E2E2E2E2E2E2E2E2E2E2E2E2E2E2F5E2E2E2E2E2E2E2E2E2E2E2E2E2E2E2E2E2E2E2E2E2E2E2E2E2E2E2E2E2E2E2E2E2E2E2E2E2E2E2E2E2E2E2E2E2E2E2E2E2E2E2E2E2E2E2E2E2E2E2E2E2E2E2E2E2E2E2E2E2E2E2E2E2E2E2E2E2E2E2E2E2E2E2E2E2E2E2E2E2E2E2E2E2
310
E2E2E2E2E2E2E2E2E2E2E2E2E2E2E2E2E2E2E2E2E2E2E2E2E2E2E2E2E2E2E2E2E2E2E2E2E2E2E2E2E2E2E2F5E2E2E2E2E2E2E2E2E2E2E2E2E2E2E2E2F5E2E2E2F5F5E2E2E2F5E2E2E2E2E2E2E2E2E2E2E2E2E2E2E2E2F5E2E2E2E2E2E2E2E2E2E2E2E2E2E2E2E2E2E2E2E2E2E2E2E2E2E2E2E2E2E2E2E2E2E2E2E2E2E2E2E2
310
E2E2E2E2E2E2E2E2E2E2E2E2E2E2E2E2E2E2E2E2E2E2E2E2E2E2E2E2E2E2E2E2E2E2E2E2E2E2E2E2E2E2E2E2E2E2E2E2E2E2E2E2E2E2E2E2E2E2E2E2E2E2E2E2E2E2E2E2E2E2E2E2E2E2E2E2E2E2E2E2E2E2E2E2E2E2E2E2E2E2E2E2E2E2E2E2F5E2E2E2E2E2E2E2E2E2E2E2E2E2E2E2E2F5E2E2E2F5F5E2E2E2F5E2E2E2E2
310
E2E2E2E2E2E2E2E2E2E2E2E2F5E2E2E2E2E2E2E2E2E2E2E2E2E2E2E2E2E2E2E2E2E2E2E2E2E2E2E2E2E2E2E2E2E2E2E2E2E2E2E2E2E2E2E2E2E2E2E2E2E2E2E2E2E2E2E2E2E2E2E2E2E2E2E2E2E2E2E2E2E2E2E2E2E2E2E2E2E2E2E2E2E2E2E2E2E2E2E2E2E2E2E2E2E2E2E2E2E2E2E2E2E2E2E2E2E2E2E2E2E2E2E2E2E2E2
310
E2E2E2E2E2E2E2E2E2E2E2E2E2E2E2E2E2E2E2E2E2E2F5E2E2E2E2E2E2E2E2E2E2E2E2E2E2E2E2F5E2E2E2F5F5E2E2E2F5E2E2E2E2E2E2E2E2E2E2E2E2E2E2E2E2F5E2E2E2E2E2E2E2E2E2E2E2E2E2E2E2E2E2E2E2E2E2E2E2E2E2E2E2E2E2E2E2E2E2E2E2E2E2E2E2E2E2E2E2E2E2E2E2E2E2E2E2E2E2E2E2E2E2E2E2E2E2
310
E2E2E2E2E2E2E2E2E2E2E2E2E2E2E2E2E2E2E2E2E2E2E2E2E2E2E2E2E2E2E2E2E2E2E2E2E2E2E2E2E2E2E2E2E2E2E2E2E2E2E2E2E2E2E2E2E2E2E2E2E2E2E2E2E2E2E2E2E2E2E2E2E2E2E2F5E2E2E2E2E2E2E2E2E2E2E2E2E2E2E2E2F5E2E2E2F5F5E2E2E2F5E2E2E2E2E2E2E2E2E2E2E2E2E2E2E2E2F5E2E2E2E2E2E2E2E2
310
E2E2E2E2E2E2E2E2E2E2E2E2E2E2E2E2E2E2E2E2E2E2E2E2E2E2E2E2E2E2E2E2E2E2E2E2E2E2E2E2E2E2E2E2E2E2E2E2E2E2E2E2E2E2E2E2E2E2E2E2E2E2E2E2E2E2E2E2E2E2E2E2E2E2E2E2E2E2E2E2E2E2E2E2E2E2E2E2E2E2E2E2E2E2E2E2E2E2E2E2E2E2E2E2E2E2E2E2E2E2E2E2E2E2E2E2E2E2E2E2E2E2E2E2E2E2E2
310
E2F5E2E2E2E2E2E2E2E2E2E2E2E2E2E2E2E2F5E2E2E2F5F5E2E2E2F5E2E2E2E2E2E2E2E2E2E2E2E2E2E2E2E2F5E2E2E2E2E2E2E2E2E2E2E2E2E2E2E2E2E2E2E2E2E2E2E2E2E2E2E2E2E2E2E2E2E2E2E2E2E2E2E2E2E2E2E2E2E2E2E2E2E2E2E2E2E2E2E2E2E2E2E2E2E2E2E2E2E2E2E2E2E2E2E2E2E2E2E2E2E2E2E2E2E2E2
310
E2E2E2E2E2E2E2E2E2E2E2E2E2E2E2E2E2E2E2E2E2E2E2E2E2E2E2E2E2E2E2E2E2E2E2E2E2E2E2E2E2E2E2E2E2E2E2E2E2E2E2E2E2E2F5E2E2E2E2E2E2E2E2E2E2E2E2E2E2E2E2F5E2E2E2F5F5E2E2E2F5E2E2E2E2E2E2E2E2E2E2E2E2E2E2E2E2F5E2E2E2E2E2E2E2E2E2E2E2E2E2E2E2E2E2E2E2E2E2E2E2E2E2E2E2E2E2
310
E2E2E2E2E2E2E2E2E2E2E2E2E2E2E2E2E2E2E2E2E2E2E2E2E2E2E2E2E2E2E2E2E2E2E2E2E2E2E2E2E2E2E2E2E2E2E2E2E2E2E2E2E2E2E2E2E2E2E2E2E2E2E2E2E2E2E2E2E2E2E2E2E2E2E2E2E2E2E2E2E2E2E2E2E2E2E2E2E2E2E2E2E2E2E2E2E2E2E2E2E2E2E2E2E2E2E2F5E2E2E2E2E2E2E2E2E2E2E2E2E2E2E2E2F5E2E2
310
E2F5F5E2E2E2F5E2E2E2E2E2E2E2E2E2E2E2E2E2E2E2E2F5E2E2E2E2E2E2E2E2E2E2E2E2E2E2E2E2E2E2E2E2E2E2E2E2E2E2E2E2E2E2E2E2E2E2E2E2E2E2E2E2E2E2E2E2E2E2E2E2E2E2E2E2E2E2E2E2E2E2E2E2E2E2E2E2E2E2E2E2E2E2E2E2E2E2E2E2E2E2E2E2E2E2E2E2E2E2E2E2E2E2E2E2E2E2E2E2E2E2E2E2E2E2E2
310
E2E2E2E2E2E2E2E2E2E2E2E2E2E2E2E2E2E2E2E2E2E2E2E2E2E2E2E2E2E2E2E2E2F5E2E2E2E2E2E2E2E2E2E2E2E2E2E2E2E2F5E2E2E2F5F5E2E2E2F5E2E2E2E2E2E2E2E2E2E2E2E2E2E2E2E2F5E2E2E2E2E2E2E2E2E2E2E2E2E2E2E2E2E2E2E2E2E2E2E2E2E2E2E2E2E2E2E2E2E2E2E2E2E2E2E2E2E2E2E2E2E2E2E2E2E2E2
310
E2E2E2E2E2E2E2E2E2E2E2E2E2E2E2E2E2E2E2E2E2E2E2E2E2E2E2E2E2E2E2E2E2E2E2E2E2E2E2E2E2E2E2E2E2E2E2E2E2E2E2E2E2E2E2E2E2E2E2E2E2E2E2E2E2E2E2E2E2E2E2E2E2E2E2E2E2E2E2E2E2E2E2E2E2E2F5E2E2E2E2E2E2E2E2E2E2E2E2E2E2E2E2F5E2E2E2F5F5E2E2E2F5E2E2E2E2E2E2E2E2E2E2E2E2E2E2
310
E2E2F5E2E2E2E2E2E2E2E2E2E2E2E2E2E2E2E2E2E2E2E2E2E2E2E2E2E2E2E2E2E2E2E2E2E2E2E2E2E2E2E2E2E2E2E2E2E2E2E2E2E2E2E2E2E2E2E2E2E2E2E2E2E2E2E2E2E2E2E2E2E2E2E2E2E2E2E2E2E2E2E2E2E2E2E2E2E2E2E2E2E2E2E2E2E2E2E2E2E2E2E2E2E2E2E2E2E2E2E2E2E2E2E2E2E2E2E2E2E2E2E2E2E2E2E2
310
E2E2E2E2E2E2E2E2E2E2E2E2F5E2E2E2E2E2E2E2E2E2E2E2E2E2E2E2E2F5E2E2E2F5F5E2E2E2F5E2E2E2E2E2E2E2E2E2E2E2E2E2E2E2E2F5E2E2E2E2E2E2E2E2E2E2E2E2E2E2E2E2E2E2E2E2E2E2E2E2E2E2E2E2E2E2E2E2E2E2E2E2E2E2E2E2E2E2E2E2E2E2E2E2E2E2E2E2E2E2E2E2E2E2E2E2E2E2E2E2E2E2E2E2E2E2E2
310
E2E2E2E2E2E2E2E2E2E2E2E2E2E2E2E2E2E2E2E2E2E2E2E2E2E2E2E2E2E2E2E2E2E2E2E2E2E2E2E2E2E2E2E2E2E2E2E2E2E2E2E2E2E2E2E2E2E2E2E2E2E2E2E2E2F5E2E2E2E2E2E2E2E2E2E2E2E2E2E2E2E2F5E2E2E2F5F5E2E2E2F5E2E2E2E2E2E2E2E2E2E2E2E2E2E2E2E2F5E2E2E2E2E2E2E2E2E2E2E2E2E2E2E2E2E2E2
310
E2E2E2E2E2E2E2E2E2E2E2E2E2E2E2E2E2E2E2E2E2E2E2E2E2E2E2E2E2E2E2E2E2E2E2E2E2E2E2E2E2E2E2E2E2E2E2E2E2E2E2E2E2E2E2E2E2E2E2E2E2E2E2E2E2E2E2E2E2E2E2E2E2E2E2E2E2E2E2E2E2E2E2E2E2E2E2E2E2E2E2E2E2E2E2E2E2E2E2E2E2E2E2E2E2E2E2E2E2E2E2E2E2E2E2E2E2E2F5E2E2E2E2E2E2E2E2
310
E2E2E2E2E2E2E2E2F5E2E2E2F5F5E2E2E2F5E2E2E2E2E2E2E2E2E2E2E2E2E2E2E2E2F5E2E2E2E2E2E2E2E2E2E2E2E2E2E2E2E2E2E2E2E2E2E2E2E2E2E2E2E2E2E2E2E2E2E2E2E2E2E2E2E2E2E2E2E2E2E2E2E2E2E2E2E2E2E2E2E2E2E2E2E2E2E2E2E2E2E2E2E2E2E2E2E2E2E2E2E2E2E2E2E2E2E2E2E2E2E2E2E2E2E2E2E2
310
E2E2E2E2E2E2E2E2E2E2E2E2E2E2E2E2E2E2E2E2E2E2E2E2E2E2E2E2E2E2E2E2E2E2E2E2E2E2E2E2E2E2E2E2F5E2E2E2E2E2E2E2E2E2E2E2E2E2E2E2E2F5E2E2E2F5F5E2E2E2F5E2E2E2E2E2E2E2E2E2E2E2E2E2E2E2E2F5E2E2E2E2E2E2E2E2E2E2E2E2E2E2E2E2E2E2E2E2E2E2E2E2E2E2E2E2E2E2E2E2E2E2E2E2E2E2E2
310
E2E2E2E2E2E2E2E2E2E2E2E2E2E2E2E2E2E2E2E2E2E2E2E2E2E2E2E2E2E2E2E2E2E2E2E2E2E2E2E2E2E2E2E2E2E2E2E2E2E2E2E2E2E2E2E2E2E2E2E2E2E2E2E2E2E2E2E2E2E2E2E2E2E2E2E2E2E2E2E2E2E2E2E2E2E2E2E2E2E2E2E2E2E2E2E2E2F5E2E2E2E2E2E2E2E2E2E2E2E2E2E2E2E2F5E2E2E2F5F5E2E2E2F5E2E2E2
310
E2E2E2E2E2E2E2E2E2E2E2E2E2F5E2E2E2E2E2E2E2E2E2E2E2E2E2E2E2E2E2E2E2E2E2E2E2E2E2E2E2E2E2E2E2E2E2E2E2E2E2E2E2E2E2E2E2E2E2E2E2E2E2E2E2E2E2E2E2E2E2E2E2E2E2E2E2E2E2E2E2E2E2E2E2E2E2E2E2E2E2E2E2E2E2E2E2E2E2E2E2E2E2E2E2E2E2E2E2E2E2E2E2E2E2E2E2E2E2E2E2E2E2E2E2E2E2
310
E2E2E2E2E2E2E2E2E2E2E2E2E2E2E2E2E2E2E2E2E2E2E2F5E2E2E2E2E2E2E2E2E2E2E2E2E2E2E2E2F5E2E2E2F5F5E2E2E2E2E2E2E2E2E2E2E2E2E2E2E2E2E2E2E2E2F5E2E2E2E2E2E2E2E2E2E2E2E2E2E2E2E2E2E2E2E2E2E2E2E2E2E2E2E2E2E2E2E2E2E2E2E2E2E2E2E2E2E2E2E2E2E2E2E2E2E2E2E2E2E2E2E2E2E2E2E2
310
E2E2E2E2E2E2E2E2E2E2E2E2E2E2E2E2E2E2E2E2E2E2E2E2E2E2E2E2E2E2E2E2E2E2E2E2E2E2E2E2E2E2E2E2E2E2E2E2E2E2E2E2E2E2E2E2E2E2E2E2E2E2E2E2E2E2E2E2E2E2E2E2E2E2E2E2F5E2E2E2E2E2E2E2E2E2E2E2E2E2E2E2E2E2E2E2E2F5F5E2E2E2E2E2E2E2E2E2E2E2E2E2E2E2E2E2E2E2E2F5E2E2E2E2E2E2E2
310
E2E2E2E2E2E2E2E2E2E2E2E2E2E2E2E2E2E2E2E2E2E2E2E2E2E2E2E2E2E2E2E2E2E2E2E2E2E2E2E2E2E2E2E2E2E2E2E2E2E2E2E2E2E2E2E2E2E2E2E2E2E2E2E2E2E2E2E2E2E2E2E2E2E2E2E2E2E2E2E2E2E2E2E2E2E2E2E2E2E2E2E2E2E2E2E2E2E2E2E2E2E2E2E2E2E2E2E2E2E2E2E2E2E2E2E2E2E2E2E2E2E2E2E2E2E2E2
310
E2E2F5E2E2E2E2E2E2E2E2E2E2E2E2E2E2E2E2E2E2E2E2F5F5E2E2E2E2E2E2E2E2E2E2E2E2E2E2E2E2E2E2E2E2F5E2E2E2E2E2E2E2E2E2E2E2E2E2E2E2E2E2E2E2E2E2E2E2E2E2E2E2E2E2E2E2E2E2E2E2E2E2E2E2E2E2E2E2E2E2E2E2E2E2E2E2E2E2E2E2E2E2E2E2E2E2E2E2E2E2E2E2E2E2E2E2E2E2E2E2E2E2E2E2E2E2
310
E2E2E2E2E2E2E2E2E2E2E2E2E2E2E2E2E2E2E2E2E2E2E2E2E2E2E2E2E2E2E2E2E2E2E2E2E2E2E2E2E2E2E2E2E2E2E2E2E2E2E2E2E2E2E2F5E2E2E2E2E2E2E2E2E2E2E2E2E2E2E2E2E2E2E2E2F5F5E2E2E2E2E2E2E2E2E2E2E2E2E2E2E2E2E2E2E2E2F5E2E2E2E2E2E2E2E2E2E2E2E2E2E2E2E2E2E2E2E2E2E2E2E2E2E2E2E2
310
E2E2E2E2E2E2E2E2E2E2E2E2E2E2E2E2E2E2E2E2E2E2E2E2E2E2E2E2E2E2E2E2E2E2E2E2E2E2E2E2E2E2E2E2E2E2E2E2E2E2E2E2E2E2E2E2E2E2E2E2E2E2E2E2E2E2E2E2E2E2E2E2E2E2E2E2E2E2E2E2E2E2E2E2E2E2E2E2E2E2E2E2E2E2E2E2E2E2E2E2E2E2E2E2E2E2E2E2F5E2E2E2E2E2E2E2E2E2E2E2E2E2E2E2E2E2E2
310
E2E2F5F5E2E2E2E2E2E2E2E2E2E2E2E2E2E2E2E2E2E2E2E2F5E2E2E2E2E2E2E2E2E2E2E2E2E2E2E2E2E2E2E2E2E2E2E2E2E2E2E2E2E2E2E2E2E2E2E2E2E2E2E2E2E2E2E2E2E2E2E2E2E2E2E2E2E2E2E2E2E2E2E2E2E2E2E2E2E2E2E2E2E2E2E2E2E2E2E2E2E2E2E2E2E2E2E2E2E2E2E2E2E2E2E2E2E2E2E2E2E2E2E2E2E2E2
310
E2E2E2E2E2E2E2E2E2E2E2E2E2E2E2E2E2E2E2E2E2E2E2E2E2E2E2E2E2E2E2E2E2E2F5E2E2E2E2E2E2E2E2E2E2E2E2E2E2E2E2E2E2E2E2F5F5E2E2E2E2E2E2E2E2E2E2E2E2E2E2E2E2E2E2E2E2F5E2E2E2E2E2E2E2E2E2E2E2E2E2E2E2E2E2E2E2E2E2E2E2E2E2E2E2E2E2E2E2E2E2E2E2E2E2E2E2E2E2E2E2E2E2E2E2E2E2
310
E2E2E2E2E2E2E2E2E2E2E2E2E2E2E2E2E2E2E2E2E2E2E2E2E2E2E2E2E2E2E2E2E2E2E2E2E2E2E2E2E2E2E2E2E2E2E2E2E2E2E2E2E2E2E2E2E2E2E2E2E2E2E2E2E2E2E2E2E2E2E2E2E2E2E2E2E2E2E2E2E2E2E2E2E2E2E2F5E2E2E2E2E2E2E2E2E2E2E2E2E2E2E2E2E2E2E2E2F5F5E2E2E2E2E2E2E2E2E2E2E2E2E2E2E2E2E2
310
E2E2E2F5E2E2E2E2E2E2E2E2E2E2E2E2E2E2E2E2E2E2E2E2E2E2E2E2E2E2E2E2E2E2E2E2E2E2E2E2E2E2E2E2E2E2E2E2E2E2E2E2E2E2E2E2E2E2E2E2E2E2E2E2E2E2E2E2E2E2E2E2E2E2E2E2E2E2E2E2E2E2E2E2E2E2E2E2E2E2E2E2E2E2E2E2E2E2E2E2E2E2E2E2E2E2E2E2E2E2E2E2E2E2E2E2E2E2E2E2E2E2E2E2E2E2E2
310
E2E2E2E2E2E2E2E2E2E2E2E2E2F5E2E2E2E2E2E2E2E2E2E2E2E2E2E2E2E2E2E2E2E2F5F5E2E2E2E2E2E2E2E2E2E2E2E2E2E2E2E2E2E2E2E2F5E2E2E2E2E2E2E2E2E2E2E2E2E2E2E2E2E2E2E2E2E2E2E2E2E2E2E2E2E2E2E2E2E2E2E2E2E2E2E2E2E2E2E2E2E2E2E2E2E2E2E2E2E2E2E2E2E2E2E2E2E2E2E2E2E2E2E2E2E2E2
310
E2E2E2E2E2E2E2E2E2E2E2E2E2E2E2E2E2E2E2E2E2E2E2E2E2E2E2E2E2E2E2E2E2E2E2E2E2E2E2E2E2E2E2E2E2E2E2E2E2E2E2E2E2E2E2E2E2E2E2E2E2E2E2E2E2E2F5E2E2E2E2E2E2E2E2E2E2E2E2E2E2E2E2E2E2E2E2F5F5E2E2E2E2E2E2E2E2E2E2E2E2E2E2E2E2E2E2E2E2F5E2E2E2E2E2E2E2E2E2E2E2E2E2E2E2E2E2
310
E2E2E2E2E2E2E2E2E2E2E2E2E2E2E2E2E2E2E2E2E2E2E2E2E2E2E2E2E2E2E2E2E2E2E2E2E2E2E2E2E2E2E2E2E2E2E2E2E2E2E2E2E2E2E2E2E2E2E2E2E2E2E2E2E2E2E2E2E2E2E2E2E2E2E2E2E2E2E2E2E2E2E2E2E2E2E2E2E2E2E2E2E2E2E2E2E2E2E2E2E2E2E2E2E2E2E2E2E2E2E2E2E2E2E2E2E2E2E2F5E2E2E2E2E2E2E2
310
E2E2E2E2E2E2E2E2E2E2E2E2E2F5F5E2E2E2F5E2E2E2E2E2E2E2E2E2E2E2E2E2E2E2E2F5E2E2E2E2E2E2E2E2E2E2E2E2E2E2E2E2E2E2E2E2E2E2E2E2E2E2E2E2E2E2E2E2E2E2E2E2E2E2E2E2E2E2E2E2E2E2E2E2E2E2E2E2E2E2E2E2E2E2E2E2E2E2E2E2E2E2E2E2E2E2E2E2E2E2E2E2E2E2E2E2E2E2E2E2E2E2E2E2E2E2E2
310
E2E2E2E2E2E2E2E2E2E2E2E2E2E2E2E2E2E2E2E2E2E2E2E2E2E2E2E2E2E2E2E2E2E2E2E2E2E2E2E2E2E2E2E2E2F5E2E2E2E2E2E2E2E2E2E2E2E2E2E2E2E2F5E2E2E2F5F5E2E2E2F5E2E2E2E2E2E2E2E2E2E2E2E2E2E2E2E2F5E2E2E2E2E2E2E2E2E2E2E2E2E2E2E2E2E2E2E2E2E2E2E2E2E2E2E2E2E2E2E2E2E2E2E2E2E2E2
310
E2E2E2E2E2E2E2E2E2E2E2E2E2E2E2E2E2E2E2E2E2E2E2E2E2E2E2E2E2E2E2E2E2E2E2E2E2E2E2E2E2E2E2E2E2E2E2E2E2E2E2E2E2E2E2E2E2E2E2E2E2E2E2E2E2E2E2E2E2E2E2E2E2E2E2E2E2E2E2E2E2E2E2E2E2E2E2E2E2E2E2E2E2E2E2E2E2E2F5E2E2E2E2E2E2E2E2E2E2E2E2E2E2E2E2F5E2E2E2F5F5E2E2E2F5E2E2
310
E2E2E2E2E2E2E2E2E2E2E2E2E2E2F5E2E2E2E2E2E2E2E2E2E2E2E2E2E2E2E2E2E2E2E2E2E2E2E2E2E2E2E2E2E2E2E2E2E2E2E2E2E2E2E2E2E2E2E2E2E2E2E2E2E2E2E2E2E2E2E2E2E2E2E2E2E2E2E2E2E2E2E2E2E2E2E2E2E2E2E2E2E2E2E2E2E2E2E2E2E2E2E2E2E2E2E2E2E2E2E2E2E2E2E2E2E2E2E2E2E2E2E2E2E2E2E2
310
E2E2E2E2E2E2E2E2E2E2E2E2E2E2E2E2E2E2E2E2E2E2E2E2F5E2E2E2E2E2E2E2E2E2E2E2E2E2E2E2E2F5E2E2E2F5F5E2E2E2F5E2E2E2E2E2E2E2E2E2E2E2E2E2E2E2E2F5E2E2E2E2E2E2E2E2E2E2E2E2E2E2E2E2E2E2E2E2E2E2E2E2E2E2E2E2E2E2E2E2E2E2E2E2E2E2E2E2E2E2E2E2E2E2E2E2E2E2E2E2E2E2E2E2E2E2E2
310
E2E2E2E2E2E2E2E2E2E2E2E2E2E2E2E2E2E2E2E2E2E2E2E2E2E2E2E2E2E2E2E2E2E2E2E2E2E2E2E2E2E2E2E2E2E2E2E2E2E2E2E2E2E2E2E2E2E2E2E2E2E2E2E2E2E2E2E2E2E2E2E2E2E2E2E2E2F5E2E2E2E2E2E2E2E2E2E2E2E2E2E2E2E2F5E2E2E2F5F5E2E2E2F5E2E2E2E2E2E2E2E2E2E2E2E2E2E2E2E2F5E2E2E2E2E2E2
310
E2E2E2E2E2E2E2E2E2E2E2E2E2E2E2E2E2E2E2E2E2E2E2E2E2E2E2E2E2E2E2E2E2E2E2E2E2E2E2E2E2E2E2E2E2E2E2E2E2E2E2E2E2E2E2E2E2E2E2E2E2E2E2E2E2E2E2E2E2E2E2E2E2E2E2E2E2E2E2E2E2E2E2E2E2E2E2E2E2E2E2E2E2E2E2E2E2E2E2E2E2E2E2E2E2E2E2E2E2E2E2E2E2E2E2E2E2E2E2E2E2E2E2E2E2E2E2
310
E2E2E2F5E2E2E2E2E2E2E2E2E2E2E2E2E2E2E2E2F5E2E2E2F5F5E2E2E2F5E2E2E2E2E2E2E2E2E2E2E2E2E2E2E2E2F5E2E2E2E2E2E2E2E2E2E2E2E2E2E2E2E2E2E2E2E2E2E2E2E2E2E2E2E2E2E2E2E2E2E2E2E2E2E2E2E2E2E2E2E2E2E2E2E2E2E2E2E2E2E2E2E2E2E2E2E2E2E2E2E2E2E2E2E2E2E2E2E2E2E2E2E2E2E2E2E2
310
E2E2E2E2E2E2E2E2E2E2E2E2E2E2E2E2E2E2E2E2E2E2E2E2E2E2E2E2E2E2E2E2E2E2E2E2E2E2E2E2E2E2E2E2E2E2E2E2E2E2E2E2E2E2E2E2F5E2E2E2E2E2E2E2E2E2E2E2E2E2E2E2E2F5E2E2E2F5F5E2E2E2F5E2E2E2E2E2E2E2E2E2E2E2E2E2E2E2E2F5E2E2E2E2E2E2E2E2E2E2E2E2E2E2E2E2E2E2E2E2E2E2E2E2E2E2E2
310
E2E2E2E2E2E2E2E2E2E2E2E2E2E2E2E2E2E2E2E2E2E2E2E2E2E2E2E2E2E2E2E2E2E2E2E2E2E2E2E2E2E2E2E2E2E2E2E2E2E2E2E2E2E2E2E2E2E2E2E2E2E2E2E2E2E2E2E2E2E2E2E2E2E2E2E2E2E2E2E2E2E2E2E2E2E2E2E2E2E2E2E2E2E2E2E2E2E2E2E2E2E2E2E2E2E2E2E2E2F5E2E2E2E2E2E2E2E2E2E2E2E2E2E2E2E2F5
310
E2E2E2F5F5E2E2E2F5E2E2E2E2E2E2E2E2E2E2E2E2E2E2E2E2F5E2E2E2E2E2E2E2E2E2E2E2E2E2E2E2E2E2E2E2E2E2E2E2E2E2E2E2E2E2E2E2E2E2E2E2E2E2E2E2E2E2E2E2E2E2E2E2E2E2E2E2E2E2E2E2E2E2E2E2E2E2E2E2E2E2E2E2E2E2E2E2E2E2E2E2E2E2E2E2E2E2E2E2E2E2E2E2E2E2E2E2E2E2E2E2E2E2E2E2E2E2
310
E2E2E2E2E2E2E2E2E2E2E2E2E2E2E2E2E2E2E2E2E2E2E2E2E2E2E2E2E2E2E2E2E2E2E2F5E2E2E2E2E2E2E2E2E2E2E2E2E2E2E2E2F5E2E2E2F5F5E2E2E2F5E2E2E2E2E2E2E2E2E2E2E2E2E2E2E2E2F5E2E2E2E2E2E2E2E2E2E2E2E2E2E2E2E2E2E2E2E2E2E2E2E2E2E2E2E2E2E2E2E2E2E2E2E2E2E2E2E2E2E2E2E2E2E2E2E2
310
E2E2E2E2E2E2E2E2E2E2E2E2E2E2E2E2E2E2E2E2E2E2E2E2E2E2E2E2E2E2E2E2E2E2E2E2E2E2E2E2E2E2E2E2E2E2E2E2E2E2E2E2E2E2E2E2E2E2E2E2E2E2E2E2E2E2E2E2E2E2E2E2E2E2E2E2E2E2E2E2E2E2E2E2E2E2E2E2F5E2E2E2E2E2E2E2E2E2E2E2E2E2E2E2E2F5E2E2E2F5F5E2E2E2F5E2E2E2E2E2E2E2E2E2E2E2E2
310
E2E2E2E2F5E2E2E2E2E2E2E2E2E2E2E2E2E2E2E2E2E2E2E2E2E2E2E2E2E2E2E2E2E2E2E2E2E2E2E2E2E2E2E2E2E2E2E2E2E2E2E2E2E2E2E2E2E2E2E2E2E2E2E2E2E2E2E2E2E2E2E2E2E2E2E2E2E2E2E2E2E2E2E2E2E2E2E2E2E2E2E2E2E2E2E2E2E2E2E2E2E2E2E2E2E2E2E2E2E2E2E2E2E2E2E2E2E2E2E2E2E2E2E2E2E2E2
310
E2E2E2E2E2E2E2E2E2E2E2E2E2E2F5E2E2E2E2E2E2E2E2E2E2E2E2E2E2E2E2F5E2E2E2F5F5E2E2E2F5E2E2E2E2E2E2E2E2E2E2E2E2E2E2E2E2F5E2E2E2E2E2E2E2E2E2E2E2E2E2E2E2E2E2E2E2E2E2E2E2E2E2E2E2E2E2E2E2E2E2E2E2E2E2E2E2E2E2E2E2E2E2E2E2E2E2E2E2E2E2E2E2E2E2E2E2E2E2E2E2E2E2E2E2E2E2
310
E2E2E2E2E2E2E2E2E2E2E2E2E2E2E2E2E2E2E2E2E2E2E2E2E2E2E2E2E2E2E2E2E2E2E2E2E2E2E2E2E2E2E2E2E2E2E2E2E2E2E2E2E2E2E2E2E2E2E2E2E2E2E2E2E2E2E2F5E2E2E2E2E2E2E2E2E2E2E2E2E2E2E2E2F5E2E2E2F5F5E2E2E2F5E2E2E2E2E2E2E2E2E2E2E2E2E2E2E2E2F5E2E2E2E2E2E2E2E2E2E2E2E2E2E2E2E2
310
E2E2E2E2E2E2E2E2E2E2E2E2E2E2E2E2E2E2E2E2E2E2E2E2E2E2E2E2E2E2E2E2E2E2E2E2E2E2E2E2E2E2E2E2E2E2E2E2E2E2E2E2E2E2E2E2E2E2E2E2E2E2E2E2E2E2E2E2E2E2E2E2E2E2E2E2E2E2E2E2E2E2E2E2E2E2E2E2E2E2E2E2E2E2E2E2E2E2E2E2E2E2E2E2E2E2E2E2E2E2E2E2E2E2E2E2E2E2E2E2F5E2E2E2E2E2E2
310
E2E2E2E2E2E2E2E2E2E2F5E2E2E2F5F5E2E2E2F5E2E2E2E2E2E2E2E2E2E2E2E2E2E2E2E2F5E2E2E2E2E2E2E2E2E2E2E2E2E2E2E2E2E2E2E2E2E2E2E2E2E2E2E2E2E2E2E2E2E2E2E2E2E2E2E2E2E2E2E2E2E2E2E2E2E2E2E2E2E2E2E2E2E2E2E2E2E2E2E2E2E2E2E2E2E2E2E2E2E2E2E2E2E2E2E2E2E2E2E2E2E2E2E2E2E2E2
310
E2E2E2E2E2E2E2E2E2E2E2E2E2E2E2E2E2E2E2E2E2E2E2E2E2E2E2E2E2E2E2E2E2E2E2E2E2E2E2E2E2E2E2E2E2E2F5E2E2E2E2E2E2E2E2E2E2E2E2E2E2E2E2F5E2E2E2F5F5E2E2E2F5E2E2E2E2E2E2E2E2E2E2E2E2E2E2E2E2F5E2E2E2E2E2E2E2E2E2E2E2E2E2E2E2E2E2E2E2E2E2E2E2E2E2E2E2E2E2E2E2E2E2E2E2E2E2
310
E2E2E2E2E2E2E2E2E2E2E2E2E2E2E2E2E2E2E2E2E2E2E2E2E2E2E2E2E2E2E2E2E2E2E2E2E2E2E2E2E2E2E2E2E2E2E2E2E2E2E2E2E2E2E2E2E2E2E2E2E2E2E2E2E2E2E2E2E2E2E2E2E2E2E2E2E2E2E2E2E2E2E2E2E2E2E2E2E2E2E2E2E2E2E2E2E2E2E2F5E2E2E2E2E2E2E2E2E2E2E2E2E2E2E2E2F5E2E2E2F5F5E2E2E2F5E2
310
E2E2E2E2E2E2E2E2E2E2E2E2E2E2E2F5E2E2E2E2E2E2E2E2E2E2E2E2E2E2E2E2E2E2E2E2E2E2E2E2E2E2E2E2E2E2E2E2E2E2E2E2E2E2E2E2E2E2E2E2E2E2E2E2E2E2E2E2E2E2E2E2E2E2E2E2E2E2E2E2E2E2E2E2E2E2E2E2E2E2E2E2E2E2E2E2E2E2E2E2E2E2E2E2E2E2E2E2E2E2E2E2E2E2E2E2E2E2E2E2E2E2E2E2E2E2E2
310
E2E2E2E2E2E2E2E2E2E2E2E2E2E2E2E2E2E2E2E2E2E2E2E2E2F5E2E2E2E2E2E2E2E2E2E2E2E2E2E2E2E2F5E2E2E2F5F5E2E2E2F5E2E2E2E2E2E2E2E2E2E2E2E2E2E2E2E2F5E2E2E2E2E2E2E2E2E2E2E2E2E2E2E2E2E2E2E2E2E2E2E2E2E2E2E2E2E2E2E2E2E2E2E2E2E2E2E2E2E2E2E2E2E2E2E2E2E2E2E2E2E2E2E2E2E2E2
310
E2E2E2E2E2E2E2E2E2E2E2E2E2E2E2E2E2E2E2E2E2E2E2E2E2E2E2E2E2E2E2E2E2E2E2E2E2E2E2E2E2E2E2E2E2E2E2E2E2E2E2E2E2E2E2E2E2E2E2E2E2E2E2E2E2E2E2E2E2E2E2E2E2E2E2E2E2E2F5E2E2E2E2E2E2E2E2E2E2E2E2E2E2E2E2F5E2E2E2F5F5E2E2E2F5E2E2E2E2E2E2E2E2E2E2E2E2E2E2E2E2F5E2E2E2E2E2
310
E2E2E2E2E2E2E2E2E2E2E2E2E2E2E2E2E2E2E2E2E2E2E2E2E2E2E2E2E2E2E2E2E2E2E2E2E2E2E2E2E2E2E2E2E2E2E2E2E2E2E2E2E2E2E2E2E2E2E2E2E2E2E2E2E2E2E2E2E2E2E2E2E2E2E2E2E2E2E2E2E2E2E2E2E2E2E2E2E2E2E2E2E2E2E2E2E2E2E2E2E2E2E2E2E2E2E2E2E2E2E2E2E2E2E2E2E2E2E2E2E2E2E2E2E2E2E2
310
E2E2E2E2F5E2E2E2E2E2E2E2E2E2E2E2E2E2E2E2E2F5E2E2E2F5F5E2E2E2E2E2E2E2E2E2E2E2E2E2E2E2E2E2E2E2E2F5E2E2E2E2E2E2E2E2E2E2E2E2E2E2E2E2E2E2E2E2E2E2E2E2E2E2E2E2E2E2E2E2E2E2E2E2E2E2E2E2E2E2E2E2E2E2E2E2E2E2E2E2E2E2E2E2E2E2E2E2E2E2E2E2E2E2E2E2E2E2E2E2E2E2E2E2E2E2E2
310
E2E2E2E2E2E2E2E2E2E2E2E2E2E2E2E2E2E2E2E2E2E2E2E2E2E2E2E2E2E2E2E2E2E2E2E2E2E2E2E2E2E2E2E2E2E2E2E2E2E2E2E2E2E2E2E2E2F5E2E2E2E2E2E2E2E2E2E2E2E2E2E2E2E2E2E2E2E2F5F5E2E2E2E2E2E2E2E2E2E2E2E2E2E2E2E2E2E2E2E2F5E2E2E2E2E2E2E2E2E2E2E2E2E2E2E2E2E2E2E2E2E2E2E2E2E2E2
310
E2E2E2E2E2E2E2E2E2E2E2E2E2E2E2E2E2E2E2E2E2E2E2E2E2E2E2E2E2E2E2E2E2E2E2E2E2E2E2E2E2E2E2E2E2E2E2E2E2E2E2E2E2E2E2E2E2E2E2E2E2E2E2E2E2E2E2E2E2E2E2E2E2E2E2E2E2E2E2E2E2E2E2E2E2E2E2E2E2E2E2E2E2E2E2E2E2E2E2E2E2E2E2E2E2E2E2E2E2E2F5E2E2E2E2E2E2E2E2E2E2E2E2E2E2E2E2
310
E2E2E2E2F5F5E2E2E2E2E2E2E2E2E2E2E2E2E2E2E2E2E2E2E2E2F5E2E2E2E2E2E2E2E2E2E2E2E2E2E2E2E2E2E2E2E2E2E2E2E2E2E2E2E2E2E2E2E2E2E2E2E2E2E2E2E2E2E2E2E2E2E2E2E2E2E2E2E2E2E2E2E2E2E2E2E2E2E2E2E2E2E2E2E2E2E2E2E2E2E2E2E2E2E2E2E2E2E2E2E2E2E2E2E2E2E2E2E2E2E2E2E2E2E2E2E2
310
E2E2E2E2E2E2E2E2E2E2E2E2E2E2E2E2E2E2E2E2E2E2E2E2E2E2E2E2E2E2E2E2E2E2E2E2F5E2E2E2E2E2E2E2E2E2E2E2E2E2E2E2E2E2E2E2E2F5F5E2E2E2E2E2E2E2E2E2E2E2E2E2E2E2E2E2E2E2E2F5E2E2E2E2E2E2E2E2E2E2E2E2E2E2E2E2E2E2E2E2E2E2E2E2E2E2E2E2E2E2E2E2E2E2E2E2E2E2E2E2E2E2E2E2E2E2E2
310
E2E2E2E2E2E2E2E2E2E2E2E2E2E2E2E2E2E2E2E2E2E2E2E2E2E2E2E2E2E2E2E2E2E2E2E2E2E2E2E2E2E2E2E2E2E2E2E2E2E2E2E2E2E2E2E2E2E2E2E2E2E2E2E2E2E2E2E2E2E2E2E2E2E2E2E2E2E2E2E2E2E2E2E2E2E2E2E2E2F5E2E2E2E2E2E2E2E2E2E2E2E2E2E2E2E2E2E2E2E2F5F5E2E2E2E2E2E2E2E2E2E2E2E2E2E2E2
310
E2E2E2E2E2F5F5F5F5F5F5F5F5F5F5F5F5F5F5F5F5F5F5F5F5F5F5F5F5F5F5F5F5F5F5F5F5F5F5F5F5F5F5F5F5F5F5F5F5F5F5F5F5F5F5F5F5F5F5F5F5F5F5F5F5F5F5F5F5F5F5F5F5F5F5F5F5F5F5F5F5F5F5F5F5F5F5F5F5F5F5F5F5F5F5F5F5F5F5F5F5F5F5F5F5F5F5F5F5F5F5F5F5F5F5F5F5F5F5F5F5F5F5F5F5F5F5
310
F5F5F5F5F5F5F5F5F5F5F5F5F5F5F5F5E2E2E2E2E2E2E2E2E2E2E2E2E2E2E2E2E2E2E2E2F5F5E2E2E2E2E2E2E2E2E2E2E2E2E2E2E2E2E2E2E2E2E2E2E2E2E2E2E2E2E2E2E2E2E2E2E2E2E2E2E2E2E2E2E2E2E2E2E2E2E2E2E2E2E2E2E2E2E2E2E2E2E2E2E2E2E2E2E2E2E2E2E2E2E2E2E2E2E2E2E2E2E2E2E2E2E2E2E2E2E2
310
E2E2E2E2E2E2E2E2E2E2E2E2E2E2E2E2E2E2E2E2E2E2E2E2E2E2E2E2E2E2E2E2E2E2E2E2E2E2E2E2E2E2E2E2E2E2E2E2E2E2E2E2E2E2E2E2E2E2E2E2E2E2E2E2E2E2E2E2E2E2E2E2E2E2E2E2E2E2E2E2E2E2E2E2E2E2E2E2E2F5F5E2E2E2E2E2E2E2E2E2E2E2E2E2E2E2E2E2E2E2E2E2E2E2E2E2E2E2E2E2E2E2E2E2E2E2E2
310
E2E2E2E2E2E2E2E2E2E2E2E2E2E2E2E2E2E2E2E2E2E2E2E2E2E2E2E2E2E2E2E2E2E2E2E2E2E2E2E2E2E2E2E2E2E2E2E2E2E2E2E2E2E2E2E2E2E2E2E2E2E2E2E2E2E2E2E2E2E2E2E2E2E2E2E2E2E2E2E2E2E2E2E2E2E2E2E2E2E2E2E2E2E2E2E2E2E2E2E2E2E2E2E2E2E2E2E2E2E2E2E2E2E2E2E2E2E2E2E2E2E2E2E2E2E2E2
310
E2E2E2E2E2E2E2E2E2E2E2E2E2E2E2F5F5E2E2E2E2E2E2E2E2E2E2E2E2E2E2E2E2E2E2E2E2E2E2E2E2E2E2E2E2E2E2E2E2E2E2E2E2E2E2E2E2E2E2E2E2E2E2E2E2E2E2E2E2E2E2E2E2E2E2E2E2E2E2E2E2E2E2E2E2E2E2E2E2E2E2E2E2E2E2E2E2E2E2E2E2E2E2E2E2E2E2E2E2E2E2E2E2E2E2E2E2E2E2E2E2E2E2E2E2E2E2
310
E2E2E2E2E2E2E2E2E2E2E2E2E2E2E2E2E2E2E2E2E2E2E2E2E2E2E2E2E2E2E2E2E2E2E2E2E2E2E2E2E2E2E2E2E2E2E2E2E2E2E2E2E2E2E2E2E2E2E2E2E2E2E2E2E2E2E2E2F5F5E2E2E2E2E2E2E2E2E2E2E2E2E2E2E2E2E2E2E2E2E2E2E2E2E2E2E2E2E2E2E2E2E2E2E2E2E2E2E2E2E2E2E2E2E2E2E2E2E2E2E2E2E2E2E2E2E2
310
E2E2E2E2E2E2E2E2E2E2E2E2E2E2E2E2E2E2E2E2E2E2E2E2E2E2E2E2E2E2E2E2E2E2E2E2E2E2E2E2E2E2E2E2E2E2E2E2E2E2E2E2E2E2E2E2E2E2E2E2E2E2E2E2E2E2E2E2E2E2E2E2E2E2E2E2E2E2E2E2E2E2E2E2E2E2E2E2E2E2E2E2E2E2E2E2E2E2E2E2E2E2E2E2E2E2E2E2E2E2E2E2E2E2E2E2E2E2E2E2E2F5F5E2E2E2F5
310
E2E2E2E2E2E2E2E2E2E2E2E2E2E2E2E2E2E2E2E2E2E2E2E2E2E2E2E2E2E2E2E2E2E2E2E2E2E2E2E2E2E2E2E2E2E2E2E2E2E2E2E2E2E2E2E2E2E2E2E2E2E2E2E2E2E2E2E2E2E2E2E2E2E2E2E2E2E2E2E2E2E2E2E2E2E2E2E2E2E2E2E2E2E2E2E2E2E2E2E2E2E2E2E2E2E2E2E2E2E2E2E2E2E2E2E2E2E2E2E2E2E2E2E2E2E2E2
310
E2E2E2E2E2E2E2E2E2E2E2E2E2E2E2E2E2E2E2E2E2E2E2E2E2E2E2E2E2E2E2E2E2E2E2E2E2E2E2E2E2E2E2F5E2E2E2F5F5E2E2E2F5E2E2E2E2E2E2E2E2E2E2E2E2E2E2E2E2E2E2E2E2E2E2E2E2E2E2E2E2E2E2E2E2E2E2E2E2E2E2E2E2E2E2E2E2E2E2E2E2E2E2E2E2E2E2E2E2E2E2E2E2E2E2E2E2E2E2E2E2E2E2E2E2E2E2
310
E2E2E2E2E2E2E2E2E2E2E2E2E2E2E2E2E2E2E2E2E2E2E2E2E2E2E2E2E2E2E2E2E2E2E2E2E2E2E2E2E2E2E2E2E2E2E2E2E2E2E2E2E2E2E2E2E2E2E2E2E2E2E2E2E2E2E2E2E2E2E2E2E2E2E2E2E2E2E2E2E2E2E2E2E2E2E2E2E2E2E2E2E2E2E2E2F5E2E2E2F5F5E2E2E2F5E2E2E2E2E2E2E2E2E2E2E2E2E2E2E2E2E2E2E2E2E2
310
E2E2E2E2E2E2E2E2E2E2E2E2E2E2E2E2E2E2E2E2E2E2E2E2E2E2E2E2E2E2E2E2E2E2E2E2E2E2E2E2E2E2E2E2E2E2E2E2E2E2E2E2E2E2E2E2E2E2E2E2E2E2E2E2E2E2E2E2E2E2E2E2E2E2E2E2E2E2E2E2E2E2E2E2E2E2E2E2E2E2E2E2E2E2E2E2E2E2E2E2E2E2E2E2E2E2E2E2E2E2E2E2E2E2E2E2E2E2E2E2E2E2E2E2E2E2E2
310
E2E2E2E2E2E2E2E2E2E2E2E2E2E2E2E2E2E2E2E2E2E2F5E2E2E2F5F5E2E2E2F5E2E2E2E2E2E2E2E2E2E2E2E2E2E2E2E2E2E2E2E2E2E2E2E2E2E2E2E2E2E2E2E2E2E2E2E2E2E2E2E2E2E2E2E2E2E2E2E2E2E2E2E2E2E2E2E2E2E2E2E2E2E2E2E2E2E2E2E2E2E2E2E2E2E2E2E2E2E2E2E2E2E2E2E2E2E2E2E2E2E2E2E2E2E2E2
310
E2E2E2E2E2E2E2E2E2E2E2E2E2E2E2E2E2E2E2E2E2E2E2E2E2E2E2E2E2E2E2E2E2E2E2E2E2E2E2E2E2E2E2E2E2E2E2E2E2E2E2E2E2E2E2E2E2E2E2E2E2E2E2E2E2E2E2E2E2E2E2E2E2E2E2F5E2E2E2F5F5E2E2E2F5E2E2E2E2E2E2E2E2E2E2E2E2E2E2E2E2E2E2E2E2E2E2E2E2E2E2E2E2E2E2E2E2E2E2E2E2E2E2E2E2E2E2
310
E2E2E2E2E2E2E2E2E2E2E2E2E2E2E2E2E2E2E2E2E2E2E2E2E2E2E2E2E2E2E2E2E2E2E2E2E2E2E2E2E2E2E2E2E2E2E2E2E2E2E2E2E2E2E2E2E2E2E2E2E2E2E2E2E2E2E2E2E2E2E2E2E2E2E2E2E2E2E2E2E2E2E2E2E2E2E2E2E2E2E2E2E2E2E2E2E2E2E2E2E2E2E2E2E2E2E2E2E2E2E2E2E2E2E2E2E2E2E2E2E2E2E2E2E2E2E2
310
E2F5E2E2E2F5F5E2E2E2F5E2E2E2E2E2E2E2E2E2E2E2E2E2E2E2E2E2E2E2E2E2E2E2E2E2E2E2E2E2E2E2E2E2E2E2E2E2E2E2E2E2E2E2E2E2E2E2E2E2E2E2E2E2E2E2E2E2E2E2E2E2E2E2E2E2E2E2E2E2E2E2E2E2E2E2E2E2E2E2E2E2E2E2E2E2E2E2E2E2E2E2E2E2E2E2E2E2E2E2E2E2E2E2E2E2E2E2E2E2E2E2E2E2E2E2E2
310
E2E2E2E2E2E2E2E2E2E2E2E2E2E2E2E2E2E2E2E2E2E2E2E2E2E2E2E2E2E2E2E2E2E2E2E2E2E2E2E2E2E2E2E2E2E2E2E2E2E2E2E2E2E2F5E2E2E2F5F5E2E2E2F5E2E2E2E2E2E2E2E2E2E2E2E2E2E2E2E2E2E2E2E2E2E2E2E2E2E2E2E2E2E2E2E2E2E2E2E2E2E2E2E2E2E2E2E2E2E2E2E2E2E2E2E2E2E2E2E2E2E2E2E2E2E2E2
310
E2E2E2E2E2E2E2E2E2E2E2E2E2E2E2E2E2E2E2E2E2E2E2E2E2E2E2E2E2E2E2E2E2E2E2E2E2E2E2E2E2E2E2E2E2E2E2E2E2E2E2E2E2E2E2E2E2E2E2E2E2E2E2E2E2E2E2E2E2E2E2E2E2E2E2E2E2E2E2E2E2E2E2E2E2E2E2E2E2E2E2E2E2E2E2E2E2E2E2E2E2E2E2E2E2E2E2F5E2E2E2F5F5E2E2E2F5E2E2E2E2E2E2E2E2E2E2
310
E2E2E2E2E2E2E2E2E2E2E2E2E2E2E2E2E2E2E2E2E2E2E2E2E2E2E2E2E2E2E2E2E2E2E2E2E2E2E2E2E2E2E2E2E2E2E2E2E2E2E2E2E2E2E2E2E2E2E2E2E2E2E2E2E2E2E2E2E2E2E2E2E2E2E2E2E2E2E2E2E2E2E2E2E2E2E2E2E2E2E2E2E2E2E2E2E2E2E2E2E2E2E2E2E2E2E2E2E2E2E2E2E2E2E2E2E2E2E2E2E2E2E2E2E2E2E2
310
E2E2E2E2E2E2E2E2E2E2E2E2E2E2E2E2E2E2E2E2E2E2E2E2E2E2E2E2E2E2E2E2E2F5E2E2E2F5F5E2E2E2F5F5F5F5F5F5F5F5E2E2E2E2E2E2E2E2E2F5F5F5F5F5F5F5F5F5F5F5F5F5F5F5F5E2E2E2E2E2E2E2E2E2F5F5F5F5F5F5F5F5F5F5F5F5F5F5F5E2E2E2E2E2E2E2E2E2F5F5F5F5F5F5F5F5F5F5F5F5F5F5F5F5E2E2E2
310
E2E2E2E2E2F5F5F5F5F5F5F5F5F5F5F5F5F5F5F5F5E2E2E2E2E2E2E2E2E2F5F5F5F5F5F5F5F5F5F5F5F5F5F5F5E2E2E2E2E2E2E2E2E2F5F5F5F5F5F5F5F5F5F5F5F5F5F5F5F5E2E2E2E2E2E2E2E2E2F5F5F5F5F5F5F5F5E2E2E2F5F5E2E2E2E2E2E2E2E2E2E2E2E2E2E2E2E2E2E2E2E2E2E2E2E2E2E2E2E2E2E2E2E2E2E2E2
310
E2E2E2E2E2E2E2E2E2E2E2E2E2E2E2E2E2E2E2E2E2E2E2E2E2E2E2E2E2E2E2E2E2E2E2E2E2E2E2E2E2E2E2E2E2E2E2E2E2E2E2E2E2E2E2E2E2E2E2E2E2E2E2E2E2E2E2E2E2E2E2E2E2E2E2E2E2E2E2E2E2E2E2E2E2E2E2E2E2E2E2E2E2E2E2E2E2E2E2E2E2E2E2E2E2E2E2E2E2E2E2E2E2E2E2E2E2E2E2E2E2E2E2E2E2E2E2
310
E2E2E2E2E2E2E2E2E2E2E2E2E2E2E2E2F5F5E2E2E2E2E2E2E2E2E2E2E2E2E2E2E2E2E2E2E2E2E2E2E2E2E2E2E2E2E2E2E2E2E2E2E2E2E2E2E2E2E2E2E2E2E2E2E2E2E2E2E2E2E2E2E2E2E2E2E2E2E2E2E2E2E2E2E2E2E2E2E2E2E2E2E2E2E2E2E2E2E2E2E2E2E2E2E2E2E2E2E2E2E2E2E2E2E2E2E2E2E2E2E2E2E2E2E2E2E2
310
E2E2E2E2E2E2E2E2E2E2E2E2E2E2E2E2E2E2E2E2E2E2E2E2E2E2E2E2E2E2E2E2E2E2E2E2E2E2E2E2E2E2E2E2E2E2E2E2E2E2E2E2E2E2E2E2E2E2E2E2E2E2E2E2E2E2E2E2E2F5F5E2E2E2E2E2E2E2E2E2E2E2E2E2E2E2E2E2E2E2E2E2E2E2E2E2E2E2E2E2E2E2E2E2E2E2E2E2E2E2E2E2E2E2E2E2E2E2E2E2E2E2E2E2E2E2E2
310
E2E2E2E2E2E2E2E2E2E2E2E2E2E2E2E2E2E2E2E2E2E2E2E2E2E2E2E2E2E2E2E2E2E2E2E2E2E2E2E2E2E2E2E2E2E2E2E2E2E2E2E2E2E2E2E2E2E2E2E2E2E2E2E2E2E2E2E2E2E2E2E2E2E2E2E2E2E2E2E2E2E2E2E2E2E2E2E2E2E2E2E2E2E2E2E2E2E2E2E2E2E2E2E2E2E2E2E2E2E2E2E2E2E2E2E2E2E2E2E2E2E2F5F5E2E2E2
310
E2E2E2E2E2E2E2E2E2E2E2E2E2E2E2E2E2E2E2E2E2E2E2E2E2E2E2E2E2E2E2E2E2E2E2E2E2E2E2E2E2E2E2E2E2E2E2E2E2E2E2E2E2E2E2E2E2E2E2E2E2E2E2E2E2E2E2E2E2E2E2E2E2E2E2E2E2E2E2E2E2E2E2E2E2E2E2E2E2E2E2E2E2E2E2E2E2E2E2E2E2E2E2E2E2E2E2E2E2E2E2E2E2E2E2E2E2E2E2E2E2E2E2E2E2E2E2
310
E2E2E2E2E2E2E2E2E2E2E2E2E2E2E2E2E2E2E2E2E2E2E2E2E2E2E2E2E2E2E2E2E2E2E2E2E2E2E2E2E2E2E2E2E2E2E2E2F5
  0
XRECORD
  5
61EAA
102
{ACAD_REACTORS
330
61EA9
102
}
330
61EA9
100
AcDbXrecord
280
     1
102
SHADEPLOT
 70
     0
102
SHADEPLOTRESLEVEL
 70
     2
102
SHADEPLOTCUSTOMDPI
 70
   300
  0
ENDSEC
  0
EOF
