  0
SECTION
  2
HEADER
  9
$ACADVER
  1
AC1015
  9
$ACADMAINTVER
 70
    20
  9
$DWGCODEPAGE
  3
ANSI_936
  9
$INSBASE
 10
0.0
 20
0.0
 30
0.0
  9
$EXTMIN
 10
-65.01666666666675
 20
-92.81616510830849
 30
0.0
  9
$EXTMAX
 10
117.6833333333332
 20
134.7910097243712
 30
0.0
  9
$LIMMIN
 10
0.0
 20
0.0
  9
$LIMMAX
 10
420.0
 20
297.0
  9
$ORTHOMODE
 70
     0
  9
$REGENMODE
 70
     1
  9
$FILLMODE
 70
     1
  9
$QTEXTMODE
 70
     0
  9
$MIRRTEXT
 70
     1
  9
$LTSCALE
 40
1.0
  9
$ATTMODE
 70
     1
  9
$TEXTSIZE
 40
3.5
  9
$TRACEWID
 40
1.0
  9
$TEXTSTYLE
  7
simplex
  9
$CLAYER
  8
0
  9
$CELTYPE
  6
ByLayer
  9
$CECOLOR
 62
   256
  9
$CELTSCALE
 40
1.0
  9
$DISPSILH
 70
     0
  9
$DIMSCALE
 40
0.0
  9
$DIMASZ
 40
3.5
  9
$DIMEXO
 40
0.0
  9
$DIMDLI
 40
0.38
  9
$DIMRND
 40
0.0
  9
$DIMDLE
 40
0.0
  9
$DIMEXE
 40
1.5
  9
$DIMTP
 40
0.0
  9
$DIMTM
 40
0.0
  9
$DIMTXT
 40
3.5
  9
$DIMCEN
 40
0.09
  9
$DIMTSZ
 40
0.0
  9
$DIMTOL
 70
     0
  9
$DIMLIM
 70
     0
  9
$DIMTIH
 70
     0
  9
$DIMTOH
 70
     0
  9
$DIMSE1
 70
     0
  9
$DIMSE2
 70
     0
  9
$DIMTAD
 70
     1
  9
$DIMZIN
 70
     8
  9
$DIMBLK
  1

  9
$DIMASO
 70
     1
  9
$DIMSHO
 70
     1
  9
$DIMPOST
  1

  9
$DIMAPOST
  1

  9
$DIMALT
 70
     0
  9
$DIMALTD
 70
     2
  9
$DIMALTF
 40
25.4
  9
$DIMLFAC
 40
1.0
  9
$DIMTOFL
 70
     0
  9
$DIMTVP
 40
0.0
  9
$DIMTIX
 70
     0
  9
$DIMSOXD
 70
     0
  9
$DIMSAH
 70
     0
  9
$DIMBLK1
  1

  9
$DIMBLK2
  1

  9
$DIMSTYLE
  2
\M+18352\M+18373\M+1815B - ISO-25
  9
$DIMCLRD
 70
   256
  9
$DIMCLRE
 70
   256
  9
$DIMCLRT
 70
   256
  9
$DIMTFAC
 40
1.0
  9
$DIMGAP
 40
2.299999999999998
  9
$DIMJUST
 70
     0
  9
$DIMSD1
 70
     0
  9
$DIMSD2
 70
     0
  9
$DIMTOLJ
 70
     1
  9
$DIMTZIN
 70
     8
  9
$DIMALTZ
 70
     0
  9
$DIMALTTZ
 70
     0
  9
$DIMUPT
 70
     0
  9
$DIMDEC
 70
     2
  9
$DIMTDEC
 70
     2
  9
$DIMALTU
 70
     2
  9
$DIMALTTD
 70
     2
  9
$DIMTXSTY
  7
simplex
  9
$DIMAUNIT
 70
     0
  9
$DIMADEC
 70
     0
  9
$DIMALTRND
 40
0.0
  9
$DIMAZIN
 70
     0
  9
$DIMDSEP
 70
    46
  9
$DIMATFIT
 70
     3
  9
$DIMFRAC
 70
     0
  9
$DIMLDRBLK
  1

  9
$DIMLUNIT
 70
     2
  9
$DIMLWD
 70
    -1
  9
$DIMLWE
 70
    -1
  9
$DIMTMOVE
 70
     0
  9
$LUNITS
 70
     2
  9
$LUPREC
 70
     4
  9
$SKETCHINC
 40
1.0
  9
$FILLETRAD
 40
1.5
  9
$AUNITS
 70
     0
  9
$AUPREC
 70
     0
  9
$MENU
  1
.
  9
$ELEVATION
 40
0.0
  9
$PELEVATION
 40
0.0
  9
$THICKNESS
 40
0.0
  9
$LIMCHECK
 70
     0
  9
$CHAMFERA
 40
10.0
  9
$CHAMFERB
 40
10.0
  9
$CHAMFERC
 40
20.0
  9
$CHAMFERD
 40
0.0
  9
$SKPOLY
 70
     0
  9
$TDCREATE
 40
2455489.391063368
  9
$TDUCREATE
 40
2455489.057730035
  9
$TDUPDATE
 40
2458416.575040058
  9
$TDUUPDATE
 40
2458416.241706725
  9
$TDINDWG
 40
1.9289381481
  9
$TDUSRTIMER
 40
1.9288855324
  9
$USRTIMER
 70
     1
  9
$ANGBASE
 50
0.0
  9
$ANGDIR
 70
     0
  9
$PDMODE
 70
     0
  9
$PDSIZE
 40
0.0
  9
$PLINEWID
 40
0.0
  9
$SPLFRAME
 70
     0
  9
$SPLINETYPE
 70
     6
  9
$SPLINESEGS
 70
     8
  9
$HANDSEED
  5
5F1E1
  9
$SURFTAB1
 70
     6
  9
$SURFTAB2
 70
     6
  9
$SURFTYPE
 70
     6
  9
$SURFU
 70
     6
  9
$SURFV
 70
     6
  9
$UCSBASE
  2

  9
$UCSNAME
  2

  9
$UCSORG
 10
0.0
 20
0.0
 30
0.0
  9
$UCSXDIR
 10
1.0
 20
0.0
 30
0.0
  9
$UCSYDIR
 10
0.0
 20
1.0
 30
0.0
  9
$UCSORTHOREF
  2

  9
$UCSORTHOVIEW
 70
     0
  9
$UCSORGTOP
 10
0.0
 20
0.0
 30
0.0
  9
$UCSORGBOTTOM
 10
0.0
 20
0.0
 30
0.0
  9
$UCSORGLEFT
 10
0.0
 20
0.0
 30
0.0
  9
$UCSORGRIGHT
 10
0.0
 20
0.0
 30
0.0
  9
$UCSORGFRONT
 10
0.0
 20
0.0
 30
0.0
  9
$UCSORGBACK
 10
0.0
 20
0.0
 30
0.0
  9
$PUCSBASE
  2

  9
$PUCSNAME
  2

  9
$PUCSORG
 10
0.0
 20
0.0
 30
0.0
  9
$PUCSXDIR
 10
1.0
 20
0.0
 30
0.0
  9
$PUCSYDIR
 10
0.0
 20
1.0
 30
0.0
  9
$PUCSORTHOREF
  2

  9
$PUCSORTHOVIEW
 70
     0
  9
$PUCSORGTOP
 10
0.0
 20
0.0
 30
0.0
  9
$PUCSORGBOTTOM
 10
0.0
 20
0.0
 30
0.0
  9
$PUCSORGLEFT
 10
0.0
 20
0.0
 30
0.0
  9
$PUCSORGRIGHT
 10
0.0
 20
0.0
 30
0.0
  9
$PUCSORGFRONT
 10
0.0
 20
0.0
 30
0.0
  9
$PUCSORGBACK
 10
0.0
 20
0.0
 30
0.0
  9
$USERI1
 70
     0
  9
$USERI2
 70
     0
  9
$USERI3
 70
     0
  9
$USERI4
 70
     0
  9
$USERI5
 70
     0
  9
$USERR1
 40
0.0
  9
$USERR2
 40
0.0
  9
$USERR3
 40
0.0
  9
$USERR4
 40
0.0
  9
$USERR5
 40
0.0
  9
$WORLDVIEW
 70
     1
  9
$SHADEDGE
 70
     3
  9
$SHADEDIF
 70
    70
  9
$TILEMODE
 70
     1
  9
$MAXACTVP
 70
    64
  9
$PINSBASE
 10
0.0
 20
0.0
 30
0.0
  9
$PLIMCHECK
 70
     0
  9
$PEXTMIN
 10
26.66999878883364
 20
20.31999878883365
 30
0.0
  9
$PEXTMAX
 10
240.0299890995025
 20
182.8799890995025
 30
0.0
  9
$PLIMMIN
 10
-6.350006103515625
 20
-6.349999904632567
  9
$PLIMMAX
 10
273.0499877929688
 20
209.5499939918518
  9
$UNITMODE
 70
     0
  9
$VISRETAIN
 70
     1
  9
$PLINEGEN
 70
     0
  9
$PSLTSCALE
 70
     1
  9
$TREEDEPTH
 70
  3020
  9
$CMLSTYLE
  2
Standard
  9
$CMLJUST
 70
     0
  9
$CMLSCALE
 40
20.0
  9
$PROXYGRAPHICS
 70
     1
  9
$MEASUREMENT
 70
     1
  9
$CELWEIGHT
370
    -1
  9
$ENDCAPS
280
     0
  9
$JOINSTYLE
280
     0
  9
$LWDISPLAY
290
     0
  9
$INSUNITS
 70
     4
  9
$HYPERLINKBASE
  1

  9
$STYLESHEET
  1

  9
$XEDIT
290
     1
  9
$CEPSNTYPE
380
     0
  9
$PSTYLEMODE
290
     1
  9
$FINGERPRINTGUID
  2
{601DDA01-5B13-4A4C-8F56-1333B78D855B}
  9
$VERSIONGUID
  2
{97CA834E-A2C3-4A3D-A1F5-7549CA275454}
  9
$EXTNAMES
290
     1
  9
$PSVPSCALE
 40
0.0
  9
$OLESTARTUP
290
     0
  0
ENDSEC
  0
SECTION
  2
CLASSES
  0
CLASS
  1
ACDBDICTIONARYWDFLT
  2
AcDbDictionaryWithDefault
  3
ObjectDBX Classes
 90
        0
280
     0
281
     0
  0
CLASS
  1
ACDBPLACEHOLDER
  2
AcDbPlaceHolder
  3
ObjectDBX Classes
 90
        0
280
     0
281
     0
  0
CLASS
  1
LAYOUT
  2
AcDbLayout
  3
ObjectDBX Classes
 90
        0
280
     0
281
     0
  0
CLASS
  1
DICTIONARYVAR
  2
AcDbDictionaryVar
  3
ObjectDBX Classes
 90
        0
280
     0
281
     0
  0
CLASS
  1
TABLESTYLE
  2
AcDbTableStyle
  3
ObjectDBX Classes
 90
     2047
280
     0
281
     0
  0
CLASS
  1
SORTENTSTABLE
  2
AcDbSortentsTable
  3
ObjectDBX Classes
 90
        0
280
     0
281
     0
  0
CLASS
  1
DIMASSOC
  2
AcDbDimAssoc
  3
"AcDbDimAssoc|Product Desc:     AcDim ARX App For Dimension|Company:          Autodesk, Inc.|WEB Address:      www.autodesk.com"
 90
        0
280
     0
281
     0
  0
CLASS
  1
ACAD_EVALUATION_GRAPH
  2
AcDbEvalGraph
  3
ObjectDBX Classes
 90
    33921
280
     0
281
     0
  0
CLASS
  1
ACAECUSTOBJ
  2
AcAeEditorObj
  3
AcAeEditorObj
 90
    33792
280
     0
281
     0
  0
CLASS
  1
ACDB_DYNAMICBLOCKPURGEPREVENTER_VERSION
  2
AcDbDynamicBlockPurgePreventer
  3
ObjectDBX Classes
 90
    33921
280
     0
281
     0
  0
ENDSEC
  0
SECTION
  2
TABLES
  0
TABLE
  2
VPORT
  5
8
330
0
100
AcDbSymbolTable
 70
     3
  0
VPORT
  5
5F1D2
330
8
100
AcDbSymbolTableRecord
100
AcDbViewportTableRecord
  2
*Active
 70
     0
 10
0.0
 20
0.0
 11
1.0
 21
1.0
 12
56.76997321322267
 22
7.643694537557564
 13
0.0
 23
0.0
 14
10.0
 24
10.0
 15
10.0
 25
10.0
 16
0.0
 26
0.0
 36
1.0
 17
0.0
 27
0.0
 37
0.0
 40
472.8185640586328
 41
1.381443298969072
 42
50.0
 43
0.0
 44
0.0
 50
0.0
 51
0.0
 71
     0
 72
  1000
 73
     1
 74
     1
 75
     0
 76
     0
 77
     0
 78
     0
281
     0
 65
     1
110
0.0
120
0.0
130
0.0
111
1.0
121
0.0
131
0.0
112
0.0
122
1.0
132
0.0
 79
     0
146
0.0
  0
ENDTAB
  0
TABLE
  2
LTYPE
  5
5
330
0
100
AcDbSymbolTable
 70
     4
  0
LTYPE
  5
14
330
5
100
AcDbSymbolTableRecord
100
AcDbLinetypeTableRecord
  2
ByBlock
 70
     0
  3

 72
    65
 73
     0
 40
0.0
  0
LTYPE
  5
15
330
5
100
AcDbSymbolTableRecord
100
AcDbLinetypeTableRecord
  2
ByLayer
 70
     0
  3

 72
    65
 73
     0
 40
0.0
  0
LTYPE
  5
16
330
5
100
AcDbSymbolTableRecord
100
AcDbLinetypeTableRecord
  2
Continuous
 70
     0
  3
Solid line
 72
    65
 73
     0
 40
0.0
  0
LTYPE
  5
D7
330
5
100
AcDbSymbolTableRecord
100
AcDbLinetypeTableRecord
  2
HIDDEN
 70
     0
  3
Hidden __ __ __ __ __ __ __ __ __ __ __ __ __ _
 72
    65
 73
     2
 40
9.524999999999996
 49
6.349999999999997
 74
     0
 49
-3.174999999999998
 74
     0
  0
LTYPE
  5
D9
330
5
100
AcDbSymbolTableRecord
100
AcDbLinetypeTableRecord
  2
CENTER
 70
     0
  3
Center ____ _ ____ _ ____ _ ____ _ ____ _ ____
 72
    65
 73
     4
 40
50.8
 49
31.75
 74
     0
 49
-6.349999999999997
 74
     0
 49
6.349999999999997
 74
     0
 49
-6.349999999999997
 74
     0
  0
LTYPE
  5
35815
330
5
100
AcDbSymbolTableRecord
100
AcDbLinetypeTableRecord
  2
PHANTOM
 70
     0
  3
_____ _ _ _____ _ _ _____ _ _ _____
 72
    65
 73
     6
 40
0.8
 49
0.45
 74
     0
 49
-0.05
 74
     0
 49
0.1
 74
     0
 49
-0.05
 74
     0
 49
0.1
 74
     0
 49
-0.05
 74
     0
  0
ENDTAB
  0
TABLE
  2
LAYER
  5
2
102
{ACAD_XDICTIONARY
360
E2
102
}
330
0
100
AcDbSymbolTable
 70
    14
  0
LAYER
  5
10
330
2
100
AcDbSymbolTableRecord
100
AcDbLayerTableRecord
  2
0
 70
     0
 62
     7
  6
Continuous
370
    -3
390
F
  0
LAYER
  5
D1
330
2
100
AcDbSymbolTableRecord
100
AcDbLayerTableRecord
  2
1
 70
     0
 62
     4
  6
Continuous
370
    50
390
F
1001
AcAecLayerStandard
1000

1000

  0
LAYER
  5
D3
330
2
100
AcDbSymbolTableRecord
100
AcDbLayerTableRecord
  2
2
 70
     0
 62
     7
  6
Continuous
370
    25
390
F
1001
AcAecLayerStandard
1000

1000

  0
LAYER
  5
D4
330
2
100
AcDbSymbolTableRecord
100
AcDbLayerTableRecord
  2
3
 70
     0
 62
     1
  6
HIDDEN
370
    35
390
F
1001
AcAecLayerStandard
1000

1000

  0
LAYER
  5
D8
330
2
100
AcDbSymbolTableRecord
100
AcDbLayerTableRecord
  2
4
 70
     0
 62
     2
  6
CENTER
370
    25
390
F
1001
AcAecLayerStandard
1000

1000

  0
LAYER
  5
DA
330
2
100
AcDbSymbolTableRecord
100
AcDbLayerTableRecord
  2
6
 70
     0
 62
     5
  6
Continuous
370
    35
390
F
1001
AcAecLayerStandard
1000

1000

  0
LAYER
  5
DB
330
2
100
AcDbSymbolTableRecord
100
AcDbLayerTableRecord
  2
cut
 70
     0
 62
     1
  6
Continuous
370
    25
390
F
1001
AcAecLayerStandard
1000

1000

  0
LAYER
  5
DC
330
2
100
AcDbSymbolTableRecord
100
AcDbLayerTableRecord
  2
nocut
 70
     0
 62
     7
  6
Continuous
370
    25
390
F
1001
AcAecLayerStandard
1000

1000

  0
LAYER
  5
DD
330
2
100
AcDbSymbolTableRecord
100
AcDbLayerTableRecord
  2
sk1
 70
     0
 62
     4
  6
Continuous
370
    50
390
F
1001
AcAecLayerStandard
1000

1000

  0
LAYER
  5
DE
330
2
100
AcDbSymbolTableRecord
100
AcDbLayerTableRecord
  2
sk2
 70
     0
 62
     7
  6
Continuous
370
    25
390
F
1001
AcAecLayerStandard
1000

1000

  0
LAYER
  5
DF
330
2
100
AcDbSymbolTableRecord
100
AcDbLayerTableRecord
  2
sk3
 70
     0
 62
     1
  6
HIDDEN
370
    35
390
F
1001
AcAecLayerStandard
1000

1000

  0
LAYER
  5
E0
330
2
100
AcDbSymbolTableRecord
100
AcDbLayerTableRecord
  2
sk4
 70
     0
 62
     2
  6
CENTER
370
    25
390
F
1001
AcAecLayerStandard
1000

1000

  0
LAYER
  5
E1
330
2
100
AcDbSymbolTableRecord
100
AcDbLayerTableRecord
  2
sk6
 70
     0
 62
     5
  6
Continuous
370
    35
390
F
1001
AcAecLayerStandard
1000

1000

  0
LAYER
  5
31B6
330
2
100
AcDbSymbolTableRecord
100
AcDbLayerTableRecord
  2
Defpoints
 70
     0
 62
     7
  6
Continuous
290
     0
370
    -3
390
F
  0
ENDTAB
  0
TABLE
  2
STYLE
  5
3
330
0
100
AcDbSymbolTable
 70
    11
  0
STYLE
  5
11
330
3
100
AcDbSymbolTableRecord
100
AcDbTextStyleTableRecord
  2
Standard
 70
     0
 40
0.0
 41
1.0
 50
0.0
 71
     0
 42
2.5
  3
txt.shx
  4
@extfont2.shx
  0
STYLE
  5
D6
330
3
100
AcDbSymbolTableRecord
100
AcDbTextStyleTableRecord
  2

 70
     1
 40
0.0
 41
1.0
 50
0.0
 71
     0
 42
2.5
  3
ltypeshp.shx
  4

  0
STYLE
  5
24A
330
3
100
AcDbSymbolTableRecord
100
AcDbTextStyleTableRecord
  2
simplex
 70
     0
 40
3.5
 41
1.0
 50
0.0
 71
     0
 42
3.5
  3
txt.shx
  4

  0
STYLE
  5
69E
330
3
100
AcDbSymbolTableRecord
100
AcDbTextStyleTableRecord
  2
MX_NOTE_STANDARD
 70
     0
 40
0.0
 41
1.0
 50
0.0
 71
     0
 42
4.2
  3
txt.shx
  4
extfont.shx
  0
STYLE
  5
3524
330
3
100
AcDbSymbolTableRecord
100
AcDbTextStyleTableRecord
  2
TEXTSTYLE_2
 70
     0
 40
0.0
 41
0.775
 50
0.0
 71
     0
 42
0.2
  3
gdt
  4

  0
STYLE
  5
3525
330
3
100
AcDbSymbolTableRecord
100
AcDbTextStyleTableRecord
  2
TEXTSTYLE_3
 70
     0
 40
0.0
 41
0.75
 50
0.0
 71
     0
 42
0.2
  3
txt
  4

  0
STYLE
  5
3526
330
3
100
AcDbSymbolTableRecord
100
AcDbTextStyleTableRecord
  2
TEXTSTYLE_13
 70
     0
 40
0.0
 41
1.0
 50
0.0
 71
     0
 42
0.2
  3
txt
  4

  0
STYLE
  5
519A
330
3
100
AcDbSymbolTableRecord
100
AcDbTextStyleTableRecord
  2
TEXTSTYLE_14
 70
     0
 40
0.0
 41
1.0
 50
0.0
 71
     0
 42
0.2
  3
txt
  4

  0
STYLE
  5
6F72
330
3
100
AcDbSymbolTableRecord
100
AcDbTextStyleTableRecord
  2
TEXTSTYLE_4
 70
     0
 40
0.0
 41
0.75
 50
0.0
 71
     0
 42
0.2
  3
txt
  4

  0
STYLE
  5
6F73
330
3
100
AcDbSymbolTableRecord
100
AcDbTextStyleTableRecord
  2
TEXTSTYLE_17
 70
     0
 40
0.0
 41
1.0
 50
0.0
 71
     0
 42
0.2
  3
txt
  4

  0
STYLE
  5
FE12
330
3
100
AcDbSymbolTableRecord
100
AcDbTextStyleTableRecord
  2
TEXTSTYLE_12
 70
     0
 40
0.0
 41
1.0
 50
0.0
 71
     0
 42
0.2
  3
txt
  4

  0
ENDTAB
  0
TABLE
  2
VIEW
  5
6
330
0
100
AcDbSymbolTable
 70
     0
  0
ENDTAB
  0
TABLE
  2
UCS
  5
7
330
0
100
AcDbSymbolTable
 70
     0
  0
ENDTAB
  0
TABLE
  2
APPID
  5
9
330
0
100
AcDbSymbolTable
 70
    11
  0
APPID
  5
12
330
9
100
AcDbSymbolTableRecord
100
AcDbRegAppTableRecord
  2
ACAD
 70
     0
  0
APPID
  5
D2
330
9
100
AcDbSymbolTableRecord
100
AcDbRegAppTableRecord
  2
AcAecLayerStandard
 70
     0
  0
APPID
  5
E6
330
9
100
AcDbSymbolTableRecord
100
AcDbRegAppTableRecord
  2
ACAD_DSTYLE_DIMTEXT_FILL
 70
     0
  0
APPID
  5
4C84
330
9
100
AcDbSymbolTableRecord
100
AcDbRegAppTableRecord
  2
ACAD_EXEMPT_FROM_CAD_STANDARDS
 70
     0
  0
APPID
  5
3493E
330
9
100
AcDbSymbolTableRecord
100
AcDbRegAppTableRecord
  2
DCO15
 70
     0
  0
APPID
  5
4366A
330
9
100
AcDbSymbolTableRecord
100
AcDbRegAppTableRecord
  2
ACAUTHENVIRON
 70
     0
  0
APPID
  5
4366D
330
9
100
AcDbSymbolTableRecord
100
AcDbRegAppTableRecord
  2
AcDbDynamicBlockTrueName
 70
     0
  0
APPID
  5
4366E
330
9
100
AcDbSymbolTableRecord
100
AcDbRegAppTableRecord
  2
AcDbDynamicBlockGUID
 70
     0
  0
APPID
  5
43670
330
9
100
AcDbSymbolTableRecord
100
AcDbRegAppTableRecord
  2
AcDbBlockRepETag
 70
     0
  0
APPID
  5
45C9F
330
9
100
AcDbSymbolTableRecord
100
AcDbRegAppTableRecord
  2
ACAD_DSTYLE_DIMEXT_ENABLED
 70
     0
  0
APPID
  5
45CA0
330
9
100
AcDbSymbolTableRecord
100
AcDbRegAppTableRecord
  2
ACAD_DSTYLE_DIMEXT_LENGTH
 70
     0
  0
ENDTAB
  0
TABLE
  2
DIMSTYLE
  5
A
330
0
100
AcDbSymbolTable
 70
    10
100
AcDbDimStyleTable
 71
     2
340
1BF
340
27
  0
DIMSTYLE
105
27
330
A
100
AcDbSymbolTableRecord
100
AcDbDimStyleTableRecord
  2
ISO-25
 70
     0
 41
2.5
 42
0.625
 43
3.75
 44
1.25
 73
     0
 74
     0
 77
     1
 78
     8
140
2.5
141
2.5
143
0.03937007874016
147
0.625
171
     3
172
     1
271
     2
272
     2
274
     3
278
    44
283
     0
284
     8
340
11
  0
DIMSTYLE
105
1BF
102
{ACAD_REACTORS
330
5EDEB
330
5EE03
330
5EEB4
330
5EECC
330
5EE84
330
5EE9C
330
5EE38
330
5EE52
330
5EE6C
330
5EFE2
102
}
330
A
100
AcDbSymbolTableRecord
100
AcDbDimStyleTableRecord
  2
\M+18352\M+18373\M+1815B - ISO-25
 70
     0
 40
0.0
 41
3.5
 42
0.0
 44
1.5
 73
     0
 74
     0
 77
     1
 78
     8
140
3.5
147
2.299999999999998
176
   256
177
   256
178
   256
271
     2
272
     2
284
     8
340
24A
371
    -1
372
    -1
  0
DIMSTYLE
105
69F
330
A
100
AcDbSymbolTableRecord
100
AcDbDimStyleTableRecord
  2
MXDIMSTYLE
 70
     0
 41
2.5
 42
0.5
 43
3.75
 44
1.5
 73
     0
 74
     0
 77
     1
 78
     8
140
4.2
141
2.5
143
0.03937
147
1.0
171
     4
172
     1
173
     1
271
     2
272
     2
274
     4
283
     0
288
     1
340
69E
341
697
343
697
344
697
  0
DIMSTYLE
105
3527
330
A
100
AcDbSymbolTableRecord
100
AcDbDimStyleTableRecord
  2
STANDARD
 70
     0
 41
3.0
 47
0.001
 48
0.001
 71
     1
 73
     0
 74
     0
 77
     1
 78
     8
140
4.0
271
     3
272
     3
284
     8
340
11
341
34B1
342
34B1
343
34B1
344
34B1
  0
DIMSTYLE
105
3528
330
A
100
AcDbSymbolTableRecord
100
AcDbDimStyleTableRecord
  2
DIMSTYLE_1
 70
     0
 41
3.0
 73
     0
 74
     0
 77
     1
 78
     8
140
4.0
271
     3
272
     3
284
     8
340
11
341
34B1
342
34B1
343
34B1
344
34B1
  0
DIMSTYLE
105
3529
330
A
100
AcDbSymbolTableRecord
100
AcDbDimStyleTableRecord
  2
DIMSTYLE_2
 70
     0
 41
3.0
 47
0.001
 48
0.001
 73
     0
 74
     0
 77
     1
 78
     8
140
4.0
271
     3
272
     3
284
     8
340
11
341
34B1
342
34B1
343
34B1
344
34B1
  0
DIMSTYLE
105
352A
330
A
100
AcDbSymbolTableRecord
100
AcDbDimStyleTableRecord
  2
DIMSTYLE_3
 70
     0
 41
3.0
 47
-0.1
 48
0.3
 71
     1
 73
     0
 74
     0
 77
     1
 78
     8
140
4.0
146
0.5
271
     3
272
     3
284
     8
340
11
341
34B1
342
34B1
343
34B1
344
34B1
  0
DIMSTYLE
105
352B
330
A
100
AcDbSymbolTableRecord
100
AcDbDimStyleTableRecord
  2
DIMSTYLE_4
 70
     0
 41
3.0
 47
0.1
 48
0.1
 71
     1
 73
     0
 74
     0
 77
     1
 78
     8
140
4.0
271
     3
272
     3
284
     8
340
11
341
34B1
342
34B1
343
34B1
344
34B1
  0
DIMSTYLE
105
27245
330
A
100
AcDbSymbolTableRecord
100
AcDbDimStyleTableRecord
  2
DIMSTYLE_5
 70
     0
 41
3.0
 47
0.001
 48
0.001
 73
     0
 74
     0
 77
     1
 78
     8
140
4.0
271
     3
272
     3
284
     8
340
11
341
34B1
342
34B1
343
34B1
344
34B1
  0
DIMSTYLE
105
4771C
330
A
100
AcDbSymbolTableRecord
100
AcDbDimStyleTableRecord
  2
\M+18352\M+18373\M+1815B_-_ISO-25
 70
     0
 40
0.0
 41
3.5
 42
0.0
 44
1.5
 73
     0
 74
     0
 77
     1
 78
     8
140
3.5
147
2.299999999999998
176
   256
177
   256
178
   256
279
     2
284
     8
285
     8
286
     8
340
24A
  0
ENDTAB
  0
TABLE
  2
BLOCK_RECORD
  5
1
330
0
100
AcDbSymbolTable
 70
    18
  0
BLOCK_RECORD
  5
1F
102
{ACAD_XDICTIONARY
360
31EE
102
}
330
1
100
AcDbSymbolTableRecord
100
AcDbBlockTableRecord
  2
*Model_Space
340
22
  0
BLOCK_RECORD
  5
50
330
1
100
AcDbSymbolTableRecord
100
AcDbBlockTableRecord
  2
*Paper_Space
340
51
  0
BLOCK_RECORD
  5
55
330
1
100
AcDbSymbolTableRecord
100
AcDbBlockTableRecord
  2
*Paper_Space0
340
56
  0
BLOCK_RECORD
  5
680
102
{ACAD_XDICTIONARY
360
43668
102
}
330
1
100
AcDbSymbolTableRecord
100
AcDbBlockTableRecord
  2
zero block
340
0
102
{BLKREFS
331
68C
102
}
1001
ACAD
1000
DesignCenter Data
1002
{
1070
     1
1070
     4
1002
}
1001
AcDbDynamicBlockGUID
1000
{A89DF4EB-B2CB-439E-AC69-1EAC9F242D1C}
1001
AcDbBlockRepETag
1070
     1
1071
        7
  0
BLOCK_RECORD
  5
697
330
1
100
AcDbSymbolTableRecord
100
AcDbBlockTableRecord
  2
_OPEN30
340
0
  0
BLOCK_RECORD
  5
32F1
330
1
100
AcDbSymbolTableRecord
100
AcDbBlockTableRecord
  2
_None
340
0
  0
BLOCK_RECORD
  5
34B1
330
1
100
AcDbSymbolTableRecord
100
AcDbBlockTableRecord
  2
_OPEN
340
0
  0
BLOCK_RECORD
  5
45AE6
330
1
100
AcDbSymbolTableRecord
100
AcDbBlockTableRecord
  2
*D5
340
0
  0
BLOCK_RECORD
  5
45B07
330
1
100
AcDbSymbolTableRecord
100
AcDbBlockTableRecord
  2
*D6
340
0
  0
BLOCK_RECORD
  5
45B1F
330
1
100
AcDbSymbolTableRecord
100
AcDbBlockTableRecord
  2
*D7
340
0
  0
BLOCK_RECORD
  5
5EDEC
330
1
100
AcDbSymbolTableRecord
100
AcDbBlockTableRecord
  2
*D8
340
0
  0
BLOCK_RECORD
  5
5EE04
330
1
100
AcDbSymbolTableRecord
100
AcDbBlockTableRecord
  2
*D9
340
0
  0
BLOCK_RECORD
  5
5EE39
330
1
100
AcDbSymbolTableRecord
100
AcDbBlockTableRecord
  2
*D10
340
0
  0
BLOCK_RECORD
  5
5EE53
330
1
100
AcDbSymbolTableRecord
100
AcDbBlockTableRecord
  2
*D11
340
0
  0
BLOCK_RECORD
  5
5EE6D
330
1
100
AcDbSymbolTableRecord
100
AcDbBlockTableRecord
  2
*D12
340
0
  0
BLOCK_RECORD
  5
5EE85
330
1
100
AcDbSymbolTableRecord
100
AcDbBlockTableRecord
  2
*D13
340
0
  0
BLOCK_RECORD
  5
5EE9D
330
1
100
AcDbSymbolTableRecord
100
AcDbBlockTableRecord
  2
*D14
340
0
  0
BLOCK_RECORD
  5
5EEB5
330
1
100
AcDbSymbolTableRecord
100
AcDbBlockTableRecord
  2
*D15
340
0
  0
BLOCK_RECORD
  5
5EECD
330
1
100
AcDbSymbolTableRecord
100
AcDbBlockTableRecord
  2
*D16
340
0
  0
BLOCK_RECORD
  5
5EFE3
330
1
100
AcDbSymbolTableRecord
100
AcDbBlockTableRecord
  2
*D17
340
0
  0
ENDTAB
  0
ENDSEC
  0
SECTION
  2
BLOCKS
  0
BLOCK
  5
20
330
1F
100
AcDbEntity
  8
0
100
AcDbBlockBegin
  2
*Model_Space
 70
     0
 10
0.0
 20
0.0
 30
0.0
  3
*Model_Space
  1

  0
ENDBLK
  5
21
330
1F
100
AcDbEntity
  8
0
100
AcDbBlockEnd
  0
BLOCK
  5
52
330
50
100
AcDbEntity
 67
     1
  8
0
100
AcDbBlockBegin
  2
*Paper_Space
 70
     0
 10
0.0
 20
0.0
 30
0.0
  3
*Paper_Space
  1

  0
ENDBLK
  5
53
330
50
100
AcDbEntity
 67
     1
  8
0
100
AcDbBlockEnd
  0
BLOCK
  5
57
330
55
100
AcDbEntity
 67
     1
  8
0
100
AcDbBlockBegin
  2
*Paper_Space0
 70
     0
 10
0.0
 20
0.0
 30
0.0
  3
*Paper_Space0
  1

  0
VIEWPORT
  5
71
102
{ACAD_XDICTIONARY
360
5F1DD
102
}
330
55
100
AcDbEntity
 67
     1
  8
0
100
AcDbViewport
 10
150.1652135264906
 20
101.599997546291
 30
0.0
 40
339.1973820494347
 41
164.5360435314421
 68
     0
 69
     0
 12
150.1652135264906
 22
101.599997546291
 13
0.0
 23
0.0
 14
10.0
 24
10.0
 15
10.0
 25
10.0
 16
0.0
 26
0.0
 36
1.0
 17
0.0
 27
0.0
 37
0.0
 42
50.0
 43
0.0
 44
0.0
 45
164.5360435314421
 50
0.0
 51
0.0
 72
  1000
 90
    32864
  1

281
     0
 71
     1
 74
     0
110
0.0
120
0.0
130
0.0
111
1.0
121
0.0
131
0.0
112
0.0
122
1.0
132
0.0
 79
     0
146
0.0
  0
VIEWPORT
  5
73
102
{ACAD_XDICTIONARY
360
5F1DF
102
}
330
55
100
AcDbEntity
 67
     1
  8
0
100
AcDbViewport
 10
133.3499939441681
 20
101.5999939441681
 30
0.0
 40
213.3599903106689
 41
162.5599903106689
 68
     0
 69
     0
 12
210.0
 22
148.5
 13
0.0
 23
0.0
 14
10.0
 24
10.0
 15
10.0
 25
10.0
 16
0.0
 26
0.0
 36
1.0
 17
0.0
 27
0.0
 37
0.0
 42
50.0
 43
0.0
 44
0.0
 45
324.0677920111345
 50
0.0
 51
0.0
 72
   100
 90
    32864
  1

281
     0
 71
     1
 74
     0
110
0.0
120
0.0
130
0.0
111
1.0
121
0.0
131
0.0
112
0.0
122
1.0
132
0.0
 79
     0
146
0.0
  0
ENDBLK
  5
58
330
55
100
AcDbEntity
 67
     1
  8
0
100
AcDbBlockEnd
  0
BLOCK
  5
68A
330
680
100
AcDbEntity
  8
0
100
AcDbBlockBegin
  2
zero block
 70
     0
 10
0.0
 20
0.0
 30
0.0
  3
zero block
  1

  0
HATCH
  5
43661
330
680
100
AcDbEntity
  8
0
 62
     7
100
AcDbHatch
 10
0.0
 20
0.0
 30
0.0
210
0.0
220
0.0
230
1.0
  2
SOLID
 70
     1
 71
     0
 91
        2
 92
        7
 72
     1
 73
     1
 93
        3
 10
0.0
 20
0.9999999999999875
 42
0.4142135623730915
 10
-1.0
 20
0.0
 42
0.0
 10
0.0
 20
0.0
 42
0.0
 97
        0
 92
        7
 72
     1
 73
     1
 93
        3
 10
1.000000000000007
 20
0.0
 42
0.0
 10
0.0
 20
0.0
 42
0.0
 10
0.0
 20
-1.0
 42
0.4142135623730974
 97
        0
 75
     0
 76
     1
 47
0.0090601366782909
 98
        2
 10
-0.380591363650975
 20
0.4885804701532896
 10
0.4350764810977559
 20
-0.4536738423704725
1001
AcDbBlockRepETag
1070
     1
1071
        0
1005
43661
  0
LINE
  5
43662
330
680
100
AcDbEntity
  8
0
 62
     7
 48
0.2
100
AcDbLine
 10
-1.0
 20
0.0
 30
0.0
 11
1.000000000000007
 21
0.0
 31
0.0
1001
AcDbBlockRepETag
1070
     1
1071
        1
1005
43662
  0
LINE
  5
43663
330
680
100
AcDbEntity
  8
0
 62
     7
 48
0.2
100
AcDbLine
 10
0.0
 20
-1.0
 30
0.0
 11
0.0
 21
0.9999999999999875
 31
0.0
1001
AcDbBlockRepETag
1070
     1
1071
        2
1005
43663
  0
ARC
  5
43664
330
680
100
AcDbEntity
  8
0
 62
     7
 48
0.2
100
AcDbCircle
 10
0.0
 20
0.0
 30
0.0
 40
1.0
100
AcDbArc
 50
270.0
 51
0.0
1001
AcDbBlockRepETag
1070
     1
1071
        3
1005
43664
  0
ARC
  5
43665
330
680
100
AcDbEntity
  8
0
 62
     7
 48
0.2
100
AcDbCircle
 10
0.0
 20
0.0
 30
0.0
 40
1.0
100
AcDbArc
 50
0.0
 51
90.0
1001
AcDbBlockRepETag
1070
     1
1071
        4
1005
43665
  0
ARC
  5
43666
330
680
100
AcDbEntity
  8
0
 62
     7
 48
0.2
100
AcDbCircle
 10
0.0
 20
0.0
 30
0.0
 40
1.0
100
AcDbArc
 50
180.0
 51
270.0
1001
AcDbBlockRepETag
1070
     1
1071
        5
1005
43666
  0
ARC
  5
43667
330
680
100
AcDbEntity
  8
0
 62
     7
 48
0.2
100
AcDbCircle
 10
0.0
 20
0.0
 30
0.0
 40
1.0
100
AcDbArc
 50
90.0
 51
180.0
1001
AcDbBlockRepETag
1070
     1
1071
        6
1005
43667
  0
ENDBLK
  5
68B
330
680
100
AcDbEntity
  8
0
100
AcDbBlockEnd
  0
BLOCK
  5
698
330
697
100
AcDbEntity
  8
0
  6
ByBlock
 62
     0
370
    -2
100
AcDbBlockBegin
  2
_OPEN30
 70
     2
 10
0.0
 20
0.0
 30
0.0
  3
_OPEN30
  1

  0
LINE
  5
699
330
697
100
AcDbEntity
  8
0
  6
ByBlock
 62
     0
370
    -2
100
AcDbLine
 10
-1.0
 20
0.267949
 30
0.0
 11
0.0
 21
0.0
 31
0.0
  0
LINE
  5
69A
330
697
100
AcDbEntity
  8
0
  6
ByBlock
 62
     0
370
    -2
100
AcDbLine
 10
0.0
 20
0.0
 30
0.0
 11
-1.0
 21
-0.267949
 31
0.0
  0
LINE
  5
69B
330
697
100
AcDbEntity
  8
0
  6
ByBlock
 62
     0
370
    -2
100
AcDbLine
 10
0.0
 20
0.0
 30
0.0
 11
-1.0
 21
0.0
 31
0.0
  0
ENDBLK
  5
69C
330
697
100
AcDbEntity
  8
0
  6
ByBlock
 62
     0
370
    -2
100
AcDbBlockEnd
  0
BLOCK
  5
32F2
330
32F1
100
AcDbEntity
  8
0
100
AcDbBlockBegin
  2
_None
 70
     0
 10
0.0
 20
0.0
 30
0.0
  3
_None
  1

  0
ENDBLK
  5
32F3
330
32F1
100
AcDbEntity
  8
0
100
AcDbBlockEnd
  0
BLOCK
  5
34B2
330
34B1
100
AcDbEntity
  8
0
100
AcDbBlockBegin
  2
_OPEN
 70
     0
 10
0.0
 20
0.0
 30
0.0
  3
_OPEN
  1

  0
LINE
  5
34B3
330
34B1
100
AcDbEntity
  8
0
  6
ByBlock
 62
     0
100
AcDbLine
 10
0.0
 20
0.0
 30
0.0
 11
-1.0
 21
0.1766666667
 31
0.0
  0
LINE
  5
34B4
330
34B1
100
AcDbEntity
  8
0
  6
ByBlock
 62
     0
100
AcDbLine
 10
-1.0
 20
-0.1766666667
 30
0.0
 11
0.0
 21
0.0
 31
0.0
  0
LINE
  5
34B5
330
34B1
100
AcDbEntity
  8
0
  6
ByBlock
 62
     0
100
AcDbLine
 10
-1.0
 20
0.0
 30
0.0
 11
0.0
 21
0.0
 31
0.0
  0
ENDBLK
  5
34B6
330
34B1
100
AcDbEntity
  8
0
  6
ByBlock
 62
     0
100
AcDbBlockEnd
  0
BLOCK
  5
45AF0
330
45AE6
100
AcDbEntity
  8
0
100
AcDbBlockBegin
  2
*D5
 70
     1
 10
0.0
 20
0.0
 30
0.0
  3
*D5
  1

  0
LINE
  5
47590
330
45AE6
100
AcDbEntity
  8
sk2
100
AcDbLine
 10
3.999999999999948
 20
-11.11249999999996
 30
0.0
 11
-16.93245261605147
 21
-11.11249999999995
 31
0.0
  0
LINE
  5
47591
330
45AE6
100
AcDbEntity
  8
sk2
100
AcDbLine
 10
3.999999999999948
 20
11.11249999999997
 30
0.0
 11
-16.93245261605146
 21
11.11249999999997
 31
0.0
  0
LINE
  5
47592
330
45AE6
100
AcDbEntity
  8
sk2
100
AcDbLine
 10
-15.43245261605147
 20
-7.612499999999952
 30
0.0
 11
-15.43245261605147
 21
7.612499999999974
 31
0.0
  0
SOLID
  5
47593
330
45AE6
100
AcDbEntity
  8
sk2
100
AcDbTrace
 10
-16.0157859493848
 20
-7.612499999999952
 30
0.0
 11
-14.84911928271814
 21
-7.612499999999952
 31
0.0
 12
-15.43245261605147
 22
-11.11249999999995
 32
0.0
 13
-15.43245261605147
 23
-11.11249999999995
 33
0.0
  0
SOLID
  5
47594
330
45AE6
100
AcDbEntity
  8
sk2
100
AcDbTrace
 10
-16.0157859493848
 20
7.612499999999974
 30
0.0
 11
-14.84911928271813
 21
7.612499999999974
 31
0.0
 12
-15.43245261605147
 22
11.11249999999997
 32
0.0
 13
-15.43245261605147
 23
11.11249999999997
 33
0.0
  0
MTEXT
  5
47595
330
45AE6
100
AcDbEntity
  8
sk2
100
AcDbMText
 10
-19.48245261605147
 20
0.0000000000000094
 30
0.0
 40
3.5
 41
0.0
 71
     5
 72
     1
  1
\A1;%%C22.225
  7
simplex
 11
0.0000000000000001
 21
1.0
 31
0.0
 73
     1
 44
1.0
1001
ACAD
1000
MTEXTBEGIN
1070
    73
1070
     1
1070
    44
1040
1.0
1070
    74
1070
     0
1000
MTEXTEND
  0
POINT
  5
47596
330
45AE6
100
AcDbEntity
  8
Defpoints
 62
     0
100
AcDbPoint
 10
3.999999999999948
 20
-11.11249999999996
 30
0.0
  0
POINT
  5
47597
330
45AE6
100
AcDbEntity
  8
Defpoints
 62
     0
100
AcDbPoint
 10
3.999999999999948
 20
11.11249999999997
 30
0.0
  0
POINT
  5
47598
330
45AE6
100
AcDbEntity
  8
Defpoints
 62
     0
100
AcDbPoint
 10
-15.43245261605147
 20
11.11249999999997
 30
0.0
  0
ENDBLK
  5
45AF1
330
45AE6
100
AcDbEntity
  8
0
100
AcDbBlockEnd
  0
BLOCK
  5
45B11
330
45B07
100
AcDbEntity
  8
0
100
AcDbBlockBegin
  2
*D6
 70
     1
 10
0.0
 20
0.0
 30
0.0
  3
*D6
  1

  0
LINE
  5
5CCE5
330
45B07
100
AcDbEntity
  8
sk2
100
AcDbLine
 10
-0.0000000000000526
 20
-28.49999999999995
 30
0.0
 11
-0.0000000000000538
 21
-48.51991747839992
 31
0.0
  0
LINE
  5
5CCE6
330
45B07
100
AcDbEntity
  8
sk2
100
AcDbLine
 10
30.99999999999995
 20
-8.099999999999972
 30
0.0
 11
30.99999999999994
 21
-48.51991747839992
 31
0.0
  0
LINE
  5
5CCE7
330
45B07
100
AcDbEntity
  8
sk2
100
AcDbLine
 10
3.499999999999946
 20
-47.01991747839993
 30
0.0
 11
27.49999999999995
 21
-47.01991747839993
 31
0.0
  0
SOLID
  5
5CCE8
330
45B07
100
AcDbEntity
  8
sk2
100
AcDbTrace
 10
3.499999999999946
 20
-46.43658414506659
 30
0.0
 11
3.499999999999946
 21
-47.60325081173324
 31
0.0
 12
-0.0000000000000537
 22
-47.01991747839993
 32
0.0
 13
-0.0000000000000537
 23
-47.01991747839993
 33
0.0
  0
SOLID
  5
5CCE9
330
45B07
100
AcDbEntity
  8
sk2
100
AcDbTrace
 10
27.49999999999995
 20
-46.43658414506659
 30
0.0
 11
27.49999999999995
 21
-47.60325081173324
 31
0.0
 12
30.99999999999994
 22
-47.01991747839993
 32
0.0
 13
30.99999999999994
 23
-47.01991747839993
 33
0.0
  0
MTEXT
  5
5CCEA
330
45B07
100
AcDbEntity
  8
sk2
100
AcDbMText
 10
15.49999999999994
 20
-42.96991747839992
 30
0.0
 40
3.5
 41
0.0
 71
     5
 72
     1
  1
\A1;31
  7
simplex
 73
     1
 44
1.0
1001
ACAD
1000
MTEXTBEGIN
1070
    73
1070
     1
1070
    44
1040
1.0
1070
    74
1070
     0
1000
MTEXTEND
  0
POINT
  5
5CCEB
330
45B07
100
AcDbEntity
  8
Defpoints
 62
     0
100
AcDbPoint
 10
-0.0000000000000526
 20
-28.49999999999995
 30
0.0
  0
POINT
  5
5CCEC
330
45B07
100
AcDbEntity
  8
Defpoints
 62
     0
100
AcDbPoint
 10
30.99999999999995
 20
-8.099999999999972
 30
0.0
  0
POINT
  5
5CCED
330
45B07
100
AcDbEntity
  8
Defpoints
 62
     0
100
AcDbPoint
 10
30.99999999999994
 20
-47.01991747839993
 30
0.0
  0
ENDBLK
  5
45B12
330
45B07
100
AcDbEntity
  8
0
100
AcDbBlockEnd
  0
BLOCK
  5
45B29
330
45B1F
100
AcDbEntity
  8
0
100
AcDbBlockBegin
  2
*D7
 70
     1
 10
0.0
 20
0.0
 30
0.0
  3
*D7
  1

  0
LINE
  5
475A2
330
45B1F
100
AcDbEntity
  8
2
100
AcDbLine
 10
46.67862375679994
 20
31.50000000000006
 30
0.0
 11
83.68825656423609
 21
31.50000000000004
 31
0.0
  0
LINE
  5
475A3
330
45B1F
100
AcDbEntity
  8
2
100
AcDbLine
 10
82.18825656423609
 20
-31.49999999999995
 30
0.0
 11
82.18825656423609
 21
28.00000000000004
 31
0.0
  0
SOLID
  5
475A4
330
45B1F
100
AcDbEntity
  8
2
100
AcDbTrace
 10
81.60492323090277
 20
28.00000000000004
 30
0.0
 11
82.77158989756944
 21
28.00000000000004
 31
0.0
 12
82.18825656423609
 22
31.50000000000004
 32
0.0
 13
82.18825656423609
 23
31.50000000000004
 33
0.0
  0
MTEXT
  5
475A5
330
45B1F
100
AcDbEntity
  8
2
100
AcDbMText
 10
78.1382565642361
 20
-1.749999999999953
 30
0.0
 40
3.5
 41
0.0
 71
     5
 72
     1
  1
\A1;%%C63
  7
simplex
 11
0.0000000000000001
 21
1.0
 31
0.0
 73
     1
 44
1.0
1001
ACAD
1000
MTEXTBEGIN
1070
    73
1070
     1
1070
    44
1040
1.0
1070
    74
1070
     0
1000
MTEXTEND
  0
POINT
  5
475A6
330
45B1F
100
AcDbEntity
  8
Defpoints
 62
     0
100
AcDbPoint
 10
82.95119073979995
 20
-31.49999999999995
 30
0.0
  0
POINT
  5
475A7
330
45B1F
100
AcDbEntity
  8
Defpoints
 62
     0
100
AcDbPoint
 10
46.67862375679994
 20
31.50000000000006
 30
0.0
  0
POINT
  5
475A8
330
45B1F
100
AcDbEntity
  8
Defpoints
 62
     0
100
AcDbPoint
 10
82.18825656423609
 20
31.50000000000004
 30
0.0
  0
ENDBLK
  5
45B2A
330
45B1F
100
AcDbEntity
  8
0
100
AcDbBlockEnd
  0
BLOCK
  5
5EDF6
330
5EDEC
100
AcDbEntity
  8
0
100
AcDbBlockBegin
  2
*D8
 70
     1
 10
0.0
 20
0.0
 30
0.0
  3
*D8
  1

  0
LINE
  5
5F0DE
330
5EDEC
100
AcDbEntity
  8
2
100
AcDbLine
 10
60.10935575989993
 20
76.20000000000004
 30
0.0
 11
107.7006382978758
 21
76.20000000000003
 31
0.0
  0
LINE
  5
5F0DF
330
5EDEC
100
AcDbEntity
  8
2
100
AcDbLine
 10
106.2006382978758
 20
72.70000000000003
 30
0.0
 11
106.2006382978758
 21
-76.20000000000006
 31
0.0
  0
SOLID
  5
5F0E0
330
5EDEC
100
AcDbEntity
  8
2
100
AcDbTrace
 10
105.6173049645425
 20
72.70000000000003
 30
0.0
 11
106.7839716312091
 21
72.70000000000003
 31
0.0
 12
106.2006382978758
 22
76.20000000000003
 32
0.0
 13
106.2006382978758
 23
76.20000000000003
 33
0.0
  0
MTEXT
  5
5F0E1
330
5EDEC
100
AcDbEntity
  8
2
100
AcDbMText
 10
102.1506382978758
 20
0.0000000000001
 30
0.0
 40
3.5
 41
0.0
 71
     5
 72
     1
  1
\A1;%%C152.4 [%%C6.000"]
  7
simplex
 11
0.0000000000000001
 21
1.0
 31
0.0
 73
     1
 44
1.0
1001
ACAD
1000
MTEXTBEGIN
1070
    73
1070
     1
1070
    44
1040
1.0
1070
    74
1070
     0
1000
MTEXTEND
  0
POINT
  5
5F0E2
330
5EDEC
100
AcDbEntity
  8
Defpoints
 62
     0
100
AcDbPoint
 10
60.10935575989993
 20
76.20000000000004
 30
0.0
  0
POINT
  5
5F0E3
330
5EDEC
100
AcDbEntity
  8
Defpoints
 62
     0
100
AcDbPoint
 10
60.10935575989981
 20
-76.20000000000004
 30
0.0
  0
POINT
  5
5F0E4
330
5EDEC
100
AcDbEntity
  8
Defpoints
 62
     0
100
AcDbPoint
 10
106.2006382978758
 20
-76.20000000000006
 30
0.0
  0
ENDBLK
  5
5EDF7
330
5EDEC
100
AcDbEntity
  8
0
100
AcDbBlockEnd
  0
BLOCK
  5
5EE0E
330
5EE04
100
AcDbEntity
  8
0
100
AcDbBlockBegin
  2
*D9
 70
     1
 10
0.0
 20
0.0
 30
0.0
  3
*D9
  1

  0
LINE
  5
5F0E5
330
5EE04
100
AcDbEntity
  8
2
100
AcDbLine
 10
63.49999999999988
 20
68.45000000000005
 30
0.0
 11
95.50613663569917
 21
68.45000000000005
 31
0.0
  0
LINE
  5
5F0E6
330
5EE04
100
AcDbEntity
  8
2
100
AcDbLine
 10
94.00613663569917
 20
64.95000000000003
 30
0.0
 11
94.00613663569911
 21
-68.45000000000005
 31
0.0
  0
SOLID
  5
5F0E7
330
5EE04
100
AcDbEntity
  8
2
100
AcDbTrace
 10
93.42280330236583
 20
64.95000000000003
 30
0.0
 11
94.58946996903248
 21
64.95000000000003
 31
0.0
 12
94.00613663569917
 22
68.45000000000005
 32
0.0
 13
94.00613663569917
 23
68.45000000000005
 33
0.0
  0
MTEXT
  5
5F0E8
330
5EE04
100
AcDbEntity
  8
2
100
AcDbMText
 10
89.95613663569915
 20
-1.749999999999991
 30
0.0
 40
3.5
 41
0.0
 71
     5
 72
     1
  1
\A1;%%C136.9 [%%C5.390"]
  7
simplex
 11
0.0000000000000001
 21
1.0
 31
0.0
 73
     1
 44
1.0
1001
ACAD
1000
MTEXTBEGIN
1070
    73
1070
     1
1070
    44
1040
1.0
1070
    74
1070
     0
1000
MTEXTEND
  0
POINT
  5
5F0E9
330
5EE04
100
AcDbEntity
  8
Defpoints
 62
     0
100
AcDbPoint
 10
63.49999999999988
 20
68.45000000000005
 30
0.0
  0
POINT
  5
5F0EA
330
5EE04
100
AcDbEntity
  8
Defpoints
 62
     0
100
AcDbPoint
 10
63.50151680357726
 20
-68.45000000000005
 30
0.0
  0
POINT
  5
5F0EB
330
5EE04
100
AcDbEntity
  8
Defpoints
 62
     0
100
AcDbPoint
 10
94.00613663569911
 20
-68.45000000000005
 30
0.0
  0
ENDBLK
  5
5EE0F
330
5EE04
100
AcDbEntity
  8
0
100
AcDbBlockEnd
  0
BLOCK
  5
5EE44
330
5EE39
100
AcDbEntity
  8
0
100
AcDbBlockBegin
  2
*D10
 70
     1
 10
0.0
 20
0.0
 30
0.0
  3
*D10
  1

  0
LINE
  5
5F0EC
330
5EE39
100
AcDbEntity
  8
2
100
AcDbLine
 10
63.49999999999988
 20
68.54841329713885
 30
0.0
 11
63.49999999999988
 21
91.53897389143798
 31
0.0
  0
LINE
  5
5F0ED
330
5EE39
100
AcDbEntity
  8
2
100
AcDbLine
 10
61.49999999999988
 20
74.1265965127252
 30
0.0
 11
61.49999999999988
 21
91.53897389143798
 31
0.0
  0
LINE
  5
5F0EE
330
5EE39
100
AcDbEntity
  8
2
100
AcDbLine
 10
66.99999999999988
 20
90.038973891438
 30
0.0
 11
70.4999999999999
 21
90.038973891438
 31
0.0
  0
LINE
  5
5F0EF
330
5EE39
100
AcDbEntity
  8
2
100
AcDbLine
 10
57.9999999999999
 20
90.038973891438
 30
0.0
 11
-65.01666666666675
 21
90.038973891438
 31
0.0
  0
SOLID
  5
5F0F0
330
5EE39
100
AcDbEntity
  8
2
100
AcDbTrace
 10
66.99999999999988
 20
90.6223072247713
 30
0.0
 11
66.99999999999988
 21
89.45564055810464
 31
0.0
 12
63.49999999999988
 22
90.038973891438
 32
0.0
 13
63.49999999999988
 23
90.038973891438
 33
0.0
  0
SOLID
  5
5F0F1
330
5EE39
100
AcDbEntity
  8
2
100
AcDbTrace
 10
57.9999999999999
 20
90.6223072247713
 30
0.0
 11
57.9999999999999
 21
89.45564055810464
 31
0.0
 12
61.49999999999988
 22
90.038973891438
 32
0.0
 13
61.49999999999988
 23
90.038973891438
 33
0.0
  0
MTEXT
  5
5F0F2
330
5EE39
100
AcDbEntity
  8
2
100
AcDbMText
 10
-5.258333333333438
 20
94.08897389143801
 30
0.0
 40
3.5
 41
0.0
 71
     5
 72
     1
  1
\A1;2 [.079"](APMX AT HIGH FEED PROCESS)
  7
simplex
 73
     1
 44
1.0
1001
ACAD
1000
MTEXTBEGIN
1070
    73
1070
     1
1070
    44
1040
1.0
1070
    74
1070
     0
1000
MTEXTEND
  0
POINT
  5
5F0F3
330
5EE39
100
AcDbEntity
  8
Defpoints
 62
     0
100
AcDbPoint
 10
63.49999999999988
 20
68.54841329713885
 30
0.0
  0
POINT
  5
5F0F4
330
5EE39
100
AcDbEntity
  8
Defpoints
 62
     0
100
AcDbPoint
 10
61.49999999999988
 20
74.1265965127252
 30
0.0
  0
POINT
  5
5F0F5
330
5EE39
100
AcDbEntity
  8
Defpoints
 62
     0
100
AcDbPoint
 10
61.49999999999988
 20
90.038973891438
 30
0.0
  0
ENDBLK
  5
5EE45
330
5EE39
100
AcDbEntity
  8
0
100
AcDbBlockEnd
  0
BLOCK
  5
5EE5E
330
5EE53
100
AcDbEntity
  8
0
100
AcDbBlockBegin
  2
*D11
 70
     1
 10
0.0
 20
0.0
 30
0.0
  3
*D11
  1

  0
LINE
  5
5F1B9
330
5EE53
100
AcDbEntity
  8
2
100
AcDbLine
 10
63.49999999999988
 20
68.54841329713885
 30
0.0
 11
63.49999999999988
 21
102.8364590212534
 31
0.0
  0
LINE
  5
5F1BA
330
5EE53
100
AcDbEntity
  8
2
100
AcDbLine
 10
60.4999999999999
 20
74.99650748776514
 30
0.0
 11
60.4999999999999
 21
102.8364590212534
 31
0.0
  0
LINE
  5
5F1BB
330
5EE53
100
AcDbEntity
  8
2
100
AcDbLine
 10
66.99999999999988
 20
101.3364590212534
 30
0.0
 11
70.49999999999989
 21
101.3364590212534
 31
0.0
  0
LINE
  5
5F1BC
330
5EE53
100
AcDbEntity
  8
2
100
AcDbLine
 10
56.99999999999989
 20
101.3364590212534
 30
0.0
 11
12.73333333333322
 21
101.3364590212534
 31
0.0
  0
SOLID
  5
5F1BD
330
5EE53
100
AcDbEntity
  8
2
100
AcDbTrace
 10
66.99999999999988
 20
101.9197923545867
 30
0.0
 11
66.99999999999988
 21
100.75312568792
 31
0.0
 12
63.49999999999988
 22
101.3364590212534
 32
0.0
 13
63.49999999999988
 23
101.3364590212534
 33
0.0
  0
SOLID
  5
5F1BE
330
5EE53
100
AcDbEntity
  8
2
100
AcDbTrace
 10
56.99999999999989
 20
101.9197923545867
 30
0.0
 11
56.99999999999989
 21
100.75312568792
 31
0.0
 12
60.4999999999999
 22
101.3364590212534
 32
0.0
 13
60.4999999999999
 23
101.3364590212534
 33
0.0
  0
MTEXT
  5
5F1BF
330
5EE53
100
AcDbEntity
  8
2
100
AcDbMText
 10
33.11666666666656
 20
105.3864590212534
 30
0.0
 40
3.5
 41
0.0
 71
     5
 72
     1
  1
\A1;APMX3 [.118"]
  7
simplex
 73
     1
 44
1.0
1001
ACAD
1000
MTEXTBEGIN
1070
    73
1070
     1
1070
    44
1040
1.0
1070
    74
1070
     0
1000
MTEXTEND
  0
POINT
  5
5F1C0
330
5EE53
100
AcDbEntity
  8
Defpoints
 62
     0
100
AcDbPoint
 10
63.49999999999988
 20
68.54841329713885
 30
0.0
  0
POINT
  5
5F1C1
330
5EE53
100
AcDbEntity
  8
Defpoints
 62
     0
100
AcDbPoint
 10
60.4999999999999
 20
74.99650748776514
 30
0.0
  0
POINT
  5
5F1C2
330
5EE53
100
AcDbEntity
  8
Defpoints
 62
     0
100
AcDbPoint
 10
60.4999999999999
 20
101.3364590212534
 30
0.0
  0
ENDBLK
  5
5EE5F
330
5EE53
100
AcDbEntity
  8
0
100
AcDbBlockEnd
  0
BLOCK
  5
5EE77
330
5EE6D
100
AcDbEntity
  8
0
100
AcDbBlockBegin
  2
*D12
 70
     1
 10
0.0
 20
0.0
 30
0.0
  3
*D12
  1

  0
LINE
  5
5F1B0
330
5EE6D
100
AcDbEntity
  8
2
100
AcDbLine
 10
63.49999999999988
 20
68.54841329713885
 30
0.0
 11
63.49999999999988
 21
113.8517471660361
 31
0.0
  0
LINE
  5
5F1B1
330
5EE6D
100
AcDbEntity
  8
2
100
AcDbLine
 10
-0.0000000000001137
 20
59.9125
 30
0.0
 11
-0.0000000000001104
 21
113.8517471660361
 31
0.0
  0
LINE
  5
5F1B2
330
5EE6D
100
AcDbEntity
  8
2
100
AcDbLine
 10
59.99999999999989
 20
112.3517471660361
 30
0.0
 11
3.499999999999889
 21
112.3517471660361
 31
0.0
  0
SOLID
  5
5F1B3
330
5EE6D
100
AcDbEntity
  8
2
100
AcDbTrace
 10
59.99999999999989
 20
112.9350804993695
 30
0.0
 11
59.99999999999989
 21
111.7684138327028
 31
0.0
 12
63.49999999999988
 22
112.3517471660361
 32
0.0
 13
63.49999999999988
 23
112.3517471660361
 33
0.0
  0
SOLID
  5
5F1B4
330
5EE6D
100
AcDbEntity
  8
2
100
AcDbTrace
 10
3.499999999999889
 20
112.9350804993695
 30
0.0
 11
3.499999999999889
 21
111.7684138327028
 31
0.0
 12
-0.0000000000001105
 22
112.3517471660361
 32
0.0
 13
-0.0000000000001105
 23
112.3517471660361
 33
0.0
  0
MTEXT
  5
5F1B5
330
5EE6D
100
AcDbEntity
  8
2
100
AcDbMText
 10
31.78241904505217
 20
116.4017471660361
 30
0.0
 40
3.5
 41
0.0
 71
     5
 72
     1
  1
\A1;63.5 [2.500"]
  7
simplex
 73
     1
 44
1.0
1001
ACAD
1000
MTEXTBEGIN
1070
    73
1070
     1
1070
    44
1040
1.0
1070
    74
1070
     0
1000
MTEXTEND
  0
POINT
  5
5F1B6
330
5EE6D
100
AcDbEntity
  8
Defpoints
 62
     0
100
AcDbPoint
 10
63.49999999999988
 20
68.54841329713885
 30
0.0
  0
POINT
  5
5F1B7
330
5EE6D
100
AcDbEntity
  8
Defpoints
 62
     0
100
AcDbPoint
 10
-0.0000000000001137
 20
59.9125
 30
0.0
  0
POINT
  5
5F1B8
330
5EE6D
100
AcDbEntity
  8
Defpoints
 62
     0
100
AcDbPoint
 10
-0.0000000000001105
 20
112.3517471660361
 30
0.0
  0
ENDBLK
  5
5EE78
330
5EE6D
100
AcDbEntity
  8
0
100
AcDbBlockEnd
  0
BLOCK
  5
5EE8F
330
5EE85
100
AcDbEntity
  8
0
100
AcDbBlockBegin
  2
*D13
 70
     1
 10
0.0
 20
0.0
 30
0.0
  3
*D13
  1

  0
LINE
  5
5F109
330
5EE85
100
AcDbEntity
  8
sk2
100
AcDbLine
 10
8.999999999999886
 20
25.39999999999998
 30
0.0
 11
-24.5609313948613
 21
25.39999999999999
 31
0.0
  0
LINE
  5
5F10A
330
5EE85
100
AcDbEntity
  8
sk2
100
AcDbLine
 10
8.999999999999886
 20
-25.39999999999998
 30
0.0
 11
-24.56093139486132
 21
-25.39999999999996
 31
0.0
  0
LINE
  5
5F10B
330
5EE85
100
AcDbEntity
  8
sk2
100
AcDbLine
 10
-23.0609313948613
 20
21.89999999999999
 30
0.0
 11
-23.06093139486131
 21
-21.89999999999997
 31
0.0
  0
SOLID
  5
5F10C
330
5EE85
100
AcDbEntity
  8
sk2
100
AcDbTrace
 10
-23.64426472819463
 20
21.89999999999999
 30
0.0
 11
-22.47759806152797
 21
21.89999999999999
 31
0.0
 12
-23.0609313948613
 22
25.39999999999999
 32
0.0
 13
-23.0609313948613
 23
25.39999999999999
 33
0.0
  0
SOLID
  5
5F10D
330
5EE85
100
AcDbEntity
  8
sk2
100
AcDbTrace
 10
-23.64426472819464
 20
-21.89999999999997
 30
0.0
 11
-22.47759806152798
 21
-21.89999999999997
 31
0.0
 12
-23.06093139486131
 22
-25.39999999999997
 32
0.0
 13
-23.06093139486131
 23
-25.39999999999997
 33
0.0
  0
MTEXT
  5
5F10E
330
5EE85
100
AcDbEntity
  8
sk2
100
AcDbMText
 10
-27.11093139486131
 20
0.000000000000009
 30
0.0
 40
3.5
 41
0.0
 71
     5
 72
     1
  1
\A1;%%C50.8 [%%c2.000"]
  7
simplex
 11
0.0000000000000001
 21
1.0
 31
0.0
 73
     1
 44
1.0
1001
ACAD
1000
MTEXTBEGIN
1070
    73
1070
     1
1070
    44
1040
1.0
1070
    74
1070
     0
1000
MTEXTEND
  0
POINT
  5
5F10F
330
5EE85
100
AcDbEntity
  8
Defpoints
 62
     0
100
AcDbPoint
 10
8.999999999999886
 20
25.39999999999998
 30
0.0
  0
POINT
  5
5F110
330
5EE85
100
AcDbEntity
  8
Defpoints
 62
     0
100
AcDbPoint
 10
8.999999999999886
 20
-25.39999999999998
 30
0.0
  0
POINT
  5
5F111
330
5EE85
100
AcDbEntity
  8
Defpoints
 62
     0
100
AcDbPoint
 10
-23.06093139486131
 20
-25.39999999999997
 30
0.0
  0
ENDBLK
  5
5EE90
330
5EE85
100
AcDbEntity
  8
0
100
AcDbBlockEnd
  0
BLOCK
  5
5EEA7
330
5EE9D
100
AcDbEntity
  8
0
100
AcDbBlockBegin
  2
*D14
 70
     1
 10
0.0
 20
0.0
 30
0.0
  3
*D14
  1

  0
LINE
  5
5F135
330
5EE9D
100
AcDbEntity
  8
sk2
100
AcDbLine
 10
1.999999999999884
 20
61.91250000000001
 30
0.0
 11
-37.09046017655746
 21
61.91250000000003
 31
0.0
  0
LINE
  5
5F136
330
5EE9D
100
AcDbEntity
  8
sk2
100
AcDbLine
 10
1.999999999999884
 20
-61.91250000000001
 30
0.0
 11
-37.0904601765575
 21
-61.91250000000001
 31
0.0
  0
LINE
  5
5F137
330
5EE9D
100
AcDbEntity
  8
sk2
100
AcDbLine
 10
-35.59046017655746
 20
58.41250000000003
 30
0.0
 11
-35.59046017655749
 21
-58.41250000000002
 31
0.0
  0
SOLID
  5
5F138
330
5EE9D
100
AcDbEntity
  8
sk2
100
AcDbTrace
 10
-36.17379350989079
 20
58.41250000000003
 30
0.0
 11
-35.00712684322412
 21
58.41250000000003
 31
0.0
 12
-35.59046017655746
 22
61.91250000000003
 32
0.0
 13
-35.59046017655746
 23
61.91250000000003
 33
0.0
  0
SOLID
  5
5F139
330
5EE9D
100
AcDbEntity
  8
sk2
100
AcDbTrace
 10
-36.17379350989082
 20
-58.41250000000002
 30
0.0
 11
-35.00712684322415
 21
-58.41250000000002
 31
0.0
 12
-35.59046017655749
 22
-61.91250000000001
 32
0.0
 13
-35.59046017655749
 23
-61.91250000000001
 33
0.0
  0
MTEXT
  5
5F13A
330
5EE9D
100
AcDbEntity
  8
sk2
100
AcDbMText
 10
-39.64046017655747
 20
0.0000000000000027
 30
0.0
 40
3.5
 41
0.0
 71
     5
 72
     1
  1
\A1;%%C123.825 [%%c4.875"]
  7
simplex
 11
0.0000000000000001
 21
1.0
 31
0.0
 73
     1
 44
1.0
1001
ACAD
1000
MTEXTBEGIN
1070
    73
1070
     1
1070
    44
1040
1.0
1070
    74
1070
     0
1000
MTEXTEND
  0
POINT
  5
5F13B
330
5EE9D
100
AcDbEntity
  8
Defpoints
 62
     0
100
AcDbPoint
 10
1.999999999999884
 20
61.91250000000001
 30
0.0
  0
POINT
  5
5F13C
330
5EE9D
100
AcDbEntity
  8
Defpoints
 62
     0
100
AcDbPoint
 10
1.999999999999884
 20
-61.91250000000001
 30
0.0
  0
POINT
  5
5F13D
330
5EE9D
100
AcDbEntity
  8
Defpoints
 62
     0
100
AcDbPoint
 10
-35.59046017655749
 20
-61.91250000000001
 30
0.0
  0
ENDBLK
  5
5EEA8
330
5EE9D
100
AcDbEntity
  8
0
100
AcDbBlockEnd
  0
BLOCK
  5
5EEBF
330
5EEB5
100
AcDbEntity
  8
0
100
AcDbBlockBegin
  2
*D15
 70
     1
 10
0.0
 20
0.0
 30
0.0
  3
*D15
  1

  0
LINE
  5
5F11B
330
5EEB5
100
AcDbEntity
  8
sk2
100
AcDbLine
 10
-0.0000000000001137
 20
-59.9125
 30
0.0
 11
-0.0000000000001157
 21
-92.81616510830849
 31
0.0
  0
LINE
  5
5F11C
330
5EEB5
100
AcDbEntity
  8
sk2
100
AcDbLine
 10
42.99999999999989
 20
-40.0
 30
0.0
 11
42.99999999999989
 21
-92.81616510830849
 31
0.0
  0
LINE
  5
5F11D
330
5EEB5
100
AcDbEntity
  8
sk2
100
AcDbLine
 10
3.499999999999883
 20
-91.3161651083085
 30
0.0
 11
39.49999999999988
 21
-91.3161651083085
 31
0.0
  0
SOLID
  5
5F11E
330
5EEB5
100
AcDbEntity
  8
sk2
100
AcDbTrace
 10
3.499999999999883
 20
-90.73283177497515
 30
0.0
 11
3.499999999999883
 21
-91.89949844164178
 31
0.0
 12
-0.0000000000001156
 22
-91.3161651083085
 32
0.0
 13
-0.0000000000001156
 23
-91.3161651083085
 33
0.0
  0
SOLID
  5
5F11F
330
5EEB5
100
AcDbEntity
  8
sk2
100
AcDbTrace
 10
39.49999999999988
 20
-90.73283177497515
 30
0.0
 11
39.49999999999988
 21
-91.89949844164178
 31
0.0
 12
42.99999999999989
 22
-91.3161651083085
 32
0.0
 13
42.99999999999989
 23
-91.3161651083085
 33
0.0
  0
MTEXT
  5
5F120
330
5EEB5
100
AcDbEntity
  8
sk2
100
AcDbMText
 10
21.49999999999989
 20
-87.26616510830849
 30
0.0
 40
3.5
 41
0.0
 71
     5
 72
     1
  1
\A1;43 [1.693"]
  7
simplex
 73
     1
 44
1.0
1001
ACAD
1000
MTEXTBEGIN
1070
    73
1070
     1
1070
    44
1040
1.0
1070
    74
1070
     0
1000
MTEXTEND
  0
POINT
  5
5F121
330
5EEB5
100
AcDbEntity
  8
Defpoints
 62
     0
100
AcDbPoint
 10
-0.0000000000001137
 20
-59.9125
 30
0.0
  0
POINT
  5
5F122
330
5EEB5
100
AcDbEntity
  8
Defpoints
 62
     0
100
AcDbPoint
 10
42.99999999999989
 20
-40.0
 30
0.0
  0
POINT
  5
5F123
330
5EEB5
100
AcDbEntity
  8
Defpoints
 62
     0
100
AcDbPoint
 10
42.99999999999989
 20
-91.3161651083085
 30
0.0
  0
ENDBLK
  5
5EEC0
330
5EEB5
100
AcDbEntity
  8
0
100
AcDbBlockEnd
  0
BLOCK
  5
5EED8
330
5EECD
100
AcDbEntity
  8
0
100
AcDbBlockBegin
  2
*D16
 70
     1
 10
0.0
 20
0.0
 30
0.0
  3
*D16
  1

  0
LINE
  5
5F124
330
5EECD
100
AcDbEntity
  8
2
100
AcDbLine
 10
63.49999999999988
 20
68.54841329713885
 30
0.0
 11
63.49999999999988
 21
-92.81616510830849
 31
0.0
  0
LINE
  5
5F125
330
5EECD
100
AcDbEntity
  8
2
100
AcDbLine
 10
61.39999999999986
 20
61.04746542173353
 30
0.0
 11
61.39999999999986
 21
-92.81616510830849
 31
0.0
  0
LINE
  5
5F126
330
5EECD
100
AcDbEntity
  8
2
100
AcDbLine
 10
57.89999999999984
 20
-91.3161651083085
 30
0.0
 11
54.39999999999986
 21
-91.3161651083085
 31
0.0
  0
LINE
  5
5F127
330
5EECD
100
AcDbEntity
  8
2
100
AcDbLine
 10
66.99999999999988
 20
-91.3161651083085
 30
0.0
 11
117.6833333333332
 21
-91.3161651083085
 31
0.0
  0
SOLID
  5
5F128
330
5EECD
100
AcDbEntity
  8
2
100
AcDbTrace
 10
57.89999999999984
 20
-90.73283177497515
 30
0.0
 11
57.89999999999984
 21
-91.89949844164178
 31
0.0
 12
61.39999999999986
 22
-91.3161651083085
 32
0.0
 13
61.39999999999986
 23
-91.3161651083085
 33
0.0
  0
SOLID
  5
5F129
330
5EECD
100
AcDbEntity
  8
2
100
AcDbTrace
 10
66.99999999999988
 20
-90.73283177497515
 30
0.0
 11
66.99999999999988
 21
-91.89949844164178
 31
0.0
 12
63.49999999999988
 22
-91.3161651083085
 32
0.0
 13
63.49999999999988
 23
-91.3161651083085
 33
0.0
  0
MTEXT
  5
5F12A
330
5EECD
100
AcDbEntity
  8
2
100
AcDbMText
 10
94.09166666666658
 20
-87.26616510830849
 30
0.0
 40
3.5
 41
0.0
 71
     5
 72
     1
  1
\A1;2.1 [.083"](MAX)
  7
simplex
 73
     1
 44
1.0
1001
ACAD
1000
MTEXTBEGIN
1070
    73
1070
     1
1070
    44
1040
1.0
1070
    74
1070
     0
1000
MTEXTEND
  0
POINT
  5
5F12B
330
5EECD
100
AcDbEntity
  8
Defpoints
 62
     0
100
AcDbPoint
 10
63.49999999999988
 20
68.54841329713885
 30
0.0
  0
POINT
  5
5F12C
330
5EECD
100
AcDbEntity
  8
Defpoints
 62
     0
100
AcDbPoint
 10
61.39999999999986
 20
61.04746542173353
 30
0.0
  0
POINT
  5
5F12D
330
5EECD
100
AcDbEntity
  8
Defpoints
 62
     0
100
AcDbPoint
 10
61.39999999999986
 20
-91.3161651083085
 30
0.0
  0
ENDBLK
  5
5EED9
330
5EECD
100
AcDbEntity
  8
0
100
AcDbBlockEnd
  0
BLOCK
  5
5EFEB
330
5EFE3
100
AcDbEntity
  8
0
100
AcDbBlockBegin
  2
*D17
 70
     1
 10
0.0
 20
0.0
 30
0.0
  3
*D17
  1

  0
LINE
  5
5F12E
330
5EFE3
100
AcDbEntity
  8
2
100
AcDbLine
 10
101.5126416810461
 20
96.90648086989341
 30
0.0
 11
64.48587100407535
 21
76.00946678463563
 31
0.0
  0
MTEXT
  5
5F12F
330
5EFE3
100
AcDbEntity
  8
2
100
AcDbMText
 10
82.53270851753693
 20
90.84515209204537
 30
0.0
 40
3.5
 41
0.0
 71
     5
 72
     1
  1
\A1;R1.5 [R.059"]
  7
simplex
 11
0.8708766133352588
 21
0.49150170329889
 31
0.0
 73
     1
 44
1.0
1001
ACAD
1000
MTEXTBEGIN
1070
    73
1070
     1
1070
    44
1040
1.0
1070
    74
1070
     0
1000
MTEXTEND
  0
SOLID
  5
5F130
330
5EFE3
100
AcDbEntity
  8
2
100
AcDbTrace
 10
64.199161677151
 20
76.51747814241453
 30
0.0
 11
64.7725803309997
 21
75.50145542685672
 31
0.0
 12
61.43780285740195
 22
74.2892108230895
 32
0.0
 13
61.43780285740195
 23
74.2892108230895
 33
0.0
  0
LINE
  5
5F131
330
5EFE3
100
AcDbEntity
  8
2
100
AcDbLine
 10
60.04148793739908
 20
73.55195826814117
 30
0.0
 11
60.22148793739908
 21
73.55195826814117
 31
0.0
  0
LINE
  5
5F132
330
5EFE3
100
AcDbEntity
  8
2
100
AcDbLine
 10
60.13148793739907
 20
73.46195826814119
 30
0.0
 11
60.13148793739907
 21
73.64195826814118
 31
0.0
  0
POINT
  5
5F133
330
5EFE3
100
AcDbEntity
  8
Defpoints
 62
     0
100
AcDbPoint
 10
61.43780285740195
 20
74.2892108230895
 30
0.0
  0
POINT
  5
5F134
330
5EFE3
100
AcDbEntity
  8
Defpoints
 62
     0
100
AcDbPoint
 10
60.13148793739907
 20
73.55195826814117
 30
0.0
  0
ENDBLK
  5
5EFEC
330
5EFE3
100
AcDbEntity
  8
0
100
AcDbBlockEnd
  0
ENDSEC
  0
SECTION
  2
ENTITIES
  0
INSERT
  5
68C
330
1F
100
AcDbEntity
  8
0
100
AcDbBlockReference
  2
zero block
 10
0.0000000000000072
 20
0.0
 30
0.0
 50
180.0
  0
MTEXT
  5
5CD11
330
1F
100
AcDbEntity
  8
sk6
100
AcDbMText
 10
-5.372207021639042
 20
134.7910097243712
 30
0.0
 40
5.0
 41
85.25075165579854
 71
     1
 72
     5
  1
WJX14UR6_0009FA
  7
simplex
 73
     1
 44
1.0
1001
ACAD
1000
ACAD_MTEXT_DEFINED_HEIGHT_BEGIN
1070
    46
1040
0.0
1000
ACAD_MTEXT_DEFINED_HEIGHT_END
1000
MTEXTBEGIN
1070
    73
1070
     1
1070
    44
1040
1.0
1070
    74
1070
     0
1000
MTEXTEND
  0
LINE
  5
5DDAE
330
1F
100
AcDbEntity
  8
nocut
100
AcDbLine
 10
62.19999999999993
 20
68.9721263789
 30
0.0
 11
62.19999999999993
 21
0.0
 31
0.0
1001
ACAD
1000
RTMaterial
1005
0
  0
LINE
  5
5DDB3
330
1F
100
AcDbEntity
  8
cut
100
AcDbLine
 10
63.43637431669993
 20
68.94826807130005
 30
0.0
 11
61.5438128937999
 21
75.13855755710007
 31
0.0
1001
ACAD
1000
RTMaterial
1005
0
  0
LINE
  5
5DDB4
330
1F
100
AcDbEntity
  8
nocut
100
AcDbLine
 10
60.75242087329989
 20
73.89156252789991
 30
0.0
 11
62.19999999999993
 21
68.9721263789
 31
0.0
1001
ACAD
1000
RTMaterial
1005
0
  0
LINE
  5
5DDB7
330
1F
100
AcDbEntity
  8
cut
100
AcDbLine
 10
59.96895416719985
 20
76.19341467540005
 30
0.0
 11
56.24838147419985
 21
75.84362948819999
 31
0.0
1001
ACAD
1000
RTMaterial
1005
0
  0
LINE
  5
5DDB8
330
1F
100
AcDbEntity
  8
nocut
100
AcDbLine
 10
54.57269736070009
 20
74.31477769290002
 30
0.0
 11
59.49599265729999
 21
74.74819208869991
 31
0.0
1001
ACAD
1000
RTMaterial
1005
0
  0
LINE
  5
5DDB9
330
1F
100
AcDbEntity
  8
nocut
100
AcDbLine
 10
53.03751526720009
 20
74.44645800599989
 30
0.0
 11
54.427344597
 21
74.31523763809997
 31
0.0
1001
ACAD
1000
RTMaterial
1005
0
  0
LINE
  5
5E19F
330
1F
100
AcDbEntity
  8
1
100
AcDbLine
 10
53.03751526719985
 20
-74.44645800599994
 30
0.0
 11
54.42734459689984
 21
-74.31523763810003
 31
0.0
1001
ACAD
1000
RTMaterial
1005
0
  0
LINE
  5
5E1A0
330
1F
100
AcDbEntity
  8
1
100
AcDbLine
 10
44.13970234269991
 20
-74.44999999999993
 30
0.0
 11
52.96231789559988
 21
-74.44999999999993
 31
0.0
1001
ACAD
1000
RTMaterial
1005
0
  0
LINE
  5
5E1A1
330
1F
100
AcDbEntity
  8
1
100
AcDbLine
 10
54.57269736069986
 20
-74.31477769289995
 30
0.0
 11
59.4959926572999
 21
-74.74819208869995
 31
0.0
1001
ACAD
1000
RTMaterial
1005
0
  0
LINE
  5
5E1A2
330
1F
100
AcDbEntity
  8
1
100
AcDbLine
 10
18.18306322479987
 20
-61.45904072549988
 30
0.0
 11
13.2174739991998
 21
-61.89347349039997
 31
0.0
1001
ACAD
1000
RTMaterial
1005
0
  0
LINE
  5
5E1A3
330
1F
100
AcDbEntity
  8
1
100
AcDbLine
 10
12.78169528549995
 20
-61.91250000000001
 30
0.0
 11
1.999999999999884
 21
-61.91250000000001
 31
0.0
1001
ACAD
1000
RTMaterial
1005
0
  0
LINE
  5
5E1A4
330
1F
100
AcDbEntity
  8
1
100
AcDbLine
 10
29.13221351139987
 20
-64.91129455010002
 30
0.0
 11
37.7118262457999
 21
-72.11044443119988
 31
0.0
1001
ACAD
1000
RTMaterial
1005
0
  0
LINE
  5
5E1A5
330
1F
100
AcDbEntity
  8
sk3
100
AcDbLine
 10
57.9999999999999
 20
-41.0
 30
0.0
 11
43.99999999999988
 21
-41.0
 31
0.0
1001
ACAD
1000
RTMaterial
1005
0
  0
LINE
  5
5E1A6
330
1F
100
AcDbEntity
  8
1
100
AcDbLine
 10
60.75242087329989
 20
-73.89156252789994
 30
0.0
 11
62.19999999999993
 21
-68.97212637889992
 31
0.0
1001
ACAD
1000
RTMaterial
1005
0
  0
LINE
  5
5E1A7
330
1F
100
AcDbEntity
  8
sk3
100
AcDbLine
 10
37.77830533739984
 20
-27.5
 30
0.0
 11
29.22169466259993
 21
-27.5
 31
0.0
1001
ACAD
1000
RTMaterial
1005
0
  0
LINE
  5
5E1A8
330
1F
100
AcDbEntity
  8
sk3
100
AcDbLine
 10
42.49999999999988
 20
-26.5
 30
0.0
 11
40.36620158309982
 21
-26.5
 31
0.0
1001
ACAD
1000
RTMaterial
1005
0
  0
LINE
  5
5E1A9
330
1F
100
AcDbEntity
  8
sk3
100
AcDbLine
 10
1.19999999999993
 20
-25.89999999999998
 30
0.0
 11
8.999999999999886
 21
-25.89999999999998
 31
0.0
1001
ACAD
1000
RTMaterial
1005
0
  0
LINE
  5
5E1AA
102
{ACAD_REACTORS
330
5EE9B
102
}
330
1F
100
AcDbEntity
  8
sk3
100
AcDbLine
 10
24.4965354668999
 20
-25.39999999999998
 30
0.0
 11
8.999999999999886
 21
-25.39999999999998
 31
0.0
1001
ACAD
1000
RTMaterial
1005
0
  0
LINE
  5
5E1AB
330
1F
100
AcDbEntity
  8
sk3
100
AcDbLine
 10
28.79907640089994
 20
-27.40630778699995
 30
0.0
 11
24.4965354668999
 21
-25.39999999999998
 31
0.0
1001
ACAD
1000
RTMaterial
1005
0
  0
LINE
  5
5E1AC
330
1F
100
AcDbEntity
  8
1
100
AcDbLine
 10
52.12897196179993
 20
72.91817893619998
 30
0.0
 11
52.15216012029986
 21
72.83462220900003
 31
0.0
1001
ACAD
1000
RTMaterial
1005
0
  0
LINE
  5
5E1AD
330
1F
100
AcDbEntity
  8
sk3
100
AcDbLine
 10
38.20092359909995
 20
-27.40630778699995
 30
0.0
 11
39.94358332139995
 21
-26.5936922128999
 31
0.0
1001
ACAD
1000
RTMaterial
1005
0
  0
LINE
  5
5E1AE
330
1F
100
AcDbEntity
  8
1
100
AcDbLine
 10
51.40568686799986
 20
62.8661702068
 30
0.0
 11
51.38197777459993
 21
62.97527380890016
 31
0.0
1001
ACAD
1000
RTMaterial
1005
0
  0
LINE
  5
5E1AF
330
1F
100
AcDbEntity
  8
1
100
AcDbLine
 10
62.19999999999993
 20
-68.9721254494999
 30
0.0
 11
62.19999999999993
 21
62.89207765390006
 31
0.0
1001
ACAD
1000
RTMaterial
1005
0
  0
LINE
  5
5E1B0
330
1F
100
AcDbEntity
  8
sk3
100
AcDbLine
 10
58.99999999999988
 20
56.89587856030005
 30
0.0
 11
58.99999999999988
 21
-56.89587856020001
 31
0.0
1001
ACAD
1000
RTMaterial
1005
0
  0
LINE
  5
5E1B1
330
1F
100
AcDbEntity
  8
1
100
AcDbLine
 10
10.1099999999999
 20
-9.524999999999975
 30
0.0
 11
0.9999999999998864
 21
-9.524999999999975
 31
0.0
1001
ACAD
1000
RTMaterial
1005
0
  0
LINE
  5
5E1B2
330
1F
100
AcDbEntity
  8
1
100
AcDbLine
 10
-0.0000000000001137
 20
10.52499999999997
 30
0.0
 11
0.9999999999998864
 21
9.524999999999975
 31
0.0
1001
ACAD
1000
RTMaterial
1005
0
  0
LINE
  5
5E1B3
330
1F
100
AcDbEntity
  8
sk3
100
AcDbLine
 10
42.49999999999988
 20
-26.5
 30
0.0
 11
42.99999999999989
 21
-27.0
 31
0.0
1001
ACAD
1000
RTMaterial
1005
0
  0
LINE
  5
5E1B4
330
1F
100
AcDbEntity
  8
sk3
100
AcDbLine
 10
58.99999999999988
 20
-42.0
 30
0.0
 11
57.9999999999999
 21
-41.0
 31
0.0
1001
ACAD
1000
RTMaterial
1005
0
  0
LINE
  5
5E1B5
330
1F
100
AcDbEntity
  8
sk3
100
AcDbLine
 10
57.9999999999999
 20
41.0
 30
0.0
 11
57.9999999999999
 21
-41.0
 31
0.0
1001
ACAD
1000
RTMaterial
1005
0
  0
LINE
  5
5E1B9
330
1F
100
AcDbEntity
  8
1
100
AcDbLine
 10
10.1099999999999
 20
9.524999999999975
 30
0.0
 11
11.1099999999999
 21
8.524999999999977
 31
0.0
1001
ACAD
1000
RTMaterial
1005
0
  0
LINE
  5
5E1BA
330
1F
100
AcDbEntity
  8
sk3
100
AcDbLine
 10
1.19999999999993
 20
25.89999999999998
 30
0.0
 11
-0.0000000000001137
 21
27.10000000000003
 31
0.0
1001
ACAD
1000
RTMaterial
1005
0
  0
LINE
  5
5E1BB
330
1F
100
AcDbEntity
  8
4
100
AcDbLine
 10
67.10243534259984
 20
0.0
 30
0.0
 11
-4.217102988800093
 21
0.0
 31
0.0
1001
ACAD
1000
RTMaterial
1005
0
  0
LINE
  5
5E1BC
330
1F
100
AcDbEntity
  8
sk3
100
AcDbLine
 10
60.32126649589987
 20
-63.0515466574999
 30
0.0
 11
62.19999999999993
 21
-67.22634856720003
 31
0.0
1001
ACAD
1000
RTMaterial
1005
0
  0
LINE
  5
5E1BD
330
1F
100
AcDbEntity
  8
sk3
100
AcDbLine
 10
42.99999999999989
 20
40.0
 30
0.0
 11
42.99999999999989
 21
-40.0
 31
0.0
1001
ACAD
1000
RTMaterial
1005
0
  0
LINE
  5
5E1BE
330
1F
100
AcDbEntity
  8
sk3
100
AcDbLine
 10
42.49999999999988
 20
26.5
 30
0.0
 11
42.49999999999988
 21
-26.5
 31
0.0
1001
ACAD
1000
RTMaterial
1005
0
  0
LINE
  5
5E1BF
330
1F
100
AcDbEntity
  8
1
100
AcDbLine
 10
62.87256838209986
 20
64.44286248469996
 30
0.0
 11
61.36426457389997
 21
60.96506791660011
 31
0.0
1001
ACAD
1000
RTMaterial
1005
0
  0
LINE
  5
5E1C0
330
1F
100
AcDbEntity
  8
sk3
100
AcDbLine
 10
60.32126649589987
 20
63.05154665750001
 30
0.0
 11
62.19999999999993
 21
67.22634856720003
 31
0.0
1001
ACAD
1000
RTMaterial
1005
0
  0
LINE
  5
5E1C1
330
1F
100
AcDbEntity
  8
sk3
100
AcDbLine
 10
1.19999999999993
 20
-25.89999999999998
 30
0.0
 11
-0.0000000000001137
 21
-27.10000000000003
 31
0.0
1001
ACAD
1000
RTMaterial
1005
0
  0
LINE
  5
5E1C2
330
1F
100
AcDbEntity
  8
1
100
AcDbLine
 10
0.9999999999998864
 20
9.524999999999975
 30
0.0
 11
10.1099999999999
 21
9.524999999999975
 31
0.0
1001
ACAD
1000
RTMaterial
1005
0
  0
LINE
  5
5E1C3
330
1F
100
AcDbEntity
  8
1
100
AcDbLine
 10
52.73637005019987
 20
73.23652987670005
 30
0.0
 11
52.65694086589984
 21
73.02042518170003
 31
0.0
1001
ACAD
1000
RTMaterial
1005
0
  0
LINE
  5
5E1CA
330
1F
100
AcDbEntity
  8
1
100
AcDbLine
 10
51.33252464019996
 20
62.54650611790009
 30
0.0
 11
51.33339096639986
 21
62.5485096097001
 31
0.0
1001
ACAD
1000
RTMaterial
1005
0
  0
LINE
  5
5E1CB
330
1F
100
AcDbEntity
  8
1
100
AcDbLine
 10
11.1099999999999
 20
-8.524999999999977
 30
0.0
 11
10.1099999999999
 21
-9.524999999999975
 31
0.0
1001
ACAD
1000
RTMaterial
1005
0
  0
LINE
  5
5E1CC
330
1F
100
AcDbEntity
  8
sk3
100
AcDbLine
 10
24.4965354668999
 20
25.39999999999998
 30
0.0
 11
24.4965354668999
 21
-25.39999999999998
 31
0.0
1001
ACAD
1000
RTMaterial
1005
0
  0
LINE
  5
5E1CD
330
1F
100
AcDbEntity
  8
sk3
100
AcDbLine
 10
58.99999999999988
 20
42.0
 30
0.0
 11
57.9999999999999
 21
41.0
 31
0.0
1001
ACAD
1000
RTMaterial
1005
0
  0
LINE
  5
5E1CE
330
1F
100
AcDbEntity
  8
sk3
100
AcDbLine
 10
42.49999999999988
 20
26.5
 30
0.0
 11
42.99999999999989
 21
27.0
 31
0.0
1001
ACAD
1000
RTMaterial
1005
0
  0
LINE
  5
5E1CF
330
1F
100
AcDbEntity
  8
1
100
AcDbLine
 10
0.9999999999998864
 20
-9.524999999999975
 30
0.0
 11
-0.0000000000001137
 21
-10.52499999999997
 31
0.0
1001
ACAD
1000
RTMaterial
1005
0
  0
LINE
  5
5E1D0
102
{ACAD_REACTORS
330
5EE9B
102
}
330
1F
100
AcDbEntity
  8
sk3
100
AcDbLine
 10
24.4965354668999
 20
25.39999999999998
 30
0.0
 11
8.999999999999886
 21
25.39999999999998
 31
0.0
1001
ACAD
1000
RTMaterial
1005
0
  0
LINE
  5
5E1D1
330
1F
100
AcDbEntity
  8
sk3
100
AcDbLine
 10
1.19999999999993
 20
25.89999999999998
 30
0.0
 11
8.999999999999886
 21
25.89999999999998
 31
0.0
1001
ACAD
1000
RTMaterial
1005
0
  0
LINE
  5
5E1D2
330
1F
100
AcDbEntity
  8
sk3
100
AcDbLine
 10
42.49999999999988
 20
26.5
 30
0.0
 11
40.36620158309982
 21
26.5
 31
0.0
1001
ACAD
1000
RTMaterial
1005
0
  0
LINE
  5
5E1D3
330
1F
100
AcDbEntity
  8
sk3
100
AcDbLine
 10
39.94358332139995
 20
26.59369221300006
 30
0.0
 11
38.20092359909995
 21
27.40630778710011
 31
0.0
1001
ACAD
1000
RTMaterial
1005
0
  0
LINE
  5
5E1D4
330
1F
100
AcDbEntity
  8
sk3
100
AcDbLine
 10
37.77830533739984
 20
27.5
 30
0.0
 11
29.22169466259993
 21
27.5
 31
0.0
1001
ACAD
1000
RTMaterial
1005
0
  0
LINE
  5
5E1D5
330
1F
100
AcDbEntity
  8
1
100
AcDbLine
 10
11.1099999999999
 20
8.524999999999977
 30
0.0
 11
11.1099999999999
 21
-8.524999999999977
 31
0.0
1001
ACAD
1000
RTMaterial
1005
0
  0
LINE
  5
5E1D6
330
1F
100
AcDbEntity
  8
1
100
AcDbLine
 10
52.15216012029986
 20
72.83462220900003
 30
0.0
 11
52.25915388249996
 21
72.98089469050012
 31
0.0
1001
ACAD
1000
RTMaterial
1005
0
  0
LINE
  5
5E1D7
330
1F
100
AcDbEntity
  8
sk3
100
AcDbLine
 10
28.79907640089994
 20
27.40630778710011
 30
0.0
 11
24.4965354668999
 21
25.39999999999998
 31
0.0
1001
ACAD
1000
RTMaterial
1005
0
  0
LINE
  5
5E1D8
330
1F
100
AcDbEntity
  8
sk3
100
AcDbLine
 10
8.999999999999886
 20
-25.89999999999998
 30
0.0
 11
8.999999999999886
 21
-9.524999999999975
 31
0.0
1001
ACAD
1000
RTMaterial
1005
0
  0
LINE
  5
5E1D9
330
1F
100
AcDbEntity
  8
sk3
100
AcDbLine
 10
8.999999999999886
 20
9.524999999999975
 30
0.0
 11
8.999999999999886
 21
25.89999999999998
 31
0.0
1001
ACAD
1000
RTMaterial
1005
0
  0
LINE
  5
5E1DD
330
1F
100
AcDbEntity
  8
sk3
100
AcDbLine
 10
57.9999999999999
 20
41.0
 30
0.0
 11
43.99999999999988
 21
41.0
 31
0.0
1001
ACAD
1000
RTMaterial
1005
0
  0
LINE
  5
5E1DE
330
1F
100
AcDbEntity
  8
1
100
AcDbLine
 10
48.29980660209994
 20
67.71206601460005
 30
0.0
 11
48.19711073079986
 21
67.9507235942001
 31
0.0
1001
ACAD
1000
RTMaterial
1005
0
  0
LINE
  5
5E1DF
330
1F
100
AcDbEntity
  8
1
100
AcDbLine
 10
48.26161378149993
 20
67.50822980390001
 30
0.0
 11
48.26198681129984
 21
67.50714829190008
 31
0.0
1001
ACAD
1000
RTMaterial
1005
0
  0
LINE
  5
5E1E0
330
1F
100
AcDbEntity
  8
1
100
AcDbLine
 10
48.26198754659992
 20
67.50712970439997
 30
0.0
 11
48.37284547899992
 21
67.18583808449999
 31
0.0
1001
ACAD
1000
RTMaterial
1005
0
  0
LINE
  5
5E1E1
330
1F
100
AcDbEntity
  8
sk3
100
AcDbLine
 10
1.19999999999993
 20
25.89999999999998
 30
0.0
 11
1.19999999999993
 21
9.524999999999975
 31
0.0
1001
ACAD
1000
RTMaterial
1005
0
  0
LINE
  5
5E1E2
330
1F
100
AcDbEntity
  8
sk3
100
AcDbLine
 10
1.19999999999993
 20
-9.524999999999975
 30
0.0
 11
1.19999999999993
 21
-25.89999999999998
 31
0.0
1001
ACAD
1000
RTMaterial
1005
0
  0
LINE
  5
5E1E3
330
1F
100
AcDbEntity
  8
1
100
AcDbLine
 10
-0.0000000000001137
 20
-59.9125
 30
0.0
 11
-0.0000000000001137
 21
-10.52499999999997
 31
0.0
1001
ACAD
1000
RTMaterial
1005
0
  0
LINE
  5
5E1E4
330
1F
100
AcDbEntity
  8
1
100
AcDbLine
 10
-0.0000000000001137
 20
10.52499999999997
 30
0.0
 11
-0.0000000000001137
 21
59.9125
 31
0.0
1001
ACAD
1000
RTMaterial
1005
0
  0
LINE
  5
5E1E5
330
1F
100
AcDbEntity
  8
1
100
AcDbLine
 10
48.70739137299995
 20
68.60936468030003
 30
0.0
 11
53.23723223529986
 21
73.4493445923
 31
0.0
1001
ACAD
1000
RTMaterial
1005
0
  0
LINE
  5
5E1E6
330
1F
100
AcDbEntity
  8
1
100
AcDbLine
 10
49.06450513619986
 20
69.20877794609999
 30
0.0
 11
52.65694086589984
 21
73.02042518170003
 31
0.0
1001
ACAD
1000
RTMaterial
1005
0
  0
LINE
  5
5E1E7
330
1F
100
AcDbEntity
  8
1
100
AcDbLine
 10
52.15216012029986
 20
72.83462220900003
 30
0.0
 11
48.62205580849991
 21
69.12735187910005
 31
0.0
1001
ACAD
1000
RTMaterial
1005
0
  0
LINE
  5
5E1E8
330
1F
100
AcDbEntity
  8
1
100
AcDbLine
 10
59.6085240545999
 20
60.04513510890014
 30
0.0
 11
59.69519803189985
 21
60.09041107410007
 31
0.0
1001
ACAD
1000
RTMaterial
1005
0
  0
LINE
  5
5E1E9
330
1F
100
AcDbEntity
  8
1
100
AcDbLine
 10
59.54563416069993
 20
60.01228606970006
 30
0.0
 11
59.6085240545999
 21
60.04513510890014
 31
0.0
1001
ACAD
1000
RTMaterial
1005
0
  0
LINE
  5
5E1EA
330
1F
100
AcDbEntity
  8
1
100
AcDbLine
 10
47.63919037119989
 20
68.43980849540002
 30
0.0
 11
47.64016476749985
 21
68.44059858470007
 31
0.0
1001
ACAD
1000
RTMaterial
1005
0
  0
LINE
  5
5E1EB
330
1F
100
AcDbEntity
  8
1
100
AcDbLine
 10
47.63917788779986
 20
68.43982405500003
 30
0.0
 11
47.64015988639992
 21
68.44060877880008
 31
0.0
1001
ACAD
1000
RTMaterial
1005
0
  0
LINE
  5
5E1EC
330
1F
100
AcDbEntity
  8
1
100
AcDbLine
 10
48.15912382729994
 20
68.00959047280014
 30
0.0
 11
48.02245709429996
 21
68.1695416619001
 31
0.0
1001
ACAD
1000
RTMaterial
1005
0
  0
LINE
  5
5E1ED
330
1F
100
AcDbEntity
  8
1
100
AcDbLine
 10
48.49153571199997
 20
66.23089191370003
 30
0.0
 11
48.15828204829982
 21
66.67941739929995
 31
0.0
1001
ACAD
1000
RTMaterial
1005
0
  0
LINE
  5
5E1EE
330
1F
100
AcDbEntity
  8
1
100
AcDbLine
 10
47.91250562349989
 20
67.54349628160003
 30
0.0
 11
48.10681431369994
 21
67.27886540359998
 31
0.0
1001
ACAD
1000
RTMaterial
1005
0
  0
LINE
  5
5E1EF
330
1F
100
AcDbEntity
  8
1
100
AcDbLine
 10
51.39792784519989
 20
62.79666616540009
 30
0.0
 11
51.83845721689988
 21
62.19670496829997
 31
0.0
1001
ACAD
1000
RTMaterial
1005
0
  0
LINE
  5
5E1F0
330
1F
100
AcDbEntity
  8
1
100
AcDbLine
 10
50.81533797679991
 20
63.75136732370004
 30
0.0
 11
48.57413073359986
 21
66.80368906900003
 31
0.0
1001
ACAD
1000
RTMaterial
1005
0
  0
LINE
  5
5E1F1
330
1F
100
AcDbEntity
  8
1
100
AcDbLine
 10
61.53271046769987
 20
74.02994338740007
 30
0.0
 11
63.43637386899991
 21
67.66538742430009
 31
0.0
1001
ACAD
1000
RTMaterial
1005
0
  0
LINE
  5
5E1F2
330
1F
100
AcDbEntity
  8
1
100
AcDbLine
 10
29.13221351139987
 20
64.91129455010002
 30
0.0
 11
37.7118262457999
 21
72.11044443120011
 31
0.0
1001
ACAD
1000
RTMaterial
1005
0
  0
LINE
  5
5E1F3
330
1F
100
AcDbEntity
  8
1
100
AcDbLine
 10
53.81593554119991
 20
73.91295841390013
 30
0.0
 11
53.81227027529985
 21
73.91103259340012
 31
0.0
1001
ACAD
1000
RTMaterial
1005
0
  0
LINE
  5
5E1F4
330
1F
100
AcDbEntity
  8
1
100
AcDbLine
 10
54.69209493159985
 20
74.36904845360004
 30
0.0
 11
54.6962188857999
 21
74.37121379370012
 31
0.0
1001
ACAD
1000
RTMaterial
1005
0
  0
LINE
  5
5E1F5
330
1F
100
AcDbEntity
  8
1
100
AcDbLine
 10
59.59645248379991
 20
60.06805440510004
 30
0.0
 11
59.73651331909991
 21
60.09977401960011
 31
0.0
1001
ACAD
1000
RTMaterial
1005
0
  0
LINE
  5
5E1F6
330
1F
100
AcDbEntity
  8
1
100
AcDbLine
 10
59.65154868899992
 20
60.09739421590007
 30
0.0
 11
60.16715151889989
 21
60.11188254330011
 31
0.0
1001
ACAD
1000
RTMaterial
1005
0
  0
LINE
  5
5E1F7
330
1F
100
AcDbEntity
  8
1
100
AcDbLine
 10
12.78169528549995
 20
61.91250000000001
 30
0.0
 11
1.999999999999884
 21
61.91250000000001
 31
0.0
1001
ACAD
1000
RTMaterial
1005
0
  0
LINE
  5
5E1F8
330
1F
100
AcDbEntity
  8
1
100
AcDbLine
 10
18.18306322479987
 20
61.45904072550003
 30
0.0
 11
13.21747399919991
 21
61.89347349050001
 31
0.0
1001
ACAD
1000
RTMaterial
1005
0
  0
LINE
  5
5E1F9
330
1F
100
AcDbEntity
  8
1
100
AcDbLine
 10
52.22955241329986
 20
62.20966705910008
 30
0.0
 11
52.29838530919995
 21
62.16282044020011
 31
0.0
1001
ACAD
1000
RTMaterial
1005
0
  0
LINE
  5
5E1FA
330
1F
100
AcDbEntity
  8
1
100
AcDbLine
 10
52.29697432659985
 20
62.16377853060009
 30
0.0
 11
52.29833980119986
 21
62.16284518510008
 31
0.0
1001
ACAD
1000
RTMaterial
1005
0
  0
LINE
  5
5E1FB
330
1F
100
AcDbEntity
  8
1
100
AcDbLine
 10
51.80815019059991
 20
62.49846010640009
 30
0.0
 11
52.22955241329986
 21
62.20966705910008
 31
0.0
1001
ACAD
1000
RTMaterial
1005
0
  0
LINE
  5
5E1FC
330
1F
100
AcDbEntity
  8
1
100
AcDbLine
 10
52.29843071349989
 20
62.16278287
 30
0.0
 11
52.30014443919992
 21
62.16158226980008
 31
0.0
1001
ACAD
1000
RTMaterial
1005
0
  0
LINE
  5
5E1FD
330
1F
100
AcDbEntity
  8
1
100
AcDbLine
 10
52.30014443919992
 20
62.16158226980008
 30
0.0
 11
52.30048519839989
 21
62.16133583899999
 31
0.0
1001
ACAD
1000
RTMaterial
1005
0
  0
LINE
  5
5E1FE
330
1F
100
AcDbEntity
  8
1
100
AcDbLine
 10
47.64245781409989
 20
68.48140993630011
 30
0.0
 11
47.95852006529992
 21
68.22996390260005
 31
0.0
1001
ACAD
1000
RTMaterial
1005
0
  0
LINE
  5
5E1FF
330
1F
100
AcDbEntity
  8
1
100
AcDbLine
 10
48.16975310409985
 20
67.26450498100007
 30
0.0
 11
48.42376048759991
 21
67.05893701010007
 31
0.0
1001
ACAD
1000
RTMaterial
1005
0
  0
LINE
  5
5E200
330
1F
100
AcDbEntity
  8
1
100
AcDbLine
 10
54.69208767549993
 20
74.36906238710014
 30
0.0
 11
53.81593554119991
 21
73.91295841390013
 31
0.0
1001
ACAD
1000
RTMaterial
1005
0
  0
LINE
  5
5E201
330
1F
100
AcDbEntity
  8
1
100
AcDbLine
 10
53.81274123499984
 20
73.91127943999993
 30
0.0
 11
53.80328662629984
 21
73.90636996940009
 31
0.0
1001
ACAD
1000
RTMaterial
1005
0
  0
LINE
  5
5E202
330
1F
100
AcDbEntity
  8
1
100
AcDbLine
 10
53.80328662629984
 20
73.90636996940009
 30
0.0
 11
53.79330108399982
 21
73.90126839590005
 31
0.0
1001
ACAD
1000
RTMaterial
1005
0
  0
LINE
  5
5E203
330
1F
100
AcDbEntity
  8
1
100
AcDbLine
 10
53.79330108399982
 20
73.90126839590005
 30
0.0
 11
53.78302635099988
 21
73.89611952870007
 31
0.0
1001
ACAD
1000
RTMaterial
1005
0
  0
LWPOLYLINE
  5
5E204
330
1F
100
AcDbEntity
  8
1
100
AcDbPolyline
 90
        6
 70
     0
 43
0.0
 10
53.78302635099988
 20
73.89611952870007
 10
53.77258145219991
 20
73.89099123369998
 10
53.76188790399988
 20
73.88585257450007
 10
53.75067106549988
 20
73.88058430590001
 10
53.73883758699992
 20
73.87516080640001
 10
53.73632639539994
 20
73.87402748390001
1001
ACAD
1000
RTMaterial
1005
0
  0
LINE
  5
5E205
330
1F
100
AcDbEntity
  8
1
100
AcDbLine
 10
49.06450513619986
 20
69.20877794609999
 30
0.0
 11
48.9005516658999
 21
69.20669099270003
 31
0.0
1001
ACAD
1000
RTMaterial
1005
0
  0
LINE
  5
5E206
330
1F
100
AcDbEntity
  8
1
100
AcDbLine
 10
48.49153571199997
 20
66.23089191370003
 30
0.0
 11
33.73833359139985
 21
67.10548703760003
 31
0.0
1001
ACAD
1000
RTMaterial
1005
0
  0
LINE
  5
5E207
330
1F
100
AcDbEntity
  8
1
100
AcDbLine
 10
56.92872555159988
 20
66.19185521600013
 30
0.0
 11
57.05688749199985
 21
66.1739203682
 31
0.0
1001
ACAD
1000
RTMaterial
1005
0
  0
LINE
  5
5E208
330
1F
100
AcDbEntity
  8
1
100
AcDbLine
 10
54.76708734609997
 20
66.70903473450005
 30
0.0
 11
54.8952492863999
 21
66.6910998866
 31
0.0
1001
ACAD
1000
RTMaterial
1005
0
  0
LINE
  5
5E209
330
1F
100
AcDbEntity
  8
1
100
AcDbLine
 10
48.16975310409985
 20
67.26450498100007
 30
0.0
 11
47.81040724699994
 21
67.34649509160012
 31
0.0
1001
ACAD
1000
RTMaterial
1005
0
  0
LINE
  5
5E20A
330
1F
100
AcDbEntity
  8
1
100
AcDbLine
 10
59.12989448209986
 20
60.23627823320008
 30
0.0
 11
53.65035030779985
 21
61.53479012920013
 31
0.0
1001
ACAD
1000
RTMaterial
1005
0
  0
LINE
  5
5E20B
330
1F
100
AcDbEntity
  8
1
100
AcDbLine
 10
59.78869359489988
 20
60.1514211379
 30
0.0
 11
53.35518933129993
 21
61.675997189
 31
0.0
1001
ACAD
1000
RTMaterial
1005
0
  0
LINE
  5
5E20C
330
1F
100
AcDbEntity
  8
1
100
AcDbLine
 10
59.64283082089989
 20
59.95991846720006
 30
0.0
 11
59.12989448209986
 21
60.23627823320008
 31
0.0
1001
ACAD
1000
RTMaterial
1005
0
  0
LINE
  5
5E20D
330
1F
100
AcDbEntity
  8
1
100
AcDbLine
 10
53.98364217839993
 20
74.0003519869
 30
0.0
 11
53.22632773359988
 21
73.85422653069999
 31
0.0
1001
ACAD
1000
RTMaterial
1005
0
  0
LINE
  5
5E20E
330
1F
100
AcDbEntity
  8
1
100
AcDbLine
 10
54.57269736069986
 20
74.31477769290006
 30
0.0
 11
54.59091303269985
 21
74.31638128040003
 31
0.0
1001
ACAD
1000
RTMaterial
1005
0
  0
LINE
  5
5E212
330
1F
100
AcDbEntity
  8
1
100
AcDbLine
 10
44.13970234269991
 20
72.9175721780001
 30
0.0
 11
52.12897196179993
 21
72.91817893619998
 31
0.0
1001
ACAD
1000
RTMaterial
1005
0
  0
LINE
  5
5E216
330
1F
100
AcDbEntity
  8
1
100
AcDbLine
 10
44.13970234269991
 20
74.44999999999993
 30
0.0
 11
52.96231789559988
 21
74.44999999999993
 31
0.0
1001
ACAD
1000
RTMaterial
1005
0
  0
LINE
  5
5E217
330
1F
100
AcDbEntity
  8
1
100
AcDbLine
 10
53.03751526719985
 20
74.44645800600006
 30
0.0
 11
54.42734459689984
 21
74.31523763810003
 31
0.0
1001
ACAD
1000
RTMaterial
1005
0
  0
LINE
  5
5E218
330
1F
100
AcDbEntity
  8
1
100
AcDbLine
 10
57.59630865149985
 20
68.31210106910011
 30
0.0
 11
57.7244705917999
 21
68.29416622120004
 31
0.0
1001
ACAD
1000
RTMaterial
1005
0
  0
LINE
  5
5E219
330
1F
100
AcDbEntity
  8
1
100
AcDbLine
 10
55.43467044589989
 20
68.82928058760001
 30
0.0
 11
55.56283238629987
 21
68.81134573969996
 31
0.0
1001
ACAD
1000
RTMaterial
1005
0
  0
LINE
  5
5E21A
330
1F
100
AcDbEntity
  8
1
100
AcDbLine
 10
56.24838147059985
 20
74.59649943939997
 30
0.0
 11
59.99789243799988
 21
75.02197222010011
 31
0.0
1001
ACAD
1000
RTMaterial
1005
0
  0
LINE
  5
5E223
330
1F
100
AcDbEntity
  8
nocut
100
AcDbLine
 10
0.0
 20
0.0
 30
0.0
 11
0.0
 21
59.91249999999997
 31
0.0
1001
ACAD
1000
RTMaterial
1005
0
  0
LINE
  5
5E225
330
1F
100
AcDbEntity
  8
nocut
100
AcDbLine
 10
37.71182624580001
 20
72.11044443120005
 30
0.0
 11
29.13221351139998
 21
64.91129455009996
 31
0.0
1001
ACAD
1000
RTMaterial
1005
0
  0
LINE
  5
5E226
330
1F
100
AcDbEntity
  8
nocut
100
AcDbLine
 10
18.18306322490002
 20
61.45904072549996
 30
0.0
 11
13.21747399919991
 21
61.89347349049995
 31
0.0
1001
ACAD
1000
RTMaterial
1005
0
  0
LINE
  5
5E227
330
1F
100
AcDbEntity
  8
nocut
100
AcDbLine
 10
12.78169528549995
 20
61.91249999999996
 30
0.0
 11
2.0
 21
61.91249999999996
 31
0.0
1001
ACAD
1000
RTMaterial
1005
0
  0
LINE
  5
5E229
330
1F
100
AcDbEntity
  8
nocut
100
AcDbLine
 10
52.9623178956
 20
74.44999999999987
 30
0.0
 11
44.13970234269991
 21
74.44999999999987
 31
0.0
1001
ACAD
1000
RTMaterial
1005
0
  0
ARC
  5
5E22A
330
1F
100
AcDbEntity
  8
cut
100
AcDbCircle
 10
60.10935575989993
 20
74.69999999999993
 30
0.0
 40
1.5
100
AcDbArc
 50
16.99999999999508
 51
95.37080777210013
1001
ACAD
1000
RTMaterial
1005
0
  0
ARC
  5
5E22B
330
1F
100
AcDbEntity
  8
nocut
100
AcDbCircle
 10
59.6012257456
 20
73.55281516189991
 30
0.0
 40
1.199999999999999
100
AcDbArc
 50
16.39689516920167
 51
95.03097222190096
1001
ACAD
1000
RTMaterial
1005
0
  0
ARC
  5
5E22C
330
1F
100
AcDbEntity
  8
nocut
100
AcDbCircle
 10
52.9623178956
 20
73.64999999999992
 30
0.0
 40
0.8
100
AcDbArc
 50
84.60642261309944
 51
90.0
1001
ACAD
1000
RTMaterial
1005
0
  0
ARC
  5
5E22D
330
1F
100
AcDbEntity
  8
nocut
100
AcDbCircle
 10
54.50254196849994
 20
75.11169564409994
 30
0.0
 40
0.8
100
AcDbArc
 50
264.6064226130994
 51
275.030972221901
1001
ACAD
1000
RTMaterial
1005
0
  0
ARC
  5
5E236
330
1F
100
AcDbEntity
  8
sk3
100
AcDbCircle
 10
73.99999999999987
 20
56.89587856030005
 30
0.0
 40
15.0
100
AcDbArc
 50
155.7714255894922
 51
180.0
1001
ACAD
1000
RTMaterial
1005
0
  0
ARC
  5
5E237
330
1F
100
AcDbEntity
  8
sk3
100
AcDbCircle
 10
73.99999999999987
 20
-56.89587856020001
 30
0.0
 40
15.0
100
AcDbArc
 50
180.0
 51
204.2285744105078
1001
ACAD
1000
RTMaterial
1005
0
  0
ARC
  5
5E238
330
1F
100
AcDbEntity
  8
1
100
AcDbCircle
 10
19.49039936609995
 20
76.40196119690006
 30
0.0
 40
15.0
100
AcDbArc
 50
265.0000000000002
 51
309.9999999999996
1001
ACAD
1000
RTMaterial
1005
0
  0
ARC
  5
5E239
330
1F
100
AcDbEntity
  8
1
100
AcDbCircle
 10
19.49039936609995
 20
-76.40196119689996
 30
0.0
 40
15.0
100
AcDbArc
 50
50.00000000000042
 51
94.99999999999982
1001
ACAD
1000
RTMaterial
1005
0
  0
ARC
  5
5E23A
330
1F
100
AcDbEntity
  8
1
100
AcDbCircle
 10
44.13970234269991
 20
64.44999999999993
 30
0.0
 40
10.0
100
AcDbArc
 50
90.0
 51
129.9999999999996
1001
ACAD
1000
RTMaterial
1005
0
  0
ARC
  5
5E23B
330
1F
100
AcDbEntity
  8
1
100
AcDbCircle
 10
44.13970234269991
 20
-64.44999999999993
 30
0.0
 40
10.0
100
AcDbArc
 50
230.0000000000005
 51
270.0
1001
ACAD
1000
RTMaterial
1005
0
  0
ARC
  5
5E23C
330
1F
100
AcDbEntity
  8
1
100
AcDbCircle
 10
12.78169528549995
 20
56.91250000000001
 30
0.0
 40
5.0
100
AcDbArc
 50
85.00000000000019
 51
90.0
1001
ACAD
1000
RTMaterial
1005
0
  0
ARC
  5
5E23D
330
1F
100
AcDbEntity
  8
1
100
AcDbCircle
 10
12.78169528549995
 20
-56.91250000000001
 30
0.0
 40
5.0
100
AcDbArc
 50
270.0
 51
274.9999999999998
1001
ACAD
1000
RTMaterial
1005
0
  0
ARC
  5
5E23E
102
{ACAD_REACTORS
330
5EEB3
330
5EE83
102
}
330
1F
100
AcDbEntity
  8
1
100
AcDbCircle
 10
1.999999999999884
 20
59.9125
 30
0.0
 40
2.0
100
AcDbArc
 50
90.0
 51
180.0
1001
ACAD
1000
RTMaterial
1005
0
  0
ARC
  5
5E23F
102
{ACAD_REACTORS
330
5EECB
330
5EEB3
102
}
330
1F
100
AcDbEntity
  8
1
100
AcDbCircle
 10
1.999999999999884
 20
-59.9125
 30
0.0
 40
2.0
100
AcDbArc
 50
180.0
 51
270.0
1001
ACAD
1000
RTMaterial
1005
0
  0
ARC
  5
5E240
330
1F
100
AcDbEntity
  8
1
100
AcDbCircle
 10
59.60122574559989
 20
-73.55281516189996
 30
0.0
 40
1.199999999999999
100
AcDbArc
 50
264.969027778099
 51
343.6031048307991
1001
ACAD
1000
RTMaterial
1005
0
  0
ARC
  5
5E241
102
{ACAD_REACTORS
330
5EECB
102
}
330
1F
100
AcDbEntity
  8
sk3
100
AcDbCircle
 10
43.99999999999988
 20
-40.0
 30
0.0
 40
1.0
100
AcDbArc
 50
180.0
 51
270.0
1001
ACAD
1000
RTMaterial
1005
0
  0
ARC
  5
5E242
330
1F
100
AcDbEntity
  8
sk3
100
AcDbCircle
 10
43.99999999999988
 20
40.0
 30
0.0
 40
1.0
100
AcDbArc
 50
90.0
 51
180.0
1001
ACAD
1000
RTMaterial
1005
0
  0
ARC
  5
5E243
330
1F
100
AcDbEntity
  8
sk3
100
AcDbCircle
 10
29.22169466259993
 20
-26.5
 30
0.0
 40
1.0
100
AcDbArc
 50
245.0000000000003
 51
270.0
1001
ACAD
1000
RTMaterial
1005
0
  0
ARC
  5
5E244
330
1F
100
AcDbEntity
  8
sk3
100
AcDbCircle
 10
29.22169466259993
 20
26.5
 30
0.0
 40
1.0
100
AcDbArc
 50
90.0
 51
114.9999999999997
1001
ACAD
1000
RTMaterial
1005
0
  0
ARC
  5
5E245
330
1F
100
AcDbEntity
  8
sk3
100
AcDbCircle
 10
37.77830533739984
 20
26.5
 30
0.0
 40
1.0
100
AcDbArc
 50
65.00000000000031
 51
90.0
1001
ACAD
1000
RTMaterial
1005
0
  0
ARC
  5
5E246
330
1F
100
AcDbEntity
  8
sk3
100
AcDbCircle
 10
37.77830533739984
 20
-26.5
 30
0.0
 40
1.0
100
AcDbArc
 50
270.0
 51
294.9999999999997
1001
ACAD
1000
RTMaterial
1005
0
  0
ARC
  5
5E247
330
1F
100
AcDbEntity
  8
sk3
100
AcDbCircle
 10
40.36620158309982
 20
-27.5
 30
0.0
 40
1.0
100
AcDbArc
 50
90.0
 51
114.9999999999997
1001
ACAD
1000
RTMaterial
1005
0
  0
ARC
  5
5E248
330
1F
100
AcDbEntity
  8
sk3
100
AcDbCircle
 10
40.36620158309982
 20
27.5
 30
0.0
 40
1.0
100
AcDbArc
 50
245.0000000000003
 51
270.0
1001
ACAD
1000
RTMaterial
1005
0
  0
ARC
  5
5E249
330
1F
100
AcDbEntity
  8
1
100
AcDbCircle
 10
52.96231789559988
 20
73.64999999999998
 30
0.0
 40
0.8
100
AcDbArc
 50
84.60642261309944
 51
90.0
1001
ACAD
1000
RTMaterial
1005
0
  0
ARC
  5
5E24A
330
1F
100
AcDbEntity
  8
1
100
AcDbCircle
 10
52.96231789559988
 20
-73.64999999999998
 30
0.0
 40
0.8
100
AcDbArc
 50
270.0
 51
275.3935773869006
1001
ACAD
1000
RTMaterial
1005
0
  0
ARC
  5
5E24B
330
1F
100
AcDbEntity
  8
1
100
AcDbCircle
 10
54.50254196849994
 20
75.1116956441
 30
0.0
 40
0.8
100
AcDbArc
 50
264.6064226130994
 51
275.030972221901
1001
ACAD
1000
RTMaterial
1005
0
  0
ARC
  5
5E24C
330
1F
100
AcDbEntity
  8
1
100
AcDbCircle
 10
54.50254196849994
 20
-75.1116956441
 30
0.0
 40
0.8
100
AcDbArc
 50
84.96902777809905
 51
95.39357738690055
1001
ACAD
1000
RTMaterial
1005
0
  0
ARC
  5
5E24D
330
1F
100
AcDbEntity
  8
nocut
100
AcDbCircle
 10
19.49039936609995
 20
76.40196119689999
 30
0.0
 40
15.0
100
AcDbArc
 50
265.0000000000002
 51
309.9999999999996
1001
ACAD
1000
RTMaterial
1005
0
  0
ARC
  5
5E24E
330
1F
100
AcDbEntity
  8
nocut
100
AcDbCircle
 10
44.13970234269991
 20
64.44999999999986
 30
0.0
 40
10.0
100
AcDbArc
 50
90.0
 51
129.9999999999996
1001
ACAD
1000
RTMaterial
1005
0
  0
ARC
  5
5E24F
330
1F
100
AcDbEntity
  8
nocut
100
AcDbCircle
 10
12.78169528549995
 20
56.91249999999996
 30
0.0
 40
5.0
100
AcDbArc
 50
85.00000000000019
 51
90.0
1001
ACAD
1000
RTMaterial
1005
0
  0
ARC
  5
5E250
330
1F
100
AcDbEntity
  8
nocut
100
AcDbCircle
 10
2.0
 20
59.91249999999997
 30
0.0
 40
2.0
100
AcDbArc
 50
90.0
 51
180.0
1001
ACAD
1000
RTMaterial
1005
0
  0
SPLINE
  5
5E252
330
1F
100
AcDbEntity
  8
cut
100
AcDbSpline
210
0.0
220
0.0
230
1.0
 70
     8
 71
     3
 72
    22
 73
    18
 74
     0
 42
0.0000000001
 43
0.0000000001
 40
0.0
 40
0.0
 40
0.0
 40
0.0
 40
0.0666666667
 40
0.1333333333
 40
0.2
 40
0.2666666667
 40
0.3333333333
 40
0.4
 40
0.4666666667000002
 40
0.5333333333
 40
0.6
 40
0.6666666667
 40
0.7333333333
 40
0.8
 40
0.8666666667000001
 40
0.9333333333
 40
1.0
 40
1.0
 40
1.0
 40
1.0
 10
63.47384048889988
 20
67.20405131870006
 30
0.0
 10
63.47543816939992
 20
67.23222798130007
 30
0.0
 10
63.47847935719983
 20
67.28809309220003
 30
0.0
 10
63.4825383755999
 20
67.3694470813001
 30
0.0
 10
63.48625790559992
 20
67.45129208440004
 30
0.0
 10
63.48969185319993
 20
67.53566435660002
 30
0.0
 10
63.49287067369994
 20
67.6244709261
 30
0.0
 10
63.49569418399982
 20
67.71634666839998
 30
0.0
 10
63.49809632079985
 20
67.81015817740001
 30
0.0
 10
63.50003774469985
 20
67.9046910999001
 30
0.0
 10
63.50149659019995
 20
67.99882770930003
 30
0.0
 10
63.50245804169992
 20
68.09121673160007
 30
0.0
 10
63.50292842069996
 20
68.18067954360003
 30
0.0
 10
63.50294679959995
 20
68.26573591380007
 30
0.0
 10
63.50256825489985
 20
68.34826054040002
 30
0.0
 10
63.50181678869989
 20
68.43020744219995
 30
0.0
 10
63.50104385649991
 20
68.48664186920007
 30
0.0
 10
63.50058650509993
 20
68.51512743580008
 30
0.0
1001
ACAD
1000
RTMaterial
1005
0
  0
SPLINE
  5
5E253
330
1F
100
AcDbEntity
  8
cut
100
AcDbSpline
210
0.0
220
0.0
230
1.0
 70
     8
 71
     3
 72
    11
 73
     7
 74
     0
 42
0.0000000001
 43
0.0000000001
 40
0.0
 40
0.0
 40
0.0
 40
0.0
 40
0.25
 40
0.5
 40
0.75
 40
1.0
 40
1.0
 40
1.0
 40
1.0
 10
63.50000023459995
 20
68.54840230249999
 30
0.0
 10
63.49922590639994
 20
68.58469387859996
 30
0.0
 10
63.49525783019988
 20
68.65585538660003
 30
0.0
 10
63.48176396169993
 20
68.75884296829998
 30
0.0
 10
63.46211449539985
 20
68.8565566515
 30
0.0
 10
63.44546892459994
 20
68.91824411649998
 30
0.0
 10
63.43637431669993
 20
68.94826807130005
 30
0.0
1001
ACAD
1000
RTMaterial
1005
0
  0
LINE
  5
5E254
330
1F
100
AcDbEntity
  8
cut
100
AcDbLine
 10
63.50058650509993
 20
68.51512743580008
 30
0.0
 11
63.50000023459995
 21
68.54840230249999
 31
0.0
1001
ACAD
1000
RTMaterial
1005
0
  0
SPLINE
  5
5E255
330
1F
100
AcDbEntity
  8
cut
100
AcDbSpline
210
0.0
220
0.0
230
1.0
 70
     8
 71
     3
 72
    11
 73
     7
 74
     0
 42
0.0000000001
 43
0.0000000001
 40
0.0
 40
0.0
 40
0.0
 40
0.0
 40
0.25
 40
0.5
 40
0.75
 40
1.0
 40
1.0
 40
1.0
 40
1.0
 10
56.24838147419985
 20
75.84362948819999
 30
0.0
 10
56.16728244069986
 20
75.83611758560003
 30
0.0
 10
55.99474070069994
 20
75.82077818439995
 30
0.0
 10
55.70345671939993
 20
75.79749805530004
 30
0.0
 10
55.38372543349987
 20
75.7751070093001
 30
0.0
 10
55.1502357280999
 20
75.76130308510006
 30
0.0
 10
55.02850851819994
 20
75.75487605670002
 30
0.0
1001
ACAD
1000
RTMaterial
1005
0
  0
SPLINE
  5
5E256
330
1F
100
AcDbEntity
  8
cut
100
AcDbSpline
210
0.0
220
0.0
230
1.0
 70
     8
 71
     3
 72
    11
 73
     7
 74
     0
 42
0.0000000001
 43
0.0000000001
 40
0.0
 40
0.0
 40
0.0
 40
0.0
 40
0.25
 40
0.5
 40
0.75
 40
1.0
 40
1.0
 40
1.0
 40
1.0
 10
55.02850851819994
 20
75.75487605670002
 30
0.0
 10
55.00512650129985
 20
75.75310283020008
 30
0.0
 10
54.95930241069993
 20
75.74818453509998
 30
0.0
 10
54.8931173028999
 20
75.73691875660006
 30
0.0
 10
54.83020079719985
 20
75.72224377000009
 30
0.0
 10
54.7905191302999
 20
75.71037704020011
 30
0.0
 10
54.77121398499992
 20
75.70397623990004
 30
0.0
1001
ACAD
1000
RTMaterial
1005
0
  0
SPLINE
  5
5E257
330
1F
100
AcDbEntity
  8
cut
100
AcDbSpline
210
0.0
220
0.0
230
1.0
 70
     8
 71
     3
 72
    10
 73
     6
 74
     0
 42
0.0000000001
 43
0.0000000001
 40
0.0
 40
0.0
 40
0.0
 40
0.0
 40
0.3333333333
 40
0.6666666667
 40
1.0
 40
1.0
 40
1.0
 40
1.0
 10
54.77121398499992
 20
75.70397623990004
 30
0.0
 10
54.76219018169991
 20
75.70098431400004
 30
0.0
 10
54.74429638939989
 20
75.69464292110001
 30
0.0
 10
54.71788788389996
 20
75.68402787710009
 30
0.0
 10
54.70063837719988
 20
75.67624782050007
 30
0.0
 10
54.69209503639991
 20
75.67218340510009
 30
0.0
1001
ACAD
1000
RTMaterial
1005
0
  0
SPLINE
  5
5E258
330
1F
100
AcDbEntity
  8
cut
100
AcDbSpline
210
0.0
220
0.0
230
1.0
 70
     8
 71
     3
 72
    22
 73
    18
 74
     0
 42
0.0000000001
 43
0.0000000001
 40
0.0
 40
0.0
 40
0.0
 40
0.0
 40
0.0666666667
 40
0.1333333333
 40
0.2
 40
0.2666666667
 40
0.3333333333
 40
0.4
 40
0.4666666667000002
 40
0.5333333333
 40
0.6
 40
0.6666666667
 40
0.7333333333
 40
0.8
 40
0.8666666667000001
 40
0.9333333333
 40
1.0
 40
1.0
 40
1.0
 40
1.0
 10
54.69209503639991
 20
75.67218340510009
 30
0.0
 10
54.6676426590999
 20
75.66055041269999
 30
0.0
 10
54.61922199369985
 20
75.6373785559
 30
0.0
 10
54.54888990119989
 20
75.60332029940004
 30
0.0
 10
54.47830117239994
 20
75.56874298369995
 30
0.0
 10
54.40571574089997
 20
75.53275176320004
 30
0.0
 10
54.32950968889986
 20
75.49448928490004
 30
0.0
 10
54.25088158409995
 20
75.45450095620005
 30
0.0
 10
54.17081912299988
 20
75.41325463740006
 30
0.0
 10
54.09036674899994
 20
75.37127924460003
 30
0.0
 10
54.0104767068999
 20
75.32907269830002
 30
0.0
 10
53.93229341239987
 20
75.28724601020008
 30
0.0
 10
53.85680693639995
 20
75.24634901909997
 30
0.0
 10
53.78524532819994
 20
75.20709898120003
 30
0.0
 10
53.71600318289996
 20
75.16867648219998
 30
0.0
 10
53.64742359089996
 20
75.13019919120006
 30
0.0
 10
53.60031392939993
 20
75.10347983050007
 30
0.0
 10
53.57656661959993
 20
75.08993498179996
 30
0.0
1001
ACAD
1000
RTMaterial
1005
0
  0
SPLINE
  5
5E259
330
1F
100
AcDbEntity
  8
cut
100
AcDbSpline
210
0.0
220
0.0
230
1.0
 70
     8
 71
     3
 72
    11
 73
     7
 74
     0
 42
0.0000000001
 43
0.0000000001
 40
0.0
 40
0.0
 40
0.0
 40
0.0
 40
0.25
 40
0.5
 40
0.75
 40
1.0
 40
1.0
 40
1.0
 40
1.0
 10
53.54884158409993
 20
75.07406101749996
 30
0.0
 10
53.52126306529989
 20
75.05821349810014
 30
0.0
 10
53.46679013049993
 20
75.02431212049998
 30
0.0
 10
53.38661034189988
 20
74.96613281230009
 30
0.0
 10
53.30999537929995
 20
74.90193725310006
 30
0.0
 10
53.26108650949993
 20
74.85499144729998
 30
0.0
 10
53.23723186539996
 20
74.8304534916
 30
0.0
1001
ACAD
1000
RTMaterial
1005
0
  0
LINE
  5
5E25A
330
1F
100
AcDbEntity
  8
cut
100
AcDbLine
 10
53.57656661959993
 20
75.08993498179996
 30
0.0
 11
53.54884158409993
 21
75.07406101749996
 31
0.0
1001
ACAD
1000
RTMaterial
1005
0
  0
SPLINE
  5
5E25B
330
1F
100
AcDbEntity
  8
cut
100
AcDbSpline
210
0.0
220
0.0
230
1.0
 70
     8
 71
     3
 72
    21
 73
    17
 74
     0
 42
0.0000000001
 43
0.0000000001
 40
0.0
 40
0.0
 40
0.0
 40
0.0
 40
0.0714285714
 40
0.1428571429
 40
0.2142857143
 40
0.2857142857
 40
0.3571428571
 40
0.4285714286
 40
0.5
 40
0.5714285714000003
 40
0.6428571429
 40
0.7142857143000001
 40
0.7857142857
 40
0.8571428570999998
 40
0.9285714285999999
 40
1.0
 40
1.0
 40
1.0
 40
1.0
 10
53.23723186539996
 20
74.8304534916
 30
0.0
 10
53.1779679770999
 20
74.76949200039995
 30
0.0
 10
53.0541910082999
 20
74.6421815642001
 30
0.0
 10
52.85349892059992
 20
74.43581209420006
 30
0.0
 10
52.63558664849984
 20
74.21179303760005
 30
0.0
 10
52.39944402129992
 20
73.96910212590012
 30
0.0
 10
52.14416240109994
 20
73.70682355270003
 30
0.0
 10
51.86879788129989
 20
73.42400764490014
 30
0.0
 10
51.57053859359995
 20
73.11779193690006
 30
0.0
 10
51.24811611569986
 20
72.78690366960006
 30
0.0
 10
50.89982007309991
 20
72.42962231689998
 30
0.0
 10
50.52403222369992
 20
72.04432921470005
 30
0.0
 10
50.11912603299992
 20
71.62940474390005
 30
0.0
 10
49.68342539139985
 20
71.1831873663001
 30
0.0
 10
49.21549797549992
 20
70.70427492410011
 30
0.0
 10
48.88051868119987
 20
70.36167484460007
 30
0.0
 10
48.70739137949988
 20
70.18468001949996
 30
0.0
1001
ACAD
1000
RTMaterial
1005
0
  0
SPLINE
  5
5E25C
330
1F
100
AcDbEntity
  8
cut
100
AcDbSpline
210
0.0
220
0.0
230
1.0
 70
     8
 71
     3
 72
    16
 73
    12
 74
     0
 42
0.0000000001
 43
0.0000000001
 40
0.0
 40
0.0
 40
0.0
 40
0.0
 40
0.1111111111
 40
0.2222222222
 40
0.3333333333
 40
0.4444444444000001
 40
0.5555555556
 40
0.6666666667
 40
0.7777777778
 40
0.8888888889
 40
1.0
 40
1.0
 40
1.0
 40
1.0
 10
48.70739137949988
 20
70.18468001949996
 30
0.0
 10
48.68276780519988
 20
70.15950637440004
 30
0.0
 10
48.6353298567999
 20
70.1072095106
 30
0.0
 10
48.56907180709993
 20
70.02202270410009
 30
0.0
 10
48.50964369889993
 20
69.93243527970003
 30
0.0
 10
48.45672283509987
 20
69.83840218050011
 30
0.0
 10
48.4107823843999
 20
69.74010560800002
 30
0.0
 10
48.37218015389987
 20
69.63863333350002
 30
0.0
 10
48.34093541589993
 20
69.5341924385001
 30
0.0
 10
48.31725900679987
 20
69.4271042301001
 30
0.0
 10
48.30676810529985
 20
69.35489769720004
 30
0.0
 10
48.30283569219989
 20
69.31851050650005
 30
0.0
1001
ACAD
1000
RTMaterial
1005
0
  0
LINE
  5
5E25D
330
1F
100
AcDbEntity
  8
cut
100
AcDbLine
 10
48.30283569219989
 20
69.31851050650005
 30
0.0
 11
48.2998066017999
 21
69.28748821010003
 31
0.0
1001
ACAD
1000
RTMaterial
1005
0
  0
LINE
  5
5E25E
330
1F
100
AcDbEntity
  8
cut
100
AcDbLine
 10
48.2998066017999
 20
69.28748821010003
 30
0.0
 11
48.29850311519988
 21
69.25595200640009
 31
0.0
1001
ACAD
1000
RTMaterial
1005
0
  0
SPLINE
  5
5E25F
330
1F
100
AcDbEntity
  8
cut
100
AcDbSpline
210
0.0
220
0.0
230
1.0
 70
     8
 71
     3
 72
    10
 73
     6
 74
     0
 42
0.0000000001
 43
0.0000000001
 40
0.0
 40
0.0
 40
0.0
 40
0.0
 40
0.3333333333
 40
0.6666666667
 40
1.0
 40
1.0
 40
1.0
 40
1.0
 10
48.29850311519988
 20
69.25595200640009
 30
0.0
 10
48.29765275089993
 20
69.22837131819995
 30
0.0
 10
48.29749422189991
 20
69.17355887090014
 30
0.0
 10
48.30167052949992
 20
69.09211136660008
 30
0.0
 10
48.30734105269994
 20
69.03889305030009
 30
0.0
 10
48.31086566759984
 20
69.01250179310011
 30
0.0
1001
ACAD
1000
RTMaterial
1005
0
  0
SPLINE
  5
5E260
330
1F
100
AcDbEntity
  8
cut
100
AcDbSpline
210
0.0
220
0.0
230
1.0
 70
     8
 71
     3
 72
    15
 73
    11
 74
     0
 42
0.0000000001
 43
0.0000000001
 40
0.0
 40
0.0
 40
0.0
 40
0.0
 40
0.125
 40
0.25
 40
0.375
 40
0.5
 40
0.625
 40
0.75
 40
0.875
 40
1.0
 40
1.0
 40
1.0
 40
1.0
 10
48.31086566759984
 20
69.01250179310011
 30
0.0
 10
48.31476597019991
 20
68.98329749950004
 30
0.0
 10
48.32432694149986
 20
68.92516450970004
 30
0.0
 10
48.34426063689988
 20
68.83813819559998
 30
0.0
 10
48.36948226579989
 20
68.7533297443
 30
0.0
 10
48.39995944859992
 20
68.66985012580006
 30
0.0
 10
48.43562549379988
 20
68.58856061729999
 30
0.0
 10
48.47660703849988
 20
68.50947356979998
 30
0.0
 10
48.52268430339996
 20
68.432870964
 30
0.0
 10
48.55644893139992
 20
68.38399746210007
 30
0.0
 10
48.57413048229989
 20
68.36007075860003
 30
0.0
1001
ACAD
1000
RTMaterial
1005
0
  0
SPLINE
  5
5E261
330
1F
100
AcDbEntity
  8
cut
100
AcDbSpline
210
0.0
220
0.0
230
1.0
 70
     8
 71
     3
 72
    17
 73
    13
 74
     0
 42
0.0000000001
 43
0.0000000001
 40
0.0
 40
0.0
 40
0.0
 40
0.0
 40
0.1
 40
0.2
 40
0.3
 40
0.4
 40
0.5
 40
0.6
 40
0.7
 40
0.8
 40
0.9
 40
1.0
 40
1.0
 40
1.0
 40
1.0
 10
48.57413048229989
 20
68.36007075860003
 30
0.0
 10
48.62410538229994
 20
68.29244464229997
 30
0.0
 10
48.72818251259992
 20
68.15161200490013
 30
0.0
 10
48.89611309329985
 20
67.92438780960003
 30
0.0
 10
49.07756041179993
 20
67.67889084260002
 30
0.0
 10
49.27287000709987
 20
67.41465800370007
 30
0.0
 10
49.48284205639993
 20
67.13061031690006
 30
0.0
 10
49.70968411989986
 20
66.82376794360003
 30
0.0
 10
49.95456081339988
 20
66.49256194630004
 30
0.0
 10
50.21894429339988
 20
66.13500905560011
 30
0.0
 10
50.50401250009986
 20
65.74952593800003
 30
0.0
 10
50.70912204839988
 20
65.47220149350005
 30
0.0
 10
50.81533796629992
 20
65.3285992796001
 30
0.0
1001
ACAD
1000
RTMaterial
1005
0
  0
SPLINE
  5
5E262
330
1F
100
AcDbEntity
  8
cut
100
AcDbSpline
210
0.0
220
0.0
230
1.0
 70
     8
 71
     3
 72
    11
 73
     7
 74
     0
 42
0.0000000001
 43
0.0000000001
 40
0.0
 40
0.0
 40
0.0
 40
0.0
 40
0.25
 40
0.5
 40
0.75
 40
1.0
 40
1.0
 40
1.0
 40
1.0
 10
50.81533796629992
 20
65.3285992796001
 30
0.0
 10
50.8659152529999
 20
65.2602196009001
 30
0.0
 10
50.97229996489989
 20
65.11668112310008
 30
0.0
 10
51.14853448299992
 20
64.88002640010006
 30
0.0
 10
51.33908871999995
 20
64.62547020559998
 30
0.0
 10
51.47663105259994
 20
64.4427816962001
 30
0.0
 10
51.54799208889992
 20
64.34831155300003
 30
0.0
1001
ACAD
1000
RTMaterial
1005
0
  0
SPLINE
  5
5E263
330
1F
100
AcDbEntity
  8
cut
100
AcDbSpline
210
0.0
220
0.0
230
1.0
 70
     8
 71
     3
 72
    11
 73
     7
 74
     0
 42
0.0000000001
 43
0.0000000001
 40
0.0
 40
0.0
 40
0.0
 40
0.0
 40
0.25
 40
0.5
 40
0.75
 40
1.0
 40
1.0
 40
1.0
 40
1.0
 10
51.54799208889992
 20
64.34831155300003
 30
0.0
 10
51.5624821534999
 20
64.33005378140014
 30
0.0
 10
51.59216746789989
 20
64.29488395220005
 30
0.0
 10
51.63883484069993
 20
64.24585834100014
 30
0.0
 10
51.68688887159985
 20
64.2009446835001
 30
0.0
 10
51.71970031899991
 20
64.17372758700015
 30
0.0
 10
51.73627815439989
 20
64.16075797790006
 30
0.0
1001
ACAD
1000
RTMaterial
1005
0
  0
SPLINE
  5
5E264
330
1F
100
AcDbEntity
  8
cut
100
AcDbSpline
210
0.0
220
0.0
230
1.0
 70
     8
 71
     3
 72
    10
 73
     6
 74
     0
 42
0.0000000001
 43
0.0000000001
 40
0.0
 40
0.0
 40
0.0
 40
0.0
 40
0.3333333333
 40
0.6666666667
 40
1.0
 40
1.0
 40
1.0
 40
1.0
 10
51.73627815439989
 20
64.16075797790006
 30
0.0
 10
51.74390533979988
 20
64.15479087730012
 30
0.0
 10
51.75941395689996
 20
64.14313039270007
 30
0.0
 10
51.78348464439989
 20
64.12646386120002
 30
0.0
 10
51.80001750989993
 20
64.11594384910006
 30
0.0
 10
51.80840894259984
 20
64.11082676789999
 30
0.0
1001
ACAD
1000
RTMaterial
1005
0
  0
SPLINE
  5
5E265
330
1F
100
AcDbEntity
  8
cut
100
AcDbSpline
210
0.0
220
0.0
230
1.0
 70
     8
 71
     3
 72
    22
 73
    18
 74
     0
 42
0.0000000001
 43
0.0000000001
 40
0.0
 40
0.0
 40
0.0
 40
0.0
 40
0.0666666667
 40
0.1333333333
 40
0.2
 40
0.2666666667
 40
0.3333333333
 40
0.4
 40
0.4666666667000002
 40
0.5333333333
 40
0.6
 40
0.6666666667
 40
0.7333333333
 40
0.8
 40
0.8666666667000001
 40
0.9333333333
 40
1.0
 40
1.0
 40
1.0
 40
1.0
 10
51.80840894259984
 20
64.11082676789999
 30
0.0
 10
51.83235882409985
 20
64.0962221715
 30
0.0
 10
51.87990123619989
 20
64.0673734139001
 30
0.0
 10
51.94930588159991
 20
64.02567646940008
 30
0.0
 10
52.0192927756999
 20
63.98403901440008
 30
0.0
 10
52.09162193019995
 20
63.94145669130001
 30
0.0
 10
52.16794883539989
 20
63.89700767310012
 30
0.0
 10
52.24712366189987
 20
63.85141842530003
 30
0.0
 10
52.32818404559987
 20
63.80527725420005
 30
0.0
 10
52.41008651079994
 20
63.75918702220008
 30
0.0
 10
52.49186130249995
 20
63.7136920972
 30
0.0
 10
52.57233015179986
 20
63.6694409232
 30
0.0
 10
52.65045701729992
 20
63.62698240110001
 30
0.0
 10
52.72492647559989
 20
63.58697973240009
 30
0.0
 10
52.79735688239987
 20
63.54850368540008
 30
0.0
 10
52.8694498555999
 20
63.5106143398001
 30
0.0
 10
52.91921575869992
 20
63.48473562650008
 30
0.0
 10
52.94436606739985
 20
63.47172976540003
 30
0.0
1001
ACAD
1000
RTMaterial
1005
0
  0
LINE
  5
5E266
330
1F
100
AcDbEntity
  8
cut
100
AcDbLine
 10
52.94436606739985
 20
63.47172976540003
 30
0.0
 11
52.97380763999989
 21
63.45650057740011
 31
0.0
1001
ACAD
1000
RTMaterial
1005
0
  0
SPLINE
  5
5E267
330
1F
100
AcDbEntity
  8
cut
100
AcDbSpline
210
0.0
220
0.0
230
1.0
 70
     8
 71
     3
 72
    11
 73
     7
 74
     0
 42
0.0000000001
 43
0.0000000001
 40
0.0
 40
0.0
 40
0.0
 40
0.0
 40
0.25
 40
0.5
 40
0.75
 40
1.0
 40
1.0
 40
1.0
 40
1.0
 10
52.97380763999989
 20
63.45650057740011
 30
0.0
 10
53.00394421079989
 20
63.44090516220001
 30
0.0
 10
53.0651104138999
 20
63.4114494915001
 30
0.0
 10
53.16022690839986
 20
63.37223491390012
 30
0.0
 10
53.25667440699985
 20
63.33875269090004
 30
0.0
 10
53.32216651939984
 20
63.3200617297
 30
0.0
 10
53.35518923289988
 20
63.31165452020002
 30
0.0
1001
ACAD
1000
RTMaterial
1005
0
  0
SPLINE
  5
5E268
330
1F
100
AcDbEntity
  8
cut
100
AcDbSpline
210
0.0
220
0.0
230
1.0
 70
     8
 71
     3
 72
    21
 73
    17
 74
     0
 42
0.0000000001
 43
0.0000000001
 40
0.0
 40
0.0
 40
0.0
 40
0.0
 40
0.0714285714
 40
0.1428571429
 40
0.2142857143
 40
0.2857142857
 40
0.3571428571
 40
0.4285714286
 40
0.5
 40
0.5714285714000003
 40
0.6428571429
 40
0.7142857143000001
 40
0.7857142857
 40
0.8571428570999998
 40
0.9285714285999999
 40
1.0
 40
1.0
 40
1.0
 40
1.0
 10
53.35518923289988
 20
63.31165452020002
 30
0.0
 10
53.43914362749989
 20
63.29028068050002
 30
0.0
 10
53.6146443296999
 20
63.24560174240002
 30
0.0
 10
53.89966345879987
 20
63.17304301390016
 30
0.0
 10
54.20947208069993
 20
63.09417742330004
 30
0.0
 10
54.54543258759986
 20
63.00865858520012
 30
0.0
 10
54.90875018249994
 20
62.91618077400006
 30
0.0
 10
55.30066875689988
 20
62.81642889960004
 30
0.0
 10
55.72510157919985
 20
62.70840778810009
 30
0.0
 10
56.18375551179986
 20
62.59168509060009
 30
0.0
 10
56.67896504679991
 20
62.46566873150005
 30
0.0
 10
57.21292691409985
 20
62.32980177289993
 30
0.0
 10
57.78784471049992
 20
62.18352602690004
 30
0.0
 10
58.4059834512999
 20
62.02626826590005
 30
0.0
 10
59.0692660074999
 20
61.85754277570003
 30
0.0
 10
59.54363647049991
 20
61.73688584490004
 30
0.0
 10
59.78869359389989
 20
61.67455893710006
 30
0.0
1001
ACAD
1000
RTMaterial
1005
0
  0
SPLINE
  5
5E269
330
1F
100
AcDbEntity
  8
cut
100
AcDbSpline
210
0.0
220
0.0
230
1.0
 70
     8
 71
     3
 72
    16
 73
    12
 74
     0
 42
0.0000000001
 43
0.0000000001
 40
0.0
 40
0.0
 40
0.0
 40
0.0
 40
0.1111111111
 40
0.2222222222
 40
0.3333333333
 40
0.4444444444000001
 40
0.5555555556
 40
0.6666666667
 40
0.7777777778
 40
0.8888888889
 40
1.0
 40
1.0
 40
1.0
 40
1.0
 10
59.78869359389989
 20
61.67455893710006
 30
0.0
 10
59.82794920649985
 20
61.6645748121001
 30
0.0
 10
59.90562280669984
 20
61.64758447600014
 30
0.0
 10
60.02030432309993
 20
61.6304912544
 30
0.0
 10
60.13063592459992
 20
61.62156538780016
 30
0.0
 10
60.23775321589994
 20
61.62016305960003
 30
0.0
 10
60.34124134119985
 20
61.62608144379999
 30
0.0
 10
60.4407421338999
 20
61.63872822130008
 30
0.0
 10
60.53685528759991
 20
61.6578255784001
 30
0.0
 10
60.62931233899985
 20
61.68311510980004
 30
0.0
 10
60.68826254389989
 20
61.70387980969996
 30
0.0
 10
60.7171064759999
 20
61.7152063471001
 30
0.0
1001
ACAD
1000
RTMaterial
1005
0
  0
SPLINE
  5
5E26A
330
1F
100
AcDbEntity
  8
cut
100
AcDbSpline
210
0.0
220
0.0
230
1.0
 70
     8
 71
     3
 72
    10
 73
     6
 74
     0
 42
0.0000000001
 43
0.0000000001
 40
0.0
 40
0.0
 40
0.0
 40
0.0
 40
0.3333333333
 40
0.6666666667
 40
1.0
 40
1.0
 40
1.0
 40
1.0
 10
60.7171064759999
 20
61.7152063471001
 30
0.0
 10
60.72315422679992
 20
61.71758119930007
 30
0.0
 10
60.73512650269993
 20
61.72247077360009
 30
0.0
 10
60.75272349039995
 20
61.7302292603
 30
0.0
 10
60.76419930329985
 20
61.73567036090003
 30
0.0
 10
60.7698761316999
 20
61.73845603770008
 30
0.0
1001
ACAD
1000
RTMaterial
1005
0
  0
SPLINE
  5
5E26B
330
1F
100
AcDbEntity
  8
cut
100
AcDbSpline
210
0.0
220
0.0
230
1.0
 70
     8
 71
     3
 72
    10
 73
     6
 74
     0
 42
0.0000000001
 43
0.0000000001
 40
0.0
 40
0.0
 40
0.0
 40
0.0
 40
0.3333333333
 40
0.6666666667
 40
1.0
 40
1.0
 40
1.0
 40
1.0
 10
60.7698761316999
 20
61.73845603770008
 30
0.0
 10
60.79278177979996
 20
61.74969606960008
 30
0.0
 10
60.83725145329992
 20
61.77324365180004
 30
0.0
 10
60.90033200789992
 20
61.81161776570004
 30
0.0
 10
60.93950398869992
 20
61.8388515015
 30
0.0
 10
60.95844612399992
 20
61.8528621488
 30
0.0
1001
ACAD
1000
RTMaterial
1005
0
  0
SPLINE
  5
5E26C
330
1F
100
AcDbEntity
  8
cut
100
AcDbSpline
210
0.0
220
0.0
230
1.0
 70
     8
 71
     3
 72
    15
 73
    11
 74
     0
 42
0.0000000001
 43
0.0000000001
 40
0.0
 40
0.0
 40
0.0
 40
0.0
 40
0.125
 40
0.25
 40
0.375
 40
0.5
 40
0.625
 40
0.75
 40
0.875
 40
1.0
 40
1.0
 40
1.0
 40
1.0
 10
60.95844612399992
 20
61.8528621488
 30
0.0
 10
60.9799519602999
 20
61.8687690506
 30
0.0
 10
61.02165580549989
 20
61.90189308410004
 30
0.0
 10
61.08058652639988
 20
61.95557643870007
 30
0.0
 10
61.1353363113999
 20
62.01259865120004
 30
0.0
 10
61.18718356539989
 20
62.07379331510003
 30
0.0
 10
61.23589977389986
 20
62.13924344689996
 30
0.0
 10
61.2817741145999
 20
62.20981719060012
 30
0.0
 10
61.32485404269994
 20
62.28601138970009
 30
0.0
 10
61.35153202999993
 20
62.34079085040002
 30
0.0
 10
61.36426485989989
 20
62.36920640090001
 30
0.0
1001
ACAD
1000
RTMaterial
1005
0
  0
SPLINE
  5
5E26D
330
1F
100
AcDbEntity
  8
cut
100
AcDbSpline
210
0.0
220
0.0
230
1.0
 70
     8
 71
     3
 72
    16
 73
    12
 74
     0
 42
0.0000000001
 43
0.0000000001
 40
0.0
 40
0.0
 40
0.0
 40
0.0
 40
0.1111111111
 40
0.2222222222
 40
0.3333333333
 40
0.4444444444000001
 40
0.5555555556
 40
0.6666666667
 40
0.7777777778
 40
0.8888888889
 40
1.0
 40
1.0
 40
1.0
 40
1.0
 10
61.36426485989989
 20
62.36920640090001
 30
0.0
 10
61.40170410759992
 20
62.45275866980012
 30
0.0
 10
61.48006347529985
 20
62.62765620480003
 30
0.0
 10
61.60755979829993
 20
62.91231006500002
 30
0.0
 10
61.74644676259992
 20
63.22249593980007
 30
0.0
 10
61.89679412859994
 20
63.55839333360006
 30
0.0
 10
62.06012038979986
 20
63.92342139930008
 30
0.0
 10
62.23784769729991
 20
64.32079222030006
 30
0.0
 10
62.43118924929991
 20
64.75325546229999
 30
0.0
 10
62.64121576949992
 20
65.2232496867001
 30
0.0
 10
62.79347554729986
 20
65.56413688820009
 30
0.0
 10
62.87256837869995
 20
65.74126043900003
 30
0.0
1001
ACAD
1000
RTMaterial
1005
0
  0
SPLINE
  5
5E26E
330
1F
100
AcDbEntity
  8
cut
100
AcDbSpline
210
0.0
220
0.0
230
1.0
 70
     8
 71
     3
 72
    11
 73
     7
 74
     0
 42
0.0000000001
 43
0.0000000001
 40
0.0
 40
0.0
 40
0.0
 40
0.0
 40
0.25
 40
0.5
 40
0.75
 40
1.0
 40
1.0
 40
1.0
 40
1.0
 10
62.87256837869995
 20
65.74126043900003
 30
0.0
 10
62.90548980799986
 20
65.8149859632
 30
0.0
 10
62.97606269219989
 20
65.97223989100007
 30
0.0
 10
63.09703311669988
 20
66.23861995060008
 30
0.0
 10
63.23177249919988
 20
66.53159354499996
 30
0.0
 10
63.33160224719984
 20
66.74576295510006
 30
0.0
 10
63.3840412940999
 20
66.8574241847001
 30
0.0
1001
ACAD
1000
RTMaterial
1005
0
  0
SPLINE
  5
5E26F
330
1F
100
AcDbEntity
  8
cut
100
AcDbSpline
210
0.0
220
0.0
230
1.0
 70
     8
 71
     3
 72
    11
 73
     7
 74
     0
 42
0.0000000001
 43
0.0000000001
 40
0.0
 40
0.0
 40
0.0
 40
0.0
 40
0.25
 40
0.5
 40
0.75
 40
1.0
 40
1.0
 40
1.0
 40
1.0
 10
63.3840412940999
 20
66.8574241847001
 30
0.0
 10
63.39372734619985
 20
66.87935805230006
 30
0.0
 10
63.41147528559986
 20
66.92312273390007
 30
0.0
 10
63.43352424709984
 20
66.98861006030006
 30
0.0
 10
63.45105079359996
 20
67.0530708207
 30
0.0
 10
63.45983022439988
 20
67.09521305200008
 30
0.0
 10
63.46355000889992
 20
67.11607691510005
 30
0.0
1001
ACAD
1000
RTMaterial
1005
0
  0
SPLINE
  5
5E270
330
1F
100
AcDbEntity
  8
cut
100
AcDbSpline
210
0.0
220
0.0
230
1.0
 70
     8
 71
     3
 72
    10
 73
     6
 74
     0
 42
0.0000000001
 43
0.0000000001
 40
0.0
 40
0.0
 40
0.0
 40
0.0
 40
0.3333333333
 40
0.6666666667
 40
1.0
 40
1.0
 40
1.0
 40
1.0
 10
63.46355000889992
 20
67.11607691510005
 30
0.0
 10
63.46467849769988
 20
67.12240648480008
 30
0.0
 10
63.46680678559984
 20
67.13500559500005
 30
0.0
 10
63.46959992329995
 20
67.15359620850006
 30
0.0
 10
63.47123908169987
 20
67.16603751569994
 30
0.0
 10
63.47199999939994
 20
67.17224889980002
 30
0.0
1001
ACAD
1000
RTMaterial
1005
0
  0
LINE
  5
5E271
330
1F
100
AcDbEntity
  8
cut
100
AcDbLine
 10
63.47199999939994
 20
67.17224889980002
 30
0.0
 11
63.47384048889988
 21
67.20405131870006
 31
0.0
1001
ACAD
1000
RTMaterial
1005
0
  0
SPLINE
  5
5EC34
330
1F
100
AcDbEntity
  8
1
100
AcDbSpline
210
0.0
220
0.0
230
1.0
 70
     8
 71
     3
 72
    15
 73
    11
 74
     0
 42
0.0000000001
 43
0.0000000001
 40
0.0
 40
0.0
 40
0.0
 40
0.0
 40
0.1248035261
 40
0.2496613061
 40
0.3746006319
 40
0.499629273
 40
0.6247274788000003
 40
0.7498557666
 40
0.8749517093000001
 40
1.0
 40
1.0
 40
1.0
 40
1.0
 10
55.17838032409986
 20
68.93702646270003
 30
0.0
 10
55.14783736549986
 20
68.94130087600014
 30
0.0
 10
55.08516764019987
 20
68.94117322750003
 30
0.0
 10
54.99520373149994
 20
68.9147853759001
 30
0.0
 10
54.91603561699992
 20
68.86434053400001
 30
0.0
 10
54.85400880539986
 20
68.7938223676
 30
0.0
 10
54.8139886150999
 20
68.70881023980007
 30
0.0
 10
54.79915791939993
 20
68.61599783560007
 30
0.0
 10
54.8106158305999
 20
68.52278794239999
 30
0.0
 10
54.83532483519991
 20
68.4650701055001
 30
0.0
 10
54.85134785189984
 20
68.43864776100009
 30
0.0
1001
ACAD
1000
RTMaterial
1005
0
  0
SPLINE
  5
5EC36
330
1F
100
AcDbEntity
  8
1
100
AcDbSpline
210
0.0
220
0.0
230
1.0
 70
     8
 71
     3
 72
    15
 73
    11
 74
     0
 42
0.0000000001
 43
0.0000000001
 40
0.0
 40
0.0
 40
0.0
 40
0.0
 40
0.1249745627
 40
0.2500150505
 40
0.3751191411999999
 40
0.5002276074000001
 40
0.6252937521000002
 40
0.7502820067
 40
0.8751804444999999
 40
1.0
 40
1.0
 40
1.0
 40
1.0
 10
54.58167461649986
 20
67.3090468734
 30
0.0
 10
54.55555894439989
 20
67.29280108399996
 30
0.0
 10
54.50763141389995
 20
67.25270394330005
 30
0.0
 10
54.45539850499995
 20
67.17517804020008
 30
0.0
 10
54.42656800509985
 20
67.08615257610006
 30
0.0
 10
54.42349063079984
 20
66.99263265289992
 30
0.0
 10
54.44637647569994
 20
66.90193300520002
 30
0.0
 10
54.49346557129991
 20
66.82114758399996
 30
0.0
 10
54.56098900879989
 20
66.75664071419999
 30
0.0
 10
54.61633388029986
 20
66.72777922200009
 30
0.0
 10
54.64529149139991
 20
66.7175290678
 30
0.0
1001
ACAD
1000
RTMaterial
1005
0
  0
SPLINE
  5
5EC37
330
1F
100
AcDbEntity
  8
1
100
AcDbSpline
210
0.0
220
0.0
230
1.0
 70
     8
 71
     3
 72
     8
 73
     4
 74
     0
 42
0.0000000001
 43
0.0000000001
 40
0.0
 40
0.0
 40
0.0
 40
0.0
 40
1.0
 40
1.0
 40
1.0
 40
1.0
 10
54.64529149139991
 20
66.7175290678
 30
0.0
 10
54.66601284099988
 20
66.7101943112001
 30
0.0
 10
54.68758188899982
 20
66.70492336300004
 30
0.0
 10
54.70935145059991
 20
66.70188047439999
 30
0.0
1001
ACAD
1000
RTMaterial
1005
0
  0
SPLINE
  5
5EC38
330
1F
100
AcDbEntity
  8
1
100
AcDbSpline
210
0.0
220
0.0
230
1.0
 70
     8
 71
     3
 72
    15
 73
    11
 74
     0
 42
0.0000000001
 43
0.0000000001
 40
0.0
 40
0.0
 40
0.0
 40
0.0
 40
0.1251602541
 40
0.2502837245
 40
0.3753592817
 40
0.5003790434000001
 40
0.6253432712000003
 40
0.7502586988
 40
0.8751367873999999
 40
1.0
 40
1.0
 40
1.0
 40
1.0
 10
55.60329743619989
 20
65.90056656540003
 30
0.0
 10
55.60179923499993
 20
65.94859544970006
 30
0.0
 10
55.59038183009988
 20
66.04458750770004
 30
0.0
 10
55.54853007959991
 20
66.18321844319996
 30
0.0
 10
55.4832260794999
 20
66.31245707820004
 30
0.0
 10
55.39646241219987
 20
66.42829730560004
 30
0.0
 10
55.29089286729993
 20
66.52721361760007
 30
0.0
 10
55.16972643919984
 20
66.60617971499994
 30
0.0
 10
55.03672157119989
 20
66.66277340670001
 30
0.0
 10
54.94272535219987
 20
66.684459511
 30
0.0
 10
54.89524918949996
 20
66.69109919310006
 30
0.0
1001
ACAD
1000
RTMaterial
1005
0
  0
SPLINE
  5
5EC39
330
1F
100
AcDbEntity
  8
1
100
AcDbSpline
210
0.0
220
0.0
230
1.0
 70
     8
 71
     3
 72
    11
 73
     7
 74
     0
 42
0.0000000001
 43
0.0000000001
 40
0.0
 40
0.0
 40
0.0
 40
0.0
 40
0.2502996486
 40
0.5003874572
 40
0.7502656923000001
 40
1.0
 40
1.0
 40
1.0
 40
1.0
 10
55.60329743619989
 20
65.90056656540003
 30
0.0
 10
55.60449150949989
 20
65.86228732270011
 30
0.0
 10
55.62045373079989
 20
65.78551823470002
 30
0.0
 10
55.68224356879988
 20
65.68606608900006
 30
0.0
 10
55.77424018249985
 20
65.61377026620005
 30
0.0
 10
55.84872234789987
 20
65.58959602710013
 30
0.0
 10
55.88656510419991
 20
65.58430132659998
 30
0.0
1001
ACAD
1000
RTMaterial
1005
0
  0
SPLINE
  5
5EC3A
330
1F
100
AcDbEntity
  8
1
100
AcDbSpline
210
0.0
220
0.0
230
1.0
 70
     8
 71
     3
 72
     9
 73
     5
 74
     0
 42
0.0000000001
 43
0.0000000001
 40
0.0
 40
0.0
 40
0.0
 40
0.0
 40
0.5000427267000001
 40
1.0
 40
1.0
 40
1.0
 40
1.0
 10
57.33148275889994
 20
66.08415274600009
 30
0.0
 10
57.28889307849988
 20
66.10702426270006
 30
0.0
 10
57.19949889269992
 20
66.14530352450002
 30
0.0
 10
57.10475545709993
 20
66.1672236224
 30
0.0
 10
57.05688746779991
 20
66.17392019530007
 30
0.0
1001
ACAD
1000
RTMaterial
1005
0
  0
SPLINE
  5
5EC3B
330
1F
100
AcDbEntity
  8
1
100
AcDbSpline
210
0.0
220
0.0
230
1.0
 70
     8
 71
     3
 72
     9
 73
     5
 74
     0
 42
0.0000000001
 43
0.0000000001
 40
0.0
 40
0.0
 40
0.0
 40
0.0
 40
0.7495490479000001
 40
1.0
 40
1.0
 40
1.0
 40
1.0
 10
57.33148275889994
 20
66.08415274600009
 30
0.0
 10
57.35699841179997
 20
66.07045032610006
 30
0.0
 10
57.39374088409988
 20
66.05661236970002
 30
0.0
 10
57.43175567549986
 20
66.04958088590014
 30
0.0
 10
57.44133955419989
 20
66.04823964520004
 30
0.0
1001
ACAD
1000
RTMaterial
1005
0
  0
SPLINE
  5
5EC3C
330
1F
100
AcDbEntity
  8
1
100
AcDbSpline
210
0.0
220
0.0
230
1.0
 70
     8
 71
     3
 72
    15
 73
    11
 74
     0
 42
0.0000000001
 43
0.0000000001
 40
0.0
 40
0.0
 40
0.0
 40
0.0
 40
0.1249035286
 40
0.2498597456
 40
0.3748744754
 40
0.4999215358
 40
0.6249805071
 40
0.7500291854000001
 40
0.8750362872
 40
1.0
 40
1.0
 40
1.0
 40
1.0
 10
54.58167461649986
 20
67.3090468734
 30
0.0
 10
54.62712916259988
 20
67.33732280590004
 30
0.0
 10
54.71275478639995
 20
67.40296577600009
 30
0.0
 10
54.81950147219992
 20
67.52434298629997
 30
0.0
 10
54.90079789309993
 20
67.66418890700004
 30
0.0
 10
54.95348079569986
 20
67.81715952130014
 30
0.0
 10
54.9755797805999
 20
67.97744595820006
 30
0.0
 10
54.96623010359996
 20
68.13897520890009
 30
0.0
 10
54.92584054889992
 20
68.29554997230002
 30
0.0
 10
54.87911880779984
 20
68.39285277880015
 30
0.0
 10
54.85134785189984
 20
68.43864776100009
 30
0.0
1001
ACAD
1000
RTMaterial
1005
0
  0
SPLINE
  5
5EC3D
330
1F
100
AcDbEntity
  8
1
100
AcDbSpline
210
0.0
220
0.0
230
1.0
 70
     8
 71
     3
 72
    11
 73
     7
 74
     0
 42
0.0000000001
 43
0.0000000001
 40
0.0
 40
0.0
 40
0.0
 40
0.0
 40
0.2497812734
 40
0.4996706779000001
 40
0.7497377359000002
 40
1.0
 40
1.0
 40
1.0
 40
1.0
 10
55.56283241039989
 20
68.81134591260002
 30
0.0
 10
55.64461745689992
 20
68.79990445589999
 30
0.0
 10
55.81279884979995
 20
68.80192618689999
 30
0.0
 10
56.05190969139993
 20
68.8800894141001
 30
0.0
 10
56.25713000749989
 20
69.02584088260005
 30
0.0
 10
56.35907260199997
 20
69.15986926390008
 30
0.0
 10
56.3987365262999
 20
69.23248306310006
 30
0.0
1001
ACAD
1000
RTMaterial
1005
0
  0
SPLINE
  5
5EC3E
330
1F
100
AcDbEntity
  8
1
100
AcDbSpline
210
0.0
220
0.0
230
1.0
 70
     8
 71
     3
 72
    11
 73
     7
 74
     0
 42
0.0000000001
 43
0.0000000001
 40
0.0
 40
0.0
 40
0.0
 40
0.0
 40
0.2497807494
 40
0.499671638
 40
0.7497263809
 40
1.0
 40
1.0
 40
1.0
 40
1.0
 10
56.73315477409994
 20
69.4009647813001
 30
0.0
 10
56.7004353824999
 20
69.40554265549997
 30
0.0
 10
56.63315113739987
 20
69.40473528680001
 30
0.0
 10
56.53749256759986
 20
69.37346374440004
 30
0.0
 10
56.45538945779993
 20
69.31515531930006
 30
0.0
 10
56.41460549099986
 20
69.26153479810011
 30
0.0
 10
56.3987365262999
 20
69.23248306310006
 30
0.0
1001
ACAD
1000
RTMaterial
1005
0
  0
SPLINE
  5
5EC3F
330
1F
100
AcDbEntity
  8
1
100
AcDbSpline
210
0.0
220
0.0
230
1.0
 70
     8
 71
     3
 72
     8
 73
     4
 74
     0
 42
0.0000000001
 43
0.0000000001
 40
0.0
 40
0.0
 40
0.0
 40
0.0
 40
1.0
 40
1.0
 40
1.0
 40
1.0
 10
57.7244706887999
 20
68.29416691480003
 30
0.0
 10
57.76837702969988
 20
68.28802648290002
 30
0.0
 10
57.81292691319993
 20
68.28543949390007
 30
0.0
 10
57.8572486134999
 20
68.286468356
 30
0.0
1001
ACAD
1000
RTMaterial
1005
0
  0
SPLINE
  5
5EC40
330
1F
100
AcDbEntity
  8
1
100
AcDbSpline
210
0.0
220
0.0
230
1.0
 70
     8
 71
     3
 72
     8
 73
     4
 74
     0
 42
0.0000000001
 43
0.0000000001
 40
0.0
 40
0.0
 40
0.0
 40
0.0
 40
1.0
 40
1.0
 40
1.0
 40
1.0
 10
57.91036842769996
 20
68.28338563350007
 30
0.0
 10
57.8928027968999
 20
68.28584090840002
 30
0.0
 10
57.87498023309989
 20
68.28687996910002
 30
0.0
 10
57.8572486134999
 20
68.286468356
 30
0.0
1001
ACAD
1000
RTMaterial
1005
0
  0
SPLINE
  5
5EC41
330
1F
100
AcDbEntity
  8
1
100
AcDbSpline
210
0.0
220
0.0
230
1.0
 70
     8
 71
     3
 72
    27
 73
    23
 74
     0
 42
0.0000000001
 43
0.0000000001
 40
0.0
 40
0.0
 40
0.0
 40
0.0
 40
0.0623947125
 40
0.0936232012
 40
0.1248550523
 40
0.1872761331
 40
0.249720486
 40
0.2809806853999999
 40
0.3122477685
 40
0.3747459269
 40
0.4372685048
 40
0.4998100351
 40
0.5623628903000001
 40
0.6249181621000001
 40
0.6874666821
 40
0.7187637134
 40
0.7500560675
 40
0.8125675237000001
 40
0.8750532600999999
 40
0.9063133248999999
 40
0.9375658356999998
 40
1.0
 40
1.0
 40
1.0
 40
1.0
 10
56.75950983129985
 20
70.91332500700001
 30
0.0
 10
56.95193629359994
 20
70.88639400280007
 30
0.0
 10
57.23800140949993
 20
70.82120122740014
 30
0.0
 10
57.60332863379982
 20
70.68715749039995
 30
0.0
 10
57.95614513949988
 20
70.52256966200014
 30
0.0
 10
58.36907798349989
 20
70.26142031699999
 30
0.0
 10
58.73192559789993
 20
69.93409019060004
 30
0.0
 10
58.98575905839994
 20
69.63855403369996
 30
0.0
 10
59.21377234729994
 20
69.32247214280005
 30
0.0
 10
59.44736887059992
 20
68.89261525270001
 30
0.0
 10
59.63655792029989
 20
68.33712836070003
 30
0.0
 10
59.72953893029989
 20
67.75747847720004
 30
0.0
 10
59.72356925229985
 20
67.17034812650003
 30
0.0
 10
59.61888284569988
 20
66.59264677200008
 30
0.0
 10
59.45167973289994
 20
66.13251081560008
 30
0.0
 10
59.27312204659995
 20
65.78568661930001
 30
0.0
 10
59.06597806759987
 20
65.45526704350016
 30
0.0
 10
58.75576966929987
 20
65.07702633490009
 30
0.0
 10
58.38621714079988
 20
64.75667935950003
 30
0.0
 10
58.06177618949994
 20
64.54083354550005
 30
0.0
 10
57.72046205699997
 20
64.35332939520003
 30
0.0
 10
57.44726564289988
 20
64.2458054601001
 30
0.0
 10
57.2609585204999
 20
64.1902119721001
 30
0.0
1001
ACAD
1000
RTMaterial
1005
0
  0
SPLINE
  5
5EC42
330
1F
100
AcDbEntity
  8
1
100
AcDbSpline
210
0.0
220
0.0
230
1.0
 70
     8
 71
     3
 72
     9
 73
     5
 74
     0
 42
0.0000000001
 43
0.0000000001
 40
0.0
 40
0.0
 40
0.0
 40
0.0
 40
0.4999358793999999
 40
1.0
 40
1.0
 40
1.0
 40
1.0
 10
55.80324918459985
 20
64.07991214429999
 30
0.0
 10
56.04590717469989
 20
64.04595099740015
 30
0.0
 10
56.54001451629984
 20
64.03011839140015
 30
0.0
 10
57.02610550959992
 20
64.12013253609996
 30
0.0
 10
57.2609585204999
 20
64.1902119721001
 30
0.0
1001
ACAD
1000
RTMaterial
1005
0
  0
SPLINE
  5
5EC43
330
1F
100
AcDbEntity
  8
1
100
AcDbSpline
210
0.0
220
0.0
230
1.0
 70
     8
 71
     3
 72
     9
 73
     5
 74
     0
 42
0.0000000001
 43
0.0000000001
 40
0.0
 40
0.0
 40
0.0
 40
0.0
 40
0.4999927562
 40
1.0
 40
1.0
 40
1.0
 40
1.0
 10
55.43467041419988
 20
68.82928032030007
 30
0.0
 10
55.38679942869985
 20
68.83597990150008
 30
0.0
 10
55.29205670419992
 20
68.85790092019999
 30
0.0
 10
55.20266179659994
 20
68.8961783377
 30
0.0
 10
55.16007517899993
 20
68.91904820970001
 30
0.0
1001
ACAD
1000
RTMaterial
1005
0
  0
SPLINE
  5
5EC44
330
1F
100
AcDbEntity
  8
1
100
AcDbSpline
210
0.0
220
0.0
230
1.0
 70
     8
 71
     3
 72
    27
 73
    23
 74
     0
 42
0.0000000001
 43
0.0000000001
 40
0.0
 40
0.0
 40
0.0
 40
0.0
 40
0.0624341643
 40
0.0936866751
 40
0.1249467399
 40
0.1874324763
 40
0.2499439325
 40
0.2812362866
 40
0.3125333179
 40
0.3750818379
 40
0.4376371097
 40
0.5001899649000002
 40
0.5627314952
 40
0.6252540731
 40
0.6877522315000001
 40
0.7190193145999999
 40
0.750279514
 40
0.8127238669
 40
0.8751449476999999
 40
0.9063767988
 40
0.9376052875
 40
1.0
 40
1.0
 40
1.0
 40
1.0
 10
55.30180049539989
 20
70.80302517929998
 30
0.0
 10
55.11549337299992
 20
70.74743169129998
 30
0.0
 10
54.84229695889985
 20
70.63990775620005
 30
0.0
 10
54.50098282639988
 20
70.45240360579999
 30
0.0
 10
54.17654187509993
 20
70.23655779190004
 30
0.0
 10
53.80698934659995
 20
69.91621081640015
 30
0.0
 10
53.49678094829994
 20
69.53797010780011
 30
0.0
 10
53.28963696929986
 20
69.20755053200003
 30
0.0
 10
53.11107928289993
 20
68.86072633569995
 30
0.0
 10
52.94387617019992
 20
68.40059037930007
 30
0.0
 10
52.8391897634999
 20
67.82288902480002
 30
0.0
 10
52.83322008559991
 20
67.23575867410011
 30
0.0
 10
52.92620109559994
 20
66.65610879069993
 30
0.0
 10
53.11539014529991
 20
66.10062189860002
 30
0.0
 10
53.34898666859988
 20
65.6707650085001
 30
0.0
 10
53.57699995749989
 20
65.35468311770012
 30
0.0
 10
53.83083341799989
 20
65.05914696080004
 30
0.0
 10
54.19368103239992
 20
64.73181683440009
 30
0.0
 10
54.60661387639992
 20
64.47066748940006
 30
0.0
 10
54.95943038209986
 20
64.30607966090008
 30
0.0
 10
55.32475760639989
 20
64.17203592400006
 30
0.0
 10
55.61082272229987
 20
64.10684314850005
 30
0.0
 10
55.80324918459985
 20
64.07991214429999
 30
0.0
1001
ACAD
1000
RTMaterial
1005
0
  0
SPLINE
  5
5EC45
330
1F
100
AcDbEntity
  8
1
100
AcDbSpline
210
0.0
220
0.0
230
1.0
 70
     8
 71
     3
 72
     9
 73
     5
 74
     0
 42
0.0000000001
 43
0.0000000001
 40
0.0
 40
0.0
 40
0.0
 40
0.0
 40
0.5000641206000001
 40
1.0
 40
1.0
 40
1.0
 40
1.0
 10
55.30180049539989
 20
70.80302517929998
 30
0.0
 10
55.5366535062999
 20
70.87310461520008
 30
0.0
 10
56.02274449959987
 20
70.96311875990011
 30
0.0
 10
56.51685184119992
 20
70.94728615390009
 30
0.0
 10
56.75950983129985
 20
70.91332500700001
 30
0.0
1001
ACAD
1000
RTMaterial
1005
0
  0
SPLINE
  5
5EC46
330
1F
100
AcDbEntity
  8
1
100
AcDbSpline
210
0.0
220
0.0
230
1.0
 70
     8
 71
     3
 72
    27
 73
    23
 74
     0
 42
0.0000000001
 43
0.0000000001
 40
0.0
 40
0.0
 40
0.0
 40
0.0
 40
0.0624427899
 40
0.0937102059
 40
0.1249873065
 40
0.1874900014
 40
0.2500207912
 40
0.281332068
 40
0.3126473387
 40
0.3752087474
 40
0.4377679573
 40
0.5003130489000001
 40
0.562834304
 40
0.6253256282000002
 40
0.6877854148
 40
0.7190421229
 40
0.7502924867000002
 40
0.8127033279999999
 40
0.8751043047999999
 40
0.9063425463999999
 40
0.9375810863999999
 40
1.0
 40
1.0
 40
1.0
 40
1.0
 10
55.64232396629984
 20
69.74579009429999
 30
0.0
 10
55.49539277939993
 20
69.70194626759997
 30
0.0
 10
55.2806099863999
 20
69.61406841300004
 30
0.0
 10
55.01641399379991
 20
69.4571781571001
 30
0.0
 10
54.76862895769989
 20
69.27505883469996
 30
0.0
 10
54.49416869049993
 20
69.00300056140008
 30
0.0
 10
54.27804740949989
 20
68.68252586510005
 30
0.0
 10
54.14516016179994
 20
68.4049288218
 30
0.0
 10
54.03998129079989
 20
68.11562244590004
 30
0.0
 10
53.96244809619986
 20
67.73665776300004
 30
0.0
 10
53.95975460629983
 20
67.27294600030006
 30
0.0
 10
54.04731277639985
 20
66.81758894699999
 30
0.0
 10
54.22185035139989
 20
66.38816843630015
 30
0.0
 10
54.4765496573999
 20
66.00121478240009
 30
0.0
 10
54.74784489589989
 20
65.7262555886
 30
0.0
 10
54.99346524209989
 20
65.54159608390012
 30
0.0
 10
55.25590128239992
 20
65.3819512445001
 30
0.0
 10
55.6114428763999
 20
65.232020711
 30
0.0
 10
55.98943248539989
 20
65.15466638250007
 30
0.0
 10
56.2960791331999
 20
65.13800420630002
 30
0.0
 10
56.60282932409995
 20
65.15147218870004
 30
0.0
 10
56.83052090719989
 20
65.19564895149994
 30
0.0
 10
56.97739591189986
 20
65.23947601359998
 30
0.0
1001
ACAD
1000
RTMaterial
1005
0
  0
SPLINE
  5
5EC47
330
1F
100
AcDbEntity
  8
1
100
AcDbSpline
210
0.0
220
0.0
230
1.0
 70
     8
 71
     3
 72
     8
 73
     4
 74
     0
 42
0.0000000001
 43
0.0000000001
 40
0.0
 40
0.0
 40
0.0
 40
0.0
 40
1.0
 40
1.0
 40
1.0
 40
1.0
 10
55.16007517899993
 20
68.91904820970001
 30
0.0
 10
55.14521713369993
 20
68.92702727950006
 30
0.0
 10
55.12969427699989
 20
68.9338720815
 30
0.0
 10
55.11378786169984
 20
68.93947681300005
 30
0.0
1001
ACAD
1000
RTMaterial
1005
0
  0
SPLINE
  5
5EC48
330
1F
100
AcDbEntity
  8
1
100
AcDbSpline
210
0.0
220
0.0
230
1.0
 70
     8
 71
     3
 72
    15
 73
    11
 74
     0
 42
0.0000000001
 43
0.0000000001
 40
0.0
 40
0.0
 40
0.0
 40
0.0
 40
0.1249035286
 40
0.2498597456
 40
0.3748744754
 40
0.4999215358
 40
0.6249805071
 40
0.7500291854000001
 40
0.8750362872
 40
1.0
 40
1.0
 40
1.0
 40
1.0
 10
58.03804526179987
 20
67.67621923450008
 30
0.0
 10
57.99259071559993
 20
67.64794330189999
 30
0.0
 10
57.90696509179986
 20
67.58230033179995
 30
0.0
 10
57.80021840609993
 20
67.46092312150006
 30
0.0
 10
57.71892198519992
 20
67.32107720090005
 30
0.0
 10
57.66623908259987
 20
67.16810658660006
 30
0.0
 10
57.64414009769996
 20
67.00782014970002
 30
0.0
 10
57.65348977469987
 20
66.84629089900011
 30
0.0
 10
57.69387932939991
 20
66.68971613560007
 30
0.0
 10
57.7406010704999
 20
66.59241332910004
 30
0.0
 10
57.76837202639988
 20
66.54661834680007
 30
0.0
1001
ACAD
1000
RTMaterial
1005
0
  0
SPLINE
  5
5EC49
330
1F
100
AcDbEntity
  8
1
100
AcDbSpline
210
0.0
220
0.0
230
1.0
 70
     8
 71
     3
 72
    11
 73
     7
 74
     0
 42
0.0000000001
 43
0.0000000001
 40
0.0
 40
0.0
 40
0.0
 40
0.0
 40
0.2502234889999999
 40
0.500298469
 40
0.7502309122
 40
1.0
 40
1.0
 40
1.0
 40
1.0
 10
56.88826050169985
 20
69.10263439030007
 30
0.0
 10
56.88738193159985
 20
69.1307993260001
 30
0.0
 10
56.87834669279993
 20
69.18715040070003
 30
0.0
 10
56.84383359439994
 20
69.26525140559999
 30
0.0
 10
56.79069112719993
 20
69.33202134940007
 30
0.0
 10
56.74499373169989
 20
69.36610537569993
 30
0.0
 10
56.72047704439989
 20
69.37989255260004
 30
0.0
1001
ACAD
1000
RTMaterial
1005
0
  0
SPLINE
  5
5EC4A
330
1F
100
AcDbEntity
  8
1
100
AcDbSpline
210
0.0
220
0.0
230
1.0
 70
     8
 71
     3
 72
     8
 73
     4
 74
     0
 42
0.0000000001
 43
0.0000000001
 40
0.0
 40
0.0
 40
0.0
 40
0.0
 40
1.0
 40
1.0
 40
1.0
 40
1.0
 10
56.72047704439989
 20
69.37989255260004
 30
0.0
 10
56.70372534579986
 20
69.38931301900002
 30
0.0
 10
56.68607943309985
 20
69.39729468420011
 30
0.0
 10
56.6679388616999
 20
69.40364167270002
 30
0.0
1001
ACAD
1000
RTMaterial
1005
0
  0
SPLINE
  5
5EC4B
330
1F
100
AcDbEntity
  8
1
100
AcDbSpline
210
0.0
220
0.0
230
1.0
 70
     8
 71
     3
 72
    15
 73
    11
 74
     0
 42
0.0000000001
 43
0.0000000001
 40
0.0
 40
0.0
 40
0.0
 40
0.0
 40
0.1248757498
 40
0.2497465242
 40
0.3746627943
 40
0.4996245048
 40
0.6246450574
 40
0.7497140269
 40
0.8748478632999997
 40
1.0
 40
1.0
 40
1.0
 40
1.0
 10
57.59630910689987
 20
68.31210433230001
 30
0.0
 10
57.54882795939987
 20
68.31874231330004
 30
0.0
 10
57.45482911739985
 20
68.34042818550006
 30
0.0
 10
57.32182602209991
 20
68.39703049100001
 30
0.0
 10
57.20066206239994
 20
68.47599274690003
 30
0.0
 10
57.0950932433999
 20
68.57490947899997
 30
0.0
 10
57.00833499619989
 20
68.69074873429998
 30
0.0
 10
56.94302363229986
 20
68.81998541569998
 30
0.0
 10
56.90117945899988
 20
68.95861682730004
 30
0.0
 10
56.88975860219989
 20
69.0546087332
 30
0.0
 10
56.88826050169985
 20
69.10263439030007
 30
0.0
1001
ACAD
1000
RTMaterial
1005
0
  0
SPLINE
  5
5EC4C
330
1F
100
AcDbEntity
  8
1
100
AcDbSpline
210
0.0
220
0.0
230
1.0
 70
     8
 71
     3
 72
    15
 73
    11
 74
     0
 42
0.0000000001
 43
0.0000000001
 40
0.0
 40
0.0
 40
0.0
 40
0.0
 40
0.1249712139
 40
0.2500063639
 40
0.3751077101
 40
0.5002138165
 40
0.6252813567000001
 40
0.7502739849
 40
0.8751788063999999
 40
1.0
 40
1.0
 40
1.0
 40
1.0
 10
57.90988332139988
 20
67.69415408230009
 30
0.0
 10
57.93561795599988
 20
67.71016283950007
 30
0.0
 10
57.98290616919985
 20
67.74955938810001
 30
0.0
 10
58.03482816359997
 20
67.82560720780009
 30
0.0
 10
58.06412539209986
 20
67.91300401780006
 30
0.0
 10
58.06848178279995
 20
68.00507240960008
 30
0.0
 10
58.04759910599988
 20
68.09482045290008
 30
0.0
 10
58.00302708269987
 20
68.17543223710015
 30
0.0
 10
57.93823356149994
 20
68.24073445480007
 30
0.0
 10
57.88462646999994
 20
68.27084173160007
 30
0.0
 10
57.85643963889993
 20
68.28188031260004
 30
0.0
1001
ACAD
1000
RTMaterial
1005
0
  0
LINE
  5
5EC4D
330
1F
100
AcDbEntity
  8
1
100
AcDbLine
 10
57.85643963889993
 20
68.28188031260004
 30
0.0
 11
57.84295967389994
 21
68.2868226191
 31
0.0
1001
ACAD
1000
RTMaterial
1005
0
  0
SPLINE
  5
5EC4E
330
1F
100
AcDbEntity
  8
1
100
AcDbSpline
210
0.0
220
0.0
230
1.0
 70
     8
 71
     3
 72
    15
 73
    11
 74
     0
 42
0.0000000001
 43
0.0000000001
 40
0.0
 40
0.0
 40
0.0
 40
0.0
 40
0.1249599769
 40
0.2499720737
 40
0.3750190592
 40
0.5000784648
 40
0.6251259588
 40
0.7501389967000001
 40
0.8751002055
 40
1.0
 40
1.0
 40
1.0
 40
1.0
 10
57.64021008599991
 20
66.56455319470001
 30
0.0
 10
57.61243992879986
 20
66.61034685989999
 30
0.0
 10
57.56571936079989
 20
66.70765065900003
 30
0.0
 10
57.52532479969989
 20
66.86422428230002
 30
0.0
 10
57.5159776664999
 20
67.02575555110001
 30
0.0
 10
57.53807423669989
 20
67.18604212900003
 30
0.0
 10
57.59075935739986
 20
67.33901177810015
 30
0.0
 10
57.67205441959993
 20
67.47886064800002
 30
0.0
 10
57.77880505719986
 20
67.6002345774001
 30
0.0
 10
57.86443008249989
 20
67.66587896300007
 30
0.0
 10
57.90988332139988
 20
67.69415408230009
 30
0.0
1001
ACAD
1000
RTMaterial
1005
0
  0
SPLINE
  5
5EC4F
330
1F
100
AcDbEntity
  8
1
100
AcDbSpline
210
0.0
220
0.0
230
1.0
 70
     8
 71
     3
 72
    15
 73
    11
 74
     0
 42
0.0000000001
 43
0.0000000001
 40
0.0
 40
0.0
 40
0.0
 40
0.0
 40
0.1249929242
 40
0.2500590293
 40
0.3751822011
 40
0.5002973722000002
 40
0.6253498794
 40
0.7503080916
 40
0.8751765463999998
 40
1.0
 40
1.0
 40
1.0
 40
1.0
 10
58.03804526179987
 20
67.67621923450008
 30
0.0
 10
58.06647647619989
 20
67.69390545440012
 30
0.0
 10
58.11825407459989
 20
67.73833391300001
 30
0.0
 10
58.17203307889986
 20
67.8250162825001
 30
0.0
 10
58.19736209089988
 20
67.92394937910001
 30
0.0
 10
58.19178386319993
 20
68.02590020050002
 30
0.0
 10
58.15585543509985
 20
68.12142928030005
 30
0.0
 10
58.09284854319992
 20
68.20166488880011
 30
0.0
 10
58.00873320319988
 20
68.25913812999999
 30
0.0
 10
57.94348446319986
 20
68.27875676630004
 30
0.0
 10
57.91036842769996
 20
68.28338563350007
 30
0.0
1001
ACAD
1000
RTMaterial
1005
0
  0
SPLINE
  5
5EC50
330
1F
100
AcDbEntity
  8
1
100
AcDbSpline
210
0.0
220
0.0
230
1.0
 70
     8
 71
     3
 72
    11
 73
     7
 74
     0
 42
0.0000000001
 43
0.0000000001
 40
0.0
 40
0.0
 40
0.0
 40
0.0
 40
0.2502689694
 40
0.5003316144
 40
0.7502220338
 40
1.0
 40
1.0
 40
1.0
 40
1.0
 10
56.09282141159986
 20
65.77071789260003
 30
0.0
 10
56.13248639769995
 20
65.84333363580004
 30
0.0
 10
56.23443080299988
 20
65.97736114730003
 30
0.0
 10
56.43965057929996
 20
66.12311674270006
 30
0.0
 10
56.67876130009982
 20
66.20126934179997
 30
0.0
 10
56.84694222859992
 20
66.20330112650004
 30
0.0
 10
56.92872558329987
 20
66.1918554832
 30
0.0
1001
ACAD
1000
RTMaterial
1005
0
  0
SPLINE
  5
5EC51
330
1F
100
AcDbEntity
  8
1
100
AcDbSpline
210
0.0
220
0.0
230
1.0
 70
     8
 71
     3
 72
    15
 73
    11
 74
     0
 42
0.0000000001
 43
0.0000000001
 40
0.0
 40
0.0
 40
0.0
 40
0.0
 40
0.1251602541
 40
0.2502837245
 40
0.3753592817
 40
0.5003790434000001
 40
0.6253432712000003
 40
0.7502586988
 40
0.8751367873999999
 40
1.0
 40
1.0
 40
1.0
 40
1.0
 10
57.0164224419999
 20
69.0846995424
 30
0.0
 10
57.01792064319988
 20
69.03667065810009
 30
0.0
 10
57.02933804819986
 20
68.94067860020005
 30
0.0
 10
57.07118979869996
 20
68.80204766460008
 30
0.0
 10
57.13649379879985
 20
68.6728090296001
 30
0.0
 10
57.22325746609988
 20
68.5569688022
 30
0.0
 10
57.32882701099993
 20
68.45805249030002
 30
0.0
 10
57.44999343909991
 20
68.37908639290003
 30
0.0
 10
57.58299830709995
 20
68.32249270120008
 30
0.0
 10
57.67699452609986
 20
68.30080659680004
 30
0.0
 10
57.7244706887999
 20
68.29416691480003
 30
0.0
1001
ACAD
1000
RTMaterial
1005
0
  0
SPLINE
  5
5EC52
330
1F
100
AcDbEntity
  8
1
100
AcDbSpline
210
0.0
220
0.0
230
1.0
 70
     8
 71
     3
 72
     8
 73
     4
 74
     0
 42
0.0000000001
 43
0.0000000001
 40
0.0
 40
0.0
 40
0.0
 40
0.0
 40
1.0
 40
1.0
 40
1.0
 40
1.0
 10
54.64833787319992
 20
66.71693765860005
 30
0.0
 10
54.66901142689994
 20
66.71706234530006
 30
0.0
 10
54.68970434119989
 20
66.7164027683001
 30
0.0
 10
54.71032833999993
 20
66.71496678730012
 30
0.0
1001
ACAD
1000
RTMaterial
1005
0
  0
SPLINE
  5
5EC53
330
1F
100
AcDbEntity
  8
1
100
AcDbSpline
210
0.0
220
0.0
230
1.0
 70
     8
 71
     3
 72
     8
 73
     4
 74
     0
 42
0.0000000001
 43
0.0000000001
 40
0.0
 40
0.0
 40
0.0
 40
0.0
 40
1.0
 40
1.0
 40
1.0
 40
1.0
 10
54.71032833999993
 20
66.71496678730012
 30
0.0
 10
54.72930507679997
 20
66.71364549980012
 30
0.0
 10
54.7482474261999
 20
66.71166527460002
 30
0.0
 10
54.76708689059989
 20
66.70903147130013
 30
0.0
1001
ACAD
1000
RTMaterial
1005
0
  0
SPLINE
  5
5EC54
330
1F
100
AcDbEntity
  8
1
100
AcDbSpline
210
0.0
220
0.0
230
1.0
 70
     8
 71
     3
 72
    15
 73
    11
 74
     0
 42
0.0000000001
 43
0.0000000001
 40
0.0
 40
0.0
 40
0.0
 40
0.0
 40
0.1248035261
 40
0.2496613061
 40
0.3746006319
 40
0.499629273
 40
0.6247274788000003
 40
0.7498557666
 40
0.8749517093000001
 40
1.0
 40
1.0
 40
1.0
 40
1.0
 10
57.44133955419989
 20
66.04823964520004
 30
0.0
 10
57.47188251279988
 20
66.04396523180003
 30
0.0
 10
57.53455223809988
 20
66.04409288030012
 30
0.0
 10
57.62451614669989
 20
66.07048073190004
 30
0.0
 10
57.7036842611999
 20
66.12092557380004
 30
0.0
 10
57.76571107279995
 20
66.19144374030009
 30
0.0
 10
57.80573126319996
 20
66.2764558681
 30
0.0
 10
57.82056195879988
 20
66.36926827230002
 30
0.0
 10
57.80910404769986
 20
66.46247816540007
 30
0.0
 10
57.78439504299988
 20
66.52019600230004
 30
0.0
 10
57.76837202639988
 20
66.54661834680007
 30
0.0
1001
ACAD
1000
RTMaterial
1005
0
  0
SPLINE
  5
5EC55
330
1F
100
AcDbEntity
  8
1
100
AcDbSpline
210
0.0
220
0.0
230
1.0
 70
     8
 71
     3
 72
    15
 73
    11
 74
     0
 42
0.0000000001
 43
0.0000000001
 40
0.0
 40
0.0
 40
0.0
 40
0.0
 40
0.1248198495
 40
0.2497009272
 40
0.3746642443
 40
0.4997044267000001
 40
0.6247961708
 40
0.7499053905
 40
0.8749776184999998
 40
1.0
 40
1.0
 40
1.0
 40
1.0
 10
57.37833385189992
 20
66.06359846180009
 30
0.0
 10
57.40643494079986
 20
66.06528652100007
 30
0.0
 10
57.46248083799993
 20
66.07597755590005
 30
0.0
 10
57.53949808409993
 20
66.11287355260003
 30
0.0
 10
57.60468423229986
 20
66.16819599980011
 30
0.0
 10
57.65367881609996
 20
66.23830483450013
 30
0.0
 10
57.68328990749989
 20
66.31858146289992
 30
0.0
 10
57.69154956699992
 20
66.40376368810007
 30
0.0
 10
57.67796580559991
 20
66.48819287640015
 30
0.0
 10
57.65483118169993
 20
66.54044265200003
 30
0.0
 10
57.64021008599991
 20
66.56455319470001
 30
0.0
1001
ACAD
1000
RTMaterial
1005
0
  0
SPLINE
  5
5EC56
330
1F
100
AcDbEntity
  8
1
100
AcDbSpline
210
0.0
220
0.0
230
1.0
 70
     8
 71
     3
 72
    11
 73
     7
 74
     0
 42
0.0000000001
 43
0.0000000001
 40
0.0
 40
0.0
 40
0.0
 40
0.0
 40
0.2497812734
 40
0.4996706779000001
 40
0.7497377359000002
 40
1.0
 40
1.0
 40
1.0
 40
1.0
 10
57.05688746779991
 20
66.17392019530007
 30
0.0
 10
56.97510242139991
 20
66.18536165200009
 30
0.0
 10
56.80692102849992
 20
66.18333992100009
 30
0.0
 10
56.56781018689992
 20
66.10517669379999
 30
0.0
 10
56.36258987079987
 20
65.95942522530015
 30
0.0
 10
56.26064727619985
 20
65.82539684390008
 30
0.0
 10
56.22098335199996
 20
65.75278304480002
 30
0.0
1001
ACAD
1000
RTMaterial
1005
0
  0
SPLINE
  5
5EC57
330
1F
100
AcDbEntity
  8
1
100
AcDbSpline
210
0.0
220
0.0
230
1.0
 70
     8
 71
     3
 72
    11
 73
     7
 74
     0
 42
0.0000000001
 43
0.0000000001
 40
0.0
 40
0.0
 40
0.0
 40
0.0
 40
0.2502996486
 40
0.5003874572
 40
0.7502656923000001
 40
1.0
 40
1.0
 40
1.0
 40
1.0
 10
57.0164224419999
 20
69.0846995424
 30
0.0
 10
57.01522836869992
 20
69.12297878510003
 30
0.0
 10
56.99926614749995
 20
69.19974787319995
 30
0.0
 10
56.93747630949997
 20
69.29920001879998
 30
0.0
 10
56.84547969569985
 20
69.3714958416
 30
0.0
 10
56.77099753039988
 20
69.39567008079996
 30
0.0
 10
56.73315477409994
 20
69.4009647813001
 30
0.0
1001
ACAD
1000
RTMaterial
1005
0
  0
SPLINE
  5
5EC58
330
1F
100
AcDbEntity
  8
1
100
AcDbSpline
210
0.0
220
0.0
230
1.0
 70
     8
 71
     3
 72
    11
 73
     7
 74
     0
 42
0.0000000001
 43
0.0000000001
 40
0.0
 40
0.0
 40
0.0
 40
0.0
 40
0.2497807494
 40
0.499671638
 40
0.7497263809
 40
1.0
 40
1.0
 40
1.0
 40
1.0
 10
55.88656510419991
 20
65.58430132659998
 30
0.0
 10
55.91928449579985
 20
65.57972345240012
 30
0.0
 10
55.98656874089988
 20
65.58053082100002
 30
0.0
 10
56.08222731069986
 20
65.61180236350003
 30
0.0
 10
56.16433042049994
 20
65.67011078860002
 30
0.0
 10
56.20511438729987
 20
65.72373130979997
 30
0.0
 10
56.22098335199996
 20
65.75278304480002
 30
0.0
1001
ACAD
1000
RTMaterial
1005
0
  0
SPLINE
  5
5EC59
330
1F
100
AcDbEntity
  8
1
100
AcDbSpline
210
0.0
220
0.0
230
1.0
 70
     8
 71
     3
 72
    11
 73
     7
 74
     0
 42
0.0000000001
 43
0.0000000001
 40
0.0
 40
0.0
 40
0.0
 40
0.0
 40
0.2497849674
 40
0.4997030093000002
 40
0.7497650819000003
 40
1.0
 40
1.0
 40
1.0
 40
1.0
 10
55.82350790329986
 20
65.59965378000004
 30
0.0
 10
55.85111596349985
 20
65.60130207970008
 30
0.0
 10
55.90617701369989
 20
65.6116737213
 30
0.0
 10
55.98207024049987
 20
65.64738594369997
 30
0.0
 10
56.04668884999989
 20
65.70093800030007
 30
0.0
 10
56.07953928299989
 20
65.74640194710003
 30
0.0
 10
56.09282141159986
 20
65.77071789260003
 30
0.0
1001
ACAD
1000
RTMaterial
1005
0
  0
SPLINE
  5
5EC5A
330
1F
100
AcDbEntity
  8
1
100
AcDbSpline
210
0.0
220
0.0
230
1.0
 70
     8
 71
     3
 72
     9
 73
     5
 74
     0
 42
0.0000000001
 43
0.0000000001
 40
0.0
 40
0.0
 40
0.0
 40
0.0
 40
0.5000427267000001
 40
1.0
 40
1.0
 40
1.0
 40
1.0
 10
55.28823711939992
 20
68.9011133619
 30
0.0
 10
55.33082679979987
 20
68.87824184509998
 30
0.0
 10
55.42022098559994
 20
68.83996258340005
 30
0.0
 10
55.51496442119992
 20
68.81804248550007
 30
0.0
 10
55.56283241039989
 20
68.81134591260002
 30
0.0
1001
ACAD
1000
RTMaterial
1005
0
  0
SPLINE
  5
5EC5B
330
1F
100
AcDbEntity
  8
1
100
AcDbSpline
210
0.0
220
0.0
230
1.0
 70
     8
 71
     3
 72
     9
 73
     5
 74
     0
 42
0.0000000001
 43
0.0000000001
 40
0.0
 40
0.0
 40
0.0
 40
0.0
 40
0.7495490479000001
 40
1.0
 40
1.0
 40
1.0
 40
1.0
 10
55.28823711939992
 20
68.9011133619
 30
0.0
 10
55.2627214664999
 20
68.9148157817001
 30
0.0
 10
55.22597899419984
 20
68.92865373820007
 30
0.0
 10
55.18796420279989
 20
68.93568522200007
 30
0.0
 10
55.17838032409986
 20
68.93702646270003
 30
0.0
1001
ACAD
1000
RTMaterial
1005
0
  0
SPLINE
  5
5EC5C
330
1F
100
AcDbEntity
  8
1
100
AcDbSpline
210
0.0
220
0.0
230
1.0
 70
     8
 71
     3
 72
     8
 73
     4
 74
     0
 42
0.0000000001
 43
0.0000000001
 40
0.0
 40
0.0
 40
0.0
 40
0.0
 40
1.0
 40
1.0
 40
1.0
 40
1.0
 10
54.89524918949996
 20
66.69109919310006
 30
0.0
 10
54.85134284849994
 20
66.69723962490014
 30
0.0
 10
54.80679296509992
 20
66.69982661390008
 30
0.0
 10
54.76247126479996
 20
66.69879775180004
 30
0.0
1001
ACAD
1000
RTMaterial
1005
0
  0
SPLINE
  5
5EC5D
330
1F
100
AcDbEntity
  8
1
100
AcDbSpline
210
0.0
220
0.0
230
1.0
 70
     8
 71
     3
 72
    27
 73
    23
 74
     0
 42
0.0000000001
 43
0.0000000001
 40
0.0
 40
0.0
 40
0.0
 40
0.0
 40
0.0624189136
 40
0.0936574536
 40
0.1248956952
 40
0.187296672
 40
0.2497075133
 40
0.2809578771
 40
0.3122145852
 40
0.3746743718
 40
0.4371656960000001
 40
0.4996869511
 40
0.5622320427
 40
0.6247912526000003
 40
0.6873526613
 40
0.718667932
 40
0.7499792088
 40
0.8125099985999998
 40
0.8750126935
 40
0.9062897940999999
 40
0.9375572100999999
 40
1.0
 40
1.0
 40
1.0
 40
1.0
 10
55.64232396629984
 20
69.74579009429999
 30
0.0
 10
55.78919897109995
 20
69.78961715640014
 30
0.0
 10
56.01689055409985
 20
69.83379391920005
 30
0.0
 10
56.32364074509985
 20
69.84726190150002
 30
0.0
 10
56.63028739289996
 20
69.83059972540002
 30
0.0
 10
57.00827700189984
 20
69.75324539690006
 30
0.0
 10
57.36381859589993
 20
69.60331486339999
 30
0.0
 10
57.62625463619985
 20
69.44367002390014
 30
0.0
 10
57.87187498239984
 20
69.25901051920003
 30
0.0
 10
58.1431702207999
 20
68.98405132549999
 30
0.0
 10
58.39786952689985
 20
68.59709767160007
 30
0.0
 10
58.57240710179997
 20
68.16767716080005
 30
0.0
 10
58.6599652719999
 20
67.71232010749997
 30
0.0
 10
58.65727178199995
 20
67.2486083448001
 30
0.0
 10
58.57973858749993
 20
66.86964366200005
 30
0.0
 10
58.47455971649992
 20
66.58033728600013
 30
0.0
 10
58.34167246879985
 20
66.30274024270001
 30
0.0
 10
58.12555118779994
 20
65.9822655465
 30
0.0
 10
57.85109092059986
 20
65.71020727320001
 30
0.0
 10
57.60330588449996
 20
65.52808795070006
 30
0.0
 10
57.33910989189985
 20
65.37119769480011
 30
0.0
 10
57.12432709889991
 20
65.28331984020008
 30
0.0
 10
56.97739591189986
 20
65.23947601359998
 30
0.0
1001
ACAD
1000
RTMaterial
1005
0
  0
SPLINE
  5
5EC5E
330
1F
100
AcDbEntity
  8
1
100
AcDbSpline
210
0.0
220
0.0
230
1.0
 70
     8
 71
     3
 72
     8
 73
     4
 74
     0
 42
0.0000000001
 43
0.0000000001
 40
0.0
 40
0.0
 40
0.0
 40
0.0
 40
1.0
 40
1.0
 40
1.0
 40
1.0
 10
54.70935145059991
 20
66.70188047439999
 30
0.0
 10
54.72691708139985
 20
66.69942519940002
 30
0.0
 10
54.74473964519996
 20
66.69838613880006
 30
0.0
 10
54.76247126479996
 20
66.69879775180004
 30
0.0
1001
ACAD
1000
RTMaterial
1005
0
  0
SPLINE
  5
5EC61
330
1F
100
AcDbEntity
  8
1
100
AcDbSpline
210
0.0
220
0.0
230
1.0
 70
     8
 71
     3
 72
     9
 73
     5
 74
     0
 42
0.0000000001
 43
0.0000000001
 40
0.0
 40
0.0
 40
0.0
 40
0.0
 40
0.2479593616
 40
1.0
 40
1.0
 40
1.0
 40
1.0
 10
55.0285085395999
 20
74.46809701450011
 30
0.0
 10
55.12941804569994
 20
74.47789360910006
 30
0.0
 10
55.5362973995999
 20
74.5182269052001
 30
0.0
 10
55.9428529861999
 20
74.56182983719997
 30
0.0
 10
56.24838147059985
 20
74.59649943939997
 30
0.0
1001
ACAD
1000
RTMaterial
1005
0
  0
LINE
  5
5EC62
330
1F
100
AcDbEntity
  8
1
100
AcDbLine
 10
54.69621888409995
 20
74.37121357650004
 30
0.0
 11
54.70069532569993
 21
74.37352561420005
 31
0.0
1001
ACAD
1000
RTMaterial
1005
0
  0
LINE
  5
5EC63
330
1F
100
AcDbEntity
  8
1
100
AcDbLine
 10
54.70069532569993
 20
74.37352561420005
 30
0.0
 11
54.70934690439992
 21
74.37788221050005
 31
0.0
1001
ACAD
1000
RTMaterial
1005
0
  0
SPLINE
  5
5EC64
330
1F
100
AcDbEntity
  8
1
100
AcDbSpline
210
0.0
220
0.0
230
1.0
 70
     8
 71
     3
 72
     8
 73
     4
 74
     0
 42
0.0000000001
 43
0.0000000001
 40
0.0
 40
0.0
 40
0.0
 40
0.0
 40
1.0
 40
1.0
 40
1.0
 40
1.0
 10
54.70934690439992
 20
74.37788221050005
 30
0.0
 10
54.72951927929988
 20
74.38786995530006
 30
0.0
 10
54.75018650719983
 20
74.39691575280004
 30
0.0
 10
54.77121407219988
 20
74.4049482662
 30
0.0
1001
ACAD
1000
RTMaterial
1005
0
  0
SPLINE
  5
5EC65
330
1F
100
AcDbEntity
  8
1
100
AcDbSpline
210
0.0
220
0.0
230
1.0
 70
     8
 71
     3
 72
     9
 73
     5
 74
     0
 42
0.0000000001
 43
0.0000000001
 40
0.0
 40
0.0
 40
0.0
 40
0.0
 40
0.2498748411
 40
1.0
 40
1.0
 40
1.0
 40
1.0
 10
51.54799209049986
 20
62.74626832640013
 30
0.0
 10
51.48725203449988
 20
62.83019098319994
 30
0.0
 10
51.24388887869987
 20
63.1658460881
 30
0.0
 10
50.99940300069988
 20
63.50068739360006
 30
0.0
 10
50.81533797679991
 20
63.75136732370004
 30
0.0
1001
ACAD
1000
RTMaterial
1005
0
  0
SPLINE
  5
5EC66
330
1F
100
AcDbEntity
  8
1
100
AcDbSpline
210
0.0
220
0.0
230
1.0
 70
     8
 71
     3
 72
     8
 73
     4
 74
     0
 42
0.0000000001
 43
0.0000000001
 40
0.0
 40
0.0
 40
0.0
 40
0.0
 40
1.0
 40
1.0
 40
1.0
 40
1.0
 10
51.78711045229988
 20
62.5128343355001
 30
0.0
 10
51.76964549429988
 20
62.52474057510005
 30
0.0
 10
51.75266973609996
 20
62.53739842069999
 30
0.0
 10
51.73627825979986
 20
62.55074393680001
 30
0.0
1001
ACAD
1000
RTMaterial
1005
0
  0
SPLINE
  5
5EC67
330
1F
100
AcDbEntity
  8
1
100
AcDbSpline
210
0.0
220
0.0
230
1.0
 70
     8
 71
     3
 72
     9
 73
     5
 74
     0
 42
0.0000000001
 43
0.0000000001
 40
0.0
 40
0.0
 40
0.0
 40
0.0
 40
0.2496740753
 40
1.0
 40
1.0
 40
1.0
 40
1.0
 10
63.38404129859986
 20
65.5763638648001
 30
0.0
 10
63.34012359089991
 20
65.4826474578
 30
0.0
 10
63.16555768109992
 20
65.10666907120003
 30
0.0
 10
62.99632321389992
 20
64.72821208020002
 30
0.0
 10
62.87256838209986
 20
64.44286248469996
 30
0.0
1001
ACAD
1000
RTMaterial
1005
0
  0
SPLINE
  5
5EC68
330
1F
100
AcDbEntity
  8
1
100
AcDbSpline
210
0.0
220
0.0
230
1.0
 70
     8
 71
     3
 72
     9
 73
     5
 74
     0
 42
0.0000000001
 43
0.0000000001
 40
0.0
 40
0.0
 40
0.0
 40
0.0
 40
0.2567257741
 40
1.0
 40
1.0
 40
1.0
 40
1.0
 10
53.22632737259993
 20
73.85422839759995
 30
0.0
 10
53.20254954019993
 20
73.84963972189996
 30
0.0
 10
53.1103641576999
 20
73.82959716640005
 30
0.0
 10
53.02002245249989
 20
73.80098587160012
 30
0.0
 10
52.95491881049986
 20
73.77496286060011
 30
0.0
1001
ACAD
1000
RTMaterial
1005
0
  0
SPLINE
  5
5EC69
330
1F
100
AcDbEntity
  8
1
100
AcDbSpline
210
0.0
220
0.0
230
1.0
 70
     8
 71
     3
 72
     9
 73
     5
 74
     0
 42
0.0000000001
 43
0.0000000001
 40
0.0
 40
0.0
 40
0.0
 40
0.0
 40
0.501675589
 40
1.0
 40
1.0
 40
1.0
 40
1.0
 10
48.57413047129989
 20
66.80368887860004
 30
0.0
 10
48.53126056899986
 20
66.8620738121001
 30
0.0
 10
48.45407605239985
 20
66.98479263830006
 30
0.0
 10
48.39630752549989
 20
67.11782104380006
 30
0.0
 10
48.37285567699996
 20
67.1858414764
 30
0.0
1001
ACAD
1000
RTMaterial
1005
0
  0
LINE
  5
5EC6A
330
1F
100
AcDbEntity
  8
1
100
AcDbLine
 10
47.64622493369985
 20
68.51207359110003
 30
0.0
 11
47.64245781409989
 21
68.48140993630011
 31
0.0
1001
ACAD
1000
RTMaterial
1005
0
  0
SPLINE
  5
5EC6B
330
1F
100
AcDbEntity
  8
1
100
AcDbSpline
210
0.0
220
0.0
230
1.0
 70
     8
 71
     3
 72
     9
 73
     5
 74
     0
 42
0.0000000001
 43
0.0000000001
 40
0.0
 40
0.0
 40
0.0
 40
0.0
 40
0.2493217228
 40
1.0
 40
1.0
 40
1.0
 40
1.0
 10
47.69825798469993
 20
68.7446651916001
 30
0.0
 10
47.6922699879999
 20
68.72576954330009
 30
0.0
 10
47.66991019649991
 20
68.6494655071001
 30
0.0
 10
47.65418734199989
 20
68.57122098039997
 30
0.0
 10
47.64622477319995
 20
68.51207360610001
 30
0.0
1001
ACAD
1000
RTMaterial
1005
0
  0
SPLINE
  5
5EC6C
330
1F
100
AcDbEntity
  8
1
100
AcDbSpline
210
0.0
220
0.0
230
1.0
 70
     8
 71
     3
 72
     9
 73
     5
 74
     0
 42
0.0000000001
 43
0.0000000001
 40
0.0
 40
0.0
 40
0.0
 40
0.0
 40
0.2491531025
 40
1.0
 40
1.0
 40
1.0
 40
1.0
 10
47.73034088159988
 20
68.83572543600007
 30
0.0
 10
47.72743671679996
 20
68.82825071080003
 30
0.0
 10
47.71601773079988
 20
68.79815859060011
 30
0.0
 10
47.70555659539989
 20
68.7677028741001
 30
0.0
 10
47.69825614919988
 20
68.74466567499997
 30
0.0
1001
ACAD
1000
RTMaterial
1005
0
  0
SPLINE
  5
5EC6D
330
1F
100
AcDbEntity
  8
1
100
AcDbSpline
210
0.0
220
0.0
230
1.0
 70
     8
 71
     3
 72
    11
 73
     7
 74
     0
 42
0.0000000001
 43
0.0000000001
 40
0.0
 40
0.0
 40
0.0
 40
0.0
 40
0.2482991202
 40
0.4971764117000001
 40
0.7476319500000001
 40
1.0
 40
1.0
 40
1.0
 40
1.0
 10
47.64050718129989
 20
68.45096607200014
 30
0.0
 10
47.63630294569986
 20
68.37119094320008
 30
0.0
 10
47.64135545219983
 20
68.21041407050007
 30
0.0
 10
47.68997944429986
 20
67.97364636320003
 30
0.0
 10
47.77954739069992
 20
67.74772564460011
 30
0.0
 10
47.86445032339986
 20
67.60894325790002
 30
0.0
 10
47.91250562349989
 20
67.54349628160003
 30
0.0
1001
ACAD
1000
RTMaterial
1005
0
  0
LINE
  5
5EC6E
330
1F
100
AcDbEntity
  8
1
100
AcDbLine
 10
47.64245781409989
 20
68.48140993630011
 30
0.0
 11
47.64050718129989
 21
68.45096607200014
 31
0.0
1001
ACAD
1000
RTMaterial
1005
0
  0
SPLINE
  5
5EC6F
330
1F
100
AcDbEntity
  8
1
100
AcDbSpline
210
0.0
220
0.0
230
1.0
 70
     8
 71
     3
 72
     9
 73
     5
 74
     0
 42
0.0000000001
 43
0.0000000001
 40
0.0
 40
0.0
 40
0.0
 40
0.0
 40
0.4973933731000001
 40
1.0
 40
1.0
 40
1.0
 40
1.0
 10
60.71710645109988
 20
60.24451158810006
 30
0.0
 10
60.63205807049985
 20
60.20374501649996
 30
0.0
 10
60.4519581502999
 20
60.13956568460014
 30
0.0
 10
60.26241613839989
 20
60.1145585076
 30
0.0
 10
60.1671511735999
 20
60.11188145070002
 30
0.0
1001
ACAD
1000
RTMaterial
1005
0
  0
SPLINE
  5
5EC70
330
1F
100
AcDbEntity
  8
1
100
AcDbSpline
210
0.0
220
0.0
230
1.0
 70
     8
 71
     3
 72
     9
 73
     5
 74
     0
 42
0.0000000001
 43
0.0000000001
 40
0.0
 40
0.0
 40
0.0
 40
0.0
 40
0.2490451083
 40
1.0
 40
1.0
 40
1.0
 40
1.0
 10
60.95844602759985
 20
60.40671017090005
 30
0.0
 10
60.94383643409992
 20
60.39421228230003
 30
0.0
 10
60.88405202189996
 20
60.34535434640009
 30
0.0
 10
60.81989695559991
 20
60.30185500920004
 30
0.0
 10
60.7698746394999
 20
60.27255302510003
 30
0.0
1001
ACAD
1000
RTMaterial
1005
0
  0
SPLINE
  5
5EC71
330
1F
100
AcDbEntity
  8
1
100
AcDbSpline
210
0.0
220
0.0
230
1.0
 70
     8
 71
     3
 72
     9
 73
     5
 74
     0
 42
0.0000000001
 43
0.0000000001
 40
0.0
 40
0.0
 40
0.0
 40
0.0
 40
0.5012706207000001
 40
1.0
 40
1.0
 40
1.0
 40
1.0
 10
61.36426486189987
 20
60.96506778780007
 30
0.0
 10
61.31807793389987
 20
60.85857157330007
 30
0.0
 10
61.20380292399989
 20
60.65490271660007
 30
0.0
 10
61.04620827189989
 20
60.48178453770003
 30
0.0
 10
60.95844717829994
 20
60.40670864050003
 30
0.0
1001
ACAD
1000
RTMaterial
1005
0
  0
SPLINE
  5
5EC72
330
1F
100
AcDbEntity
  8
1
100
AcDbSpline
210
0.0
220
0.0
230
1.0
 70
     8
 71
     3
 72
     9
 73
     5
 74
     0
 42
0.0000000001
 43
0.0000000001
 40
0.0
 40
0.0
 40
0.0
 40
0.0
 40
0.4987360353
 40
1.0
 40
1.0
 40
1.0
 40
1.0
 10
60.96780067919985
 20
74.80377224280005
 30
0.0
 10
61.10100722699996
 20
74.71225982470001
 30
0.0
 10
61.33939949719991
 20
74.48255789450001
 30
0.0
 10
61.48616411109991
 20
74.18556275330002
 30
0.0
 10
61.53271046769987
 20
74.02994338740007
 30
0.0
1001
ACAD
1000
RTMaterial
1005
0
  0
SPLINE
  5
5EC73
330
1F
100
AcDbEntity
  8
1
100
AcDbSpline
210
0.0
220
0.0
230
1.0
 70
     8
 71
     3
 72
     9
 73
     5
 74
     0
 42
0.0000000001
 43
0.0000000001
 40
0.0
 40
0.0
 40
0.0
 40
0.0
 40
0.2492241108
 40
1.0
 40
1.0
 40
1.0
 40
1.0
 10
60.69643344129985
 20
74.93921559090006
 30
0.0
 10
60.71527568589988
 20
74.93229313150004
 30
0.0
 10
60.79027415009988
 20
74.90289523860008
 30
0.0
 10
60.86275393749986
 20
74.86708437690004
 30
0.0
 10
60.91516481739986
 20
74.8369210692
 30
0.0
1001
ACAD
1000
RTMaterial
1005
0
  0
SPLINE
  5
5EC74
330
1F
100
AcDbEntity
  8
1
100
AcDbSpline
210
0.0
220
0.0
230
1.0
 70
     8
 71
     3
 72
     9
 73
     5
 74
     0
 42
0.0000000001
 43
0.0000000001
 40
0.0
 40
0.0
 40
0.0
 40
0.0
 40
0.4950561726
 40
1.0
 40
1.0
 40
1.0
 40
1.0
 10
59.99789239619985
 20
75.02197254040004
 30
0.0
 10
60.11401482429993
 20
75.0351494404
 30
0.0
 10
60.35236368609992
 20
75.03532810579997
 30
0.0
 10
60.58454456879985
 20
74.98032453630014
 30
0.0
 10
60.69643414749986
 20
74.93921737950007
 30
0.0
1001
ACAD
1000
RTMaterial
1005
0
  0
SPLINE
  5
5EC75
330
1F
100
AcDbEntity
  8
1
100
AcDbSpline
210
0.0
220
0.0
230
1.0
 70
     8
 71
     3
 72
     9
 73
     5
 74
     0
 42
0.0000000001
 43
0.0000000001
 40
0.0
 40
0.0
 40
0.0
 40
0.0
 40
0.7496191467000001
 40
1.0
 40
1.0
 40
1.0
 40
1.0
 10
63.46355001009988
 20
65.83503699110008
 30
0.0
 10
63.45165067369986
 20
65.76838244270004
 30
0.0
 10
63.42725769289994
 20
65.68071109690004
 30
0.0
 10
63.39316787779988
 20
65.59705585270001
 30
0.0
 10
63.38404129859986
 20
65.5763638648001
 30
0.0
1001
ACAD
1000
RTMaterial
1005
0
  0
SPLINE
  5
5EC76
330
1F
100
AcDbEntity
  8
1
100
AcDbSpline
210
0.0
220
0.0
230
1.0
 70
     8
 71
     3
 72
     8
 73
     4
 74
     0
 42
0.0000000001
 43
0.0000000001
 40
0.0
 40
0.0
 40
0.0
 40
0.0
 40
1.0
 40
1.0
 40
1.0
 40
1.0
 10
63.47199999999986
 20
65.8911312212
 30
0.0
 10
63.4696974486999
 20
65.87236289890006
 30
0.0
 10
63.46687315899988
 20
65.85365172569993
 30
0.0
 10
63.46355001009988
 20
65.83503699110008
 30
0.0
1001
ACAD
1000
RTMaterial
1005
0
  0
LINE
  5
5EC77
330
1F
100
AcDbEntity
  8
1
100
AcDbLine
 10
63.47384042659996
 20
65.9228371762
 30
0.0
 11
63.47199999999986
 21
65.8911312212
 31
0.0
1001
ACAD
1000
RTMaterial
1005
0
  0
SPLINE
  5
5EC78
330
1F
100
AcDbEntity
  8
1
100
AcDbSpline
210
0.0
220
0.0
230
1.0
 70
     8
 71
     3
 72
     9
 73
     5
 74
     0
 42
0.0000000001
 43
0.0000000001
 40
0.0
 40
0.0
 40
0.0
 40
0.0
 40
0.2434504122
 40
1.0
 40
1.0
 40
1.0
 40
1.0
 10
63.50058650459994
 20
67.22989808980003
 30
0.0
 10
63.50229583499992
 20
67.12380838740012
 30
0.0
 10
63.50547568549984
 20
66.68797942540004
 30
0.0
 10
63.49255661029985
 20
66.25203407410004
 30
0.0
 10
63.47384150749984
 20
65.92283713400002
 30
0.0
1001
ACAD
1000
RTMaterial
1005
0
  0
LINE
  5
5EC79
330
1F
100
AcDbEntity
  8
1
100
AcDbLine
 10
63.49999999999988
 20
67.2630850058
 30
0.0
 11
63.5005854179999
 21
67.22989805840007
 31
0.0
1001
ACAD
1000
RTMaterial
1005
0
  0
SPLINE
  5
5EC7A
330
1F
100
AcDbEntity
  8
1
100
AcDbSpline
210
0.0
220
0.0
230
1.0
 70
     8
 71
     3
 72
     9
 73
     5
 74
     0
 42
0.0000000001
 43
0.0000000001
 40
0.0
 40
0.0
 40
0.0
 40
0.0
 40
0.2584941647
 40
1.0
 40
1.0
 40
1.0
 40
1.0
 10
63.43637431879983
 20
67.66538756040006
 30
0.0
 10
63.44644869079989
 20
67.63170570890008
 30
0.0
 10
63.48104092609992
 20
67.50014058320005
 30
0.0
 10
63.49806803979993
 20
67.36391421700012
 30
0.0
 10
63.50000046879983
 20
67.26308502020003
 30
0.0
1001
ACAD
1000
RTMaterial
1005
0
  0
SPLINE
  5
5EC7B
330
1F
100
AcDbEntity
  8
1
100
AcDbSpline
210
0.0
220
0.0
230
1.0
 70
     8
 71
     3
 72
     9
 73
     5
 74
     0
 42
0.0000000001
 43
0.0000000001
 40
0.0
 40
0.0
 40
0.0
 40
0.0
 40
0.2428290723
 40
1.0
 40
1.0
 40
1.0
 40
1.0
 10
52.92457528839985
 20
73.76279102020008
 30
0.0
 10
52.87865194439985
 20
73.74430218270004
 30
0.0
 10
52.68984655489987
 20
73.66738846830003
 30
0.0
 10
52.50245100099994
 20
73.58701615500002
 30
0.0
 10
52.36139396059991
 20
73.52431693390008
 30
0.0
1001
ACAD
1000
RTMaterial
1005
0
  0
LINE
  5
5EC7C
330
1F
100
AcDbEntity
  8
1
100
AcDbLine
 10
52.9549189815999
 20
73.77496242130006
 30
0.0
 11
52.92457568789996
 21
73.76278999990006
 31
0.0
1001
ACAD
1000
RTMaterial
1005
0
  0
SPLINE
  5
5EC7D
330
1F
100
AcDbEntity
  8
1
100
AcDbSpline
210
0.0
220
0.0
230
1.0
 70
     8
 71
     3
 72
     9
 73
     5
 74
     0
 42
0.0000000001
 43
0.0000000001
 40
0.0
 40
0.0
 40
0.0
 40
0.0
 40
0.2504623937
 40
1.0
 40
1.0
 40
1.0
 40
1.0
 10
54.77121399869986
 20
74.40494845490014
 30
0.0
 10
54.79190550989983
 20
74.41285259640006
 30
0.0
 10
54.87552444309983
 20
74.44173432119997
 30
0.0
 10
54.96270392689986
 20
74.46012403049997
 30
0.0
 10
55.0285085395999
 20
74.46809701450011
 30
0.0
1001
ACAD
1000
RTMaterial
1005
0
  0
SPLINE
  5
5EC7E
330
1F
100
AcDbEntity
  8
1
100
AcDbSpline
210
0.0
220
0.0
230
1.0
 70
     8
 71
     3
 72
     9
 73
     5
 74
     0
 42
0.0000000001
 43
0.0000000001
 40
0.0
 40
0.0
 40
0.0
 40
0.0
 40
0.2578430942
 40
1.0
 40
1.0
 40
1.0
 40
1.0
 10
51.83845683899982
 20
62.19670468780009
 30
0.0
 10
51.85924828549993
 20
62.16838861730002
 30
0.0
 10
51.94353830459988
 20
62.0613026008001
 30
0.0
 10
52.04208941629985
 20
61.96542127740007
 30
0.0
 10
52.12142139669992
 20
61.90272726010005
 30
0.0
1001
ACAD
1000
RTMaterial
1005
0
  0
SPLINE
  5
5EC7F
330
1F
100
AcDbEntity
  8
1
100
AcDbSpline
210
0.0
220
0.0
230
1.0
 70
     8
 71
     3
 72
    10
 73
     6
 74
     0
 42
0.0000000001
 43
0.0000000001
 40
0.0
 40
0.0
 40
0.0
 40
0.0
 40
0.2422545819
 40
0.6222901301000002
 40
1.0
 40
1.0
 40
1.0
 40
1.0
 10
52.14764154529984
 20
61.88206216590003
 30
0.0
 10
52.22082948979994
 20
61.8245405527001
 30
0.0
 10
52.40994228419992
 20
61.67818994140009
 30
0.0
 10
52.71863836549993
 20
61.4493105706
 30
0.0
 10
52.95651205889988
 20
61.28134534520008
 30
0.0
 10
53.07610629099986
 20
61.19911547289996
 30
0.0
1001
ACAD
1000
RTMaterial
1005
0
  0
LINE
  5
5EC80
330
1F
100
AcDbEntity
  8
1
100
AcDbLine
 10
52.12142168909985
 20
61.90272762899997
 30
0.0
 11
52.1476422231999
 21
61.88206302460014
 31
0.0
1001
ACAD
1000
RTMaterial
1005
0
  0
SPLINE
  5
5EC81
330
1F
100
AcDbEntity
  8
1
100
AcDbSpline
210
0.0
220
0.0
230
1.0
 70
     8
 71
     3
 72
     9
 73
     5
 74
     0
 42
0.0000000001
 43
0.0000000001
 40
0.0
 40
0.0
 40
0.0
 40
0.0
 40
0.2503103162
 40
1.0
 40
1.0
 40
1.0
 40
1.0
 10
51.73627813189989
 20
62.55074377970004
 30
0.0
 10
51.71869120999986
 20
62.56506259620003
 30
0.0
 10
51.65024611089997
 20
62.6244728839
 30
0.0
 10
51.58909065039996
 20
62.69218900580007
 30
0.0
 10
51.54799209049986
 20
62.74626832640013
 30
0.0
1001
ACAD
1000
RTMaterial
1005
0
  0
SPLINE
  5
5EC82
330
1F
100
AcDbEntity
  8
1
100
AcDbSpline
210
0.0
220
0.0
230
1.0
 70
     8
 71
     3
 72
     8
 73
     4
 74
     0
 42
0.0000000001
 43
0.0000000001
 40
0.0
 40
0.0
 40
0.0
 40
0.0
 40
1.0
 40
1.0
 40
1.0
 40
1.0
 10
60.91516606919992
 20
74.83692315310006
 30
0.0
 10
60.93313719389993
 20
74.82658047420009
 30
0.0
 10
60.95071064329989
 20
74.81551372620002
 30
0.0
 10
60.96780117589992
 20
74.80377294140009
 30
0.0
1001
ACAD
1000
RTMaterial
1005
0
  0
SPLINE
  5
5EC83
330
1F
100
AcDbEntity
  8
1
100
AcDbSpline
210
0.0
220
0.0
230
1.0
 70
     8
 71
     3
 72
     8
 73
     4
 74
     0
 42
0.0000000001
 43
0.0000000001
 40
0.0
 40
0.0
 40
0.0
 40
0.0
 40
1.0
 40
1.0
 40
1.0
 40
1.0
 10
60.76987577529985
 20
60.27255087400011
 30
0.0
 10
60.75268869009994
 20
60.26248306000002
 30
0.0
 10
60.7350685516999
 20
60.25312079940011
 30
0.0
 10
60.71710679509988
 20
60.24451080079995
 30
0.0
1001
ACAD
1000
RTMaterial
1005
0
  0
SPLINE
  5
5EC84
330
1F
100
AcDbEntity
  8
1
100
AcDbSpline
210
0.0
220
0.0
230
1.0
 70
     8
 71
     3
 72
    11
 73
     7
 74
     0
 42
0.0000000001
 43
0.0000000001
 40
0.0
 40
0.0
 40
0.0
 40
0.0
 40
0.2476310057
 40
0.4970906347
 40
0.7482928707
 40
1.0
 40
1.0
 40
1.0
 40
1.0
 10
48.30283568389996
 20
67.74244524030007
 30
0.0
 10
48.3116296400999
 20
67.8222186764001
 30
0.0
 10
48.34276209549988
 20
67.98116554750004
 30
0.0
 10
48.42783437189986
 20
68.20938220120003
 30
0.0
 10
48.54928781659985
 20
68.42198194980006
 30
0.0
 10
48.65164705949997
 20
68.54980378929997
 30
0.0
 10
48.70739137299995
 20
68.60936468030003
 30
0.0
1001
ACAD
1000
RTMaterial
1005
0
  0
LINE
  5
5EC85
330
1F
100
AcDbEntity
  8
1
100
AcDbLine
 10
48.29980660209994
 20
67.71206601460005
 30
0.0
 11
48.30283568389996
 21
67.74244524030007
 31
0.0
1001
ACAD
1000
RTMaterial
1005
0
  0
LINE
  5
5EC86
330
1F
100
AcDbEntity
  8
1
100
AcDbLine
 10
48.29850311459995
 20
67.68125469810013
 30
0.0
 11
48.29980660209994
 21
67.71206601460005
 31
0.0
1001
ACAD
1000
RTMaterial
1005
0
  0
SPLINE
  5
5EC87
330
1F
100
AcDbEntity
  8
1
100
AcDbSpline
210
0.0
220
0.0
230
1.0
 70
     8
 71
     3
 72
     9
 73
     5
 74
     0
 42
0.0000000001
 43
0.0000000001
 40
0.0
 40
0.0
 40
0.0
 40
0.0
 40
0.2484673022
 40
1.0
 40
1.0
 40
1.0
 40
1.0
 10
48.31086564909992
 20
67.44480344550004
 30
0.0
 10
48.30817961619993
 20
67.46424209660005
 30
0.0
 10
48.29905462219983
 20
67.54270116910004
 30
0.0
 10
48.29662982009984
 20
67.6219300166
 30
0.0
 10
48.29850295049992
 20
67.68125470260009
 30
0.0
1001
ACAD
1000
RTMaterial
1005
0
  0
SPLINE
  5
5EC88
330
1F
100
AcDbEntity
  8
1
100
AcDbSpline
210
0.0
220
0.0
230
1.0
 70
     8
 71
     3
 72
     9
 73
     5
 74
     0
 42
0.0000000001
 43
0.0000000001
 40
0.0
 40
0.0
 40
0.0
 40
0.0
 40
0.2304774491
 40
1.0
 40
1.0
 40
1.0
 40
1.0
 10
48.19711073079986
 20
67.9507235942001
 30
0.0
 10
48.19497854209989
 20
67.95567864249995
 30
0.0
 10
48.18470989369984
 20
67.97674172740006
 30
0.0
 10
48.17082357139987
 20
67.99589739650002
 30
0.0
 10
48.15912382729994
 20
68.00959047280014
 30
0.0
1001
ACAD
1000
RTMaterial
1005
0
  0
SPLINE
  5
5EC89
330
1F
100
AcDbEntity
  8
1
100
AcDbSpline
210
0.0
220
0.0
230
1.0
 70
     8
 71
     3
 72
     9
 73
     5
 74
     0
 42
0.0000000001
 43
0.0000000001
 40
0.0
 40
0.0
 40
0.0
 40
0.0
 40
0.2714774794
 40
1.0
 40
1.0
 40
1.0
 40
1.0
 10
47.95852006529992
 20
68.22996390260005
 30
0.0
 10
47.96475475959993
 20
68.22500383810006
 30
0.0
 10
47.98737015879988
 20
68.20631217910011
 30
0.0
 10
48.00856869039989
 20
68.1857962885
 30
0.0
 10
48.02245709429996
 20
68.1695416619001
 30
0.0
1001
ACAD
1000
RTMaterial
1005
0
  0
SPLINE
  5
5EC8A
330
1F
100
AcDbEntity
  8
1
100
AcDbSpline
210
0.0
220
0.0
230
1.0
 70
     8
 71
     3
 72
     9
 73
     5
 74
     0
 42
0.0000000001
 43
0.0000000001
 40
0.0
 40
0.0
 40
0.0
 40
0.0
 40
0.248159661
 40
1.0
 40
1.0
 40
1.0
 40
1.0
 10
60.1671511735999
 20
60.11188145070002
 30
0.0
 10
60.13563663859986
 20
60.11099585540001
 30
0.0
 10
60.00854980659994
 20
60.11170126490004
 30
0.0
 10
59.88163570579989
 20
60.12939623350007
 30
0.0
 10
59.78869359489988
 20
60.1514211379
 30
0.0
1001
ACAD
1000
RTMaterial
1005
0
  0
SPLINE
  5
5EC8B
330
1F
100
AcDbEntity
  8
1
100
AcDbSpline
210
0.0
220
0.0
230
1.0
 70
     8
 71
     3
 72
     9
 73
     5
 74
     0
 42
0.0000000001
 43
0.0000000001
 40
0.0
 40
0.0
 40
0.0
 40
0.0
 40
0.2485144324
 40
1.0
 40
1.0
 40
1.0
 40
1.0
 10
48.37285567699996
 20
67.1858414764
 30
0.0
 10
48.36565956029994
 20
67.2067133055001
 30
0.0
 10
48.33869749409996
 20
67.29137356479998
 30
0.0
 10
48.32000185679987
 20
67.37867106560009
 30
0.0
 10
48.31086372089989
 20
67.44480318770013
 30
0.0
1001
ACAD
1000
RTMaterial
1005
0
  0
SPLINE
  5
5EC8C
330
1F
100
AcDbEntity
  8
1
100
AcDbSpline
210
0.0
220
0.0
230
1.0
 70
     8
 71
     3
 72
     9
 73
     5
 74
     0
 42
0.0000000001
 43
0.0000000001
 40
0.0
 40
0.0
 40
0.0
 40
0.0
 40
0.2594039192
 40
1.0
 40
1.0
 40
1.0
 40
1.0
 10
53.23723186859989
 20
73.44934493929996
 30
0.0
 10
53.26118534869988
 20
73.4749384122
 30
0.0
 10
53.35664349539989
 20
73.57062869960009
 30
0.0
 10
53.46415774129989
 20
73.65435106580003
 30
0.0
 10
53.54884130669985
 20
73.70768563280002
 30
0.0
1001
ACAD
1000
RTMaterial
1005
0
  0
SPLINE
  5
5EC8D
330
1F
100
AcDbEntity
  8
1
100
AcDbSpline
210
0.0
220
0.0
230
1.0
 70
     8
 71
     3
 72
     9
 73
     5
 74
     0
 42
0.0000000001
 43
0.0000000001
 40
0.0
 40
0.0
 40
0.0
 40
0.0
 40
0.2436363991
 40
1.0
 40
1.0
 40
1.0
 40
1.0
 10
53.57656657529992
 20
73.72511739449999
 30
0.0
 10
53.66517849749993
 20
73.78073043310006
 30
0.0
 10
54.03090718399982
 20
74.0057533186
 30
0.0
 10
54.40503022939992
 20
74.2171333340001
 30
0.0
 10
54.69209441639987
 20
74.36904942370006
 30
0.0
1001
ACAD
1000
RTMaterial
1005
0
  0
LINE
  5
5EC8E
330
1F
100
AcDbEntity
  8
1
100
AcDbLine
 10
53.5488415717999
 20
73.70768520249999
 30
0.0
 11
53.57656714839992
 21
73.72511646079998
 31
0.0
1001
ACAD
1000
RTMaterial
1005
0
  0
SPLINE
  5
5EC8F
330
1F
100
AcDbEntity
  8
1
100
AcDbSpline
210
0.0
220
0.0
230
1.0
 70
     8
 71
     3
 72
     9
 73
     5
 74
     0
 42
0.0000000001
 43
0.0000000001
 40
0.0
 40
0.0
 40
0.0
 40
0.0
 40
0.2435088423
 40
1.0
 40
1.0
 40
1.0
 40
1.0
 10
52.94436609569991
 20
61.83571372130007
 30
0.0
 10
52.85026151059992
 20
61.88617244990007
 30
0.0
 10
52.46562405419989
 20
62.09675503430003
 30
0.0
 10
52.08868685929985
 20
62.32140115200003
 30
0.0
 10
51.80840824269989
 20
62.49883775340004
 30
0.0
1001
ACAD
1000
RTMaterial
1005
0
  0
LINE
  5
5EC90
330
1F
100
AcDbEntity
  8
1
100
AcDbLine
 10
52.97380762729996
 20
61.81995899740003
 30
0.0
 11
52.94436661429995
 21
61.83571468649994
 31
0.0
1001
ACAD
1000
RTMaterial
1005
0
  0
SPLINE
  5
5EC91
330
1F
100
AcDbEntity
  8
1
100
AcDbSpline
210
0.0
220
0.0
230
1.0
 70
     8
 71
     3
 72
     9
 73
     5
 74
     0
 42
0.0000000001
 43
0.0000000001
 40
0.0
 40
0.0
 40
0.0
 40
0.0
 40
0.2574460055999999
 40
1.0
 40
1.0
 40
1.0
 40
1.0
 10
53.35518922359995
 20
61.67599672940003
 30
0.0
 10
53.32109568349995
 20
61.68407602740001
 30
0.0
 10
53.18972424519995
 20
61.7197730606
 30
0.0
 10
53.06294843289993
 20
61.77234609189998
 30
0.0
 10
52.97380740499988
 20
61.81995858170001
 30
0.0
1001
ACAD
1000
RTMaterial
1005
0
  0
SPLINE
  5
5EC92
330
1F
100
AcDbEntity
  8
1
100
AcDbSpline
210
0.0
220
0.0
230
1.0
 70
     8
 71
     3
 72
     8
 73
     4
 74
     0
 42
0.0000000001
 43
0.0000000001
 40
0.0
 40
0.0
 40
0.0
 40
0.0
 40
1.0
 40
1.0
 40
1.0
 40
1.0
 10
51.80840893849985
 20
62.4988388526
 30
0.0
 10
51.8012312768999
 20
62.50338283060012
 30
0.0
 10
51.79412964369987
 20
62.50804920090001
 30
0.0
 10
51.78711045229988
 20
62.5128343355001
 30
0.0
1001
ACAD
1000
RTMaterial
1005
0
  0
SPLINE
  5
5EC93
330
1F
100
AcDbEntity
  8
1
100
AcDbSpline
210
0.0
220
0.0
230
1.0
 70
     8
 71
     3
 72
    10
 73
     6
 74
     0
 42
0.0000000001
 43
0.0000000001
 40
0.0
 40
0.0
 40
0.0
 40
0.0
 40
0.2215897432
 40
0.4627183576
 40
1.0
 40
1.0
 40
1.0
 40
1.0
 10
60.32126649589987
 20
58.16154416079996
 30
0.0
 10
60.45618615469994
 20
58.08389236660002
 30
0.0
 10
60.74069645349993
 20
57.92654096100012
 30
0.0
 10
61.36414803359992
 20
57.60265230469997
 30
0.0
 10
61.85747369449996
 20
57.36633753140006
 30
0.0
 10
62.19999999999993
 20
57.20777328210011
 30
0.0
1001
ACAD
1000
RTMaterial
1005
0
  0
SPLINE
  5
5EC94
330
1F
100
AcDbEntity
  8
1
100
AcDbSpline
210
0.0
220
0.0
230
1.0
 70
     8
 71
     3
 72
    18
 73
    14
 74
     0
 42
0.0000000001
 43
0.0000000001
 40
0.0
 40
0.0
 40
0.0
 40
0.0
 40
0.2198716371
 40
0.4111564075
 40
0.5740586686000002
 40
0.7091017949
 40
0.8170581013999999
 40
0.8612504814000001
 40
0.8991941069999999
 40
0.9312389486
 40
0.9579560382
 40
0.9803255527999999
 40
1.0
 40
1.0
 40
1.0
 40
1.0
 10
51.89598030619993
 20
73.68961661550009
 30
0.0
 10
51.83470738979986
 20
73.69865934770006
 30
0.0
 10
51.72036766049984
 20
73.71728832330006
 30
0.0
 10
51.56178346519993
 20
73.74911857390009
 30
0.0
 10
51.42792337829986
 20
73.78215437780011
 30
0.0
 10
51.31858223649988
 20
73.81579130219996
 30
0.0
 10
51.24315878609991
 20
73.84548931100005
 30
0.0
 10
51.19542967759993
 20
73.86986181040005
 30
0.0
 10
51.1680396477999
 20
73.88681288320005
 30
0.0
 10
51.14653584159985
 20
73.90365796350001
 30
0.0
 10
51.13086378519994
 20
73.92047043270008
 30
0.0
 10
51.12103540629981
 20
73.93742207440005
 30
0.0
 10
51.11863271409993
 20
73.94932496210015
 30
0.0
 10
51.11862622339993
 20
73.95486713820003
 30
0.0
1001
ACAD
1000
RTMaterial
1005
0
  0
SPLINE
  5
5EC95
330
1F
100
AcDbEntity
  8
1
100
AcDbSpline
210
0.0
220
0.0
230
1.0
 70
     8
 71
     3
 72
     9
 73
     5
 74
     0
 42
0.0000000001
 43
0.0000000001
 40
0.0
 40
0.0
 40
0.0
 40
0.0
 40
0.231073426
 40
1.0
 40
1.0
 40
1.0
 40
1.0
 10
52.28004801919984
 20
73.02980987640001
 30
0.0
 10
52.28121641869986
 20
73.03257513370009
 30
0.0
 10
52.2869563687999
 20
73.04425557880006
 30
0.0
 10
52.29508739149991
 20
73.05463815340011
 30
0.0
 10
52.30193889249996
 20
73.06190765640008
 30
0.0
1001
ACAD
1000
RTMaterial
1005
0
  0
SPLINE
  5
5EC96
330
1F
100
AcDbEntity
  8
1
100
AcDbSpline
210
0.0
220
0.0
230
1.0
 70
     8
 71
     3
 72
    10
 73
     6
 74
     0
 42
0.0000000001
 43
0.0000000001
 40
0.0
 40
0.0
 40
0.0
 40
0.0
 40
0.5400172104
 40
0.7809097639
 40
1.0
 40
1.0
 40
1.0
 40
1.0
 10
28.36742028749995
 20
60.89016452630005
 30
0.0
 10
28.28442215179996
 20
60.87098278790007
 30
0.0
 10
28.16293547689986
 20
60.84843122690006
 30
0.0
 10
28.00559602339991
 20
60.83568533990012
 30
0.0
 10
27.93289803319988
 20
60.83585942120009
 30
0.0
 10
27.89839787409994
 20
60.83790467050005
 30
0.0
1001
ACAD
1000
RTMaterial
1005
0
  0
SPLINE
  5
5EC97
330
1F
100
AcDbEntity
  8
1
100
AcDbSpline
210
0.0
220
0.0
230
1.0
 70
     8
 71
     3
 72
     9
 73
     5
 74
     0
 42
0.0000000001
 43
0.0000000001
 40
0.0
 40
0.0
 40
0.0
 40
0.0
 40
0.2072723488
 40
1.0
 40
1.0
 40
1.0
 40
1.0
 10
52.21302782649991
 20
61.34510395440009
 30
0.0
 10
52.21323938629985
 20
61.3443260378001
 30
0.0
 10
52.21467037849992
 20
61.34068266180008
 30
0.0
 10
52.21730374779986
 20
61.33765515030006
 30
0.0
 10
52.21950424979991
 20
61.33549545829999
 30
0.0
1001
ACAD
1000
RTMaterial
1005
0
  0
SPLINE
  5
5EC98
330
1F
100
AcDbEntity
  8
1
100
AcDbSpline
210
0.0
220
0.0
230
1.0
 70
     8
 71
     3
 72
    15
 73
    11
 74
     0
 42
0.0000000001
 43
0.0000000001
 40
0.0
 40
0.0
 40
0.0
 40
0.0
 40
0.019312257
 40
0.0442543301
 40
0.1116702194
 40
0.2028329454
 40
0.3176723101
 40
0.4558129704000001
 40
0.6165424753000001
 40
1.0
 40
1.0
 40
1.0
 40
1.0
 10
52.21950424979991
 20
61.33549545829999
 30
0.0
 10
52.22225319429991
 20
61.33279749500002
 30
0.0
 10
52.22924820999992
 20
61.32733813020003
 30
0.0
 10
52.24828888269996
 20
61.31574826069993
 30
0.0
 10
52.28176037759988
 20
61.3006511704001
 30
0.0
 10
52.33329854489989
 20
61.28272611580007
 30
0.0
 10
52.39974593759985
 20
61.26524151390015
 30
0.0
 10
52.48095040329985
 20
61.25016238210003
 30
0.0
 10
52.61635209649988
 20
61.23562994300005
 30
0.0
 10
52.72562949069993
 20
61.23821693410002
 30
0.0
 10
52.80164678949994
 20
61.24660156880008
 30
0.0
1001
ACAD
1000
RTMaterial
1005
0
  0
SPLINE
  5
5EC99
330
1F
100
AcDbEntity
  8
1
100
AcDbSpline
210
0.0
220
0.0
230
1.0
 70
     8
 71
     3
 72
     9
 73
     5
 74
     0
 42
0.0000000001
 43
0.0000000001
 40
0.0
 40
0.0
 40
0.0
 40
0.0
 40
0.2664715269
 40
1.0
 40
1.0
 40
1.0
 40
1.0
 10
59.5988580671999
 20
59.80771315130005
 30
0.0
 10
59.59613408349992
 20
59.79810392220008
 30
0.0
 10
59.58610487849989
 20
59.7619890407001
 30
0.0
 10
59.57675402829988
 20
59.72568121830011
 30
0.0
 10
59.57047739379993
 20
59.69891320650003
 30
0.0
1001
ACAD
1000
RTMaterial
1005
0
  0
SPLINE
  5
5EC9A
330
1F
100
AcDbEntity
  8
1
100
AcDbSpline
210
0.0
220
0.0
230
1.0
 70
     8
 71
     3
 72
     8
 73
     4
 74
     0
 42
0.0000000001
 43
0.0000000001
 40
0.0
 40
0.0
 40
0.0
 40
0.0
 40
1.0
 40
1.0
 40
1.0
 40
1.0
 10
59.64283082089989
 20
59.95991846720006
 30
0.0
 10
59.62791884689988
 20
59.90925754810007
 30
0.0
 10
59.61326090779994
 20
59.85852116130002
 30
0.0
 10
59.5988580671999
 20
59.80771315130005
 30
0.0
1001
ACAD
1000
RTMaterial
1005
0
  0
SPLINE
  5
5EC9B
330
1F
100
AcDbEntity
  8
1
100
AcDbSpline
210
0.0
220
0.0
230
1.0
 70
     8
 71
     3
 72
     9
 73
     5
 74
     0
 42
0.0000000001
 43
0.0000000001
 40
0.0
 40
0.0
 40
0.0
 40
0.0
 40
0.4616234006
 40
1.0
 40
1.0
 40
1.0
 40
1.0
 10
59.87624608369992
 20
58.45219449350008
 30
0.0
 10
59.94147489589988
 20
58.40278695860003
 30
0.0
 10
60.08701822219983
 20
58.30131785190008
 30
0.0
 10
60.23855354279986
 20
58.20914885569994
 30
0.0
 10
60.32126649589987
 20
58.16154416079996
 30
0.0
1001
ACAD
1000
RTMaterial
1005
0
  0
SPLINE
  5
5EC9C
330
1F
100
AcDbEntity
  8
1
100
AcDbSpline
210
0.0
220
0.0
230
1.0
 70
     8
 71
     3
 72
    13
 73
     9
 74
     0
 42
0.0000000001
 43
0.0000000001
 40
0.0
 40
0.0
 40
0.0
 40
0.0
 40
0.3397103277
 40
0.6220883789000001
 40
0.7404338664
 40
0.8429978921
 40
0.9295258677999999
 40
1.0
 40
1.0
 40
1.0
 40
1.0
 10
59.81649302059986
 20
59.64101295400007
 30
0.0
 10
59.78717525939988
 20
59.51293089040007
 30
0.0
 10
59.73798583409996
 20
59.27732301440006
 30
0.0
 10
59.69202391279986
 20
58.99449856670014
 30
0.0
 10
59.66980232499984
 20
58.80107547710007
 30
0.0
 10
59.66065260509992
 20
58.68247446700014
 30
0.0
 10
59.65787410769997
 20
58.58207982350005
 30
0.0
 10
59.66041287239988
 20
58.52130195400002
 30
0.0
 10
59.66323617739988
 20
58.49419027400006
 30
0.0
1001
ACAD
1000
RTMaterial
1005
0
  0
LINE
  5
5EC9D
330
1F
100
AcDbEntity
  8
1
100
AcDbLine
 10
51.23622627919985
 20
62.02999812150006
 30
0.0
 11
51.23490420279996
 21
62.0330788036
 31
0.0
1001
ACAD
1000
RTMaterial
1005
0
  0
SPLINE
  5
5EC9E
330
1F
100
AcDbEntity
  8
1
100
AcDbSpline
210
0.0
220
0.0
230
1.0
 70
     8
 71
     3
 72
    10
 73
     6
 74
     0
 42
0.0000000001
 43
0.0000000001
 40
0.0
 40
0.0
 40
0.0
 40
0.0
 40
0.2127214915
 40
0.4547763629000002
 40
1.0
 40
1.0
 40
1.0
 40
1.0
 10
53.03015135229987
 20
61.18863928030009
 30
0.0
 10
53.0518390888999
 20
61.19294611020007
 30
0.0
 10
53.09783330909988
 20
61.20409075630004
 30
0.0
 10
53.19700313179986
 20
61.23537285920008
 30
0.0
 10
53.27229223249992
 20
61.26849414410003
 30
0.0
 10
53.32228891479985
 20
61.29518050990009
 30
0.0
1001
ACAD
1000
RTMaterial
1005
0
  0
SPLINE
  5
5EC9F
330
1F
100
AcDbEntity
  8
1
100
AcDbSpline
210
0.0
220
0.0
230
1.0
 70
     8
 71
     3
 72
    11
 73
     7
 74
     0
 42
0.0000000001
 43
0.0000000001
 40
0.0
 40
0.0
 40
0.0
 40
0.0
 40
0.2627607764
 40
0.5100273532
 40
0.7518096393000003
 40
1.0
 40
1.0
 40
1.0
 40
1.0
 10
51.39178213109993
 20
62.0284050757
 30
0.0
 10
51.37187282069986
 20
62.05552175780007
 30
0.0
 10
51.33627511769986
 20
62.11057687560003
 30
0.0
 10
51.2982305372999
 20
62.19962672190002
 30
0.0
 10
51.27987416269991
 20
62.2929624912
 30
0.0
 10
51.28174770679994
 20
62.35624853680008
 30
0.0
 10
51.28590031909993
 20
62.38775128040003
 30
0.0
1001
ACAD
1000
RTMaterial
1005
0
  0
SPLINE
  5
5ECA0
330
1F
100
AcDbEntity
  8
1
100
AcDbSpline
210
0.0
220
0.0
230
1.0
 70
     8
 71
     3
 72
     9
 73
     5
 74
     0
 42
0.0000000001
 43
0.0000000001
 40
0.0
 40
0.0
 40
0.0
 40
0.0
 40
0.247276429
 40
1.0
 40
1.0
 40
1.0
 40
1.0
 10
51.28590031909993
 20
62.38775128040003
 30
0.0
 10
51.28631105959993
 20
62.39086725920003
 30
0.0
 10
51.28809696059988
 20
62.40345175410005
 30
0.0
 10
51.29037850069995
 20
62.41596534520009
 30
0.0
 10
51.29235655799994
 20
62.4253258973
 30
0.0
1001
ACAD
1000
RTMaterial
1005
0
  0
SPLINE
  5
5ECA1
330
1F
100
AcDbEntity
  8
1
100
AcDbSpline
210
0.0
220
0.0
230
1.0
 70
     8
 71
     3
 72
     9
 73
     5
 74
     0
 42
0.0000000001
 43
0.0000000001
 40
0.0
 40
0.0
 40
0.0
 40
0.0
 40
0.2405497241
 40
1.0
 40
1.0
 40
1.0
 40
1.0
 10
51.29235655799994
 20
62.4253258973
 30
0.0
 10
51.29429636899988
 20
62.43450546070004
 30
0.0
 10
51.30340329839987
 20
62.47244373420006
 30
0.0
 10
51.31654540409988
 20
62.50936875340006
 30
0.0
 10
51.32824615279992
 20
62.53658105950001
 30
0.0
1001
ACAD
1000
RTMaterial
1005
0
  0
SPLINE
  5
5ECA2
330
1F
100
AcDbEntity
  8
1
100
AcDbSpline
210
0.0
220
0.0
230
1.0
 70
     8
 71
     3
 72
    10
 73
     6
 74
     0
 42
0.0000000001
 43
0.0000000001
 40
0.0
 40
0.0
 40
0.0
 40
0.0
 40
0.5396924183000003
 40
0.7865439297
 40
1.0
 40
1.0
 40
1.0
 40
1.0
 10
51.3286350817999
 20
61.86445696140014
 30
0.0
 10
51.30089685809991
 20
61.95894171609996
 30
0.0
 10
51.27510599959986
 20
62.10171018240011
 30
0.0
 10
51.27280905969985
 20
62.28437124270008
 30
0.0
 10
51.28059005839986
 20
62.36821279609999
 30
0.0
 10
51.28659229129983
 20
62.40669467920008
 30
0.0
1001
ACAD
1000
RTMaterial
1005
0
  0
SPLINE
  5
5ECA3
330
1F
100
AcDbEntity
  8
1
100
AcDbSpline
210
0.0
220
0.0
230
1.0
 70
     8
 71
     3
 72
    17
 73
    13
 74
     0
 42
0.0000000001
 43
0.0000000001
 40
0.0
 40
0.0
 40
0.0
 40
0.0
 40
0.1249329467
 40
0.2498605497
 40
0.3747797934000001
 40
0.4996903246000003
 40
0.6245946869
 40
0.7494972087000003
 40
0.8121222973
 40
0.8747474699999997
 40
0.9373733492999999
 40
1.0
 40
1.0
 40
1.0
 40
1.0
 10
47.5994158809999
 20
67.0587248196001
 30
0.0
 10
47.52007211559987
 20
67.15158859860003
 30
0.0
 10
47.38739767819993
 20
67.36143329770005
 30
0.0
 10
47.28641022249984
 20
67.71874866120004
 30
0.0
 10
47.29164850129984
 20
68.09037188060006
 30
0.0
 10
47.40410533239992
 20
68.44466942780002
 30
0.0
 10
47.61487288049988
 20
68.75080638860004
 30
0.0
 10
47.85827032389987
 20
68.94343178180008
 30
0.0
 10
48.07952986269993
 20
69.04936077290007
 30
0.0
 10
48.25577437629989
 20
69.10356364960001
 30
0.0
 10
48.43799857259988
 20
69.13123470840003
 30
0.0
 10
48.56097621129993
 20
69.13161964900007
 30
0.0
 10
48.62205580849991
 20
69.12735187910005
 30
0.0
1001
ACAD
1000
RTMaterial
1005
0
  0
SPLINE
  5
5ECA4
330
1F
100
AcDbEntity
  8
1
100
AcDbSpline
210
0.0
220
0.0
230
1.0
 70
     8
 71
     3
 72
    22
 73
    18
 74
     0
 42
0.0000000001
 43
0.0000000001
 40
0.0
 40
0.0
 40
0.0
 40
0.0
 40
0.154640338
 40
0.2310451983
 40
0.3055633565
 40
0.3770219561
 40
0.4441657307
 40
0.5059556950000001
 40
0.5621262301
 40
0.6137464617
 40
0.6631302534
 40
0.7128285159000001
 40
0.7646074638
 40
0.8192379284999999
 40
0.8768321453
 40
0.9371894240999999
 40
1.0
 40
1.0
 40
1.0
 40
1.0
 10
53.53580132129991
 20
59.84496229319995
 30
0.0
 10
53.39583668769989
 20
59.84746106450007
 30
0.0
 10
53.18665615179987
 20
59.86042474550004
 30
0.0
 10
52.91265128329985
 20
59.89912485980004
 30
0.0
 10
52.71530024219988
 20
59.93967350540003
 30
0.0
 10
52.52966565019995
 20
59.99310232050004
 30
0.0
 10
52.36094175929986
 20
60.06084542690008
 30
0.0
 10
52.21483227819986
 20
60.14430746200003
 30
0.0
 10
52.09703222239991
 20
60.24455142960015
 30
0.0
 10
52.01280612549989
 20
60.36123842670008
 30
0.0
 10
51.96507009259994
 20
60.49079929650009
 30
0.0
 10
51.9515294672999
 20
60.62791006750001
 30
0.0
 10
51.96644589889991
 20
60.76915990580005
 30
0.0
 10
52.00422907379993
 20
60.91315381360003
 30
0.0
 10
52.06041826289993
 20
61.05917384470001
 30
0.0
 10
52.13145439919992
 20
61.2067259488
 30
0.0
 10
52.1858284066999
 20
61.30413147830006
 30
0.0
 10
52.21464206119993
 20
61.35314875649999
 30
0.0
1001
ACAD
1000
RTMaterial
1005
0
  0
SPLINE
  5
5ECA5
330
1F
100
AcDbEntity
  8
1
100
AcDbSpline
210
0.0
220
0.0
230
1.0
 70
     8
 71
     3
 72
    11
 73
     7
 74
     0
 42
0.0000000001
 43
0.0000000001
 40
0.0
 40
0.0
 40
0.0
 40
0.0
 40
0.2307645503
 40
0.4748093388
 40
0.7322518487
 40
1.0
 40
1.0
 40
1.0
 40
1.0
 10
55.07909901729988
 20
60.1255041820001
 30
0.0
 10
54.96873987009985
 20
60.07446663760004
 30
0.0
 10
54.73351617949993
 20
59.98650166890014
 30
0.0
 10
54.35694102079992
 20
59.89876057280014
 30
0.0
 10
53.95392391289989
 20
59.84991731920001
 30
0.0
 10
53.67685478589987
 20
59.84244408310008
 30
0.0
 10
53.53580132129991
 20
59.84496229319995
 30
0.0
1001
ACAD
1000
RTMaterial
1005
0
  0
LINE
  5
5ECA6
330
1F
100
AcDbEntity
  8
1
100
AcDbLine
 10
28.36742028749995
 20
60.89016452630005
 30
0.0
 11
55.03050389029988
 21
59.30577203159998
 31
0.0
1001
ACAD
1000
RTMaterial
1005
0
  0
SPLINE
  5
5ECA7
330
1F
100
AcDbEntity
  8
1
100
AcDbSpline
210
0.0
220
0.0
230
1.0
 70
     8
 71
     3
 72
    10
 73
     6
 74
     0
 42
0.0000000001
 43
0.0000000001
 40
0.0
 40
0.0
 40
0.0
 40
0.0
 40
0.4998803127000003
 40
0.7519966280000002
 40
1.0
 40
1.0
 40
1.0
 40
1.0
 10
51.01373717499996
 20
62.83516480160006
 30
0.0
 10
50.58123096439988
 20
63.39174250530016
 30
0.0
 10
49.94007913339988
 20
64.23645785580004
 30
0.0
 10
49.10499065369993
 20
65.37267063340005
 30
0.0
 10
48.6936771198999
 20
65.94553004830004
 30
0.0
 10
48.49153571199997
 20
66.23089191370003
 30
0.0
1001
ACAD
1000
RTMaterial
1005
0
  0
SPLINE
  5
5ECA8
330
1F
100
AcDbEntity
  8
1
100
AcDbSpline
210
0.0
220
0.0
230
1.0
 70
     8
 71
     3
 72
    11
 73
     7
 74
     0
 42
0.0000000001
 43
0.0000000001
 40
0.0
 40
0.0
 40
0.0
 40
0.0
 40
0.2608544196
 40
0.5136180611
 40
0.7587952423000001
 40
1.0
 40
1.0
 40
1.0
 40
1.0
 10
52.21464206119993
 20
61.35314875649999
 30
0.0
 10
52.10154473339993
 20
61.37329006920015
 30
0.0
 10
51.88239123869994
 20
61.43775122680006
 30
0.0
 10
51.58868737769989
 20
61.60291224310014
 30
0.0
 10
51.34631468409985
 20
61.82428644499998
 30
0.0
 10
51.22395977849986
 20
62.00278409400003
 30
0.0
 10
51.17432282089986
 20
62.09669666960007
 30
0.0
1001
ACAD
1000
RTMaterial
1005
0
  0
SPLINE
  5
5ECA9
330
1F
100
AcDbEntity
  8
1
100
AcDbSpline
210
0.0
220
0.0
230
1.0
 70
     8
 71
     3
 72
    10
 73
     6
 74
     0
 42
0.0000000001
 43
0.0000000001
 40
0.0
 40
0.0
 40
0.0
 40
0.0
 40
0.2422535008
 40
0.4875348106000001
 40
1.0
 40
1.0
 40
1.0
 40
1.0
 10
55.76640955699986
 20
60.59433314490013
 30
0.0
 10
55.71917551579986
 20
60.54608909559999
 30
0.0
 10
55.6190697781999
 20
60.45378084280002
 30
0.0
 10
55.39557970499993
 20
60.28660351370001
 30
0.0
 10
55.20873336849991
 20
60.18545588630002
 30
0.0
 10
55.07909901729988
 20
60.1255041820001
 30
0.0
1001
ACAD
1000
RTMaterial
1005
0
  0
LINE
  5
5ECAA
330
1F
100
AcDbEntity
  8
1
100
AcDbLine
 10
55.91343096329989
 20
60.5597919705
 30
0.0
 11
55.76640955699986
 21
60.59433314490013
 31
0.0
1001
ACAD
1000
RTMaterial
1005
0
  0
SPLINE
  5
5ECAB
330
1F
100
AcDbEntity
  8
1
100
AcDbSpline
210
0.0
220
0.0
230
1.0
 70
     8
 71
     3
 72
     9
 73
     5
 74
     0
 42
0.0000000001
 43
0.0000000001
 40
0.0
 40
0.0
 40
0.0
 40
0.0
 40
0.2506465514
 40
1.0
 40
1.0
 40
1.0
 40
1.0
 10
55.14953777229994
 20
59.29849409860004
 30
0.0
 10
55.2213082781999
 20
59.29398318520009
 30
0.0
 10
55.50743677489993
 20
59.27272410880005
 30
0.0
 10
55.79259320159986
 20
59.23852816390001
 30
0.0
 10
56.0051014940999
 20
59.20592741990015
 30
0.0
1001
ACAD
1000
RTMaterial
1005
0
  0
LINE
  5
5ECAC
330
1F
100
AcDbEntity
  8
1
100
AcDbLine
 10
55.03050389029988
 20
59.30577203159998
 30
0.0
 11
55.14953777229994
 21
59.29849409860004
 31
0.0
1001
ACAD
1000
RTMaterial
1005
0
  0
LINE
  5
5ECAD
330
1F
100
AcDbEntity
  8
1
100
AcDbLine
 10
59.81649302059986
 20
59.64101295400007
 30
0.0
 11
55.91343096329989
 21
60.5597919705
 31
0.0
1001
ACAD
1000
RTMaterial
1005
0
  0
LINE
  5
5ECAE
330
1F
100
AcDbEntity
  8
1
100
AcDbLine
 10
56.53305254029986
 20
59.11334497660003
 30
0.0
 11
59.87624608369992
 21
58.45219449350008
 31
0.0
1001
ACAD
1000
RTMaterial
1005
0
  0
SPLINE
  5
5ECAF
330
1F
100
AcDbEntity
  8
1
100
AcDbSpline
210
0.0
220
0.0
230
1.0
 70
     8
 71
     3
 72
     9
 73
     5
 74
     0
 42
0.0000000001
 43
0.0000000001
 40
0.0
 40
0.0
 40
0.0
 40
0.0
 40
0.2492057036
 40
1.0
 40
1.0
 40
1.0
 40
1.0
 10
56.0051014940999
 20
59.20592741990015
 30
0.0
 10
56.04911388049992
 20
59.19917551150001
 30
0.0
 10
56.22558166549993
 20
59.17115948970002
 30
0.0
 10
56.40145173499989
 20
59.13937038840003
 30
0.0
 10
56.53305254029986
 20
59.11334497660003
 30
0.0
1001
ACAD
1000
RTMaterial
1005
0
  0
SPLINE
  5
5ECB0
330
1F
100
AcDbEntity
  8
1
100
AcDbSpline
210
0.0
220
0.0
230
1.0
 70
     8
 71
     3
 72
     9
 73
     5
 74
     0
 42
0.0000000001
 43
0.0000000001
 40
0.0
 40
0.0
 40
0.0
 40
0.0
 40
0.2671822489
 40
1.0
 40
1.0
 40
1.0
 40
1.0
 10
47.73724958849991
 20
67.36358421500006
 30
0.0
 10
47.71602282919991
 20
67.36866719689999
 30
0.0
 10
47.63706055649993
 20
67.3896655599001
 30
0.0
 10
47.56001788879983
 20
67.41784780720002
 30
0.0
 10
47.50536260109993
 20
67.4422758459001
 30
0.0
1001
ACAD
1000
RTMaterial
1005
0
  0
SPLINE
  5
5ECB1
330
1F
100
AcDbEntity
  8
1
100
AcDbSpline
210
0.0
220
0.0
230
1.0
 70
     8
 71
     3
 72
    10
 73
     6
 74
     0
 42
0.0000000001
 43
0.0000000001
 40
0.0
 40
0.0
 40
0.0
 40
0.0
 40
0.444738223
 40
0.6983934941
 40
1.0
 40
1.0
 40
1.0
 40
1.0
 10
48.15828204829982
 20
66.67941739929995
 30
0.0
 10
48.05364806339992
 20
66.75350138630006
 30
0.0
 10
47.89145691399983
 20
66.87294020299997
 30
0.0
 10
47.66663739799993
 20
67.0534225504
 30
0.0
 10
47.54618573349989
 20
67.1590245955
 30
0.0
 10
47.48297431569993
 20
67.21872146990006
 30
0.0
1001
ACAD
1000
RTMaterial
1005
0
  0
SPLINE
  5
5ECB2
330
1F
100
AcDbEntity
  8
1
100
AcDbSpline
210
0.0
220
0.0
230
1.0
 70
     8
 71
     3
 72
     9
 73
     5
 74
     0
 42
0.0000000001
 43
0.0000000001
 40
0.0
 40
0.0
 40
0.0
 40
0.0
 40
0.2547750108
 40
1.0
 40
1.0
 40
1.0
 40
1.0
 10
47.81040724699994
 20
67.34649509160012
 30
0.0
 10
47.80418691969987
 20
67.34791435190004
 30
0.0
 10
47.7797787692999
 20
67.3535148561001
 30
0.0
 10
47.75539873709989
 20
67.3592382009
 30
0.0
 10
47.73724958849991
 20
67.36358421500006
 30
0.0
1001
ACAD
1000
RTMaterial
1005
0
  0
SPLINE
  5
5ECB3
330
1F
100
AcDbEntity
  8
1
100
AcDbSpline
210
0.0
220
0.0
230
1.0
 70
     8
 71
     3
 72
     8
 73
     4
 74
     0
 42
0.0000000001
 43
0.0000000001
 40
0.0
 40
0.0
 40
0.0
 40
0.0
 40
1.0
 40
1.0
 40
1.0
 40
1.0
 10
47.42597913949984
 20
67.48670113900003
 30
0.0
 10
47.4191918846999
 20
67.4913392871
 30
0.0
 10
47.41252940409991
 20
67.49616607560006
 30
0.0
 10
47.40601406619986
 20
67.50117902060003
 30
0.0
1001
ACAD
1000
RTMaterial
1005
0
  0
SPLINE
  5
5ECB4
330
1F
100
AcDbEntity
  8
1
100
AcDbSpline
210
0.0
220
0.0
230
1.0
 70
     8
 71
     3
 72
     9
 73
     5
 74
     0
 42
0.0000000001
 43
0.0000000001
 40
0.0
 40
0.0
 40
0.0
 40
0.0
 40
0.2555230875
 40
1.0
 40
1.0
 40
1.0
 40
1.0
 10
47.40601406619986
 20
67.50117902060003
 30
0.0
 10
47.39893446259986
 20
67.50662611540008
 30
0.0
 10
47.37190164539993
 20
67.5287986771001
 30
0.0
 10
47.34774224129988
 20
67.55452187490003
 30
0.0
 10
47.33206101029987
 20
67.57529271359999
 30
0.0
1001
ACAD
1000
RTMaterial
1005
0
  0
SPLINE
  5
5ECB5
330
1F
100
AcDbEntity
  8
1
100
AcDbSpline
210
0.0
220
0.0
230
1.0
 70
     8
 71
     3
 72
     8
 73
     4
 74
     0
 42
0.0000000001
 43
0.0000000001
 40
0.0
 40
0.0
 40
0.0
 40
0.0
 40
1.0
 40
1.0
 40
1.0
 40
1.0
 10
47.50536016119985
 20
67.44226870049999
 30
0.0
 10
47.47767695689993
 20
67.4546440793
 30
0.0
 10
47.45101541409986
 20
67.46959281490001
 30
0.0
 10
47.42597913949984
 20
67.48670113900003
 30
0.0
1001
ACAD
1000
RTMaterial
1005
0
  0
SPLINE
  5
5ECB6
330
1F
100
AcDbEntity
  8
1
100
AcDbSpline
210
0.0
220
0.0
230
1.0
 70
     8
 71
     3
 72
    10
 73
     6
 74
     0
 42
0.0000000001
 43
0.0000000001
 40
0.0
 40
0.0
 40
0.0
 40
0.0
 40
0.2932307814000001
 40
0.5487523901
 40
1.0
 40
1.0
 40
1.0
 40
1.0
 10
51.23490420279996
 20
62.0330788036
 30
0.0
 10
51.20617666389989
 20
62.10924563970002
 30
0.0
 10
51.15726069719983
 20
62.2536419452
 30
0.0
 10
51.08134350679995
 20
62.52072938170011
 30
0.0
 10
51.03799692989992
 20
62.71226468010002
 30
0.0
 10
51.01373717499996
 20
62.83516480160006
 30
0.0
1001
ACAD
1000
RTMaterial
1005
0
  0
SPLINE
  5
5ECB7
330
1F
100
AcDbEntity
  8
1
100
AcDbSpline
210
0.0
220
0.0
230
1.0
 70
     8
 71
     3
 72
     8
 73
     4
 74
     0
 42
0.0000000001
 43
0.0000000001
 40
0.0
 40
0.0
 40
0.0
 40
0.0
 40
1.0
 40
1.0
 40
1.0
 40
1.0
 10
53.46146352559991
 20
61.38000041619999
 30
0.0
 10
53.52846015219984
 20
61.4262378950001
 30
0.0
 10
53.59186324839992
 20
61.47817108390007
 30
0.0
 10
53.65035030779985
 20
61.53479012920013
 30
0.0
1001
ACAD
1000
RTMaterial
1005
0
  0
SPLINE
  5
5ECB8
330
1F
100
AcDbEntity
  8
1
100
AcDbSpline
210
0.0
220
0.0
230
1.0
 70
     8
 71
     3
 72
     9
 73
     5
 74
     0
 42
0.0000000001
 43
0.0000000001
 40
0.0
 40
0.0
 40
0.0
 40
0.0
 40
0.2495207675
 40
1.0
 40
1.0
 40
1.0
 40
1.0
 10
53.32228891479985
 20
61.29518050990009
 30
0.0
 10
53.33425160769991
 20
61.30156574960007
 30
0.0
 10
53.38182605629993
 20
61.32784005450014
 30
0.0
 10
53.42789684139995
 20
61.35683449100008
 30
0.0
 10
53.46146352559991
 20
61.38000041619999
 30
0.0
1001
ACAD
1000
RTMaterial
1005
0
  0
LINE
  5
5ECB9
330
1F
100
AcDbEntity
  8
1
100
AcDbLine
 10
51.32824615279992
 20
62.53658105950001
 30
0.0
 11
51.33252463529993
 21
62.54650610930003
 31
0.0
1001
ACAD
1000
RTMaterial
1005
0
  0
SPLINE
  5
5ECBA
330
1F
100
AcDbEntity
  8
1
100
AcDbSpline
210
0.0
220
0.0
230
1.0
 70
     8
 71
     3
 72
     9
 73
     5
 74
     0
 42
0.0000000001
 43
0.0000000001
 40
0.0
 40
0.0
 40
0.0
 40
0.0
 40
0.2958253199
 40
1.0
 40
1.0
 40
1.0
 40
1.0
 10
51.41103823299989
 20
62.85016752440004
 30
0.0
 10
51.41040868599986
 20
62.85170871800005
 30
0.0
 10
51.4083527639999
 20
62.85694378760002
 30
0.0
 10
51.40653636509989
 20
62.86229944839999
 30
0.0
 10
51.40568686799986
 20
62.8661702068
 30
0.0
1001
ACAD
1000
RTMaterial
1005
0
  0
SPLINE
  5
5ECBB
330
1F
100
AcDbEntity
  8
1
100
AcDbSpline
210
0.0
220
0.0
230
1.0
 70
     8
 71
     3
 72
     9
 73
     5
 74
     0
 42
0.0000000001
 43
0.0000000001
 40
0.0
 40
0.0
 40
0.0
 40
0.0
 40
0.2570814679
 40
1.0
 40
1.0
 40
1.0
 40
1.0
 10
51.37784584799987
 20
62.65050574360009
 30
0.0
 10
51.37898245799989
 20
62.66783002590011
 30
0.0
 10
51.38499426149985
 20
62.73509723860001
 30
0.0
 10
51.39758522239993
 20
62.80183316140018
 30
0.0
 10
51.41103823299989
 20
62.85016752440004
 30
0.0
1001
ACAD
1000
RTMaterial
1005
0
  0
SPLINE
  5
5ECBC
330
1F
100
AcDbEntity
  8
1
100
AcDbSpline
210
0.0
220
0.0
230
1.0
 70
     8
 71
     3
 72
     9
 73
     5
 74
     0
 42
0.0000000001
 43
0.0000000001
 40
0.0
 40
0.0
 40
0.0
 40
0.0
 40
0.2431598529
 40
1.0
 40
1.0
 40
1.0
 40
1.0
 10
51.28659229129983
 20
62.40669467920008
 30
0.0
 10
51.28840284289992
 20
62.4182983756001
 30
0.0
 10
51.29729816519989
 20
62.46578634560012
 30
0.0
 10
51.31184899739992
 20
62.51217380040009
 30
0.0
 10
51.32551113129988
 20
62.54607841840004
 30
0.0
1001
ACAD
1000
RTMaterial
1005
0
  0
SPLINE
  5
5ECBD
330
1F
100
AcDbEntity
  8
1
100
AcDbSpline
210
0.0
220
0.0
230
1.0
 70
     8
 71
     3
 72
    14
 73
    10
 74
     0
 42
0.0000000001
 43
0.0000000001
 40
0.0
 40
0.0
 40
0.0
 40
0.0
 40
0.0435225089
 40
0.1066957333
 40
0.193112345
 40
0.3069776224
 40
0.4517129786
 40
0.6253681023
 40
1.0
 40
1.0
 40
1.0
 40
1.0
 10
60.75242087329989
 20
56.87846573550007
 30
0.0
 10
60.73400447079984
 20
56.8769495273001
 30
0.0
 10
60.68860936809983
 20
56.8767257221001
 30
0.0
 10
60.60675308019995
 20
56.88153878660011
 30
0.0
 10
60.49543938449994
 20
56.89290934460007
 30
0.0
 10
60.35022192589986
 20
56.91224402470004
 30
0.0
 10
60.16892564629984
 20
56.94088133510001
 30
0.0
 10
59.87927637669987
 20
56.99274040190005
 30
0.0
 10
59.65124530259992
 20
57.03986346630006
 30
0.0
 10
59.4959926572999
 20
57.07445938820001
 30
0.0
1001
ACAD
1000
RTMaterial
1005
0
  0
SPLINE
  5
5ECBE
330
1F
100
AcDbEntity
  8
1
100
AcDbSpline
210
0.0
220
0.0
230
1.0
 70
     8
 71
     3
 72
    22
 73
    18
 74
     0
 42
0.0000000001
 43
0.0000000001
 40
0.0
 40
0.0
 40
0.0
 40
0.0
 40
0.0065466496
 40
0.0135218089
 40
0.021358775
 40
0.0303737773
 40
0.0527019205
 40
0.0815850799
 40
0.1175562443
 40
0.1609439289
 40
0.2119699203
 40
0.2707786364
 40
0.3374359668
 40
0.4119104684000002
 40
0.5835009027
 40
0.7820131479000001
 40
1.0
 40
1.0
 40
1.0
 40
1.0
 10
51.11862622339993
 20
73.95486713820003
 30
0.0
 10
51.11862137669993
 20
73.95900562000007
 30
0.0
 10
51.11987828469988
 20
73.96760082320009
 30
0.0
 10
51.12549017349987
 20
73.98003303150004
 30
0.0
 10
51.13467054409989
 20
73.9921003234
 30
0.0
 10
51.1529224535999
 20
74.00897714860001
 30
0.0
 10
51.18576137999991
 20
74.02883799190011
 30
0.0
 10
51.23659780889989
 20
74.05030693090009
 30
0.0
 10
51.30194666319994
 20
74.07087718330001
 30
0.0
 10
51.3820498854999
 20
74.09044380479996
 30
0.0
 10
51.47716558979993
 20
74.10889950340005
 30
0.0
 10
51.58741547639987
 20
74.12613175929994
 30
0.0
 10
51.71281850499986
 20
74.14203546270003
 30
0.0
 10
51.90948221949986
 20
74.16227696880003
 30
0.0
 10
52.18984745289994
 20
74.18260966280001
 30
0.0
 10
52.56127386039985
 20
74.19914033170005
 30
0.0
 10
52.82452681089988
 20
74.20488605870001
 30
0.0
 10
52.96231789559988
 20
74.20654373100012
 30
0.0
1001
ACAD
1000
RTMaterial
1005
0
  0
SPLINE
  5
5ECBF
330
1F
100
AcDbEntity
  8
1
100
AcDbSpline
210
0.0
220
0.0
230
1.0
 70
     8
 71
     3
 72
     9
 73
     5
 74
     0
 42
0.0000000001
 43
0.0000000001
 40
0.0
 40
0.0
 40
0.0
 40
0.0
 40
0.2380103535
 40
1.0
 40
1.0
 40
1.0
 40
1.0
 10
47.29899106149992
 20
68.00492725980006
 30
0.0
 10
47.30502377259983
 20
68.02039694830011
 30
0.0
 10
47.3326679139999
 20
68.0844921731001
 30
0.0
 10
47.36879965219986
 20
68.14476543110004
 30
0.0
 10
47.39950826899985
 20
68.18815716270012
 30
0.0
1001
ACAD
1000
RTMaterial
1005
0
  0
SPLINE
  5
5ECC0
330
1F
100
AcDbEntity
  8
1
100
AcDbSpline
210
0.0
220
0.0
230
1.0
 70
     8
 71
     3
 72
     9
 73
     5
 74
     0
 42
0.0000000001
 43
0.0000000001
 40
0.0
 40
0.0
 40
0.0
 40
0.0
 40
0.2471583602
 40
1.0
 40
1.0
 40
1.0
 40
1.0
 10
54.57269736069986
 20
57.98018995740005
 30
0.0
 10
54.5607288051999
 20
57.98104587710009
 30
0.0
 10
54.51229720119989
 20
57.98441082319993
 30
0.0
 10
54.4638383150999
 20
57.98738363230008
 30
0.0
 10
54.42734459689984
 20
57.98939658280005
 30
0.0
1001
ACAD
1000
RTMaterial
1005
0
  0
LINE
  5
5ECC1
330
1F
100
AcDbEntity
  8
1
100
AcDbLine
 10
54.57269736069986
 20
57.98018995740005
 30
0.0
 11
55.14953777229994
 21
57.93894782090013
 31
0.0
1001
ACAD
1000
RTMaterial
1005
0
  0
SPLINE
  5
5ECC2
330
1F
100
AcDbEntity
  8
1
100
AcDbSpline
210
0.0
220
0.0
230
1.0
 70
     8
 71
     3
 72
     9
 73
     5
 74
     0
 42
0.0000000001
 43
0.0000000001
 40
0.0
 40
0.0
 40
0.0
 40
0.0
 40
0.2455897651
 40
1.0
 40
1.0
 40
1.0
 40
1.0
 10
51.32551113129988
 20
62.54607841840004
 30
0.0
 10
51.32908722299987
 20
62.55495302220004
 30
0.0
 10
51.34439750449995
 20
62.59078390820002
 30
0.0
 10
51.36265593439986
 20
62.62534391630004
 30
0.0
 10
51.37784584799987
 20
62.65050574360009
 30
0.0
1001
ACAD
1000
RTMaterial
1005
0
  0
SPLINE
  5
5ECC3
330
1F
100
AcDbEntity
  8
1
100
AcDbSpline
210
0.0
220
0.0
230
1.0
 70
     8
 71
     3
 72
     9
 73
     5
 74
     0
 42
0.0000000001
 43
0.0000000001
 40
0.0
 40
0.0
 40
0.0
 40
0.0
 40
0.2452748013
 40
1.0
 40
1.0
 40
1.0
 40
1.0
 10
56.53305254029986
 20
57.73576368200007
 30
0.0
 10
56.42142266029986
 20
57.76071938660003
 30
0.0
 10
55.96450547179995
 20
57.85424006330003
 30
0.0
 10
55.50061271279992
 20
57.9138532487001
 30
0.0
 10
55.14953777229994
 20
57.93894782090013
 30
0.0
1001
ACAD
1000
RTMaterial
1005
0
  0
SPLINE
  5
5ECC4
330
1F
100
AcDbEntity
  8
1
100
AcDbSpline
210
0.0
220
0.0
230
1.0
 70
     8
 71
     3
 72
     9
 73
     5
 74
     0
 42
0.0000000001
 43
0.0000000001
 40
0.0
 40
0.0
 40
0.0
 40
0.0
 40
0.4948694105
 40
1.0
 40
1.0
 40
1.0
 40
1.0
 10
51.17432282089986
 20
62.09669666960007
 30
0.0
 10
51.11553253749992
 20
62.20792723640011
 30
0.0
 10
51.02695351759985
 20
62.44997625100006
 30
0.0
 10
51.00677836939985
 20
62.70693325240006
 30
0.0
 10
51.01373717499996
 20
62.83516480160006
 30
0.0
1001
ACAD
1000
RTMaterial
1005
0
  0
SPLINE
  5
5ECC5
330
1F
100
AcDbEntity
  8
1
100
AcDbSpline
210
0.0
220
0.0
230
1.0
 70
     8
 71
     3
 72
    13
 73
     9
 74
     0
 42
0.0000000001
 43
0.0000000001
 40
0.0
 40
0.0
 40
0.0
 40
0.0
 40
0.0801302315
 40
0.1735537004
 40
0.2804795215
 40
0.4005948733000002
 40
0.6779122206000002
 40
1.0
 40
1.0
 40
1.0
 40
1.0
 10
52.30193889249996
 20
73.06190765640008
 30
0.0
 10
52.30966603089996
 20
73.07010621850008
 30
0.0
 10
52.32824128159996
 20
73.08613143210016
 30
0.0
 10
52.36127287289992
 20
73.10778632130006
 30
0.0
 10
52.40114872629987
 20
73.12887619950004
 30
0.0
 10
52.46604061319988
 20
73.15756855980009
 30
0.0
 10
52.5617473274999
 20
73.19078941100008
 30
0.0
 10
52.64304410729994
 20
73.21312845750004
 30
0.0
 10
52.6869661927999
 20
73.22415366999995
 30
0.0
1001
ACAD
1000
RTMaterial
1005
0
  0
SPLINE
  5
5ECC6
330
1F
100
AcDbEntity
  8
1
100
AcDbSpline
210
0.0
220
0.0
230
1.0
 70
     8
 71
     3
 72
     9
 73
     5
 74
     0
 42
0.0000000001
 43
0.0000000001
 40
0.0
 40
0.0
 40
0.0
 40
0.0
 40
0.2035116031
 40
1.0
 40
1.0
 40
1.0
 40
1.0
 10
47.46211549469989
 20
67.25368473650007
 30
0.0
 10
47.47853538479989
 20
67.24167381860002
 30
0.0
 10
47.5610317467999
 20
67.18515743450007
 30
0.0
 10
47.65150278659996
 20
67.14046437080003
 30
0.0
 10
47.72567243679985
 20
67.11151121320006
 30
0.0
1001
ACAD
1000
RTMaterial
1005
0
  0
SPLINE
  5
5ECC7
330
1F
100
AcDbEntity
  8
1
100
AcDbSpline
210
0.0
220
0.0
230
1.0
 70
     8
 71
     3
 72
    26
 73
    22
 74
     0
 42
0.0000000001
 43
0.0000000001
 40
0.0
 40
0.0
 40
0.0
 40
0.0
 40
0.0406500488
 40
0.0585585834
 40
0.0749666627
 40
0.0901116106
 40
0.1043917736
 40
0.1183752889
 40
0.1327413422
 40
0.1481588473
 40
0.1651795723
 40
0.1841941828
 40
0.2054401564
 40
0.2549277375
 40
0.3135715609
 40
0.3805310472
 40
0.4547049888
 40
0.5350073109000001
 40
0.6204857362000002
 40
0.8038642556
 40
1.0
 40
1.0
 40
1.0
 40
1.0
 10
27.89839787409994
 20
60.83790467050005
 30
0.0
 10
27.85859729959986
 20
60.84026414060009
 30
0.0
 10
27.80117384889991
 20
60.84733714469996
 30
0.0
 10
27.73052498559991
 20
60.86827671449999
 30
0.0
 10
27.68611047089996
 20
60.88824124630002
 30
0.0
 10
27.64852182949994
 20
60.91335551760005
 30
0.0
 10
27.61835620519992
 20
60.94387841640003
 30
0.0
 10
27.59633939039986
 20
60.97988404570003
 30
0.0
 10
27.5830368149999
 20
61.02109244619999
 30
0.0
 10
27.57858605649983
 20
61.06708599170008
 30
0.0
 10
27.58284722809992
 20
61.11759071910011
 30
0.0
 10
27.59559712969986
 20
61.17246384240013
 30
0.0
 10
27.62517643009994
 20
61.25552565789996
 30
0.0
 10
27.68381343349995
 20
61.36861483749999
 30
0.0
 10
27.77850411179986
 20
61.51205219400003
 30
0.0
 10
27.89751005679989
 20
61.66786535450011
 30
0.0
 10
28.03699231879989
 20
61.83439833580006
 30
0.0
 10
28.19340533259993
 20
62.01028727880011
 30
0.0
 10
28.42588052739984
 20
62.26177188020006
 30
0.0
 10
28.74119294679985
 20
62.59131294769995
 30
0.0
 10
28.9993470085999
 20
62.85947986760004
 30
0.0
 10
29.13221351139987
 20
62.99859968710006
 30
0.0
1001
ACAD
1000
RTMaterial
1005
0
  0
SPLINE
  5
5ECC8
330
1F
100
AcDbEntity
  8
1
100
AcDbSpline
210
0.0
220
0.0
230
1.0
 70
     8
 71
     3
 72
     9
 73
     5
 74
     0
 42
0.0000000001
 43
0.0000000001
 40
0.0
 40
0.0
 40
0.0
 40
0.0
 40
0.499993149
 40
1.0
 40
1.0
 40
1.0
 40
1.0
 10
48.15828204829982
 20
66.67941739929995
 30
0.0
 10
48.05074179639984
 20
66.71598490010001
 30
0.0
 10
47.84461995619994
 20
66.81866422240012
 30
0.0
 10
47.6732034465999
 20
66.97236400539998
 30
0.0
 10
47.5994158809999
 20
67.0587248196001
 30
0.0
1001
ACAD
1000
RTMaterial
1005
0
  0
SPLINE
  5
5ECC9
330
1F
100
AcDbEntity
  8
1
100
AcDbSpline
210
0.0
220
0.0
230
1.0
 70
     8
 71
     3
 72
     9
 73
     5
 74
     0
 42
0.0000000001
 43
0.0000000001
 40
0.0
 40
0.0
 40
0.0
 40
0.0
 40
0.4838720182
 40
1.0
 40
1.0
 40
1.0
 40
1.0
 10
62.19999999999993
 20
57.02484373960011
 30
0.0
 10
61.96710831379983
 20
56.99589421970006
 30
0.0
 10
61.48498368359992
 20
56.94257060490008
 30
0.0
 10
61.00190540599988
 20
56.89900560429999
 30
0.0
 10
60.75242087329989
 20
56.87846573550007
 30
0.0
1001
ACAD
1000
RTMaterial
1005
0
  0
SPLINE
  5
5ECCA
330
1F
100
AcDbEntity
  8
1
100
AcDbSpline
210
0.0
220
0.0
230
1.0
 70
     8
 71
     3
 72
     9
 73
     5
 74
     0
 42
0.0000000001
 43
0.0000000001
 40
0.0
 40
0.0
 40
0.0
 40
0.0
 40
0.2430563284
 40
1.0
 40
1.0
 40
1.0
 40
1.0
 10
47.72567243679985
 20
67.11151121320006
 30
0.0
 10
47.74824970999985
 20
67.10269785960007
 30
0.0
 10
47.84224086279993
 20
67.06932067939999
 30
0.0
 10
47.94038444779994
 20
67.04768700219995
 30
0.0
 10
48.01526521279993
 20
67.03820196039997
 30
0.0
1001
ACAD
1000
RTMaterial
1005
0
  0
SPLINE
  5
5ECCB
330
1F
100
AcDbEntity
  8
1
100
AcDbSpline
210
0.0
220
0.0
230
1.0
 70
     8
 71
     3
 72
     9
 73
     5
 74
     0
 42
0.0000000001
 43
0.0000000001
 40
0.0
 40
0.0
 40
0.0
 40
0.0
 40
0.2379953143
 40
1.0
 40
1.0
 40
1.0
 40
1.0
 10
47.39950826899985
 20
68.18815716270012
 30
0.0
 10
47.41546320949985
 20
68.21070173060014
 30
0.0
 10
47.48627945199996
 20
68.3027398987
 30
0.0
 10
47.5705263312999
 20
68.3840849467
 30
0.0
 10
47.63919037119989
 20
68.43980849540002
 30
0.0
1001
ACAD
1000
RTMaterial
1005
0
  0
SPLINE
  5
5ECCC
330
1F
100
AcDbEntity
  8
1
100
AcDbSpline
210
0.0
220
0.0
230
1.0
 70
     8
 71
     3
 72
    11
 73
     7
 74
     0
 42
0.0000000001
 43
0.0000000001
 40
0.0
 40
0.0
 40
0.0
 40
0.0
 40
0.1856558088
 40
0.4140246915
 40
0.6882689976
 40
1.0
 40
1.0
 40
1.0
 40
1.0
 10
37.7118262457999
 20
59.26622720650003
 30
0.0
 10
38.10734593869995
 20
59.20775427470005
 30
0.0
 10
38.99125043189986
 20
59.08992713740008
 30
0.0
 10
40.46449461779991
 20
58.92619416560012
 30
0.0
 10
42.21105275139985
 20
58.76662808600008
 30
0.0
 10
43.46973409259986
 20
58.67500902970005
 30
0.0
 10
44.13970234269991
 20
58.63231040469996
 30
0.0
1001
ACAD
1000
RTMaterial
1005
0
  0
SPLINE
  5
5ECCD
330
1F
100
AcDbEntity
  8
1
100
AcDbSpline
210
0.0
220
0.0
230
1.0
 70
     8
 71
     3
 72
    15
 73
    11
 74
     0
 42
0.0000000001
 43
0.0000000001
 40
0.0
 40
0.0
 40
0.0
 40
0.0
 40
0.1250005432
 40
0.2500007503
 40
0.3750008489
 40
0.5000008207
 40
0.6250006882
 40
0.7500004792000003
 40
0.875000189
 40
1.0
 40
1.0
 40
1.0
 40
1.0
 10
37.7118262457999
 20
70.52352703770009
 30
0.0
 10
37.93315586669986
 20
70.71369291620007
 30
0.0
 10
38.3926623857999
 20
71.0749130887001
 30
0.0
 10
39.12653969499991
 20
71.55413485190002
 30
0.0
 10
39.89982427359996
 20
71.96692548430006
 30
0.0
 10
40.70658202469984
 20
72.30969837140003
 30
0.0
 10
41.54059148759984
 20
72.57949791300005
 30
0.0
 10
42.39533731309984
 20
72.77395564350001
 30
0.0
 10
43.26395910929988
 20
72.89135392829995
 30
0.0
 10
43.84789955929988
 20
72.91755001429999
 30
0.0
 10
44.13970234269991
 20
72.9175721780001
 30
0.0
1001
ACAD
1000
RTMaterial
1005
0
  0
SPLINE
  5
5ECCE
330
1F
100
AcDbEntity
  8
1
100
AcDbSpline
210
0.0
220
0.0
230
1.0
 70
     8
 71
     3
 72
    13
 73
     9
 74
     0
 42
0.0000000001
 43
0.0000000001
 40
0.0
 40
0.0
 40
0.0
 40
0.0
 40
0.0995559246
 40
0.2076018916
 40
0.3234874167
 40
0.4465891436
 40
0.7121273534000001
 40
1.0
 40
1.0
 40
1.0
 40
1.0
 10
29.13221351139987
 20
60.72770567530007
 30
0.0
 10
29.41469927739991
 20
60.66735942859998
 30
0.0
 10
30.00483114169993
 20
60.54651129919999
 30
0.0
 10
30.92667460629991
 20
60.36989433400004
 30
0.0
 10
31.91749613879983
 20
60.19053118110003
 30
0.0
 10
33.36010478339995
 20
59.94185975560013
 30
0.0
 10
35.29793313149992
 20
59.62888266380002
 30
0.0
 10
36.88555005339992
 20
59.38838241730002
 30
0.0
 10
37.7118262457999
 20
59.26622720650003
 30
0.0
1001
ACAD
1000
RTMaterial
1005
0
  0
SPLINE
  5
5ECCF
330
1F
100
AcDbEntity
  8
1
100
AcDbSpline
210
0.0
220
0.0
230
1.0
 70
     8
 71
     3
 72
    10
 73
     6
 74
     0
 42
0.0000000001
 43
0.0000000001
 40
0.0
 40
0.0
 40
0.0
 40
0.0
 40
0.5722365543
 40
0.8117096679999999
 40
1.0
 40
1.0
 40
1.0
 40
1.0
 10
51.18034313139991
 20
62.39286683980004
 30
0.0
 10
51.18275901809989
 20
62.32688586410006
 30
0.0
 10
51.19188410869992
 20
62.23333770020008
 30
0.0
 10
51.21375308519986
 20
62.12000561230013
 30
0.0
 10
51.22557484929997
 20
62.07206969060007
 30
0.0
 10
51.2310898374999
 20
62.05105623010002
 30
0.0
1001
ACAD
1000
RTMaterial
1005
0
  0
SPLINE
  5
5ECD0
330
1F
100
AcDbEntity
  8
1
100
AcDbSpline
210
0.0
220
0.0
230
1.0
 70
     8
 71
     3
 72
    11
 73
     7
 74
     0
 42
0.0000000001
 43
0.0000000001
 40
0.0
 40
0.0
 40
0.0
 40
0.0
 40
0.4040294453000002
 40
0.7270830263
 40
0.9401075256999998
 40
1.0
 40
1.0
 40
1.0
 40
1.0
 10
51.2310898374999
 20
62.05105623010002
 30
0.0
 10
51.23183172619985
 20
62.04822945190006
 30
0.0
 10
51.2331015074999
 20
62.04348557770003
 30
0.0
 10
51.23506771339987
 20
62.03576035730009
 30
0.0
 10
51.23565593959995
 20
62.03372776160006
 30
0.0
 10
51.23650056259987
 20
62.02966277950007
 30
0.0
 10
51.23622627919985
 20
62.02999812150006
 30
0.0
1001
ACAD
1000
RTMaterial
1005
0
  0
SPLINE
  5
5ECD1
330
1F
100
AcDbEntity
  8
1
100
AcDbSpline
210
0.0
220
0.0
230
1.0
 70
     8
 71
     3
 72
     9
 73
     5
 74
     0
 42
0.0000000001
 43
0.0000000001
 40
0.0
 40
0.0
 40
0.0
 40
0.0
 40
0.503294918
 40
1.0
 40
1.0
 40
1.0
 40
1.0
 10
51.3134937110999
 20
63.06945706320004
 30
0.0
 10
51.26552371959984
 20
62.96334047300014
 30
0.0
 10
51.19450944949996
 20
62.74066653110003
 30
0.0
 10
51.17613777839995
 20
62.50772044060011
 30
0.0
 10
51.18034313139991
 20
62.39286683980004
 30
0.0
1001
ACAD
1000
RTMaterial
1005
0
  0
SPLINE
  5
5ECD2
330
1F
100
AcDbEntity
  8
1
100
AcDbSpline
210
0.0
220
0.0
230
1.0
 70
     8
 71
     3
 72
     8
 73
     4
 74
     0
 42
0.0000000001
 43
0.0000000001
 40
0.0
 40
0.0
 40
0.0
 40
0.0
 40
1.0
 40
1.0
 40
1.0
 40
1.0
 10
37.7118262457999
 20
70.52352703770009
 30
0.0
 10
36.38666534369986
 20
69.38495197460007
 30
0.0
 10
35.06213418789992
 20
68.24564341789993
 30
0.0
 10
33.73833359139985
 20
67.10548703760003
 30
0.0
1001
ACAD
1000
RTMaterial
1005
0
  0
SPLINE
  5
5ECD3
330
1F
100
AcDbEntity
  8
1
100
AcDbSpline
210
0.0
220
0.0
230
1.0
 70
     8
 71
     3
 72
    13
 73
     9
 74
     0
 42
0.0000000001
 43
0.0000000001
 40
0.0
 40
0.0
 40
0.0
 40
0.0
 40
0.1172512537
 40
0.2393404353
 40
0.3645237473
 40
0.4915195278000001
 40
0.747159364
 40
1.0
 40
1.0
 40
1.0
 40
1.0
 10
29.13221351139987
 20
62.99859968710006
 30
0.0
 10
29.29890440759994
 20
63.17313583359998
 30
0.0
 10
29.64515919599989
 20
63.52370084410006
 30
0.0
 10
30.18532018419989
 20
64.04455928749996
 30
0.0
 10
30.75022924939992
 20
64.56842916640005
 30
0.0
 10
31.52823664419987
 20
65.26656925150007
 30
0.0
 10
32.52037544839993
 20
66.11926002860002
 30
0.0
 10
33.33098350519993
 20
66.78156408040002
 30
0.0
 10
33.73833359139985
 20
67.10548703760003
 30
0.0
1001
ACAD
1000
RTMaterial
1005
0
  0
SPLINE
  5
5ECD4
330
1F
100
AcDbEntity
  8
1
100
AcDbSpline
210
0.0
220
0.0
230
1.0
 70
     8
 71
     3
 72
     9
 73
     5
 74
     0
 42
0.0000000001
 43
0.0000000001
 40
0.0
 40
0.0
 40
0.0
 40
0.0
 40
0.2488495478
 40
1.0
 40
1.0
 40
1.0
 40
1.0
 10
29.13221351139987
 20
60.72770567530007
 30
0.0
 10
29.06878958329992
 20
60.74125466240014
 30
0.0
 10
28.81389954379983
 20
60.79560069130014
 30
0.0
 10
28.55894091409993
 20
60.84962434160013
 30
0.0
 10
28.36742028749995
 20
60.89016452630005
 30
0.0
1001
ACAD
1000
RTMaterial
1005
0
  0
SPLINE
  5
5ECD5
330
1F
100
AcDbEntity
  8
1
100
AcDbSpline
210
0.0
220
0.0
230
1.0
 70
     8
 71
     3
 72
    12
 73
     8
 74
     0
 42
0.0000000001
 43
0.0000000001
 40
0.0
 40
0.0
 40
0.0
 40
0.0
 40
0.2721431476
 40
0.5299234484000001
 40
0.7714982306
 40
0.88712645
 40
1.0
 40
1.0
 40
1.0
 40
1.0
 10
52.39826908409987
 20
61.68863796109997
 30
0.0
 10
52.31951249569988
 20
61.66659681520002
 30
0.0
 10
52.16112010749987
 20
61.63926410240003
 30
0.0
 10
51.92756078159995
 20
61.65241506080008
 30
0.0
 10
51.74930152429988
 20
61.71050791089999
 30
0.0
 10
51.62772703269991
 20
61.78335624769999
 30
0.0
 10
51.57475506169987
 20
61.82760547060013
 30
0.0
 10
51.55059416879987
 20
61.85141345399994
 30
0.0
1001
ACAD
1000
RTMaterial
1005
0
  0
SPLINE
  5
5ECD6
330
1F
100
AcDbEntity
  8
1
100
AcDbSpline
210
0.0
220
0.0
230
1.0
 70
     8
 71
     3
 72
     9
 73
     5
 74
     0
 42
0.0000000001
 43
0.0000000001
 40
0.0
 40
0.0
 40
0.0
 40
0.0
 40
0.522934083
 40
1.0
 40
1.0
 40
1.0
 40
1.0
 10
51.55059416879987
 20
61.85141345399994
 30
0.0
 10
51.52104764649994
 20
61.88053110680005
 30
0.0
 10
51.46538649559989
 20
61.93708491280006
 30
0.0
 10
51.41417926869985
 20
61.99789994770004
 30
0.0
 10
51.39178213109993
 20
62.0284050757
 30
0.0
1001
ACAD
1000
RTMaterial
1005
0
  0
SPLINE
  5
5ECD7
330
1F
100
AcDbEntity
  8
1
100
AcDbSpline
210
0.0
220
0.0
230
1.0
 70
     8
 71
     3
 72
     9
 73
     5
 74
     0
 42
0.0000000001
 43
0.0000000001
 40
0.0
 40
0.0
 40
0.0
 40
0.0
 40
0.5213465229
 40
1.0
 40
1.0
 40
1.0
 40
1.0
 10
53.03751526719985
 20
74.2035836184001
 30
0.0
 10
53.22739318899994
 20
74.18631088270001
 30
0.0
 10
53.59118009729991
 20
74.14842412300005
 30
0.0
 10
53.9538498584999
 20
74.10085975530012
 30
0.0
 10
54.12697370109992
 20
74.0749723130001
 30
0.0
1001
ACAD
1000
RTMaterial
1005
0
  0
LINE
  5
5ECD8
330
1F
100
AcDbEntity
  8
1
100
AcDbLine
 10
53.03751526719985
 20
58.06605894760004
 30
0.0
 11
54.42734459689984
 21
57.98939658280005
 31
0.0
1001
ACAD
1000
RTMaterial
1005
0
  0
SPLINE
  5
5ECD9
330
1F
100
AcDbEntity
  8
1
100
AcDbSpline
210
0.0
220
0.0
230
1.0
 70
     8
 71
     3
 72
     9
 73
     5
 74
     0
 42
0.0000000001
 43
0.0000000001
 40
0.0
 40
0.0
 40
0.0
 40
0.0
 40
0.2490386075
 40
1.0
 40
1.0
 40
1.0
 40
1.0
 10
52.96231789559988
 20
74.20654373100012
 30
0.0
 10
52.96856616989987
 20
74.20661889990005
 30
0.0
 10
52.99365857529995
 20
74.2066000968
 30
0.0
 10
53.01875007919989
 20
74.20529064220011
 30
0.0
 10
53.03751526719985
 20
74.2035836184001
 30
0.0
1001
ACAD
1000
RTMaterial
1005
0
  0
LINE
  5
5ECDA
330
1F
100
AcDbEntity
  8
1
100
AcDbLine
 10
53.03751526719985
 20
58.06605894760004
 30
0.0
 11
52.96231789559988
 21
58.07052561750004
 31
0.0
1001
ACAD
1000
RTMaterial
1005
0
  0
ELLIPSE
  5
5ED2A
330
1F
100
AcDbEntity
  8
1
100
AcDbEllipse
 10
-4.947892426000066
 20
0.0
 30
0.0
 11
-86.02755486090002
 21
-57.30843142329998
 31
0.0
210
0.0
220
0.0
230
0.9999999999999998
 40
0.5524295597
 41
-2.596285595499999
 42
-2.592301074099998
1001
ACAD
1000
RTMaterial
1005
0
  0
ELLIPSE
  5
5ED2B
330
1F
100
AcDbEntity
  8
1
100
AcDbEllipse
 10
38.99497112869994
 20
0.0
 30
0.0
 11
11.27338926340002
 21
74.4000667773
 31
0.0
210
0.0
220
0.0
230
1.0
 40
0.2418325815
 41
-0.1441689806
 42
-0.1104013705
1001
ACAD
1000
RTMaterial
1005
0
  0
ELLIPSE
  5
5ED2C
330
1F
100
AcDbEntity
  8
1
100
AcDbEllipse
 10
-18.83120992270017
 20
0.0
 30
0.0
 11
71.25674493920001
 21
74.34702416879997
 31
0.0
210
0.0
220
0.0
230
1.0
 40
0.054933693
 41
-0.1463857587
 42
-0.1430341916
1001
ACAD
1000
RTMaterial
1005
0
  0
ELLIPSE
  5
5ED2D
330
1F
100
AcDbEntity
  8
1
100
AcDbEllipse
 10
51.14691301209984
 20
68.77460168430002
 30
0.0
 11
-2.522367721899998
 21
0.3806746899000007
 31
0.0
210
0.0
220
0.0
230
1.0
 40
0.0812499867
 41
-0.46007086
 42
-0.1980372578
1001
ACAD
1000
RTMaterial
1005
0
  0
ELLIPSE
  5
5ED2E
330
1F
100
AcDbEntity
  8
1
100
AcDbEllipse
 10
53.12510458809993
 20
62.99871065180003
 30
0.0
 11
2.5101397666
 21
5.007725841299999
 31
0.0
210
0.0
220
0.0
230
1.0
 40
0.2559254971
 41
1.7674061774
 42
1.787672183399999
1001
ACAD
1000
RTMaterial
1005
0
  0
ELLIPSE
  5
5ED2F
330
1F
100
AcDbEntity
  8
1
100
AcDbEllipse
 10
54.0349631810999
 20
60.98902117540001
 30
0.0
 11
-1.787733713499999
 21
0.4188311815000004
 31
0.0
210
0.0
220
0.0
230
1.0
 40
0.0228552043
 41
7.0980306246
 42
9.139556816799998
1001
ACAD
1000
RTMaterial
1005
0
  0
ELLIPSE
  5
5ED30
330
1F
100
AcDbEntity
  8
1
100
AcDbEllipse
 10
624.3350326435001
 20
-54.27796302260003
 30
0.0
 11
-617.4061554191998
 21
124.3128589103002
 31
0.0
210
0.0
220
0.0
230
1.0
 40
0.0091223715
 41
0.4054304762000001
 42
0.4174804898
1001
ACAD
1000
RTMaterial
1005
0
  0
ELLIPSE
  5
5ED31
330
1F
100
AcDbEntity
  8
1
100
AcDbEllipse
 10
-4.539261600300051
 20
0.0
 30
0.0
 11
-75.59093966200001
 21
-71.07839822059998
 31
0.0
210
0.0
220
0.0
230
1.0
 40
0.2930368706
 41
-2.658694678099998
 42
-2.657772513399998
1001
ACAD
1000
RTMaterial
1005
0
  0
ELLIPSE
  5
5ED32
330
1F
100
AcDbEntity
  8
1
100
AcDbEllipse
 10
79.79523259379994
 20
0.0
 30
0.0
 11
-26.11140188509998
 21
73.5710412018
 31
0.0
210
0.0
220
0.0
230
1.0
 40
0.43683336
 41
0.0451737988
 42
0.0493911472
1001
ACAD
1000
RTMaterial
1005
0
  0
ELLIPSE
  5
5ED33
330
1F
100
AcDbEntity
  8
1
100
AcDbEllipse
 10
1070.5905344248
 20
-0.0000000000003411
 30
0.0
 11
-1253.7371762111
 21
74.34868320050039
 31
0.0
210
0.0
220
0.0
230
1.0
 40
0.003096947
 41
0.6118140775000001
 42
0.6239644682
1001
ACAD
1000
RTMaterial
1005
0
  0
ELLIPSE
  5
5ED34
330
1F
100
AcDbEntity
  8
1
100
AcDbEllipse
 10
48.69192175399985
 20
66.77547512690001
 30
0.0
 11
-2.3701875655
 21
0.3525254196000007
 31
0.0
210
0.0
220
0.0
230
1.0
 40
0.0700311318
 41
-1.464172001699999
 42
-1.270882900699999
1001
ACAD
1000
RTMaterial
1005
0
  0
LINE
  5
5ED35
330
1F
100
AcDbEntity
  8
nocut
100
AcDbLine
 10
0.0
 20
0.0
 30
0.0
 11
62.19999999999993
 21
0.0
 31
0.0
  0
DIMENSION
  5
5EDEB
330
1F
100
AcDbEntity
  8
2
100
AcDbDimension
  2
*D8
 10
106.2006382978758
 20
-76.20000000000006
 30
0.0
 11
106.2006382978758
 21
0.0000000000000995
 31
0.0
 70
   160
  1
%%C<>
 71
     5
 42
152.4000000000001
  3
\M+18352\M+18373\M+1815B - ISO-25
100
AcDbAlignedDimension
 13
60.10935575989993
 23
76.20000000000004
 33
0.0
 14
60.10935575989981
 24
-76.20000000000004
 34
0.0
 50
90.0
100
AcDbRotatedDimension
1001
ACAD
1000
DSTYLE
1002
{
1070
   170
1070
     1
1070
     4
1000
%%C[]"
1070
    40
1040
1.0
1070
    76
1070
     1
1070
   143
1040
0.0393700787401575
1070
   171
1070
     3
1070
   173
1070
     1
1070
   271
1070
     8
1070
   285
1070
     4
1070
   344
1005
32F1
1002
}
  0
DIMENSION
  5
5EE03
330
1F
100
AcDbEntity
  8
2
100
AcDbDimension
  2
*D9
 10
94.00613663569911
 20
-68.45000000000005
 30
0.0
 11
89.95613663569915
 21
-1.749999999999991
 31
0.0
 70
    32
  1
%%C<>
 71
     5
 42
136.9000000000001
  3
\M+18352\M+18373\M+1815B - ISO-25
100
AcDbAlignedDimension
 13
63.49999999999988
 23
68.45000000000005
 33
0.0
 14
63.50151680357726
 24
-68.45000000000005
 34
0.0
 50
90.0
100
AcDbRotatedDimension
1001
ACAD
1000
DSTYLE
1002
{
1070
   170
1070
     1
1070
     4
1000
%%C[]"
1070
    40
1040
1.0
1070
    76
1070
     1
1070
   143
1040
0.0393700787401575
1070
   171
1070
     3
1070
   173
1070
     1
1070
   271
1070
     8
1070
   285
1070
     4
1070
   344
1005
32F1
1002
}
  0
DIMENSION
  5
5EE38
330
1F
100
AcDbEntity
  8
2
100
AcDbDimension
  2
*D10
 10
61.49999999999988
 20
90.038973891438
 30
0.0
 11
-5.258333333333438
 21
94.08897389143801
 31
0.0
 70
    32
  1
<>(APMX AT HIGH FEED PROCESS)
 71
     5
 42
2.0
  3
\M+18352\M+18373\M+1815B - ISO-25
100
AcDbAlignedDimension
 13
63.49999999999988
 23
68.54841329713885
 33
0.0
 14
61.49999999999988
 24
74.1265965127252
 34
0.0
100
AcDbRotatedDimension
1001
ACAD
1000
DSTYLE
1002
{
1070
   170
1070
     1
1070
     4
1000
"
1070
    40
1040
1.0
1070
   143
1040
0.0393700787401575
1070
   171
1070
     3
1070
   271
1070
     8
1070
   285
1070
     4
1002
}
  0
DIMENSION
  5
5EE52
330
1F
100
AcDbEntity
  8
2
100
AcDbDimension
  2
*D11
 10
60.4999999999999
 20
101.3364590212534
 30
0.0
 11
33.11666666666656
 21
101.3364590212534
 31
0.0
 70
   160
  1
APMX<>
 71
     5
 42
2.999999999999992
  3
\M+18352\M+18373\M+1815B - ISO-25
100
AcDbAlignedDimension
 13
63.49999999999988
 23
68.54841329713885
 33
0.0
 14
60.4999999999999
 24
74.99650748776514
 34
0.0
100
AcDbRotatedDimension
1001
ACAD
1000
DSTYLE
1002
{
1070
   170
1070
     1
1070
     4
1000
"
1070
    40
1040
1.0
1070
   143
1040
0.0393700787401575
1070
   171
1070
     3
1070
   271
1070
     8
1070
   285
1070
     4
1002
}
  0
DIMENSION
  5
5EE6C
102
{ACAD_XDICTIONARY
360
5EE79
102
}
102
{ACAD_REACTORS
330
5EE83
102
}
330
1F
100
AcDbEntity
  8
2
100
AcDbDimension
  2
*D12
 10
-0.0000000000001105
 20
112.3517471660361
 30
0.0
 11
31.78241904505217
 21
112.3517471660361
 31
0.0
 70
   160
 71
     5
 42
63.5
  3
\M+18352\M+18373\M+1815B - ISO-25
100
AcDbAlignedDimension
 13
63.49999999999988
 23
68.54841329713885
 33
0.0
 14
-0.0000000000001137
 24
59.9125
 34
0.0
100
AcDbRotatedDimension
1001
ACAD
1000
DSTYLE
1002
{
1070
   170
1070
     1
1070
     4
1000
"
1070
    40
1040
1.0
1070
   143
1040
0.0393700787401575
1070
   171
1070
     3
1070
   271
1070
     8
1070
   285
1070
     4
1002
}
  0
DIMENSION
  5
5EE84
102
{ACAD_XDICTIONARY
360
5EE91
102
}
102
{ACAD_REACTORS
330
5EE9B
102
}
330
1F
100
AcDbEntity
  8
sk2
100
AcDbDimension
  2
*D13
 10
-23.06093139486131
 20
-25.39999999999997
 30
0.0
 11
-27.11093139486131
 21
0.000000000000009
 31
0.0
 70
    32
  1
%%C<>
 71
     5
 42
50.79999999999995
  3
\M+18352\M+18373\M+1815B - ISO-25
100
AcDbAlignedDimension
 13
8.999999999999886
 23
25.39999999999998
 33
0.0
 14
8.999999999999886
 24
-25.39999999999998
 34
0.0
 50
90.0
100
AcDbRotatedDimension
1001
ACAD
1000
DSTYLE
1002
{
1070
   170
1070
     1
1070
     4
1000
%%c[]"
1070
    40
1040
1.0
1070
   143
1040
0.0393700787401575
1070
   171
1070
     3
1070
   271
1070
     8
1070
   285
1070
     4
1002
}
  0
DIMENSION
  5
5EE9C
102
{ACAD_XDICTIONARY
360
5EEA9
102
}
102
{ACAD_REACTORS
330
5EEB3
102
}
330
1F
100
AcDbEntity
  8
sk2
100
AcDbDimension
  2
*D14
 10
-35.59046017655749
 20
-61.91250000000001
 30
0.0
 11
-39.64046017655747
 21
0.0000000000000027
 31
0.0
 70
    32
  1
%%C<>
 71
     5
 42
123.825
  3
\M+18352\M+18373\M+1815B - ISO-25
100
AcDbAlignedDimension
 13
1.999999999999884
 23
61.91250000000001
 33
0.0
 14
1.999999999999884
 24
-61.91250000000001
 34
0.0
 50
90.0
100
AcDbRotatedDimension
1001
ACAD
1000
DSTYLE
1002
{
1070
   170
1070
     1
1070
     4
1000
%%c[]"
1070
    40
1040
1.0
1070
   143
1040
0.0393700787401575
1070
   171
1070
     3
1070
   271
1070
     8
1070
   285
1070
     4
1002
}
  0
DIMENSION
  5
5EEB4
102
{ACAD_XDICTIONARY
360
5EEC1
102
}
102
{ACAD_REACTORS
330
5EECB
102
}
330
1F
100
AcDbEntity
  8
sk2
100
AcDbDimension
  2
*D15
 10
42.99999999999989
 20
-91.3161651083085
 30
0.0
 11
21.49999999999989
 21
-87.26616510830849
 31
0.0
 70
    32
 71
     5
 42
43.0
  3
\M+18352\M+18373\M+1815B - ISO-25
100
AcDbAlignedDimension
 13
-0.0000000000001137
 23
-59.9125
 33
0.0
 14
42.99999999999989
 24
-40.0
 34
0.0
100
AcDbRotatedDimension
1001
ACAD
1000
DSTYLE
1002
{
1070
   170
1070
     1
1070
     4
1000
[]"
1070
    40
1040
1.0
1070
   143
1040
0.0393700787401575
1070
   171
1070
     3
1070
   271
1070
     8
1070
   285
1070
     4
1002
}
  0
DIMENSION
  5
5EECC
330
1F
100
AcDbEntity
  8
2
100
AcDbDimension
  2
*D16
 10
61.39999999999986
 20
-91.3161651083085
 30
0.0
 11
94.09166666666658
 21
-91.3161651083085
 31
0.0
 70
   160
  1
<>(MAX)
 71
     5
 42
2.10000000000002
  3
\M+18352\M+18373\M+1815B - ISO-25
100
AcDbAlignedDimension
 13
63.49999999999988
 23
68.54841329713885
 33
0.0
 14
61.39999999999986
 24
61.04746542173353
 34
0.0
100
AcDbRotatedDimension
1001
ACAD
1000
DSTYLE
1002
{
1070
   170
1070
     1
1070
     4
1000
"
1070
    40
1040
1.0
1070
   143
1040
0.0393700787401575
1070
   171
1070
     3
1070
   271
1070
     8
1070
   285
1070
     4
1002
}
  0
DIMENSION
  5
5EFE2
330
1F
100
AcDbEntity
  8
2
100
AcDbDimension
  2
*D17
 10
60.13148793739907
 20
73.55195826814117
 30
0.0
 11
82.53270851753693
 21
90.84515209204537
 31
0.0
 70
    36
 71
     5
 42
1.499999999999985
  3
\M+18352\M+18373\M+1815B - ISO-25
100
AcDbRadialDimension
 15
61.43780285740195
 25
74.2892108230895
 35
0.0
 40
0.0
1001
ACAD
1000
DSTYLE
1002
{
1070
   170
1070
     1
1070
     4
1000
R[]"
1070
    40
1040
1.0
1070
    76
1070
     1
1070
   143
1040
0.0393700787401575
1070
   171
1070
     3
1070
   173
1070
     1
1070
   271
1070
     8
1070
   285
1070
     4
1002
}
  0
VIEWPORT
  5
6B
102
{ACAD_XDICTIONARY
360
5F1D9
102
}
330
50
100
AcDbEntity
 67
     1
  8
0
100
AcDbViewport
 10
155.3592437148233
 20
160.4455827878762
 30
0.0
 40
349.5854424261001
 41
282.2272140146125
 68
     1
 69
     1
 12
155.3592437148233
 22
160.4455827878762
 13
0.0
 23
0.0
 14
10.0
 24
10.0
 15
10.0
 25
10.0
 16
0.0
 26
0.0
 36
1.0
 17
0.0
 27
0.0
 37
0.0
 42
50.0
 43
0.0
 44
0.0
 45
282.2272140146125
 50
0.0
 51
0.0
 72
  1000
 90
    32864
  1

281
     0
 71
     1
 74
     0
110
0.0
120
0.0
130
0.0
111
1.0
121
0.0
131
0.0
112
0.0
122
1.0
132
0.0
 79
     0
146
0.0
  0
VIEWPORT
  5
6D
102
{ACAD_XDICTIONARY
360
5F1DB
102
}
330
50
100
AcDbEntity
 67
     1
  8
0
100
AcDbViewport
 10
133.3499939441681
 20
101.5999939441681
 30
0.0
 40
213.3599903106689
 41
162.5599903106689
 68
     2
 69
     2
 12
210.0
 22
148.5
 13
0.0
 23
0.0
 14
10.0
 24
10.0
 15
10.0
 25
10.0
 16
0.0
 26
0.0
 36
1.0
 17
0.0
 27
0.0
 37
0.0
 42
50.0
 43
0.0
 44
0.0
 45
324.0677920111345
 50
0.0
 51
0.0
 72
   100
 90
    32864
  1

281
     0
 71
     1
 74
     0
110
0.0
120
0.0
130
0.0
111
1.0
121
0.0
131
0.0
112
0.0
122
1.0
132
0.0
 79
     0
146
0.0
  0
ENDSEC
  0
SECTION
  2
OBJECTS
  0
DICTIONARY
  5
C
330
0
100
AcDbDictionary
281
     1
  3
ACAD_COLOR
350
85
  3
ACAD_GROUP
350
D
  3
ACAD_LAYOUT
350
1A
  3
ACAD_MATERIAL
350
84
  3
ACAD_MLINESTYLE
350
17
  3
ACAD_PLOTSETTINGS
350
19
  3
ACAD_PLOTSTYLENAME
350
E
  3
ACAD_TABLESTYLE
350
A1
  3
ACDBHEADERROUNDTRIPXREC
350
5F1D4
  3
AcDbVariableDictionary
350
5E
  3
ASE_INDEX_DICTIONARY
350
349E9
  3
DWGPROPS
350
5F1D3
  0
DICTIONARY
  5
E2
330
2
100
AcDbDictionary
280
     1
281
     1
  3
ACAD_LAYERFILTERS
360
5F13F
  3
ACAD_LAYERSTATES
360
3759A
  3
ACLYDICTIONARY
360
5F13E
  0
DICTIONARY
  5
31EE
330
1F
100
AcDbDictionary
280
     1
281
     1
  3
ACAD_SORTENTS
360
31EF
  0
DICTIONARY
  5
43668
330
680
100
AcDbDictionary
280
     1
281
     1
  3
ACAD_SORTENTS
360
43669
  0
DICTIONARY
  5
5F1DD
330
71
100
AcDbDictionary
280
     1
281
     1
  3
ACAD_XREC_ROUNDTRIP
360
5F1DE
  0
DICTIONARY
  5
5F1DF
330
73
100
AcDbDictionary
280
     1
281
     1
  3
ACAD_XREC_ROUNDTRIP
360
5F1E0
  0
DICTIONARY
  5
5EE79
330
5EE6C
100
AcDbDictionary
280
     1
281
     1
  3
ACAD_DIMASSOC
360
5EE83
  0
DICTIONARY
  5
5EE91
330
5EE84
100
AcDbDictionary
280
     1
281
     1
  3
ACAD_DIMASSOC
360
5EE9B
  0
DICTIONARY
  5
5EEA9
330
5EE9C
100
AcDbDictionary
280
     1
281
     1
  3
ACAD_DIMASSOC
360
5EEB3
  0
DICTIONARY
  5
5EEC1
330
5EEB4
100
AcDbDictionary
280
     1
281
     1
  3
ACAD_DIMASSOC
360
5EECB
  0
DICTIONARY
  5
5F1D9
330
6B
100
AcDbDictionary
280
     1
281
     1
  3
ACAD_XREC_ROUNDTRIP
360
5F1DA
  0
DICTIONARY
  5
5F1DB
330
6D
100
AcDbDictionary
280
     1
281
     1
  3
ACAD_XREC_ROUNDTRIP
360
5F1DC
  0
DICTIONARY
  5
85
102
{ACAD_REACTORS
330
C
102
}
330
C
100
AcDbDictionary
281
     1
  0
DICTIONARY
  5
D
102
{ACAD_REACTORS
330
C
102
}
330
C
100
AcDbDictionary
281
     1
  0
DICTIONARY
  5
1A
102
{ACAD_REACTORS
330
C
102
}
330
C
100
AcDbDictionary
281
     1
  3
\M+1838C\M+18343\M+18341\M+18345\M+183671
350
51
  3
\M+1838C\M+18343\M+18341\M+18345\M+183672
350
56
  3
Model
350
22
  0
DICTIONARY
  5
84
102
{ACAD_REACTORS
330
C
102
}
330
C
100
AcDbDictionary
281
     1
  0
DICTIONARY
  5
17
102
{ACAD_REACTORS
330
C
102
}
330
C
100
AcDbDictionary
281
     1
  3
Standard
350
18
  0
DICTIONARY
  5
19
102
{ACAD_REACTORS
330
C
102
}
330
C
100
AcDbDictionary
281
     1
  0
ACDBDICTIONARYWDFLT
  5
E
102
{ACAD_REACTORS
330
C
102
}
330
C
100
AcDbDictionary
281
     1
  3
Normal
350
F
100
AcDbDictionaryWithDefault
340
F
  0
DICTIONARY
  5
A1
102
{ACAD_REACTORS
330
C
102
}
330
C
100
AcDbDictionary
281
     1
  3
Standard
350
A2
  0
DICTIONARY
  5
5F1D4
102
{ACAD_REACTORS
330
C
102
}
330
C
100
AcDbDictionary
281
     1
  0
DICTIONARY
  5
5E
102
{ACAD_REACTORS
330
C
102
}
330
C
100
AcDbDictionary
281
     1
  3
CTABLESTYLE
350
B8
  3
DIMASSOC
350
5F
  3
HIDETEXT
350
63
  3
PROJECTNAME
350
31CE
  0
DICTIONARY
  5
349E9
102
{ACAD_REACTORS
330
C
102
}
330
C
100
AcDbDictionary
281
     1
  3
ASEBlockHierarchyIndexRecord
350
349EA
1001
DCO15
1040
1842496176.844
  0
XRECORD
  5
5F1D3
102
{ACAD_REACTORS
330
C
102
}
330
C
100
AcDbXrecord
280
     1
  1
DWGPROPS COOKIE
  2

  3

  4

  6

  7

  8

  9

300
=
301
=
302
=
303
=
304
=
305
=
306
=
307
=
308
=
309
=
 40
1.928937962962963
 41
2455489.391063368
 42
2458416.575040058
  1

 90
        0
  0
DICTIONARY
  5
5F13F
102
{ACAD_REACTORS
330
E2
102
}
330
E2
100
AcDbDictionary
281
     1
  0
DICTIONARY
  5
3759A
102
{ACAD_REACTORS
330
E2
102
}
330
E2
100
AcDbDictionary
281
     1
  0
DICTIONARY
  5
5F13E
102
{ACAD_REACTORS
330
E2
102
}
330
E2
100
AcDbDictionary
281
     1
1001
ACAD
1000
<All
  0
SORTENTSTABLE
  5
31EF
102
{ACAD_REACTORS
330
31EE
102
}
330
31EE
100
AcDbSortentsTable
330
1F
331
5ECD0
  5
5ECD6
331
5EC5A
  5
5EC60
331
5E22C
  5
5E232
331
5E1DD
  5
5E1DF
331
5E1A6
  5
5E1A6
331
5E1E5
  5
5E1EB
331
5E1AE
  5
5E1AE
331
5E1ED
  5
5E1F3
331
5ECD8
  5
5ECE5
331
5E26B
  5
5E271
331
5E1F5
  5
5E1FB
331
5EC62
  5
5EC68
331
5EC99
  5
5EC9F
331
5ECA1
  5
5ECA7
331
5E23C
  5
5E242
331
5E1FD
  5
5E203
331
5EC6A
  5
5EC70
331
5EC72
  5
5EC78
331
5E244
  5
5E24A
331
5ECA9
  5
5ECAF
331
5ED30
  5
5EDE4
331
5E205
  5
5E20B
331
5EC7A
  5
5EC80
331
5ECB1
  5
5ECB7
331
5E20D
  5
5E213
331
5E24C
  5
5E253
331
5EC3B
  5
5EC41
331
5E1BE
  5
5E1C0
331
5E1CE
  5
5E1D0
331
5DDB7
  5
5DDB7
331
5E1D6
  5
5E1D8
331
5EC43
  5
5EC49
331
5EC82
  5
5EC88
331
5E254
  5
5E25A
331
5ECB9
  5
5ECBF
331
5ECC1
  5
5ECC7
331
5E25C
  5
5E262
331
5EC4B
  5
5EC51
331
5EC8A
  5
5EC90
331
5ECC9
  5
5ECCF
331
5E264
  5
5E26A
331
5EC53
  5
5EC59
331
5E225
  5
5E22C
331
5EC92
  5
5EC98
331
5ECD1
  5
5ECD7
331
5E22D
  5
5E23B
331
5EC5B
  5
5EC61
331
5E19F
  5
5E19F
331
5E1DE
  5
5E1E0
331
5E1E6
  5
5E1EC
331
5E1A7
  5
5E1A7
331
5E1EE
  5
5E1F4
331
5E1AF
  5
5E1AF
331
5EC63
  5
5EC69
331
5EC9A
  5
5ECA0
331
5E1F6
  5
5E1FC
331
5E26C
  5
5E282
331
5ECD9
  5
5ECE6
331
5EC6B
  5
5EC71
331
5E1FE
  5
5E204
331
5E23D
  5
5E243
331
5ECA2
  5
5ECA8
331
5ED31
  5
5EDE5
331
5EC34
  5
5EC3A
331
5EC73
  5
5EC79
331
5E206
  5
5E20C
331
5E245
  5
5E24B
331
5ECAA
  5
5ECB0
331
5ECB2
  5
5ECB8
331
5E24D
  5
5E254
331
5EC3C
  5
5EC42
331
5E20E
  5
5E214
331
5EC7B
  5
5EC81
331
5E1BF
  5
5E1C1
331
5DDB8
  5
5DDB8
331
5E1CF
  5
5E1D1
331
5E1D7
  5
5E1D9
331
5EC83
  5
5EC89
331
5ECBA
  5
5ECC0
331
5E255
  5
5E25B
331
5EC44
  5
5EC4A
331
5E216
  5
5E21C
331
5EC8B
  5
5EC91
331
5ECC2
  5
5ECC8
331
5E25D
  5
5E263
331
5EC4C
  5
5EC52
331
5EC54
  5
5EC5A
331
5EC93
  5
5EC99
331
5E226
  5
5E22D
331
5E265
  5
5E26B
331
5ECCA
  5
5ECD0
331
5ECD2
  5
5ECD8
331
5EC5C
  5
5EC62
331
5E1DF
  5
5E1E1
331
5E1A0
  5
5E1A0
331
5E1A8
  5
5E1A8
331
5E1E7
  5
5E1ED
331
5E1B0
  5
5E1B0
331
5E1EF
  5
5E1F5
331
68C
  5
435D5
331
5ECDA
  5
5ED2F
331
5EDEB
  5
5EE03
331
5E26D
  5
5E283
331
5EC64
  5
5EC6A
331
5E1F7
  5
5E1FD
331
5E236
  5
5E23C
331
5EC9B
  5
5ECA1
331
5ECA3
  5
5ECA9
331
5EE03
  5
5EE37
331
5ED2A
  5
5ED30
331
5E23E
  5
5E244
331
5E1FF
  5
5E205
331
5EC6C
  5
5EC72
331
5EC74
  5
5EC7A
331
5E207
  5
5E20D
331
5E246
  5
5E24C
331
5ECAB
  5
5ECB1
331
5ED32
  5
5EDE6
331
5EC7C
  5
5EC82
331
5ECB3
  5
5ECB9
331
5E24E
  5
5E255
331
5EC3D
  5
5EC43
331
5CD11
  5
5CD11
331
5E1C0
  5
5E1C2
331
5DDB9
  5
5DDB9
331
5E1D0
  5
5E1D2
331
5EC45
  5
5EC4B
331
5EC84
  5
5EC8A
331
5E217
  5
5E21D
331
5E256
  5
5E25C
331
5ECBB
  5
5ECC1
331
5ECC3
  5
5ECC9
331
5E25E
  5
5E264
331
5EC4D
  5
5EC53
331
5EC8C
  5
5EC92
331
5EC94
  5
5EC9A
331
5ECCB
  5
5ECD1
331
5E266
  5
5E26C
331
5EC55
  5
5EC5B
331
5E227
  5
5E22E
331
5ECD3
  5
5ECD9
331
5EC5D
  5
5EC63
331
5E1D8
  5
5E1DA
331
5E1A1
  5
5E1A1
331
5E1E0
  5
5E1E2
331
5E1E8
  5
5E1EE
331
5E1A9
  5
5E1A9
331
5E1B1
  5
5E1B1
331
5E1F0
  5
5E1F6
331
5EC65
  5
5EC6B
331
5EC9C
  5
5ECA2
331
5E1F8
  5
5E1FE
331
5E237
  5
5E23D
331
5E26E
  5
5E284
331
5ED2B
  5
5ED31
331
5EC6D
  5
5EC73
331
5E200
  5
5E206
331
5E23F
  5
5E245
331
5ECA4
  5
5ECAA
331
5ED33
  5
5EDE7
331
5EC36
  5
5EC3C
331
5EC75
  5
5EC7B
331
5E208
  5
5E20E
331
5E247
  5
5E24D
331
5ECAC
  5
5ECB2
331
5ECB4
  5
5ECBA
331
5E24F
  5
5E256
331
5EC3E
  5
5EC44
331
5EC7D
  5
5EC83
331
5E1B9
  5
5E1B9
331
5E1C1
  5
5E1C3
331
5E1D1
  5
5E1D3
331
5EC85
  5
5EC8B
331
5ECBC
  5
5ECC2
331
5E218
  5
5E21E
331
5E257
  5
5E25D
331
5EC46
  5
5EC4C
331
5EC8D
  5
5EC93
331
5ECC4
  5
5ECCA
331
5E25F
  5
5E265
331
5EC4E
  5
5EC54
331
5EC56
  5
5EC5C
331
5EC95
  5
5EC9B
331
5E267
  5
5E26D
331
5ECCC
  5
5ECD2
331
5ECD4
  5
5ECDA
331
5EC5E
  5
5EC64
331
5E1D9
  5
5E1DB
331
5E1A2
  5
5E1A2
331
5E1E1
  5
5E1E3
331
5E1AA
  5
5E1AA
331
5E1E9
  5
5E1EF
331
5E1B2
  5
5E1B2
331
5E1F1
  5
5E1F7
331
5EC9D
  5
5ECA3
331
5E26F
  5
5E285
331
5EC66
  5
5EC6C
331
5E1F9
  5
5E1FF
331
5E238
  5
5E23E
331
5ECA5
  5
5ECAB
331
5ED2C
  5
5ED32
331
5E240
  5
5E246
331
5E201
  5
5E207
331
5EC6E
  5
5EC74
331
5EC76
  5
5EC7C
331
5ECAD
  5
5ECB3
331
5E209
  5
5E20F
331
5E248
  5
5E24E
331
5EC37
  5
5EC3D
331
5ED34
  5
5EDE8
331
5EC3F
  5
5EC45
331
5EC7E
  5
5EC84
331
5ECB5
  5
5ECBB
331
5E1BA
  5
5E1BA
331
5E1C2
  5
5E1C4
331
5E1CA
  5
5E1CC
331
5DDB3
  5
5DDB3
331
5E1D2
  5
5E1D4
331
5E250
  5
5E257
331
5EC47
  5
5EC4D
331
5EC86
  5
5EC8C
331
5E219
  5
5E21F
331
5E258
  5
5E25E
331
5ECBD
  5
5ECC3
331
5ECC5
  5
5ECCB
331
5E260
  5
5E266
331
5EC4F
  5
5EC55
331
5EC8E
  5
5EC94
331
5EC96
  5
5EC9C
331
5ECCD
  5
5ECD3
331
5E229
  5
5E22F
331
5EC57
  5
5EC5D
331
5ECD5
  5
5ECE2
331
5E1A3
  5
5E1A3
331
5E1E2
  5
5E1E4
331
5E1EA
  5
5E1F0
331
5E1AB
  5
5E1AB
331
5E1B3
  5
5E1B3
331
5E268
  5
5E26E
331
5E1F2
  5
5E1F8
331
5EC67
  5
5EC6D
331
5EC9E
  5
5ECA4
331
5E1FA
  5
5E200
331
5E239
  5
5E23F
331
5E270
  5
5E286
331
5ED2D
  5
5ED33
331
5EC6F
  5
5EC75
331
5E202
  5
5E208
331
5E241
  5
5E247
331
5ECA6
  5
5ECAC
331
5ECAE
  5
5ECB4
331
5ED35
  5
5EDE9
331
5EC38
  5
5EC3E
331
5EC77
  5
5EC7D
331
5E20A
  5
5E210
331
5E249
  5
5E24F
331
5ECB6
  5
5ECBC
331
5EC7F
  5
5EC85
331
5E1BB
  5
5E1BB
331
5E1C3
  5
5E1C5
331
5DDB4
  5
5DDB4
331
5E1CB
  5
5E1CD
331
5E1D3
  5
5E1D5
331
5EC40
  5
5EC46
331
5E212
  5
5E218
331
5EC87
  5
5EC8D
331
5ECBE
  5
5ECC4
331
5E21A
  5
5E220
331
5E259
  5
5E25F
331
5EC48
  5
5EC4E
331
5EC50
  5
5EC56
331
5EC8F
  5
5EC95
331
5E261
  5
5E267
331
5ECC6
  5
5ECCC
331
5EC58
  5
5EC5E
331
5E22A
  5
5E230
331
5EC97
  5
5EC9D
331
5ECCE
  5
5ECD4
331
5ECD6
  5
5ECE3
331
5E1A4
  5
5E1A4
331
5E1E3
  5
5E1E5
331
5E1AC
  5
5E1AC
331
5E1EB
  5
5E1F1
331
5E1B4
  5
5E1B4
331
5E269
  5
5E26F
331
5E1F3
  5
5E1F9
331
5EC9F
  5
5ECA5
331
5E23A
  5
5E240
331
5E271
  5
5EC39
331
5E1FB
  5
5E201
331
5EC68
  5
5EC6E
331
5ECA7
  5
5ECAD
331
5ED2E
  5
5ED34
331
5E242
  5
5E248
331
5E203
  5
5E209
331
5EC70
  5
5EC76
331
5EC78
  5
5EC7E
331
5ECAF
  5
5ECB5
331
5E20B
  5
5E211
331
5E24A
  5
5E250
331
5EC39
  5
5EC3F
331
5ECB7
  5
5ECBD
331
5E1BC
  5
5E1BE
331
5E1CC
  5
5E1CE
331
5E1D4
  5
5E1D6
331
5EC41
  5
5EC47
331
5EC80
  5
5EC86
331
5E252
  5
5E258
331
5ECBF
  5
5ECC5
331
5EC49
  5
5EC4F
331
5EC88
  5
5EC8E
331
5E25A
  5
5E260
331
5ECC7
  5
5ECCD
331
5E262
  5
5E268
331
5EC51
  5
5EC57
331
5E223
  5
5E22B
331
5EC90
  5
5EC96
331
5ECCF
  5
5ECD5
331
5E22B
  5
5E231
331
5EC59
  5
5EC5F
331
5ECD7
  5
5ECE4
331
5E1A5
  5
5E1A5
331
5E1E4
  5
5E1E6
331
5E1EC
  5
5E1F2
331
5E1AD
  5
5E1AD
331
5E1B5
  5
5E1B5
331
5EC61
  5
5EC67
331
5EC98
  5
5EC9E
331
5E26A
  5
5E270
331
5E1F4
  5
5E1FA
331
5EC69
  5
5EC6F
331
5E1FC
  5
5E202
331
5E23B
  5
5E241
331
5ECA0
  5
5ECA6
331
5ED2F
  5
5ED35
331
5EC71
  5
5EC77
331
5E204
  5
5E20A
331
5E243
  5
5E249
331
5ECA8
  5
5ECAE
331
5ECB0
  5
5ECB6
331
5E24B
  5
5E252
331
5EC3A
  5
5EC40
331
5E20C
  5
5E212
331
5EC79
  5
5EC7F
331
5E1BD
  5
5E1BF
331
5DDAE
  5
5DDAE
331
5E1CD
  5
5E1CF
331
5E1D5
  5
5E1D7
331
5ECB8
  5
5ECBE
331
5E253
  5
5E259
331
5EC42
  5
5EC48
331
5EC81
  5
5EC87
331
5EC89
  5
5EC8F
331
5ECC0
  5
5ECC6
331
5E25B
  5
5E261
331
5EC4A
  5
5EC50
331
5EC52
  5
5EC58
331
5EC91
  5
5EC97
331
5E263
  5
5E269
331
5ECC8
  5
5ECCE
  0
SORTENTSTABLE
  5
43669
102
{ACAD_REACTORS
330
43668
102
}
330
43668
100
AcDbSortentsTable
330
680
  0
XRECORD
  5
5F1DE
102
{ACAD_REACTORS
330
5F1DD
102
}
330
5F1DD
100
AcDbXrecord
280
     1
102
SHADEPLOT
 70
     0
  0
XRECORD
  5
5F1E0
102
{ACAD_REACTORS
330
5F1DF
102
}
330
5F1DF
100
AcDbXrecord
280
     1
102
SHADEPLOT
 70
     0
  0
DIMASSOC
  5
5EE83
102
{ACAD_REACTORS
330
5EE79
102
}
330
5EE79
100
AcDbDimAssoc
330
5EE6C
 90
        2
 70
     0
 71
     0
  1
AcDbOsnapPointRef
 72
     1
331
5E23E
 73
     2
 91
        0
 40
3.141592653589792
 10
0.0
 20
0.0
 30
2.000000000000000E+50
 75
     0
  0
DIMASSOC
  5
5EE9B
102
{ACAD_REACTORS
330
5EE91
102
}
330
5EE91
100
AcDbDimAssoc
330
5EE84
 90
        3
 70
     0
 71
     0
  1
AcDbOsnapPointRef
 72
     1
331
5E1D0
 73
     2
 91
        0
 40
0.9999999999999998
 10
0.0
 20
0.0
 30
2.000000000000000E+50
 75
     0
  1
AcDbOsnapPointRef
 72
     1
331
5E1AA
 73
     2
 91
        0
 40
0.9999999999999998
 10
0.0
 20
0.0
 30
2.000000000000000E+50
 75
     0
  0
DIMASSOC
  5
5EEB3
102
{ACAD_REACTORS
330
5EEA9
102
}
330
5EEA9
100
AcDbDimAssoc
330
5EE9C
 90
        3
 70
     0
 71
     0
  1
AcDbOsnapPointRef
 72
    13
331
5E23E
 73
     2
 91
        0
 40
1.570796326794896
 10
0.0
 20
0.0
 30
2.000000000000000E+50
 75
     0
  1
AcDbOsnapPointRef
 72
     1
331
5E23F
 73
     2
 91
        0
 40
4.712388980384688
 10
0.0
 20
0.0
 30
2.000000000000000E+50
 75
     0
  0
DIMASSOC
  5
5EECB
102
{ACAD_REACTORS
330
5EEC1
102
}
330
5EEC1
100
AcDbDimAssoc
330
5EEB4
 90
        3
 70
     0
 71
     0
  1
AcDbOsnapPointRef
 72
    13
331
5E23F
 73
     2
 91
        0
 40
3.141592653589792
 10
0.0
 20
0.0
 30
2.000000000000000E+50
 75
     0
  1
AcDbOsnapPointRef
 72
    13
331
5E241
 73
     2
 91
        0
 40
3.141592653589792
 10
0.0
 20
0.0
 30
2.000000000000000E+50
 75
     0
  0
XRECORD
  5
5F1DA
102
{ACAD_REACTORS
330
5F1D9
102
}
330
5F1D9
100
AcDbXrecord
280
     1
102
SHADEPLOT
 70
     0
  0
XRECORD
  5
5F1DC
102
{ACAD_REACTORS
330
5F1DB
102
}
330
5F1DB
100
AcDbXrecord
280
     1
102
SHADEPLOT
 70
     0
  0
LAYOUT
  5
51
102
{ACAD_XDICTIONARY
360
B2
102
}
102
{ACAD_REACTORS
330
1A
102
}
330
1A
100
AcDbPlotSettings
  1

  2
none_device
  4
Letter_(8.50_x_11.00_Inches)
  6

 40
6.349999904632567
 41
6.349999904632567
 42
6.350006103515625
 43
6.350006103515625
 44
215.8999938964844
 45
279.3999938964844
 46
0.0
 47
0.0
 48
0.0
 49
0.0
140
0.0
141
0.0
142
1.0
143
1.0
 70
   688
 72
     1
 73
     1
 74
     5
  7

 75
    16
147
1.0
148
0.0
149
0.0
100
AcDbLayout
  1
\M+1838C\M+18343\M+18341\M+18345\M+183671
 70
     1
 71
     1
 10
-6.350006103515625
 20
-6.349999904632567
 11
273.0499877929688
 21
209.5499939918518
 12
0.0
 22
0.0
 32
0.0
 14
26.66999878883364
 24
20.31999878883365
 34
0.0
 15
240.0299890995025
 25
182.8799890995025
 35
0.0
146
0.0
 13
0.0
 23
0.0
 33
0.0
 16
1.0
 26
0.0
 36
0.0
 17
0.0
 27
1.0
 37
0.0
 76
     0
330
50
331
6B
  0
LAYOUT
  5
56
102
{ACAD_XDICTIONARY
360
B5
102
}
102
{ACAD_REACTORS
330
1A
102
}
330
1A
100
AcDbPlotSettings
  1

  2
none_device
  4
Letter_(8.50_x_11.00_Inches)
  6

 40
6.349999904632567
 41
6.349999904632567
 42
6.350006103515625
 43
6.350006103515625
 44
215.8999938964844
 45
279.3999938964844
 46
0.0
 47
0.0
 48
0.0
 49
0.0
140
0.0
141
0.0
142
1.0
143
1.0
 70
   688
 72
     1
 73
     1
 74
     5
  7

 75
    16
147
1.0
148
0.0
149
0.0
100
AcDbLayout
  1
\M+1838C\M+18343\M+18341\M+18345\M+183672
 70
     1
 71
     2
 10
-6.350006103515625
 20
-6.349999904632567
 11
273.0499877929688
 21
209.5499939918518
 12
0.0
 22
0.0
 32
0.0
 14
26.66999878883363
 24
20.31999878883363
 34
0.0
 15
240.0299890995026
 25
182.8799890995025
 35
0.0
146
0.0
 13
0.0
 23
0.0
 33
0.0
 16
1.0
 26
0.0
 36
0.0
 17
0.0
 27
1.0
 37
0.0
 76
     0
330
55
331
71
  0
LAYOUT
  5
22
102
{ACAD_XDICTIONARY
360
5F1D5
102
}
102
{ACAD_REACTORS
330
1A
102
}
330
1A
100
AcDbPlotSettings
  1

  2
none_device
  4
ANSI_A_(8.50_x_11.00_Inches)
  6

 40
6.349999904632567
 41
19.04999923706055
 42
6.350006103515625
 43
19.04998779296875
 44
215.8999938964844
 45
279.3999938964844
 46
0.0
 47
0.0
 48
0.0
 49
0.0
140
0.0
141
0.0
142
1.0
143
78.436453180766
 70
 11952
 72
     0
 73
     1
 74
     0
  7

 75
     0
147
0.0127491741332998
148
0.0
149
0.0
100
AcDbLayout
  1
Model
 70
     1
 71
     0
 10
0.0
 20
0.0
 11
12.0
 21
9.0
 12
0.0
 22
0.0
 32
0.0
 14
0.0
 24
0.0
 34
0.0
 15
0.0
 25
0.0
 35
0.0
146
0.0
 13
0.0
 23
0.0
 33
0.0
 16
1.0
 26
0.0
 36
0.0
 17
0.0
 27
1.0
 37
0.0
 76
     0
330
1F
  0
MLINESTYLE
  5
18
102
{ACAD_REACTORS
330
17
102
}
330
17
100
AcDbMlineStyle
  2
STANDARD
 70
     0
  3

 62
   256
 51
90.0
 52
90.0
 71
     2
 49
0.5
 62
   256
  6
BYLAYER
 49
-0.5
 62
   256
  6
BYLAYER
  0
ACDBPLACEHOLDER
  5
F
102
{ACAD_REACTORS
330
E
102
}
330
E
  0
TABLESTYLE
  5
A2
102
{ACAD_REACTORS
330
A1
102
}
330
A1
100
AcDbTableStyle
  3
Standard
 70
     0
 71
     0
 40
1.5
 41
1.5
280
     0
281
     0
  7
Standard
140
4.5
170
     2
 62
     0
 63
     7
283
     0
274
    -2
284
     1
 64
     0
275
    -2
285
     1
 65
     0
276
    -2
286
     1
 66
     0
277
    -2
287
     1
 67
     0
278
    -2
288
     1
 68
     0
279
    -2
289
     1
 69
     0
  7
Standard
140
6.0
170
     5
 62
     0
 63
     7
283
     0
274
    -2
284
     1
 64
     0
275
    -2
285
     1
 65
     0
276
    -2
286
     1
 66
     0
277
    -2
287
     1
 67
     0
278
    -2
288
     1
 68
     0
279
    -2
289
     1
 69
     0
  7
Standard
140
4.5
170
     5
 62
     0
 63
     7
283
     0
274
    -2
284
     1
 64
     0
275
    -2
285
     1
 65
     0
276
    -2
286
     1
 66
     0
277
    -2
287
     1
 67
     0
278
    -2
288
     1
 68
     0
279
    -2
289
     1
 69
     0
  0
DICTIONARYVAR
  5
B8
102
{ACAD_REACTORS
330
5E
102
}
330
5E
100
DictionaryVariables
280
     0
  1
STANDARD
  0
DICTIONARYVAR
  5
5F
102
{ACAD_REACTORS
330
5E
102
}
330
5E
100
DictionaryVariables
280
     0
  1
2
  0
DICTIONARYVAR
  5
63
102
{ACAD_REACTORS
330
5E
102
}
330
5E
100
DictionaryVariables
280
     0
  1
1
  0
DICTIONARYVAR
  5
31CE
102
{ACAD_REACTORS
330
5E
102
}
330
5E
100
DictionaryVariables
280
     0
  1

  0
XRECORD
  5
349EA
102
{ACAD_REACTORS
330
349E9
102
}
330
349E9
100
AcDbXrecord
280
     1
330
68C
330
431D
330
431E
330
4329
330
4334
330
4335
330
4B09
330
4B0A
330
5153
330
5154
330
515D
330
515E
330
516A
330
516B
330
5177
330
5178
330
85B4
330
85B5
330
8620
330
8621
330
862A
330
862B
330
8637
330
8638
330
8644
330
8645
330
9773
330
9774
330
977D
330
977E
330
978A
330
978B
330
9797
330
9798
330
BD86
330
BD87
330
BD8F
330
BD90
330
BD98
330
BDA0
330
BDA1
330
BDDD
330
BDDE
330
BDE7
330
BDE8
330
BDF4
330
BDF5
330
BE01
330
BE02
330
E473
330
E474
330
E48D
330
E48E
330
E485
330
E47C
330
E47D
330
E4CC
330
E4CD
330
E4D7
330
E4D8
330
1C63B
330
1C63C
330
1C705
330
1C706
330
1C719
330
1C71A
330
1C72E
330
1C72F
330
1C738
330
1C739
330
27043
330
27044
330
2703A
330
2703B
330
2CF2C
330
2CF2D
330
2CF38
330
2CF39
330
2CF42
330
2CF43
330
2CF4F
330
2CF50
330
2CF59
330
2CF5A
330
2FA31
330
2FA32
330
2FA3D
330
2FA3E
330
2FA4A
330
2FA4B
330
2FA54
330
2FA55
330
329D8
330
329D9
330
329E1
330
329E2
330
329EA
330
329EB
330
329F3
330
329F4
330
32E63
330
32E64
330
32E6F
330
32E70
330
32E79
330
32E7A
330
32E88
330
32E89
330
32E92
330
32E93
  0
DICTIONARY
  5
B2
330
51
100
AcDbDictionary
280
     1
281
     1
  3
ACAD_XREC_ROUNDTRIP
360
5F1D7
  3
ADSK_XREC_LAYOUTTHUMBNAIL
360
B3
  0
DICTIONARY
  5
B5
330
56
100
AcDbDictionary
280
     1
281
     1
  3
ACAD_XREC_ROUNDTRIP
360
5F1D8
  3
ADSK_XREC_LAYOUTTHUMBNAIL
360
B6
  0
DICTIONARY
  5
5F1D5
330
22
100
AcDbDictionary
280
     1
281
     1
  3
ACAD_XREC_ROUNDTRIP
360
5F1D6
  0
XRECORD
  5
5F1D7
102
{ACAD_REACTORS
330
B2
102
}
330
B2
100
AcDbXrecord
280
     1
102
SHADEPLOT
 70
     0
102
SHADEPLOTRESLEVEL
 70
     2
102
SHADEPLOTCUSTOMDPI
 70
   300
  0
XRECORD
  5
B3
102
{ACAD_REACTORS
330
B2
102
}
330
B2
100
AcDbXrecord
280
     1
310
28000000B40000008B0000000100080000000000BC61000000000000000000000001000000000000FFFFFF0000000000FFFFFF000000000000000000000000000000000000000000000000000000000000000000330000006600000099000000CC000000FF00000000330000333300006633000099330000CC330000FF3300
310
0000660000336600006666000099660000CC660000FF66000000990000339900006699000099990000CC990000FF99000000CC000033CC000066CC000099CC0000CCCC0000FFCC000000FF000033FF000066FF000099FF0000CCFF0000FFFF000000003300330033006600330099003300CC003300FF003300003333003333
310
33006633330099333300CC333300FF33330000663300336633006666330099663300CC663300FF66330000993300339933006699330099993300CC993300FF99330000CC330033CC330066CC330099CC3300CCCC3300FFCC330000FF330033FF330066FF330099FF3300CCFF3300FFFF330000006600330066006600660099
310
006600CC006600FF00660000336600333366006633660099336600CC336600FF33660000666600336666006666660099666600CC666600FF66660000996600339966006699660099996600CC996600FF99660000CC660033CC660066CC660099CC6600CCCC6600FFCC660000FF660033FF660066FF660099FF6600CCFF6600
310
FFFF660000009900330099006600990099009900CC009900FF00990000339900333399006633990099339900CC339900FF33990000669900336699006666990099669900CC669900FF66990000999900339999006699990099999900CC999900FF99990000CC990033CC990066CC990099CC9900CCCC9900FFCC990000FF99
310
0033FF990066FF990099FF9900CCFF9900FFFF99000000CC003300CC006600CC009900CC00CC00CC00FF00CC000033CC003333CC006633CC009933CC00CC33CC00FF33CC000066CC003366CC006666CC009966CC00CC66CC00FF66CC000099CC003399CC006699CC009999CC00CC99CC00FF99CC0000CCCC0033CCCC0066CC
310
CC0099CCCC00CCCCCC00FFCCCC0000FFCC0033FFCC0066FFCC0099FFCC00CCFFCC00FFFFCC000000FF003300FF006600FF009900FF00CC00FF00FF00FF000033FF003333FF006633FF009933FF00CC33FF00FF33FF000066FF003366FF006666FF009966FF00CC66FF00FF66FF000099FF003399FF006699FF009999FF00CC
310
99FF00FF99FF0000CCFF0033CCFF0066CCFF0099CCFF00CCCCFF00FFCCFF0000FFFF0033FFFF0066FFFF0099FFFF00CCFFFF00FFFFFF00000000000D0D0D001A1A1A00282828003535350043434300505050005D5D5D006B6B6B00787878008686860093939300A1A1A100AEAEAE00BBBBBB00C9C9C900D6D6D600E4E4E400
310
F1F1F100FFFFFF0000000000000000000000000000000000000000000000000000000000000000000000000000000000EFEFEFE2E2E2E2E2E2E2E2E2E2E2E2E2E2E2E2E2E2E2E2E2E2E2E2E2E2E2E2E2E2E2E2E2E2E2E2E2E2E2E2E2E2E2E2E2E2E2E2E2E2E2E2E2E2E2E2E2E2E2E2E2E2E2E2E2E2E2E2E2E2E2E2E2E2E2E2
310
E2E2E2E2E2E2E2E2E2E2E2E2E2E2E2E2E2E2E2E2E2E2E2E2E2E2E2E2E2E2E2E2E2E2E2E2E2E2E2E2E2E2E2E2E2E2E2E2E2E2E2E2E2E2E2E2E2E2E2E2E2E2E2E2E2E2E2E2E2E2E2E2E2E2E2E2E2E2E2E2E2E2E2E2E2E2E2E2E2E2E2E2E2E2E2E2E2E2E2E2E2E2E2E2E2E2E2E2E2E2E2E2E2E2E2E2E2E2E2E2E2E2E2E2E2E2E2
310
E2E2E2E2E2E2E2E2E2E2E2E2E2E2E2E2E2E2E2E2E2E2E2E2E2E2E2E2E2E2E2E2E2E2E2E2E2E2E2E2E2E2E2E2E2E2E2E2E2E2E2E2E2E2E2E2E2E2E2E2E2E2E2E2E2E2E2E2E2E2E2E2E2E2E2E2E2E2E2E2E2E2E2E2E2E2E2E2E2E2E2E2E2E2E2E2E2E2E2E2E2E2E2E2E2E2E2E2E2E2E2E2E2E2E2E2E2E2E2E2E2E2E2E2E2E2E2
310
E2E2E2E2E2E2E2E2E2E2E2E2E2E2E2E2E2E2E2E2E2E2E2E2E2E2E2E2F5F5F5F5F5F5F5F5F5F5F5F5F5F5F5F5F5F5F5F5F5F5F5F5F5F5F5F5F5F5F5F5F5F5F5F5F5F5F5F5F5F5F5F5F5F5F5F5F5F5F5F5F5F5F5F5F5F5F5F5F5F5F5F5F5F5F5F5F5F5F5F5F5F5F5F5F5F5F5F5F5F5F5F5F5F5F5F5F5F5F5F5F5F5F5F5F5F5F5
310
F5F5F5F5F5F5F5F5F5F5F5F5F5F5F5F5F5F5F5F5F5F5F5F5F5F5F5F5F5F5F5F5F5F5F5F5F5F5F5F5F5F5F5F5F5F5F5F5F5F5F5F5F5F5F5F5F5F5F5F5F5F5F5F5F5F5F5F5F5F5F5F5F5F5F5F5F5F5F5E2E2F5F5F5F5F5F5F5F5F5F5F5F5F5F5F5F5F5F5F5F5F5F5F5F5F5F5F5F5F5F5F5F5F5F5F5F5F5F5F5F5F5F5F5F5F5F5
310
F5F5F5F5F5F5F5F5F5F5F5F5F5F5F5F5F5F5F5F5F5F5F5F5F5F5F5F5F5F5F5F5F5F5F5F5F5F5F5F5F5F5F5F5F5F5F5F5F5F5F5F5F5F5F5F5F5F5F5F5F5F5F5F5F5F5F5F5F5F5F5F5F5F5F5F5F5F5F5F5F5F5F5F5F5F5F5F5F5F5F5F5F5F5F5F5F5F5F5F5F5F5F5F5F5F5F5F5F5F5F5F5F5F5F5F5F5F5F5F5F5F5F5F5F5F5F5
310
F5F5F5F5F5E2E2F5F5F5F5F5F5F5F5F5F5F5F5F5F5F5F5F5F5F5F5F5F5F5F5F5F5F5F5F5F5F5F5F5F5F5F5F5F5F5F5F5F5F5F5F5F5F5F5F5F5F5F5F5F5F5F5F5F5F5F5F5F5F5F5F5F5F5F5F5F5F5F5F5F5F5F5F5F5F5F5F5F5F5F5F5F5F5F5F5F5F5F5F5F5F5F5F5F5F5F5F5F5F5F5F5F5F5F5F5F5F5F5F5F5F5F5F5F5F5F5
310
F5F5F5F5F5F5F5F5F5F5F5F5F5F5F5F5F5F5F5F5F5F5F5F5F5F5F5F5F5F5F5F5F5F5F5F5F5F5F5F5F5F5F5F5F5F5F5F5F5F5F5F5F5F5F5F5F5F5E2E2F5F5F5F5E2E2E2E2E2E2E2E2F5F5F5F5F5F5F5F5F5E2E2E2E2E2E2E2E2E2E2E2E2E2E2E2F5F5F5F5F5F5F5F5F5E2E2E2E2E2E2E2E2E2E2E2E2E2E2E2E2F5F5F5F5F5F5
310
F5F5E2E2E2E2E2E2E2E2E2E2E2E2E2E2E2E2F5F5F5F5F5F5F5F5E2E2E2E2E2E2E2E2E2E2E2E2E2E2E2E2F5F5F5F5F5F5F5F5E2E2E2E2E2E2E2E2E2E2E2E2E2E2E2E2F5F5F5F5F5F5F5F5F5E2E2E2E2E2E2E2E2E2E2E2E2E2E2E2F5F5F5F5F5F5F5F5F5E2E2E2E2E2E2E2E2F5F5F5F5E2E2F5F5F5F5E2F5F5F5F5F5F5F5F5F5
310
F5F5F5F5F5F5F5F5F5F5F5F5F5F5F5F5F5F5F5F5F5F5F5F5F5F5F5F5F5F5F5F5F5F5F5F5F5F5F5F5F5F5F5F5F5F5F5F5F5F5F5F5F5F5F5F5F5F5F5F5F5F5F5F5F5F5F5F5F5F5F5F5F5F5F5F5F5F5F5F5F5F5F5F5F5F5F5F5F5F5F5F5F5F5F5F5F5F5F5F5F5F5F5F5F5F5F5F5F5F5F5F5F5F5F5F5F5F5F5F5F5F5F5F5F5F5F5
310
F5F5F5F5F5F5F5F5F5F5F5F5F5F5F5F5F5F5F5F5F5F5F5F5F5F5F5F5F5F5F5F5E2F5F5F5F5E2E2F5F5F5F5E2F5F5F5F5F5F5F5F5F5F5F5F5F5F5F5F5F5F5F5F5F5F5F5F5F5F5F5F5F5F5F5F5F5F5F5F5F5F5F5F5F5F5F5F5F5F5F5F5F5F5F5F5F5F5F5F5F5F5F5F5F5F5F5F5F5F5F5F5F5F5F5F5F5F5F5F5F5F5F5F5F5F5F5
310
F5F5F5F5F5F5F5F5F5F5F5F5F5F5F5F5F5F5F5F5F5F5F5F5F5F5F5F5F5F5F5F5F5F5F5F5F5F5F5F5F5F5F5F5F5F5F5F5F5F5F5F5F5F5F5F5F5F5F5F5F5F5F5F5F5F5F5F5F5F5F5F5F5F5F5F5F5F5F5F5F5F5F5F5F5E2F5F5F5F5E2E2F5F5F5F5E2F5F5F5F5F5F5F5F5F5F5F5F5F5F5F5F5F5F5F5F5F5F5F5F5F5F5F5F5F5F5
310
F5F5F5F5F5F5F5F5F5F5F5F5F5F5F5F5F5F5F5F5F5F5F5F5F5F5F5F5F5F5F5F5F5F5F5F5F5F5F5F5F5F5F5F5F5F5F5F5F5F5F5F5F5F5F5F5F5F5F5F5F5F5F5F5F5F5F5F5F5F5F5F5F5F5F5F5F5F5F5F5F5F5F5F5F5F5F5F5F5F5F5F5F5F5F5F5F5F5F5F5F5F5F5F5F5F5F5F5F5F5F5F5F5F5F5F5F5F5F5F5F5F5F5F5F5F5F5
310
F5F5F5F5F5F5F5F5F5F5F5E2F5F5F5F5E2E2F5F5F5F5E2F5F5F5F5F5F5F5F5F5F5F5F5F5F5F5F5F5F5F5F5F5F5F5F5F5F5F5F5F5F5F5F5F5F5F5F5F5F5F5F5F5F5F5F5F5F5F5F5F5F5F5F5F5F5F5F5F5F5F5F5F5F5F5F5F5F5F5F5F5F5F5F5F5F5F5F5F5F5F5F5F5F5F5F5F5F5F5F5F5F5F5F5F5F5F5F5F5F5F5F5F5F5F5F5
310
F5F5F5F5F5F5F5F5F5F5F5F5F5F5F5F5F5F5F5F5F5F5F5F5F5F5F5F5F5F5F5F5F5F5F5F5F5F5F5F5F5F5F5F5F5F5F5F5F5F5F5F5F5F5F5F5F5F5F5F5F5F5F5F5E2F5F5F5F5E2E2F5F5F5F5E2F5F5F5F5F5F5F5F5F5F5F5F5F5F5F5F5F5F5F5F5F5F5F5F5F5F5F5F5F5F5F5F5F5F5F5F5F5F5F5F5F5F5F5F5F5F5F5F5F5F5F5
310
F5F5F5F5F5F5F5F5F5F5F5F5F5F5F5F5F5F5F5F5F5F5F5F5F5F5F5F5F5F5F5F5F5F5F5F5F5F5F5F5F5F5F5F5F5F5F5F5F5F5F5F5F5F5F5F5F5F5F5F5F5F5F5F5F5F5F5F5F5F5F5F5F5F5F5F5F5F5F5F5F5F5F5F5F5F5F5F5F5F5F5F5F5F5F5F5F5F5F5F5F5F5F5F5F5F5F5F5F5F5F5F5F5F5F5F5F5E2F5F5F5F5E2E2F5F5F5
310
F5E2F5F5F5F5F5F5F5F5F5F5F5F5F5F5F5F5F5F5F5F5F5F5F5F5F5F5F5F5F5F5F5F5F5F5F5F5F5F5F5F5F5F5F5F5F5F5F5F5F5F5F5F5F5F5F5F5F5F5F5F5F5F5F5F5F5F5F5F5F5F5F5F5F5F5F5F5F5F5F5F5F5F5F5F5F5F5F5F5F5F5F5F5F5F5F5F5F5F5F5F5F5F5F5F5F5F5F5F5F5F5F5F5F5F5F5F5F5F5F5F5F5F5F5F5F5
310
F5F5F5F5F5F5F5F5F5F5F5F5F5F5F5F5F5F5F5F5F5F5F5F5F5F5F5F5F5F5F5F5F5F5F5F5F5F5F5F5F5F5F5E2F5F5F5F5E2E2F5F5F5F5E2F5F5F5F5F5F5F5F5F5F5F5F5F5F5F5F5F5F5F5F5F5F5F5F5F5F5F5F5F5F5F5F5F5F5F5F5F5F5F5F5F5F5F5F5F5F5F5F5F5F5F5F5F5F5F5F5F5F5F5F5F5F5F5F5F5F5F5F5F5F5F5F5
310
F5F5F5F5F5F5F5F5F5F5F5F5F5F5F5F5F5F5F5F5F5F5F5F5F5F5F5F5F5F5F5F5F5F5F5F5F5F5F5F5F5F5F5F5F5F5F5F5F5F5F5F5F5F5F5F5F5F5F5F5F5F5F5F5F5F5F5F5F5F5F5F5F5F5F5F5F5F5F5F5F5F5F5F5F5F5F5F5F5F5F5F5F5F5F5F5E2F5F5F5F5E2E2F5F5F5F5E2F5F5F5F5F5F5F5F5F5F5F5F5F5F5F5F5F5F5F5
310
F5F5F5F5F5F5F5F5F5F5F5F5F5F5F5F5F5F5F5F5F5F5F5F5F5F5F5F5F5F5F5F5F5F5F5F5F5F5F5F5F5F5F5F5F5F5F5F5F5F5F5F5F5F5F5F5F5F5F5F5F5F5F5F5F5F5F5F5F5F5F5F5F5F5F5F5F5F5F5F5F5F5F5F5F5F5F5F5F5F5F5F5F5F5F5F5F5F5F5F5F5F5F5F5F5F5F5F5F5F5F5F5F5F5F5F5F5F5F5F5F5F5F5F5F5F5F5
310
F5F5F5F5F5F5F5F5F5F5F5F5F5F5F5F5F5F5F5F5F5F5E2F5F5F5F5E2E2F5F5F5F5F5F5F5F5F5F5F5F5F5F5F5F5F5F5F5F5F5F5F5F5F5F5F5F5F5F5F5F5F5F5F5F5F5F5F5F5F5F5F5F5F5F5F5F5F5F5F5F5F5F5F5F5F5F5F5F5F5F5F5F5F5F5F5F5F5F5F5F5F5F5F5F5F5F5F5F5F5F5F5F5F5F5F5F5F5F5F5F5F5F5F5F5F5F5
310
F5F5F5F5F5F5F5F5F5F5F5F5F5F5F5F5F5F5F5F5F5F5F5F5F5F5F5F5F5F5F5F5F5F5F5F5F5F5F5F5F5F5F5F5F5F5F5F5F5F5F5F5F5F5F5F5F5F5F5F5F5F5F5F5F5F5F5F5F5F5F5F5F5F5F5F5F5F5F5F5E2E2F5F5F5F5F5F5F5F5F5F5F5F5F5F5F5F5F5F5F5F5F5F5F5F5F5F5F5F5F5F5F5F5F5F5F5F5F5F5F5F5F5F5F5F5F5
310
F5F5F5F5F5F5F5F5F5F5F5F5F5F5F5F5F5F5F5F5F5F5F5F5F5F5F5F5F5F5F5F5F5F5F5F5F5F5F5F5F5F5F5F5F5F5F5F5F5F5F5F5F5F5F5F5F5F5F5F5F5F5F5F5F5F5F5F5F5F5F5F5F5F5F5F5F5F5F5F5F5F5F5F5F5F5F5F5F5F5F5F5F5F5F5F5F5F5F5F5F5F5F5F5F5F5F5F5F5F5F5F5F5F5F5F5F5F5F5F5F5F5F5F5F5F5F5
310
F5F5F5F5F5F5E2E2F5F5F5F5F5F5F5F5F5F5F5F5F5F5F5F5F5F5F5F5F5F5F5F5F5F5F5F5F5F5F5F5F5F5F5F5F5F5F5F5F5F5F5F5F5F5F5F5F5F5F5F5F5F5F5F5F5F5F5F5F5F5F5F5F5F5F5F5F5F5F5F5F5F5F5F5F5F5F5F5F5F5F5F5F5F5F5F5F5F5F5F5F5F5F5F5F5F5F5F5F5F5F5F5F5F5F5F5F5F5F5F5F5F5F5F5F5F5F5
310
F5F5F5F5F5F5F5F5F5F5F5F5F5F5F5F5F5F5F5F5F5F5F5F5F5F5F5F5F5F5F5F5F5F5F5F5F5F5F5F5F5F5F5F5F5F5F5F5F5F5F5F5F5F5F5F5F5F5F5E2E2F5F5F5F5F5F5F5F5F5F5F5F5F5F5F5F5F5F5F5F5F5F5F5F5F5F5F5F5F5F5F5F5F5F5F5F5F5F5F5F5F5F5F5F5F5F5F5F5F5F5F5F5F5F5F5F5F5F5F5F5F5F5F5F5F5F5
310
F5F5F5F5F5F5F5F5F5F5F5F5F5F5F5F5F5F5F5F5F5F5F5F5F5F5F5F5F5F5F5F5F5F5F5F5F5F5F5F5F5F5F5F5F5F5F5F5F5F5F5F5F5F5F5F5F5F5F5F5F5F5F5F5F5F5F5F5F5F5F5F5F5F5F5F5F5F5F5F5F5F5F5F5F5F5F5F5F5F5F5F5F5F5F5F5F5F5F5F5F5F5F5F5F5F5F5F5F5F5F5F5E2E2F5F5F5F5F5F5F5F5F5F5F5F5F5
310
F5F5F5F5F5F5F5F5E2E2E2E2E2E2E2E2E2E2E2E2E2E2E2E2E2E2E2E2E2E2E2E2E2E2E2E2E2E2E2E2E2E2E2E2E2E2E2E2E2E2E2E2E2E2E2E2E2E2E2E2E2E2E2E2E2E2E2E2E2E2E2E2E2E2E2E2E2E2E2E2E2E2E2E2E2E2E2E2E2E2E2E2E2E2E2E2E2E2E2E2E2E2E2E2E2E2E2E2E2E2E2E2E2E2E2E2E2E2E2E2E2E2E2E2E2E2E2
310
E2E2E2E2E2E2E2E2E2E2E2E2E2E2E2E2E2F5F5F5F5F5F5F5F5F5F5F5F5F5F5F5F5F5F5F5F5F5E2E2F5F5F5F5F5F5F5F5F5F5F5F5F5F5F5F5F5F5F5F5F5E22D2D2D2DF5F5F5F5E2F5F5F5F5F5F5F52DF5F5F5F5F5F5F5F5F5F5F5F5F5F5F5F5F5F5E2F5F5F5F5F5F5F5F5F5F5F5F5F5F5F5F5F5F5F5F5F5F5F5F5F5F5F5F5F5
310
F5F5F5F5F5F5F5F5F5F5F5F5F5F5F5F5F5F5F5F5F5F5F5F5F5F5F5F5F5F5F5F5F5F5F5F5F5F5F5F5F5F5F5F5F5F5F5F5F5F5F5F5F5F5F5F5F5F5F5F5F5F5F5F5F5F5F5F5F5E2F5F5F5F5F5F5F5F5F5F5F5F5F5F5F5F5F5F5F5F5F5E2E2F5F5F5F5F5F5F5F5F5F5F5F5F5F5F5F5F5F5F5F5F5E2DCF5F52DF5F5F5F5E2F5F5F5
310
F5F5F5F52DF5F5F5F5F5F5F5F5F5F5F5F5F5F5F5F5F5F5E2F5F5F5F5F5F5F5F5F5F5F5F5F5F5F5F5F5F5F5F5F5F5F5F5F5F5F5F5F5F5F5F5F5F5F5F5F5F5F5F5F5F5F5F5F5F5F5F5F5F5F5F5F5F5F5F5F5F5F5F5F5F5F5F5F5F5F5F5F5F5F5F5F5F5F5F5F5F5F5F5F5F5F5F5F5F5F5F5F5F5F5F5F5F5F5F5F5F5E2F5F5F5F5
310
F5F5F5F5F5F5F5F5F5F5F5F5F5F5F5F5F5E2E2F5F5F5F5F5F5F5F5F5F5F5F5F5F5F5F5F5F5F5F5F5E2DCF5F52DF5F5F5F5E2F5F5F5F5F5F5F52DF5F5F5F5F5F5F5F5F5F5F5F5F5F5F5F5F5F5E2E2F5F5F5F5F5F5F5F5F5F5F5F5F5F5F5F5F5F5F5F5F5F5F5F5F5F5F5F5F5F5F5F5F5F5F5F5F5F5F5F5F5F5F5F5F5F5F5F5F5
310
F5F5F5F5F5F5F5F5F5F5F5F5F5F5F5F5F5F5F5F5F5F5F5F5F5F5F5F5F5F5F5F5F5F5F5F5F5F5F5F5F5F5F5F5F5F5F5F5E2F5F5F5F5F5F5F5F5F5F5F5F5F5F5F5F5F5F5F5F5F5E2E2F5F5F5F5F5F5F5F5F5F5F5F5F5F5F5F5F5F5F5F5F5E2BEF5F52D2D2D2D2D2D2D2D2D2D2D2D2D2DE2E2E2E2E2E2E2E2E2E2E2E2E2E2E2E2
310
E2E2E2E2F5F5F5F5F5F5F5F5F5F5F5F5F5F5F5F5F5F5F5F5F5F5F5F5F5F5F5F5F5F5F5F5F5F5F5F5F5F5F5F5F5F5F5F5F5F5F5F5F5F5F5F5F5F5F5F5F5F5F5F5F5F5F5F5F5F5F5F5F5F5F5F5F5F5F5F5F5F5F5F5F5F5F5F5F5F5F5F5F5F5F5F5F5F5F5F5F5E2F5F5F5F5F5F5F5F5F5F5F5F5F5F5F5F5F5F5F5F5F5E2E2F5F5
310
F5F5E2F5F5F5F5F5F5F5F5F5F5F5F5F5F5F5F5E2DCF5F5F5F5F5F5F5E2F5F5F5F5F5F5F5E2F5F5F5F5F5F5F5F5F5F5F5F5F5F5F5F5F5F5F5F5F5F5F5F5F5F5F5F5F5F5F5F5F5F5F5F5F5F5F5F5F5F5F5F5F5F5F5F5F5F5F5F5F5F5F5F5F5F5F5F5F5F5F5F5F5F5F5F5F5F5F5F5F5F5F5F5F5F5F5F5F5F5F5F5F5F5F5F5F5F5
310
F5F5F5F5F5F5F5F5F5F5F5F5F5F5F5F5F5F5F5F5F5F5F5F5F5F5F5E2F5F5F5F5F5F5F5F5F5F5F5F5F5F5F5F5E2F5F5F5F5E2E2F5F5F5F5E2F5F5F5F5F5F5F5F5F5F5F5F5F5F5F5F5E2F5F5F5F5F5F5F5F5E2F5F5F5F5F5F5F5E2F5F5F5F5F5F5F5F5F5F5F5F5F5F5F5F5F5F5F5F5F5F5F5F5F5F5F5F5F5F5F5F5F5F5F5F5F5
310
F5F5F5F5F5F5F5F5F5F5F5F5F5F5F5F5F5F5F5F5F5F5F5F5F5F5F5F5F5F5F5F5F5F5F5F5F5F5F5F5F5F5F5F5F5F5F5F5F5F5F5F5F5F5F5F5F5F5F5F5F5F5F5F5F5F5F5F5F5F5F5F5F5F5F5F5F5F5F5F5E2F5F5F5F5F5F5F5F5F5F5F5F5F5F5F5F5E2F5F5F5F5E2E2F5F5F5F5E2F5F5F5F5F5F5F5F5F5F5F5F5F5F5F5F5E2E2
310
E2E2E2E2E2E2E2E2F5F5F5F5F5F5F5E2F5F5F5F5F5F5F5F5F5F5F5F5F5F5F5F5F5F5F5F5F5F5F5F5F5F5F5F5F5F5F5F5F5F5F5F5F5F5F5F5F5F5F5F5F5F5F5F5F5F5F5F5F5F5F5F5F5F5F5F5F5F5F5F5F5F5F5F5F5F5F5F5F5F5F5F5F5F5F5F5F5F5F5F5F5F5F5F5F5F5F5F5F5F5F5F5F5F5F5F5F5F5F5F5F5F5F5F5F5F5F5
310
F5F5F5F5F5F5E2F5F5F5F5F5F5F5F5F5F5F5F5F5F5F5F5E2F5F5F5F5E2E2F5F5F5F5E2F5F5F5F5F5F5F5F5F5F5F5F5F5F5F5F5E2E2E2E2F5F5F5F5F5F5F5F5F5F5F5F5F5E2F5F5F5F5F5F5F5F5F5F5F5F5F5F5F5F5F5F5F5F5F5F5F5F5F5F5F5F5F5F5F5F5F5F5F5F5F5F5F5F5F5F5F5F5F5F5F5F5F5F5F5F5F5F5F5F5F5F5
310
F5F5F5F5F5F5F5F5F5F5F5F5F5F5F5F5F5F5F5F5F5F5F5F5F5F5F5F5F5F5F5F5F5F5F5F5F5F5F5F5F5F5F5F5F5F5F5F5F5F5F5F5F5F5F5F5F5F5F5E2F5F5F5F5F5F5F5F5F5F5F5F5F5F5F5F5E2F5F5F5F5E2E2F5F5F5F5E2F5F5F5F5F5F5F5F5F5F5F5F5F5F5F5F5E2E2E2E2F5F5F5F5F5F5F5F5F5F5F5F5F5E2F5F5F5F5F5
310
F5F5F5F5F5F5F5F5F5F5F5F5F5F5F5F5F5F5F5F5F5F5F5F5F5F5F5F5F5F5F5F5F5F5F5F5F5F5F5F5F5F5F5F5F5F5F5F5F5F5F5F5F5F5F5F5F5F5F5F5F5F5F5F5F5F5F5F5F5F5F5F5F5F5F5F5F5F5F5F5F5F5F5F5F5F5F5F5F5F5F5F5F5F5F5F5F5F5F5F5F5F5F5F5F5F5F5F5F5F5F5F5E2F5F5F5F5F5F5F5F5F5F5F5F5F5F5
310
F5F5E2F5F5F5F5E2E2F5F5F5F5E2F5F5F5F5F5F5F5F5F5F5F5F5F5F5F5F5E2F5F5F5F5F5F5F5F5F5F5F5F5F5F5F5F5E2F5F5F5F5F5F5F5F5F5F5F5F5F5F5F5F5F5F5F5F5F5F5F5F5F5F5F5F5F5F5F5F5F5F5F5F5F5F5F5F5F5F5F5F5F5F5F5F5F5F5F5F5F5F5F5F5F5F5F5F5F5F5F5F5F5F5F5F5F5F5F5F5F5F5F5F5F5F5F5
310
F5F5F5F5F5F5F5F5F5F5F5F5F5F5F5F5F5F5F5F5F5F5F5F5F5F5F5F5F5F5F5F5F5F5F5F5F5F5E2F5F5F5F5F5F5F5F5F5F5F5F5F5F5F5F5E2F5F5F5F5E2E2F5F5F5F5E2F5F5F5F5F5F5F5F5F5F5F5F5F5F5F5F5E2E2E2E2E2E2E2E2E2E2E2E2E2E2E2E2E2E2F5F5F5F5F5F5F5F5F5F5F5F5F5F5F5F5F5F5F5F5F5F5F5F5F5F5
310
F5F5F5F5F5F5F5F5F5F5F5F5F5F5F5F5F5F5F5F5F5F5F5F5F5F5F5F5F5F5F5F5F5F5F5F5F5F5F5F5F5F5F5F5F5F5F5F5F5F5F5F5F5F5F5F5F5F5F5F5F5F5F5F5F5F5F5F5F5F5F5F5F5F5F5F5F5F5F5F5F5F5F5F5F5F5F5F5F5F5F5E2F5F5F5F5F5F5F5F5F5F5F5F5F5F5F5F5E2F5F5F5F5E2E2F5F5F5F5E2F5F5F5F5F5F5F5
310
F5F5F5F5F5F5F5F5F5E2E2E2F5F5F5F5F5F5F5F5F5F5F5F5F5F5F5F5F5F5F5F5F5F5F5F5F5F5F5F5F5F5F5F5F5F5F5F5F5F5F5F5F5F5F5F5F5F5F5F5F5F5F5F5F5F5F5F5F5F5F5F5F5F5F5F5F5F5F5F5F5F5F5F5F5F5F5F5F5F5F5F5F5F5F5F5F5F5F5F5F5F5F5F5F5F5F5F5F5F5F5F5F5F5F5F5F5F5F5F5F5F5F5F5F5F5F5
310
F5F5F5F5F5F5F5F5F5F5F5F5F5F5F5F5F5E2F5F5F5F5F5F5F5F5F5F5F5F5F5F5F5F5E2F5F5F5F5E2E2F5F5F5F5E2F5F5F5F5F5F5F5F5F5F5F5F5F5F5F5F5E2E2E2F5F5F5F5F5F5F5F5F5F5F5F5F5F5F5F5F5F5F5F5F5F5F5F5F5F5F5F5F5F5F5F5F5F5F5F5F5F5F5F5F5F5F5F5F5F5F5F5F5F5F5F5F5F5F5F5F5F5F5F5F5F5
310
F5F5F5F5F5F5F5F5F5F5F5F5F5F5F5F5F5F5F5F5F5F5F5F5F5F5F5F5F5F5F5F5F5F5F5F5F5F5F5F5F5F5F5F5F5F5F5F5F5F5F5F5F5F5F5F5F5F5F5F5F5F5F5F5F5F5F5F5F5F5E2F5F5F5F5F5F5F5F5F5F5F5F5F5F5F5F5E2F5F5F5F5E2E2F5F5F5F5E2F5F5F5F5F5F5F5F5F5F5F5F5F5F5F5F5E2F5F5F5F5F5F5F5F5F5F5F5
310
F5F5F5F5F5F5F5F5F5F5F5F5F5F5F5F5F5F5F5F5F5F5F5F5F5F5F5F5F5F5F5F5F5F5F5F5F5F5F5F5F5F5F5F5F5F5F5F5F5F5F5F5F5F5F5F5F5F5F5F5F5F5F5F5F5F5F5F5F5F5F5F5F5F5F5F5F5F5F5F5F5F5F5F5F5F5F5F5F5F5F5F5F5F5F5F5F5F5F5F5F5F5F5F5F5F5F5F5F5F5F5F5F5F5F5F5F5F5F5F5F5F5F5E2F5F5F5
310
F5F5F5F5F5F5F5F5F5F5F5F5F5E2F5F5F5F5E2E2F5F5F5F5E2F5F5F5F5F5F5F5F5F5F5F5F5F5F5F5F5E20F0F0F0F0F0F0F0F0F0F0FF5F5F5F5F5F5F5F5F5F5F5F5F5F5F5F5F5F5F5F5F5F5F5F5F5F5F5F5F5F5F5F5F5F5F5F5F5F5F5F5F5F5F5F5F5F5F5F5F5F5F5F5F5F5F5F5F5F5F5F5F5F5F5F5F5F5F5F5F5F5F5F5F5F5
310
F5F5F5F5F5F5F5F5F5F5F5F5F5F5F5F5F5F5F5F5F5F5F5F5F5F5F5F5F5F5F5F5F5F5F5F5F5F5F5F5F5F5F5F5F5F5F5F5F5E2F5F5F5F5F5F5F5F5F5F5F5F5F5F5F5F5E2F5F5F5F5E2E2F5F5F5F5E2F5F5F5F5F5F5F5F5F5F5F5F5F5F5F5F5E20F0F0F0F0F0F0F0F0F0FF5F5F5F5F5F5F5F5F5F5F5F5F5F5F5F5F5F5F5F5F5F5
310
F5F5F5F5F5F5F5F5F5F5F5F5F5F5F5F5F5F5F5F5F5F5F5F5F5F5F5F5F5F5F5F5F5F5F5F5F5F5F5F5F5F5F5F5F5F5F5F5F5F5F5F5F5F5F5F5F5F5F5F5F5F5F5F5F5F5F5F5F5F5F5F5F5F5F5F5F5F5F5F5F5F5F5F5F5F5F5F5F5F5F5F5F5F5F5F5F5F5F5F5F5F5E2F5F5F5F5F5F5F5F5F5F5F5F5F5F5F5F5E2F5F5F5F5E2E2F5
310
F5F5F5E2F5F5F5F5F5F5F5F5F5F5F5F5F5F5F5F5E2F5F5F5F5F5F5F5F5F5F5F5F5F5F5F5F5F5F5F5F5F5F5F5F5F5F5F5F5F5F5F5F5F5F5F5F5F5F5F5F5F5F5F5F5F5F5F5F5F5F5F5F5F5F5F5F5F5F5F5F5F5F5F5F5F5F5F5F5F5F5F5F5F5F5F5F5F5F5F5F5F5F5F5F5F5F5F5F5F5F5F5F5F5F5F5F5F5F5F5F5F5F5F5F5F5F5
310
F5F5F5F5F5F5F5F5F5F5F5F5F5F5F5F5F5F5F5F5F5F5F5F5F5F5F5F5E2F5F5F5F5F5F5F5F5F5F5F5F5F5F5F5F5E2F5F5F5F5E2E2F5F5F5F5E2F5F5F5F5F5F5F5F5F5F5F5F5F5F5F5F5E2F5F5F5F5F5F5F5F5F5F5F5F5F5F5F5F5F5F5F5F5F5F5F5F5F5F5F5F5F5F5F5F5F5F5F5F5F5F5F5F5F5F5F5F5F5F5F5F5F5F5F5F5F5
310
F5F5F5F5F5F5F5F5F5F5F5F5F5F5F5F5F5F5F5F5F5F5F5F5F5F5F5F5F5F5F5F5F5F5F5F5F5F5F5F5F5F5F5F5F5F5F5F5F5F5F5F5F5F5F5F5F5F5F5F5F5F5F5F5F5F5F5F5F5F5F5F5F5F5F5F5F5F5F5F5F5E2F5F5F5F5F5F5F5F5F5F5F5F5F5F5F5F5E2F5F5F5F5E2E2F5F5F5F5E2F5F5F5F5F5F5F5F5F5F5F5F5F5F5F5F5E2
310
F5F5F5F5F5F5F5F5F5F5F5F5F5F5F5F5F5F5F5F5F5F5F5F5F5F5F5F5F5F5F5F5F5F5F5F5F5F5F5F5F5F5F5F5F5F5F5F5F5F5F5F5F5F5F5F5F5F5F5F5F5F5F5F5F5F5F5F5F5F5F5F5F5F5F5F5F5F5F5F5F5F5F5F5F5F5F5F5F5F5F5F5F5F5F5F5F5F5F5F5F5F5F5F5F5F5F5F5F5F5F5F5F5F5F5F5F5F5F5F5F5F5F5F5F5F5F5
310
F5F5F5F5F5F5F5E2F5F5F5F5F5F5F5F5F5F5F5F5F5F5F5F5E2F5F5F5F5E2E2F5F5F5F5E2F5F5F5F5F5F5F5F5F5F5F5F5F5F5F5F5E2F5F5F5F5F5F5F5F5F5F5F5F5F5F5F5F5F5F5F5F5F5F5F5F5F5F5F5F5F5F5F5F5F5F5F5F5F5F5F5F5F5F5F5F5F5F5F5F5F5F5F5F5F5F5F5F5F5F5F5F5F5F5F5F5F5F5F5F5F5F5F5F5F5F5
310
F5F5F5F5F5F5F5F5F5F5F5F5F5F5F5F5F5F5F5F5F5F5F5F5F5F5F5F5F5F5F5F5F5F5F5F5F5F5F5F5F5F5F5F5F5F5F5F5F5F5F5F5F5F5F5F5F5F5F5F5E2F5F5F5F5F5F5F5F5F5F5F5F5F5F5F5F5E2F5F5F5F5E2E2F5F5F5F5F5F5F5F5F5F5F5F5F5F5F5F5F5F5F5F5F5E2F5F5F5F5F5F5F5F5F5F5F5F5F5F5F5F5F5F5F5F5F5
310
F5F5F5F5F5F5F5F5F5F5F5F5F5F5F5F5F5F5F5F5F5F5F5F5F5F5F5F5F5F5F5F5F5F5F5F5F5F5F5F5F5F5F5F5F5F5F5F5F5F5F5F5F5F5F5F5F5F5F5F5F5F5F5F5F5F5F5F5F5F5F5F5F5F5F5F5F5F5F5F5F5F5F5F5F5F5F5F5F5F5F5F5F5F5F5F5F5F5F5F5F5F5F5F5F5F5F5F5F5F5F5F5F5E2F5F5F5F5F5F5F5F5F5F5F5F5F5
310
F5F5F5F5F5F5F5F5E2E2F5F5F5F5F5F5F5F5F5F5F5F5F5F5F5F5F5F5F5F5F5E2F5F5F5F5F5F5F5F5F5F5F5F5F5F5F5F5F5F5F5F5F5F5F5F5F5F5F5F5F5F5F5F5F5F5F5F5F5F5F5F5F5F5F5F5F5F5F5F5F5F5F5F5F5F5F5F5F5F5F5F5F5F5F5F5F5F5F5F5F5F5F5F5F5F5F5F5F5F5F5F5F5F5F5F5F5F5F5F5F5F5F5F5F5F5F5
310
F5F5F5F5F5F5F5F5F5F5F5F5F5F5F5F5F5F5F5F5F5F5F5F5F5F5F5F5F5F5F5F5F5F5F5F5F5F5F5E2F5F5F5F5F5F5F5F5F5F5F5F5F5F5F5F5F5F5F5F5F5E2E2F5F5F5F5F5F5F5F5F5F5F5F5F5F5F5F5F5F5F5F5F5E2F5F5F5F5F5F5F5F5F5F5F5F5F5F5F5F5F5F5F5F5F5F5F5F5F5F5F5F5F5F5F5F5F5F5F5F5F5F5F5F5F5F5
310
F5F5F5F5F5F5F5F5F5F5F5F5F5F5F5F5F5F5F5F5F5F5F5F5F5F5F5F5F5F5F5F5F5F5F5F5F5F5F5F5F5F5F5F5F5F5F5F5F5F5F5F5F5F5F5F5F5F5F5F5F5F5F5F5F5F5F5F5F5F5F5F5F5F5F5F5F5F5F5F5F5F5F5F5F5F5F5F5F5F5F5F5E2F5F5F5F5F5F5F5F5F5F5F5F5F5F5F5F5F5F5F5F5F5E2E2F5F5F5F5F5F5F5F5F5F5F5
310
F5F5F5F5F5F5F5F5F5F5E2F5F5F5F5F5F5F5F5F5F5F5F5F5F5F5F5F5F5F5F5F5F5F5F5F5F5F5F5F5F5F5F5F5F5F5F5F5F5F5F5F5F5F5F5F5F5F5F5F5F5F5F5F5F5F5F5F5F5F5F5F5F5F5F5F5F5F5F5F5F5F5F5F5F5F5F5F5F5F5F5F5F5F5F5F5F5F5F5F5F5F5F5F5F5F5F5F5F5F5F5F5F5F5F5F5F5F5F5F5F5F5F5F5F5F5F5
310
F5F5F5F5F5F5F5F5F5F5F5F5F5F5F5F5F5F5E2F5F5F5F5F5F5F5F5F5F5F5F5F5F5F5F5F5F5F5F5F5E2E2F5F5F5F5F5F5F5F5F5F5F5F5F5F5F5F5F5F5F5F5F5E2F5F5F5F5F5F5F5F5F5F5F5F5F5F5F5F5F5F5F5F5F5F5F5F5F5F5F5F5F5F5F5F5F5F5F5F5F5F5F5F5F5F5F5F5F5F5F5F5F5F5F5F5F5F5F5F5F5F5F5F5F5F5F5
310
F5F5F5F5F5F5F5F5F5F5F5F5F5F5F5F5F5F5F5F5F5F5F5F5F5F5F5F5F5F5F5F5F5F5F5F5F5F5F5F5F5F5F5F5F5F5F5F5F5F5F5F5F5F5F5F5F5F5F5F5F5F5F5F5F5F5F5F5F5F5F5E2F5F5F5F5F5F5F5F5F5F5F5F5F5F5F5F5F5F5F5F5F5E2E2F5F5F5F5F5F5F5F5F5F5F5F5F5F5F5F5F5F5F5F5F5E2F5F5F5F5F5F5F5F5F5F5
310
F5F5F5F5F5F5F5F5F5F5F5F5F5F5F5F5F5F5F5F5F5F5F5F5F5F5F5F5F5F5F5F5F5F5F5F5F5F5F5F5F5F5F5F5F5F5F5F5F5F5F5F5F5F5F5F5F5F5F5F5F5F5F5F5F5F5F5F5F5F5F5F5F5F5F5F5F5F5F5F5F5F5F5F5F5F5F5F5F5F5F5F5F5F5F5F5F5F5F5F5F5F5F5F5F5F5F5F5F5F5F5F5F5F5F5F5F5F5F5F5F5F5F5F5E2F5F5
310
F5F5F5F5F5F5F5F5F5F5F5F5F5F5F5F5F5F5F5E2E2F5F5F5F5F5F5F5F5F5F5F5F5F5F5F5F5F5F5F5F5F5E2F5F5F5F5F5F5F5F5F5F5F5F5F5F5F5F5F5F5F5F5F5F5F5F5F5F5F5F5F5F5F5F5F5F5F5F5F5F5F5F5F5F5F5F5F5F5F5F5F5F5F5F5F5F5F5F5F5F5F5F5F5F5F5F5F5F5F5F5F5F5F5F5F5F5F5F5F5F5F5F5F5F5F5F5
310
F5F5F5F5F5F5F5F5F5F5F5F5F5F5F5F5F5F5F5F5F5F5F5F5F5F5F5F5F5F5F5F5F5F5F5F5F5F5F5F5F5F5F5F5F5F5F5F5F5F5E2F5F5F5F5F5F5F5F5F5F5F5F5F5F5F5F5F5F5F5F5F5E2E2F5F5F5F5F5F5F5F5F5F5F5F5F5F5F5F5F5F5F5F5F5E2F5F5F5F5F5F5F5F5F5F5F5F5F5F5F5F5F5F5F5F5F5F5F5F5F5F5F5F5F5F5F5
310
F5F5F5F5F5F5F5F5F5F5F5F5F5F5F5F5F5F5F5F5F5F5F5F5F5F5F5F5F5F5F5F5F5F5F5F5F5F5F5F5F5F5F5F5F5F5F5F5F5F5F5F5F5F5F5F5F5F5F5F5F5F5F5F5F5F5F5F5F5F5F5F5F5F5F5F5F5F5F5F5F5F5F5F5F5F5F5F5F5F5F5F5F5F5F5F5F5F5F5F5F5F5F5E2F5F5F5F5F5F5F5F5F5F5F5F5F5F5F5F5F5F5F5F5F5E2E2
310
F5F5F5F5F5F5F5F5F5F5F5F5F5F5F5F5F5F5F5F5F5E2F5F5F5F5F5F5F5F5F5F5F5F5F5F5F5F5F5F5F5F5F5F5F5F5F5F5F5F5F5F5F5F5F5F5F5F5F5F5F5F5F5F5F5F5F5F5F5F5F5F5F5F5F5F5F5F5F5F5F5F5F5F5F5F5F5F5F5F5F5F5F5F5F5F5F5F5F5F5F5F5F5F5F5F5F5F5F5F5F5F5F5F5F5F5F5F5F5F5F5F5F5F5F5F5F5
310
F5F5F5F5F5F5F5F5F5F5F5F5F5F5F5F5F5F5F5F5F5F5F5F5F5F5F5F5F5E2F5F5F5F5F5F5F5F5F5F5F5F5F5F5F5F5F5F5F5F5F5E2E2F5F5F5F5F5F5F5F5F5F5F5F5F5F5F5F5F5F5F5F5F5E2F5F5F5F5F5F5F5F5F5F5F5F5F5F5F5F5F5F5F5F5F5F5F5F5F5F5F5F5F5F5F5F5F5F5F5F5F5F5F5F5F5F5F5F5F5F5F5F5F5F5F5F5
310
F5F5F5F5F5F5F5F5F5F5F5F5F5F5F5F5F5F5F5F5F5F5F5F5F5F5F5F5F5F5F5F5F5F5F5F5F5F5F5F5F5F5F5F5F5F5F5F5F5F5F5F5F5F5F5F5F5F5F5F5F5F5F5F5F5F5F5F5F5F5F5F5F5F5F5F5F5F5F5F5F5F5E2F5F5F5F5F5F5F5F5F5F5F5F5F5F5F5F5F5F5F5F5F5E2E2F5F5F5F5E2F5F5F5F5F5F5F5F5F5F5F5F5F5F5F5F5
310
E2F5F5F5F5F5F5F5F5F5F5F5F5F5F5F5F5F5F5F5F5F5F5F5F5F5F5F5F5F5F5F5F5F5F5F5F5F5F5F5F5F5F5F5F5F5F5F5F5F5F5F5F5F5F5F5F5F5F5F5F5F5F5F5F5F5F5F5F5F5F5F5F5F5F5F5F5F5F5F5F5F5F5F5F5F5F5F5F5F5F5F5F5F5F5F5F5F5F5F5F5F5F5F5F5F5F5F5F5F5F5F5F5F5F5F5F5F5F5F5F5F5F5F5F5F5F5
310
F5F5F5F5F5F5F5F5E2F5F5F5F5F5F5F5F5F5F5F5F5F5F5F5F5E2F5F5F5F5E2E2F5F5F5F5E2F5F5F5F5F5F5F5F5F5F5F5F5F5F5F5F5E2F5F5F5F5F5F5F5F5F5F5F5F5F5F5F5F5F5F5F5F5F5F5F5F5F5F5F5F5F5F5F5F5F5F5F5F5F5F5F5F5F5F5F5F5F5F5F5F5F5F5F5F5F5F5F5F5F5F5F5F5F5F5F5F5F5F5F5F5F5F5F5F5F5
310
F5F5F5F5F5F5F5F5F5F5F5F5F5F5F5F5F5F5F5F5F5F5F5F5F5F5F5F5F5F5F5F5F5F5F5F5F5F5F5F5F5F5F5F5F5F5F5F5F5F5F5F5F5F5F5F5F5F5F5F5F5E2F5F5F5F5F5F5F5F5F5F5F5F5F5F5F5F5E2F5F5F5F5E2E2F5F5F5F5E2F5F5F5F5F5F5F5F5F5F5F5F5F5F5F5F5E2F5F5F5F5F5F5F5F5F5F5F5F5F5F5F5F5F5F5F5F5
310
F5F5F5F5F5F5F5F5F5F5F5F5F5F5F5F5F5F5F5F5F5F5F5F5F5F5F5F5F5F5F5F5F5F5F5F5F5F5F5F5F5F5F5F5F5F5F5F5F5F5F5F5F5F5F5F5F5F5F5F5F5F5F5F5F5F5F5F5F5F5F5F5F5F5F5F5F5F5F5F5F5F5F5F5F5F5F5F5F5F5F5F5F5F5F5F5F5F5F5F5F5F5F5F5F5F5F5F5F5F5F5F5F5F5E2F5F5F5F5F5F5F5F5F5F5F5F5
310
F5F5F5F5E2F5F5F5F5E2E2F5F5F5F5E2F5F5F5F5F5F5F5F5F5F5F5F5F5F5F5F5E2F5F5F5F5F5F5F5F5F5F5F5F5F5F5F5F5F5F5F5F5F5F5F5F5F5F5F5F5F5F5F5F5F5F5F5F5F5F5F5F5F5F5F5F5F5F5F5F5F5F5F5F5F5F5F5F5F5F5F5F5F5F5F5F5F5F5F5F5F5F5F5F5F5F5F5F5F5F5F5F5F5F5F5F5F5F5F5F5F5F5F5F5F5F5
310
F5F5F5F5F5F5F5F5F5F5F5F5F5F5F5F5F5F5F5F5F5F5F5F5F5F5F5F5F5F5F5F5F5F5F5F5F5F5F5F5E2F5F5F5F5F5F5F5F5F5F5F5F5F5F5F5F5E2F5F5F5F5E2E2F5F5F5F5E2F5F5F5F5F5F5F5F5F5F5F5F5F5F5F5F5E2F5F5F5F5F5F5F5F5F5F5F5F5F5F5F5F5F5F5F5F5F5F5F5F5F5F5F5F5F5F5F5F5F5F5F5F5F5F5F5F5F5
310
F5F5F5F5F5F5F5F5F5F5F5F5F5F5F5F5F5F5F5F5F5F5F5F5F5F5F5F5F5F5F5F5F5F5F5F5F5F5F5F5F5F5F5F5F5F5F5F5F5F5F5F5F5F5F5F5F5F5F5F5F5F5F5F5F5F5F5F5F5F5F5F5F5F5F5F5F5F5F5F5F5F5F5F5F5F5F5F5F5F5F5F5F5E2F5F5F5F5F5F5F5F5F5F5F5F5F5F5F5F5E2F5F5F5F5E2E2F5F5F5F5E2F5F5F5F5F5
310
F5F5F5F5F5F5F5F5F5F5F5E2F5F5F5F5F5F5F5F5F5F5F5F5F5F5F5F5F5F5F5F5F5F5F5F5F5F5F5F5F5F5F5F5F5F5F5F5F5F5F5F5F5F5F5F5F5F5F5F5F5F5F5F5F5F5F5F5F5F5F5F5F5F5F5F5F5F5F5F5F5F5F5F5F5F5F5F5F5F5F5F5F5F5F5F5F5F5F5F5F5F5F5F5F5F5F5F5F5F5F5F5F5F5F5F5F5F5F5F5F5F5F5F5F5F5F5
310
F5F5F5F5F5F5F5F5F5F5F5F5F5F5F5F5F5F5F5E2F5F5F5F5F5F5F5F5F5F5F5F5F5F5F5F5E2F5F5F5F5E2E2F5F5F5F5E2F5F5F5F5F5F5F5F5F5F5F5F5F5F5F5F5E2F5F5F5F5F5F5F5F5F5F5F5F5F5F5F5F5F5F5F5F5F5F5F5F5F5F5F5F5F5F5F5F5F5F5F5F5F5F5F5F5F5F5F5F5F5F5F5F5F5F5F5F5F5F5F5F5F5F5F5F5F5F5
310
F5F5F5F5F5F5F5F5F5F5F5F5F5F5F5F5F5F5F5F5F5F5F5F5F5F5F5F5F5F5F5F5F5F5F5F5F5F5F5F5F5F5F5F5F5F5F5F5F5F5F5F5F5F5F5F5F5F5F5F5F5F5F5F5F5F5F5F5F5F5F5F5E2F5F5F5F5F5F5F5F5F5F5F5F5F5F5F5F5E2F5F5F5F5E2E2F5F5F5F5E2F5F5F5F5F5F5F5F5F5F5F5F5F5F5F5F5E2F5F5F5F5F5F5F5F5F5
310
F5F5F5F5F5F5F5F5F5F5F5F5F5F5F5F5F5F5F5F5F5F5F5F5F5F5F5F5F5F5F5F5F5F5F5F5F5F5F5F5F5F5F5F5F5F5F5F5F5F5F5F5F5F5F5F5F5F5F5F5F5F5F5F5F5F5F5F5F5F5F5F5F5F5F5F5F5F5F5F5F5F5F5F5F5F5F5F5F5F5F5F5F5F5F5F5F5F5F5F5F5F5F5F5F5F5F5F5F5F5F5F5F5F5F5F5F5F5F5F5F5F5F5F5F5E2F5
310
F5F5F5F5F5F5F5F5F5F5F5F5F5F5F5E2F5F5F5F5E2E2F5F5F5F5E2F5F5F5F5F5F5F5F5F5F5F5F5F5F5F5F5E2F5F5F5F5F5F5F5F5F5F5F5F5F5F5F5F5F5F5F5F5F5F5F5F5F5F5F5F5F5F5F5F5F5F5F5F5F5F5F5F5F5F5F5F5F5F5F5F5F5F5F5F5F5F5F5F5F5F5F5F5F5F5F5F5F5F5F5F5F5F5F5F5F5F5F5F5F5F5F5F5F5F5F5
310
F5F5F5F5F5F5F5F5F5F5F5F5F5F5F5F5F5F5F5F5F5F5F5F5F5F5F5F5F5F5F5F5F5F5F5F5F5F5F5F5F5F5F5F5F5F5F5F5F5F5F5E2F5F5F5F5F5F5F5F5F5F5F5F5F5F5F5F5E2F5F5F5F5E2E2F5F5F5F5E2F5F5F5F5F5F5F5F5F5F5F5F5F5F5F5F5E2F5F5F5F5F5F5F5F5F5F5F5F5F5F5F5F5F5F5F5F5F5F5F5F5F5F5F5F5F5F5
310
F5F5F5F5F5F5F5F5F5F5F5F5F5F5F5F5F5F5F5F5F5F5F5F5F5F5F5F5F5F5F5F5F5F5F5F5F5F5F5F5F5F5F5F5F5F5F5F5F5F5F5F5F5F5F5F5F5F5F5F5F5F5F5F5F5F5F5F5F5F5F5F5F5F5F5F5F5F5F5F5F5F5F5F5F5F5F5F5F5F5F5F5F5F5F5F5F5F5F5F5F5F5F5F5E2F5F5F5F5F5F5F5F5F5F5F5F5F5F5F5F5E2F5F5F5F5E2
310
E2F5F5F5F5E2F5F5F5F5F5F5F5F5F5F5F5F5F5F5F5F5E2F5F5F5F5F5F5F5F5F5F5F5F5F5F5F5F5F5F5F5F5F5F5F5F5F5F5F5F5F5F5F5F5F5F5F5F5F5F5F5F5F5F5F5F5F5F5F5F5F5F5F5F5F5F5F5F5F5F5F5F5F5F5F5F5F5F5F5F5F5F5F5F5F5F5F5F5F5F5F5F5F5F5F5F5F5F5F5F5F5F5F5F5F5F5F5F5F5F5F5F5F5F5F5F5
310
F5F5F5F5F5F5F5F5F5F5F5F5F5F5F5F5F5F5F5F5F5F5F5F5F5F5F5F5F5F5E2F5F5F5F5F5F5F5F5F5F5F5F5F5F5F5F5E2F5F5F5F5E2E2F5F5F5F5E2F5F5F5F5F5F5F5F5F5F5F5F5F5F5F5F5E2F5F5F5F5F5F5F5F5F5F5F5F5F5F5F5F5F5F5F5F5F5F5F5F5F5F5F5F5F5F5F5F5F5F5F5F5F5F5F5F5F5F5F5F5F5F5F5F5F5F5F5
310
F5F5F5F5F5F5F5F5F5F5F5F5F5F5F5F5F5F5F5F5F5F5F5F5F5F5F5F5F5F5F5F5F5F5F5F5F5F5F5F5F5F5F5F5F5F5F5F5F5F5F5F5F5F5F5F5F5F5F5F5F5F5F5F5F5F5F5F5F5F5F5F5F5F5F5F5F5F5F5F5F5F5F5E2F5F5F5F5F5F5F5F5F5F5F5F5F5F5F5F5E2F5F5F5F5E2E2F5F5F5F5E2F5F5F5F5F5F5F5F5F5F5F5F5F5F5F5
310
F5E2F5F5F5F5F5F5F5F5F5F5F5F5F5F5F5F5F5F5F5F5F5F5F5F5F5F5F5F5F5F5F5F5F5F5F5F5F5F5F5F5F5F5F5F5F5F5F5F5F5F5F5F5F5F5F5F5F5F5F5F5F5F5F5F5F5F5F5F5F5F5F5F5F5F5F5F5F5F5F5F5F5F5F5F5F5F5F5F5F5F5F5F5F5F5F5F5F5F5F5F5F5F5F5F5F5F5F5F5F5F5F5F5F5F5F5F5F5F5F5F5F5F5F5F5F5
310
F5F5F5F5F5F5F5F5F5E2F5F5F5F5F5F5F5F5F5F5F5F5F5F5F5F5E2F5F5F5F5E2E2F5F5F5F5E2F5F5F5F5F5F5F5F5F5F5F5F5F5F5F5F5E2F5F5F5F5F5F5F5F5F5F5F5F5F5F5F5F5F5F5F5F5F5F5F5F5F5F5F5F5F5F5F5F5F5F5F5F5F5F5F5F5F5F5F5F5F5F5F5F5F5F5F5F5F5F5F5F5F5F5F5F5F5F5F5F5F5F5F5F5F5F5F5F5
310
F5F5F5F5F5F5F5F5F5F5F5F5F5F5F5F5F5F5F5F5F5F5F5F5F5F5F5F5F5F5F5F5F5F5F5F5F5F5F5F5F5F5F5F5F5F5F5F5F5F5F5F5F5F5F5F5F5F5F5F5F5F5E2F5F5F5F5F5F5F5F5F5F5F5F5F5F5F5F5E2F5F5F5F5E2E2F5F5F5F5E2F5F5F5F5F5F5F5F5F5F5F5F5F5F5F5F5E2F5F5F5F5F5F5F5F5F5F5F5F5F5F5F5F5F5F5F5
310
F5F5F5F5F5F5F5F5F5F5F5F5F5F5F5F5F5F5F5F5F5F5F5F5F5F5F5F5F5F5F5F5F5F5F5F5F5F5F5F5F5F5F5F5F5F5F5F5F5F5F5F5F5F5F5F5F5F5F5F5F5F5F5F5F5F5F5F5F5F5F5F5F5F5F5F5F5F5F5F5F5F5F5F5F5F5F5F5F5F5F5F5F5F5F5F5F5F5F5F5F5F5F5F5F5F5F5F5F5F5F5F5F5F5F5E2F5F5F5F5F5F5F5F5F5F5F5
310
F5F5F5F5F5E2F5F5F5F5E2E2F5F5F5F5E2F5F5F5F5F5F5F5F5F5F5F5F5F5F5F5F5E2F5F5F5F5F5F5F5F5F5F5F5F5F5F5F5F5F5F5F5F5F5F5F5F5F5F5F5F5F5F5F5F5F5F5F5F5F5F5F5F5F5F5F5F5F5F5F5F5F5F5F5F5F5F5F5F5F5F5F5F5F5F5F5F5F5F5F5F5F5F5F5F5F5F5F5F5F5F5F5F5F5F5F5F5F5F5F5F5F5F5F5F5F5
310
F5F5F5F5F5F5F5F5F5F5F5F5F5F5F5F5F5F5F5F5F5F5F5F5F5F5F5F5F5F5F5F5F5F5F5F5F5F5F5F5F5E2F5F5F5F5F5F5F5F5F5F5F5F5F5F5F5F5E2F5F5F5F5E2E2F5F5F5F5F5F5F5F5F5F5F5F5F5F5F5F5F5F5F5F5F5E2F5F5F5F5F5F5F5F5F5F5F5F5F5F5F5F5F5F5F5F5F5F5F5F5F5F5F5F5F5F5F5F5F5F5F5F5F5F5F5F5
310
F5F5F5F5F5F5F5F5F5F5F5F5F5F5F5F5F5F5F5F5F5F5F5F5F5F5F5F5F5F5F5F5F5F5F5F5F5F5F5F5F5F5F5F5F5F5F5F5F5F5F5F5F5F5F5F5F5F5F5F5F5F5F5F5F5F5F5F5F5F5F5F5F5F5F5F5F5F5F5F5F5F5F5F5F5F5F5F5F5F5F5F5F5F5E2F5F5F5F5F5F5F5F5F5F5F5F5F5F5F5F5F5F5F5F5F5E2E2F5F5F5F5F5F5F5F5F5
310
F5F5F5F5F5F5F5F5F5F5F5F5E2F5F5F5F5F5F5F5F5F5F5F5F5F5F5F5F5F5F5F5F5F5F5F5F5F5F5F5F5F5F5F5F5F5F5F5F5F5F5F5F5F5F5F5F5F5F5F5F5F5F5F5F5F5F5F5F5F5F5F5F5F5F5F5F5F5F5F5F5F5F5F5F5F5F5F5F5F5F5F5F5F5F5F5F5F5F5F5F5F5F5F5F5F5F5F5F5F5F5F5F5F5F5F5F5F5F5F5F5F5F5F5F5F5F5
310
F5F5F5F5F5F5F5F5F5F5F5F5F5F5F5F5F5F5F5F5E2F5F5F5F5F5F5F5F5F5F5F5F5F5F5F5F5F5F5F5F5F5E2E2F5F5F5F5F5F5F5F5F5F5F5F5F5F5F5F5F5F5F5F5F5E2F5F5F5F5F5F5F5F5F5F5F5F5F5F5F5F5F5F5F5F5F5F5F5F5F5F5F5F5F5F5F5F5F5F5F5F5F5F5F5F5F5F5F5F5F5F5F5F5F5F5F5F5F5F5F5F5F5F5F5F5F5
310
F5F5F5F5F5F5F5F5F5F5F5F5F5F5F5F5F5F5F5F5F5F5F5F5F5F5F5F5F5F5F5F5F5F5F5F5F5F5F5F5F5F5F5F5F5F5F5F5F5F5F5F5F5F5F5F5F5F5F5F5F5F5F5F5F5F5F5F5F5F5F5F5F5E2F5F5F5F5F5F5F5F5F5F5F5F5F5F5F5F5F5F5F5F5F5E2E2F5F5F5F5F5F5F5F5F5F5F5F5F5F5F5F5F5F5F5F5F5E2F5F5F5F5F5F5F5F5
310
F5F5F5F5F5F5F5F5F5F5F5F5F5F5F5F5F5F5F5F5F5F5F5F5F5F5F5F5F5F5F5F5F5F5F5F5F5F5F5F5F5F5F5F5F5F5F5F5F5F5F5F5F5F5F5F5F5F5F5F5F5F5F5F5F5F5F5F5F5F5F5F5F5F5F5F5F5F5F5F5F5F5F5F5F5F5F5F5F5F5F5F5F5F5F5F5F5F5DCF5F5F5F5F5F5F5F5F5F5F5F5F5F5F5F5F5F5F5F5F5F5F5F5F5F5F5E2
310
F5F5F5F5F5F5F5F5F5F5F5F5F5F5F5F5F5F5F5F5F5E2E2F5F5F5F5F5F5F5F5F5F5F5F5F5F5F5F5F5F5F5F5F5E2F5F5F5F5F5F5F5F5F5F5F5F5F5F5F5F5F5F5F5F5F5F5F5F5F5F5F5F5F5F5F5F5F5F5F5F5F5F5F5F5F5F5F5F5F5F5F5F5F5F5F5F5F5F5F5F5F5F5F5F5F5F5F5F5F5F5F5F5F5F5F5F5F5F5F5F5F5F5F5F5F5E2
310
ECE2E2E2E2E2E2E2E2E2E2E2E2E2E2E2E2E2E2E2E2E2E2E2DCE2E2E2E2E2E2E2E2E2E2E2E2E2E2E2E2E2E2E2E2E2E2E2ECE2F5F5E2F5F5F5F5F5F5F5F5F5F5F5F5F5F5F5F5F5F5F5F5F5E2E2F5F5F5F5F5F5F5F5F5F5F5F5F5F5F5F5F5F5F5F5F5E2F5F5F5F5F5F5F5F5F5F5F5F5F5F5F5F5F5F5F5F5F5F5F5F5F5F5F5F5F5
310
F5F5F5F5F5F5F5F5F5F5F5F5F5F5F5F5F5F5F5F5F5F5F5F5F5F5F5F5F5F5F5F5F5F5F5F5F5F5F5F5F5F5F5F5F5F5F5F5F5F5F5E2F5F5ECF5F5F5F5F5F5F5F5F5F5F5F5F5F5F5F5F5F5F5F5F5F5DCF5F5F5F5F5F5F5F5F5F5F5F5F5F5F5F5F5F5F5F5F5F5ECF5F5E2F5E2F5F5F5F5F5F5F5F5F5F5F5F5F5F5F5F5F5F5F5F5F5
310
E2E2F5F5F5F5F5F5F5F5F5F5F5F5F5F5F5F5F5F5F5F5F5E2F5F5F5F5F5F5F5F5F5F5F5F5F5F5F5F5F5F5F5F5F5F5F5F5F5F5F5F5F5F5F5F5F5F5F5F5F5F5F5F5F5F5F5F5F5F5F5F5F5F5F5F5F5F5F5F5F5F5F5F5F5F5F5F5F5F5F5F5F5F5F5F5F5F5F5F5F5F5F5E2F5F5F5F5ECF5F5F5F5F5F5F5F5F5F5F5F5F5F5F5F5F5F5
310
F5F5F5DCF5F5F5F5F5F5F5F5F5F5F5F5F5F5F5F5F5F5F5F5F5ECF5F5F5F5E2E2F5F5F5F5F5F5F5F5F5F5F5F5F5F5F5F5F5F5F5F5F5E2E2F5F5F5F5F5F5F5F5F5F5F5F5F5F5F5F5F5F5F5F5F5E2F5F5F5F5F5F5F5F5F5F5F5F5F5F5F5F5F5F5F5F5F5F5F5F5F5F5F5F5F5F5F5F5F5F5F5F5F5F5F5F5F5F5F5F5F5F5F5F5F5F5
310
F5F5F5F5F5F5F5F5F5F5F5F5F5F5F5F5F5F5F5F5F5F5F5F5F5F5F5F5E2E2E2E2E2E2ECE2E2E2E2E2E2E2E2E2ECECECECECECE2ECECECECECDCECECECECECE2ECECECECECECE2E2E2E2E2E2E2E2ECE2E2E2E2E2E2E2F5F5F5F5F5F5F5F5F5F5F5F5F5F5F5F5F5F5F5F5F5E2E2F5F5F5F5F5F5F5F5F5F5F5F5F5F5F5F5F5F5F5
310
F5F5E2F5F5F5F5F5F5F5F5F5F5F5F5F5F5F5F5F5F5F5F5F5F5F5F5F5F5F5F5F5F5F5F5F5F5F5F5F5F5F5F5F5F5F5F5F5F5F5F5F5F5F5F5F5F5F5F5F5F5F5F5F5F5F5F5F5F5F5F5F5F5F5F5F5F5F5F5F5F5E2F5F5F5F5F5F5F5F5F5F5F5F5F5F5F5ECF5F5F5F5F5F5F5F5F5F5F5DCF5F5F5F5F5F5F5F5F5F5ECF5F5F5F5F5F5
310
F5F5F5F5F5F5F5F5F5E2E2F5F5F5F5F5F5F5F5F5F5F5F5F5F5F5F5F5F5F5F5F5E2E2F5F5F5F5E2F5F5F5F5F5F5F5F5F5F5F5F5F5F5F5F5E2F5F5F5F5F5F5F5F5F5F5F5F5F5F5F5F5F5F5F5F5F5F5F5F5F5F5F5F5F5F5F5F5F5F5F5F5F5F5F5F5F5F5F5F5F5F5F5F5F5F5F5F5F5F5F5F5F5F5F5F5F5F5F5F5F5F5F5F5F5F5F5
310
F5F5F5F5F5F5F5E2F5F5F5F5F5F5F5F5F5F5F5F5F5F5F5ECECECECECECECECECECECECECECECECECECECECECECECECF5F5F5F5F5F5F5F5F5F5F5F5F5F5F5E2E2F5F5F5F5F5F5F5F5F5F5F5F5F5F5F5F5E2F5F5F5F5E2E2F5F5F5F5E2F5F5F5F5F5F5F5F5F5F5F5F5F5F5F5F5E2F5F5F5F5F5F5F5F5F5F5F5F5F5F5F5F5F5F5
310
F5F5F5F5F5F5F5F5F5F5F5F5F5F5F5F5F5F5F5F5F5F5F5F5F5F5F5F5F5F5F5F5F5F5F5F5F5F5F5F5F5F5F5F5F5F5F5F5F5F5F5F5F5F5F5F5F5F5F5F5F5E2F5F5F5F5F5F5F5F5F5F5F5F5F5F5F5F5F5F5F5ECF5F5F5F5F5F5DCF5F5F5F5F5ECF5F5F5F5F5F5F5F5F5F5F5F5F5F5F5F5F5F5F5F5E2E2F5F5F5F5F5F5F5F5F5F5
310
F5F5F5F5F5F5E2F5F5F5F5E2E2F5F5F5F5E2F5F5F5F5F5F5F5F5F5F5F5F5F5F5F5F5E2F5F5F5F5F5F5F5F5F5F5F5F5F5F5F5F5F5F5F5F5F5F5F5F5F5F5F5F5F5F5F5F5F5F5F5F5F5F5F5F5F5F5F5F5F5F5F5F5F5F5F5F5F5F5F5F5F5F5F5F5F5F5F5F5F5F5F5F5F5F5F5F5F5F5F5F5F5F5F5F5E2F5F5F5F5F5F5F5F5F5F5F5
310
F5F5F5F5F5ECECECECECECF5ECECECECECF5ECECECECECF5F5F5F5F5F5F5F5F5F5F5F5F5F5F5F5F5E2F5E2F5F5F5F5F5F5F5F5F5F5F5F5F5F5F5F5E2F5F5F5F5E2E2F5F5F5F5E2F5F5F5F5F5F5F5F5F5F5F5F5F5F5F5F5E2F5F5F5F5F5F5F5F5F5F5F5F5F5F5F5F5F5F5F5F5F5F5F5F5F5F5F5F5F5F5F5F5F5F5F5F5F5F5F5
310
F5F5F5F5F5F5F5F5F5F5F5F5F5F5F5F5F5F5F5F5F5F5F5F5F5F5F5F5F5F5F5F5F5F5F5F5F5F5F5F5F5F5E2E2F5F5F5F5F5F5F5F5F5F5F5F5F5F5ECF5F5F5F5F5F5F5F5DCF5F5F5F5F5F5F5ECF5F5F5F5F5F5F5F5F5F5F5F5F5F5F5E2E2F5F5E2F5F5F5F5F5F5F5F5F5F5F5F5F5F5F5F5E2F5F5F5F5E2E2F5F5F5F5E2F5F5F5
310
F5F5F5F5F5F5F5F5F5F5F5F5F5E2F5F5F5F5F5F5F5F5F5F5F5F5F5F5F5F5F5F5F5F5F5F5F5F5F5F5F5F5F5F5F5F5F5F5F5F5F5F5F5F5F5F5F5F5F5F5F5F5F5F5F5F5F5F5F5F5F5F5F5F5F5F5F5F5F5F5F5F5F5F5F5F5F5F5F5F5F5F5F5F5F5F5F5E2F5F5F5F5F5F5F5F5F5F5F5F5F5ECF5F5F5F5F5F5F5F5DCF5F5F5F5F5F5
310
F5ECF5F5F5F5F5F5F5F5F5F5F5F5F5E2E2F5F5F5F5E2F5F5F5F5F5F5F5F5F5F5F5F5F5F5F5F5E2F5F5F5F5E2E2F5F5F5F5E2F5F5F5F5F5F5F5F5F5F5F5F5F5F5F5F5E2F5F5F5F5F5F5F5F5F5F5F5F5F5F5F5F5F5F5F5F5F5F5F5F5F5F5F5F5F5F5F5F5F5F5F5F5F5F5F5F5F5F5F5F5F5F5F5F5F5F5F5F5F5F5F5F5F5F5F5F5
310
F5F5F5F5F5F5F5F5F5F5F5F5F5F5F5F5F5F5F5F5F5F5F5F5E2E2F5F5F5F5F5F5F5F5F5F5F5ECF5F5F5F5F5F5F5F5DCF5F5F5F5F5F5F5ECF5F5F5F5F5F5F5F5F5F5F5F5E2F5F5F5F5F5F5E2F5F5F5F5F5F5F5F5F5F5F5F5F5F5F5F5E2F5F5F5F5E2E2F5F5F5F5E2F5F5F5F5F5F5F5F5F5F5F5F5F5F5F5F5E2F5F5F5F5F5F5F5
310
F5F5F5F5F5F5F5F5F5F5F5F5F5F5F5F5F5F5F5F5F5F5F5F5F5F5F5F5F5F5F5F5F5F5F5F5F5F5F5F5F5F5F5F5F5F5F5F5F5F5F5F5F5F5F5F5F5F5F5F5F5F5F5F5F5F5F5F5F5F5F5F5F5F5F5F5F5F5F5E2F5F5F5F5F5F5F5F5F5F5ECF5F5F5F5F5F5F5F5DCF5F5F5F5F5F5F5ECF5F5F5F5F5F5F5F5F5F5E2E2F5F5F5F5F5F5F5
310
E2F5F5F5F5F5F5F5F5F5F5F5F5F5F5F5F5E2F5F5F5F5E2E2F5F5F5F5E2F5F5F5F5F5F5F5F5F5F5F5F5F5F5F5F5E2F5F5F5F5F5F5F5F5F5F5F5F5F5F5F5F5F5F5F5F5F5F5F5F5F5F5F5F5F5F5F5F5F5F5F5F5F5F5F5F5F5F5F5F5F5F5F5F5F5F5F5F5F5F5F5F5F5F5F5F5F5F5F5F5F5F5F5F5F5F5F5F5F5F5F5F5F5F5F5F5F5
310
F5F5F5F5F5F5E2E2F5F5F5F5F5F5F5F5F5ECECECECECF5ECECECECECF5ECECECECECF5F5F5F5F5F5F5F5E2E2F5F5F5F5F5F5F5F5F5E2F5F5F5F5F5F5F5F5F5F5F5F5F5F5F5F5E2F5F5F5F5E2E2F5F5F5F5E2F5F5F5F5F5F5F5F5F5F5F5F5F5F5F5F5E2F5F5F5F5F5F5F5F5F5F5F5F5F5F5F5F5F5F5F5F5F5F5F5F5F5F5F5F5
310
F5F5F5F5F5F5F5F5F5F5F5F5F5F5F5F5F5F5F5F5F5F5F5F5F5F5F5F5F5F5F5F5F5F5F5F5F5F5F5F5F5F5F5F5F5F5F5F5F5F5F5F5F5F5F5F5F5F5F5F5F5E2E2F5F5F5F5F5F5F5ECF5F5F5F5F5F5F5DCF5F5F5F5F5F5F5ECF5F5F5F5F5F5F5E2F5F5F5F5F5F5F5F5F5F5F5E2F5F5F5F5F5F5F5F5F5F5F5F5F5F5F5F5E2F5F5F5
310
F5E2E2F5F5F5F5E2F5F5F5F5F5F5F5F5F5F5F5F5F5F5F5F5E2F5F5F5F5F5F5F5F5F5F5F5F5F5F5F5F5F5F5F5F5F5F5F5F5F5F5F5F5F5F5F5F5F5F5F5F5F5F5F5F5F5F5F5F5F5F5F5F5F5F5F5F5F5F5F5F5F5F5F5F5F5F5F5F5F5F5F5F5F5F5F5F5F5F5F5F5F5F5F5F5F5F5F5F5F5F5F5F5F5F5E2F5F5F5F5F5F5F5ECF5F5F5
310
F5F5F5F5DCF5F5F5F5F5F5F5ECF5F5F5F5F5F5F5E2F5F5F5F5F5F5F5F5F5F5F5E2F5F5F5F5F5F5F5F5F5F5F5F5F5F5F5F5E2F5F5F5F5E2E2F5F5F5F5E2F5F5F5F5F5F5F5F5F5F5F5F5F5F5F5F5E2F5F5F5F5F5F5F5F5F5F5F5F5F5F5F5F5F5F5F5F5F5F5F5F5F5F5F5F5F5F5F5F5F5F5F5F5F5F5F5F5F5F5F5F5F5F5F5F5F5
310
F5F5F5F5F5F5F5F5F5F5F5F5F5F5F5F5F5F5F5F5F5F5F5F5F5F5F5F5F5F5F5F5F5F5F5F5F5F5F5F5F5E2F5F5F5F5F5F5F5ECF5F5F5F5F5F5F5DCF5F5F5F5F5F5F5ECF5F5F5F5F5F5F5E2F5F5F5F5F5F5F5F5F5F5F5E2F5F5F5F5F5F5F5F5F5F5F5F5F5F5F5F5E2F5F5F5F5E2E2F5F5F5F5E2F5F5F5F5F5F5F5F5F5F5F5F5F5
310
F5F5F5E2F5F5F5F5F5F5F5F5F5F5F5F5F5F5F5F5F5F5F5F5F5F5F5F5F5F5F5F5F5F5F5F5F5F5F5F5F5F5F5F5F5F5F5F5F5F5F5F5F5F5F5F5F5F5F5F5F5F5F5F5F5F5F5F5F5F5F5F5F5F5F5F5F5F5F5F5F5F5F5F5F5F5F5F5F5F5F5F5F5F5E2F5F5F5F5F5F5F5ECF5F5F5F5E2E2E2E2E2E2E2F5F5F5F5ECF5F5F5F5F5F5F5E2
310
F5F5F5F5F5F5F5F5F5F5F5E2F5F5F5F5F5F5F5F5F5F5F5F5F5F5F5F5E2F5F5F5F5E2E2F5F5F5F5E2F5F5F5F5F5F5F5F5F5F5F5F5F5F5F5F5E2F5F5F5F5F5F5F5F5F5F5F5F5F5F5F5F5F5F5F5F5F5F5F5F5F5F5F5F5F5F5F5F5F5F5F5F5F5F5F5F5F5F5F5F5F5F5F5F5F5F5F5F5F5F5F5F5F5F5F5F5F5F5F5F5F5F5F5F5F5F5
310
F5F5F5F5F5F5F5F5F5F5F5F5F5F5F5F5F5F5F5F5E2F5F5F5F5F5F5F5ECECECECECECF5F5DCF5F5ECECECECECECF5F5F5F5F5F5F5E2F5F5F5F5F5F5F5F5F5F5F5E2F5F5F5F5F5F5F5F5F5F5F5F5F5F5F5F5E2F5F5F5F5E2E2F5F5F5F5E2F5F5F5F5F5F5F5F5F5F5F5F5F5F5F5F5E2F5F5F5F5F5F5F5F5F5F5F5F5F5F5F5F5F5
310
F5F5F5F5F5F5F5F5F5F5F5F5F5F5F5F5F5F5F5F5F5F5F5F5F5F5F5F5F5F5F5F5F5F5F5F5F5F5F5F5F5F5F5F5F5F5F5F5F5F5F5F5F5F5F5F5F5F5F5F5F5F5F5F5F5F5F5F5F5F5F5F5F5E2F5F5F5F5F5F5F5ECF5F5F5F5E2F5F5DCF5F5E2F5F5F5F5ECF5F5F5F5F5F5F5E2F5F5F5F5F5F5F5F5F5F5F5E2F5F5F5F5F5F5F5F5F5
310
F5F5F5F5F5F5F5E2F5F5F5F5E2E2F5F5F5F5E2F5F5F5F5F5F5F5F5F5F5F5F5F5F5F5F5E2F5F5F5F5F5F5F5F5F5F5F5F5F5F5F5F5F5F5F5F5F5F5F5F5F5F5F5F5F5F5F5F5F5F5F5F5F5F5F5F5F5F5F5F5F5F5F5F5F5F5F5F5F5F5F5F5F5F5F5F5F5F5F5F5F5F5F5F5F5F5F5F5F5F5F5F5F5F5F5F5F5F5F5F5F5F5F5F5F5F5E2
310
E2E2E2E2E2E2E2E2E2E2E2E2ECF5F5DCF5F5E2E2E2E2E2E2E2E2E2E2E2E2E2E2F5F5F5F5F5F5F5F5F5F5F5E2F5F5F5F5F5F5F5F5F5F5F5F5F5F5F5F5E2F5F5F5F5E2E2F5F5F5F5E2F5F5F5F5F5F5F5F5F5F5F5F5F5F5F5F5E2F5F5F5F5F5F5F5F5F5F5F5F5F5F5F5F5F5F5F5F5F5F5F5F5F5F5F5F5F5F5F5F5F5F5F5F5F5F5
310
F5F5F5F5F5F5F5F5F5F5F5F5F5F5F5F5F5F5F5F5F5F5F5F5F5F5F5F5F5F5F5F5F5F5F5F5F5F5F5F5F5F5F5F5F5F5F5F5F5F5F5F5F5F5F5F5F5F5F5F5F5F5F5F5F5F5F5F5DCF5F5F5F5F5F5F5F5F5F5F5F5F5F5F5F5F5F5F5F5F5F5F5F5F5F5F5E2F5F5F5F5F5F5F5F5F5F5F5F5F5F5F5F5E2F5F5F5F5E2E2F5F5F5F5F5F5F5
310
F5F5F5F5F5F5F5F5F5F5F5F5F5F5E2F5F5F5F5F5F5F5F5F5F5F5F5F5F5F5F5F5F5F5F5F5F5F5F5F5F5F5F5F5F5F5F5F5F5F5F5F5F5F5F5F5F5F5F5F5F5F5F5F5F5F5F5F5F5F5F5F5F5F5F5F5F5F5F5F5F5F5F5F5F5F5F5F5F5F5F5F5F5F5F5F5F5F5F5F5F5F5F5F5F5F5F5F5F5F5F5F5F5F5F5F5F5F5F5F5F5F5F5F5F5F5F5
310
F5F5F5F5F5F5F5F5F5F5F5F5F5F5F5F5F5F5F5F5F5F5E2F5F5F5F5F5F5F5F5F5F5F5F5F5F5F5F5F5F5F5F5F5E2E2F5F5F5F5F5F5F5F5F5F5F5F5F5F5F5F5F5F5F5F5F5E2F5F5F5F5F5F5F5F5F5F5F5F5F5F5F5F5F5F5F5F5F5F5F5F5F5F5F5F5F5F5F5F5F5F5F5F5F5F5F5F5F5F5F5F5F5F5F5F5F5F5F5F5F5F5F5F5F5F5F5
310
F5F5F5F5F5F5F5F5F5F5F5F5F5F5F5F5F5F5F5F5F5F5F5F5F5F5F5F5F5F5F5F5F5F5F5F5F5F5F5F5F5F5F5F5F5F5F5F5F5F5F5F5F5F5F5F5F5F5F5F5F5F5F5F5F5F5F5F5F5F5F5F5F5F5F5E2F5F5F5F5F5F5F5F5F5F5F5F5F5F5F5F5F5F5F5F5F5E2E2F5F5F5F5F5F5F5F5F5F5F5F5F5F5F5F5F5F5F5F5F5E2F5F5F5F5F5F5
310
F5F5F5F5F5F5F5F5F5F5F5F5F5F5F5F5F5F5F5F5F5F5F5F5F5F5F5F5F5F5F5F5F5F5F5F5F5F5F5F5F5F5F5F5F5F5F5F5F5F5F5F5F5F5F5F5F5F5F5F5F5F5F5F5F5F5F5F5F5F5F5F5F5F5F5F5F5F5F5F5F5F5F5F5F5F5F5F5F5F5F5F5F5F5F5F5F5F5F5F5F5F5F5F5F5F5F5F5F5F5F5F5F5F5F5F5F5F5F5F5F5F5F5F5F5F5F5
310
F5E2F5F5F5F5F5F5F5F5F5F5F5F5F5F5F5F5F5F5F5F5F5E2E2F5F5F5F5F5F5F5F5F5F5F5F5F5F5F5F5F5F5F5F5F5E2F5F5F5F5F5F5F5F5F5F5F5F5F5F5F5F5F5F5F5F5F5F5F5F5F5F5F5F5F5F5F5F5F5F5F5F5F5F5F5F5F5F5F5F5F5F5F5F5F5F5F5F5F5F5F5F5F5F5F5F5F5F5F5F5F5F5F5F5F5F5F5F5F5F5F5F5F5F5F5F5
310
F5F5F5F5F5F5F5F5F5F5F5F5F5F5F5F5F5F5F5F5F5F5F5F5F5F5F5F5F5F5F5F5F5F5F5F5F5F5F5F5F5F5F5F5F5F5F5F5F5F5F5F5F5F5E2F5F5F5F5F5F5F5F5F5F5F5F5F5F5F5F5F5F5F5F5F5E2E2F5F5F5F5F5F5F5F5F5F5F5F5F5F5F5F5F5F5F5F5F5E2F5F5F5F5F5F5F5F5F5F5F5F5F5F5F5F5F5F5F5F5F5F5F5F5F5F5F5
310
F5F5F5F5F5F5F5F5F5F5F5F5F5F5F5F5F5F5F5F5F5F5F5F5F5F5F5F5F5F5F5F5F5F5F5F5F5F5F5F5F5F5F5F5F5F5F5F5F5F5F5F5F5F5F5F5F5F5F5F5F5F5F5F5F5F5F5F5F5F5F5F5F5F5F5F5F5F5F5F5F5F5F5F5F5F5F5F5F5F5F5F5F5F5F5F5F5F5F5F5F5F5F5F5F5F5F5E2F5F5F5F5F5F5F5F5F5F5F5F5F5F5F5F5F5F5F5
310
F5F5E2E2F5F5F5F5F5F5F5F5F5F5F5F5F5F5F5F5F5F5F5F5F5E2F5F5F5F5F5F5F5F5F5F5F5F5F5F5F5F5F5F5F5F5F5F5F5F5F5F5F5F5F5F5F5F5F5F5F5F5F5F5F5F5F5F5F5F5F5F5F5F5F5F5F5F5F5F5F5F5F5F5F5F5F5F5F5F5F5F5F5F5F5F5F5F5F5F5F5F5F5F5F5F5F5F5F5F5F5F5F5F5F5F5F5F5F5F5F5F5F5F5F5F5F5
310
F5F5F5F5F5F5F5F5F5F5F5F5F5F5F5F5F5F5F5F5F5F5F5F5F5F5F5F5F5F5F5F5F5E2F5F5F5F5F5F5F5F5F5F5F5F5F5F5F5F5F5F5F5F5F5E2E2F5F5F5F5F5F5F5F5F5F5F5F5F5F5F5F5F5F5F5F5F5E2F5F5F5F5F5F5F5F5F5F5F5F5F5F5F5F5F5F5F5F5F5F5F5F5F5F5F5F5F5F5F5F5F5F5F5F5F5F5F5F5F5F5F5F5F5F5F5F5
310
F5F5F5F5F5F5F5F5F5F5F5F5F5F5F5F5F5F5F5F5F5F5F5F5F5F5F5F5F5F5F5F5F5F5F5F5F5F5F5F5F5F5F5F5F5F5F5F5F5F5F5F5F5F5F5F5F5F5F5F5F5F5F5F5F5F5F5F5F5F5F5F5F5F5F5F5F5F5F5F5F5F5F5F5F5F5E2F5F5F5F5F5F5F5F5F5F5F5F5F5F5F5F5F5F5F5F5F5E2E2F5F5F5F5F5F5F5F5F5F5F5F5F5F5F5F5F5
310
F5F5F5F5E2F5F5F5F5F5F5F5F5F5F5F5F5F5F5F5F5F5F5F5F5F5F5F5F5F5F5F5F5F5F5F5F5F5F5F5F5F5F5F5F5F5F5F5F5F5F5F5F5F5F5F5F5F5F5F5F5F5F5F5F5F5F5F5F5F5F5F5F5F5F5F5F5F5F5F5F5F5F5F5F5F5F5F5F5F5F5F5F5F5F5F5F5F5F5F5F5F5F5F5F5F5F5F5F5F5F5F5F5F5F5F5F5F5F5F5F5F5F5F5F5F5F5
310
F5F5F5F5F5F5F5F5F5F5F5F5E2F5F5F5F5F5F5F5F5F5F5F5F5F5F5F5F5F5F5F5F5F5E2E2F5F5F5F5F5F5F5F5F5F5F5F5F5F5F5F5F5F5F5F5F5E2F5F5F5F5F5F5F5F5F5F5F5F5F5F5F5F5F5F5F5F5F5F5F5F5F5F5F5F5F5F5F5F5F5F5F5F5F5F5F5F5F5F5F5F5F5F5F5F5F5F5F5F5F5F5F5F5F5F5F5F5F5F5F5F5F5F5F5F5F5
310
F5F5F5F5F5F5F5F5F5F5F5F5F5F5F5F5F5F5F5F5F5F5F5F5F5F5F5F5F5F5F5F5F5F5F5F5F5F5F5F5F5F5F5F5F5F5F5F5F5F5F5F5F5F5F5F5F5F5F5F5F5F5F5F5F5E2F5F5F5F5F5F5F5F5F5F5F5F5F5F5F5F5F5F5F5F5F5E2E2F5F5F5F5F5F5F5F5F5F5F5F5F5F5F5F5F5F5F5F5F5E2F5F5F5F5F5F5F5F5F5F5F5F5F5F5F5F5
310
F5F5F5F5F5F5F5F5F5F5F5F5F5F5F5F5F5F5F5F5F5F5F5F5F5F5F5F5F5F5F5F5F5F5F5F5F5F5F5F5F5F5F5F5F5F5F5F5F5F5F5F5F5F5F5F5F5F5F5F5F5F5F5F5F5F5F5F5F5F5F5F5F5F5F5F5F5F5F5F5F5F5F5F5F5F5F5F5F5F5F5F5F5F5F5F5F5F5F5F5F5F5F5F5F5F5F5F5F5F5F5F5F5F5F5F5F5F5E2F5F5F5F5F5F5F5F5
310
F5F5F5F5F5F5F5F5F5F5F5F5F5E2E2F5F5F5F5E2F5F5F5F5F5F5F5F5F5F5F5F5F5F5F5F5E2F5F5F5F5F5F5F5F5F5F5F5F5F5F5F5F5F5F5F5F5F5F5F5F5F5F5F5F5F5F5F5F5F5F5F5F5F5F5F5F5F5F5F5F5F5F5F5F5F5F5F5F5F5F5F5F5F5F5F5F5F5F5F5F5F5F5F5F5F5F5F5F5F5F5F5F5F5F5F5F5F5F5F5F5F5F5F5F5F5F5
310
F5F5F5F5F5F5F5F5F5F5F5F5F5F5F5F5F5F5F5F5F5F5F5F5F5F5F5F5F5F5F5F5F5F5F5F5F5F5F5F5F5F5F5F5E2F5F5F5F5F5F5F5F5F5F5F5F5F5F5F5F5E2F5F5F5F5E2E2F5F5F5F5E2F5F5F5F5F5F5F5F5F5F5F5F5F5F5F5F5E2F5F5F5F5F5F5F5F5F5F5F5F5F5F5F5F5F5F5F5F5F5F5F5F5F5F5F5F5F5F5F5F5F5F5F5F5F5
310
F5F5F5F5F5F5F5F5F5F5F5F5F5F5F5F5F5F5F5F5F5F5F5F5F5F5F5F5F5F5F5F5F5F5F5F5F5F5F5F5F5F5F5F5F5F5F5F5F5F5F5F5F5F5F5F5F5F5F5F5F5F5F5F5F5F5F5F5F5F5F5F5F5F5F5F5F5F5F5F5F5F5F5F5F5F5F5F5F5F5F5F5F5F5F5F5F5E2F5F5F5F5F5F5F5F5F5F5F5F5F5F5F5F5E2F5F5F5F5E2E2F5F5F5F5E2F5
310
F5F5F5F5F5F5F5F5F5F5F5F5F5F5F5E2F5F5F5F5F5F5F5F5F5F5F5F5F5F5F5F5F5F5F5F5F5F5F5F5F5F5F5F5F5F5F5F5F5F5F5F5F5F5F5F5F5F5F5F5F5F5F5F5F5F5F5F5F5F5F5F5F5F5F5F5F5F5F5F5F5F5F5F5F5F5F5F5F5F5F5F5F5F5F5F5F5F5F5F5F5F5F5F5F5F5F5F5F5F5F5F5F5F5F5F5F5F5F5F5F5F5F5F5F5F5F5
310
F5F5F5F5F5F5F5F5F5F5F5F5F5F5F5F5F5F5F5F5F5F5F5E2F5F5F5F5F5F5F5F5F5F5F5F5F5F5F5F5E2F5F5F5F5E2E2F5F5F5F5E2F5F5F5F5F5F5F5F5F5F5F5F5F5F5F5F5E2F5F5F5F5F5F5F5F5F5F5F5F5F5F5F5F5F5F5F5F5F5F5F5F5F5F5F5F5F5F5F5F5F5F5F5F5F5F5F5F5F5F5F5F5F5F5F5F5F5F5F5F5F5F5F5F5F5F5
310
F5F5F5F5F5F5F5F5F5F5F5F5F5F5F5F5F5F5F5F5F5F5F5F5F5F5F5F5F5F5F5F5F5F5F5F5F5F5F5F5F5F5F5F5F5F5F5F5F5F5F5F5F5F5F5F5F5F5F5F5F5F5F5F5F5F5F5F5F5F5F5F5F5F5F5F5E2F5F5F5F5F5F5F5F5F5F5F5F5F5F5F5F5E2F5F5F5F5E2E2F5F5F5F5E2F5F5F5F5F5F5F5F5F5F5F5F5F5F5F5F5E2F5F5F5F5F5
310
F5F5F5F5F5F5F5F5F5F5F5F5F5F5F5F5F5F5F5F5F5F5F5F5F5F5F5F5F5F5F5F5F5F5F5F5F5F5F5F5F5F5F5F5F5F5F5F5F5F5F5F5F5F5F5F5F5F5F5F5F5F5F5F5F5F5F5F5F5F5F5F5F5F5F5F5F5F5F5F5F5F5F5F5F5F5F5F5F5F5F5F5F5F5F5F5F5F5F5F5F5F5F5F5F5F5F5F5F5F5F5F5F5F5F5F5F5F5F5F5F5F5F5F5F5F5F5
310
F5F5E2F5F5F5F5F5F5F5F5F5F5F5F5F5F5F5F5E2F5F5F5F5E2E2F5F5F5F5E2F5F5F5F5F5F5F5F5F5F5F5F5F5F5F5F5E2F5F5F5F5F5F5F5F5F5F5F5F5F5F5F5F5F5F5F5F5F5F5F5F5F5F5F5F5F5F5F5F5F5F5F5F5F5F5F5F5F5F5F5F5F5F5F5F5F5F5F5F5F5F5F5F5F5F5F5F5F5F5F5F5F5F5F5F5F5F5F5F5F5F5F5F5F5F5F5
310
F5F5F5F5F5F5F5F5F5F5F5F5F5F5F5F5F5F5F5F5F5F5F5F5F5F5F5F5F5F5F5F5F5F5F5F5F5F5F5F5F5F5F5F5F5F5F5F5F5F5F5F5F5F5F5E2F5F5F5F5F5F5F5F5F5F5F5F5F5F5F5F5E2F5F5F5F5E2E2F5F5F5F5E2F5F5F5F5F5F5F5F5F5F5F5F5F5F5F5F5E2F5F5F5F5F5F5F5F5F5F5F5F5F5F5F5F5F5F5F5F5F5F5F5F5F5F5
310
F5F5F5F5F5F5F5F5F5F5F5F5F5F5F5F5F5F5F5F5F5F5F5F5F5F5F5F5F5F5F5F5F5F5F5F5F5F5F5F5F5F5F5F5F5F5F5F5F5F5F5F5F5F5F5F5F5F5F5F5F5F5F5F5F5F5F5F5F5F5F5F5F5F5F5F5F5F5F5F5F5F5F5F5F5F5F5F5F5F5F5F5F5F5F5F5F5F5F5F5F5F5F5F5F5F5F5F5E2F5F5F5F5F5F5F5F5F5F5F5F5F5F5F5F5E2F5
310
F5F5F5E2E2F5F5F5F5E2F5F5F5F5F5F5F5F5F5F5F5F5F5F5F5F5E2F5F5F5F5F5F5F5F5F5F5F5F5F5F5F5F5F5F5F5F5F5F5F5F5F5F5F5F5F5F5F5F5F5F5F5F5F5F5F5F5F5F5F5F5F5F5F5F5F5F5F5F5F5F5F5F5F5F5F5F5F5F5F5F5F5F5F5F5F5F5F5F5F5F5F5F5F5F5F5F5F5F5F5F5F5F5F5F5F5F5F5F5F5F5F5F5F5F5F5F5
310
F5F5F5F5F5F5F5F5F5F5F5F5F5F5F5F5F5F5F5F5F5F5F5F5F5F5F5F5F5F5F5F5F5F5E2F5F5F5F5F5F5F5F5F5F5F5F5F5F5F5F5E2F5F5F5F5E2E2F5F5F5F5E2F5F5F5F5F5F5F5F5F5F5F5F5F5F5F5F5E2F5F5F5F5F5F5F5F5F5F5F5F5F5F5F5F5F5F5F5F5F5F5F5F5F5F5F5F5F5F5F5F5F5F5F5F5F5F5F5F5F5F5F5F5F5F5F5
310
F5F5F5F5F5F5F5F5F5F5F5F5F5F5F5F5F5F5F5F5F5F5F5F5F5F5F5F5F5F5F5F5F5F5F5F5F5F5F5F5F5F5F5F5F5F5F5F5F5F5F5F5F5F5F5F5F5F5F5F5F5F5F5F5F5F5F5F5F5F5F5F5F5F5F5F5F5F5F5F5F5F5F5F5F5F5F5E2F5F5F5F5F5F5F5F5F5F5F5F5F5F5F5F5E2F5F5F5F5E2E2F5F5F5F5E2F5F5F5F5F5F5F5F5F5F5F5
310
F5F5F5F5F5E2F5F5F5F5F5F5F5F5F5F5F5F5F5F5F5F5F5F5F5F5F5F5F5F5F5F5F5F5F5F5F5F5F5F5F5F5F5F5F5F5F5F5F5F5F5F5F5F5F5F5F5F5F5F5F5F5F5F5F5F5F5F5F5F5F5F5F5F5F5F5F5F5F5F5F5F5F5F5F5F5F5F5F5F5F5F5F5F5F5F5F5F5F5F5F5F5F5F5F5F5F5F5F5F5F5F5F5F5F5F5F5F5F5F5F5F5F5F5F5F5F5
310
F5F5F5F5F5F5F5F5F5F5F5F5F5E2F5F5F5F5F5F5F5F5F5F5F5F5F5F5F5F5E2F5F5F5F5E2E2F5F5F5F5E2F5F5F5F5F5F5F5F5F5F5F5F5F5F5F5F5E2F5F5F5F5F5F5F5F5F5F5F5F5F5F5F5F5F5F5F5F5F5F5F5F5F5F5F5F5F5F5F5F5F5F5F5F5F5F5F5F5F5F5F5F5F5F5F5F5F5F5F5F5F5F5F5F5F5F5F5F5F5F5F5F5F5F5F5F5
310
F5F5F5F5F5F5F5F5F5F5F5F5F5F5F5F5F5F5F5F5F5F5F5F5F5F5F5F5F5F5F5F5F5F5F5F5F5F5F5F5F5F5F5F5F5F5F5F5F5F5F5F5F5F5F5F5F5F5F5F5F5F5F5F5F5F5E2F5F5F5F5F5F5F5F5F5F5F5F5F5F5F5F5E2F5F5F5F5E2E2F5F5F5F5E2F5F5F5F5F5F5F5F5F5F5F5F5F5F5F5F5E2F5F5F5F5F5F5F5F5F5F5F5F5F5F5F5
310
F5F5F5F5F5F5F5F5F5F5F5F5F5F5F5F5F5F5F5F5F5F5F5F5F5F5F5F5F5F5F5F5F5F5F5F5F5F5F5F5F5F5F5F5F5F5F5F5F5F5F5F5F5F5F5F5F5F5F5F5F5F5F5F5F5F5F5F5F5F5F5F5F5F5F5F5F5F5F5F5F5F5F5F5F5F5F5F5F5F5F5F5F5F5F5F5F5F5F5F5F5F5F5F5F5F5F5F5F5F5F5F5F5F5F5F5F5F5F5E2F5F5F5F5F5F5F5
310
F5F5F5F5F5F5F5F5F5E2F5F5F5F5E2E2F5F5F5F5E2F5F5F5F5F5F5F5F5F5F5F5F5F5F5F5F5E2F5F5F5F5F5F5F5F5F5F5F5F5F5F5F5F5F5F5F5F5F5F5F5F5F5F5F5F5F5F5F5F5F5F5F5F5F5F5F5F5F5F5F5F5F5F5F5F5F5F5F5F5F5F5F5F5F5F5F5F5F5F5F5F5F5F5F5F5F5F5F5F5F5F5F5F5F5F5F5F5F5F5F5F5F5F5F5F5F5
310
F5F5F5F5F5F5F5F5F5F5F5F5F5F5F5F5F5F5F5F5F5F5F5F5F5F5F5F5F5F5F5F5F5F5F5F5F5F5F5F5F5F5F5F5F5E2F5F5F5F5F5F5F5F5F5F5F5F5F5F5F5F5E2F5F5F5F5E2E2F5F5F5F5E2F5F5F5F5F5F5F5F5F5F5F5F5F5F5F5F5E2F5F5F5F5F5F5F5F5F5F5F5F5F5F5F5F5F5F5F5F5F5F5F5F5F5F5F5F5F5F5F5F5F5F5F5F5
310
F5F5F5F5F5F5F5F5F5F5F5F5F5F5F5F5F5F5F5F5F5F5F5F5F5F5F5F5F5F5F5F5F5F5F5F5F5F5F5F5F5F5F5F5F5F5F5F5F5F5F5F5F5F5F5F5F5F5F5F5F5F5F5F5F5F5F5F5F5F5F5F5F5F5F5F5F5F5F5F5F5F5F5F5F5F5F5F5F5F5F5F5F5F5F5F5F5F5E2F5F5F5F5F5F5F5F5F5F5F5F5F5F5F5F5E2F5F5F5F5E2E2F5F5F5F5E2
310
F5F5F5F5F5F5F5F5F5F5F5F5F5F5F5F5E2F5F5F5F5F5F5F5F5F5F5F5F5F5F5F5F5F5F5F5F5F5F5F5F5F5F5F5F5F5F5F5F5F5F5F5F5F5F5F5F5F5F5F5F5F5F5F5F5F5F5F5F5F5F5F5F5F5F5F5F5F5F5F5F5F5F5F5F5F5F5F5F5F5F5F5F5F5F5F5F5F5F5F5F5F5F5F5F5F5F5F5F5F5F5F5F5F5F5F5F5F5F5F5F5F5F5F5F5F5F5
310
F5F5F5F5F5F5F5F5F5F5F5F5F5F5F5F5F5F5F5F5F5F5F5F5E2F5F5F5F5F5F5F5F5F5F5F5F5F5F5F5F5E2F5F5F5F5E2E2F5F5F5F5E2F5F5F5F5F5F5F5F5F5F5F5F5F5F5F5F5E2F5F5F5F5F5F5F5F5F5F5F5F5F5F5F5F5F5F5F5F5F5F5F5F5F5F5F5F5F5F5F5F5F5F5F5F5F5F5F5F5F5F5F5F5F5F5F5F5F5F5F5F5F5F5F5F5F5
310
F5F5F5F5F5F5F5F5F5F5F5F5F5F5F5F5F5F5F5F5F5F5F5F5F5F5F5F5F5F5F5F5F5F5F5F5F5F5F5F5F5F5F5F5F5F5F5F5F5F5F5F5F5F5F5F5F5F5F5F5F5F5F5F5F5F5F5F5F5F5F5F5F5F5F5F5F5E2F5F5F5F5F5F5F5F5F5F5F5F5F5F5F5F5E2F5F5F5F5E2E2F5F5F5F5F5F5F5F5F5F5F5F5F5F5F5F5F5F5F5F5F5E2F5F5F5F5
310
F5F5F5F5F5F5F5F5F5F5F5F5F5F5F5F5F5F5F5F5F5F5F5F5F5F5F5F5F5F5F5F5F5F5F5F5F5F5F5F5F5F5F5F5F5F5F5F5F5F5F5F5F5F5F5F5F5F5F5F5F5F5F5F5F5F5F5F5F5F5F5F5F5F5F5F5F5F5F5F5F5F5F5F5F5F5F5F5F5F5F5F5F5F5F5F5F5F5F5F5F5F5F5F5F5F5F5F5F5F5F5F5F5F5F5F5F5F5F5F5F5F5F5F5F5F5F5
310
F5F5F5E2F5F5F5F5F5F5F5F5F5F5F5F5F5F5F5F5F5F5F5F5F5E2E2F5F5F5F5F5F5F5F5F5F5F5F5F5F5F5F5F5F5F5F5F5E2F5F5F5F5F5F5F5F5F5F5F5F5F5F5F5F5F5F5F5F5F5F5F5F5F5F5F5F5F5F5F5F5F5F5F5F5F5F5F5F5F5F5F5F5F5F5F5F5F5F5F5F5F5F5F5F5F5F5F5F5F5F5F5F5F5F5F5F5F5F5F5F5F5F5F5F5F5F5
310
F5F5F5F5F5F5F5F5F5F5F5F5F5F5F5F5F5F5F5F5F5F5F5F5F5F5F5F5F5F5F5F5F5F5F5F5F5F5F5F5F5F5F5F5F5F5F5F5F5F5F5F5F5F5F5F5E2F5F5F5F5F5F5F5F5F5F5F5F5F5F5F5F5F5F5F5F5F5E2E2F5F5F5F5F5F5F5F5F5F5F5F5F5F5F5F5F5F5F5F5F5E2F5F5F5F5F5F5F5F5F5F5F5F5F5F5F5F5F5F5F5F5F5F5F5F5F5
310
F5F5F5F5F5F5F5F5F5F5F5F5F5F5F5F5F5F5F5F5F5F5F5F5F5F5F5F5F5F5F5F5F5F5F5F5F5F5F5F5F5F5F5F5F5F5F5F5F5F5F5F5F5F5F5F5F5F5F5F5F5F5F5F5F5F5F5F5F5F5F5F5F5F5F5F5F5F5F5F5F5F5F5F5F5F5F5F5F5F5F5F5F5F5F5F5F5F5F5F5F5F5F5F5F5F5F5F5F5E2F5F5F5F5F5F5F5F5F5F5F5F5F5F5F5F5F5
310
F5F5F5F5E2E2F5F5F5F5F5F5F5F5F5F5F5F5F5F5F5F5F5F5F5F5F5E2F5F5F5F5F5F5F5F5F5F5F5F5F5F5F5F5F5F5F5F5F5F5F5F5F5F5F5F5F5F5F5F5F5F5F5F5F5F5F5F5F5F5F5F5F5F5F5F5F5F5F5F5F5F5F5F5F5F5F5F5F5F5F5F5F5F5F5F5F5F5F5F5F5F5F5F5F5F5F5F5F5F5F5F5F5F5F5F5F5F5F5F5F5F5F5F5F5F5F5
310
F5F5F5F5F5F5F5F5F5F5F5F5F5F5F5F5F5F5F5F5F5F5F5F5F5F5F5F5F5F5F5F5F5F5F5E2F5F5F5F5F5F5F5F5F5F5F5F5F5F5F5F5F5F5F5F5F5E2E2F5F5F5F5F5F5F5F5F5F5F5F5F5F5F5F5F5F5F5F5F5E2E2E2E2E2E2E2E2E2E2E2E2E2E2E2E2E2E2E2E2E2E2E2E2E2E2E2E2E2E2E2E2E2E2E2E2E2E2E2E2E2E2E2E2E2E2E2
310
E2E2E2E2E2E2E2E2E2E2E2E2E2E2E2E2E2E2E2E2E2E2E2E2E2E2E2E2E2E2E2E2E2E2E2E2E2E2E2E2E2E2E2E2E2E2E2E2E2E2E2E2E2E2E2E2E2E2E2E2E2E2E2E2E2E2E2E2E2E2E2E2E2E2E2E2E2E2E2E2E2E2E2E2E2E2E2E2E2F5F5F5F5F5F5F5F5F5F5F5F5F5F5F5F5F5F5F5F5F5E2E2F5F5F5F5F5F5F5F5F5F5F5F5F5F5F5
310
F5F5F5F5F5F5F5F5F5F5F5F5F5F5F5F5F5F5F5F5F5F5F5F5F5F5F5F5F5F5F5F5F5F5F5F5F5F5F5F5F5F5F5F5F5F5F5F5F5F5F5F5F5F5F5F5F5F5F5F5F5F5F5F5F5F5F5F5F5F5F5F5F5F5F5F5F5F5F5F5F5F5F5F5F5F5F5F5F5F5F5F5F5F5F5F5F5F5F5F5F5F5F5F5F5F5F5F5F5F5F5F5F5F5F5F5F5F5F5F5F5F5F5F5F5F5F5
310
F5F5F5F5F5F5F5F5F5F5F5F5F5F5F5F5F5F5F5F5F5F5F5F5F5F5F5F5F5F5F5F5F5F5F5F5E2E2F5F5F5F5F5F5F5F5F5F5F5F5F5F5F5F5F5F5F5F5F5F5F5F5F5F5F5F5F5F5F5F5F5F5F5F5F5F5F5F5F5F5F5F5F5F5F5F5F5F5F5F5F5F5F5F5F5F5F5F5F5F5F5F5F5F5F5F5F5F5F5F5F5F5F5F5F5F5F5F5F5F5F5F5F5F5F5F5F5
310
F5F5F5F5F5F5F5F5F5F5F5F5F5F5F5F5F5F5F5F5F5F5F5F5F5F5F5F5F5F5F5F5F5F5F5F5F5F5F5F5F5F5F5F5F5F5F5F5F5F5F5F5F5F5F5F5F5F5F5F5F5F5F5F5F5F5F5F5F5F5F5F5F5F5F5F5F5F5F5F5F5F5F5F5F5F5F5F5F5E2E2F5F5F5F5F5F5F5F5F5F5F5F5F5F5F5F5F5F5F5F5F5F5F5F5F5F5F5F5F5F5F5F5F5F5F5F5
310
F5F5F5F5F5F5F5F5F5F5F5F5F5F5F5F5F5F5F5F5F5F5F5F5F5F5F5F5F5F5F5F5F5F5F5F5F5F5F5F5F5F5F5F5F5F5F5F5F5F5F5F5F5F5F5F5F5F5F5F5F5F5F5F5F5F5F5F5F5F5F5F5F5F5F5F5F5F5F5F5F5F5F5F5F5F5F5F5F5F5F5F5F5F5F5F5F5F5F5F5F5F5F5F5F5F5F5F5F5F5F5F5F5F5F5F5F5F5F5F5F5F5F5F5F5F5F5
310
F5F5F5F5F5F5F5F5F5F5F5F5F5F5F5E2E2F5F5F5F5F5F5F5F5F5F5F5F5F5F5F5F5F5F5F5F5F5F5F5F5F5F5F5F5F5F5F5F5F5F5F5F5F5F5F5F5F5F5F5F5F5F5F5F5F5F5F5F5F5F5F5F5F5F5F5F5F5F5F5F5F5F5F5F5F5F5F5F5F5F5F5F5F5F5F5F5F5F5F5F5F5F5F5F5F5F5F5F5F5F5F5F5F5F5F5F5F5F5F5F5F5F5F5F5F5F5
310
F5F5F5F5F5F5F5F5F5F5F5F5F5F5F5F5F5F5F5F5F5F5F5F5F5F5F5F5F5F5F5F5F5F5F5F5F5F5F5F5F5F5F5F5F5F5F5F5F5F5F5F5F5F5F5F5F5F5F5F5F5F5F5F5F5F5F5F5E2E2F5F5F5F5E2F5F5F5F5F5F5F5F5F5F5F5F5F5F5F5F5F5F5F5F5F5F5F5F5F5F5F5F5F5F5F5F5F5F5F5F5F5F5F5F5F5F5F5F5F5F5F5F5F5F5F5F5
310
F5F5F5F5F5F5F5F5F5F5F5F5F5F5F5F5F5F5F5F5F5F5F5F5F5F5F5F5F5F5F5F5F5F5F5F5F5F5F5F5F5F5F5F5F5F5F5F5F5F5F5F5F5F5F5F5F5F5F5F5F5F5F5F5F5F5F5F5F5F5F5F5F5F5F5F5F5F5F5F5F5F5F5F5F5F5F5F5F5F5F5F5F5F5F5F5F5F5F5F5F5F5F5F5F5F5F5F5F5F5F5F5F5F5F5F5E2F5F5F5F5E2E2F5F5F5F5
310
E2F5F5F5F5F5F5F5F5F5F5F5F5F5F5F5F5F5F5F5F5F5F5F5F5F5F5F5F5F5F5F5F5F5F5F5F5F5F5F5F5F5F5F5F5F5F5F5F5F5F5F5F5F5F5F5F5F5F5F5F5F5F5F5F5F5F5F5F5F5F5F5F5F5F5F5F5F5F5F5F5F5F5F5F5F5F5F5F5F5F5F5F5F5F5F5F5F5F5F5F5F5F5F5F5F5F5F5F5F5F5F5F5F5F5F5F5F5F5F5F5F5F5F5F5F5F5
310
F5F5F5F5F5F5F5F5F5F5F5F5F5F5F5F5F5F5F5F5F5F5F5F5F5F5F5F5F5F5F5F5F5F5F5F5F5F5F5F5F5F5E2F5F5F5F5E2E2F5F5F5F5E2F5F5F5F5F5F5F5F5F5F5F5F5F5F5F5F5F5F5F5F5F5F5F5F5F5F5F5F5F5F5F5F5F5F5F5F5F5F5F5F5F5F5F5F5F5F5F5F5F5F5F5F5F5F5F5F5F5F5F5F5F5F5F5F5F5F5F5F5F5F5F5F5F5
310
F5F5F5F5F5F5F5F5F5F5F5F5F5F5F5F5F5F5F5F5F5F5F5F5F5F5F5F5F5F5F5F5F5F5F5F5F5F5F5F5F5F5F5F5F5F5F5F5F5F5F5F5F5F5F5F5F5F5F5F5F5F5F5F5F5F5F5F5F5F5F5F5F5F5F5F5F5F5F5F5F5F5F5F5F5F5F5F5F5F5F5F5F5F5F5E2F5F5F5F5E2E2F5F5F5F5E2F5F5F5F5F5F5F5F5F5F5F5F5F5F5F5F5F5F5F5F5
310
F5F5F5F5F5F5F5F5F5F5F5F5F5F5F5F5F5F5F5F5F5F5F5F5F5F5F5F5F5F5F5F5F5F5F5F5F5F5F5F5F5F5F5F5F5F5F5F5F5F5F5F5F5F5F5F5F5F5F5F5F5F5F5F5F5F5F5F5F5F5F5F5F5F5F5F5F5F5F5F5F5F5F5F5F5F5F5F5F5F5F5F5F5F5F5F5F5F5F5F5F5F5F5F5F5F5F5F5F5F5F5F5F5F5F5F5F5F5F5F5F5F5F5F5F5F5F5
310
F5F5F5F5F5F5F5F5F5F5F5F5F5F5F5F5F5F5F5F5F5E2F5F5F5F5E2E2F5F5F5F5E2F5F5F5F5F5F5F5F5F5F5F5F5F5F5F5F5F5F5F5F5F5F5F5F5F5F5F5F5F5F5F5F5F5F5F5F5F5F5F5F5F5F5F5F5F5F5F5F5F5F5F5F5F5F5F5F5F5F5F5F5F5F5F5F5F5F5F5F5F5F5F5F5F5F5F5F5F5F5F5F5F5F5F5F5F5F5F5F5F5F5F5F5F5F5
310
F5F5F5F5F5F5F5F5F5F5F5F5F5F5F5F5F5F5F5F5F5F5F5F5F5F5F5F5F5F5F5F5F5F5F5F5F5F5F5F5F5F5F5F5F5F5F5F5F5F5F5F5F5F5F5F5F5F5F5F5F5F5F5F5F5F5F5F5F5F5F5F5F5F5E2F5F5F5F5E2E2F5F5F5F5E2F5F5F5F5F5F5F5F5F5F5F5F5F5F5F5F5F5F5F5F5F5F5F5F5F5F5F5F5F5F5F5F5F5F5F5F5F5F5F5F5F5
310
F5F5F5F5F5F5F5F5F5F5F5F5F5F5F5F5F5F5F5F5F5F5F5F5F5F5F5F5F5F5F5F5F5F5F5F5F5F5F5F5F5F5F5F5F5F5F5F5F5F5F5F5F5F5F5F5F5F5F5F5F5F5F5F5F5F5F5F5F5F5F5F5F5F5F5F5F5F5F5F5F5F5F5F5F5F5F5F5F5F5F5F5F5F5F5F5F5F5F5F5F5F5F5F5F5F5F5F5F5F5F5F5F5F5F5F5F5F5F5F5F5F5F5F5F5F5F5
310
E2F5F5F5F5E2E2F5F5F5F5E2F5F5F5F5F5F5F5F5F5F5F5F5F5F5F5F5F5F5F5F5F5F5F5F5F5F5F5F5F5F5F5F5F5F5F5F5F5F5F5F5F5F5F5F5F5F5F5F5F5F5F5F5F5F5F5F5F5F5F5F5F5F5F5F5F5F5F5F5F5F5F5F5F5F5F5F5F5F5F5F5F5F5F5F5F5F5F5F5F5F5F5F5F5F5F5F5F5F5F5F5F5F5F5F5F5F5F5F5F5F5F5F5F5F5F5
310
F5F5F5F5F5F5F5F5F5F5F5F5F5F5F5F5F5F5F5F5F5F5F5F5F5F5F5F5F5F5F5F5F5F5F5F5F5F5F5F5F5F5F5F5F5F5F5F5F5F5F5F5F5E2F5F5F5F5E2E2F5F5F5F5E2F5F5F5F5F5F5F5F5F5F5F5F5F5F5F5F5F5F5F5F5F5F5F5F5F5F5F5F5F5F5F5F5F5F5F5F5F5F5F5F5F5F5F5F5F5F5F5F5F5F5F5F5F5F5F5F5F5F5F5F5F5F5
310
F5F5F5F5F5F5F5F5F5F5F5F5F5F5F5F5F5F5F5F5F5F5F5F5F5F5F5F5F5F5F5F5F5F5F5F5F5F5F5F5F5F5F5F5F5F5F5F5F5F5F5F5F5F5F5F5F5F5F5F5F5F5F5F5F5F5F5F5F5F5F5F5F5F5F5F5F5F5F5F5F5F5F5F5F5F5F5F5F5F5F5F5F5F5F5F5F5F5F5F5F5F5F5F5F5F5E2F5F5F5F5E2E2F5F5F5F5E2E2E2E2E2E2E2E2F5F5
310
F5F5F5F5F5F5F5E2E2E2E2E2E2E2E2E2E2E2E2E2E2E2F5F5F5F5F5F5F5F5F5E2E2E2E2E2E2E2E2E2E2E2E2E2E2E2E2F5F5F5F5F5F5F5F5E2E2E2E2E2E2E2E2E2E2E2E2E2E2E2E2F5F5F5F5F5F5F5F5E2E2E2E2E2E2E2E2E2E2E2E2E2E2E2E2F5F5F5F5F5F5F5F5E2E2E2E2E2E2E2E2E2E2E2E2E2E2E2E2F5F5F5F5F5F5F5F5
310
F5E2E2E2E2E2E2E2E2E2E2E2E2E2E2E2F5F5F5F5F5F5F5F5F5E2E2E2E2E2E2E2E2F5F5F5F5E2E2F5F5F5F5F5F5F5F5F5F5F5F5F5F5F5F5F5F5F5F5F5F5F5F5F5F5F5F5F5F5F5F5F5F5F5F5F5F5F5F5F5F5F5F5F5F5F5F5F5F5F5F5F5F5F5F5F5F5F5F5F5F5F5F5F5F5F5F5F5F5F5F5F5F5F5F5F5F5F5F5F5F5F5F5F5F5F5F5
310
F5F5F5F5F5F5F5F5F5F5F5F5F5F5F5F5F5F5F5F5F5F5F5F5F5F5F5F5F5F5F5F5F5F5F5F5F5F5F5F5F5F5F5F5F5F5F5F5F5F5F5F5F5F5F5F5F5F5F5F5F5F5F5F5F5F5F5F5F5F5F5F5F5F5F5F5F5F5F5F5F5F5F5F5F5F5F5F5F5F5E2E2F5F5F5F5F5F5F5F5F5F5F5F5F5F5F5F5F5F5F5F5F5F5F5F5F5F5F5F5F5F5F5F5F5F5F5
310
F5F5F5F5F5F5F5F5F5F5F5F5F5F5F5F5F5F5F5F5F5F5F5F5F5F5F5F5F5F5F5F5F5F5F5F5F5F5F5F5F5F5F5F5F5F5F5F5F5F5F5F5F5F5F5F5F5F5F5F5F5F5F5F5F5F5F5F5F5F5F5F5F5F5F5F5F5F5F5F5F5F5F5F5F5F5F5F5F5F5F5F5F5F5F5F5F5F5F5F5F5F5F5F5F5F5F5F5F5F5F5F5F5F5F5F5F5F5F5F5F5F5F5F5F5F5F5
310
F5F5F5F5F5F5F5F5F5F5F5F5F5F5F5F5E2E2F5F5F5F5F5F5F5F5F5F5F5F5F5F5F5F5F5F5F5F5F5F5F5F5F5F5F5F5F5F5F5F5F5F5F5F5F5F5F5F5F5F5F5F5F5F5F5F5F5F5F5F5F5F5F5F5F5F5F5F5F5F5F5F5F5F5F5F5F5F5F5F5F5F5F5F5F5F5F5F5F5F5F5F5F5F5F5F5F5F5F5F5F5F5F5F5F5F5F5F5F5F5F5F5F5F5F5F5F5
310
F5F5F5F5F5F5F5F5F5F5F5F5F5F5F5F5F5F5F5F5F5F5F5F5F5F5F5F5F5F5F5F5F5F5F5F5F5F5F5F5F5F5F5F5F5F5F5F5F5F5F5F5F5F5F5F5F5F5F5F5F5F5F5F5F5F5F5F5F5E2E2E2E2E2E2E2E2E2E2E2E2E2E2E2E2E2E2E2E2E2E2E2E2E2E2E2E2E2E2E2E2E2E2E2E2E2E2E2E2E2E2E2E2E2E2E2E2E2E2E2E2E2E2E2E2E2E2
310
E2E2E2E2E2E2E2E2E2E2E2E2E2E2E2E2E2E2E2E2E2E2E2E2E2E2E2E2E2E2E2E2E2E2E2E2E2E2E2E2E2E2E2E2E2E2E2E2E2E2E2E2E2E2E2E2E2E2E2E2E2E2E2E2E2E2E2E2E2E2E2E2E2E2E2E2E2E2E2E2E2E2E2E2E2E2E2E2E2E2E2E2E2E2E2E2E2E2E2E2E2E2E2E2E2E2E2E2E2E2E2E2E2E2E2E2E2E2E2E2E2E2E2EFEFEFEF
310
EFEFEFEFEFEFEFEFEFEFEFEFEFEFEFEFEFEFEFEFEFEFEFEFEFEFEFEFEFEFEFEFEFEFEFEFEFEFEFEFEFEFEFEFEFEFEFEFEFEFEFEFEFEFEFEFEFEFEFEFEFEFEFEFEFEFEFEFEFEFEFEFEFEFEFEFEFEFEFEFEFEFEFEFEFEFEFEFEFEFEFEFEFEFEFEFEFEFEFEFEFEFEFEFEFEFEFEFEFEFEFEFEFEFEFEFEFEFEFEFEFEFEFEFEFEFEF
310
EFEFEFEFEFEFEFEFEFEFEFEFEFEFEFEFEFEFEFEFEFEFEFEFEFEFEFEFEFEFEFEFEFEFEFEFEFEFEFEFEFEFEFEFEFEFEFEFEF
  0
XRECORD
  5
5F1D8
102
{ACAD_REACTORS
330
B5
102
}
330
B5
100
AcDbXrecord
280
     1
102
SHADEPLOT
 70
     0
102
SHADEPLOTRESLEVEL
 70
     2
102
SHADEPLOTCUSTOMDPI
 70
   300
  0
XRECORD
  5
B6
102
{ACAD_REACTORS
330
B5
102
}
330
B5
100
AcDbXrecord
280
     1
310
28000000B40000008B0000000100080000000000BC610000000000000000000000010000000000000000000000000000FFFFFF000000000000000000000000000000000000000000000000000000000000000000330000006600000099000000CC000000FF00000000330000333300006633000099330000CC330000FF3300
310
0000660000336600006666000099660000CC660000FF66000000990000339900006699000099990000CC990000FF99000000CC000033CC000066CC000099CC0000CCCC0000FFCC000000FF000033FF000066FF000099FF0000CCFF0000FFFF000000003300330033006600330099003300CC003300FF003300003333003333
310
33006633330099333300CC333300FF33330000663300336633006666330099663300CC663300FF66330000993300339933006699330099993300CC993300FF99330000CC330033CC330066CC330099CC3300CCCC3300FFCC330000FF330033FF330066FF330099FF3300CCFF3300FFFF330000006600330066006600660099
310
006600CC006600FF00660000336600333366006633660099336600CC336600FF33660000666600336666006666660099666600CC666600FF66660000996600339966006699660099996600CC996600FF99660000CC660033CC660066CC660099CC6600CCCC6600FFCC660000FF660033FF660066FF660099FF6600CCFF6600
310
FFFF660000009900330099006600990099009900CC009900FF00990000339900333399006633990099339900CC339900FF33990000669900336699006666990099669900CC669900FF66990000999900339999006699990099999900CC999900FF99990000CC990033CC990066CC990099CC9900CCCC9900FFCC990000FF99
310
0033FF990066FF990099FF9900CCFF9900FFFF99000000CC003300CC006600CC009900CC00CC00CC00FF00CC000033CC003333CC006633CC009933CC00CC33CC00FF33CC000066CC003366CC006666CC009966CC00CC66CC00FF66CC000099CC003399CC006699CC009999CC00CC99CC00FF99CC0000CCCC0033CCCC0066CC
310
CC0099CCCC00CCCCCC00FFCCCC0000FFCC0033FFCC0066FFCC0099FFCC00CCFFCC00FFFFCC000000FF003300FF006600FF009900FF00CC00FF00FF00FF000033FF003333FF006633FF009933FF00CC33FF00FF33FF000066FF003366FF006666FF009966FF00CC66FF00FF66FF000099FF003399FF006699FF009999FF00CC
310
99FF00FF99FF0000CCFF0033CCFF0066CCFF0099CCFF00CCCCFF00FFCCFF0000FFFF0033FFFF0066FFFF0099FFFF00CCFFFF00FFFFFF00000000000D0D0D001A1A1A00282828003535350043434300505050005D5D5D006B6B6B00787878008686860093939300A1A1A100AEAEAE00BBBBBB00C9C9C900D6D6D600E4E4E400
310
F1F1F100FFFFFF0000000000000000000000000000000000000000000000000000000000000000000000000000000000F5F5F5F5F5F5F5F5F5F5F5F5F5F5F5F5F5F5F5F5F5F5F5F5F5F5F5F5F5F5F5F5F5F5F5F5F5F5F5F5F5F5F5F5F5F5F5F5F5F5F5F5F5F5F5F5F5F5F5F5F5F5F5F5F5F5F5F5F5F5F5F5F5F5F5F5F5F5F5
310
F5F5F5F5F5F5F5F5F5F5F5F5F5F5F5F5F5F5F5F5F5F5F5F5F5F5F5F5F5F5F5F5F5F5F5F5F5F5F5F5F5F5F5F5F5F5F5F5F5F5F5F5F5F5F5F5F5F5F5F5F5F5F5F5F5F5F5F5F5F5F5F5F5F5F5F5F5F5F5F5F5F5F5F5F5F5F5F5F5F5F5F5F5F5F5F5F5F5F5F5F5F5E2E2E2E2E2E2E2E2E2E2E2E2E2E2E2E2E2E2E2E2E2E2E2E2E2
310
E2E2E2E2E2E2E2E2E2E2E2E2E2E2E2E2E2E2E2E2E2E2E2E2E2E2E2E2E2E2E2E2E2E2E2E2E2E2E2E2E2E2E2E2E2E2E2E2E2E2E2E2E2E2E2E2E2E2E2E2E2E2E2E2E2E2E2E2E2E2E2E2E2E2E2E2E2E2E2E2E2E2E2E2E2E2E2E2E2E2E2E2E2E2E2E2E2E2E2E2E2E2E2E2E2E2E2E2E2E2E2E2E2E2E2E2E2E2E2E2E2E2E2E2E2E2E2
310
E2E2E2E2E2E2E2E2E2E2E2E2E2E2E2E2E2E2E2E2E2E2E2E2E2E2F5F5E2E2E2E2E2E2E2E2E2E2E2E2E2E2E2E2E2E2E2E2E2E2E2E2E2E2E2E2E2E2E2E2E2E2E2E2E2E2E2E2E2E2E2E2E2E2E2E2E2E2E2E2E2E2E2E2E2E2E2E2E2E2E2E2E2E2E2E2E2E2E2E2E2E2E2E2E2E2E2E2E2E2E2E2E2E2E2E2E2E2E2E2E2E2E2E2E2E2E2
310
E2E2E2E2E2E2E2E2E2E2E2E2E2E2E2E2E2E2E2E2E2E2E2E2E2E2E2E2E2E2E2E2E2E2E2E2E2E2E2E2E2E2E2E2E2E2E2E2E2E2E2E2E2E2E2E2E2E2E2E2E2E2E2E2E2E2E2E2E2E2E2E2E2E2E2E2E2E2E2F5F5E2E2E2E2E2E2E2E2E2E2E2E2E2E2E2E2E2E2E2E2E2E2E2E2E2E2E2E2E2E2E2E2E2E2E2E2E2E2E2E2E2E2E2E2E2E2
310
E2E2E2E2E2E2E2E2E2E2E2E2E2E2E2E2E2E2E2E2E2E2E2E2E2E2E2E2E2E2E2E2E2E2E2E2E2E2E2E2E2E2E2E2E2E2E2E2E2E2E2E2E2E2E2E2E2E2E2E2E2E2E2E2E2E2E2E2E2E2E2E2E2E2E2E2E2E2E2E2E2E2E2E2E2E2E2E2E2E2E2E2E2E2E2E2E2E2E2E2E2E2E2E2E2E2E2E2E2E2E2E2E2E2E2E2E2E2E2E2E2E2E2E2E2E2E2
310
E2E2E2E2E2F5F5E2E2E2E2E2E2E2E2E2E2E2E2E2E2E2E2E2E2E2E2E2E2E2E2E2E2E2E2E2E2E2E2E2E2E2E2E2E2E2E2E2E2E2E2E2E2E2E2E2E2E2E2E2E2E2E2E2E2E2E2E2E2E2E2E2E2E2E2E2E2E2E2E2E2E2E2E2E2E2E2E2E2E2E2E2E2E2E2E2E2E2E2E2E2E2E2E2E2E2E2E2E2E2E2E2E2E2E2E2E2E2E2E2E2E2E2E2E2E2E2
310
E2E2E2E2E2E2E2E2E2E2E2E2E2E2E2E2E2E2E2E2E2E2E2E2E2E2E2E2E2E2E2E2E2E2E2E2E2E2E2E2E2E2E2E2E2E2E2E2E2E2E2E2E2E2E2E2E2E2F5F5E2E2E2F5F5F5F5F5F5F5F5E2E2E2E2E2E2E2E2E2F5F5F5F5F5F5F5F5F5F5F5F5F5F5F5F5E2E2E2E2E2E2E2E2E2F5F5F5F5F5F5F5F5F5F5F5F5F5F5F5E2E2E2E2E2E2E2
310
E2E2F5F5F5F5F5F5F5F5F5F5F5F5F5F5F5F5E2E2E2E2E2E2E2E2F5F5F5F5F5F5F5F5F5F5F5F5F5F5F5F5E2E2E2E2E2E2E2E2E2F5F5F5F5F5F5F5F5F5F5F5F5F5F5F5E2E2E2E2E2E2E2E2E2F5F5F5F5F5F5F5F5F5F5F5F5F5F5F5F5E2E2E2E2E2E2E2E2E2F5F5F5F5F5F5F5F5E2E2E2F5F5E2E2E2F5E2E2E2E2E2E2E2E2E2E2
310
E2E2E2E2E2E2E2E2E2E2E2E2E2E2E2E2E2E2E2E2E2E2E2E2E2E2E2E2E2E2E2E2E2E2E2E2E2E2E2E2E2E2E2E2E2E2E2E2E2E2E2E2E2E2E2E2E2E2E2E2E2E2E2E2E2E2E2E2E2E2E2E2E2E2E2E2E2E2E2E2E2E2E2E2E2E2E2E2E2E2E2E2E2E2E2E2E2E2E2E2E2E2E2E2E2E2E2E2E2E2E2E2E2E2E2E2E2E2E2E2E2E2E2E2E2E2E2
310
E2E2E2E2E2E2E2E2E2E2E2E2E2E2E2E2E2E2E2E2E2E2E2E2E2E2E2E2E2E2E2E2E2F5E2E2E2F5F5E2E2E2F5E2E2E2E2E2E2E2E2E2E2E2E2E2E2E2E2E2E2E2E2E2E2E2E2E2E2E2E2E2E2E2E2E2E2E2E2E2E2E2E2E2E2E2E2E2E2E2E2E2E2E2E2E2E2E2E2E2E2E2E2E2E2E2E2E2E2E2E2E2E2E2E2E2E2E2E2E2E2E2E2E2E2E2E2
310
E2E2E2E2E2E2E2E2E2E2E2E2E2E2E2E2E2E2E2E2E2E2E2E2E2E2E2E2E2E2E2E2E2E2E2E2E2E2E2E2E2E2E2E2E2E2E2E2E2E2E2E2E2E2E2E2E2E2E2E2E2E2E2E2E2E2E2E2E2E2E2E2E2E2E2E2E2E2E2E2E2E2E2E2E2E2F5E2E2E2F5F5E2E2E2F5E2E2E2E2E2E2E2E2E2E2E2E2E2E2E2E2E2E2E2E2E2E2E2E2E2E2E2E2E2E2E2
310
E2E2E2E2E2E2E2E2E2E2E2E2E2E2E2E2E2E2E2E2E2E2E2E2E2E2E2E2E2E2E2E2E2E2E2E2E2E2E2E2E2E2E2E2E2E2E2E2E2E2E2E2E2E2E2E2E2E2E2E2E2E2E2E2E2E2E2E2E2E2E2E2E2E2E2E2E2E2E2E2E2E2E2E2E2E2E2E2E2E2E2E2E2E2E2E2E2E2E2E2E2E2E2E2E2E2E2E2E2E2E2E2E2E2E2E2E2E2E2E2E2E2E2E2E2E2E2
310
E2E2E2E2E2E2E2E2E2E2E2E2F5E2E2E2F5F5E2E2E2F5E2E2E2E2E2E2E2E2E2E2E2E2E2E2E2E2E2E2E2E2E2E2E2E2E2E2E2E2E2E2E2E2E2E2E2E2E2E2E2E2E2E2E2E2E2E2E2E2E2E2E2E2E2E2E2E2E2E2E2E2E2E2E2E2E2E2E2E2E2E2E2E2E2E2E2E2E2E2E2E2E2E2E2E2E2E2E2E2E2E2E2E2E2E2E2E2E2E2E2E2E2E2E2E2E2
310
E2E2E2E2E2E2E2E2E2E2E2E2E2E2E2E2E2E2E2E2E2E2E2E2E2E2E2E2E2E2E2E2E2E2E2E2E2E2E2E2E2E2E2E2E2E2E2E2E2E2E2E2E2E2E2E2E2E2E2E2E2E2E2E2E2F5E2E2E2F5F5E2E2E2F5E2E2E2E2E2E2E2E2E2E2E2E2E2E2E2E2E2E2E2E2E2E2E2E2E2E2E2E2E2E2E2E2E2E2E2E2E2E2E2E2E2E2E2E2E2E2E2E2E2E2E2E2
310
E2E2E2E2E2E2E2E2E2E2E2E2E2E2E2E2E2E2E2E2E2E2E2E2E2E2E2E2E2E2E2E2E2E2E2E2E2E2E2E2E2E2E2E2E2E2E2E2E2E2E2E2E2E2E2E2E2E2E2E2E2E2E2E2E2E2E2E2E2E2E2E2E2E2E2E2E2E2E2E2E2E2E2E2E2E2E2E2E2E2E2E2E2E2E2E2E2E2E2E2E2E2E2E2E2E2E2E2E2E2E2E2E2E2E2E2E2E2F5E2E2E2F5F5E2E2E2
310
F5E2E2E2E2E2E2E2E2E2E2E2E2E2E2E2E2E2E2E2E2E2E2E2E2E2E2E2E2E2E2E2E2E2E2E2E2E2E2E2E2E2E2E2E2E2E2E2E2E2E2E2E2E2E2E2E2E2E2E2E2E2E2E2E2E2E2E2E2E2E2E2E2E2E2E2E2E2E2E2E2E2E2E2E2E2E2E2E2E2E2E2E2E2E2E2E2E2E2E2E2E2E2E2E2E2E2E2E2E2E2E2E2E2E2E2E2E2E2E2E2E2E2E2E2E2E2
310
E2E2E2E2E2E2E2E2E2E2E2E2E2E2E2E2E2E2E2E2E2E2E2E2E2E2E2E2E2E2E2E2E2E2E2E2E2E2E2E2E2E2E2E2F5E2E2E2F5F5E2E2E2F5E2E2E2E2E2E2E2E2E2E2E2E2E2E2E2E2E2E2E2E2E2E2E2E2E2E2E2E2E2E2E2E2E2E2E2E2E2E2E2E2E2E2E2E2E2E2E2E2E2E2E2E2E2E2E2E2E2E2E2E2E2E2E2E2E2E2E2E2E2E2E2E2E2
310
E2E2E2E2E2E2E2E2E2E2E2E2E2E2E2E2E2E2E2E2E2E2E2E2E2E2E2E2E2E2E2E2E2E2E2E2E2E2E2E2E2E2E2E2E2E2E2E2E2E2E2E2E2E2E2E2E2E2E2E2E2E2E2E2E2E2E2E2E2E2E2E2E2E2E2E2E2E2E2E2E2E2E2E2E2E2E2E2E2E2E2E2E2E2E2E2E2F5E2E2E2F5F5E2E2E2F5E2E2E2E2E2E2E2E2E2E2E2E2E2E2E2E2E2E2E2E2
310
E2E2E2E2E2E2E2E2E2E2E2E2E2E2E2E2E2E2E2E2E2E2E2E2E2E2E2E2E2E2E2E2E2E2E2E2E2E2E2E2E2E2E2E2E2E2E2E2E2E2E2E2E2E2E2E2E2E2E2E2E2E2E2E2E2E2E2E2E2E2E2E2E2E2E2E2E2E2E2E2E2E2E2E2E2E2E2E2E2E2E2E2E2E2E2E2E2E2E2E2E2E2E2E2E2E2E2E2E2E2E2E2E2E2E2E2E2E2E2E2E2E2E2E2E2E2E2
310
E2E2E2E2E2E2E2E2E2E2E2E2E2E2E2E2E2E2E2E2E2E2E2F5E2E2E2F5F5E2E2E2E2E2E2E2E2E2E2E2E2E2E2E2E2E2E2E2E2E2E2E2E2E2E2E2E2E2E2E2E2E2E2E2E2E2E2E2E2E2E2E2E2E2E2E2E2E2E2E2E2E2E2E2E2E2E2E2E2E2E2E2E2E2E2E2E2E2E2E2E2E2E2E2E2E2E2E2E2E2E2E2E2E2E2E2E2E2E2E2E2E2E2E2E2E2E2
310
E2E2E2E2E2E2E2E2E2E2E2E2E2E2E2E2E2E2E2E2E2E2E2E2E2E2E2E2E2E2E2E2E2E2E2E2E2E2E2E2E2E2E2E2E2E2E2E2E2E2E2E2E2E2E2E2E2E2E2E2E2E2E2E2E2E2E2E2E2E2E2E2E2E2E2E2E2E2E2E2F5F5E2E2E2E2E2E2E2E2E2E2E2E2E2E2E2E2E2E2E2E2E2E2E2E2E2E2E2E2E2E2E2E2E2E2E2E2E2E2E2E2E2E2E2E2E2
310
E2E2E2E2E2E2E2E2E2E2E2E2E2E2E2E2E2E2E2E2E2E2E2E2E2E2E2E2E2E2E2E2E2E2E2E2E2E2E2E2E2E2E2E2E2E2E2E2E2E2E2E2E2E2E2E2E2E2E2E2E2E2E2E2E2E2E2E2E2E2E2E2E2E2E2E2E2E2E2E2E2E2E2E2E2E2E2E2E2E2E2E2E2E2E2E2E2E2E2E2E2E2E2E2E2E2E2E2E2E2E2E2E2E2E2E2E2E2E2E2E2E2E2E2E2E2E2
310
E2E2E2E2E2E2F5F5E2E2E2E2E2E2E2E2E2E2E2E2E2E2E2E2E2E2E2E2E2E2E2E2E2E2E2E2E2E2E2E2E2E2E2E2E2E2E2E2E2E2E2E2E2E2E2E2E2E2E2E2E2E2E2E2E2E2E2E2E2E2E2E2E2E2E2E2E2E2E2E2E2E2E2E2E2E2E2E2E2E2E2E2E2E2E2E2E2E2E2E2E2E2E2E2E2E2E2E2E2E2E2E2E2E2E2E2E2E2E2E2E2E2E2E2E2E2E2
310
E2E2E2E2E2E2E2E2E2E2E2E2E2E2E2E2E2E2E2E2E2E2E2E2E2E2E2E2E2E2E2E2E2E2E2E2E2E2E2E2E2E2E2E2E2E2E2E2E2E2E2E2E2E2E2E2E2E2E2F5F5E2E2E2E2E2E2E2E2E2E2E2E2E2E2E2E2E2E2E2E2E2E2E2E2E2E2E2E2E2E2E2E2E2E2E2E2E2E2E2E2E2E2E2E2E2E2E2E2E2E2E2E2E2E2E2E2E2E2E2E2E2E2E2E2E2E2
310
E2E2E2E2E2E2E2E2E2E2E2E2E2E2E2E2E2E2E2E2E2E2E2E2E2E2E2E2E2E2E2E2E2E2E2E2E2E2E2E2E2E2E2E2E2E2E2E2E2E2E2E2E2E2E2E2E2E2E2E2E2E2E2E2E2E2E2E2E2E2E2E2E2E2E2E2E2E2E2E2E2E2E2E2E2E2E2E2E2E2E2E2E2E2E2E2E2E2E2E2E2E2E2E2E2E2E2E2E2E2E2E2F5F5E2E2E2E2E2E2E2E2E2E2E2E2E2
310
E2E2E2E2E2E2E2F5F5F5F5F5F5F5F5F5F5F5F5F5F5F5F5F5F5F5F5F5F5F5F5F5F5F5F5F5F5F5F5F5F5F5F5F5F5F5F5F5F5F5F5F5F5F5F5F5F5F5F5F5F5F5F5F5F5F5F5F5F5F5F5F5F5F5F5F5F5F5F5F5F5F5F5F5F5F5F5F5F5F5F5F5F5F5F5F5F5F5F5F5F5F5F5F5F5F5F5F5F5F5F5F5F5F5F5F5F5F5F5F5F5F5F5F5F5F5F5
310
F5F5F5F5F5F5F5F5F5F5F5F5F5F5F5F5F5F5E2E2E2E2E2E2E2E2E2E2E2E2E2E2E2E2E2E2E2E2F5F5E2E2E2E2E2E2E2E2E2E2E2E2E2E2E2E2E2E2E2E2F5E2E2E2E2E2E2E2E2E2E2E2E2E2E2E2E2E2E2E2E2E2E2E2E2E2E2E2E2E2E2E2E2E2E2E2E2E2E2E2E2E2E2E2E2E2E2E2E2E2E2E2E2E2E2E2E2E2E2E2E2E2E2E2E2E2E2
310
E2E2E2E2E2E2E2E2E2E2E2E2E2E2E2E2E2E2E2E2E2E2E2E2E2E2E2E2E2E2E2E2E2E2E2E2E2E2E2E2E2E2E2E2E2E2E2E2E2E2E2E2E2E2E2E2E2E2E2E2E2E2E2E2E2E2E2E2E2E2F5E2E2E2E2E2E2E2E2E2E2E2E2E2E2E2E2E2E2E2E2F5F5E2E2E2E2E2E2E2E2E2E2E2E2E2E2E2E2E2E2E2E2F5E2E2E2E2E2E2E2E2E2E2E2E2E2
310
E2E2E2E2E2E2E2E2E2E2E2E2E2E2E2E2E2E2E2E2E2E2E2E2E2E2E2E2E2E2E2E2E2E2E2E2E2E2E2E2E2E2E2E2E2E2E2E2E2E2E2E2E2E2E2E2E2E2E2E2E2E2E2E2E2E2E2E2E2E2E2E2E2E2E2E2E2E2E2E2E2E2E2E2E2E2E2E2E2E2E2E2E2E2E2E2E2E2E2E2E2E2E2E2E2E2E2E2E2E2E2E2E2E2E2E2E2E2E2E2E2E2E2F5E2E2E2
310
E2E2E2E2E2E2E2E2E2E2E2E2E2E2E2E2E2F5F5E2E2E2E2E2E2E2E2E2E2E2E2E2E2E2E2E2E2E2E2F5E2E2E2E2E2E2E2E2E2E2E2E2E2E2E2E2E2E2E2E2E2E2E2E2E2E2E2E2E2E2E2E2E2E2E2E2E2E2E2E2E2E2E2E2E2E2E2E2E2E2E2E2E2E2E2E2E2E2E2E2E2E2E2E2E2E2E2E2E2E2E2E2E2E2E2E2E2E2E2E2E2E2E2E2E2E2E2
310
E2E2E2E2E2E2E2E2E2E2E2E2E2E2E2E2E2E2E2E2E2E2E2E2E2E2E2E2E2E2E2E2E2E2E2E2E2E2E2E2E2E2E2E2E2E2E2E2E2F5E2E2E2E2E2E2E2E2E2E2E2E2E2E2E2E2E2E2E2E2F5F5E2E2E2E2E2E2E2E2E2E2E2E2E2E2E2E2E2E2E2E2F5E2E2E2E2E2E2E2E2E2E2E2E2E2E2E2E2E2E2E2E2E2E2E2E2E2E2E2E2E2E2E2E2E2E2
310
E2E2E2E2E2E2E2E2E2E2E2E2E2E2E2E2E2E2E2E2E2E2E2E2E2E2E2E2E2E2E2E2E2E2E2E2E2E2E2E2E2E2E2E2E2E2E2E2E2E2E2E2E2E2E2E2E2E2E2E2E2E2E2E2E2E2E2E2E2E2E2E2E2E2E2E2E2E2E2E2E2E2E2E2E2E2E2E2E2E2E2E2E2E2E2E2E2E2E2E2E2E2F5E2E2E2E2E2E2E2E2E2E2E2E2E2E2E2E2E2E2E2E2F5F5E2E2
310
E2F5E2E2E2E2E2E2E2E2E2E2E2E2E2E2E2E2F5E2E2E2E2E2E2E2E2E2E2E2E2E2E2E2E2E2E2E2E2E2E2E2E2E2E2E2E2E2E2E2E2E2E2E2E2E2E2E2E2E2E2E2E2E2E2E2E2E2E2E2E2E2E2E2E2E2E2E2E2E2E2E2E2E2E2E2E2E2E2E2E2E2E2E2E2E2E2E2E2E2E2E2E2E2E2E2E2E2E2E2E2E2E2E2E2E2E2E2E2E2E2E2E2E2E2E2E2
310
E2E2E2E2E2E2E2E2E2E2E2E2E2E2E2E2E2E2E2E2E2E2E2E2E2E2E2E2F5E2E2E2E2E2E2E2E2E2E2E2E2E2E2E2E2F5E2E2E2F5F5E2E2E2F5E2E2E2E2E2E2E2E2E2E2E2E2E2E2E2E2F5E2E2E2E2E2E2E2E2E2E2E2E2E2E2E2E2E2E2E2E2E2E2E2E2E2E2E2E2E2E2E2E2E2E2E2E2E2E2E2E2E2E2E2E2E2E2E2E2E2E2E2E2E2E2E2
310
E2E2E2E2E2E2E2E2E2E2E2E2E2E2E2E2E2E2E2E2E2E2E2E2E2E2E2E2E2E2E2E2E2E2E2E2E2E2E2E2E2E2E2E2E2E2E2E2E2E2E2E2E2E2E2E2E2E2E2E2E2E2E2E2E2E2E2E2E2E2E2E2E2E2E2E2E2E2E2E2E2F5E2E2E2E2E2E2E2E2E2E2E2E2E2E2E2E2F5E2E2E2F5F5E2E2E2F5E2E2E2E2E2E2E2E2E2E2E2E2E2E2E2E2F5E2E2
310
E2E2E2E2E2E2E2E2E2E2E2E2E2E2E2E2E2E2E2E2E2E2E2E2E2E2E2E2E2E2E2E2E2E2E2E2E2E2E2E2E2E2E2E2E2E2E2E2E2E2E2E2E2E2E2E2E2E2E2E2E2E2E2E2E2E2E2E2E2E2E2E2E2E2E2E2E2E2E2E2E2E2E2E2E2E2E2E2E2E2E2E2E2E2E2E2E2E2E2E2E2E2E2E2E2E2E2E2E2E2E2E2E2E2E2E2E2E2E2E2E2E2E2E2E2E2E2
310
E2E2E2E2E2E2E2F5E2E2E2E2E2E2E2E2E2E2E2E2E2E2E2E2F5E2E2E2F5F5E2E2E2F5E2E2E2E2E2E2E2E2E2E2E2E2E2E2E2E2F5E2E2E2E2E2E2E2E2E2E2E2E2E2E2E2E2E2E2E2E2E2E2E2E2E2E2E2E2E2E2E2E2E2E2E2E2E2E2E2E2E2E2E2E2E2E2E2E2E2E2E2E2E2E2E2E2E2E2E2E2E2E2E2E2E2E2E2E2E2E2E2E2E2E2E2E2
310
E2E2E2E2E2E2E2E2E2E2E2E2E2E2E2E2E2E2E2E2E2E2E2E2E2E2E2E2E2E2E2E2E2E2E2E2E2E2E2E2E2E2E2E2E2E2E2E2E2E2E2E2E2E2E2E2E2E2E2E2F5E2E2E2E2E2E2E2E2E2E2E2E2E2E2E2E2F5E2E2E2F5F5E2E2E2F5E2E2E2E2E2E2E2E2E2E2E2E2E2E2E2E2F5E2E2E2E2E2E2E2E2E2E2E2E2E2E2E2E2E2E2E2E2E2E2E2
310
E2E2E2E2E2E2E2E2E2E2E2E2E2E2E2E2E2E2E2E2E2E2E2E2E2E2E2E2E2E2E2E2E2E2E2E2E2E2E2E2E2E2E2E2E2E2E2E2E2E2E2E2E2E2E2E2E2E2E2E2E2E2E2E2E2E2E2E2E2E2E2E2E2E2E2E2E2E2E2E2E2E2E2E2E2E2E2E2E2E2E2E2E2E2E2E2E2E2E2E2E2E2E2E2E2E2E2E2E2E2E2E2E2F5E2E2E2E2E2E2E2E2E2E2E2E2E2
310
E2E2E2F5E2E2E2F5F5E2E2E2F5E2E2E2E2E2E2E2E2E2E2E2E2E2E2E2E2F5E2E2E2E2E2E2E2E2E2E2E2E2E2E2E2E2E2E2E2E2E2E2E2E2E2E2E2E2E2E2E2E2E2E2E2E2E2E2E2E2E2E2E2E2E2E2E2E2E2E2E2E2E2E2E2E2E2E2E2E2E2E2E2E2E2E2E2E2E2E2E2E2E2E2E2E2E2E2E2E2E2E2E2E2E2E2E2E2E2E2E2E2E2E2E2E2E2
310
E2E2E2E2E2E2E2E2E2E2E2E2E2E2E2E2E2E2E2E2E2E2E2E2E2E2E2E2E2E2E2E2E2E2E2E2E2E2E2F5E2E2E2E2E2E2E2E2E2E2E2E2E2E2E2E2F5E2E2E2F5F5E2E2E2F5E2E2E2E2E2E2E2E2E2E2E2E2E2E2E2E2F5E2E2E2E2E2E2E2E2E2E2E2E2E2E2E2E2E2E2E2E2E2E2E2E2E2E2E2E2E2E2E2E2E2E2E2E2E2E2E2E2E2E2E2E2
310
E2E2E2E2E2E2E2E2E2E2E2E2E2E2E2E2E2E2E2E2E2E2E2E2E2E2E2E2E2E2E2E2E2E2E2E2E2E2E2E2E2E2E2E2E2E2E2E2E2E2E2E2E2E2E2E2E2E2E2E2E2E2E2E2E2E2E2E2E2E2E2E2E2E2E2E2E2E2E2E2E2E2E2E2E2E2E2E2E2E2E2E2F5E2E2E2E2E2E2E2E2E2E2E2E2E2E2E2E2F5E2E2E2F5F5E2E2E2F5E2E2E2E2E2E2E2E2
310
E2E2E2E2E2E2E2E2F5E2E2E2E2E2E2E2E2E2E2E2E2E2E2E2E2E2E2E2E2E2E2E2E2E2E2E2E2E2E2E2E2E2E2E2E2E2E2E2E2E2E2E2E2E2E2E2E2E2E2E2E2E2E2E2E2E2E2E2E2E2E2E2E2E2E2E2E2E2E2E2E2E2E2E2E2E2E2E2E2E2E2E2E2E2E2E2E2E2E2E2E2E2E2E2E2E2E2E2E2E2E2E2E2E2E2E2E2E2E2E2E2E2E2E2E2E2E2
310
E2E2E2E2E2E2E2E2E2E2E2E2E2E2E2E2E2E2F5E2E2E2E2E2E2E2E2E2E2E2E2E2E2E2E2F5E2E2E2F5F5E2E2E2F5E2E2E2E2E2E2E2E2E2E2E2E2E2E2E2E2F5E2E2E2E2E2E2E2E2E2E2E2E2E2E2E2E2E2E2E2E2E2E2E2E2E2E2E2E2E2E2E2E2E2E2E2E2E2E2E2E2E2E2E2E2E2E2E2E2E2E2E2E2E2E2E2E2E2E2E2E2E2E2E2E2E2
310
E2E2E2E2E2E2E2E2E2E2E2E2E2E2E2E2E2E2E2E2E2E2E2E2E2E2E2E2E2E2E2E2E2E2E2E2E2E2E2E2E2E2E2E2E2E2E2E2E2E2E2E2E2E2E2E2E2E2E2E2E2E2E2E2E2E2E2E2E2E2E2F5E2E2E2E2E2E2E2E2E2E2E2E2E2E2E2E2F5E2E2E2F5F5E2E2E2F5E2E2E2E2E2E2E2E2E2E2E2E2E2E2E2E2F5E2E2E2E2E2E2E2E2E2E2E2E2
310
E2E2E2E2E2E2E2E2E2E2E2E2E2E2E2E2E2E2E2E2E2E2E2E2E2E2E2E2E2E2E2E2E2E2E2E2E2E2E2E2E2E2E2E2E2E2E2E2E2E2E2E2E2E2E2E2E2E2E2E2E2E2E2E2E2E2E2E2E2E2E2E2E2E2E2E2E2E2E2E2E2E2E2E2E2E2E2E2E2E2E2E2E2E2E2E2E2E2E2E2E2E2E2E2E2E2E2E2E2E2E2E2E2E2E2E2E2E2E2E2E2E2E2E2F5E2E2
310
E2E2E2E2E2E2E2E2E2E2E2E2E2E2F5E2E2E2F5F5E2E2E2F5E2E2E2E2E2E2E2E2E2E2E2E2E2E2E2E2F5E2E2E2E2E2E2E2E2E2E2E2E2E2E2E2E2E2E2E2E2E2E2E2E2E2E2E2E2E2E2E2E2E2E2E2E2E2E2E2E2E2E2E2E2E2E2E2E2E2E2E2E2E2E2E2E2E2E2E2E2E2E2E2E2E2E2E2E2E2E2E2E2E2E2E2E2E2E2E2E2E2E2E2E2E2E2
310
E2E2E2E2E2E2E2E2E2E2E2E2E2E2E2E2E2E2E2E2E2E2E2E2E2E2E2E2E2E2E2E2E2E2E2E2E2E2E2E2E2E2E2E2E2E2E2E2E2E2F5E2E2E2E2E2E2E2E2E2E2E2E2E2E2E2E2F5E2E2E2F5F5E2E2E2F5E2E2E2E2E2E2E2E2E2E2E2E2E2E2E2E2F5E2E2E2E2E2E2E2E2E2E2E2E2E2E2E2E2E2E2E2E2E2E2E2E2E2E2E2E2E2E2E2E2E2
310
E2E2E2E2E2E2E2E2E2E2E2E2E2E2E2E2E2E2E2E2E2E2E2E2E2E2E2E2E2E2E2E2E2E2E2E2E2E2E2E2E2E2E2E2E2E2E2E2E2E2E2E2E2E2E2E2E2E2E2E2E2E2E2E2E2E2E2E2E2E2E2E2E2E2E2E2E2E2E2E2E2E2E2E2E2E2E2E2E2E2E2E2E2E2E2E2E2E2E2E2E2E2E2F5E2E2E2E2E2E2E2E2E2E2E2E2E2E2E2E2F5E2E2E2F5F5E2
310
E2E2F5E2E2E2E2E2E2E2E2E2E2E2E2E2E2E2E2F5E2E2E2E2E2E2E2E2E2E2E2E2E2E2E2E2E2E2E2E2E2E2E2E2E2E2E2E2E2E2E2E2E2E2E2E2E2E2E2E2E2E2E2E2E2E2E2E2E2E2E2E2E2E2E2E2E2E2E2E2E2E2E2E2E2E2E2E2E2E2E2E2E2E2E2E2E2E2E2E2E2E2E2E2E2E2E2E2E2E2E2E2E2E2E2E2E2E2E2E2E2E2E2E2E2E2E2
310
E2E2E2E2E2E2E2E2E2E2E2E2E2E2E2E2E2E2E2E2E2E2E2E2E2E2E2E2E2F5E2E2E2E2E2E2E2E2E2E2E2E2E2E2E2E2F5E2E2E2F5F5E2E2E2F5E2E2E2E2E2E2E2E2E2E2E2E2E2E2E2E2F5E2E2E2E2E2E2E2E2E2E2E2E2E2E2E2E2E2E2E2E2E2E2E2E2E2E2E2E2E2E2E2E2E2E2E2E2E2E2E2E2E2E2E2E2E2E2E2E2E2E2E2E2E2E2
310
E2E2E2E2E2E2E2E2E2E2E2E2E2E2E2E2E2E2E2E2E2E2E2E2E2E2E2E2E2E2E2E2E2E2E2E2E2E2E2E2E2E2E2E2E2E2E2E2E2E2E2E2E2E2E2E2E2E2E2E2E2E2E2E2E2E2E2E2E2E2E2E2E2E2E2E2E2E2E2E2E2E2F5E2E2E2E2E2E2E2E2E2E2E2E2E2E2E2E2F5E2E2E2F5F5E2E2E2F5E2E2E2E2E2E2E2E2E2E2E2E2E2E2E2E2F5E2
310
E2E2E2E2E2E2E2E2E2E2E2E2E2E2E2E2E2E2E2E2E2E2E2E2E2E2E2E2E2E2E2E2E2E2E2E2E2E2E2E2E2E2E2E2E2E2E2E2E2E2E2E2E2E2E2E2E2E2E2E2E2E2E2E2E2E2E2E2E2E2E2E2E2E2E2E2E2E2E2E2E2E2E2E2E2E2E2E2E2E2E2E2E2E2E2E2E2E2E2E2E2E2E2E2E2E2E2E2E2E2E2E2E2E2E2E2E2E2E2E2E2E2E2E2E2E2E2
310
E2E2E2E2E2E2E2E2F5E2E2E2E2E2E2E2E2E2E2E2E2E2E2E2E2F5E2E2E2F5F5E2E2E2F5E2E2E2E2E2E2E2E2E2E2E2E2E2E2E2E2F5E2E2E2E2E2E2E2E2E2E2E2E2E2E2E2E2E2E2E2E2E2E2E2E2E2E2E2E2E2E2E2E2E2E2E2E2E2E2E2E2E2E2E2E2E2E2E2E2E2E2E2E2E2E2E2E2E2E2E2E2E2E2E2E2E2E2E2E2E2E2E2E2E2E2E2
310
E2E2E2E2E2E2E2E2E2E2E2E2E2E2E2E2E2E2E2E2E2E2E2E2E2E2E2E2E2E2E2E2E2E2E2E2E2E2E2E2E2E2E2E2E2E2E2E2E2E2E2E2E2E2E2E2E2E2E2E2E2F5E2E2E2E2E2E2E2E2E2E2E2E2E2E2E2E2F5E2E2E2F5F5E2E2E2F5E2E2E2E2E2E2E2E2E2E2E2E2E2E2E2E2F5E2E2E2E2E2E2E2E2E2E2E2E2E2E2E2E2E2E2E2E2E2E2
310
E2E2E2E2E2E2E2E2E2E2E2E2E2E2E2E2E2E2E2E2E2E2E2E2E2E2E2E2E2E2E2E2E2E2E2E2E2E2E2E2E2E2E2E2E2E2E2E2E2E2E2E2E2E2E2E2E2E2E2E2E2E2E2E2E2E2E2E2E2E2E2E2E2E2E2E2E2E2E2E2E2E2E2E2E2E2E2E2E2E2E2E2E2E2E2E2E2E2E2E2E2E2E2E2E2E2E2E2E2E2E2E2E2E2F5E2E2E2E2E2E2E2E2E2E2E2E2
310
E2E2E2E2F5E2E2E2F5F5E2E2E2E2E2E2E2E2E2E2E2E2E2E2E2E2E2E2E2E2F5E2E2E2E2E2E2E2E2E2E2E2E2E2E2E2E2E2E2E2E2E2E2E2E2E2E2E2E2E2E2E2E2E2E2E2E2E2E2E2E2E2E2E2E2E2E2E2E2E2E2E2E2E2E2E2E2E2E2E2E2E2E2E2E2E2E2E2E2E2E2E2E2E2E2E2E2E2E2E2E2E2E2E2E2E2E2E2E2E2E2E2E2E2E2E2E2
310
E2E2E2E2E2E2E2E2E2E2E2E2E2E2E2E2E2E2E2E2E2E2E2E2E2E2E2E2E2E2E2E2E2E2E2E2E2E2E2E2F5E2E2E2E2E2E2E2E2E2E2E2E2E2E2E2E2E2E2E2E2F5F5E2E2E2E2E2E2E2E2E2E2E2E2E2E2E2E2E2E2E2E2F5E2E2E2E2E2E2E2E2E2E2E2E2E2E2E2E2E2E2E2E2E2E2E2E2E2E2E2E2E2E2E2E2E2E2E2E2E2E2E2E2E2E2E2
310
E2E2E2E2E2E2E2E2E2E2E2E2E2E2E2E2E2E2E2E2E2E2E2E2E2E2E2E2E2E2E2E2E2E2E2E2E2E2E2E2E2E2E2E2E2E2E2E2E2E2E2E2E2E2E2E2E2E2E2E2E2E2E2E2E2E2E2E2E2E2E2E2E2E2E2E2E2E2E2E2E2E2E2E2E2E2E2E2E2E2E2E2E2F5E2E2E2E2E2E2E2E2E2E2E2E2E2E2E2E2E2E2E2E2F5F5E2E2E2E2E2E2E2E2E2E2E2
310
E2E2E2E2E2E2E2E2E2F5E2E2E2E2E2E2E2E2E2E2E2E2E2E2E2E2E2E2E2E2E2E2E2E2E2E2E2E2E2E2E2E2E2E2E2E2E2E2E2E2E2E2E2E2E2E2E2E2E2E2E2E2E2E2E2E2E2E2E2E2E2E2E2E2E2E2E2E2E2E2E2E2E2E2E2E2E2E2E2E2E2E2E2E2E2E2E2E2E2E2E2E2E2E2E2E2E2E2E2E2E2E2E2E2E2E2E2E2E2E2E2E2E2E2E2E2E2
310
E2E2E2E2E2E2E2E2E2E2E2E2E2E2E2E2E2E2E2F5E2E2E2E2E2E2E2E2E2E2E2E2E2E2E2E2E2E2E2E2F5F5E2E2E2E2E2E2E2E2E2E2E2E2E2E2E2E2E2E2E2E2F5E2E2E2E2E2E2E2E2E2E2E2E2E2E2E2E2E2E2E2E2E2E2E2E2E2E2E2E2E2E2E2E2E2E2E2E2E2E2E2E2E2E2E2E2E2E2E2E2E2E2E2E2E2E2E2E2E2E2E2E2E2E2E2E2
310
E2E2E2E2E2E2E2E2E2E2E2E2E2E2E2E2E2E2E2E2E2E2E2E2E2E2E2E2E2E2E2E2E2E2E2E2E2E2E2E2E2E2E2E2E2E2E2E2E2E2E2E2E2E2E2E2E2E2E2E2E2E2E2E2E2E2E2E2E2E2E2E2F5E2E2E2E2E2E2E2E2E2E2E2E2E2E2E2E2E2E2E2E2F5F5E2E2E2E2E2E2E2E2E2E2E2E2E2E2E2E2E2E2E2E2F5E2E2E2E2E2E2E2E2E2E2E2
310
E2E2E2E2E2E2E2E2E2E2E2E2E2E2E2E2E2E2E2E2E2E2E2E2E2E2E2E2E2E2E2E2E2E2E2E2E2E2E2E2E2E2E2E2E2E2E2E2E2E2E2E2E2E2E2E2E2E2E2E2E2E2E2E2E2E2E2E2E2E2E2E2E2E2E2E2E2E2E2E2E2E2E2E2E2E2E2E2E2E2E2E2E2E2E2E2E2E2E2E2E2E2E2E2E2E2E2E2E2E2E2E2E2E2E2E2E2E2E2E2E2E2E2E2E2F5E2
310
E2E2E2E2E2E2E2E2E2E2E2E2E2E2E2E2E2E2E2F5F5E2E2E2E2E2E2E2E2E2E2E2E2E2E2E2E2E2E2E2E2F5E2E2E2E2E2E2E2E2E2E2E2E2E2E2E2E2E2E2E2E2E2E2E2E2E2E2E2E2E2E2E2E2E2E2E2E2E2E2E2E2E2E2E2E2E2E2E2E2E2E2E2E2E2E2E2E2E2E2E2E2E2E2E2E2E2E2E2E2E2E2E2E2E2E2E2E2E2E2E2E2E2E2E2E2E2
310
E2E2E2E2E2E2E2E2E2E2E2E2E2E2E2E2E2E2E2E2E2E2E2E2E2E2E2E2E2E2E2E2E2E2E2E2E2E2E2E2E2E2E2E2E2E2E2E2E2E2E2F5E2E2E2E2E2E2E2E2E2E2E2E2E2E2E2E2E2E2E2E2F5F5E2E2E2E2E2E2E2E2E2E2E2E2E2E2E2E2E2E2E2E2F5E2E2E2E2E2E2E2E2E2E2E2E2E2E2E2E2E2E2E2E2E2E2E2E2E2E2E2E2E2E2E2E2
310
E2E2E2E2E2E2E2E2E2E2E2E2E2E2E2E2E2E2E2E2E2E2E2E2E2E2E2E2E2E2E2E2E2E2E2E2E2E2E2E2E2E2E2E2E2E2E2E2E2E2E2E2E2E2E2E2E2E2E2E2E2E2E2E2E2E2E2E2E2E2E2E2E2E2E2E2E2E2E2E2E2E2E2E2E2E2E2E2E2E2E2E2E2E2E2E2E2E2E2E2E2E2E2E2F5E2E2E2E2E2E2E2E2E2E2E2E2E2E2E2E2E2E2E2E2F5F5
310
E2E2E2E2E2E2E2E2E2E2E2E2E2E2E2E2E2E2E2E2F5E2E2E2E2E2E2E2E2E2E2E2E2E2E2E2E2E2E2E2E2E2E2E2E2E2E2E2E2E2E2E2E2E2E2E2E2E2E2E2E2E2E2E2E2E2E2E2E2E2E2E2E2E2E2E2E2E2E2E2E2E2E2E2E2E2E2E2E2E2E2E2E2E2E2E2E2E2E2E2E2E2E2E2E2E2E2E2E2E2E2E2E2E2E2E2E2E2E2E2E2E2E2E2E2E2E2
310
E2E2E2E2E2E2E2E2E2E2E2E2E2E2E2E2E2E2E2E2E2E2E2E2E2E2E2E2E2E2F5E2E2E2E2E2E2E2E2E2E2E2E2E2E2E2E2E2E2E2E2F5F5E2E2E2E2E2E2E2E2E2E2E2E2E2E2E2E2E2E2E2E2F5E2E2E2E2E2E2E2E2E2E2E2E2E2E2E2E2E2E2E2E2E2E2E2E2E2E2E2E2E2E2E2E2E2E2E2E2E2E2E2E2E2E2E2E2E2E2E2E2E2E2E2E2E2
310
E2E2E2E2E2E2E2E2E2E2E2E2E2E2E2E2E2E2E2E2E2E2E2E2E2E2E2E2E2E2E2E2E2E2E2E2E2E2E2E2E2E2E2E2E2E2E2E2E2E2E2E2E2E2E2E2E2E2E2E2E2E2E2E2E2E2E2E2E2E2E2E2E2E2E2E2E2E2E2E2E2E2E2F5E2E2E2E2E2E2E2E2E2E2E2E2E2E2E2E2E2E2E2E2F5F5E2E2E2F5E2E2E2E2E2E2E2E2E2E2E2E2E2E2E2E2F5
310
E2E2E2E2E2E2E2E2E2E2E2E2E2E2E2E2E2E2E2E2E2E2E2E2E2E2E2E2E2E2E2E2E2E2E2E2E2E2E2E2E2E2E2E2E2E2E2E2E2E2E2E2E2E2E2E2E2E2E2E2E2E2E2E2E2E2E2E2E2E2E2E2E2E2E2E2E2E2E2E2E2E2E2E2E2E2E2E2E2E2E2E2E2E2E2E2E2E2E2E2E2E2E2E2E2E2E2E2E2E2E2E2E2E2E2E2E2E2E2E2E2E2E2E2E2E2E2
310
E2E2E2E2E2E2E2E2E2F5E2E2E2E2E2E2E2E2E2E2E2E2E2E2E2E2F5E2E2E2F5F5E2E2E2F5E2E2E2E2E2E2E2E2E2E2E2E2E2E2E2E2F5E2E2E2E2E2E2E2E2E2E2E2E2E2E2E2E2E2E2E2E2E2E2E2E2E2E2E2E2E2E2E2E2E2E2E2E2E2E2E2E2E2E2E2E2E2E2E2E2E2E2E2E2E2E2E2E2E2E2E2E2E2E2E2E2E2E2E2E2E2E2E2E2E2E2
310
E2E2E2E2E2E2E2E2E2E2E2E2E2E2E2E2E2E2E2E2E2E2E2E2E2E2E2E2E2E2E2E2E2E2E2E2E2E2E2E2E2E2E2E2E2E2E2E2E2E2E2E2E2E2E2E2E2E2E2E2E2E2F5E2E2E2E2E2E2E2E2E2E2E2E2E2E2E2E2F5E2E2E2F5F5E2E2E2F5E2E2E2E2E2E2E2E2E2E2E2E2E2E2E2E2F5E2E2E2E2E2E2E2E2E2E2E2E2E2E2E2E2E2E2E2E2E2
310
E2E2E2E2E2E2E2E2E2E2E2E2E2E2E2E2E2E2E2E2E2E2E2E2E2E2E2E2E2E2E2E2E2E2E2E2E2E2E2E2E2E2E2E2E2E2E2E2E2E2E2E2E2E2E2E2E2E2E2E2E2E2E2E2E2E2E2E2E2E2E2E2E2E2E2E2E2E2E2E2E2E2E2E2E2E2E2E2E2E2E2E2E2E2E2E2E2E2E2E2E2E2E2E2E2E2E2E2E2E2E2E2E2E2E2F5E2E2E2E2E2E2E2E2E2E2E2
310
E2E2E2E2E2F5E2E2E2F5F5E2E2E2F5E2E2E2E2E2E2E2E2E2E2E2E2E2E2E2E2F5E2E2E2E2E2E2E2E2E2E2E2E2E2E2E2E2E2E2E2E2E2E2E2E2E2E2E2E2E2E2E2E2E2E2E2E2E2E2E2E2E2E2E2E2E2E2E2E2E2E2E2E2E2E2E2E2E2E2E2E2E2E2E2E2E2E2E2E2E2E2E2E2E2E2E2E2E2E2E2E2E2E2E2E2E2E2E2E2E2E2E2E2E2E2E2
310
E2E2E2E2E2E2E2E2E2E2E2E2E2E2E2E2E2E2E2E2E2E2E2E2E2E2E2E2E2E2E2E2E2E2E2E2E2E2E2E2E2F5E2E2E2E2E2E2E2E2E2E2E2E2E2E2E2E2F5E2E2E2F5F5E2E2E2F5E2E2E2E2E2E2E2E2E2E2E2E2E2E2E2E2F5E2E2E2E2E2E2E2E2E2E2E2E2E2E2E2E2E2E2E2E2E2E2E2E2E2E2E2E2E2E2E2E2E2E2E2E2E2E2E2E2E2E2
310
E2E2E2E2E2E2E2E2E2E2E2E2E2E2E2E2E2E2E2E2E2E2E2E2E2E2E2E2E2E2E2E2E2E2E2E2E2E2E2E2E2E2E2E2E2E2E2E2E2E2E2E2E2E2E2E2E2E2E2E2E2E2E2E2E2E2E2E2E2E2E2E2E2E2E2E2E2E2E2E2E2E2E2E2E2E2E2E2E2E2E2E2E2E2F5E2E2E2E2E2E2E2E2E2E2E2E2E2E2E2E2F5E2E2E2F5F5E2E2E2F5E2E2E2E2E2E2
310
E2E2E2E2E2E2E2E2E2E2F5E2E2E2E2E2E2E2E2E2E2E2E2E2E2E2E2E2E2E2E2E2E2E2E2E2E2E2E2E2E2E2E2E2E2E2E2E2E2E2E2E2E2E2E2E2E2E2E2E2E2E2E2E2E2E2E2E2E2E2E2E2E2E2E2E2E2E2E2E2E2E2E2E2E2E2E2E2E2E2E2E2E2E2E2E2E2E2E2E2E2E2E2E2E2E2E2E2E2E2E2E2E2E2E2E2E2E2E2E2E2E2E2E2E2E2E2
310
E2E2E2E2E2E2E2E2E2E2E2E2E2E2E2E2E2E2E2E2F5E2E2E2E2E2E2E2E2E2E2E2E2E2E2E2E2F5E2E2E2F5F5E2E2E2F5E2E2E2E2E2E2E2E2E2E2E2E2E2E2E2E2F5E2E2E2E2E2E2E2E2E2E2E2E2E2E2E2E2E2E2E2E2E2E2E2E2E2E2E2E2E2E2E2E2E2E2E2E2E2E2E2E2E2E2E2E2E2E2E2E2E2E2E2E2E2E2E2E2E2E2E2E2E2E2E2
310
E2E2E2E2E2E2E2E2E2E2E2E2E2E2E2E2E2E2E2E2E2E2E2E2E2E2E2E2E2E2E2E2E2E2E2E2E2E2E2E2E2E2E2E2E2E2E2E2E2E2E2E2E2E2E2E2E2E2E2E2E2E2E2E2E2E2E2E2E2E2E2E2E2F5E2E2E2E2E2E2E2E2E2E2E2E2E2E2E2E2F5E2E2E2F5F5E2E2E2F5E2E2E2E2E2E2E2E2E2E2E2E2E2E2E2E2F5E2E2E2E2E2E2E2E2E2E2
310
E2E2E2E2E2E2E2E2E2E2E2E2E2E2E2E2E2E2E2E2E2E2E2E2E2E2E2E2E2E2E2E2E2E2E2E2E2E2E2E2E2E2E2E2E2E2E2E2E2E2E2E2E2E2E2E2E2E2E2E2E2E2E2E2E2E2E2E2E2E2E2E2E2E2E2E2E2E2E2E2E2E2E2E2E2E2E2E2E2E2E2E2E2E2E2E2E2E2E2E2E2E2E2E2E2E2E2E2E2E2E2E2E2E2E2E2E2E2E2E2E2E2E2E2E2E2F5
310
E2E2E2E2E2E2E2E2E2E2E2E2E2E2E2E2F5E2E2E2F5F5E2E2E2F5E2E2E2E2E2E2E2E2E2E2E2E2E2E2E2E2F5E2E2E2E2E2E2E2E2E2E2E2E2E2E2E2E2E2E2E2E2E2E2E2E2E2E2E2E2E2E2E2E2E2E2E2E2E2E2E2E2E2E2E2E2E2E2E2E2E2E2E2E2E2E2E2E2E2E2E2E2E2E2E2E2E2E2E2E2E2E2E2E2E2E2E2E2E2E2E2E2E2E2E2E2
310
E2E2E2E2E2E2E2E2E2E2E2E2E2E2E2E2E2E2E2E2E2E2E2E2E2E2E2E2E2E2E2E2E2E2E2E2E2E2E2E2E2E2E2E2E2E2E2E2E2E2E2E2F5E2E2E2E2E2E2E2E2E2E2E2E2E2E2E2E2F5E2E2E2F5F5E2E2E2F5E2E2E2E2E2E2E2E2E2E2E2E2E2E2E2E2F5E2E2E2E2E2E2E2E2E2E2E2E2E2E2E2E2E2E2E2E2E2E2E2E2E2E2E2E2E2E2E2
310
E2E2E2E2E2E2E2E2E2E2E2E2E2E2E2E2E2E2E2E2E2E2E2E2E2E2E2E2E2E2E2E2E2E2E2E2E2E2E2E2E2E2E2E2E2E2E2E2E2E2E2E2E2E2E2E2E2E2E2E2E2E2E2E2E2E2E2E2E2E2E2E2E2E2E2E2E2E2E2E2E2E2E2E2E2E2E2E2E2E2E2E2E2E2E2E2E2E2E2E2E2E2E2E2E2F5E2E2E2E2E2E2E2E2E2E2E2E2E2E2E2E2F5E2E2E2F5
310
F5E2E2E2F5E2E2E2E2E2E2E2E2E2E2E2E2E2E2E2E2F5E2E2E2E2E2E2E2E2E2E2E2E2E2E2E2E2E2E2E2E2E2E2E2E2E2E2E2E2E2E2E2E2E2E2E2E2E2E2E2E2E2E2E2E2E2E2E2E2E2E2E2E2E2E2E2E2E2E2E2E2E2E2E2E2E2E2E2E2E2E2E2E2E2E2E2E2E2E2E2E2E2E2E2E2E2E2E2E2E2E2E2E2E2E2E2E2E2E2E2E2E2E2E2E2E2
310
E2E2E2E2E2E2E2E2E2E2E2E2E2E2E2E2E2E2E2E2E2E2E2E2E2E2E2E2E2E2E2F5E2E2E2E2E2E2E2E2E2E2E2E2E2E2E2E2F5E2E2E2F5F5E2E2E2F5E2E2E2E2E2E2E2E2E2E2E2E2E2E2E2E2F5E2E2E2E2E2E2E2E2E2E2E2E2E2E2E2E2E2E2E2E2E2E2E2E2E2E2E2E2E2E2E2E2E2E2E2E2E2E2E2E2E2E2E2E2E2E2E2E2E2E2E2E2
310
E2E2E2E2E2E2E2E2E2E2E2E2E2E2E2E2E2E2E2E2E2E2E2E2E2E2E2E2E2E2E2E2E2E2E2E2E2E2E2E2E2E2E2E2E2E2E2E2E2E2E2E2E2E2E2E2E2E2E2E2E2E2E2E2E2E2E2E2E2E2E2E2E2E2E2E2E2E2E2E2E2E2E2E2F5E2E2E2E2E2E2E2E2E2E2E2E2E2E2E2E2F5E2E2E2F5F5E2E2E2F5E2E2E2E2E2E2E2E2E2E2E2E2E2E2E2E2
310
F5E2E2E2E2E2E2E2E2E2E2E2E2E2E2E2E2E2E2E2E2E2E2E2E2E2E2E2E2E2E2E2E2E2E2E2E2E2E2E2E2E2E2E2E2E2E2E2E2E2E2E2E2E2E2E2E2E2E2E2E2E2E2E2E2E2E2E2E2E2E2E2E2E2E2E2E2E2E2E2E2E2E2E2E2E2E2E2E2E2E2E2E2E2E2E2E2E2E2E2E2E2E2E2E2E2E2E2E2E2E2E2E2E2E2E2E2E2E2E2E2E2E2E2E2E2E2
310
E2E2E2E2E2E2E2E2E2E2F5E2E2E2E2E2E2E2E2E2E2E2E2E2E2E2E2F5E2E2E2F5F5E2E2E2F5E2E2E2E2E2E2E2E2E2E2E2E2E2E2E2E2F5E2E2E2E2E2E2E2E2E2E2E2E2E2E2E2E2E2E2E2E2E2E2E2E2E2E2E2E2E2E2E2E2E2E2E2E2E2E2E2E2E2E2E2E2E2E2E2E2E2E2E2E2E2E2E2E2E2E2E2E2E2E2E2E2E2E2E2E2E2E2E2E2E2
310
E2E2E2E2E2E2E2E2E2E2E2E2E2E2E2E2E2E2E2E2E2E2E2E2E2E2E2E2E2E2E2E2E2E2E2E2E2E2E2E2E2E2E2E2E2E2E2E2E2E2E2E2E2E2E2E2E2E2E2E2E2E2E2F5E2E2E2E2E2E2E2E2E2E2E2E2E2E2E2E2F5E2E2E2F5F5E2E2E2F5E2E2E2E2E2E2E2E2E2E2E2E2E2E2E2E2F5E2E2E2E2E2E2E2E2E2E2E2E2E2E2E2E2E2E2E2E2
310
E2E2E2E2E2E2E2E2E2E2E2E2E2E2E2E2E2E2E2E2E2E2E2E2E2E2E2E2E2E2E2E2E2E2E2E2E2E2E2E2E2E2E2E2E2E2E2E2E2E2E2E2E2E2E2E2E2E2E2E2E2E2E2E2E2E2E2E2E2E2E2E2E2E2E2E2E2E2E2E2E2E2E2E2E2E2E2E2E2E2E2E2E2E2E2E2E2E2E2E2E2E2E2E2E2E2E2E2E2E2E2E2E2E2E2E2F5E2E2E2E2E2E2E2E2E2E2
310
E2E2E2E2E2E2F5E2E2E2F5F5E2E2E2F5E2E2E2E2E2E2E2E2E2E2E2E2E2E2E2E2F5E2E2E2E2E2E2E2E2E2E2E2E2E2E2E2E2E2E2E2E2E2E2E2E2E2E2E2E2E2E2E2E2E2E2E2E2E2E2E2E2E2E2E2E2E2E2E2E2E2E2E2E2E2E2E2E2E2E2E2E2E2E2E2E2E2E2E2E2E2E2E2E2E2E2E2E2E2E2E2E2E2E2E2E2E2E2E2E2E2E2E2E2E2E2
310
E2E2E2E2E2E2E2E2E2E2E2E2E2E2E2E2E2E2E2E2E2E2E2E2E2E2E2E2E2E2E2E2E2E2E2E2E2E2E2E2E2E2F5E2E2E2E2E2E2E2E2E2E2E2E2E2E2E2E2F5E2E2E2F5F5E2E2E2E2E2E2E2E2E2E2E2E2E2E2E2E2E2E2E2E2F5E2E2E2E2E2E2E2E2E2E2E2E2E2E2E2E2E2E2E2E2E2E2E2E2E2E2E2E2E2E2E2E2E2E2E2E2E2E2E2E2E2
310
E2E2E2E2E2E2E2E2E2E2E2E2E2E2E2E2E2E2E2E2E2E2E2E2E2E2E2E2E2E2E2E2E2E2E2E2E2E2E2E2E2E2E2E2E2E2E2E2E2E2E2E2E2E2E2E2E2E2E2E2E2E2E2E2E2E2E2E2E2E2E2E2E2E2E2E2E2E2E2E2E2E2E2E2E2E2E2E2E2E2E2E2E2E2E2F5E2E2E2E2E2E2E2E2E2E2E2E2E2E2E2E2E2E2E2E2F5F5E2E2E2E2E2E2E2E2E2
310
E2E2E2E2E2E2E2E2E2E2E2F5E2E2E2E2E2E2E2E2E2E2E2E2E2E2E2E2E2E2E2E2E2E2E2E2E2E2E2E2E2E2E2E2E2E2E2E2E2E2E2E2E2E2E2E2E2E2E2E2E2E2E2E2E2E2E2E2E2E2E2E2E2E2E2E2E2E2E2E2E2E2E2E2E2E2E2E2E2E2E2E2E2E2E2E2E2E2E2E2E2E2E2E2E2E2E2E2E2E2E2E2E2E2E2E2E2E2E2E2E2E2E2E2E2E2E2
310
E2E2E2E2E2E2E2E2E2E2E2E2E2E2E2E2E2E2E2E2E2F5E2E2E2E2E2E2E2E2E2E2E2E2E2E2E2E2E2E2E2E2F5F5E2E2E2E2E2E2E2E2E2E2E2E2E2E2E2E2E2E2E2E2F5E2E2E2E2E2E2E2E2E2E2E2E2E2E2E2E2E2E2E2E2E2E2E2E2E2E2E2E2E2E2E2E2E2E2E2E2E2E2E2E2E2E2E2E2E2E2E2E2E2E2E2E2E2E2E2E2E2E2E2E2E2E2
310
E2E2E2E2E2E2E2E2E2E2E2E2E2E2E2E2E2E2E2E2E2E2E2E2E2E2E2E2E2E2E2E2E2E2E2E2E2E2E2E2E2E2E2E2E2E2E2E2E2E2E2E2E2E2E2E2E2E2E2E2E2E2E2E2E2E2E2E2E2E2E2E2E2E2F5E2E2E2E2E2E2E2E2E2E2E2E2E2E2E2E2E2E2E2E2F5F5E2E2E2E2E2E2E2E2E2E2E2E2E2E2E2E2E2E2E2E2F5E2E2E2E2E2E2E2E2E2
310
E2E2E2E2E2E2E2E2E2E2E2E2E2E2E2E2E2E2E2E2E2E2E2E2E2E2E2E2E2E2E2E2E2E2E2E2E2E2E2E2E2E2E2E2E2E2E2E2E2E2E2E2E2E2E2E2E2E2E2E2E2E2E2E2E2E2E2E2E2E2E2E2E2E2E2E2E2E2E2E2E2E2E2E2E2E2E2E2E2E2E2E2E2E2E2E2E2E2E2E2E2E2E2E2E2E2E2E2E2E2E2E2E2E2E2E2E2E2E2E2E2E2E2E2E2E2E2
310
F5E2E2E2E2E2E2E2E2E2E2E2E2E2E2E2E2E2E2E2E2F5F5E2E2E2E2E2E2E2E2E2E2E2E2E2E2E2E2E2E2E2E2F5E2E2E2E2E2E2E2E2E2E2E2E2E2E2E2E2E2E2E2E2E2E2E2E2E2E2E2E2E2E2E2E2E2E2E2E2E2E2E2E2E2E2E2E2E2E2E2E2E2E2E2E2E2E2E2E2E2E2E2E2E2E2E2E2E2E2E2E2E2E2E2E2E2E2E2E2E2E2E2E2E2E2E2
310
E2E2E2E2E2E2E2E2E2E2E2E2E2E2E2E2E2E2E2E2E2E2E2E2E2E2E2E2E2E2E2E2E2E2E2E2E2E2E2E2E2E2E2E2E2E2E2E2E2E2E2E2E2F5E2E2E2E2E2E2E2E2E2E2E2E2E2E2E2E2E2E2E2E2F5F5E2E2E2E2E2E2E2E2E2E2E2E2E2E2E2E2E2E2E2E2F5E2E2E2E2E2E2E2E2E2E2E2E2E2E2E2E2E2E2E2E2E2E2E2E2E2E2E2E2E2E2
310
E2E2E2E2E2E2E2E2E2E2E2E2E2E2E2E2E2E2E2E2E2E2E2E2E2E2E2E2E2E2E2E2E2E2E2E2E2E2E2E2E2E2E2E2E2E2E2E2E2E2E2E2E2E2E2E2E2E2E2E2E2E2E2E2E2E2E2E2E2E2E2E2E2E2E2E2E2E2E2E2E2E2E2E2E2E2E2E2E2E2E2E2E2E2E2E2E2E2E2E2E2E2E2E2E2E2F5E2E2E2E2E2E2E2E2E2E2E2E2E2E2E2E2E2E2E2E2
310
F5F5E2E2E2E2E2E2E2E2E2E2E2E2E2E2E2E2E2E2E2E2F5E2E2E2E2E2E2E2E2E2E2E2E2E2E2E2E2E2E2E2E2E2E2E2E2E2E2E2E2E2E2E2E2E2E2E2E2E2E2E2E2E2E2E2E2E2E2E2E2E2E2E2E2E2E2E2E2E2E2E2E2E2E2E2E2E2E2E2E2E2E2E2E2E2E2E2E2E2E2E2E2E2E2E2E2E2E2E2E2E2E2E2E2E2E2E2E2E2E2E2E2E2E2E2E2
310
E2E2E2E2E2E2E2E2E2E2E2E2E2E2E2E2E2E2E2E2E2E2E2E2E2E2E2E2E2E2E2E2F5E2E2E2E2E2E2E2E2E2E2E2E2E2E2E2E2E2E2E2E2F5F5E2E2E2E2E2E2E2E2E2E2E2E2E2E2E2E2E2E2E2E2F5E2E2E2E2E2E2E2E2E2E2E2E2E2E2E2E2E2E2E2E2E2E2E2E2E2E2E2E2E2E2E2E2E2E2E2E2E2E2E2E2E2E2E2E2E2E2E2E2E2E2E2
310
E2E2E2E2E2E2E2E2E2E2E2E2E2E2E2E2E2E2E2E2E2E2E2E2E2E2E2E2E2E2E2E2E2E2E2E2E2E2E2E2E2E2E2E2E2E2E2E2E2E2E2E2E2E2E2E2E2E2E2E2E2E2E2E2E2E2E2E2E2E2E2E2E2E2E2E2E2E2E2E2E2E2E2E2E2F5E2E2E2E2E2E2E2E2E2E2E2E2E2E2E2E2E2E2E2E2F5F5E2E2E2E2E2E2E2E2E2E2E2E2E2E2E2E2E2E2E2
310
E2F5E2E2E2E2E2E2E2E2E2E2E2E2E2E2E2E2E2E2E2E2E2E2E2E2E2E2E2E2E2E2E2E2E2E2E2E2E2E2E2E2E2E2E2E2E2E2E2E2E2E2E2E2E2E2E2E2E2E2E2E2E2E2E2E2E2E2E2E2E2E2E2E2E2E2E2E2E2E2E2E2E2E2E2E2E2E2E2E2E2E2E2E2E2E2E2E2E2E2E2E2E2E2E2E2E2E2E2E2E2E2E2E2E2E2E2E2E2E2E2E2E2E2E2E2E2
310
E2E2E2E2E2E2E2E2E2E2E2F5E2E2E2E2E2E2E2E2E2E2E2E2E2E2E2E2E2E2E2E2F5F5E2E2E2E2E2E2E2E2E2E2E2E2E2E2E2E2E2E2E2E2F5E2E2E2E2E2E2E2E2E2E2E2E2E2E2E2E2E2E2E2E2E2E2E2E2E2E2E2E2E2E2E2E2E2E2E2E2E2E2E2E2E2E2E2E2E2E2E2E2E2E2E2E2E2E2E2E2E2E2E2E2E2E2E2E2E2E2E2E2E2E2E2E2
310
E2E2E2E2E2E2E2E2E2E2E2E2E2E2E2E2E2E2E2E2E2E2E2E2E2E2E2E2E2E2E2E2E2E2E2E2E2E2E2E2E2E2E2E2E2E2E2E2E2E2E2E2E2E2E2E2E2E2E2E2E2E2E2E2F5E2E2E2E2E2E2E2E2E2E2E2E2E2E2E2E2E2E2E2E2F5F5E2E2E2F5E2E2E2E2E2E2E2E2E2E2E2E2E2E2E2E2F5E2E2E2E2E2E2E2E2E2E2E2E2E2E2E2E2E2E2E2
310
E2E2E2E2E2E2E2E2E2E2E2E2E2E2E2E2E2E2E2E2E2E2E2E2E2E2E2E2E2E2E2E2E2E2E2E2E2E2E2E2E2E2E2E2E2E2E2E2E2E2E2E2E2E2E2E2E2E2E2E2E2E2E2E2E2E2E2E2E2E2E2E2E2E2E2E2E2E2E2E2E2E2E2E2E2E2E2E2E2E2E2E2E2E2E2E2E2E2E2E2E2E2E2E2E2E2E2E2E2E2E2E2E2E2E2E2E2F5E2E2E2E2E2E2E2E2E2
310
E2E2E2E2E2E2E2F5E2E2E2F5F5E2E2E2F5E2E2E2E2E2E2E2E2E2E2E2E2E2E2E2E2F5E2E2E2E2E2E2E2E2E2E2E2E2E2E2E2E2E2E2E2E2E2E2E2E2E2E2E2E2E2E2E2E2E2E2E2E2E2E2E2E2E2E2E2E2E2E2E2E2E2E2E2E2E2E2E2E2E2E2E2E2E2E2E2E2E2E2E2E2E2E2E2E2E2E2E2E2E2E2E2E2E2E2E2E2E2E2E2E2E2E2E2E2E2
310
E2E2E2E2E2E2E2E2E2E2E2E2E2E2E2E2E2E2E2E2E2E2E2E2E2E2E2E2E2E2E2E2E2E2E2E2E2E2E2E2E2E2E2F5E2E2E2E2E2E2E2E2E2E2E2E2E2E2E2E2F5E2E2E2F5F5E2E2E2F5E2E2E2E2E2E2E2E2E2E2E2E2E2E2E2E2F5E2E2E2E2E2E2E2E2E2E2E2E2E2E2E2E2E2E2E2E2E2E2E2E2E2E2E2E2E2E2E2E2E2E2E2E2E2E2E2E2
310
E2E2E2E2E2E2E2E2E2E2E2E2E2E2E2E2E2E2E2E2E2E2E2E2E2E2E2E2E2E2E2E2E2E2E2E2E2E2E2E2E2E2E2E2E2E2E2E2E2E2E2E2E2E2E2E2E2E2E2E2E2E2E2E2E2E2E2E2E2E2E2E2E2E2E2E2E2E2E2E2E2E2E2E2E2E2E2E2E2E2E2E2E2E2E2E2F5E2E2E2E2E2E2E2E2E2E2E2E2E2E2E2E2F5E2E2E2F5F5E2E2E2F5E2E2E2E2
310
E2E2E2E2E2E2E2E2E2E2E2E2F5E2E2E2E2E2E2E2E2E2E2E2E2E2E2E2E2E2E2E2E2E2E2E2E2E2E2E2E2E2E2E2E2E2E2E2E2E2E2E2E2E2E2E2E2E2E2E2E2E2E2E2E2E2E2E2E2E2E2E2E2E2E2E2E2E2E2E2E2E2E2E2E2E2E2E2E2E2E2E2E2E2E2E2E2E2E2E2E2E2E2E2E2E2E2E2E2E2E2E2E2E2E2E2E2E2E2E2E2E2E2E2E2E2E2
310
E2E2E2E2E2E2E2E2E2E2E2E2E2E2E2E2E2E2E2E2E2E2F5E2E2E2E2E2E2E2E2E2E2E2E2E2E2E2E2F5E2E2E2F5F5E2E2E2F5E2E2E2E2E2E2E2E2E2E2E2E2E2E2E2E2F5E2E2E2E2E2E2E2E2E2E2E2E2E2E2E2E2E2E2E2E2E2E2E2E2E2E2E2E2E2E2E2E2E2E2E2E2E2E2E2E2E2E2E2E2E2E2E2E2E2E2E2E2E2E2E2E2E2E2E2E2E2
310
E2E2E2E2E2E2E2E2E2E2E2E2E2E2E2E2E2E2E2E2E2E2E2E2E2E2E2E2E2E2E2E2E2E2E2E2E2E2E2E2E2E2E2E2E2E2E2E2E2E2E2E2E2E2E2E2E2E2E2E2E2E2E2E2E2E2E2E2E2E2E2E2E2E2E2F5E2E2E2E2E2E2E2E2E2E2E2E2E2E2E2E2F5E2E2E2F5F5E2E2E2F5E2E2E2E2E2E2E2E2E2E2E2E2E2E2E2E2F5E2E2E2E2E2E2E2E2
310
E2E2E2E2E2E2E2E2E2E2E2E2E2E2E2E2E2E2E2E2E2E2E2E2E2E2E2E2E2E2E2E2E2E2E2E2E2E2E2E2E2E2E2E2E2E2E2E2E2E2E2E2E2E2E2E2E2E2E2E2E2E2E2E2E2E2E2E2E2E2E2E2E2E2E2E2E2E2E2E2E2E2E2E2E2E2E2E2E2E2E2E2E2E2E2E2E2E2E2E2E2E2E2E2E2E2E2E2E2E2E2E2E2E2E2E2E2E2E2E2E2E2E2E2E2E2E2
310
E2F5E2E2E2E2E2E2E2E2E2E2E2E2E2E2E2E2F5E2E2E2F5F5E2E2E2F5E2E2E2E2E2E2E2E2E2E2E2E2E2E2E2E2F5E2E2E2E2E2E2E2E2E2E2E2E2E2E2E2E2E2E2E2E2E2E2E2E2E2E2E2E2E2E2E2E2E2E2E2E2E2E2E2E2E2E2E2E2E2E2E2E2E2E2E2E2E2E2E2E2E2E2E2E2E2E2E2E2E2E2E2E2E2E2E2E2E2E2E2E2E2E2E2E2E2E2
310
E2E2E2E2E2E2E2E2E2E2E2E2E2E2E2E2E2E2E2E2E2E2E2E2E2E2E2E2E2E2E2E2E2E2E2E2E2E2E2E2E2E2E2E2E2E2E2E2E2E2E2E2E2E2F5E2E2E2E2E2E2E2E2E2E2E2E2E2E2E2E2F5E2E2E2F5F5E2E2E2F5E2E2E2E2E2E2E2E2E2E2E2E2E2E2E2E2F5E2E2E2E2E2E2E2E2E2E2E2E2E2E2E2E2E2E2E2E2E2E2E2E2E2E2E2E2E2
310
E2E2E2E2E2E2E2E2E2E2E2E2E2E2E2E2E2E2E2E2E2E2E2E2E2E2E2E2E2E2E2E2E2E2E2E2E2E2E2E2E2E2E2E2E2E2E2E2E2E2E2E2E2E2E2E2E2E2E2E2E2E2E2E2E2E2E2E2E2E2E2E2E2E2E2E2E2E2E2E2E2E2E2E2E2E2E2E2E2E2E2E2E2E2E2E2E2E2E2E2E2E2E2E2E2E2E2F5E2E2E2E2E2E2E2E2E2E2E2E2E2E2E2E2F5E2E2
310
E2F5F5E2E2E2F5E2E2E2E2E2E2E2E2E2E2E2E2E2E2E2E2F5E2E2E2E2E2E2E2E2E2E2E2E2E2E2E2E2E2E2E2E2E2E2E2E2E2E2E2E2E2E2E2E2E2E2E2E2E2E2E2E2E2E2E2E2E2E2E2E2E2E2E2E2E2E2E2E2E2E2E2E2E2E2E2E2E2E2E2E2E2E2E2E2E2E2E2E2E2E2E2E2E2E2E2E2E2E2E2E2E2E2E2E2E2E2E2E2E2E2E2E2E2E2E2
310
E2E2E2E2E2E2E2E2E2E2E2E2E2E2E2E2E2E2E2E2E2E2E2E2E2E2E2E2E2E2E2E2E2F5E2E2E2E2E2E2E2E2E2E2E2E2E2E2E2E2F5E2E2E2F5F5E2E2E2F5E2E2E2E2E2E2E2E2E2E2E2E2E2E2E2E2F5E2E2E2E2E2E2E2E2E2E2E2E2E2E2E2E2E2E2E2E2E2E2E2E2E2E2E2E2E2E2E2E2E2E2E2E2E2E2E2E2E2E2E2E2E2E2E2E2E2E2
310
E2E2E2E2E2E2E2E2E2E2E2E2E2E2E2E2E2E2E2E2E2E2E2E2E2E2E2E2E2E2E2E2E2E2E2E2E2E2E2E2E2E2E2E2E2E2E2E2E2E2E2E2E2E2E2E2E2E2E2E2E2E2E2E2E2E2E2E2E2E2E2E2E2E2E2E2E2E2E2E2E2E2E2E2E2E2F5E2E2E2E2E2E2E2E2E2E2E2E2E2E2E2E2F5E2E2E2F5F5E2E2E2F5E2E2E2E2E2E2E2E2E2E2E2E2E2E2
310
E2E2F5E2E2E2E2E2E2E2E2E2E2E2E2E2E2E2E2E2E2E2E2E2E2E2E2E2E2E2E2E2E2E2E2E2E2E2E2E2E2E2E2E2E2E2E2E2E2E2E2E2E2E2E2E2E2E2E2E2E2E2E2E2E2E2E2E2E2E2E2E2E2E2E2E2E2E2E2E2E2E2E2E2E2E2E2E2E2E2E2E2E2E2E2E2E2E2E2E2E2E2E2E2E2E2E2E2E2E2E2E2E2E2E2E2E2E2E2E2E2E2E2E2E2E2E2
310
E2E2E2E2E2E2E2E2E2E2E2E2F5E2E2E2E2E2E2E2E2E2E2E2E2E2E2E2E2F5E2E2E2F5F5E2E2E2F5E2E2E2E2E2E2E2E2E2E2E2E2E2E2E2E2F5E2E2E2E2E2E2E2E2E2E2E2E2E2E2E2E2E2E2E2E2E2E2E2E2E2E2E2E2E2E2E2E2E2E2E2E2E2E2E2E2E2E2E2E2E2E2E2E2E2E2E2E2E2E2E2E2E2E2E2E2E2E2E2E2E2E2E2E2E2E2E2
310
E2E2E2E2E2E2E2E2E2E2E2E2E2E2E2E2E2E2E2E2E2E2E2E2E2E2E2E2E2E2E2E2E2E2E2E2E2E2E2E2E2E2E2E2E2E2E2E2E2E2E2E2E2E2E2E2E2E2E2E2E2E2E2E2E2F5E2E2E2E2E2E2E2E2E2E2E2E2E2E2E2E2F5E2E2E2F5F5E2E2E2F5E2E2E2E2E2E2E2E2E2E2E2E2E2E2E2E2F5E2E2E2E2E2E2E2E2E2E2E2E2E2E2E2E2E2E2
310
E2E2E2E2E2E2E2E2E2E2E2E2E2E2E2E2E2E2E2E2E2E2E2E2E2E2E2E2E2E2E2E2E2E2E2E2E2E2E2E2E2E2E2E2E2E2E2E2E2E2E2E2E2E2E2E2E2E2E2E2E2E2E2E2E2E2E2E2E2E2E2E2E2E2E2E2E2E2E2E2E2E2E2E2E2E2E2E2E2E2E2E2E2E2E2E2E2E2E2E2E2E2E2E2E2E2E2E2E2E2E2E2E2E2E2E2E2E2F5E2E2E2E2E2E2E2E2
310
E2E2E2E2E2E2E2E2F5E2E2E2F5F5E2E2E2F5E2E2E2E2E2E2E2E2E2E2E2E2E2E2E2E2F5E2E2E2E2E2E2E2E2E2E2E2E2E2E2E2E2E2E2E2E2E2E2E2E2E2E2E2E2E2E2E2E2E2E2E2E2E2E2E2E2E2E2E2E2E2E2E2E2E2E2E2E2E2E2E2E2E2E2E2E2E2E2E2E2E2E2E2E2E2E2E2E2E2E2E2E2E2E2E2E2E2E2E2E2E2E2E2E2E2E2E2E2
310
E2E2E2E2E2E2E2E2E2E2E2E2E2E2E2E2E2E2E2E2E2E2E2E2E2E2E2E2E2E2E2E2E2E2E2E2E2E2E2E2E2E2E2E2F5E2E2E2E2E2E2E2E2E2E2E2E2E2E2E2E2F5E2E2E2F5F5E2E2E2F5E2E2E2E2E2E2E2E2E2E2E2E2E2E2E2E2F5E2E2E2E2E2E2E2E2E2E2E2E2E2E2E2E2E2E2E2E2E2E2E2E2E2E2E2E2E2E2E2E2E2E2E2E2E2E2E2
310
E2E2E2E2E2E2E2E2E2E2E2E2E2E2E2E2E2E2E2E2E2E2E2E2E2E2E2E2E2E2E2E2E2E2E2E2E2E2E2E2E2E2E2E2E2E2E2E2E2E2E2E2E2E2E2E2E2E2E2E2E2E2E2E2E2E2E2E2E2E2E2E2E2E2E2E2E2E2E2E2E2E2E2E2E2E2E2E2E2E2E2E2E2E2E2E2E2F5E2E2E2E2E2E2E2E2E2E2E2E2E2E2E2E2F5E2E2E2F5F5E2E2E2F5E2E2E2
310
E2E2E2E2E2E2E2E2E2E2E2E2E2F5E2E2E2E2E2E2E2E2E2E2E2E2E2E2E2E2E2E2E2E2E2E2E2E2E2E2E2E2E2E2E2E2E2E2E2E2E2E2E2E2E2E2E2E2E2E2E2E2E2E2E2E2E2E2E2E2E2E2E2E2E2E2E2E2E2E2E2E2E2E2E2E2E2E2E2E2E2E2E2E2E2E2E2E2E2E2E2E2E2E2E2E2E2E2E2E2E2E2E2E2E2E2E2E2E2E2E2E2E2E2E2E2E2
310
E2E2E2E2E2E2E2E2E2E2E2E2E2E2E2E2E2E2E2E2E2E2E2F5E2E2E2E2E2E2E2E2E2E2E2E2E2E2E2E2F5E2E2E2F5F5E2E2E2E2E2E2E2E2E2E2E2E2E2E2E2E2E2E2E2E2F5E2E2E2E2E2E2E2E2E2E2E2E2E2E2E2E2E2E2E2E2E2E2E2E2E2E2E2E2E2E2E2E2E2E2E2E2E2E2E2E2E2E2E2E2E2E2E2E2E2E2E2E2E2E2E2E2E2E2E2E2
310
E2E2E2E2E2E2E2E2E2E2E2E2E2E2E2E2E2E2E2E2E2E2E2E2E2E2E2E2E2E2E2E2E2E2E2E2E2E2E2E2E2E2E2E2E2E2E2E2E2E2E2E2E2E2E2E2E2E2E2E2E2E2E2E2E2E2E2E2E2E2E2E2E2E2E2E2F5E2E2E2E2E2E2E2E2E2E2E2E2E2E2E2E2E2E2E2E2F5F5E2E2E2E2E2E2E2E2E2E2E2E2E2E2E2E2E2E2E2E2F5E2E2E2E2E2E2E2
310
E2E2E2E2E2E2E2E2E2E2E2E2E2E2E2E2E2E2E2E2E2E2E2E2E2E2E2E2E2E2E2E2E2E2E2E2E2E2E2E2E2E2E2E2E2E2E2E2E2E2E2E2E2E2E2E2E2E2E2E2E2E2E2E2E2E2E2E2E2E2E2E2E2E2E2E2E2E2E2E2E2E2E2E2E2E2E2E2E2E2E2E2E2E2E2E2E2E2E2E2E2E2E2E2E2E2E2E2E2E2E2E2E2E2E2E2E2E2E2E2E2E2E2E2E2E2E2
310
E2E2F5E2E2E2E2E2E2E2E2E2E2E2E2E2E2E2E2E2E2E2E2F5F5E2E2E2E2E2E2E2E2E2E2E2E2E2E2E2E2E2E2E2E2F5E2E2E2E2E2E2E2E2E2E2E2E2E2E2E2E2E2E2E2E2E2E2E2E2E2E2E2E2E2E2E2E2E2E2E2E2E2E2E2E2E2E2E2E2E2E2E2E2E2E2E2E2E2E2E2E2E2E2E2E2E2E2E2E2E2E2E2E2E2E2E2E2E2E2E2E2E2E2E2E2E2
310
E2E2E2E2E2E2E2E2E2E2E2E2E2E2E2E2E2E2E2E2E2E2E2E2E2E2E2E2E2E2E2E2E2E2E2E2E2E2E2E2E2E2E2E2E2E2E2E2E2E2E2E2E2E2E2F5E2E2E2E2E2E2E2E2E2E2E2E2E2E2E2E2E2E2E2E2F5F5E2E2E2E2E2E2E2E2E2E2E2E2E2E2E2E2E2E2E2E2F5E2E2E2E2E2E2E2E2E2E2E2E2E2E2E2E2E2E2E2E2E2E2E2E2E2E2E2E2
310
E2E2E2E2E2E2E2E2E2E2E2E2E2E2E2E2E2E2E2E2E2E2E2E2E2E2E2E2E2E2E2E2E2E2E2E2E2E2E2E2E2E2E2E2E2E2E2E2E2E2E2E2E2E2E2E2E2E2E2E2E2E2E2E2E2E2E2E2E2E2E2E2E2E2E2E2E2E2E2E2E2E2E2E2E2E2E2E2E2E2E2E2E2E2E2E2E2E2E2E2E2E2E2E2E2E2E2E2F5E2E2E2E2E2E2E2E2E2E2E2E2E2E2E2E2E2E2
310
E2E2F5F5E2E2E2E2E2E2E2E2E2E2E2E2E2E2E2E2E2E2E2E2F5E2E2E2E2E2E2E2E2E2E2E2E2E2E2E2E2E2E2E2E2E2E2E2E2E2E2E2E2E2E2E2E2E2E2E2E2E2E2E2E2E2E2E2E2E2E2E2E2E2E2E2E2E2E2E2E2E2E2E2E2E2E2E2E2E2E2E2E2E2E2E2E2E2E2E2E2E2E2E2E2E2E2E2E2E2E2E2E2E2E2E2E2E2E2E2E2E2E2E2E2E2E2
310
E2E2E2E2E2E2E2E2E2E2E2E2E2E2E2E2E2E2E2E2E2E2E2E2E2E2E2E2E2E2E2E2E2E2F5E2E2E2E2E2E2E2E2E2E2E2E2E2E2E2E2E2E2E2E2F5F5E2E2E2E2E2E2E2E2E2E2E2E2E2E2E2E2E2E2E2E2F5E2E2E2E2E2E2E2E2E2E2E2E2E2E2E2E2E2E2E2E2E2E2E2E2E2E2E2E2E2E2E2E2E2E2E2E2E2E2E2E2E2E2E2E2E2E2E2E2E2
310
E2E2E2E2E2E2E2E2E2E2E2E2E2E2E2E2E2E2E2E2E2E2E2E2E2E2E2E2E2E2E2E2E2E2E2E2E2E2E2E2E2E2E2E2E2E2E2E2E2E2E2E2E2E2E2E2E2E2E2E2E2E2E2E2E2E2E2E2E2E2E2E2E2E2E2E2E2E2E2E2E2E2E2E2E2E2E2F5E2E2E2E2E2E2E2E2E2E2E2E2E2E2E2E2E2E2E2E2F5F5E2E2E2E2E2E2E2E2E2E2E2E2E2E2E2E2E2
310
E2E2E2F5E2E2E2E2E2E2E2E2E2E2E2E2E2E2E2E2E2E2E2E2E2E2E2E2E2E2E2E2E2E2E2E2E2E2E2E2E2E2E2E2E2E2E2E2E2E2E2E2E2E2E2E2E2E2E2E2E2E2E2E2E2E2E2E2E2E2E2E2E2E2E2E2E2E2E2E2E2E2E2E2E2E2E2E2E2E2E2E2E2E2E2E2E2E2E2E2E2E2E2E2E2E2E2E2E2E2E2E2E2E2E2E2E2E2E2E2E2E2E2E2E2E2E2
310
E2E2E2E2E2E2E2E2E2E2E2E2E2F5E2E2E2E2E2E2E2E2E2E2E2E2E2E2E2E2E2E2E2E2F5F5E2E2E2E2E2E2E2E2E2E2E2E2E2E2E2E2E2E2E2E2F5E2E2E2E2E2E2E2E2E2E2E2E2E2E2E2E2E2E2E2E2E2E2E2E2E2E2E2E2E2E2E2E2E2E2E2E2E2E2E2E2E2E2E2E2E2E2E2E2E2E2E2E2E2E2E2E2E2E2E2E2E2E2E2E2E2E2E2E2E2E2
310
E2E2E2E2E2E2E2E2E2E2E2E2E2E2E2E2E2E2E2E2E2E2E2E2E2E2E2E2E2E2E2E2E2E2E2E2E2E2E2E2E2E2E2E2E2E2E2E2E2E2E2E2E2E2E2E2E2E2E2E2E2E2E2E2E2E2F5E2E2E2E2E2E2E2E2E2E2E2E2E2E2E2E2E2E2E2E2F5F5E2E2E2E2E2E2E2E2E2E2E2E2E2E2E2E2E2E2E2E2F5E2E2E2E2E2E2E2E2E2E2E2E2E2E2E2E2E2
310
E2E2E2E2E2E2E2E2E2E2E2E2E2E2E2E2E2E2E2E2E2E2E2E2E2E2E2E2E2E2E2E2E2E2E2E2E2E2E2E2E2E2E2E2E2E2E2E2E2E2E2E2E2E2E2E2E2E2E2E2E2E2E2E2E2E2E2E2E2E2E2E2E2E2E2E2E2E2E2E2E2E2E2E2E2E2E2E2E2E2E2E2E2E2E2E2E2E2E2E2E2E2E2E2E2E2E2E2E2E2E2E2E2E2E2E2E2E2E2F5E2E2E2E2E2E2E2
310
E2E2E2E2E2E2E2E2E2E2E2E2E2F5F5E2E2E2F5E2E2E2E2E2E2E2E2E2E2E2E2E2E2E2E2F5E2E2E2E2E2E2E2E2E2E2E2E2E2E2E2E2E2E2E2E2E2E2E2E2E2E2E2E2E2E2E2E2E2E2E2E2E2E2E2E2E2E2E2E2E2E2E2E2E2E2E2E2E2E2E2E2E2E2E2E2E2E2E2E2E2E2E2E2E2E2E2E2E2E2E2E2E2E2E2E2E2E2E2E2E2E2E2E2E2E2E2
310
E2E2E2E2E2E2E2E2E2E2E2E2E2E2E2E2E2E2E2E2E2E2E2E2E2E2E2E2E2E2E2E2E2E2E2E2E2E2E2E2E2E2E2E2E2F5E2E2E2E2E2E2E2E2E2E2E2E2E2E2E2E2F5E2E2E2F5F5E2E2E2F5E2E2E2E2E2E2E2E2E2E2E2E2E2E2E2E2F5E2E2E2E2E2E2E2E2E2E2E2E2E2E2E2E2E2E2E2E2E2E2E2E2E2E2E2E2E2E2E2E2E2E2E2E2E2E2
310
E2E2E2E2E2E2E2E2E2E2E2E2E2E2E2E2E2E2E2E2E2E2E2E2E2E2E2E2E2E2E2E2E2E2E2E2E2E2E2E2E2E2E2E2E2E2E2E2E2E2E2E2E2E2E2E2E2E2E2E2E2E2E2E2E2E2E2E2E2E2E2E2E2E2E2E2E2E2E2E2E2E2E2E2E2E2E2E2E2E2E2E2E2E2E2E2E2E2F5E2E2E2E2E2E2E2E2E2E2E2E2E2E2E2E2F5E2E2E2F5F5E2E2E2F5E2E2
310
E2E2E2E2E2E2E2E2E2E2E2E2E2E2F5E2E2E2E2E2E2E2E2E2E2E2E2E2E2E2E2E2E2E2E2E2E2E2E2E2E2E2E2E2E2E2E2E2E2E2E2E2E2E2E2E2E2E2E2E2E2E2E2E2E2E2E2E2E2E2E2E2E2E2E2E2E2E2E2E2E2E2E2E2E2E2E2E2E2E2E2E2E2E2E2E2E2E2E2E2E2E2E2E2E2E2E2E2E2E2E2E2E2E2E2E2E2E2E2E2E2E2E2E2E2E2E2
310
E2E2E2E2E2E2E2E2E2E2E2E2E2E2E2E2E2E2E2E2E2E2E2E2F5E2E2E2E2E2E2E2E2E2E2E2E2E2E2E2E2F5E2E2E2F5F5E2E2E2F5E2E2E2E2E2E2E2E2E2E2E2E2E2E2E2E2F5E2E2E2E2E2E2E2E2E2E2E2E2E2E2E2E2E2E2E2E2E2E2E2E2E2E2E2E2E2E2E2E2E2E2E2E2E2E2E2E2E2E2E2E2E2E2E2E2E2E2E2E2E2E2E2E2E2E2E2
310
E2E2E2E2E2E2E2E2E2E2E2E2E2E2E2E2E2E2E2E2E2E2E2E2E2E2E2E2E2E2E2E2E2E2E2E2E2E2E2E2E2E2E2E2E2E2E2E2E2E2E2E2E2E2E2E2E2E2E2E2E2E2E2E2E2E2E2E2E2E2E2E2E2E2E2E2E2F5E2E2E2E2E2E2E2E2E2E2E2E2E2E2E2E2F5E2E2E2F5F5E2E2E2F5E2E2E2E2E2E2E2E2E2E2E2E2E2E2E2E2F5E2E2E2E2E2E2
310
E2E2E2E2E2E2E2E2E2E2E2E2E2E2E2E2E2E2E2E2E2E2E2E2E2E2E2E2E2E2E2E2E2E2E2E2E2E2E2E2E2E2E2E2E2E2E2E2E2E2E2E2E2E2E2E2E2E2E2E2E2E2E2E2E2E2E2E2E2E2E2E2E2E2E2E2E2E2E2E2E2E2E2E2E2E2E2E2E2E2E2E2E2E2E2E2E2E2E2E2E2E2E2E2E2E2E2E2E2E2E2E2E2E2E2E2E2E2E2E2E2E2E2E2E2E2E2
310
E2E2E2F5E2E2E2E2E2E2E2E2E2E2E2E2E2E2E2E2F5E2E2E2F5F5E2E2E2F5E2E2E2E2E2E2E2E2E2E2E2E2E2E2E2E2F5E2E2E2E2E2E2E2E2E2E2E2E2E2E2E2E2E2E2E2E2E2E2E2E2E2E2E2E2E2E2E2E2E2E2E2E2E2E2E2E2E2E2E2E2E2E2E2E2E2E2E2E2E2E2E2E2E2E2E2E2E2E2E2E2E2E2E2E2E2E2E2E2E2E2E2E2E2E2E2E2
310
E2E2E2E2E2E2E2E2E2E2E2E2E2E2E2E2E2E2E2E2E2E2E2E2E2E2E2E2E2E2E2E2E2E2E2E2E2E2E2E2E2E2E2E2E2E2E2E2E2E2E2E2E2E2E2E2F5E2E2E2E2E2E2E2E2E2E2E2E2E2E2E2E2F5E2E2E2F5F5E2E2E2F5E2E2E2E2E2E2E2E2E2E2E2E2E2E2E2E2F5E2E2E2E2E2E2E2E2E2E2E2E2E2E2E2E2E2E2E2E2E2E2E2E2E2E2E2
310
E2E2E2E2E2E2E2E2E2E2E2E2E2E2E2E2E2E2E2E2E2E2E2E2E2E2E2E2E2E2E2E2E2E2E2E2E2E2E2E2E2E2E2E2E2E2E2E2E2E2E2E2E2E2E2E2E2E2E2E2E2E2E2E2E2E2E2E2E2E2E2E2E2E2E2E2E2E2E2E2E2E2E2E2E2E2E2E2E2E2E2E2E2E2E2E2E2E2E2E2E2E2E2E2E2E2E2E2E2F5E2E2E2E2E2E2E2E2E2E2E2E2E2E2E2E2F5
310
E2E2E2F5F5E2E2E2F5E2E2E2E2E2E2E2E2E2E2E2E2E2E2E2E2F5E2E2E2E2E2E2E2E2E2E2E2E2E2E2E2E2E2E2E2E2E2E2E2E2E2E2E2E2E2E2E2E2E2E2E2E2E2E2E2E2E2E2E2E2E2E2E2E2E2E2E2E2E2E2E2E2E2E2E2E2E2E2E2E2E2E2E2E2E2E2E2E2E2E2E2E2E2E2E2E2E2E2E2E2E2E2E2E2E2E2E2E2E2E2E2E2E2E2E2E2E2
310
E2E2E2E2E2E2E2E2E2E2E2E2E2E2E2E2E2E2E2E2E2E2E2E2E2E2E2E2E2E2E2E2E2E2E2F5E2E2E2E2E2E2E2E2E2E2E2E2E2E2E2E2F5E2E2E2F5F5E2E2E2F5E2E2E2E2E2E2E2E2E2E2E2E2E2E2E2E2F5E2E2E2E2E2E2E2E2E2E2E2E2E2E2E2E2E2E2E2E2E2E2E2E2E2E2E2E2E2E2E2E2E2E2E2E2E2E2E2E2E2E2E2E2E2E2E2E2
310
E2E2E2E2E2E2E2E2E2E2E2E2E2E2E2E2E2E2E2E2E2E2E2E2E2E2E2E2E2E2E2E2E2E2E2E2E2E2E2E2E2E2E2E2E2E2E2E2E2E2E2E2E2E2E2E2E2E2E2E2E2E2E2E2E2E2E2E2E2E2E2E2E2E2E2E2E2E2E2E2E2E2E2E2E2E2E2E2F5E2E2E2E2E2E2E2E2E2E2E2E2E2E2E2E2F5E2E2E2F5F5E2E2E2F5E2E2E2E2E2E2E2E2E2E2E2E2
310
E2E2E2E2F5E2E2E2E2E2E2E2E2E2E2E2E2E2E2E2E2E2E2E2E2E2E2E2E2E2E2E2E2E2E2E2E2E2E2E2E2E2E2E2E2E2E2E2E2E2E2E2E2E2E2E2E2E2E2E2E2E2E2E2E2E2E2E2E2E2E2E2E2E2E2E2E2E2E2E2E2E2E2E2E2E2E2E2E2E2E2E2E2E2E2E2E2E2E2E2E2E2E2E2E2E2E2E2E2E2E2E2E2E2E2E2E2E2E2E2E2E2E2E2E2E2E2
310
E2E2E2E2E2E2E2E2E2E2E2E2E2E2F5E2E2E2E2E2E2E2E2E2E2E2E2E2E2E2E2F5E2E2E2F5F5E2E2E2F5E2E2E2E2E2E2E2E2E2E2E2E2E2E2E2E2F5E2E2E2E2E2E2E2E2E2E2E2E2E2E2E2E2E2E2E2E2E2E2E2E2E2E2E2E2E2E2E2E2E2E2E2E2E2E2E2E2E2E2E2E2E2E2E2E2E2E2E2E2E2E2E2E2E2E2E2E2E2E2E2E2E2E2E2E2E2
310
E2E2E2E2E2E2E2E2E2E2E2E2E2E2E2E2E2E2E2E2E2E2E2E2E2E2E2E2E2E2E2E2E2E2E2E2E2E2E2E2E2E2E2E2E2E2E2E2E2E2E2E2E2E2E2E2E2E2E2E2E2E2E2E2E2E2E2F5E2E2E2E2E2E2E2E2E2E2E2E2E2E2E2E2F5E2E2E2F5F5E2E2E2F5E2E2E2E2E2E2E2E2E2E2E2E2E2E2E2E2F5E2E2E2E2E2E2E2E2E2E2E2E2E2E2E2E2
310
E2E2E2E2E2E2E2E2E2E2E2E2E2E2E2E2E2E2E2E2E2E2E2E2E2E2E2E2E2E2E2E2E2E2E2E2E2E2E2E2E2E2E2E2E2E2E2E2E2E2E2E2E2E2E2E2E2E2E2E2E2E2E2E2E2E2E2E2E2E2E2E2E2E2E2E2E2E2E2E2E2E2E2E2E2E2E2E2E2E2E2E2E2E2E2E2E2E2E2E2E2E2E2E2E2E2E2E2E2E2E2E2E2E2E2E2E2E2E2E2F5E2E2E2E2E2E2
310
E2E2E2E2E2E2E2E2E2E2F5E2E2E2F5F5E2E2E2F5E2E2E2E2E2E2E2E2E2E2E2E2E2E2E2E2F5E2E2E2E2E2E2E2E2E2E2E2E2E2E2E2E2E2E2E2E2E2E2E2E2E2E2E2E2E2E2E2E2E2E2E2E2E2E2E2E2E2E2E2E2E2E2E2E2E2E2E2E2E2E2E2E2E2E2E2E2E2E2E2E2E2E2E2E2E2E2E2E2E2E2E2E2E2E2E2E2E2E2E2E2E2E2E2E2E2E2
310
E2E2E2E2E2E2E2E2E2E2E2E2E2E2E2E2E2E2E2E2E2E2E2E2E2E2E2E2E2E2E2E2E2E2E2E2E2E2E2E2E2E2E2E2E2E2F5E2E2E2E2E2E2E2E2E2E2E2E2E2E2E2E2F5E2E2E2F5F5E2E2E2F5E2E2E2E2E2E2E2E2E2E2E2E2E2E2E2E2F5E2E2E2E2E2E2E2E2E2E2E2E2E2E2E2E2E2E2E2E2E2E2E2E2E2E2E2E2E2E2E2E2E2E2E2E2E2
310
E2E2E2E2E2E2E2E2E2E2E2E2E2E2E2E2E2E2E2E2E2E2E2E2E2E2E2E2E2E2E2E2E2E2E2E2E2E2E2E2E2E2E2E2E2E2E2E2E2E2E2E2E2E2E2E2E2E2E2E2E2E2E2E2E2E2E2E2E2E2E2E2E2E2E2E2E2E2E2E2E2E2E2E2E2E2E2E2E2E2E2E2E2E2E2E2E2E2E2F5E2E2E2E2E2E2E2E2E2E2E2E2E2E2E2E2F5E2E2E2F5F5E2E2E2F5E2
310
E2E2E2E2E2E2E2E2E2E2E2E2E2E2E2F5E2E2E2E2E2E2E2E2E2E2E2E2E2E2E2E2E2E2E2E2E2E2E2E2E2E2E2E2E2E2E2E2E2E2E2E2E2E2E2E2E2E2E2E2E2E2E2E2E2E2E2E2E2E2E2E2E2E2E2E2E2E2E2E2E2E2E2E2E2E2E2E2E2E2E2E2E2E2E2E2E2E2E2E2E2E2E2E2E2E2E2E2E2E2E2E2E2E2E2E2E2E2E2E2E2E2E2E2E2E2E2
310
E2E2E2E2E2E2E2E2E2E2E2E2E2E2E2E2E2E2E2E2E2E2E2E2E2F5E2E2E2E2E2E2E2E2E2E2E2E2E2E2E2E2F5E2E2E2F5F5E2E2E2F5E2E2E2E2E2E2E2E2E2E2E2E2E2E2E2E2F5E2E2E2E2E2E2E2E2E2E2E2E2E2E2E2E2E2E2E2E2E2E2E2E2E2E2E2E2E2E2E2E2E2E2E2E2E2E2E2E2E2E2E2E2E2E2E2E2E2E2E2E2E2E2E2E2E2E2
310
E2E2E2E2E2E2E2E2E2E2E2E2E2E2E2E2E2E2E2E2E2E2E2E2E2E2E2E2E2E2E2E2E2E2E2E2E2E2E2E2E2E2E2E2E2E2E2E2E2E2E2E2E2E2E2E2E2E2E2E2E2E2E2E2E2E2E2E2E2E2E2E2E2E2E2E2E2E2F5E2E2E2E2E2E2E2E2E2E2E2E2E2E2E2E2F5E2E2E2F5F5E2E2E2F5E2E2E2E2E2E2E2E2E2E2E2E2E2E2E2E2F5E2E2E2E2E2
310
E2E2E2E2E2E2E2E2E2E2E2E2E2E2E2E2E2E2E2E2E2E2E2E2E2E2E2E2E2E2E2E2E2E2E2E2E2E2E2E2E2E2E2E2E2E2E2E2E2E2E2E2E2E2E2E2E2E2E2E2E2E2E2E2E2E2E2E2E2E2E2E2E2E2E2E2E2E2E2E2E2E2E2E2E2E2E2E2E2E2E2E2E2E2E2E2E2E2E2E2E2E2E2E2E2E2E2E2E2E2E2E2E2E2E2E2E2E2E2E2E2E2E2E2E2E2E2
310
E2E2E2E2F5E2E2E2E2E2E2E2E2E2E2E2E2E2E2E2E2F5E2E2E2F5F5E2E2E2E2E2E2E2E2E2E2E2E2E2E2E2E2E2E2E2E2F5E2E2E2E2E2E2E2E2E2E2E2E2E2E2E2E2E2E2E2E2E2E2E2E2E2E2E2E2E2E2E2E2E2E2E2E2E2E2E2E2E2E2E2E2E2E2E2E2E2E2E2E2E2E2E2E2E2E2E2E2E2E2E2E2E2E2E2E2E2E2E2E2E2E2E2E2E2E2E2
310
E2E2E2E2E2E2E2E2E2E2E2E2E2E2E2E2E2E2E2E2E2E2E2E2E2E2E2E2E2E2E2E2E2E2E2E2E2E2E2E2E2E2E2E2E2E2E2E2E2E2E2E2E2E2E2E2E2F5E2E2E2E2E2E2E2E2E2E2E2E2E2E2E2E2E2E2E2E2F5F5E2E2E2E2E2E2E2E2E2E2E2E2E2E2E2E2E2E2E2E2F5E2E2E2E2E2E2E2E2E2E2E2E2E2E2E2E2E2E2E2E2E2E2E2E2E2E2
310
E2E2E2E2E2E2E2E2E2E2E2E2E2E2E2E2E2E2E2E2E2E2E2E2E2E2E2E2E2E2E2E2E2E2E2E2E2E2E2E2E2E2E2E2E2E2E2E2E2E2E2E2E2E2E2E2E2E2E2E2E2E2E2E2E2E2E2E2E2E2E2E2E2E2E2E2E2E2E2E2E2E2E2E2E2E2E2E2E2E2E2E2E2E2E2E2E2E2E2E2E2E2E2E2E2E2E2E2E2E2F5E2E2E2E2E2E2E2E2E2E2E2E2E2E2E2E2
310
E2E2E2E2F5F5E2E2E2E2E2E2E2E2E2E2E2E2E2E2E2E2E2E2E2E2F5E2E2E2E2E2E2E2E2E2E2E2E2E2E2E2E2E2E2E2E2E2E2E2E2E2E2E2E2E2E2E2E2E2E2E2E2E2E2E2E2E2E2E2E2E2E2E2E2E2E2E2E2E2E2E2E2E2E2E2E2E2E2E2E2E2E2E2E2E2E2E2E2E2E2E2E2E2E2E2E2E2E2E2E2E2E2E2E2E2E2E2E2E2E2E2E2E2E2E2E2
310
E2E2E2E2E2E2E2E2E2E2E2E2E2E2E2E2E2E2E2E2E2E2E2E2E2E2E2E2E2E2E2E2E2E2E2E2F5E2E2E2E2E2E2E2E2E2E2E2E2E2E2E2E2E2E2E2E2F5F5E2E2E2E2E2E2E2E2E2E2E2E2E2E2E2E2E2E2E2E2F5E2E2E2E2E2E2E2E2E2E2E2E2E2E2E2E2E2E2E2E2E2E2E2E2E2E2E2E2E2E2E2E2E2E2E2E2E2E2E2E2E2E2E2E2E2E2E2
310
E2E2E2E2E2E2E2E2E2E2E2E2E2E2E2E2E2E2E2E2E2E2E2E2E2E2E2E2E2E2E2E2E2E2E2E2E2E2E2E2E2E2E2E2E2E2E2E2E2E2E2E2E2E2E2E2E2E2E2E2E2E2E2E2E2E2E2E2E2E2E2E2E2E2E2E2E2E2E2E2E2E2E2E2E2E2E2E2E2F5E2E2E2E2E2E2E2E2E2E2E2E2E2E2E2E2E2E2E2E2F5F5E2E2E2E2E2E2E2E2E2E2E2E2E2E2E2
310
E2E2E2E2E2F5F5F5F5F5F5F5F5F5F5F5F5F5F5F5F5F5F5F5F5F5F5F5F5F5F5F5F5F5F5F5F5F5F5F5F5F5F5F5F5F5F5F5F5F5F5F5F5F5F5F5F5F5F5F5F5F5F5F5F5F5F5F5F5F5F5F5F5F5F5F5F5F5F5F5F5F5F5F5F5F5F5F5F5F5F5F5F5F5F5F5F5F5F5F5F5F5F5F5F5F5F5F5F5F5F5F5F5F5F5F5F5F5F5F5F5F5F5F5F5F5F5
310
F5F5F5F5F5F5F5F5F5F5F5F5F5F5F5F5E2E2E2E2E2E2E2E2E2E2E2E2E2E2E2E2E2E2E2E2F5F5E2E2E2E2E2E2E2E2E2E2E2E2E2E2E2E2E2E2E2E2E2E2E2E2E2E2E2E2E2E2E2E2E2E2E2E2E2E2E2E2E2E2E2E2E2E2E2E2E2E2E2E2E2E2E2E2E2E2E2E2E2E2E2E2E2E2E2E2E2E2E2E2E2E2E2E2E2E2E2E2E2E2E2E2E2E2E2E2E2
310
E2E2E2E2E2E2E2E2E2E2E2E2E2E2E2E2E2E2E2E2E2E2E2E2E2E2E2E2E2E2E2E2E2E2E2E2E2E2E2E2E2E2E2E2E2E2E2E2E2E2E2E2E2E2E2E2E2E2E2E2E2E2E2E2E2E2E2E2E2E2E2E2E2E2E2E2E2E2E2E2E2E2E2E2E2E2E2E2E2F5F5E2E2E2E2E2E2E2E2E2E2E2E2E2E2E2E2E2E2E2E2E2E2E2E2E2E2E2E2E2E2E2E2E2E2E2E2
310
E2E2E2E2E2E2E2E2E2E2E2E2E2E2E2E2E2E2E2E2E2E2E2E2E2E2E2E2E2E2E2E2E2E2E2E2E2E2E2E2E2E2E2E2E2E2E2E2E2E2E2E2E2E2E2E2E2E2E2E2E2E2E2E2E2E2E2E2E2E2E2E2E2E2E2E2E2E2E2E2E2E2E2E2E2E2E2E2E2E2E2E2E2E2E2E2E2E2E2E2E2E2E2E2E2E2E2E2E2E2E2E2E2E2E2E2E2E2E2E2E2E2E2E2E2E2E2
310
E2E2E2E2E2E2E2E2E2E2E2E2E2E2E2F5F5E2E2E2E2E2E2E2E2E2E2E2E2E2E2E2E2E2E2E2E2E2E2E2E2E2E2E2E2E2E2E2E2E2E2E2E2E2E2E2E2E2E2E2E2E2E2E2E2E2E2E2E2E2E2E2E2E2E2E2E2E2E2E2E2E2E2E2E2E2E2E2E2E2E2E2E2E2E2E2E2E2E2E2E2E2E2E2E2E2E2E2E2E2E2E2E2E2E2E2E2E2E2E2E2E2E2E2E2E2E2
310
E2E2E2E2E2E2E2E2E2E2E2E2E2E2E2E2E2E2E2E2E2E2E2E2E2E2E2E2E2E2E2E2E2E2E2E2E2E2E2E2E2E2E2E2E2E2E2E2E2E2E2E2E2E2E2E2E2E2E2E2E2E2E2E2E2E2E2E2F5F5E2E2E2E2E2E2E2E2E2E2E2E2E2E2E2E2E2E2E2E2E2E2E2E2E2E2E2E2E2E2E2E2E2E2E2E2E2E2E2E2E2E2E2E2E2E2E2E2E2E2E2E2E2E2E2E2E2
310
E2E2E2E2E2E2E2E2E2E2E2E2E2E2E2E2E2E2E2E2E2E2E2E2E2E2E2E2E2E2E2E2E2E2E2E2E2E2E2E2E2E2E2E2E2E2E2E2E2E2E2E2E2E2E2E2E2E2E2E2E2E2E2E2E2E2E2E2E2E2E2E2E2E2E2E2E2E2E2E2E2E2E2E2E2E2E2E2E2E2E2E2E2E2E2E2E2E2E2E2E2E2E2E2E2E2E2E2E2E2E2E2E2E2E2E2E2E2E2E2E2F5F5E2E2E2F5
310
E2E2E2E2E2E2E2E2E2E2E2E2E2E2E2E2E2E2E2E2E2E2E2E2E2E2E2E2E2E2E2E2E2E2E2E2E2E2E2E2E2E2E2E2E2E2E2E2E2E2E2E2E2E2E2E2E2E2E2E2E2E2E2E2E2E2E2E2E2E2E2E2E2E2E2E2E2E2E2E2E2E2E2E2E2E2E2E2E2E2E2E2E2E2E2E2E2E2E2E2E2E2E2E2E2E2E2E2E2E2E2E2E2E2E2E2E2E2E2E2E2E2E2E2E2E2E2
310
E2E2E2E2E2E2E2E2E2E2E2E2E2E2E2E2E2E2E2E2E2E2E2E2E2E2E2E2E2E2E2E2E2E2E2E2E2E2E2E2E2E2E2F5E2E2E2F5F5E2E2E2F5E2E2E2E2E2E2E2E2E2E2E2E2E2E2E2E2E2E2E2E2E2E2E2E2E2E2E2E2E2E2E2E2E2E2E2E2E2E2E2E2E2E2E2E2E2E2E2E2E2E2E2E2E2E2E2E2E2E2E2E2E2E2E2E2E2E2E2E2E2E2E2E2E2E2
310
E2E2E2E2E2E2E2E2E2E2E2E2E2E2E2E2E2E2E2E2E2E2E2E2E2E2E2E2E2E2E2E2E2E2E2E2E2E2E2E2E2E2E2E2E2E2E2E2E2E2E2E2E2E2E2E2E2E2E2E2E2E2E2E2E2E2E2E2E2E2E2E2E2E2E2E2E2E2E2E2E2E2E2E2E2E2E2E2E2E2E2E2E2E2E2E2F5E2E2E2F5F5E2E2E2F5E2E2E2E2E2E2E2E2E2E2E2E2E2E2E2E2E2E2E2E2E2
310
E2E2E2E2E2E2E2E2E2E2E2E2E2E2E2E2E2E2E2E2E2E2E2E2E2E2E2E2E2E2E2E2E2E2E2E2E2E2E2E2E2E2E2E2E2E2E2E2E2E2E2E2E2E2E2E2E2E2E2E2E2E2E2E2E2E2E2E2E2E2E2E2E2E2E2E2E2E2E2E2E2E2E2E2E2E2E2E2E2E2E2E2E2E2E2E2E2E2E2E2E2E2E2E2E2E2E2E2E2E2E2E2E2E2E2E2E2E2E2E2E2E2E2E2E2E2E2
310
E2E2E2E2E2E2E2E2E2E2E2E2E2E2E2E2E2E2E2E2E2E2F5E2E2E2F5F5E2E2E2F5E2E2E2E2E2E2E2E2E2E2E2E2E2E2E2E2E2E2E2E2E2E2E2E2E2E2E2E2E2E2E2E2E2E2E2E2E2E2E2E2E2E2E2E2E2E2E2E2E2E2E2E2E2E2E2E2E2E2E2E2E2E2E2E2E2E2E2E2E2E2E2E2E2E2E2E2E2E2E2E2E2E2E2E2E2E2E2E2E2E2E2E2E2E2E2
310
E2E2E2E2E2E2E2E2E2E2E2E2E2E2E2E2E2E2E2E2E2E2E2E2E2E2E2E2E2E2E2E2E2E2E2E2E2E2E2E2E2E2E2E2E2E2E2E2E2E2E2E2E2E2E2E2E2E2E2E2E2E2E2E2E2E2E2E2E2E2E2E2E2E2E2F5E2E2E2F5F5E2E2E2F5E2E2E2E2E2E2E2E2E2E2E2E2E2E2E2E2E2E2E2E2E2E2E2E2E2E2E2E2E2E2E2E2E2E2E2E2E2E2E2E2E2E2
310
E2E2E2E2E2E2E2E2E2E2E2E2E2E2E2E2E2E2E2E2E2E2E2E2E2E2E2E2E2E2E2E2E2E2E2E2E2E2E2E2E2E2E2E2E2E2E2E2E2E2E2E2E2E2E2E2E2E2E2E2E2E2E2E2E2E2E2E2E2E2E2E2E2E2E2E2E2E2E2E2E2E2E2E2E2E2E2E2E2E2E2E2E2E2E2E2E2E2E2E2E2E2E2E2E2E2E2E2E2E2E2E2E2E2E2E2E2E2E2E2E2E2E2E2E2E2E2
310
E2F5E2E2E2F5F5E2E2E2F5E2E2E2E2E2E2E2E2E2E2E2E2E2E2E2E2E2E2E2E2E2E2E2E2E2E2E2E2E2E2E2E2E2E2E2E2E2E2E2E2E2E2E2E2E2E2E2E2E2E2E2E2E2E2E2E2E2E2E2E2E2E2E2E2E2E2E2E2E2E2E2E2E2E2E2E2E2E2E2E2E2E2E2E2E2E2E2E2E2E2E2E2E2E2E2E2E2E2E2E2E2E2E2E2E2E2E2E2E2E2E2E2E2E2E2E2
310
E2E2E2E2E2E2E2E2E2E2E2E2E2E2E2E2E2E2E2E2E2E2E2E2E2E2E2E2E2E2E2E2E2E2E2E2E2E2E2E2E2E2E2E2E2E2E2E2E2E2E2E2E2E2F5E2E2E2F5F5E2E2E2F5E2E2E2E2E2E2E2E2E2E2E2E2E2E2E2E2E2E2E2E2E2E2E2E2E2E2E2E2E2E2E2E2E2E2E2E2E2E2E2E2E2E2E2E2E2E2E2E2E2E2E2E2E2E2E2E2E2E2E2E2E2E2E2
310
E2E2E2E2E2E2E2E2E2E2E2E2E2E2E2E2E2E2E2E2E2E2E2E2E2E2E2E2E2E2E2E2E2E2E2E2E2E2E2E2E2E2E2E2E2E2E2E2E2E2E2E2E2E2E2E2E2E2E2E2E2E2E2E2E2E2E2E2E2E2E2E2E2E2E2E2E2E2E2E2E2E2E2E2E2E2E2E2E2E2E2E2E2E2E2E2E2E2E2E2E2E2E2E2E2E2E2F5E2E2E2F5F5E2E2E2F5E2E2E2E2E2E2E2E2E2E2
310
E2E2E2E2E2E2E2E2E2E2E2E2E2E2E2E2E2E2E2E2E2E2E2E2E2E2E2E2E2E2E2E2E2E2E2E2E2E2E2E2E2E2E2E2E2E2E2E2E2E2E2E2E2E2E2E2E2E2E2E2E2E2E2E2E2E2E2E2E2E2E2E2E2E2E2E2E2E2E2E2E2E2E2E2E2E2E2E2E2E2E2E2E2E2E2E2E2E2E2E2E2E2E2E2E2E2E2E2E2E2E2E2E2E2E2E2E2E2E2E2E2E2E2E2E2E2E2
310
E2E2E2E2E2E2E2E2E2E2E2E2E2E2E2E2E2E2E2E2E2E2E2E2E2E2E2E2E2E2E2E2E2F5E2E2E2F5F5E2E2E2F5F5F5F5F5F5F5F5E2E2E2E2E2E2E2E2E2F5F5F5F5F5F5F5F5F5F5F5F5F5F5F5F5E2E2E2E2E2E2E2E2E2F5F5F5F5F5F5F5F5F5F5F5F5F5F5F5E2E2E2E2E2E2E2E2E2F5F5F5F5F5F5F5F5F5F5F5F5F5F5F5F5E2E2E2
310
E2E2E2E2E2F5F5F5F5F5F5F5F5F5F5F5F5F5F5F5F5E2E2E2E2E2E2E2E2E2F5F5F5F5F5F5F5F5F5F5F5F5F5F5F5E2E2E2E2E2E2E2E2E2F5F5F5F5F5F5F5F5F5F5F5F5F5F5F5F5E2E2E2E2E2E2E2E2E2F5F5F5F5F5F5F5F5E2E2E2F5F5E2E2E2E2E2E2E2E2E2E2E2E2E2E2E2E2E2E2E2E2E2E2E2E2E2E2E2E2E2E2E2E2E2E2E2
310
E2E2E2E2E2E2E2E2E2E2E2E2E2E2E2E2E2E2E2E2E2E2E2E2E2E2E2E2E2E2E2E2E2E2E2E2E2E2E2E2E2E2E2E2E2E2E2E2E2E2E2E2E2E2E2E2E2E2E2E2E2E2E2E2E2E2E2E2E2E2E2E2E2E2E2E2E2E2E2E2E2E2E2E2E2E2E2E2E2E2E2E2E2E2E2E2E2E2E2E2E2E2E2E2E2E2E2E2E2E2E2E2E2E2E2E2E2E2E2E2E2E2E2E2E2E2E2
310
E2E2E2E2E2E2E2E2E2E2E2E2E2E2E2E2F5F5E2E2E2E2E2E2E2E2E2E2E2E2E2E2E2E2E2E2E2E2E2E2E2E2E2E2E2E2E2E2E2E2E2E2E2E2E2E2E2E2E2E2E2E2E2E2E2E2E2E2E2E2E2E2E2E2E2E2E2E2E2E2E2E2E2E2E2E2E2E2E2E2E2E2E2E2E2E2E2E2E2E2E2E2E2E2E2E2E2E2E2E2E2E2E2E2E2E2E2E2E2E2E2E2E2E2E2E2E2
310
E2E2E2E2E2E2E2E2E2E2E2E2E2E2E2E2E2E2E2E2E2E2E2E2E2E2E2E2E2E2E2E2E2E2E2E2E2E2E2E2E2E2E2E2E2E2E2E2E2E2E2E2E2E2E2E2E2E2E2E2E2E2E2E2E2E2E2E2E2F5F5E2E2E2E2E2E2E2E2E2E2E2E2E2E2E2E2E2E2E2E2E2E2E2E2E2E2E2E2E2E2E2E2E2E2E2E2E2E2E2E2E2E2E2E2E2E2E2E2E2E2E2E2E2E2E2E2
310
E2E2E2E2E2E2E2E2E2E2E2E2E2E2E2E2E2E2E2E2E2E2E2E2E2E2E2E2E2E2E2E2E2E2E2E2E2E2E2E2E2E2E2E2E2E2E2E2E2E2E2E2E2E2E2E2E2E2E2E2E2E2E2E2E2E2E2E2E2E2E2E2E2E2E2E2E2E2E2E2E2E2E2E2E2E2E2E2E2E2E2E2E2E2E2E2E2E2E2E2E2E2E2E2E2E2E2E2E2E2E2E2E2E2E2E2E2E2E2E2E2E2F5F5E2E2E2
310
E2E2E2E2E2E2E2E2E2E2E2E2E2E2E2E2E2E2E2E2E2E2E2E2E2E2E2E2E2E2E2E2E2E2E2E2E2E2E2E2E2E2E2E2E2E2E2E2E2E2E2E2E2E2E2E2E2E2E2E2E2E2E2E2E2E2E2E2E2E2E2E2E2E2E2E2E2E2E2E2E2E2E2E2E2E2E2E2E2E2E2E2E2E2E2E2E2E2E2E2E2E2E2E2E2E2E2E2E2E2E2E2E2E2E2E2E2E2E2E2E2E2E2E2E2E2E2
310
E2E2E2E2E2E2E2E2E2E2E2E2E2E2E2E2E2E2E2E2E2E2E2E2E2E2E2E2E2E2E2E2E2E2E2E2E2E2E2E2E2E2E2E2E2E2E2E2F5
  0
XRECORD
  5
5F1D6
102
{ACAD_REACTORS
330
5F1D5
102
}
330
5F1D5
100
AcDbXrecord
280
     1
102
SHADEPLOT
 70
     0
102
SHADEPLOTRESLEVEL
 70
     2
102
SHADEPLOTCUSTOMDPI
 70
   300
  0
ENDSEC
  0
EOF
