  0
SECTION
  2
HEADER
  9
$ACADVER
  1
AC1015
  9
$ACADMAINTVER
 70
    20
  9
$DWGCODEPAGE
  3
ANSI_936
  9
$INSBASE
 10
0.0
 20
0.0
 30
0.0
  9
$EXTMIN
 10
-65.01666666666671
 20
-192.9760687523845
 30
0.0
  9
$EXTMAX
 10
433.2218809661328
 20
133.400004275283
 30
0.0
  9
$LIMMIN
 10
0.0
 20
0.0
  9
$LIMMAX
 10
420.0
 20
297.0
  9
$ORTHOMODE
 70
     0
  9
$REGENMODE
 70
     1
  9
$FILLMODE
 70
     1
  9
$QTEXTMODE
 70
     0
  9
$MIRRTEXT
 70
     1
  9
$LTSCALE
 40
1.0
  9
$ATTMODE
 70
     1
  9
$TEXTSIZE
 40
3.5
  9
$TRACEWID
 40
1.0
  9
$TEXTSTYLE
  7
simplex
  9
$CLAYER
  8
0
  9
$CELTYPE
  6
ByLayer
  9
$CECOLOR
 62
   256
  9
$CELTSCALE
 40
1.0
  9
$DISPSILH
 70
     0
  9
$DIMSCALE
 40
0.0
  9
$DIMASZ
 40
3.5
  9
$DIMEXO
 40
0.0
  9
$DIMDLI
 40
0.38
  9
$DIMRND
 40
0.0
  9
$DIMDLE
 40
0.0
  9
$DIMEXE
 40
1.5
  9
$DIMTP
 40
0.0
  9
$DIMTM
 40
0.0
  9
$DIMTXT
 40
3.5
  9
$DIMCEN
 40
0.09
  9
$DIMTSZ
 40
0.0
  9
$DIMTOL
 70
     0
  9
$DIMLIM
 70
     0
  9
$DIMTIH
 70
     0
  9
$DIMTOH
 70
     0
  9
$DIMSE1
 70
     0
  9
$DIMSE2
 70
     0
  9
$DIMTAD
 70
     1
  9
$DIMZIN
 70
     8
  9
$DIMBLK
  1

  9
$DIMASO
 70
     1
  9
$DIMSHO
 70
     1
  9
$DIMPOST
  1

  9
$DIMAPOST
  1

  9
$DIMALT
 70
     0
  9
$DIMALTD
 70
     2
  9
$DIMALTF
 40
25.4
  9
$DIMLFAC
 40
1.0
  9
$DIMTOFL
 70
     0
  9
$DIMTVP
 40
0.0
  9
$DIMTIX
 70
     0
  9
$DIMSOXD
 70
     0
  9
$DIMSAH
 70
     0
  9
$DIMBLK1
  1

  9
$DIMBLK2
  1

  9
$DIMSTYLE
  2
\M+18352\M+18373\M+1815B - ISO-25
  9
$DIMCLRD
 70
   256
  9
$DIMCLRE
 70
   256
  9
$DIMCLRT
 70
   256
  9
$DIMTFAC
 40
1.0
  9
$DIMGAP
 40
2.299999999999998
  9
$DIMJUST
 70
     0
  9
$DIMSD1
 70
     0
  9
$DIMSD2
 70
     0
  9
$DIMTOLJ
 70
     1
  9
$DIMTZIN
 70
     8
  9
$DIMALTZ
 70
     0
  9
$DIMALTTZ
 70
     0
  9
$DIMUPT
 70
     0
  9
$DIMDEC
 70
     2
  9
$DIMTDEC
 70
     2
  9
$DIMALTU
 70
     2
  9
$DIMALTTD
 70
     2
  9
$DIMTXSTY
  7
simplex
  9
$DIMAUNIT
 70
     0
  9
$DIMADEC
 70
     0
  9
$DIMALTRND
 40
0.0
  9
$DIMAZIN
 70
     0
  9
$DIMDSEP
 70
    46
  9
$DIMATFIT
 70
     3
  9
$DIMFRAC
 70
     0
  9
$DIMLDRBLK
  1

  9
$DIMLUNIT
 70
     2
  9
$DIMLWD
 70
    -1
  9
$DIMLWE
 70
    -1
  9
$DIMTMOVE
 70
     0
  9
$LUNITS
 70
     2
  9
$LUPREC
 70
     4
  9
$SKETCHINC
 40
1.0
  9
$FILLETRAD
 40
1.5
  9
$AUNITS
 70
     0
  9
$AUPREC
 70
     0
  9
$MENU
  1
.
  9
$ELEVATION
 40
0.0
  9
$PELEVATION
 40
0.0
  9
$THICKNESS
 40
0.0
  9
$LIMCHECK
 70
     0
  9
$CHAMFERA
 40
10.0
  9
$CHAMFERB
 40
10.0
  9
$CHAMFERC
 40
20.0
  9
$CHAMFERD
 40
0.0
  9
$SKPOLY
 70
     0
  9
$TDCREATE
 40
2455489.391063368
  9
$TDUCREATE
 40
2455489.057730035
  9
$TDUPDATE
 40
2458416.620301447
  9
$TDUUPDATE
 40
2458416.286968113
  9
$TDINDWG
 40
1.9811076042
  9
$TDUSRTIMER
 40
1.9810558912
  9
$USRTIMER
 70
     1
  9
$ANGBASE
 50
0.0
  9
$ANGDIR
 70
     0
  9
$PDMODE
 70
     0
  9
$PDSIZE
 40
0.0
  9
$PLINEWID
 40
0.0
  9
$SPLFRAME
 70
     0
  9
$SPLINETYPE
 70
     6
  9
$SPLINESEGS
 70
     8
  9
$HANDSEED
  5
60617
  9
$SURFTAB1
 70
     6
  9
$SURFTAB2
 70
     6
  9
$SURFTYPE
 70
     6
  9
$SURFU
 70
     6
  9
$SURFV
 70
     6
  9
$UCSBASE
  2

  9
$UCSNAME
  2

  9
$UCSORG
 10
0.0
 20
0.0
 30
0.0
  9
$UCSXDIR
 10
1.0
 20
0.0
 30
0.0
  9
$UCSYDIR
 10
0.0
 20
1.0
 30
0.0
  9
$UCSORTHOREF
  2

  9
$UCSORTHOVIEW
 70
     0
  9
$UCSORGTOP
 10
0.0
 20
0.0
 30
0.0
  9
$UCSORGBOTTOM
 10
0.0
 20
0.0
 30
0.0
  9
$UCSORGLEFT
 10
0.0
 20
0.0
 30
0.0
  9
$UCSORGRIGHT
 10
0.0
 20
0.0
 30
0.0
  9
$UCSORGFRONT
 10
0.0
 20
0.0
 30
0.0
  9
$UCSORGBACK
 10
0.0
 20
0.0
 30
0.0
  9
$PUCSBASE
  2

  9
$PUCSNAME
  2

  9
$PUCSORG
 10
0.0
 20
0.0
 30
0.0
  9
$PUCSXDIR
 10
1.0
 20
0.0
 30
0.0
  9
$PUCSYDIR
 10
0.0
 20
1.0
 30
0.0
  9
$PUCSORTHOREF
  2

  9
$PUCSORTHOVIEW
 70
     0
  9
$PUCSORGTOP
 10
0.0
 20
0.0
 30
0.0
  9
$PUCSORGBOTTOM
 10
0.0
 20
0.0
 30
0.0
  9
$PUCSORGLEFT
 10
0.0
 20
0.0
 30
0.0
  9
$PUCSORGRIGHT
 10
0.0
 20
0.0
 30
0.0
  9
$PUCSORGFRONT
 10
0.0
 20
0.0
 30
0.0
  9
$PUCSORGBACK
 10
0.0
 20
0.0
 30
0.0
  9
$USERI1
 70
     0
  9
$USERI2
 70
     0
  9
$USERI3
 70
     0
  9
$USERI4
 70
     0
  9
$USERI5
 70
     0
  9
$USERR1
 40
0.0
  9
$USERR2
 40
0.0
  9
$USERR3
 40
0.0
  9
$USERR4
 40
0.0
  9
$USERR5
 40
0.0
  9
$WORLDVIEW
 70
     1
  9
$SHADEDGE
 70
     3
  9
$SHADEDIF
 70
    70
  9
$TILEMODE
 70
     1
  9
$MAXACTVP
 70
    64
  9
$PINSBASE
 10
0.0
 20
0.0
 30
0.0
  9
$PLIMCHECK
 70
     0
  9
$PEXTMIN
 10
26.66999878883364
 20
20.31999878883365
 30
0.0
  9
$PEXTMAX
 10
240.0299890995025
 20
182.8799890995025
 30
0.0
  9
$PLIMMIN
 10
-6.350006103515625
 20
-6.349999904632567
  9
$PLIMMAX
 10
273.0499877929688
 20
209.5499939918518
  9
$UNITMODE
 70
     0
  9
$VISRETAIN
 70
     1
  9
$PLINEGEN
 70
     0
  9
$PSLTSCALE
 70
     1
  9
$TREEDEPTH
 70
  3020
  9
$CMLSTYLE
  2
Standard
  9
$CMLJUST
 70
     0
  9
$CMLSCALE
 40
20.0
  9
$PROXYGRAPHICS
 70
     1
  9
$MEASUREMENT
 70
     1
  9
$CELWEIGHT
370
    -1
  9
$ENDCAPS
280
     0
  9
$JOINSTYLE
280
     0
  9
$LWDISPLAY
290
     0
  9
$INSUNITS
 70
     4
  9
$HYPERLINKBASE
  1

  9
$STYLESHEET
  1

  9
$XEDIT
290
     1
  9
$CEPSNTYPE
380
     0
  9
$PSTYLEMODE
290
     1
  9
$FINGERPRINTGUID
  2
{601DDA01-5B13-4A4C-8F56-1333B78D855B}
  9
$VERSIONGUID
  2
{C3A23FB9-BAF3-4EF1-B130-BB2ADE43FB15}
  9
$EXTNAMES
290
     1
  9
$PSVPSCALE
 40
0.0
  9
$OLESTARTUP
290
     0
  0
ENDSEC
  0
SECTION
  2
CLASSES
  0
CLASS
  1
ACDBDICTIONARYWDFLT
  2
AcDbDictionaryWithDefault
  3
ObjectDBX Classes
 90
        0
280
     0
281
     0
  0
CLASS
  1
ACDBPLACEHOLDER
  2
AcDbPlaceHolder
  3
ObjectDBX Classes
 90
        0
280
     0
281
     0
  0
CLASS
  1
LAYOUT
  2
AcDbLayout
  3
ObjectDBX Classes
 90
        0
280
     0
281
     0
  0
CLASS
  1
DICTIONARYVAR
  2
AcDbDictionaryVar
  3
ObjectDBX Classes
 90
        0
280
     0
281
     0
  0
CLASS
  1
TABLESTYLE
  2
AcDbTableStyle
  3
ObjectDBX Classes
 90
     2047
280
     0
281
     0
  0
CLASS
  1
SORTENTSTABLE
  2
AcDbSortentsTable
  3
ObjectDBX Classes
 90
        0
280
     0
281
     0
  0
CLASS
  1
DIMASSOC
  2
AcDbDimAssoc
  3
"AcDbDimAssoc|Product Desc:     AcDim ARX App For Dimension|Company:          Autodesk, Inc.|WEB Address:      www.autodesk.com"
 90
        0
280
     0
281
     0
  0
CLASS
  1
ACAD_EVALUATION_GRAPH
  2
AcDbEvalGraph
  3
ObjectDBX Classes
 90
    33921
280
     0
281
     0
  0
CLASS
  1
ACAECUSTOBJ
  2
AcAeEditorObj
  3
AcAeEditorObj
 90
    33792
280
     0
281
     0
  0
CLASS
  1
ACDB_DYNAMICBLOCKPURGEPREVENTER_VERSION
  2
AcDbDynamicBlockPurgePreventer
  3
ObjectDBX Classes
 90
    33921
280
     0
281
     0
  0
ENDSEC
  0
SECTION
  2
TABLES
  0
TABLE
  2
VPORT
  5
8
330
0
100
AcDbSymbolTable
 70
    23
  0
VPORT
  5
60608
330
8
100
AcDbSymbolTableRecord
100
AcDbViewportTableRecord
  2
*Active
 70
     0
 10
0.0
 20
0.0
 11
1.0
 21
1.0
 12
52.63668152122966
 22
4.85728041176037
 13
0.0
 23
0.0
 14
10.0
 24
10.0
 15
10.0
 25
10.0
 16
0.0
 26
0.0
 36
1.0
 17
0.0
 27
0.0
 37
0.0
 40
515.402748227405
 41
1.381443298969072
 42
50.0
 43
0.0
 44
0.0
 50
0.0
 51
0.0
 71
     0
 72
  1000
 73
     1
 74
     1
 75
     0
 76
     0
 77
     0
 78
     0
281
     0
 65
     1
110
0.0
120
0.0
130
0.0
111
1.0
121
0.0
131
0.0
112
0.0
122
1.0
132
0.0
 79
     0
146
0.0
  0
ENDTAB
  0
TABLE
  2
LTYPE
  5
5
330
0
100
AcDbSymbolTable
 70
     4
  0
LTYPE
  5
14
330
5
100
AcDbSymbolTableRecord
100
AcDbLinetypeTableRecord
  2
ByBlock
 70
     0
  3

 72
    65
 73
     0
 40
0.0
  0
LTYPE
  5
15
330
5
100
AcDbSymbolTableRecord
100
AcDbLinetypeTableRecord
  2
ByLayer
 70
     0
  3

 72
    65
 73
     0
 40
0.0
  0
LTYPE
  5
16
330
5
100
AcDbSymbolTableRecord
100
AcDbLinetypeTableRecord
  2
Continuous
 70
     0
  3
Solid line
 72
    65
 73
     0
 40
0.0
  0
LTYPE
  5
D7
330
5
100
AcDbSymbolTableRecord
100
AcDbLinetypeTableRecord
  2
HIDDEN
 70
     0
  3
Hidden __ __ __ __ __ __ __ __ __ __ __ __ __ _
 72
    65
 73
     2
 40
9.524999999999996
 49
6.349999999999997
 74
     0
 49
-3.174999999999998
 74
     0
  0
LTYPE
  5
D9
330
5
100
AcDbSymbolTableRecord
100
AcDbLinetypeTableRecord
  2
CENTER
 70
     0
  3
Center ____ _ ____ _ ____ _ ____ _ ____ _ ____
 72
    65
 73
     4
 40
50.8
 49
31.75
 74
     0
 49
-6.349999999999997
 74
     0
 49
6.349999999999997
 74
     0
 49
-6.349999999999997
 74
     0
  0
LTYPE
  5
35815
330
5
100
AcDbSymbolTableRecord
100
AcDbLinetypeTableRecord
  2
PHANTOM
 70
     0
  3
_____ _ _ _____ _ _ _____ _ _ _____
 72
    65
 73
     6
 40
0.8
 49
0.45
 74
     0
 49
-0.05
 74
     0
 49
0.1
 74
     0
 49
-0.05
 74
     0
 49
0.1
 74
     0
 49
-0.05
 74
     0
  0
ENDTAB
  0
TABLE
  2
LAYER
  5
2
102
{ACAD_XDICTIONARY
360
E2
102
}
330
0
100
AcDbSymbolTable
 70
    34
  0
LAYER
  5
10
330
2
100
AcDbSymbolTableRecord
100
AcDbLayerTableRecord
  2
0
 70
     0
 62
     7
  6
Continuous
370
    -3
390
F
  0
LAYER
  5
D1
330
2
100
AcDbSymbolTableRecord
100
AcDbLayerTableRecord
  2
1
 70
     0
 62
     4
  6
Continuous
370
    50
390
F
1001
AcAecLayerStandard
1000

1000

  0
LAYER
  5
D3
330
2
100
AcDbSymbolTableRecord
100
AcDbLayerTableRecord
  2
2
 70
     0
 62
     7
  6
Continuous
370
    25
390
F
1001
AcAecLayerStandard
1000

1000

  0
LAYER
  5
D4
330
2
100
AcDbSymbolTableRecord
100
AcDbLayerTableRecord
  2
3
 70
     0
 62
     1
  6
HIDDEN
370
    35
390
F
1001
AcAecLayerStandard
1000

1000

  0
LAYER
  5
D8
330
2
100
AcDbSymbolTableRecord
100
AcDbLayerTableRecord
  2
4
 70
     0
 62
     2
  6
CENTER
370
    25
390
F
1001
AcAecLayerStandard
1000

1000

  0
LAYER
  5
DA
330
2
100
AcDbSymbolTableRecord
100
AcDbLayerTableRecord
  2
6
 70
     0
 62
     5
  6
Continuous
370
    35
390
F
1001
AcAecLayerStandard
1000

1000

  0
LAYER
  5
DB
330
2
100
AcDbSymbolTableRecord
100
AcDbLayerTableRecord
  2
cut
 70
     0
 62
     1
  6
Continuous
370
    25
390
F
1001
AcAecLayerStandard
1000

1000

  0
LAYER
  5
DC
330
2
100
AcDbSymbolTableRecord
100
AcDbLayerTableRecord
  2
nocut
 70
     0
 62
     7
  6
Continuous
370
    25
390
F
1001
AcAecLayerStandard
1000

1000

  0
LAYER
  5
DD
330
2
100
AcDbSymbolTableRecord
100
AcDbLayerTableRecord
  2
sk1
 70
     0
 62
     4
  6
Continuous
370
    50
390
F
1001
AcAecLayerStandard
1000

1000

  0
LAYER
  5
DE
330
2
100
AcDbSymbolTableRecord
100
AcDbLayerTableRecord
  2
sk2
 70
     0
 62
     7
  6
Continuous
370
    25
390
F
1001
AcAecLayerStandard
1000

1000

  0
LAYER
  5
DF
330
2
100
AcDbSymbolTableRecord
100
AcDbLayerTableRecord
  2
sk3
 70
     0
 62
     1
  6
HIDDEN
370
    35
390
F
1001
AcAecLayerStandard
1000

1000

  0
LAYER
  5
E0
330
2
100
AcDbSymbolTableRecord
100
AcDbLayerTableRecord
  2
sk4
 70
     0
 62
     2
  6
CENTER
370
    25
390
F
1001
AcAecLayerStandard
1000

1000

  0
LAYER
  5
E1
330
2
100
AcDbSymbolTableRecord
100
AcDbLayerTableRecord
  2
sk6
 70
     0
 62
     5
  6
Continuous
370
    35
390
F
1001
AcAecLayerStandard
1000

1000

  0
LAYER
  5
31B6
330
2
100
AcDbSymbolTableRecord
100
AcDbLayerTableRecord
  2
Defpoints
 70
     0
 62
     7
  6
Continuous
290
     0
370
    -3
390
F
  0
ENDTAB
  0
TABLE
  2
STYLE
  5
3
330
0
100
AcDbSymbolTable
 70
    11
  0
STYLE
  5
11
330
3
100
AcDbSymbolTableRecord
100
AcDbTextStyleTableRecord
  2
Standard
 70
     0
 40
0.0
 41
1.0
 50
0.0
 71
     0
 42
2.5
  3
txt.shx
  4
@extfont2.shx
  0
STYLE
  5
D6
330
3
100
AcDbSymbolTableRecord
100
AcDbTextStyleTableRecord
  2

 70
     1
 40
0.0
 41
1.0
 50
0.0
 71
     0
 42
2.5
  3
ltypeshp.shx
  4

  0
STYLE
  5
24A
330
3
100
AcDbSymbolTableRecord
100
AcDbTextStyleTableRecord
  2
simplex
 70
     0
 40
3.5
 41
1.0
 50
0.0
 71
     0
 42
3.5
  3
txt.shx
  4

  0
STYLE
  5
69E
330
3
100
AcDbSymbolTableRecord
100
AcDbTextStyleTableRecord
  2
MX_NOTE_STANDARD
 70
     0
 40
0.0
 41
1.0
 50
0.0
 71
     0
 42
4.2
  3
txt.shx
  4
extfont.shx
  0
STYLE
  5
3524
330
3
100
AcDbSymbolTableRecord
100
AcDbTextStyleTableRecord
  2
TEXTSTYLE_2
 70
     0
 40
0.0
 41
0.775
 50
0.0
 71
     0
 42
0.2
  3
gdt
  4

  0
STYLE
  5
3525
330
3
100
AcDbSymbolTableRecord
100
AcDbTextStyleTableRecord
  2
TEXTSTYLE_3
 70
     0
 40
0.0
 41
0.75
 50
0.0
 71
     0
 42
0.2
  3
txt
  4

  0
STYLE
  5
3526
330
3
100
AcDbSymbolTableRecord
100
AcDbTextStyleTableRecord
  2
TEXTSTYLE_13
 70
     0
 40
0.0
 41
1.0
 50
0.0
 71
     0
 42
0.2
  3
txt
  4

  0
STYLE
  5
519A
330
3
100
AcDbSymbolTableRecord
100
AcDbTextStyleTableRecord
  2
TEXTSTYLE_14
 70
     0
 40
0.0
 41
1.0
 50
0.0
 71
     0
 42
0.2
  3
txt
  4

  0
STYLE
  5
6F72
330
3
100
AcDbSymbolTableRecord
100
AcDbTextStyleTableRecord
  2
TEXTSTYLE_4
 70
     0
 40
0.0
 41
0.75
 50
0.0
 71
     0
 42
0.2
  3
txt
  4

  0
STYLE
  5
6F73
330
3
100
AcDbSymbolTableRecord
100
AcDbTextStyleTableRecord
  2
TEXTSTYLE_17
 70
     0
 40
0.0
 41
1.0
 50
0.0
 71
     0
 42
0.2
  3
txt
  4

  0
STYLE
  5
FE12
330
3
100
AcDbSymbolTableRecord
100
AcDbTextStyleTableRecord
  2
TEXTSTYLE_12
 70
     0
 40
0.0
 41
1.0
 50
0.0
 71
     0
 42
0.2
  3
txt
  4

  0
ENDTAB
  0
TABLE
  2
VIEW
  5
6
330
0
100
AcDbSymbolTable
 70
     0
  0
ENDTAB
  0
TABLE
  2
UCS
  5
7
330
0
100
AcDbSymbolTable
 70
     0
  0
ENDTAB
  0
TABLE
  2
APPID
  5
9
330
0
100
AcDbSymbolTable
 70
    11
  0
APPID
  5
12
330
9
100
AcDbSymbolTableRecord
100
AcDbRegAppTableRecord
  2
ACAD
 70
     0
  0
APPID
  5
D2
330
9
100
AcDbSymbolTableRecord
100
AcDbRegAppTableRecord
  2
AcAecLayerStandard
 70
     0
  0
APPID
  5
E6
330
9
100
AcDbSymbolTableRecord
100
AcDbRegAppTableRecord
  2
ACAD_DSTYLE_DIMTEXT_FILL
 70
     0
  0
APPID
  5
4C84
330
9
100
AcDbSymbolTableRecord
100
AcDbRegAppTableRecord
  2
ACAD_EXEMPT_FROM_CAD_STANDARDS
 70
     0
  0
APPID
  5
3493E
330
9
100
AcDbSymbolTableRecord
100
AcDbRegAppTableRecord
  2
DCO15
 70
     0
  0
APPID
  5
4366A
330
9
100
AcDbSymbolTableRecord
100
AcDbRegAppTableRecord
  2
ACAUTHENVIRON
 70
     0
  0
APPID
  5
4366D
330
9
100
AcDbSymbolTableRecord
100
AcDbRegAppTableRecord
  2
AcDbDynamicBlockTrueName
 70
     0
  0
APPID
  5
4366E
330
9
100
AcDbSymbolTableRecord
100
AcDbRegAppTableRecord
  2
AcDbDynamicBlockGUID
 70
     0
  0
APPID
  5
43670
330
9
100
AcDbSymbolTableRecord
100
AcDbRegAppTableRecord
  2
AcDbBlockRepETag
 70
     0
  0
APPID
  5
45C9F
330
9
100
AcDbSymbolTableRecord
100
AcDbRegAppTableRecord
  2
ACAD_DSTYLE_DIMEXT_ENABLED
 70
     0
  0
APPID
  5
45CA0
330
9
100
AcDbSymbolTableRecord
100
AcDbRegAppTableRecord
  2
ACAD_DSTYLE_DIMEXT_LENGTH
 70
     0
  0
ENDTAB
  0
TABLE
  2
DIMSTYLE
  5
A
330
0
100
AcDbSymbolTable
 70
    10
100
AcDbDimStyleTable
 71
     2
340
1BF
340
27
  0
DIMSTYLE
105
27
330
A
100
AcDbSymbolTableRecord
100
AcDbDimStyleTableRecord
  2
ISO-25
 70
     0
 41
2.5
 42
0.625
 43
3.75
 44
1.25
 73
     0
 74
     0
 77
     1
 78
     8
140
2.5
141
2.5
143
0.03937007874016
147
0.625
171
     3
172
     1
271
     2
272
     2
274
     3
278
    44
283
     0
284
     8
340
11
  0
DIMSTYLE
105
1BF
102
{ACAD_REACTORS
330
600E2
330
600C8
330
600AE
330
600FB
330
60034
330
6001C
330
60064
330
6004C
330
6007C
330
60094
102
}
330
A
100
AcDbSymbolTableRecord
100
AcDbDimStyleTableRecord
  2
\M+18352\M+18373\M+1815B - ISO-25
 70
     0
 40
0.0
 41
3.5
 42
0.0
 44
1.5
 73
     0
 74
     0
 77
     1
 78
     8
140
3.5
147
2.299999999999998
176
   256
177
   256
178
   256
271
     2
272
     2
284
     8
340
24A
371
    -1
372
    -1
  0
DIMSTYLE
105
69F
330
A
100
AcDbSymbolTableRecord
100
AcDbDimStyleTableRecord
  2
MXDIMSTYLE
 70
     0
 41
2.5
 42
0.5
 43
3.75
 44
1.5
 73
     0
 74
     0
 77
     1
 78
     8
140
4.2
141
2.5
143
0.03937
147
1.0
171
     4
172
     1
173
     1
271
     2
272
     2
274
     4
283
     0
288
     1
340
69E
341
697
343
697
344
697
  0
DIMSTYLE
105
3527
330
A
100
AcDbSymbolTableRecord
100
AcDbDimStyleTableRecord
  2
STANDARD
 70
     0
 41
3.0
 47
0.001
 48
0.001
 71
     1
 73
     0
 74
     0
 77
     1
 78
     8
140
4.0
271
     3
272
     3
284
     8
340
11
341
34B1
342
34B1
343
34B1
344
34B1
  0
DIMSTYLE
105
3528
330
A
100
AcDbSymbolTableRecord
100
AcDbDimStyleTableRecord
  2
DIMSTYLE_1
 70
     0
 41
3.0
 73
     0
 74
     0
 77
     1
 78
     8
140
4.0
271
     3
272
     3
284
     8
340
11
341
34B1
342
34B1
343
34B1
344
34B1
  0
DIMSTYLE
105
3529
330
A
100
AcDbSymbolTableRecord
100
AcDbDimStyleTableRecord
  2
DIMSTYLE_2
 70
     0
 41
3.0
 47
0.001
 48
0.001
 73
     0
 74
     0
 77
     1
 78
     8
140
4.0
271
     3
272
     3
284
     8
340
11
341
34B1
342
34B1
343
34B1
344
34B1
  0
DIMSTYLE
105
352A
330
A
100
AcDbSymbolTableRecord
100
AcDbDimStyleTableRecord
  2
DIMSTYLE_3
 70
     0
 41
3.0
 47
-0.1
 48
0.3
 71
     1
 73
     0
 74
     0
 77
     1
 78
     8
140
4.0
146
0.5
271
     3
272
     3
284
     8
340
11
341
34B1
342
34B1
343
34B1
344
34B1
  0
DIMSTYLE
105
352B
330
A
100
AcDbSymbolTableRecord
100
AcDbDimStyleTableRecord
  2
DIMSTYLE_4
 70
     0
 41
3.0
 47
0.1
 48
0.1
 71
     1
 73
     0
 74
     0
 77
     1
 78
     8
140
4.0
271
     3
272
     3
284
     8
340
11
341
34B1
342
34B1
343
34B1
344
34B1
  0
DIMSTYLE
105
27245
330
A
100
AcDbSymbolTableRecord
100
AcDbDimStyleTableRecord
  2
DIMSTYLE_5
 70
     0
 41
3.0
 47
0.001
 48
0.001
 73
     0
 74
     0
 77
     1
 78
     8
140
4.0
271
     3
272
     3
284
     8
340
11
341
34B1
342
34B1
343
34B1
344
34B1
  0
DIMSTYLE
105
4771C
330
A
100
AcDbSymbolTableRecord
100
AcDbDimStyleTableRecord
  2
\M+18352\M+18373\M+1815B_-_ISO-25
 70
     0
 40
0.0
 41
3.5
 42
0.0
 44
1.5
 73
     0
 74
     0
 77
     1
 78
     8
140
3.5
147
2.299999999999998
176
   256
177
   256
178
   256
279
     2
284
     8
285
     8
286
     8
340
24A
  0
ENDTAB
  0
TABLE
  2
BLOCK_RECORD
  5
1
330
0
100
AcDbSymbolTable
 70
    83
  0
BLOCK_RECORD
  5
1F
102
{ACAD_XDICTIONARY
360
31EE
102
}
330
1
100
AcDbSymbolTableRecord
100
AcDbBlockTableRecord
  2
*Model_Space
340
22
  0
BLOCK_RECORD
  5
50
330
1
100
AcDbSymbolTableRecord
100
AcDbBlockTableRecord
  2
*Paper_Space
340
51
  0
BLOCK_RECORD
  5
55
330
1
100
AcDbSymbolTableRecord
100
AcDbBlockTableRecord
  2
*Paper_Space0
340
56
  0
BLOCK_RECORD
  5
680
102
{ACAD_XDICTIONARY
360
43668
102
}
330
1
100
AcDbSymbolTableRecord
100
AcDbBlockTableRecord
  2
zero block
340
0
102
{BLKREFS
331
68C
102
}
1001
ACAD
1000
DesignCenter Data
1002
{
1070
     1
1070
     4
1002
}
1001
AcDbDynamicBlockGUID
1000
{A89DF4EB-B2CB-439E-AC69-1EAC9F242D1C}
1001
AcDbBlockRepETag
1070
     1
1071
        7
  0
BLOCK_RECORD
  5
697
330
1
100
AcDbSymbolTableRecord
100
AcDbBlockTableRecord
  2
_OPEN30
340
0
  0
BLOCK_RECORD
  5
32F1
330
1
100
AcDbSymbolTableRecord
100
AcDbBlockTableRecord
  2
_None
340
0
102
{BLKREFS
331
5CE0B
331
5F1BF
102
}
  0
BLOCK_RECORD
  5
34B1
330
1
100
AcDbSymbolTableRecord
100
AcDbBlockTableRecord
  2
_OPEN
340
0
102
{BLKREFS
331
5CDDE
331
5CDDF
331
5CDE8
331
5CDE9
331
5CDF2
331
5CDF3
331
5CDFC
331
5CDFD
331
5CE03
331
5CE0C
331
5EDB1
331
5EDB8
331
5EDC0
331
5EDC1
331
5EDC9
331
5EDCA
331
5EDD2
331
5EDD3
331
5EDDB
331
5EDDC
331
5F1B0
331
5F1B1
331
5F1B7
331
5F1C0
331
5F192
331
5F193
331
5F19C
331
5F19D
331
5F1A6
331
5F1A7
331
5F61C
331
5F61D
331
5F625
331
5F626
331
5F62E
331
5F62F
331
5F637
331
5F638
331
5F64F
331
5F657
102
}
  0
BLOCK_RECORD
  5
45B07
330
1
100
AcDbSymbolTableRecord
100
AcDbBlockTableRecord
  2
*D7
340
0
  0
BLOCK_RECORD
  5
45B1F
330
1
100
AcDbSymbolTableRecord
100
AcDbBlockTableRecord
  2
*D8
340
0
  0
BLOCK_RECORD
  5
6001D
330
1
100
AcDbSymbolTableRecord
100
AcDbBlockTableRecord
  2
*D71
340
0
  0
BLOCK_RECORD
  5
60035
330
1
100
AcDbSymbolTableRecord
100
AcDbBlockTableRecord
  2
*D72
340
0
  0
BLOCK_RECORD
  5
6004D
330
1
100
AcDbSymbolTableRecord
100
AcDbBlockTableRecord
  2
*D73
340
0
  0
BLOCK_RECORD
  5
60065
330
1
100
AcDbSymbolTableRecord
100
AcDbBlockTableRecord
  2
*D74
340
0
  0
BLOCK_RECORD
  5
6007D
330
1
100
AcDbSymbolTableRecord
100
AcDbBlockTableRecord
  2
*D75
340
0
  0
BLOCK_RECORD
  5
60095
330
1
100
AcDbSymbolTableRecord
100
AcDbBlockTableRecord
  2
*D76
340
0
  0
BLOCK_RECORD
  5
600AF
330
1
100
AcDbSymbolTableRecord
100
AcDbBlockTableRecord
  2
*D77
340
0
  0
BLOCK_RECORD
  5
600C9
330
1
100
AcDbSymbolTableRecord
100
AcDbBlockTableRecord
  2
*D78
340
0
  0
BLOCK_RECORD
  5
600E3
330
1
100
AcDbSymbolTableRecord
100
AcDbBlockTableRecord
  2
*D79
340
0
  0
BLOCK_RECORD
  5
600FC
330
1
100
AcDbSymbolTableRecord
100
AcDbBlockTableRecord
  2
*D80
340
0
  0
ENDTAB
  0
ENDSEC
  0
SECTION
  2
BLOCKS
  0
BLOCK
  5
20
330
1F
100
AcDbEntity
  8
0
100
AcDbBlockBegin
  2
*Model_Space
 70
     0
 10
0.0
 20
0.0
 30
0.0
  3
*Model_Space
  1

  0
ENDBLK
  5
21
330
1F
100
AcDbEntity
  8
0
100
AcDbBlockEnd
  0
BLOCK
  5
52
330
50
100
AcDbEntity
 67
     1
  8
0
100
AcDbBlockBegin
  2
*Paper_Space
 70
     0
 10
0.0
 20
0.0
 30
0.0
  3
*Paper_Space
  1

  0
ENDBLK
  5
53
330
50
100
AcDbEntity
 67
     1
  8
0
100
AcDbBlockEnd
  0
BLOCK
  5
57
330
55
100
AcDbEntity
 67
     1
  8
0
100
AcDbBlockBegin
  2
*Paper_Space0
 70
     0
 10
0.0
 20
0.0
 30
0.0
  3
*Paper_Space0
  1

  0
VIEWPORT
  5
71
102
{ACAD_XDICTIONARY
360
60613
102
}
330
55
100
AcDbEntity
 67
     1
  8
0
100
AcDbViewport
 10
150.1652135264906
 20
101.599997546291
 30
0.0
 40
339.1973820494347
 41
164.5360435314421
 68
     0
 69
     0
 12
150.1652135264906
 22
101.599997546291
 13
0.0
 23
0.0
 14
10.0
 24
10.0
 15
10.0
 25
10.0
 16
0.0
 26
0.0
 36
1.0
 17
0.0
 27
0.0
 37
0.0
 42
50.0
 43
0.0
 44
0.0
 45
164.5360435314421
 50
0.0
 51
0.0
 72
  1000
 90
    32864
  1

281
     0
 71
     1
 74
     0
110
0.0
120
0.0
130
0.0
111
1.0
121
0.0
131
0.0
112
0.0
122
1.0
132
0.0
 79
     0
146
0.0
  0
VIEWPORT
  5
73
102
{ACAD_XDICTIONARY
360
60615
102
}
330
55
100
AcDbEntity
 67
     1
  8
0
100
AcDbViewport
 10
133.3499939441681
 20
101.5999939441681
 30
0.0
 40
213.3599903106689
 41
162.5599903106689
 68
     0
 69
     0
 12
210.0
 22
148.5
 13
0.0
 23
0.0
 14
10.0
 24
10.0
 15
10.0
 25
10.0
 16
0.0
 26
0.0
 36
1.0
 17
0.0
 27
0.0
 37
0.0
 42
50.0
 43
0.0
 44
0.0
 45
324.0677920111345
 50
0.0
 51
0.0
 72
   100
 90
    32864
  1

281
     0
 71
     1
 74
     0
110
0.0
120
0.0
130
0.0
111
1.0
121
0.0
131
0.0
112
0.0
122
1.0
132
0.0
 79
     0
146
0.0
  0
ENDBLK
  5
58
330
55
100
AcDbEntity
 67
     1
  8
0
100
AcDbBlockEnd
  0
BLOCK
  5
68A
330
680
100
AcDbEntity
  8
0
100
AcDbBlockBegin
  2
zero block
 70
     0
 10
0.0
 20
0.0
 30
0.0
  3
zero block
  1

  0
HATCH
  5
43661
330
680
100
AcDbEntity
  8
0
 62
     7
100
AcDbHatch
 10
0.0
 20
0.0
 30
0.0
210
0.0
220
0.0
230
1.0
  2
SOLID
 70
     1
 71
     0
 91
        2
 92
        7
 72
     1
 73
     1
 93
        3
 10
0.0
 20
0.9999999999999875
 42
0.4142135623730915
 10
-1.0
 20
0.0
 42
0.0
 10
0.0
 20
0.0
 42
0.0
 97
        0
 92
        7
 72
     1
 73
     1
 93
        3
 10
1.000000000000007
 20
0.0
 42
0.0
 10
0.0
 20
0.0
 42
0.0
 10
0.0
 20
-1.0
 42
0.4142135623730974
 97
        0
 75
     0
 76
     1
 47
0.0090601366782909
 98
        2
 10
-0.380591363650975
 20
0.4885804701532896
 10
0.4350764810977559
 20
-0.4536738423704725
1001
AcDbBlockRepETag
1070
     1
1071
        0
1005
43661
  0
LINE
  5
43662
330
680
100
AcDbEntity
  8
0
 62
     7
 48
0.2
100
AcDbLine
 10
-1.0
 20
0.0
 30
0.0
 11
1.000000000000007
 21
0.0
 31
0.0
1001
AcDbBlockRepETag
1070
     1
1071
        1
1005
43662
  0
LINE
  5
43663
330
680
100
AcDbEntity
  8
0
 62
     7
 48
0.2
100
AcDbLine
 10
0.0
 20
-1.0
 30
0.0
 11
0.0
 21
0.9999999999999875
 31
0.0
1001
AcDbBlockRepETag
1070
     1
1071
        2
1005
43663
  0
ARC
  5
43664
330
680
100
AcDbEntity
  8
0
 62
     7
 48
0.2
100
AcDbCircle
 10
0.0
 20
0.0
 30
0.0
 40
1.0
100
AcDbArc
 50
270.0
 51
0.0
1001
AcDbBlockRepETag
1070
     1
1071
        3
1005
43664
  0
ARC
  5
43665
330
680
100
AcDbEntity
  8
0
 62
     7
 48
0.2
100
AcDbCircle
 10
0.0
 20
0.0
 30
0.0
 40
1.0
100
AcDbArc
 50
0.0
 51
90.0
1001
AcDbBlockRepETag
1070
     1
1071
        4
1005
43665
  0
ARC
  5
43666
330
680
100
AcDbEntity
  8
0
 62
     7
 48
0.2
100
AcDbCircle
 10
0.0
 20
0.0
 30
0.0
 40
1.0
100
AcDbArc
 50
180.0
 51
270.0
1001
AcDbBlockRepETag
1070
     1
1071
        5
1005
43666
  0
ARC
  5
43667
330
680
100
AcDbEntity
  8
0
 62
     7
 48
0.2
100
AcDbCircle
 10
0.0
 20
0.0
 30
0.0
 40
1.0
100
AcDbArc
 50
90.0
 51
180.0
1001
AcDbBlockRepETag
1070
     1
1071
        6
1005
43667
  0
ENDBLK
  5
68B
330
680
100
AcDbEntity
  8
0
100
AcDbBlockEnd
  0
BLOCK
  5
698
330
697
100
AcDbEntity
  8
0
  6
ByBlock
 62
     0
370
    -2
100
AcDbBlockBegin
  2
_OPEN30
 70
     2
 10
0.0
 20
0.0
 30
0.0
  3
_OPEN30
  1

  0
LINE
  5
699
330
697
100
AcDbEntity
  8
0
  6
ByBlock
 62
     0
370
    -2
100
AcDbLine
 10
-1.0
 20
0.267949
 30
0.0
 11
0.0
 21
0.0
 31
0.0
  0
LINE
  5
69A
330
697
100
AcDbEntity
  8
0
  6
ByBlock
 62
     0
370
    -2
100
AcDbLine
 10
0.0
 20
0.0
 30
0.0
 11
-1.0
 21
-0.267949
 31
0.0
  0
LINE
  5
69B
330
697
100
AcDbEntity
  8
0
  6
ByBlock
 62
     0
370
    -2
100
AcDbLine
 10
0.0
 20
0.0
 30
0.0
 11
-1.0
 21
0.0
 31
0.0
  0
ENDBLK
  5
69C
330
697
100
AcDbEntity
  8
0
  6
ByBlock
 62
     0
370
    -2
100
AcDbBlockEnd
  0
BLOCK
  5
32F2
330
32F1
100
AcDbEntity
  8
0
100
AcDbBlockBegin
  2
_None
 70
     0
 10
0.0
 20
0.0
 30
0.0
  3
_None
  1

  0
ENDBLK
  5
32F3
330
32F1
100
AcDbEntity
  8
0
100
AcDbBlockEnd
  0
BLOCK
  5
34B2
330
34B1
100
AcDbEntity
  8
0
100
AcDbBlockBegin
  2
_OPEN
 70
     0
 10
0.0
 20
0.0
 30
0.0
  3
_OPEN
  1

  0
LINE
  5
34B3
330
34B1
100
AcDbEntity
  8
0
  6
ByBlock
 62
     0
100
AcDbLine
 10
0.0
 20
0.0
 30
0.0
 11
-1.0
 21
0.1766666667
 31
0.0
  0
LINE
  5
34B4
330
34B1
100
AcDbEntity
  8
0
  6
ByBlock
 62
     0
100
AcDbLine
 10
-1.0
 20
-0.1766666667
 30
0.0
 11
0.0
 21
0.0
 31
0.0
  0
LINE
  5
34B5
330
34B1
100
AcDbEntity
  8
0
  6
ByBlock
 62
     0
100
AcDbLine
 10
-1.0
 20
0.0
 30
0.0
 11
0.0
 21
0.0
 31
0.0
  0
ENDBLK
  5
34B6
330
34B1
100
AcDbEntity
  8
0
  6
ByBlock
 62
     0
100
AcDbBlockEnd
  0
BLOCK
  5
45B11
330
45B07
100
AcDbEntity
  8
0
100
AcDbBlockBegin
  2
*D7
 70
     1
 10
0.0
 20
0.0
 30
0.0
  3
*D7
  1

  0
LINE
  5
5CCE5
330
45B07
100
AcDbEntity
  8
sk2
100
AcDbLine
 10
-0.0000000000000526
 20
-28.49999999999995
 30
0.0
 11
-0.0000000000000538
 21
-48.51991747839992
 31
0.0
  0
LINE
  5
5CCE6
330
45B07
100
AcDbEntity
  8
sk2
100
AcDbLine
 10
30.99999999999995
 20
-8.099999999999972
 30
0.0
 11
30.99999999999994
 21
-48.51991747839992
 31
0.0
  0
LINE
  5
5CCE7
330
45B07
100
AcDbEntity
  8
sk2
100
AcDbLine
 10
3.499999999999946
 20
-47.01991747839993
 30
0.0
 11
27.49999999999995
 21
-47.01991747839993
 31
0.0
  0
SOLID
  5
5CCE8
330
45B07
100
AcDbEntity
  8
sk2
100
AcDbTrace
 10
3.499999999999946
 20
-46.43658414506659
 30
0.0
 11
3.499999999999946
 21
-47.60325081173324
 31
0.0
 12
-0.0000000000000537
 22
-47.01991747839993
 32
0.0
 13
-0.0000000000000537
 23
-47.01991747839993
 33
0.0
  0
SOLID
  5
5CCE9
330
45B07
100
AcDbEntity
  8
sk2
100
AcDbTrace
 10
27.49999999999995
 20
-46.43658414506659
 30
0.0
 11
27.49999999999995
 21
-47.60325081173324
 31
0.0
 12
30.99999999999994
 22
-47.01991747839993
 32
0.0
 13
30.99999999999994
 23
-47.01991747839993
 33
0.0
  0
MTEXT
  5
5CCEA
330
45B07
100
AcDbEntity
  8
sk2
100
AcDbMText
 10
15.49999999999994
 20
-42.96991747839992
 30
0.0
 40
3.5
 41
0.0
 71
     5
 72
     1
  1
\A1;31
  7
simplex
 73
     1
 44
1.0
1001
ACAD
1000
MTEXTBEGIN
1070
    73
1070
     1
1070
    44
1040
1.0
1070
    74
1070
     0
1000
MTEXTEND
  0
POINT
  5
5CCEB
330
45B07
100
AcDbEntity
  8
Defpoints
 62
     0
100
AcDbPoint
 10
-0.0000000000000526
 20
-28.49999999999995
 30
0.0
  0
POINT
  5
5CCEC
330
45B07
100
AcDbEntity
  8
Defpoints
 62
     0
100
AcDbPoint
 10
30.99999999999995
 20
-8.099999999999972
 30
0.0
  0
POINT
  5
5CCED
330
45B07
100
AcDbEntity
  8
Defpoints
 62
     0
100
AcDbPoint
 10
30.99999999999994
 20
-47.01991747839993
 30
0.0
  0
ENDBLK
  5
45B12
330
45B07
100
AcDbEntity
  8
0
100
AcDbBlockEnd
  0
BLOCK
  5
45B29
330
45B1F
100
AcDbEntity
  8
0
100
AcDbBlockBegin
  2
*D8
 70
     1
 10
0.0
 20
0.0
 30
0.0
  3
*D8
  1

  0
LINE
  5
475A2
330
45B1F
100
AcDbEntity
  8
2
100
AcDbLine
 10
46.67862375679994
 20
31.50000000000006
 30
0.0
 11
83.68825656423609
 21
31.50000000000004
 31
0.0
  0
LINE
  5
475A3
330
45B1F
100
AcDbEntity
  8
2
100
AcDbLine
 10
82.18825656423609
 20
-31.49999999999995
 30
0.0
 11
82.18825656423609
 21
28.00000000000004
 31
0.0
  0
SOLID
  5
475A4
330
45B1F
100
AcDbEntity
  8
2
100
AcDbTrace
 10
81.60492323090277
 20
28.00000000000004
 30
0.0
 11
82.77158989756944
 21
28.00000000000004
 31
0.0
 12
82.18825656423609
 22
31.50000000000004
 32
0.0
 13
82.18825656423609
 23
31.50000000000004
 33
0.0
  0
MTEXT
  5
475A5
330
45B1F
100
AcDbEntity
  8
2
100
AcDbMText
 10
78.1382565642361
 20
-1.749999999999953
 30
0.0
 40
3.5
 41
0.0
 71
     5
 72
     1
  1
\A1;%%C63
  7
simplex
 11
0.0000000000000001
 21
1.0
 31
0.0
 73
     1
 44
1.0
1001
ACAD
1000
MTEXTBEGIN
1070
    73
1070
     1
1070
    44
1040
1.0
1070
    74
1070
     0
1000
MTEXTEND
  0
POINT
  5
475A6
330
45B1F
100
AcDbEntity
  8
Defpoints
 62
     0
100
AcDbPoint
 10
82.95119073979995
 20
-31.49999999999995
 30
0.0
  0
POINT
  5
475A7
330
45B1F
100
AcDbEntity
  8
Defpoints
 62
     0
100
AcDbPoint
 10
46.67862375679994
 20
31.50000000000006
 30
0.0
  0
POINT
  5
475A8
330
45B1F
100
AcDbEntity
  8
Defpoints
 62
     0
100
AcDbPoint
 10
82.18825656423609
 20
31.50000000000004
 30
0.0
  0
ENDBLK
  5
45B2A
330
45B1F
100
AcDbEntity
  8
0
100
AcDbBlockEnd
  0
BLOCK
  5
60027
330
6001D
100
AcDbEntity
  8
0
100
AcDbBlockBegin
  2
*D71
 70
     1
 10
0.0
 20
0.0
 30
0.0
  3
*D71
  1

  0
LINE
  5
60263
330
6001D
100
AcDbEntity
  8
2
100
AcDbLine
 10
63.25940127593174
 20
55.74999999999994
 30
0.0
 11
87.39100825644413
 21
55.74999999999993
 31
0.0
  0
LINE
  5
60264
330
6001D
100
AcDbEntity
  8
2
100
AcDbLine
 10
85.89100825644413
 20
52.24999999999994
 30
0.0
 11
85.89100825644411
 21
-55.75000000000006
 31
0.0
  0
SOLID
  5
60265
330
6001D
100
AcDbEntity
  8
2
100
AcDbTrace
 10
85.30767492311081
 20
52.24999999999994
 30
0.0
 11
86.47434158977747
 21
52.24999999999994
 31
0.0
 12
85.89100825644413
 22
55.74999999999993
 32
0.0
 13
85.89100825644413
 23
55.74999999999993
 33
0.0
  0
MTEXT
  5
60266
330
6001D
100
AcDbEntity
  8
2
100
AcDbMText
 10
81.84100825644412
 20
-1.750000000000047
 30
0.0
 40
3.5
 41
0.0
 71
     5
 72
     1
  1
\A1;%%C111.5 [%%C4.390"]
  7
simplex
 11
0.0000000000000001
 21
1.0
 31
0.0
 73
     1
 44
1.0
1001
ACAD
1000
MTEXTBEGIN
1070
    73
1070
     1
1070
    44
1040
1.0
1070
    74
1070
     0
1000
MTEXTEND
  0
POINT
  5
60267
330
6001D
100
AcDbEntity
  8
Defpoints
 62
     0
100
AcDbPoint
 10
63.25940127593174
 20
55.74999999999994
 30
0.0
  0
POINT
  5
60268
330
6001D
100
AcDbEntity
  8
Defpoints
 62
     0
100
AcDbPoint
 10
63.25940127593174
 20
-55.75000000000006
 30
0.0
  0
POINT
  5
60269
330
6001D
100
AcDbEntity
  8
Defpoints
 62
     0
100
AcDbPoint
 10
85.89100825644411
 20
-55.75000000000006
 30
0.0
  0
ENDBLK
  5
60028
330
6001D
100
AcDbEntity
  8
0
100
AcDbBlockEnd
  0
BLOCK
  5
6003F
330
60035
100
AcDbEntity
  8
0
100
AcDbBlockBegin
  2
*D72
 70
     1
 10
0.0
 20
0.0
 30
0.0
  3
*D72
  1

  0
LINE
  5
6026A
330
60035
100
AcDbEntity
  8
2
100
AcDbLine
 10
60.11018566089996
 20
63.49999999999994
 30
0.0
 11
102.1584518906779
 21
63.49999999999994
 31
0.0
  0
LINE
  5
6026B
330
60035
100
AcDbEntity
  8
2
100
AcDbLine
 10
100.6584518906779
 20
59.99999999999993
 30
0.0
 11
100.6584518906779
 21
-63.50000000000006
 31
0.0
  0
SOLID
  5
6026C
330
60035
100
AcDbEntity
  8
2
100
AcDbTrace
 10
100.0751185573446
 20
59.99999999999993
 30
0.0
 11
101.2417852240113
 21
59.99999999999993
 31
0.0
 12
100.6584518906779
 22
63.49999999999994
 32
0.0
 13
100.6584518906779
 23
63.49999999999994
 33
0.0
  0
MTEXT
  5
6026D
330
60035
100
AcDbEntity
  8
2
100
AcDbMText
 10
96.60845189067794
 20
-1.750000000000048
 30
0.0
 40
3.5
 41
0.0
 71
     5
 72
     1
  1
\A1;%%C127 [%%C5.000"]
  7
simplex
 11
0.0000000000000001
 21
1.0
 31
0.0
 73
     1
 44
1.0
1001
ACAD
1000
MTEXTBEGIN
1070
    73
1070
     1
1070
    44
1040
1.0
1070
    74
1070
     0
1000
MTEXTEND
  0
POINT
  5
6026E
330
60035
100
AcDbEntity
  8
Defpoints
 62
     0
100
AcDbPoint
 10
60.11018566089996
 20
63.49999999999994
 30
0.0
  0
POINT
  5
6026F
330
60035
100
AcDbEntity
  8
Defpoints
 62
     0
100
AcDbPoint
 10
60.11018566089996
 20
-63.50000000000005
 30
0.0
  0
POINT
  5
60270
330
60035
100
AcDbEntity
  8
Defpoints
 62
     0
100
AcDbPoint
 10
100.6584518906779
 20
-63.50000000000006
 30
0.0
  0
ENDBLK
  5
60040
330
60035
100
AcDbEntity
  8
0
100
AcDbBlockEnd
  0
BLOCK
  5
60057
330
6004D
100
AcDbEntity
  8
0
100
AcDbBlockBegin
  2
*D73
 70
     1
 10
0.0
 20
0.0
 30
0.0
  3
*D73
  1

  0
LINE
  5
60271
330
6004D
100
AcDbEntity
  8
sk2
100
AcDbLine
 10
7.999999999999943
 20
19.04999999999995
 30
0.0
 11
-25.08302764287012
 21
19.04999999999996
 31
0.0
  0
LINE
  5
60272
330
6004D
100
AcDbEntity
  8
sk2
100
AcDbLine
 10
7.999999999999943
 20
-19.05000000000001
 30
0.0
 11
-25.08302764287012
 21
-19.05
 31
0.0
  0
LINE
  5
60273
330
6004D
100
AcDbEntity
  8
sk2
100
AcDbLine
 10
-23.58302764287012
 20
15.54999999999996
 30
0.0
 11
-23.58302764287012
 21
-15.55
 31
0.0
  0
SOLID
  5
60274
330
6004D
100
AcDbEntity
  8
sk2
100
AcDbTrace
 10
-24.16636097620345
 20
15.54999999999996
 30
0.0
 11
-22.99969430953678
 21
15.54999999999996
 31
0.0
 12
-23.58302764287012
 22
19.04999999999996
 32
0.0
 13
-23.58302764287012
 23
19.04999999999996
 33
0.0
  0
SOLID
  5
60275
330
6004D
100
AcDbEntity
  8
sk2
100
AcDbTrace
 10
-24.16636097620346
 20
-15.55
 30
0.0
 11
-22.99969430953679
 21
-15.55
 31
0.0
 12
-23.58302764287012
 22
-19.05
 32
0.0
 13
-23.58302764287012
 23
-19.05
 33
0.0
  0
MTEXT
  5
60276
330
6004D
100
AcDbEntity
  8
sk2
100
AcDbMText
 10
-27.63302764287012
 20
-0.0000000000000229
 30
0.0
 40
3.5
 41
0.0
 71
     5
 72
     1
  1
\A1;%%C38.1 [%%c1.500"]
  7
simplex
 11
0.0000000000000001
 21
1.0
 31
0.0
 73
     1
 44
1.0
1001
ACAD
1000
MTEXTBEGIN
1070
    73
1070
     1
1070
    44
1040
1.0
1070
    74
1070
     0
1000
MTEXTEND
  0
POINT
  5
60277
330
6004D
100
AcDbEntity
  8
Defpoints
 62
     0
100
AcDbPoint
 10
7.999999999999943
 20
19.04999999999995
 30
0.0
  0
POINT
  5
60278
330
6004D
100
AcDbEntity
  8
Defpoints
 62
     0
100
AcDbPoint
 10
7.999999999999943
 20
-19.05000000000001
 30
0.0
  0
POINT
  5
60279
330
6004D
100
AcDbEntity
  8
Defpoints
 62
     0
100
AcDbPoint
 10
-23.58302764287012
 20
-19.05
 30
0.0
  0
ENDBLK
  5
60058
330
6004D
100
AcDbEntity
  8
0
100
AcDbBlockEnd
  0
BLOCK
  5
6006F
330
60065
100
AcDbEntity
  8
0
100
AcDbBlockBegin
  2
*D74
 70
     1
 10
0.0
 20
0.0
 30
0.0
  3
*D74
  1

  0
LINE
  5
602BA
330
60065
100
AcDbEntity
  8
sk2
100
AcDbLine
 10
1.999999999999943
 20
48.41899999999998
 30
0.0
 11
-37.28508932154455
 21
48.41899999999998
 31
0.0
  0
LINE
  5
602BB
330
60065
100
AcDbEntity
  8
sk2
100
AcDbLine
 10
1.999999999999914
 20
-48.41900000000004
 30
0.0
 11
-37.28508932154458
 21
-48.41900000000003
 31
0.0
  0
LINE
  5
602BC
330
60065
100
AcDbEntity
  8
sk2
100
AcDbLine
 10
-35.78508932154456
 20
44.91899999999999
 30
0.0
 11
-35.78508932154457
 21
-44.91900000000003
 31
0.0
  0
SOLID
  5
602BD
330
60065
100
AcDbEntity
  8
sk2
100
AcDbTrace
 10
-36.36842265487789
 20
44.91899999999999
 30
0.0
 11
-35.20175598821122
 21
44.91899999999999
 31
0.0
 12
-35.78508932154455
 22
48.41899999999998
 32
0.0
 13
-35.78508932154455
 23
48.41899999999998
 33
0.0
  0
SOLID
  5
602BE
330
60065
100
AcDbEntity
  8
sk2
100
AcDbTrace
 10
-36.3684226548779
 20
-44.91900000000003
 30
0.0
 11
-35.20175598821123
 21
-44.91900000000003
 31
0.0
 12
-35.78508932154458
 22
-48.41900000000003
 32
0.0
 13
-35.78508932154458
 23
-48.41900000000003
 33
0.0
  0
MTEXT
  5
602BF
330
60065
100
AcDbEntity
  8
sk2
100
AcDbMText
 10
-39.83508932154456
 20
-0.0000000000000257
 30
0.0
 40
3.5
 41
0.0
 71
     5
 72
     1
  1
\A1;%%C96.838 [%%c3.813"]
  7
simplex
 11
0.0000000000000001
 21
1.0
 31
0.0
 73
     1
 44
1.0
1001
ACAD
1000
MTEXTBEGIN
1070
    73
1070
     1
1070
    44
1040
1.0
1070
    74
1070
     0
1000
MTEXTEND
  0
POINT
  5
602C0
330
60065
100
AcDbEntity
  8
Defpoints
 62
     0
100
AcDbPoint
 10
1.999999999999943
 20
48.41899999999998
 30
0.0
  0
POINT
  5
602C1
330
60065
100
AcDbEntity
  8
Defpoints
 62
     0
100
AcDbPoint
 10
1.999999999999914
 20
-48.41900000000004
 30
0.0
  0
POINT
  5
602C2
330
60065
100
AcDbEntity
  8
Defpoints
 62
     0
100
AcDbPoint
 10
-35.78508932154458
 20
-48.41900000000003
 30
0.0
  0
ENDBLK
  5
60070
330
60065
100
AcDbEntity
  8
0
100
AcDbBlockEnd
  0
BLOCK
  5
60087
330
6007D
100
AcDbEntity
  8
0
100
AcDbBlockBegin
  2
*D75
 70
     1
 10
0.0
 20
0.0
 30
0.0
  3
*D75
  1

  0
LINE
  5
60283
330
6007D
100
AcDbEntity
  8
sk2
100
AcDbLine
 10
-0.0000000000000853
 20
-46.41899967210003
 30
0.0
 11
-0.0000000000000876
 21
-84.94060425809028
 31
0.0
  0
LINE
  5
60284
330
6007D
100
AcDbEntity
  8
sk2
100
AcDbLine
 10
41.99999999999994
 20
-27.00000000000006
 30
0.0
 11
41.99999999999994
 21
-84.94060425809028
 31
0.0
  0
LINE
  5
60285
330
6007D
100
AcDbEntity
  8
sk2
100
AcDbLine
 10
3.499999999999912
 20
-83.44060425809027
 30
0.0
 11
38.49999999999994
 21
-83.44060425809027
 31
0.0
  0
SOLID
  5
60286
330
6007D
100
AcDbEntity
  8
sk2
100
AcDbTrace
 10
3.499999999999912
 20
-82.85727092475694
 30
0.0
 11
3.499999999999912
 21
-84.02393759142361
 31
0.0
 12
-0.0000000000000875
 22
-83.44060425809027
 32
0.0
 13
-0.0000000000000875
 23
-83.44060425809027
 33
0.0
  0
SOLID
  5
60287
330
6007D
100
AcDbEntity
  8
sk2
100
AcDbTrace
 10
38.49999999999994
 20
-82.85727092475694
 30
0.0
 11
38.49999999999994
 21
-84.02393759142361
 31
0.0
 12
41.99999999999994
 22
-83.44060425809027
 32
0.0
 13
41.99999999999994
 23
-83.44060425809027
 33
0.0
  0
MTEXT
  5
60288
330
6007D
100
AcDbEntity
  8
sk2
100
AcDbMText
 10
20.99999999999993
 20
-79.39060425809028
 30
0.0
 40
3.5
 41
0.0
 71
     5
 72
     1
  1
\A1;42 [1.654"]
  7
simplex
 73
     1
 44
1.0
1001
ACAD
1000
MTEXTBEGIN
1070
    73
1070
     1
1070
    44
1040
1.0
1070
    74
1070
     0
1000
MTEXTEND
  0
POINT
  5
60289
330
6007D
100
AcDbEntity
  8
Defpoints
 62
     0
100
AcDbPoint
 10
-0.0000000000000853
 20
-46.41899967210003
 30
0.0
  0
POINT
  5
6028A
330
6007D
100
AcDbEntity
  8
Defpoints
 62
     0
100
AcDbPoint
 10
41.99999999999994
 20
-27.00000000000006
 30
0.0
  0
POINT
  5
6028B
330
6007D
100
AcDbEntity
  8
Defpoints
 62
     0
100
AcDbPoint
 10
41.99999999999994
 20
-83.44060425809027
 30
0.0
  0
ENDBLK
  5
60088
330
6007D
100
AcDbEntity
  8
0
100
AcDbBlockEnd
  0
BLOCK
  5
600A0
330
60095
100
AcDbEntity
  8
0
100
AcDbBlockBegin
  2
*D76
 70
     1
 10
0.0
 20
0.0
 30
0.0
  3
*D76
  1

  0
LINE
  5
6028C
330
60095
100
AcDbEntity
  8
2
100
AcDbLine
 10
63.49999999999994
 20
55.8513537561615
 30
0.0
 11
63.49999999999994
 21
-84.94060425809028
 31
0.0
  0
LINE
  5
6028D
330
60095
100
AcDbEntity
  8
2
100
AcDbLine
 10
61.39999999999989
 20
48.54040198382572
 30
0.0
 11
61.39999999999989
 21
-84.94060425809028
 31
0.0
  0
LINE
  5
6028E
330
60095
100
AcDbEntity
  8
2
100
AcDbLine
 10
57.89999999999988
 20
-83.44060425809027
 30
0.0
 11
54.39999999999988
 21
-83.44060425809027
 31
0.0
  0
LINE
  5
6028F
330
60095
100
AcDbEntity
  8
2
100
AcDbLine
 10
66.99999999999994
 20
-83.44060425809027
 30
0.0
 11
117.6833333333333
 21
-83.44060425809027
 31
0.0
  0
SOLID
  5
60290
330
60095
100
AcDbEntity
  8
2
100
AcDbTrace
 10
57.89999999999988
 20
-82.85727092475694
 30
0.0
 11
57.89999999999988
 21
-84.02393759142361
 31
0.0
 12
61.39999999999989
 22
-83.44060425809027
 32
0.0
 13
61.39999999999989
 23
-83.44060425809027
 33
0.0
  0
SOLID
  5
60291
330
60095
100
AcDbEntity
  8
2
100
AcDbTrace
 10
66.99999999999994
 20
-82.85727092475694
 30
0.0
 11
66.99999999999994
 21
-84.02393759142361
 31
0.0
 12
63.49999999999994
 22
-83.44060425809027
 32
0.0
 13
63.49999999999994
 23
-83.44060425809027
 33
0.0
  0
MTEXT
  5
60292
330
60095
100
AcDbEntity
  8
2
100
AcDbMText
 10
94.09166666666662
 20
-79.39060425809028
 30
0.0
 40
3.5
 41
0.0
 71
     5
 72
     1
  1
\A1;2.1 [.083"](MAX)
  7
simplex
 73
     1
 44
1.0
1001
ACAD
1000
MTEXTBEGIN
1070
    73
1070
     1
1070
    44
1040
1.0
1070
    74
1070
     0
1000
MTEXTEND
  0
POINT
  5
60293
330
60095
100
AcDbEntity
  8
Defpoints
 62
     0
100
AcDbPoint
 10
63.49999999999994
 20
55.8513537561615
 30
0.0
  0
POINT
  5
60294
330
60095
100
AcDbEntity
  8
Defpoints
 62
     0
100
AcDbPoint
 10
61.39999999999989
 20
48.54040198382572
 30
0.0
  0
POINT
  5
60295
330
60095
100
AcDbEntity
  8
Defpoints
 62
     0
100
AcDbPoint
 10
61.39999999999989
 20
-83.44060425809027
 30
0.0
  0
ENDBLK
  5
600A1
330
60095
100
AcDbEntity
  8
0
100
AcDbBlockEnd
  0
BLOCK
  5
600BA
330
600AF
100
AcDbEntity
  8
0
100
AcDbBlockBegin
  2
*D77
 70
     1
 10
0.0
 20
0.0
 30
0.0
  3
*D77
  1

  0
LINE
  5
60296
330
600AF
100
AcDbEntity
  8
2
100
AcDbLine
 10
63.49999999999994
 20
55.8513537561615
 30
0.0
 11
63.49999999999994
 21
81.88117957483484
 31
0.0
  0
LINE
  5
60297
330
600AF
100
AcDbEntity
  8
2
100
AcDbLine
 10
61.49999999999995
 20
61.61953307477469
 30
0.0
 11
61.49999999999995
 21
81.88117957483484
 31
0.0
  0
LINE
  5
60298
330
600AF
100
AcDbEntity
  8
2
100
AcDbLine
 10
66.99999999999994
 20
80.38117957483484
 30
0.0
 11
70.49999999999994
 21
80.38117957483484
 31
0.0
  0
LINE
  5
60299
330
600AF
100
AcDbEntity
  8
2
100
AcDbLine
 10
57.99999999999994
 20
80.38117957483484
 30
0.0
 11
-65.01666666666671
 21
80.38117957483484
 31
0.0
  0
SOLID
  5
6029A
330
600AF
100
AcDbEntity
  8
2
100
AcDbTrace
 10
66.99999999999994
 20
80.96451290816817
 30
0.0
 11
66.99999999999994
 21
79.79784624150152
 31
0.0
 12
63.49999999999994
 22
80.38117957483484
 32
0.0
 13
63.49999999999994
 23
80.38117957483484
 33
0.0
  0
SOLID
  5
6029B
330
600AF
100
AcDbEntity
  8
2
100
AcDbTrace
 10
57.99999999999994
 20
80.96451290816817
 30
0.0
 11
57.99999999999994
 21
79.79784624150152
 31
0.0
 12
61.49999999999995
 22
80.38117957483484
 32
0.0
 13
61.49999999999995
 23
80.38117957483484
 33
0.0
  0
MTEXT
  5
6029C
330
600AF
100
AcDbEntity
  8
2
100
AcDbMText
 10
-5.258333333333382
 20
84.43117957483485
 30
0.0
 40
3.5
 41
0.0
 71
     5
 72
     1
  1
\A1;2 [.079"](APMX AT HIGH FEED PROCESS)
  7
simplex
 73
     1
 44
1.0
1001
ACAD
1000
MTEXTBEGIN
1070
    73
1070
     1
1070
    44
1040
1.0
1070
    74
1070
     0
1000
MTEXTEND
  0
POINT
  5
6029D
330
600AF
100
AcDbEntity
  8
Defpoints
 62
     0
100
AcDbPoint
 10
63.49999999999994
 20
55.8513537561615
 30
0.0
  0
POINT
  5
6029E
330
600AF
100
AcDbEntity
  8
Defpoints
 62
     0
100
AcDbPoint
 10
61.49999999999995
 20
61.61953307477469
 30
0.0
  0
POINT
  5
6029F
330
600AF
100
AcDbEntity
  8
Defpoints
 62
     0
100
AcDbPoint
 10
61.49999999999995
 20
80.38117957483484
 30
0.0
  0
ENDBLK
  5
600BB
330
600AF
100
AcDbEntity
  8
0
100
AcDbBlockEnd
  0
BLOCK
  5
600D4
330
600C9
100
AcDbEntity
  8
0
100
AcDbBlockBegin
  2
*D78
 70
     1
 10
0.0
 20
0.0
 30
0.0
  3
*D78
  1

  0
LINE
  5
602A0
330
600C9
100
AcDbEntity
  8
2
100
AcDbLine
 10
63.49999999999994
 20
55.8513537561615
 30
0.0
 11
63.49999999999994
 21
92.79539103960564
 31
0.0
  0
LINE
  5
602A1
330
600C9
100
AcDbEntity
  8
2
100
AcDbLine
 10
60.49999999999994
 20
62.48944404985829
 30
0.0
 11
60.49999999999994
 21
92.79539103960564
 31
0.0
  0
LINE
  5
602A2
330
600C9
100
AcDbEntity
  8
2
100
AcDbLine
 10
66.99999999999994
 20
91.29539103960565
 30
0.0
 11
70.49999999999994
 21
91.29539103960565
 31
0.0
  0
LINE
  5
602A3
330
600C9
100
AcDbEntity
  8
2
100
AcDbLine
 10
56.99999999999994
 20
91.29539103960565
 30
0.0
 11
12.73333333333328
 21
91.29539103960565
 31
0.0
  0
SOLID
  5
602A4
330
600C9
100
AcDbEntity
  8
2
100
AcDbTrace
 10
66.99999999999994
 20
91.87872437293897
 30
0.0
 11
66.99999999999994
 21
90.71205770627232
 31
0.0
 12
63.49999999999994
 22
91.29539103960565
 32
0.0
 13
63.49999999999994
 23
91.29539103960565
 33
0.0
  0
SOLID
  5
602A5
330
600C9
100
AcDbEntity
  8
2
100
AcDbTrace
 10
56.99999999999994
 20
91.87872437293897
 30
0.0
 11
56.99999999999994
 21
90.71205770627232
 31
0.0
 12
60.49999999999994
 22
91.29539103960565
 32
0.0
 13
60.49999999999994
 23
91.29539103960565
 33
0.0
  0
MTEXT
  5
602A6
330
600C9
100
AcDbEntity
  8
2
100
AcDbMText
 10
33.11666666666662
 20
95.34539103960565
 30
0.0
 40
3.5
 41
0.0
 71
     5
 72
     1
  1
\A1;APMX3 [.118"]
  7
simplex
 73
     1
 44
1.0
1001
ACAD
1000
MTEXTBEGIN
1070
    73
1070
     1
1070
    44
1040
1.0
1070
    74
1070
     0
1000
MTEXTEND
  0
POINT
  5
602A7
330
600C9
100
AcDbEntity
  8
Defpoints
 62
     0
100
AcDbPoint
 10
63.49999999999994
 20
55.8513537561615
 30
0.0
  0
POINT
  5
602A8
330
600C9
100
AcDbEntity
  8
Defpoints
 62
     0
100
AcDbPoint
 10
60.49999999999994
 20
62.48944404985829
 30
0.0
  0
POINT
  5
602A9
330
600C9
100
AcDbEntity
  8
Defpoints
 62
     0
100
AcDbPoint
 10
60.49999999999994
 20
91.29539103960565
 30
0.0
  0
ENDBLK
  5
600D5
330
600C9
100
AcDbEntity
  8
0
100
AcDbBlockEnd
  0
BLOCK
  5
600ED
330
600E3
100
AcDbEntity
  8
0
100
AcDbBlockBegin
  2
*D79
 70
     1
 10
0.0
 20
0.0
 30
0.0
  3
*D79
  1

  0
LINE
  5
602AA
330
600E3
100
AcDbEntity
  8
2
100
AcDbLine
 10
63.49999999999994
 20
55.8513537561615
 30
0.0
 11
63.49999999999994
 21
103.9149783474675
 31
0.0
  0
LINE
  5
602AB
330
600E3
100
AcDbEntity
  8
2
100
AcDbLine
 10
-0.0000000000000568
 20
46.41899999999998
 30
0.0
 11
-0.0000000000000533
 21
103.9149783474675
 31
0.0
  0
LINE
  5
602AC
330
600E3
100
AcDbEntity
  8
2
100
AcDbLine
 10
59.99999999999994
 20
102.4149783474674
 30
0.0
 11
3.499999999999946
 21
102.4149783474674
 31
0.0
  0
SOLID
  5
602AD
330
600E3
100
AcDbEntity
  8
2
100
AcDbTrace
 10
59.99999999999994
 20
102.9983116808008
 30
0.0
 11
59.99999999999994
 21
101.8316450141341
 31
0.0
 12
63.49999999999994
 22
102.4149783474674
 32
0.0
 13
63.49999999999994
 23
102.4149783474674
 33
0.0
  0
SOLID
  5
602AE
330
600E3
100
AcDbEntity
  8
2
100
AcDbTrace
 10
3.499999999999946
 20
102.9983116808008
 30
0.0
 11
3.499999999999946
 21
101.8316450141341
 31
0.0
 12
-0.0000000000000534
 22
102.4149783474674
 32
0.0
 13
-0.0000000000000534
 23
102.4149783474674
 33
0.0
  0
MTEXT
  5
602AF
330
600E3
100
AcDbEntity
  8
2
100
AcDbMText
 10
31.74999999999994
 20
106.4649783474674
 30
0.0
 40
3.5
 41
0.0
 71
     5
 72
     1
  1
\A1;63.5 [2.500"]
  7
simplex
 73
     1
 44
1.0
1001
ACAD
1000
MTEXTBEGIN
1070
    73
1070
     1
1070
    44
1040
1.0
1070
    74
1070
     0
1000
MTEXTEND
  0
POINT
  5
602B0
330
600E3
100
AcDbEntity
  8
Defpoints
 62
     0
100
AcDbPoint
 10
63.49999999999994
 20
55.8513537561615
 30
0.0
  0
POINT
  5
602B1
330
600E3
100
AcDbEntity
  8
Defpoints
 62
     0
100
AcDbPoint
 10
-0.0000000000000568
 20
46.41899999999998
 30
0.0
  0
POINT
  5
602B2
330
600E3
100
AcDbEntity
  8
Defpoints
 62
     0
100
AcDbPoint
 10
-0.0000000000000534
 20
102.4149783474674
 30
0.0
  0
ENDBLK
  5
600EE
330
600E3
100
AcDbEntity
  8
0
100
AcDbBlockEnd
  0
BLOCK
  5
60104
330
600FC
100
AcDbEntity
  8
0
100
AcDbBlockBegin
  2
*D80
 70
     1
 10
0.0
 20
0.0
 30
0.0
  3
*D80
  1

  0
LINE
  5
602B3
330
600FC
100
AcDbEntity
  8
2
100
AcDbLine
 10
102.0610576660663
 20
83.38237232456535
 30
0.0
 11
64.53139101646883
 21
63.40260591916074
 31
0.0
  0
MTEXT
  5
602B4
330
600FC
100
AcDbEntity
  8
2
100
AcDbMText
 10
82.93774992405642
 20
77.78981741210987
 30
0.0
 40
3.5
 41
0.0
 71
     5
 72
     1
  1
\A1;R1.5 [R.059"]
  7
simplex
 11
0.8827048212371026
 21
0.4699278652780389
 31
0.0
 73
     1
 44
1.0
1001
ACAD
1000
MTEXTBEGIN
1070
    73
1070
     1
1070
    44
1040
1.0
1070
    74
1070
     0
1000
MTEXTEND
  0
SOLID
  5
602B5
330
600FC
100
AcDbEntity
  8
2
100
AcDbTrace
 10
64.25726642838997
 20
63.91751706488237
 30
0.0
 11
64.80551560454768
 21
62.88769477343909
 31
0.0
 12
61.44192414213897
 22
61.7578583906876
 32
0.0
 13
61.44192414213897
 23
61.7578583906876
 33
0.0
  0
LINE
  5
602B6
330
600FC
100
AcDbEntity
  8
2
100
AcDbLine
 10
60.02786691028326
 20
61.05296659277051
 30
0.0
 11
60.20786691028327
 21
61.05296659277051
 31
0.0
  0
LINE
  5
602B7
330
600FC
100
AcDbEntity
  8
2
100
AcDbLine
 10
60.11786691028326
 20
60.96296659277051
 30
0.0
 11
60.11786691028325
 21
61.14296659277052
 31
0.0
  0
POINT
  5
602B8
330
600FC
100
AcDbEntity
  8
Defpoints
 62
     0
100
AcDbPoint
 10
61.44192414213897
 20
61.7578583906876
 30
0.0
  0
POINT
  5
602B9
330
600FC
100
AcDbEntity
  8
Defpoints
 62
     0
100
AcDbPoint
 10
60.11786691028326
 20
61.05296659277051
 30
0.0
  0
ENDBLK
  5
60105
330
600FC
100
AcDbEntity
  8
0
100
AcDbBlockEnd
  0
ENDSEC
  0
SECTION
  2
ENTITIES
  0
INSERT
  5
68C
330
1F
100
AcDbEntity
  8
0
100
AcDbBlockReference
  2
zero block
 10
0.0000000000000072
 20
0.0
 30
0.0
 50
180.0
  0
MTEXT
  5
5CD11
330
1F
100
AcDbEntity
  8
sk6
100
AcDbMText
 10
-5.166920598642718
 20
125.2043569669981
 30
0.0
 40
5.0
 41
85.25075165579854
 71
     1
 72
     5
  1
WJX14UR5_0007EA
  7
simplex
 73
     1
 44
1.0
1001
ACAD
1000
ACAD_MTEXT_DEFINED_HEIGHT_BEGIN
1070
    46
1040
0.0
1000
ACAD_MTEXT_DEFINED_HEIGHT_END
1000
MTEXTBEGIN
1070
    73
1070
     1
1070
    44
1040
1.0
1070
    74
1070
     0
1000
MTEXTEND
  0
LINE
  5
5FEC1
330
1F
100
AcDbEntity
  8
nocut
100
AcDbLine
 10
0.0
 20
-0.0000000000000568
 30
0.0
 11
-0.0000000000000568
 21
19.55799999999999
 31
0.0
1001
ACAD
1000
RTMaterial
1005
0
  0
LINE
  5
5FEC2
330
1F
100
AcDbEntity
  8
nocut
100
AcDbLine
 10
-0.0000000000001137
 20
0.0
 30
0.0
 11
-0.0000000000000568
 21
46.41899999999998
 31
0.0
1001
ACAD
1000
RTMaterial
1005
0
  0
LINE
  5
5FEC3
330
1F
100
AcDbEntity
  8
nocut
100
AcDbLine
 10
62.19999999999993
 20
56.27322421989998
 30
0.0
 11
62.19999999999993
 21
-0.0000000000000568
 31
0.0
1001
ACAD
1000
RTMaterial
1005
0
  0
LINE
  5
5FEC4
330
1F
100
AcDbEntity
  8
cut
100
AcDbLine
 10
63.43637431679991
 20
56.25098255489996
 30
0.0
 11
61.54464279479992
 21
62.43855755709995
 31
0.0
1001
ACAD
1000
RTMaterial
1005
0
  0
LINE
  5
5FEC5
330
1F
100
AcDbEntity
  8
nocut
100
AcDbLine
 10
60.75211086069998
 20
61.19174275150005
 30
0.0
 11
62.19999999999993
 21
56.27322421989998
 31
0.0
1001
ACAD
1000
RTMaterial
1005
0
  0
LINE
  5
5FEC6
330
1F
100
AcDbEntity
  8
cut
100
AcDbLine
 10
59.96996646269991
 20
63.49343181179995
 30
0.0
 11
56.24838147429989
 21
63.14400999089992
 31
0.0
1001
ACAD
1000
RTMaterial
1005
0
  0
LINE
  5
5FEC7
330
1F
100
AcDbEntity
  8
nocut
100
AcDbLine
 10
54.57241246999996
 20
61.61558771910006
 30
0.0
 11
59.49590150229994
 21
62.04826339490001
 31
0.0
1001
ACAD
1000
RTMaterial
1005
0
  0
LINE
  5
5FEC8
330
1F
100
AcDbEntity
  8
nocut
100
AcDbLine
 10
53.03729405229995
 20
61.74649993129998
 30
0.0
 11
54.42762648329995
 21
61.61601641620001
 31
0.0
1001
ACAD
1000
RTMaterial
1005
0
  0
LINE
  5
5FEC9
330
1F
100
AcDbEntity
  8
1
100
AcDbLine
 10
53.03729405229993
 20
-61.74649993130003
 30
0.0
 11
54.42762648329992
 21
-61.61601641620007
 31
0.0
1001
ACAD
1000
RTMaterial
1005
0
  0
LINE
  5
5FECA
330
1F
100
AcDbEntity
  8
1
100
AcDbLine
 10
52.96254206599988
 20
-61.75000000000006
 30
0.0
 11
53.03729405229993
 21
-61.74649993130003
 31
0.0
1001
ACAD
1000
RTMaterial
1005
0
  0
LINE
  5
5FECB
330
1F
100
AcDbEntity
  8
1
100
AcDbLine
 10
44.1397023426999
 20
-61.75000000000006
 30
0.0
 11
52.96254206599988
 21
-61.75000000000006
 31
0.0
1001
ACAD
1000
RTMaterial
1005
0
  0
LINE
  5
5FECC
330
1F
100
AcDbEntity
  8
1
100
AcDbLine
 10
54.57241246999993
 20
-61.61558771910006
 30
0.0
 11
59.49590150229991
 21
-62.04826339490006
 31
0.0
1001
ACAD
1000
RTMaterial
1005
0
  0
LINE
  5
5FECD
330
1F
100
AcDbEntity
  8
1
100
AcDbLine
 10
17.42111604669992
 20
-48.1196911293
 30
0.0
 11
14.21747399919991
 21
-48.39997349050008
 31
0.0
1001
ACAD
1000
RTMaterial
1005
0
  0
LINE
  5
5FECE
330
1F
100
AcDbEntity
  8
1
100
AcDbLine
 10
13.78169528549995
 20
-48.41900000000004
 30
0.0
 11
1.999999999999914
 21
-48.41900000000004
 31
0.0
1001
ACAD
1000
RTMaterial
1005
0
  0
LINE
  5
5FECF
330
1F
100
AcDbEntity
  8
1
100
AcDbLine
 10
37.7118262457999
 20
-59.41044443120006
 30
0.0
 11
28.37026633319993
 21
-51.57194495390001
 31
0.0
1001
ACAD
1000
RTMaterial
1005
0
  0
LINE
  5
5FED0
330
1F
100
AcDbEntity
  8
1
100
AcDbLine
 10
60.7521108606999
 20
-61.19174275150005
 30
0.0
 11
62.1999999999999
 21
-56.2732242199001
 31
0.0
1001
ACAD
1000
RTMaterial
1005
0
  0
LINE
  5
5FED1
330
1F
100
AcDbEntity
  8
sk3
100
AcDbLine
 10
57.99999999999991
 20
-28.00000000000006
 30
0.0
 11
42.99999999999994
 21
-28.00000000000006
 31
0.0
1001
ACAD
1000
RTMaterial
1005
0
  0
LINE
  5
5FED2
330
1F
100
AcDbEntity
  8
sk3
100
AcDbLine
 10
34.7783053373999
 20
-21.00000000000006
 30
0.0
 11
28.22169466269992
 21
-21.00000000000006
 31
0.0
1001
ACAD
1000
RTMaterial
1005
0
  0
LINE
  5
5FED3
330
1F
100
AcDbEntity
  8
sk3
100
AcDbLine
 10
41.49999999999994
 20
-20.00000000000006
 30
0.0
 11
37.36620158319994
 21
-20.00000000000006
 31
0.0
1001
ACAD
1000
RTMaterial
1005
0
  0
LINE
  5
5FED4
330
1F
100
AcDbEntity
  8
sk3
100
AcDbLine
 10
1.199999999999931
 20
-19.55000000000001
 30
0.0
 11
7.999999999999943
 21
-19.55000000000001
 31
0.0
1001
ACAD
1000
RTMaterial
1005
0
  0
LINE
  5
5FED5
102
{ACAD_REACTORS
330
60063
102
}
330
1F
100
AcDbEntity
  8
sk3
100
AcDbLine
 10
23.81821150499996
 20
-19.05000000000001
 30
0.0
 11
7.999999999999943
 21
-19.05000000000001
 31
0.0
1001
ACAD
1000
RTMaterial
1005
0
  0
LINE
  5
5FED6
330
1F
100
AcDbEntity
  8
sk3
100
AcDbLine
 10
27.79907640089994
 20
-20.90630778710005
 30
0.0
 11
23.81821150499996
 21
-19.05000000000001
 31
0.0
1001
ACAD
1000
RTMaterial
1005
0
  0
LINE
  5
5FED9
330
1F
100
AcDbEntity
  8
sk3
100
AcDbLine
 10
35.20092359909995
 20
-20.90630778710005
 30
0.0
 11
36.94358332139996
 21
-20.09369221300005
 31
0.0
1001
ACAD
1000
RTMaterial
1005
0
  0
LINE
  5
5FEDA
330
1F
100
AcDbEntity
  8
1
100
AcDbLine
 10
-0.0000000000000568
 20
8.937499999999943
 30
0.0
 11
0.9999999999999431
 21
7.937499999999943
 31
0.0
1001
ACAD
1000
RTMaterial
1005
0
  0
LINE
  5
5FEDC
330
1F
100
AcDbEntity
  8
sk3
100
AcDbLine
 10
58.99999999999995
 20
44.21150135389996
 30
0.0
 11
58.99999999999991
 21
-44.21150135390002
 31
0.0
1001
ACAD
1000
RTMaterial
1005
0
  0
LINE
  5
5FEDD
330
1F
100
AcDbEntity
  8
sk3
100
AcDbLine
 10
57.99999999999994
 20
27.99999999999994
 30
0.0
 11
57.99999999999991
 21
-28.00000000000006
 31
0.0
1001
ACAD
1000
RTMaterial
1005
0
  0
LINE
  5
5FEDE
330
1F
100
AcDbEntity
  8
1
100
AcDbLine
 10
8.52499999999992
 20
-7.937500000000056
 30
0.0
 11
0.9999999999999431
 21
-7.937500000000056
 31
0.0
1001
ACAD
1000
RTMaterial
1005
0
  0
LINE
  5
5FEDF
330
1F
100
AcDbEntity
  8
1
100
AcDbLine
 10
8.52499999999992
 20
7.937499999999943
 30
0.0
 11
9.52499999999992
 21
6.937499999999943
 31
0.0
1001
ACAD
1000
RTMaterial
1005
0
  0
LINE
  5
5FEE0
330
1F
100
AcDbEntity
  8
sk3
100
AcDbLine
 10
1.199999999999931
 20
19.54999999999995
 30
0.0
 11
-0.0000000000000568
 21
20.74999999999994
 31
0.0
1001
ACAD
1000
RTMaterial
1005
0
  0
LINE
  5
5FEE1
330
1F
100
AcDbEntity
  8
sk3
100
AcDbLine
 10
41.49999999999994
 20
-20.00000000000006
 30
0.0
 11
41.99999999999994
 21
-20.50000000000006
 31
0.0
1001
ACAD
1000
RTMaterial
1005
0
  0
LINE
  5
5FEE2
330
1F
100
AcDbEntity
  8
4
100
AcDbLine
 10
67.10243534269989
 20
-0.0000000000000568
 30
0.0
 11
-4.217102988800093
 21
-0.0000000000000568
 31
0.0
1001
ACAD
1000
RTMaterial
1005
0
  0
LINE
  5
5FEE3
330
1F
100
AcDbEntity
  8
sk3
100
AcDbLine
 10
58.99999999999991
 20
-29.00000000000006
 30
0.0
 11
57.99999999999991
 21
-28.00000000000006
 31
0.0
1001
ACAD
1000
RTMaterial
1005
0
  0
LINE
  5
5FEE4
330
1F
100
AcDbEntity
  8
sk3
100
AcDbLine
 10
41.99999999999994
 20
26.99999999999994
 30
0.0
 11
41.99999999999994
 21
-27.00000000000006
 31
0.0
1001
ACAD
1000
RTMaterial
1005
0
  0
LINE
  5
5FEE5
330
1F
100
AcDbEntity
  8
sk3
100
AcDbLine
 10
41.49999999999994
 20
19.99999999999994
 30
0.0
 11
41.49999999999994
 21
-20.00000000000006
 31
0.0
1001
ACAD
1000
RTMaterial
1005
0
  0
LINE
  5
5FEE7
330
1F
100
AcDbEntity
  8
sk3
100
AcDbLine
 10
60.32533635619995
 20
50.37620525829999
 30
0.0
 11
62.19999999999993
 21
54.53461986699995
 31
0.0
1001
ACAD
1000
RTMaterial
1005
0
  0
LINE
  5
5FEE8
330
1F
100
AcDbEntity
  8
1
100
AcDbLine
 10
0.9999999999999431
 20
7.937499999999943
 30
0.0
 11
8.52499999999992
 21
7.937499999999943
 31
0.0
1001
ACAD
1000
RTMaterial
1005
0
  0
LINE
  5
5FEE9
330
1F
100
AcDbEntity
  8
sk3
100
AcDbLine
 10
60.32533635619993
 20
-50.37620525830004
 30
0.0
 11
62.1999999999999
 21
-54.53461986700006
 31
0.0
1001
ACAD
1000
RTMaterial
1005
0
  0
LINE
  5
5FEEA
330
1F
100
AcDbEntity
  8
sk3
100
AcDbLine
 10
58.99999999999995
 20
28.99999999999995
 30
0.0
 11
57.99999999999994
 21
27.99999999999994
 31
0.0
1001
ACAD
1000
RTMaterial
1005
0
  0
LINE
  5
5FEED
330
1F
100
AcDbEntity
  8
sk3
100
AcDbLine
 10
41.49999999999994
 20
19.99999999999994
 30
0.0
 11
41.99999999999994
 21
20.49999999999994
 31
0.0
1001
ACAD
1000
RTMaterial
1005
0
  0
LINE
  5
5FEEE
330
1F
100
AcDbEntity
  8
sk3
100
AcDbLine
 10
1.199999999999931
 20
-19.55000000000001
 30
0.0
 11
-0.0000000000000568
 21
-20.75000000000006
 31
0.0
1001
ACAD
1000
RTMaterial
1005
0
  0
LINE
  5
5FEEF
102
{ACAD_REACTORS
330
60063
102
}
330
1F
100
AcDbEntity
  8
sk3
100
AcDbLine
 10
23.81821150499996
 20
19.04999999999995
 30
0.0
 11
7.999999999999943
 21
19.04999999999995
 31
0.0
1001
ACAD
1000
RTMaterial
1005
0
  0
LINE
  5
5FEF0
330
1F
100
AcDbEntity
  8
sk3
100
AcDbLine
 10
1.199999999999931
 20
19.54999999999995
 30
0.0
 11
7.999999999999943
 21
19.54999999999995
 31
0.0
1001
ACAD
1000
RTMaterial
1005
0
  0
LINE
  5
5FEF1
330
1F
100
AcDbEntity
  8
sk3
100
AcDbLine
 10
41.49999999999994
 20
19.99999999999994
 30
0.0
 11
37.36620158319994
 21
19.99999999999994
 31
0.0
1001
ACAD
1000
RTMaterial
1005
0
  0
LINE
  5
5FEF2
330
1F
100
AcDbEntity
  8
sk3
100
AcDbLine
 10
36.94358332139996
 20
20.09369221289995
 30
0.0
 11
35.20092359909995
 21
20.90630778699995
 31
0.0
1001
ACAD
1000
RTMaterial
1005
0
  0
LINE
  5
5FEF3
330
1F
100
AcDbEntity
  8
sk3
100
AcDbLine
 10
23.81821150499996
 20
19.04999999999995
 30
0.0
 11
23.81821150499996
 21
-19.05000000000001
 31
0.0
1001
ACAD
1000
RTMaterial
1005
0
  0
LINE
  5
5FEF4
330
1F
100
AcDbEntity
  8
1
100
AcDbLine
 10
9.52499999999992
 20
-6.937500000000056
 30
0.0
 11
8.52499999999992
 21
-7.937500000000056
 31
0.0
1001
ACAD
1000
RTMaterial
1005
0
  0
LINE
  5
5FEF5
330
1F
100
AcDbEntity
  8
sk3
100
AcDbLine
 10
34.7783053373999
 20
20.99999999999994
 30
0.0
 11
28.22169466269992
 21
20.99999999999994
 31
0.0
1001
ACAD
1000
RTMaterial
1005
0
  0
LINE
  5
5FEF7
330
1F
100
AcDbEntity
  8
1
100
AcDbLine
 10
0.9999999999999431
 20
-7.937500000000056
 30
0.0
 11
-0.0000000000000568
 21
-8.937500000000056
 31
0.0
1001
ACAD
1000
RTMaterial
1005
0
  0
LINE
  5
5FEF8
330
1F
100
AcDbEntity
  8
sk3
100
AcDbLine
 10
27.79907640089994
 20
20.90630778699995
 30
0.0
 11
23.81821150499996
 21
19.04999999999995
 31
0.0
1001
ACAD
1000
RTMaterial
1005
0
  0
LINE
  5
5FEF9
330
1F
100
AcDbEntity
  8
sk3
100
AcDbLine
 10
57.99999999999994
 20
27.99999999999994
 30
0.0
 11
42.99999999999994
 21
27.99999999999994
 31
0.0
1001
ACAD
1000
RTMaterial
1005
0
  0
LINE
  5
5FEFA
330
1F
100
AcDbEntity
  8
1
100
AcDbLine
 10
9.52499999999992
 20
6.937499999999943
 30
0.0
 11
9.52499999999992
 21
-6.937500000000056
 31
0.0
1001
ACAD
1000
RTMaterial
1005
0
  0
LINE
  5
5FEFB
330
1F
100
AcDbEntity
  8
sk3
100
AcDbLine
 10
7.999999999999943
 20
-19.55000000000001
 30
0.0
 11
7.999999999999943
 21
-7.937500000000056
 31
0.0
1001
ACAD
1000
RTMaterial
1005
0
  0
LINE
  5
5FEFC
330
1F
100
AcDbEntity
  8
sk3
100
AcDbLine
 10
7.999999999999943
 20
7.937499999999943
 30
0.0
 11
7.999999999999943
 21
19.54999999999995
 31
0.0
1001
ACAD
1000
RTMaterial
1005
0
  0
LINE
  5
5FF0A
330
1F
100
AcDbEntity
  8
sk3
100
AcDbLine
 10
1.199999999999931
 20
19.54999999999995
 30
0.0
 11
1.199999999999931
 21
7.937499999999943
 31
0.0
1001
ACAD
1000
RTMaterial
1005
0
  0
LINE
  5
5FF0B
330
1F
100
AcDbEntity
  8
sk3
100
AcDbLine
 10
1.199999999999931
 20
-7.937500000000056
 30
0.0
 11
1.199999999999931
 21
-19.55000000000001
 31
0.0
1001
ACAD
1000
RTMaterial
1005
0
  0
LINE
  5
5FF0C
102
{ACAD_REACTORS
330
60093
102
}
330
1F
100
AcDbEntity
  8
1
100
AcDbLine
 10
-0.0000000000000568
 20
-8.937500000000056
 30
0.0
 11
-0.0000000000000853
 21
-46.41899967210003
 31
0.0
1001
ACAD
1000
RTMaterial
1005
0
  0
LINE
  5
5FF0D
330
1F
100
AcDbEntity
  8
1
100
AcDbLine
 10
-0.0000000000000568
 20
8.937499999999943
 30
0.0
 11
-0.0000000000000568
 21
46.41899999999998
 31
0.0
1001
ACAD
1000
RTMaterial
1005
0
  0
LINE
  5
5FF14
330
1F
100
AcDbEntity
  8
1
100
AcDbLine
 10
13.78169528549995
 20
48.41899999999998
 30
0.0
 11
1.999999999999943
 21
48.41899999999998
 31
0.0
1001
ACAD
1000
RTMaterial
1005
0
  0
LINE
  5
5FF36
330
1F
100
AcDbEntity
  8
nocut
100
AcDbLine
 10
37.71182624579996
 20
59.41044443120006
 30
0.0
 11
28.37026633319993
 21
51.57194495390001
 31
0.0
1001
ACAD
1000
RTMaterial
1005
0
  0
LINE
  5
5FF37
330
1F
100
AcDbEntity
  8
nocut
100
AcDbLine
 10
17.42111604669992
 20
48.1196911293
 30
0.0
 11
14.21747399919991
 21
48.39997349050003
 31
0.0
1001
ACAD
1000
RTMaterial
1005
0
  0
LINE
  5
5FF38
330
1F
100
AcDbEntity
  8
nocut
100
AcDbLine
 10
13.78169528549995
 20
48.41899999999998
 30
0.0
 11
1.999999999999943
 21
48.41899999999998
 31
0.0
1001
ACAD
1000
RTMaterial
1005
0
  0
LINE
  5
5FF39
330
1F
100
AcDbEntity
  8
nocut
100
AcDbLine
 10
52.96254206599996
 20
61.75000000000006
 30
0.0
 11
44.13970234269993
 21
61.75
 31
0.0
1001
ACAD
1000
RTMaterial
1005
0
  0
ARC
  5
5FF3A
330
1F
100
AcDbEntity
  8
cut
100
AcDbCircle
 10
60.11018566089996
 20
61.99999999999994
 30
0.0
 40
1.5
100
AcDbArc
 50
16.99999999999887
 51
95.36381013220106
1001
ACAD
1000
RTMaterial
1005
0
  0
ARC
  5
5FF3B
330
1F
100
AcDbEntity
  8
nocut
100
AcDbCircle
 10
59.60095250289999
 20
60.85287045220002
 30
0.0
 40
1.199999999999999
100
AcDbArc
 50
16.40311328500015
 51
95.02224461130072
1001
ACAD
1000
RTMaterial
1005
0
  0
ARC
  5
5FF3C
330
1F
100
AcDbEntity
  8
nocut
100
AcDbCircle
 10
52.96254206599996
 20
60.94999999999998
 30
0.0
 40
0.8
100
AcDbArc
 50
84.63846199779917
 51
90.0
1001
ACAD
1000
RTMaterial
1005
0
  0
ARC
  5
5FF3D
330
1F
100
AcDbEntity
  8
nocut
100
AcDbCircle
 10
54.50237846959993
 20
62.4125163475
 30
0.0
 40
0.8
100
AcDbArc
 50
264.6384619977991
 51
275.0222446113006
1001
ACAD
1000
RTMaterial
1005
0
  0
ARC
  5
5FF3E
330
1F
100
AcDbEntity
  8
sk3
100
AcDbCircle
 10
73.99999999999991
 20
44.21150135389996
 30
0.0
 40
15.0
100
AcDbArc
 50
155.7335718931992
 51
180.0
1001
ACAD
1000
RTMaterial
1005
0
  0
ARC
  5
5FF3F
330
1F
100
AcDbEntity
  8
sk3
100
AcDbCircle
 10
73.99999999999991
 20
-44.21150135390002
 30
0.0
 40
15.0
100
AcDbArc
 50
180.0
 51
204.2664281068008
1001
ACAD
1000
RTMaterial
1005
0
  0
ARC
  5
5FF41
330
1F
100
AcDbEntity
  8
1
100
AcDbCircle
 10
18.7284521878999
 20
-63.06261160070005
 30
0.0
 40
15.0
100
AcDbArc
 50
50.00000000000004
 51
94.99999999999976
1001
ACAD
1000
RTMaterial
1005
0
  0
ARC
  5
5FF44
330
1F
100
AcDbEntity
  8
1
100
AcDbCircle
 10
44.1397023426999
 20
-51.75000000000006
 30
0.0
 40
10.0
100
AcDbArc
 50
230.0000000000002
 51
270.0
1001
ACAD
1000
RTMaterial
1005
0
  0
ARC
  5
5FF46
330
1F
100
AcDbEntity
  8
1
100
AcDbCircle
 10
13.78169528549995
 20
-43.41900000000004
 30
0.0
 40
5.0
100
AcDbArc
 50
270.0
 51
274.9999999999998
1001
ACAD
1000
RTMaterial
1005
0
  0
ARC
  5
5FF47
102
{ACAD_REACTORS
330
6007B
330
600F9
102
}
330
1F
100
AcDbEntity
  8
1
100
AcDbCircle
 10
1.999999999999943
 20
46.41899999999998
 30
0.0
 40
2.0
100
AcDbArc
 50
90.0
 51
180.0
1001
ACAD
1000
RTMaterial
1005
0
  0
ARC
  5
5FF48
102
{ACAD_REACTORS
330
6007B
102
}
330
1F
100
AcDbEntity
  8
1
100
AcDbCircle
 10
1.999999999999914
 20
-46.41900000000004
 30
0.0
 40
2.0
100
AcDbArc
 50
180.0
 51
270.0
1001
ACAD
1000
RTMaterial
1005
0
  0
ARC
  5
5FF49
330
1F
100
AcDbEntity
  8
1
100
AcDbCircle
 10
59.6009525028999
 20
-60.85287045220002
 30
0.0
 40
1.199999999999999
100
AcDbArc
 50
264.9777553886012
 51
343.5968867150001
1001
ACAD
1000
RTMaterial
1005
0
  0
ARC
  5
5FF4A
102
{ACAD_REACTORS
330
60093
102
}
330
1F
100
AcDbEntity
  8
sk3
100
AcDbCircle
 10
42.99999999999994
 20
-27.00000000000006
 30
0.0
 40
1.0
100
AcDbArc
 50
180.0
 51
270.0
1001
ACAD
1000
RTMaterial
1005
0
  0
ARC
  5
5FF4B
330
1F
100
AcDbEntity
  8
sk3
100
AcDbCircle
 10
42.99999999999994
 20
26.99999999999994
 30
0.0
 40
1.0
100
AcDbArc
 50
90.0
 51
180.0
1001
ACAD
1000
RTMaterial
1005
0
  0
ARC
  5
5FF4C
330
1F
100
AcDbEntity
  8
sk3
100
AcDbCircle
 10
28.22169466269992
 20
-20.00000000000006
 30
0.0
 40
1.0
100
AcDbArc
 50
245.0000000000004
 51
270.0
1001
ACAD
1000
RTMaterial
1005
0
  0
ARC
  5
5FF4D
330
1F
100
AcDbEntity
  8
sk3
100
AcDbCircle
 10
28.22169466269992
 20
19.99999999999994
 30
0.0
 40
1.0
100
AcDbArc
 50
90.0
 51
114.9999999999996
1001
ACAD
1000
RTMaterial
1005
0
  0
ARC
  5
5FF4E
330
1F
100
AcDbEntity
  8
sk3
100
AcDbCircle
 10
34.7783053373999
 20
19.99999999999994
 30
0.0
 40
1.0
100
AcDbArc
 50
65.00000000000039
 51
90.0
1001
ACAD
1000
RTMaterial
1005
0
  0
ARC
  5
5FF4F
330
1F
100
AcDbEntity
  8
sk3
100
AcDbCircle
 10
34.7783053373999
 20
-20.00000000000006
 30
0.0
 40
1.0
100
AcDbArc
 50
270.0
 51
294.9999999999996
1001
ACAD
1000
RTMaterial
1005
0
  0
ARC
  5
5FF50
330
1F
100
AcDbEntity
  8
sk3
100
AcDbCircle
 10
37.36620158319994
 20
-21.00000000000006
 30
0.0
 40
1.0
100
AcDbArc
 50
90.0
 51
114.9999999999996
1001
ACAD
1000
RTMaterial
1005
0
  0
ARC
  5
5FF51
330
1F
100
AcDbEntity
  8
sk3
100
AcDbCircle
 10
37.36620158319994
 20
20.99999999999994
 30
0.0
 40
1.0
100
AcDbArc
 50
245.0000000000004
 51
270.0
1001
ACAD
1000
RTMaterial
1005
0
  0
ARC
  5
5FF52
330
1F
100
AcDbEntity
  8
1
100
AcDbCircle
 10
54.5023784695999
 20
-62.4125163475
 30
0.0
 40
0.8
100
AcDbArc
 50
84.97775538869928
 51
95.36153800220082
1001
ACAD
1000
RTMaterial
1005
0
  0
ARC
  5
5FF53
330
1F
100
AcDbEntity
  8
nocut
100
AcDbCircle
 10
18.72845218789996
 20
63.0626116007
 30
0.0
 40
15.0
100
AcDbArc
 50
265.0000000000002
 51
309.9999999999998
1001
ACAD
1000
RTMaterial
1005
0
  0
ARC
  5
5FF54
330
1F
100
AcDbEntity
  8
nocut
100
AcDbCircle
 10
44.13970234269993
 20
51.75
 30
0.0
 40
10.0
100
AcDbArc
 50
90.0
 51
129.9999999999998
1001
ACAD
1000
RTMaterial
1005
0
  0
ARC
  5
5FF55
330
1F
100
AcDbEntity
  8
nocut
100
AcDbCircle
 10
13.78169528549995
 20
43.41899999999998
 30
0.0
 40
5.0
100
AcDbArc
 50
85.00000000000021
 51
90.0
1001
ACAD
1000
RTMaterial
1005
0
  0
ARC
  5
5FF56
330
1F
100
AcDbEntity
  8
nocut
100
AcDbCircle
 10
1.999999999999943
 20
46.41899999999998
 30
0.0
 40
2.0
100
AcDbArc
 50
90.0
 51
180.0
1001
ACAD
1000
RTMaterial
1005
0
  0
SPLINE
  5
5FF57
330
1F
100
AcDbEntity
  8
cut
100
AcDbSpline
210
0.0
220
0.0
230
1.0
 70
     8
 71
     3
 72
    22
 73
    18
 74
     0
 42
0.0000000001
 43
0.0000000001
 40
0.0
 40
0.0
 40
0.0
 40
0.0
 40
0.0666666667
 40
0.1333333333
 40
0.2
 40
0.2666666667
 40
0.3333333333
 40
0.4
 40
0.4666666667000001
 40
0.5333333333
 40
0.6
 40
0.6666666667
 40
0.7333333333
 40
0.8
 40
0.8666666667000001
 40
0.9333333333
 40
1.0
 40
1.0
 40
1.0
 40
1.0
 10
63.47384048889995
 20
54.50751930279995
 30
0.0
 10
63.47543822429992
 20
54.53568489929995
 30
0.0
 10
63.4784795052999
 20
54.59152807819998
 30
0.0
 10
63.48253862109993
 20
54.67285018309997
 30
0.0
 10
63.48625821029992
 20
54.75466307529996
 30
0.0
 10
63.48969218599989
 20
54.83900226759994
 30
0.0
 10
63.49287100729992
 20
54.9277740361
 30
0.0
 10
63.49569449269989
 20
55.01961378729993
 30
0.0
 10
63.49809658509991
 20
55.11338855739996
 30
0.0
 10
63.50003795309993
 20
55.20788450919997
 30
0.0
 10
63.50149673549992
 20
55.30198432159995
 30
0.0
 10
63.50245812249994
 20
55.39433717599997
 30
0.0
 10
63.50292844349991
 20
55.48376485879993
 30
0.0
 10
63.50294678029991
 20
55.56878766109997
 30
0.0
 10
63.50256821479991
 20
55.65127962579999
 30
0.0
 10
63.50181675229993
 20
55.73319406459996
 30
0.0
 10
63.50104384069993
 20
55.78960620629993
 30
0.0
 10
63.50058650509993
 20
55.81808053419996
 30
0.0
1001
ACAD
1000
RTMaterial
1005
0
  0
SPLINE
  5
5FF58
330
1F
100
AcDbEntity
  8
cut
100
AcDbSpline
210
0.0
220
0.0
230
1.0
 70
     8
 71
     3
 72
    11
 73
     7
 74
     0
 42
0.0000000001
 43
0.0000000001
 40
0.0
 40
0.0
 40
0.0
 40
0.0
 40
0.25
 40
0.5
 40
0.75
 40
1.0
 40
1.0
 40
1.0
 40
1.0
 10
63.50000023459995
 20
55.85134276589991
 30
0.0
 10
63.49922792089995
 20
55.88752549869991
 30
0.0
 10
63.49527636509993
 20
55.95851513979994
 30
0.0
 10
63.48181324889992
 20
56.06138399279996
 30
0.0
 10
63.46217007429988
 20
56.15911047419996
 30
0.0
 10
63.44549553369995
 20
56.22089174629997
 30
0.0
 10
63.43637431679991
 20
56.25098255489996
 30
0.0
1001
ACAD
1000
RTMaterial
1005
0
  0
LINE
  5
5FF59
330
1F
100
AcDbEntity
  8
cut
100
AcDbLine
 10
63.50058650509993
 20
55.81808053419996
 30
0.0
 11
63.50000023459995
 21
55.85134276589991
 31
0.0
1001
ACAD
1000
RTMaterial
1005
0
  0
SPLINE
  5
5FF5A
330
1F
100
AcDbEntity
  8
cut
100
AcDbSpline
210
0.0
220
0.0
230
1.0
 70
     8
 71
     3
 72
    11
 73
     7
 74
     0
 42
0.0000000001
 43
0.0000000001
 40
0.0
 40
0.0
 40
0.0
 40
0.0
 40
0.25
 40
0.5
 40
0.75
 40
1.0
 40
1.0
 40
1.0
 40
1.0
 10
56.24838147429989
 20
63.14400999089992
 30
0.0
 10
56.16780901329992
 20
63.13656105449997
 30
0.0
 10
55.99605807199992
 20
63.12132016009991
 30
0.0
 10
55.70517610849993
 20
63.0981295050999
 30
0.0
 10
55.38504527849994
 20
63.07579762929998
 30
0.0
 10
55.15076401489989
 20
63.06203976789999
 30
0.0
 10
55.02850851799991
 20
63.05564576309996
 30
0.0
1001
ACAD
1000
RTMaterial
1005
0
  0
SPLINE
  5
5FF5B
330
1F
100
AcDbEntity
  8
cut
100
AcDbSpline
210
0.0
220
0.0
230
1.0
 70
     8
 71
     3
 72
    11
 73
     7
 74
     0
 42
0.0000000001
 43
0.0000000001
 40
0.0
 40
0.0
 40
0.0
 40
0.0
 40
0.25
 40
0.5
 40
0.75
 40
1.0
 40
1.0
 40
1.0
 40
1.0
 10
55.02850851799991
 20
63.05564576309996
 30
0.0
 10
55.0051250292999
 20
63.05388444169995
 30
0.0
 10
54.95929870859993
 20
63.04899014339992
 30
0.0
 10
54.89311262959995
 20
63.03776152409994
 30
0.0
 10
54.8301972907999
 20
63.02312478949994
 30
0.0
 10
54.79051772339994
 20
63.01128445179995
 30
0.0
 10
54.77121398489993
 20
63.00489714299994
 30
0.0
1001
ACAD
1000
RTMaterial
1005
0
  0
SPLINE
  5
5FF5C
330
1F
100
AcDbEntity
  8
cut
100
AcDbSpline
210
0.0
220
0.0
230
1.0
 70
     8
 71
     3
 72
    10
 73
     6
 74
     0
 42
0.0000000001
 43
0.0000000001
 40
0.0
 40
0.0
 40
0.0
 40
0.0
 40
0.3333333333
 40
0.6666666667
 40
1.0
 40
1.0
 40
1.0
 40
1.0
 10
54.77121398489993
 20
63.00489714299994
 30
0.0
 10
54.76218968099994
 20
63.00191114029996
 30
0.0
 10
54.74429523799995
 20
62.99558180779996
 30
0.0
 10
54.71788676569992
 20
62.98498565309995
 30
0.0
 10
54.70063790429993
 20
62.97721875249999
 30
0.0
 10
54.69209503639991
 20
62.97316108029997
 30
0.0
1001
ACAD
1000
RTMaterial
1005
0
  0
SPLINE
  5
5FF5D
330
1F
100
AcDbEntity
  8
cut
100
AcDbSpline
210
0.0
220
0.0
230
1.0
 70
     8
 71
     3
 72
    22
 73
    18
 74
     0
 42
0.0000000001
 43
0.0000000001
 40
0.0
 40
0.0
 40
0.0
 40
0.0
 40
0.0666666667
 40
0.1333333333
 40
0.2
 40
0.2666666667
 40
0.3333333333
 40
0.4
 40
0.4666666667000001
 40
0.5333333333
 40
0.6
 40
0.6666666667
 40
0.7333333333
 40
0.8
 40
0.8666666667000001
 40
0.9333333333
 40
1.0
 40
1.0
 40
1.0
 40
1.0
 10
54.69209503639991
 20
62.97316108029997
 30
0.0
 10
54.66764532299993
 20
62.96154801059993
 30
0.0
 10
54.61922966959992
 20
62.93841613439991
 30
0.0
 10
54.54890427459992
 20
62.90441750619994
 30
0.0
 10
54.47832124189995
 20
62.86990135409991
 30
0.0
 10
54.40574061249993
 20
62.83397443830001
 30
0.0
 10
54.32953829569993
 20
62.7957809472
 30
0.0
 10
54.2509127205999
 20
62.75586544209994
 30
0.0
 10
54.17085151349994
 20
62.7146950190999
 30
0.0
 10
54.09039922639994
 20
62.67279775639997
 30
0.0
 10
54.01050808869991
 20
62.63067065489997
 30
0.0
 10
53.93232241949988
 20
62.58892344729992
 30
0.0
 10
53.85683231769991
 20
62.54810478799993
 30
0.0
 10
53.78526595569991
 20
62.50893039129994
 30
0.0
 10
53.71601805349991
 20
62.47058238229993
 30
0.0
 10
53.64743169969989
 20
62.43218015589992
 30
0.0
 10
53.6003167648999
 20
62.40551332459995
 30
0.0
 10
53.57656661959993
 20
62.39199520540001
 30
0.0
1001
ACAD
1000
RTMaterial
1005
0
  0
SPLINE
  5
5FF5E
330
1F
100
AcDbEntity
  8
cut
100
AcDbSpline
210
0.0
220
0.0
230
1.0
 70
     8
 71
     3
 72
    11
 73
     7
 74
     0
 42
0.0000000001
 43
0.0000000001
 40
0.0
 40
0.0
 40
0.0
 40
0.0
 40
0.25
 40
0.5
 40
0.75
 40
1.0
 40
1.0
 40
1.0
 40
1.0
 10
53.54884158429991
 20
62.37615397489992
 30
0.0
 10
53.52126487389995
 20
62.36033970569997
 30
0.0
 10
53.46679450839991
 20
62.32650320969998
 30
0.0
 10
53.38661497789991
 20
62.26841617599996
 30
0.0
 10
53.30999836829994
 20
62.20430617939991
 30
0.0
 10
53.26108765529994
 20
62.15741398899996
 30
0.0
 10
53.23723186499996
 20
62.13290184829998
 30
0.0
1001
ACAD
1000
RTMaterial
1005
0
  0
LINE
  5
5FF5F
330
1F
100
AcDbEntity
  8
cut
100
AcDbLine
 10
53.57656661959993
 20
62.39199520540001
 30
0.0
 11
53.54884158429991
 21
62.37615397489992
 31
0.0
1001
ACAD
1000
RTMaterial
1005
0
  0
SPLINE
  5
5FF60
330
1F
100
AcDbEntity
  8
cut
100
AcDbSpline
210
0.0
220
0.0
230
1.0
 70
     8
 71
     3
 72
    21
 73
    17
 74
     0
 42
0.0000000001
 43
0.0000000001
 40
0.0
 40
0.0
 40
0.0
 40
0.0
 40
0.0714285714
 40
0.1428571429
 40
0.2142857143
 40
0.2857142857
 40
0.3571428571
 40
0.4285714286
 40
0.5
 40
0.5714285714000001
 40
0.6428571429
 40
0.7142857143000001
 40
0.7857142857
 40
0.8571428570999998
 40
0.9285714285999999
 40
1.0
 40
1.0
 40
1.0
 40
1.0
 10
53.23723186499996
 20
62.13290184829998
 30
0.0
 10
53.17812596719988
 20
62.07216975479991
 30
0.0
 10
53.05468651509994
 20
61.94534919919994
 30
0.0
 10
52.85458143199992
 20
61.73982611059995
 30
0.0
 10
52.63728306759992
 20
61.51671542899999
 30
0.0
 10
52.40175294429992
 20
61.27497094919994
 30
0.0
 10
52.14702676969989
 20
61.01362546319996
 30
0.0
 10
51.8721538284999
 20
60.73172881059992
 30
0.0
 10
51.57427508199993
 20
60.42638086299991
 30
0.0
 10
51.25208494729992
 20
60.09628087900001
 30
0.0
 10
50.90383673059989
 20
59.73968362339991
 30
0.0
 10
50.5278727400999
 20
59.35494452739994
 30
0.0
 10
50.1225269805999
 20
58.94042064109999
 30
0.0
 10
49.68608043519992
 20
58.49442679529994
 30
0.0
 10
49.21706134379991
 20
58.0155436775999
 30
0.0
 10
48.88108459009993
 20
57.67281356299992
 30
0.0
 10
48.70739137969991
 20
57.49572099029996
 30
0.0
1001
ACAD
1000
RTMaterial
1005
0
  0
SPLINE
  5
5FF61
330
1F
100
AcDbEntity
  8
cut
100
AcDbSpline
210
0.0
220
0.0
230
1.0
 70
     8
 71
     3
 72
    16
 73
    12
 74
     0
 42
0.0000000001
 43
0.0000000001
 40
0.0
 40
0.0
 40
0.0
 40
0.0
 40
0.1111111111
 40
0.2222222222
 40
0.3333333333
 40
0.4444444444000001
 40
0.5555555556
 40
0.6666666667
 40
0.7777777778
 40
0.8888888889
 40
1.0
 40
1.0
 40
1.0
 40
1.0
 10
48.70739137969991
 20
57.49572099029996
 30
0.0
 10
48.68280253159992
 20
57.47065091209998
 30
0.0
 10
48.63541965299993
 20
57.4185471065
 30
0.0
 10
48.56920496069995
 20
57.33360280529996
 30
0.0
 10
48.50979032979996
 20
57.24420377209998
 30
0.0
 10
48.45686294819995
 20
57.15031423239992
 30
0.0
 10
48.41089870229996
 20
57.05210806479994
 30
0.0
 10
48.37226439829994
 20
56.9506769475999
 30
0.0
 10
48.34098596699988
 20
56.84623401919992
 30
0.0
 10
48.31727808699992
 20
56.739095819
 30
0.0
 10
48.30677277139995
 20
56.66682949559993
 30
0.0
 10
48.30283569239992
 20
56.63040519159995
 30
0.0
1001
ACAD
1000
RTMaterial
1005
0
  0
LINE
  5
5FF62
330
1F
100
AcDbEntity
  8
cut
100
AcDbLine
 10
48.30283569239992
 20
56.63040519159995
 30
0.0
 11
48.29980660199993
 21
56.59938666929997
 31
0.0
1001
ACAD
1000
RTMaterial
1005
0
  0
LINE
  5
5FF63
330
1F
100
AcDbEntity
  8
cut
100
AcDbLine
 10
48.29980660199993
 20
56.59938666929997
 30
0.0
 11
48.29850311529992
 21
56.56785135779995
 31
0.0
1001
ACAD
1000
RTMaterial
1005
0
  0
SPLINE
  5
5FF64
330
1F
100
AcDbEntity
  8
cut
100
AcDbSpline
210
0.0
220
0.0
230
1.0
 70
     8
 71
     3
 72
    10
 73
     6
 74
     0
 42
0.0000000001
 43
0.0000000001
 40
0.0
 40
0.0
 40
0.0
 40
0.0
 40
0.3333333333
 40
0.6666666667
 40
1.0
 40
1.0
 40
1.0
 40
1.0
 10
48.29850311529992
 20
56.56785135779995
 30
0.0
 10
48.29765292649989
 20
56.54027591799991
 30
0.0
 10
48.29749402249996
 20
56.48546669129996
 30
0.0
 10
48.30166925339995
 20
56.40400347479993
 30
0.0
 10
48.30734018899994
 20
56.35075827229991
 30
0.0
 10
48.31086566749997
 20
56.32434976429999
 30
0.0
1001
ACAD
1000
RTMaterial
1005
0
  0
SPLINE
  5
5FF65
330
1F
100
AcDbEntity
  8
cut
100
AcDbSpline
210
0.0
220
0.0
230
1.0
 70
     8
 71
     3
 72
    15
 73
    11
 74
     0
 42
0.0000000001
 43
0.0000000001
 40
0.0
 40
0.0
 40
0.0
 40
0.0
 40
0.125
 40
0.25
 40
0.375
 40
0.5
 40
0.625
 40
0.75
 40
0.875
 40
1.0
 40
1.0
 40
1.0
 40
1.0
 10
48.31086566749997
 20
56.32434976429999
 30
0.0
 10
48.31476531129993
 20
56.29513847479995
 30
0.0
 10
48.32432515069996
 20
56.23698815099993
 30
0.0
 10
48.3442638091999
 20
56.14992033289997
 30
0.0
 10
48.36949742369995
 20
56.06507375219996
 30
0.0
 10
48.39999110889994
 20
55.98157165819998
 30
0.0
 10
48.43567444219991
 20
55.90028633929995
 30
0.0
 10
48.47666593799994
 20
55.82124214559996
 30
0.0
 10
48.52273481399993
 20
55.74473112239997
 30
0.0
 10
48.55647016709991
 20
55.69595935079997
 30
0.0
 10
48.57413048159992
 20
55.67209179889994
 30
0.0
1001
ACAD
1000
RTMaterial
1005
0
  0
SPLINE
  5
5FF66
330
1F
100
AcDbEntity
  8
cut
100
AcDbSpline
210
0.0
220
0.0
230
1.0
 70
     8
 71
     3
 72
    17
 73
    13
 74
     0
 42
0.0000000001
 43
0.0000000001
 40
0.0
 40
0.0
 40
0.0
 40
0.0
 40
0.1
 40
0.2
 40
0.3
 40
0.4
 40
0.5
 40
0.6
 40
0.7
 40
0.8
 40
0.9
 40
1.0
 40
1.0
 40
1.0
 40
1.0
 10
48.57413048159992
 20
55.67209179889994
 30
0.0
 10
48.62411511419992
 20
55.60453859589995
 30
0.0
 10
48.72820441999994
 20
55.46387022869993
 30
0.0
 10
48.89612947239993
 20
55.23695062519994
 30
0.0
 10
49.07755570599994
 20
54.99180969769992
 30
0.0
 10
49.27283472929992
 20
54.72797847059997
 30
0.0
 10
49.48277426399994
 20
54.44437116829999
 30
0.0
 10
49.70958854309992
 20
54.13800548959994
 30
0.0
 10
49.95444946689992
 20
53.80730784499997
 30
0.0
 10
50.21883705689993
 20
53.45029079709997
 30
0.0
 10
50.50393659049991
 20
53.0653677354
 30
0.0
 10
50.70909249719989
 20
52.78842903269993
 30
0.0
 10
50.81533796619993
 20
52.64502355339994
 30
0.0
1001
ACAD
1000
RTMaterial
1005
0
  0
SPLINE
  5
5FF67
330
1F
100
AcDbEntity
  8
cut
100
AcDbSpline
210
0.0
220
0.0
230
1.0
 70
     8
 71
     3
 72
    11
 73
     7
 74
     0
 42
0.0000000001
 43
0.0000000001
 40
0.0
 40
0.0
 40
0.0
 40
0.0
 40
0.25
 40
0.5
 40
0.75
 40
1.0
 40
1.0
 40
1.0
 40
1.0
 10
50.81533796619993
 20
52.64502355339994
 30
0.0
 10
50.8651799591999
 20
52.57774901489995
 30
0.0
 10
50.97045020189995
 20
52.43596908119991
 30
0.0
 10
51.14609887699993
 20
52.20062452709999
 30
0.0
 10
51.33719777829992
 20
51.94604080769995
 30
0.0
 10
51.47586782819991
 20
51.76247762939993
 30
0.0
 10
51.54799208899993
 20
51.66736015619995
 30
0.0
1001
ACAD
1000
RTMaterial
1005
0
  0
SPLINE
  5
5FF68
330
1F
100
AcDbEntity
  8
cut
100
AcDbSpline
210
0.0
220
0.0
230
1.0
 70
     8
 71
     3
 72
    11
 73
     7
 74
     0
 42
0.0000000001
 43
0.0000000001
 40
0.0
 40
0.0
 40
0.0
 40
0.0
 40
0.25
 40
0.5
 40
0.75
 40
1.0
 40
1.0
 40
1.0
 40
1.0
 10
51.54799208899993
 20
51.66736015619995
 30
0.0
 10
51.56247481789989
 20
51.64918162859999
 30
0.0
 10
51.59214771259991
 20
51.61415935339994
 30
0.0
 10
51.63880663129993
 20
51.56532479319998
 30
0.0
 10
51.68686497409993
 20
51.52057251599996
 30
0.0
 10
51.71969023579993
 20
51.49344430219997
 30
0.0
 10
51.73627815459991
 20
51.4805150336
 30
0.0
1001
ACAD
1000
RTMaterial
1005
0
  0
SPLINE
  5
5FF69
330
1F
100
AcDbEntity
  8
cut
100
AcDbSpline
210
0.0
220
0.0
230
1.0
 70
     8
 71
     3
 72
    10
 73
     6
 74
     0
 42
0.0000000001
 43
0.0000000001
 40
0.0
 40
0.0
 40
0.0
 40
0.0
 40
0.3333333333
 40
0.6666666667
 40
1.0
 40
1.0
 40
1.0
 40
1.0
 10
51.73627815459991
 20
51.4805150336
 30
0.0
 10
51.74390315019991
 20
51.47457181569996
 30
0.0
 10
51.75940874349993
 20
51.46295656789999
 30
0.0
 10
51.78347914749991
 20
51.44635088999996
 30
0.0
 10
51.80001510399989
 20
51.43586683269996
 30
0.0
 10
51.80840894269988
 20
51.43076669369992
 30
0.0
1001
ACAD
1000
RTMaterial
1005
0
  0
SPLINE
  5
5FF6A
330
1F
100
AcDbEntity
  8
cut
100
AcDbSpline
210
0.0
220
0.0
230
1.0
 70
     8
 71
     3
 72
    22
 73
    18
 74
     0
 42
0.0000000001
 43
0.0000000001
 40
0.0
 40
0.0
 40
0.0
 40
0.0
 40
0.0666666667
 40
0.1333333333
 40
0.2
 40
0.2666666667
 40
0.3333333333
 40
0.4
 40
0.4666666667000001
 40
0.5333333333
 40
0.6
 40
0.6666666667
 40
0.7333333333
 40
0.8
 40
0.8666666667000001
 40
0.9333333333
 40
1.0
 40
1.0
 40
1.0
 40
1.0
 10
51.80840894269988
 20
51.43076669369992
 30
0.0
 10
51.83236100219989
 20
51.41621330039999
 30
0.0
 10
51.87990750799992
 20
51.38746603649997
 30
0.0
 10
51.94931750049994
 20
51.34591673049993
 30
0.0
 10
52.01930894039993
 20
51.30442774549994
 30
0.0
 10
52.09164198319996
 20
51.2619982708
 30
0.0
 10
52.16797207209992
 20
51.217709904
 30
0.0
 10
52.24714921549992
 20
51.17228659409994
 30
0.0
 10
52.32821095349994
 20
51.12631454759991
 30
0.0
 10
52.41011388179993
 20
51.08039435669997
 30
0.0
 10
52.49188815519989
 20
51.03506839599993
 30
0.0
 10
52.57235533729994
 20
50.99098272769992
 30
0.0
 10
52.65047931619995
 20
50.94868415009989
 30
0.0
 10
52.72494466109993
 20
50.90883327769995
 30
0.0
 10
52.79736994229995
 20
50.87050414729993
 30
0.0
 10
52.86945688369991
 20
50.83276026069995
 30
0.0
 10
52.9192182057999
 20
50.80698131679998
 30
0.0
 10
52.94436606739992
 20
50.79402571589992
 30
0.0
1001
ACAD
1000
RTMaterial
1005
0
  0
LINE
  5
5FF6B
330
1F
100
AcDbEntity
  8
cut
100
AcDbLine
 10
52.94436606739992
 20
50.79402571589992
 30
0.0
 11
52.97380763979993
 21
50.77885182319994
 31
0.0
1001
ACAD
1000
RTMaterial
1005
0
  0
SPLINE
  5
5FF6C
330
1F
100
AcDbEntity
  8
cut
100
AcDbSpline
210
0.0
220
0.0
230
1.0
 70
     8
 71
     3
 72
    11
 73
     7
 74
     0
 42
0.0000000001
 43
0.0000000001
 40
0.0
 40
0.0
 40
0.0
 40
0.0
 40
0.25
 40
0.5
 40
0.75
 40
1.0
 40
1.0
 40
1.0
 40
1.0
 10
52.97380763979993
 20
50.77885182319994
 30
0.0
 10
53.0039530736999
 20
50.76330633399999
 30
0.0
 10
53.06513184689993
 20
50.73393326139996
 30
0.0
 10
53.16024878069993
 20
50.69479166439993
 30
0.0
 10
53.2566862912999
 20
50.6613275011
 30
0.0
 10
53.32217087479995
 20
50.64261385659995
 30
0.0
 10
53.35518923319995
 20
50.63418695369989
 30
0.0
1001
ACAD
1000
RTMaterial
1005
0
  0
SPLINE
  5
5FF6D
330
1F
100
AcDbEntity
  8
cut
100
AcDbSpline
210
0.0
220
0.0
230
1.0
 70
     8
 71
     3
 72
    21
 73
    17
 74
     0
 42
0.0000000001
 43
0.0000000001
 40
0.0
 40
0.0
 40
0.0
 40
0.0
 40
0.0714285714
 40
0.1428571429
 40
0.2142857143
 40
0.2857142857
 40
0.3571428571
 40
0.4285714286
 40
0.5
 40
0.5714285714000001
 40
0.6428571429
 40
0.7142857143000001
 40
0.7857142857
 40
0.8571428570999998
 40
0.9285714285999999
 40
1.0
 40
1.0
 40
1.0
 40
1.0
 10
53.35518923319995
 20
50.63418695369989
 30
0.0
 10
53.43914094229996
 20
50.6127609065
 30
0.0
 10
53.61463604799991
 20
50.56797290719998
 30
0.0
 10
53.89964585349992
 20
50.4952373443
 30
0.0
 10
54.20944499799992
 20
50.41617967209998
 30
0.0
 10
54.54539626569993
 20
50.33045261139995
 30
0.0
 10
54.90870568139991
 20
50.23774959579998
 30
0.0
 10
55.30061715699992
 20
50.13775483129996
 30
0.0
 10
55.72504465729991
 20
50.02947067589992
 30
0.0
 10
56.18369554899993
 20
49.91246374009989
 30
0.0
 10
56.67890481929993
 20
49.78614055879996
 30
0.0
 10
57.21286973429989
 20
49.64994292529997
 30
0.0
 10
57.78779441649994
 20
49.50331142279998
 30
0.0
 10
58.40594444679988
 20
49.34567159589994
 30
0.0
 10
59.06924320179991
 20
49.17653678599993
 30
0.0
 10
59.5436282487999
 20
49.05558769219999
 30
0.0
 10
59.78869359389995
 20
48.99311007539996
 30
0.0
1001
ACAD
1000
RTMaterial
1005
0
  0
SPLINE
  5
5FF6E
330
1F
100
AcDbEntity
  8
cut
100
AcDbSpline
210
0.0
220
0.0
230
1.0
 70
     8
 71
     3
 72
    15
 73
    11
 74
     0
 42
0.0000000001
 43
0.0000000001
 40
0.0
 40
0.0
 40
0.0
 40
0.0
 40
0.125
 40
0.25
 40
0.375
 40
0.5
 40
0.625
 40
0.75
 40
0.875
 40
1.0
 40
1.0
 40
1.0
 40
1.0
 10
59.78869359389995
 20
48.99311007539996
 30
0.0
 10
59.83308706669993
 20
48.98179228429995
 30
0.0
 10
59.92070165859991
 20
48.9629416272
 30
0.0
 10
60.04928905839995
 20
48.94528571369995
 30
0.0
 10
60.17228689189995
 20
48.93766927159993
 30
0.0
 10
60.29115454899994
 20
48.93947538669994
 30
0.0
 10
60.40495999289993
 20
48.95012549109998
 30
0.0
 10
60.51400155079995
 20
48.96894075419993
 30
0.0
 10
60.61856225259993
 20
48.9956198097999
 30
0.0
 10
60.68479164169992
 20
49.01830935149996
 30
0.0
 10
60.71710647599991
 20
49.03083432819994
 30
0.0
1001
ACAD
1000
RTMaterial
1005
0
  0
SPLINE
  5
5FF6F
330
1F
100
AcDbEntity
  8
cut
100
AcDbSpline
210
0.0
220
0.0
230
1.0
 70
     8
 71
     3
 72
    10
 73
     6
 74
     0
 42
0.0000000001
 43
0.0000000001
 40
0.0
 40
0.0
 40
0.0
 40
0.0
 40
0.3333333333
 40
0.6666666667
 40
1.0
 40
1.0
 40
1.0
 40
1.0
 10
60.71710647599991
 20
49.03083432819994
 30
0.0
 10
60.72315625909993
 20
49.03317917669994
 30
0.0
 10
60.73513120839994
 20
49.03800793469997
 30
0.0
 10
60.75272811719992
 20
49.0456723954
 30
0.0
 10
60.76420127759991
 20
49.05104886959998
 30
0.0
 10
60.7698761316999
 20
49.05380169069997
 30
0.0
1001
ACAD
1000
RTMaterial
1005
0
  0
SPLINE
  5
5FF70
330
1F
100
AcDbEntity
  8
cut
100
AcDbSpline
210
0.0
220
0.0
230
1.0
 70
     8
 71
     3
 72
    10
 73
     6
 74
     0
 42
0.0000000001
 43
0.0000000001
 40
0.0
 40
0.0
 40
0.0
 40
0.0
 40
0.3333333333
 40
0.6666666667
 40
1.0
 40
1.0
 40
1.0
 40
1.0
 10
60.7698761316999
 20
49.05380169069997
 30
0.0
 10
60.79279790469991
 20
49.06492083839992
 30
0.0
 10
60.83728868159994
 20
49.08822283479992
 30
0.0
 10
60.90036822639991
 20
49.12621045549991
 30
0.0
 10
60.93951915899992
 20
49.15317381529996
 30
0.0
 10
60.95844612389993
 20
49.16704491079997
 30
0.0
1001
ACAD
1000
RTMaterial
1005
0
  0
SPLINE
  5
5FF71
330
1F
100
AcDbEntity
  8
cut
100
AcDbSpline
210
0.0
220
0.0
230
1.0
 70
     8
 71
     3
 72
    15
 73
    11
 74
     0
 42
0.0000000001
 43
0.0000000001
 40
0.0
 40
0.0
 40
0.0
 40
0.0
 40
0.125
 40
0.25
 40
0.375
 40
0.5
 40
0.625
 40
0.75
 40
0.875
 40
1.0
 40
1.0
 40
1.0
 40
1.0
 10
60.95844612389993
 20
49.16704491079997
 30
0.0
 10
60.97995931399992
 20
49.18281138549992
 30
0.0
 10
61.02167916009995
 20
49.21566627929997
 30
0.0
 10
61.08063901989993
 20
49.26898425039997
 30
0.0
 10
61.13541237259994
 20
49.32567507489995
 30
0.0
 10
61.18727366039991
 20
49.38655850529994
 30
0.0
 10
61.23598931849994
 20
49.45171029269994
 30
0.0
 10
61.28184926139994
 20
49.52199047499999
 30
0.0
 10
61.3249002401999
 20
49.59788544219998
 30
0.0
 10
61.35154812389993
 20
49.65245113409991
 30
0.0
 10
61.36426485989989
 20
49.68075652779998
 30
0.0
1001
ACAD
1000
RTMaterial
1005
0
  0
SPLINE
  5
5FF72
330
1F
100
AcDbEntity
  8
cut
100
AcDbSpline
210
0.0
220
0.0
230
1.0
 70
     8
 71
     3
 72
    16
 73
    12
 74
     0
 42
0.0000000001
 43
0.0000000001
 40
0.0
 40
0.0
 40
0.0
 40
0.0
 40
0.1111111111
 40
0.2222222222
 40
0.3333333333
 40
0.4444444444000001
 40
0.5555555556
 40
0.6666666667
 40
0.7777777778
 40
0.8888888889
 40
1.0
 40
1.0
 40
1.0
 40
1.0
 10
61.36426485989989
 20
49.68075652779998
 30
0.0
 10
61.40170073339993
 20
49.76408271639996
 30
0.0
 10
61.48002355969993
 20
49.93844964199997
 30
0.0
 10
61.6073482985999
 20
50.22201989339993
 30
0.0
 10
61.74601988609992
 20
50.53099567149996
 30
0.0
 10
61.89615580129992
 20
50.86567002019996
 30
0.0
 10
62.05931528949992
 20
51.22955374859998
 30
0.0
 10
62.23697239229995
 20
51.62597811619992
 30
0.0
 10
62.43038714379991
 20
52.05780364099997
 30
0.0
 10
62.64067125239989
 20
52.52756898859996
 30
0.0
 10
62.79326953449992
 20
52.86867982069998
 30
0.0
 10
62.87256837879994
 20
53.04600117779995
 30
0.0
1001
ACAD
1000
RTMaterial
1005
0
  0
SPLINE
  5
5FF73
330
1F
100
AcDbEntity
  8
cut
100
AcDbSpline
210
0.0
220
0.0
230
1.0
 70
     8
 71
     3
 72
    11
 73
     7
 74
     0
 42
0.0000000001
 43
0.0000000001
 40
0.0
 40
0.0
 40
0.0
 40
0.0
 40
0.25
 40
0.5
 40
0.75
 40
1.0
 40
1.0
 40
1.0
 40
1.0
 10
62.87256837879994
 20
53.04600117779995
 30
0.0
 10
62.90569792699989
 20
53.12008266669995
 30
0.0
 10
62.97658901069991
 20
53.27782187779996
 30
0.0
 10
63.0977314751999
 20
53.54425824329997
 30
0.0
 10
63.2323180535999
 20
53.83661429879992
 30
0.0
 10
63.33182326699989
 20
54.04993425769993
 30
0.0
 10
63.38404129409991
 20
54.16106202919997
 30
0.0
1001
ACAD
1000
RTMaterial
1005
0
  0
SPLINE
  5
5FF74
330
1F
100
AcDbEntity
  8
cut
100
AcDbSpline
210
0.0
220
0.0
230
1.0
 70
     8
 71
     3
 72
    11
 73
     7
 74
     0
 42
0.0000000001
 43
0.0000000001
 40
0.0
 40
0.0
 40
0.0
 40
0.0
 40
0.25
 40
0.5
 40
0.75
 40
1.0
 40
1.0
 40
1.0
 40
1.0
 10
63.38404129409991
 20
54.16106202919997
 30
0.0
 10
63.3937273910999
 20
54.18298413379995
 30
0.0
 10
63.41147544049994
 20
54.22672574169991
 30
0.0
 10
63.43352452789992
 20
54.29217977650001
 30
0.0
 10
63.4510510250999
 20
54.35660864349995
 30
0.0
 10
63.45983030059989
 20
54.39873030679996
 30
0.0
 10
63.4635500089999
 20
54.41958406839995
 30
0.0
1001
ACAD
1000
RTMaterial
1005
0
  0
SPLINE
  5
5FF75
330
1F
100
AcDbEntity
  8
cut
100
AcDbSpline
210
0.0
220
0.0
230
1.0
 70
     8
 71
     3
 72
    10
 73
     6
 74
     0
 42
0.0000000001
 43
0.0000000001
 40
0.0
 40
0.0
 40
0.0
 40
0.0
 40
0.3333333333
 40
0.6666666667
 40
1.0
 40
1.0
 40
1.0
 40
1.0
 10
63.4635500089999
 20
54.41958406839995
 30
0.0
 10
63.46467849869992
 20
54.42591070829997
 30
0.0
 10
63.46680678759992
 20
54.43850399699994
 30
0.0
 10
63.46959992729996
 20
54.45708606389996
 30
0.0
 10
63.4712390832999
 20
54.46952165179999
 30
0.0
 10
63.47199999949992
 20
54.47573018289995
 30
0.0
1001
ACAD
1000
RTMaterial
1005
0
  0
LINE
  5
5FF76
330
1F
100
AcDbEntity
  8
cut
100
AcDbLine
 10
63.47199999949992
 20
54.47573018289995
 30
0.0
 11
63.47384048889995
 21
54.50751930279995
 31
0.0
1001
ACAD
1000
RTMaterial
1005
0
  0
LINE
  5
60012
330
1F
100
AcDbEntity
  8
nocut
100
AcDbLine
 10
-0.0000000000000568
 20
0.0
 30
0.0
 11
62.19999999999993
 21
0.0
 31
0.0
  0
DIMENSION
  5
6001C
330
1F
100
AcDbEntity
  8
2
100
AcDbDimension
  2
*D71
 10
85.89100825644411
 20
-55.75000000000006
 30
0.0
 11
81.84100825644412
 21
-1.750000000000047
 31
0.0
 70
    32
  1
%%C<>
 71
     5
 42
111.5
  3
\M+18352\M+18373\M+1815B - ISO-25
100
AcDbAlignedDimension
 13
63.25940127593174
 23
55.74999999999994
 33
0.0
 14
63.25940127593174
 24
-55.75000000000006
 34
0.0
 50
90.0
100
AcDbRotatedDimension
1001
ACAD
1000
DSTYLE
1002
{
1070
     4
1000
%%C[]"
1070
    40
1040
1.0
1070
    76
1070
     1
1070
   143
1040
0.0393700787401575
1070
   170
1070
     1
1070
   171
1070
     3
1070
   173
1070
     1
1070
   271
1070
     8
1070
   285
1070
     4
1070
   344
1005
32F1
1002
}
  0
DIMENSION
  5
60034
330
1F
100
AcDbEntity
  8
2
100
AcDbDimension
  2
*D72
 10
100.6584518906779
 20
-63.50000000000006
 30
0.0
 11
96.60845189067794
 21
-1.750000000000048
 31
0.0
 70
    32
  1
%%C<>
 71
     5
 42
127.0
  3
\M+18352\M+18373\M+1815B - ISO-25
100
AcDbAlignedDimension
 13
60.11018566089996
 23
63.49999999999994
 33
0.0
 14
60.11018566089996
 24
-63.50000000000005
 34
0.0
 50
90.0
100
AcDbRotatedDimension
1001
ACAD
1000
DSTYLE
1002
{
1070
     4
1000
%%C[]"
1070
    40
1040
1.0
1070
    76
1070
     1
1070
   143
1040
0.0393700787401575
1070
   170
1070
     1
1070
   171
1070
     3
1070
   173
1070
     1
1070
   271
1070
     8
1070
   285
1070
     4
1070
   344
1005
32F1
1002
}
  0
DIMENSION
  5
6004C
102
{ACAD_XDICTIONARY
360
60059
102
}
102
{ACAD_REACTORS
330
60063
102
}
330
1F
100
AcDbEntity
  8
sk2
100
AcDbDimension
  2
*D73
 10
-23.58302764287012
 20
-19.05
 30
0.0
 11
-23.58302764287012
 21
-0.0000000000000234
 31
0.0
 70
   160
  1
%%C<>
 71
     5
 42
38.09999999999997
  3
\M+18352\M+18373\M+1815B - ISO-25
100
AcDbAlignedDimension
 13
7.999999999999943
 23
19.04999999999995
 33
0.0
 14
7.999999999999943
 24
-19.05000000000001
 34
0.0
 50
90.0
100
AcDbRotatedDimension
1001
ACAD
1000
DSTYLE
1002
{
1070
     4
1000
%%c[]"
1070
    40
1040
1.0
1070
   143
1040
0.0393700787401575
1070
   170
1070
     1
1070
   171
1070
     3
1070
   271
1070
     8
1070
   285
1070
     4
1002
}
  0
DIMENSION
  5
60064
102
{ACAD_XDICTIONARY
360
60071
102
}
102
{ACAD_REACTORS
330
6007B
102
}
330
1F
100
AcDbEntity
  8
sk2
100
AcDbDimension
  2
*D74
 10
-35.78508932154458
 20
-48.41900000000003
 30
0.0
 11
-39.83508932154456
 21
-0.0000000000000257
 31
0.0
 70
    32
  1
%%C<>
 71
     5
 42
96.83800000000003
  3
\M+18352\M+18373\M+1815B - ISO-25
100
AcDbAlignedDimension
 13
1.999999999999943
 23
48.41899999999998
 33
0.0
 14
1.999999999999914
 24
-48.41900000000004
 34
0.0
 50
90.0
100
AcDbRotatedDimension
1001
ACAD
1000
DSTYLE
1002
{
1070
     4
1000
%%c[]"
1070
    40
1040
1.0
1070
   143
1040
0.0393700787401575
1070
   170
1070
     1
1070
   171
1070
     3
1070
   271
1070
     8
1070
   285
1070
     4
1002
}
  0
DIMENSION
  5
6007C
102
{ACAD_XDICTIONARY
360
60089
102
}
102
{ACAD_REACTORS
330
60093
102
}
330
1F
100
AcDbEntity
  8
sk2
100
AcDbDimension
  2
*D75
 10
41.99999999999994
 20
-83.44060425809027
 30
0.0
 11
20.99999999999993
 21
-79.39060425809028
 31
0.0
 70
    32
 71
     5
 42
42.00000000000002
  3
\M+18352\M+18373\M+1815B - ISO-25
100
AcDbAlignedDimension
 13
-0.0000000000000853
 23
-46.41899967210003
 33
0.0
 14
41.99999999999994
 24
-27.00000000000006
 34
0.0
100
AcDbRotatedDimension
1001
ACAD
1000
DSTYLE
1002
{
1070
     4
1000
[]"
1070
    40
1040
1.0
1070
   143
1040
0.0393700787401575
1070
   170
1070
     1
1070
   171
1070
     3
1070
   271
1070
     8
1070
   285
1070
     4
1002
}
  0
DIMENSION
  5
60094
330
1F
100
AcDbEntity
  8
2
100
AcDbDimension
  2
*D76
 10
61.39999999999989
 20
-83.44060425809027
 30
0.0
 11
94.09166666666662
 21
-83.44060425809027
 31
0.0
 70
   160
  1
<>(MAX)
 71
     5
 42
2.100000000000051
  3
\M+18352\M+18373\M+1815B - ISO-25
100
AcDbAlignedDimension
 13
63.49999999999994
 23
55.8513537561615
 33
0.0
 14
61.39999999999989
 24
48.54040198382572
 34
0.0
100
AcDbRotatedDimension
1001
ACAD
1000
DSTYLE
1002
{
1070
     4
1000
"
1070
    40
1040
1.0
1070
   143
1040
0.0393700787401575
1070
   170
1070
     1
1070
   171
1070
     3
1070
   271
1070
     8
1070
   285
1070
     4
1002
}
  0
DIMENSION
  5
600AE
330
1F
100
AcDbEntity
  8
2
100
AcDbDimension
  2
*D77
 10
61.49999999999995
 20
80.38117957483484
 30
0.0
 11
-5.258333333333382
 21
84.43117957483485
 31
0.0
 70
    32
  1
<>(APMX AT HIGH FEED PROCESS)
 71
     5
 42
2.0
  3
\M+18352\M+18373\M+1815B - ISO-25
100
AcDbAlignedDimension
 13
63.49999999999994
 23
55.8513537561615
 33
0.0
 14
61.49999999999995
 24
61.61953307477469
 34
0.0
100
AcDbRotatedDimension
1001
ACAD
1000
DSTYLE
1002
{
1070
     4
1000
"
1070
    40
1040
1.0
1070
   143
1040
0.0393700787401575
1070
   170
1070
     1
1070
   171
1070
     3
1070
   271
1070
     8
1070
   285
1070
     4
1002
}
  0
DIMENSION
  5
600C8
330
1F
100
AcDbEntity
  8
2
100
AcDbDimension
  2
*D78
 10
60.49999999999994
 20
91.29539103960565
 30
0.0
 11
33.11666666666662
 21
95.34539103960565
 31
0.0
 70
    32
  1
APMX<>
 71
     5
 42
3.0
  3
\M+18352\M+18373\M+1815B - ISO-25
100
AcDbAlignedDimension
 13
63.49999999999994
 23
55.8513537561615
 33
0.0
 14
60.49999999999994
 24
62.48944404985829
 34
0.0
100
AcDbRotatedDimension
1001
ACAD
1000
DSTYLE
1002
{
1070
     4
1000
"
1070
    40
1040
1.0
1070
   143
1040
0.0393700787401575
1070
   170
1070
     1
1070
   171
1070
     3
1070
   271
1070
     8
1070
   285
1070
     4
1002
}
  0
DIMENSION
  5
600E2
102
{ACAD_XDICTIONARY
360
600EF
102
}
102
{ACAD_REACTORS
330
600F9
102
}
330
1F
100
AcDbEntity
  8
2
100
AcDbDimension
  2
*D79
 10
-0.0000000000000534
 20
102.4149783474674
 30
0.0
 11
31.74999999999994
 21
106.4649783474674
 31
0.0
 70
    32
 71
     5
 42
63.5
  3
\M+18352\M+18373\M+1815B - ISO-25
100
AcDbAlignedDimension
 13
63.49999999999994
 23
55.8513537561615
 33
0.0
 14
-0.0000000000000568
 24
46.41899999999998
 34
0.0
100
AcDbRotatedDimension
1001
ACAD
1000
DSTYLE
1002
{
1070
     4
1000
"
1070
    40
1040
1.0
1070
   143
1040
0.0393700787401575
1070
   170
1070
     1
1070
   171
1070
     3
1070
   271
1070
     8
1070
   285
1070
     4
1002
}
  0
DIMENSION
  5
600FB
330
1F
100
AcDbEntity
  8
2
100
AcDbDimension
  2
*D80
 10
60.11786691028326
 20
61.05296659277051
 30
0.0
 11
82.93774992405642
 21
77.78981741210987
 31
0.0
 70
    36
 71
     5
 42
1.500000000000056
  3
\M+18352\M+18373\M+1815B - ISO-25
100
AcDbRadialDimension
 15
61.44192414213897
 25
61.7578583906876
 35
0.0
 40
0.0
1001
ACAD
1000
DSTYLE
1002
{
1070
     4
1000
"
1070
    40
1040
1.0
1070
   143
1040
0.0393700787401575
1070
   170
1070
     1
1070
   171
1070
     3
1070
   271
1070
     8
1070
   285
1070
     4
1002
}
  0
LINE
  5
60479
330
1F
100
AcDbEntity
  8
1
100
AcDbLine
 10
52.13075820910001
 20
60.40467889519994
 30
0.0
 11
52.15216012029998
 21
60.32755877099998
 31
0.0
1001
ACAD
1000
RTMaterial
1005
0
  0
LINE
  5
6047A
330
1F
100
AcDbEntity
  8
1
100
AcDbLine
 10
62.19999999999993
 20
-56.27322319300003
 30
0.0
 11
62.19999999999993
 21
50.38501421599995
 31
0.0
1001
ACAD
1000
RTMaterial
1005
0
  0
LINE
  5
6047D
330
1F
100
AcDbEntity
  8
1
100
AcDbLine
 10
51.40568790339995
 20
50.35910537659993
 30
0.0
 11
51.38198024839994
 21
50.46820696479994
 31
0.0
1001
ACAD
1000
RTMaterial
1005
0
  0
LINE
  5
6048B
330
1F
100
AcDbEntity
  8
1
100
AcDbLine
 10
62.87256838209993
 20
51.93579904679996
 30
0.0
 11
61.36426457389996
 21
48.45800447869994
 31
0.0
1001
ACAD
1000
RTMaterial
1005
0
  0
LINE
  5
60496
330
1F
100
AcDbEntity
  8
1
100
AcDbLine
 10
52.73627550279996
 20
60.72920920139996
 30
0.0
 11
52.65694086589997
 21
60.51336174379997
 31
0.0
1001
ACAD
1000
RTMaterial
1005
0
  0
LINE
  5
60497
330
1F
100
AcDbEntity
  8
1
100
AcDbLine
 10
51.33252468539996
 20
50.03944278419993
 30
0.0
 11
51.33339096639992
 21
50.04144617179997
 31
0.0
1001
ACAD
1000
RTMaterial
1005
0
  0
LINE
  5
604A4
330
1F
100
AcDbEntity
  8
1
100
AcDbLine
 10
52.15216012029998
 20
60.32755877099998
 30
0.0
 11
52.25309460129995
 21
60.46554753509991
 31
0.0
1001
ACAD
1000
RTMaterial
1005
0
  0
LINE
  5
604AB
330
1F
100
AcDbEntity
  8
1
100
AcDbLine
 10
48.70739137299995
 20
56.10230124239996
 30
0.0
 11
53.23723223529999
 21
60.94228115439995
 31
0.0
1001
ACAD
1000
RTMaterial
1005
0
  0
LINE
  5
604AC
330
1F
100
AcDbEntity
  8
1
100
AcDbLine
 10
49.0645051361999
 20
56.70171450819998
 30
0.0
 11
52.65694086589997
 21
60.51336174379997
 31
0.0
1001
ACAD
1000
RTMaterial
1005
0
  0
LINE
  5
604AD
330
1F
100
AcDbEntity
  8
1
100
AcDbLine
 10
52.15216012029998
 20
60.32755877099998
 30
0.0
 11
48.62205580849991
 21
56.62028844119993
 31
0.0
1001
ACAD
1000
RTMaterial
1005
0
  0
LINE
  5
604AE
330
1F
100
AcDbEntity
  8
1
100
AcDbLine
 10
59.60852405459991
 20
47.53807167099995
 30
0.0
 11
59.6951980318999
 21
47.58334763619996
 31
0.0
1001
ACAD
1000
RTMaterial
1005
0
  0
LINE
  5
604AF
330
1F
100
AcDbEntity
  8
1
100
AcDbLine
 10
59.54563416069993
 20
47.50522263169995
 30
0.0
 11
59.60852405459991
 21
47.53807167099995
 31
0.0
1001
ACAD
1000
RTMaterial
1005
0
  0
LINE
  5
604B0
330
1F
100
AcDbEntity
  8
1
100
AcDbLine
 10
48.29980660209992
 20
55.20500257669993
 30
0.0
 11
48.19711073079992
 21
55.44366015629993
 31
0.0
1001
ACAD
1000
RTMaterial
1005
0
  0
LINE
  5
604B1
330
1F
100
AcDbEntity
  8
1
100
AcDbLine
 10
48.26161378149993
 20
55.00116636599995
 30
0.0
 11
48.26198681129989
 21
55.00008485399991
 31
0.0
1001
ACAD
1000
RTMaterial
1005
0
  0
LINE
  5
604B2
330
1F
100
AcDbEntity
  8
1
100
AcDbLine
 10
48.26198754659992
 20
55.00006626639998
 30
0.0
 11
48.37284547899992
 21
54.67877464659995
 31
0.0
1001
ACAD
1000
RTMaterial
1005
0
  0
LINE
  5
604B3
330
1F
100
AcDbEntity
  8
1
100
AcDbLine
 10
48.49154966919991
 20
53.72380969069997
 30
0.0
 11
48.1582820482999
 21
54.17235396139995
 31
0.0
1001
ACAD
1000
RTMaterial
1005
0
  0
LINE
  5
604B8
330
1F
100
AcDbEntity
  8
1
100
AcDbLine
 10
28.37026633319993
 20
51.57194495389996
 30
0.0
 11
37.7118262457999
 21
59.41044443119995
 31
0.0
1001
ACAD
1000
RTMaterial
1005
0
  0
LINE
  5
604B9
330
1F
100
AcDbEntity
  8
1
100
AcDbLine
 10
59.59645248379991
 20
47.56099096719992
 30
0.0
 11
59.73651331909991
 21
47.59271058169997
 31
0.0
1001
ACAD
1000
RTMaterial
1005
0
  0
LINE
  5
604BA
330
1F
100
AcDbEntity
  8
1
100
AcDbLine
 10
59.65154868899992
 20
47.5903307778999
 30
0.0
 11
60.16715151889991
 21
47.60481910539994
 31
0.0
1001
ACAD
1000
RTMaterial
1005
0
  0
LINE
  5
604BC
330
1F
100
AcDbEntity
  8
1
100
AcDbLine
 10
33.79405560059991
 20
47.45941769
 30
0.0
 11
54.12331596329995
 21
46.38657776139996
 31
0.0
1001
ACAD
1000
RTMaterial
1005
0
  0
LINE
  5
604BD
330
1F
100
AcDbEntity
  8
1
100
AcDbLine
 10
17.42111604669992
 20
48.11969112939994
 30
0.0
 11
14.21747399919991
 21
48.39997349049991
 31
0.0
1001
ACAD
1000
RTMaterial
1005
0
  0
LINE
  5
604BE
330
1F
100
AcDbEntity
  8
1
100
AcDbLine
 10
60.97113896239989
 20
45.37297740259993
 30
0.0
 11
56.53305254029993
 21
46.20673878349998
 31
0.0
1001
ACAD
1000
RTMaterial
1005
0
  0
LINE
  5
604BF
330
1F
100
AcDbEntity
  8
1
100
AcDbLine
 10
48.15912382729994
 20
55.50252703479992
 30
0.0
 11
48.02245709429996
 21
55.6624782239
 31
0.0
1001
ACAD
1000
RTMaterial
1005
0
  0
LINE
  5
604C0
330
1F
100
AcDbEntity
  8
1
100
AcDbLine
 10
47.91250562349989
 20
55.03643284359998
 30
0.0
 11
48.10681431369994
 21
54.77180196569998
 31
0.0
1001
ACAD
1000
RTMaterial
1005
0
  0
LINE
  5
604C1
330
1F
100
AcDbEntity
  8
1
100
AcDbLine
 10
51.39795320049995
 20
50.28956819589996
 30
0.0
 11
51.83845721689994
 21
49.68964153039991
 31
0.0
1001
ACAD
1000
RTMaterial
1005
0
  0
LINE
  5
604C2
330
1F
100
AcDbEntity
  8
1
100
AcDbLine
 10
50.81533797679992
 20
51.24430388579992
 30
0.0
 11
48.57413073359992
 21
54.29662563109997
 31
0.0
1001
ACAD
1000
RTMaterial
1005
0
  0
LINE
  5
604C3
330
1F
100
AcDbEntity
  8
1
100
AcDbLine
 10
61.53271046769998
 20
61.52287994949995
 30
0.0
 11
63.43637386899991
 21
55.15832398639997
 31
0.0
1001
ACAD
1000
RTMaterial
1005
0
  0
LINE
  5
604C4
330
1F
100
AcDbEntity
  8
1
100
AcDbLine
 10
53.81227027529996
 20
61.40396915549991
 30
0.0
 11
53.8163079505
 21
61.40608941489995
 31
0.0
1001
ACAD
1000
RTMaterial
1005
0
  0
LINE
  5
604C5
330
1F
100
AcDbEntity
  8
1
100
AcDbLine
 10
54.69621888579997
 20
61.86415035579995
 30
0.0
 11
53.81631349809999
 21
61.40607666109997
 31
0.0
1001
ACAD
1000
RTMaterial
1005
0
  0
LINE
  5
604C6
330
1F
100
AcDbEntity
  8
1
100
AcDbLine
 10
53.81274123499998
 20
61.40421600209998
 30
0.0
 11
53.80328662629995
 21
61.39930653149992
 31
0.0
1001
ACAD
1000
RTMaterial
1005
0
  0
LINE
  5
604C7
330
1F
100
AcDbEntity
  8
1
100
AcDbLine
 10
53.80328662629995
 20
61.39930653149992
 30
0.0
 11
53.79330108399995
 21
61.39420495799993
 31
0.0
1001
ACAD
1000
RTMaterial
1005
0
  0
LINE
  5
604C8
330
1F
100
AcDbEntity
  8
1
100
AcDbLine
 10
53.79330108399995
 20
61.39420495799993
 30
0.0
 11
53.78302635099998
 21
61.38905609069997
 31
0.0
1001
ACAD
1000
RTMaterial
1005
0
  0
LWPOLYLINE
  5
604C9
330
1F
100
AcDbEntity
  8
1
100
AcDbPolyline
 90
        6
 70
     0
 43
0.0
 10
53.78302635099998
 20
61.38905609069997
 10
53.77258145219997
 20
61.38392779579993
 10
53.76188790399999
 20
61.37878913659995
 10
53.7506710655
 20
61.37352086789992
 10
53.73883758699998
 20
61.36809736849994
 10
53.7363263954
 20
61.36696404599996
1001
ACAD
1000
RTMaterial
1005
0
  0
LINE
  5
604CA
330
1F
100
AcDbEntity
  8
1
100
AcDbLine
 10
49.0645051361999
 20
56.70171450819998
 30
0.0
 11
48.90055166589991
 21
56.69962755479992
 31
0.0
1001
ACAD
1000
RTMaterial
1005
0
  0
LINE
  5
604CB
330
1F
100
AcDbEntity
  8
1
100
AcDbLine
 10
48.49154966919991
 20
53.72380969069997
 30
0.0
 11
33.75695078379994
 21
54.59730198299991
 31
0.0
1001
ACAD
1000
RTMaterial
1005
0
  0
LINE
  5
604CC
330
1F
100
AcDbEntity
  8
1
100
AcDbLine
 10
56.92872555159993
 20
53.68479177809996
 30
0.0
 11
57.05688749199993
 21
53.66685693019997
 31
0.0
1001
ACAD
1000
RTMaterial
1005
0
  0
LINE
  5
604CD
330
1F
100
AcDbEntity
  8
1
100
AcDbLine
 10
54.76708734609997
 20
54.20197129659993
 30
0.0
 11
54.89524928639991
 21
54.18403644869994
 31
0.0
1001
ACAD
1000
RTMaterial
1005
0
  0
LINE
  5
604CE
330
1F
100
AcDbEntity
  8
1
100
AcDbLine
 10
48.16975310409993
 20
54.75744154299992
 30
0.0
 11
47.81040724699994
 21
54.8394316536
 31
0.0
1001
ACAD
1000
RTMaterial
1005
0
  0
LINE
  5
604CF
330
1F
100
AcDbEntity
  8
1
100
AcDbLine
 10
59.12989448209993
 20
47.72921479529998
 30
0.0
 11
53.65034631899994
 21
49.02772763659993
 31
0.0
1001
ACAD
1000
RTMaterial
1005
0
  0
LINE
  5
604D0
330
1F
100
AcDbEntity
  8
1
100
AcDbLine
 10
59.78869359489994
 20
47.6443577
 30
0.0
 11
53.35518933129993
 21
49.16893375109999
 31
0.0
1001
ACAD
1000
RTMaterial
1005
0
  0
LINE
  5
604D1
330
1F
100
AcDbEntity
  8
1
100
AcDbLine
 10
59.64068449209992
 20
47.45401142799994
 30
0.0
 11
59.12989448209993
 21
47.72921479529998
 31
0.0
1001
ACAD
1000
RTMaterial
1005
0
  0
LINE
  5
604D2
330
1F
100
AcDbEntity
  8
1
100
AcDbLine
 10
52.22955241329993
 20
49.70260362119995
 30
0.0
 11
52.29838530919995
 21
49.65575700229994
 31
0.0
1001
ACAD
1000
RTMaterial
1005
0
  0
LINE
  5
604D3
330
1F
100
AcDbEntity
  8
1
100
AcDbLine
 10
52.29697432659992
 20
49.65671509269992
 30
0.0
 11
52.29833980119991
 21
49.65578174719991
 31
0.0
1001
ACAD
1000
RTMaterial
1005
0
  0
LINE
  5
604D4
330
1F
100
AcDbEntity
  8
1
100
AcDbLine
 10
51.80815019059991
 20
49.99139666849998
 30
0.0
 11
52.22955241329993
 21
49.70260362119995
 31
0.0
1001
ACAD
1000
RTMaterial
1005
0
  0
LINE
  5
604D5
330
1F
100
AcDbEntity
  8
1
100
AcDbLine
 10
52.29843071349989
 20
49.6557194321
 30
0.0
 11
52.30014443919992
 21
49.65451883189991
 31
0.0
1001
ACAD
1000
RTMaterial
1005
0
  0
LINE
  5
604D6
330
1F
100
AcDbEntity
  8
1
100
AcDbLine
 10
52.30014443919992
 20
49.65451883189991
 30
0.0
 11
52.30048519839994
 21
49.6542724011
 31
0.0
1001
ACAD
1000
RTMaterial
1005
0
  0
LINE
  5
604D7
330
1F
100
AcDbEntity
  8
1
100
AcDbLine
 10
47.64245781409994
 20
55.97434649839994
 30
0.0
 11
47.95852006529992
 21
55.72290046469993
 31
0.0
1001
ACAD
1000
RTMaterial
1005
0
  0
LINE
  5
604D8
330
1F
100
AcDbEntity
  8
1
100
AcDbLine
 10
48.16975310409993
 20
54.75744154299992
 30
0.0
 11
48.42376048759991
 21
54.55187357209997
 31
0.0
1001
ACAD
1000
RTMaterial
1005
0
  0
LINE
  5
604DC
330
1F
100
AcDbEntity
  8
1
100
AcDbLine
 10
44.13970234269998
 20
60.40405377349998
 30
0.0
 11
52.13075820910001
 21
60.40467889519994
 31
0.0
1001
ACAD
1000
RTMaterial
1005
0
  0
LINE
  5
604E0
330
1F
100
AcDbEntity
  8
1
100
AcDbLine
 10
44.13970234269998
 20
61.75
 30
0.0
 11
52.96254206599996
 21
61.75
 31
0.0
1001
ACAD
1000
RTMaterial
1005
0
  0
LINE
  5
604E1
330
1F
100
AcDbEntity
  8
1
100
AcDbLine
 10
57.5963086514999
 20
55.80503763119992
 30
0.0
 11
57.72447059179995
 21
55.78710278329992
 31
0.0
1001
ACAD
1000
RTMaterial
1005
0
  0
LINE
  5
604E2
330
1F
100
AcDbEntity
  8
1
100
AcDbLine
 10
55.43467044589994
 20
56.32221714959996
 30
0.0
 11
55.56283238629993
 21
56.30428230179996
 31
0.0
1001
ACAD
1000
RTMaterial
1005
0
  0
LINE
  5
604E3
330
1F
100
AcDbEntity
  8
1
100
AcDbLine
 10
53.98364217839997
 20
61.49328854899994
 30
0.0
 11
53.22632773359998
 21
61.34716309279998
 31
0.0
1001
ACAD
1000
RTMaterial
1005
0
  0
LINE
  5
604E4
330
1F
100
AcDbEntity
  8
1
100
AcDbLine
 10
56.24838147059995
 20
62.0894360014999
 30
0.0
 11
59.99789243800001
 21
62.51490878209995
 31
0.0
1001
ACAD
1000
RTMaterial
1005
0
  0
LINE
  5
604E5
330
1F
100
AcDbEntity
  8
1
100
AcDbLine
 10
52.96254206599996
 20
61.75
 30
0.0
 11
53.03729405230001
 21
61.74649993129998
 31
0.0
1001
ACAD
1000
RTMaterial
1005
0
  0
LINE
  5
604E6
330
1F
100
AcDbEntity
  8
1
100
AcDbLine
 10
53.03729405230001
 20
61.74649993129998
 30
0.0
 11
54.25122599869997
 21
61.63257170529999
 31
0.0
1001
ACAD
1000
RTMaterial
1005
0
  0
ARC
  5
604F2
330
1F
100
AcDbEntity
  8
1
100
AcDbCircle
 10
18.72845218790002
 20
63.0626116007
 30
0.0
 40
15.0
100
AcDbArc
 50
265.0000000000002
 51
310.0000000000039
1001
ACAD
1000
RTMaterial
1005
0
  0
ARC
  5
604F4
330
1F
100
AcDbEntity
  8
1
100
AcDbCircle
 10
44.13970234269993
 20
51.75
 30
0.0
 40
10.0
100
AcDbArc
 50
90.0
 51
130.0000000000039
1001
ACAD
1000
RTMaterial
1005
0
  0
ARC
  5
604F6
330
1F
100
AcDbEntity
  8
1
100
AcDbCircle
 10
13.78169528549995
 20
43.41899999999998
 30
0.0
 40
5.0
100
AcDbArc
 50
85.00000000000021
 51
90.0
1001
ACAD
1000
RTMaterial
1005
0
  0
SPLINE
  5
60524
330
1F
100
AcDbEntity
  8
1
100
AcDbSpline
210
0.0
220
0.0
230
1.0
 70
     8
 71
     3
 72
    15
 73
    11
 74
     0
 42
0.0000000001
 43
0.0000000001
 40
0.0
 40
0.0
 40
0.0
 40
0.0
 40
0.1248035261
 40
0.2496613061
 40
0.3746006319
 40
0.499629273
 40
0.6247274788000001
 40
0.7498557666
 40
0.8749517093000001
 40
1.0
 40
1.0
 40
1.0
 40
1.0
 10
55.17838032409992
 20
56.42996302479992
 30
0.0
 10
55.14783736549992
 20
56.43423743809996
 30
0.0
 10
55.08516764019993
 20
56.43410978959997
 30
0.0
 10
54.99520373149994
 20
56.40772193799995
 30
0.0
 10
54.91603561699992
 20
56.35727709610001
 30
0.0
 10
54.85400880539993
 20
56.28675892969994
 30
0.0
 10
54.8139886150999
 20
56.2017468018999
 30
0.0
 10
54.79915791939993
 20
56.10893439769995
 30
0.0
 10
54.81061583059989
 20
56.01572450449992
 30
0.0
 10
54.83532483519997
 20
55.95800666759993
 30
0.0
 10
54.8513478518999
 20
55.93158432309997
 30
0.0
1001
ACAD
1000
RTMaterial
1005
0
  0
SPLINE
  5
60526
330
1F
100
AcDbEntity
  8
1
100
AcDbSpline
210
0.0
220
0.0
230
1.0
 70
     8
 71
     3
 72
    15
 73
    11
 74
     0
 42
0.0000000001
 43
0.0000000001
 40
0.0
 40
0.0
 40
0.0
 40
0.0
 40
0.1249745627
 40
0.2500150505
 40
0.3751191411999999
 40
0.5002276074000001
 40
0.6252937521000001
 40
0.7502820067
 40
0.8751804444999999
 40
1.0
 40
1.0
 40
1.0
 40
1.0
 10
54.58167461649992
 20
54.80198343549995
 30
0.0
 10
54.55555894439993
 20
54.78573764609996
 30
0.0
 10
54.50763141389995
 20
54.74564050539993
 30
0.0
 10
54.45539850499995
 20
54.66811460229997
 30
0.0
 10
54.42656800509991
 20
54.5790891382
 30
0.0
 10
54.42349063079991
 20
54.48556921499999
 30
0.0
 10
54.44637647569994
 20
54.39486956729997
 30
0.0
 10
54.49346557129991
 20
54.31408414599997
 30
0.0
 10
54.56098900879993
 20
54.24957727629993
 30
0.0
 10
54.61633388029992
 20
54.22071578409992
 30
0.0
 10
54.64529149139991
 20
54.21046562989994
 30
0.0
1001
ACAD
1000
RTMaterial
1005
0
  0
SPLINE
  5
60527
330
1F
100
AcDbEntity
  8
1
100
AcDbSpline
210
0.0
220
0.0
230
1.0
 70
     8
 71
     3
 72
     8
 73
     4
 74
     0
 42
0.0000000001
 43
0.0000000001
 40
0.0
 40
0.0
 40
0.0
 40
0.0
 40
1.0
 40
1.0
 40
1.0
 40
1.0
 10
54.64529149139991
 20
54.21046562989994
 30
0.0
 10
54.66601284099994
 20
54.20313087329993
 30
0.0
 10
54.68758188899989
 20
54.19785992509992
 30
0.0
 10
54.70935145059991
 20
54.19481703639997
 30
0.0
1001
ACAD
1000
RTMaterial
1005
0
  0
SPLINE
  5
60528
330
1F
100
AcDbEntity
  8
1
100
AcDbSpline
210
0.0
220
0.0
230
1.0
 70
     8
 71
     3
 72
    15
 73
    11
 74
     0
 42
0.0000000001
 43
0.0000000001
 40
0.0
 40
0.0
 40
0.0
 40
0.0
 40
0.1251602541
 40
0.2502837245
 40
0.3753592817
 40
0.5003790434000001
 40
0.6253432712000001
 40
0.7502586988
 40
0.8751367873999999
 40
1.0
 40
1.0
 40
1.0
 40
1.0
 10
55.60329743619991
 20
53.39350312749997
 30
0.0
 10
55.60179923499993
 20
53.44153201180001
 30
0.0
 10
55.59038183009994
 20
53.53752406979992
 30
0.0
 10
55.54853007959991
 20
53.67615500529996
 30
0.0
 10
55.48322607949995
 20
53.80539364029999
 30
0.0
 10
55.39646241219992
 20
53.92123386769992
 30
0.0
 10
55.29089286729993
 20
54.0201501796999
 30
0.0
 10
55.16972643919991
 20
54.09911627699995
 30
0.0
 10
55.0367215711999
 20
54.15570996879996
 30
0.0
 10
54.94272535219988
 20
54.17739607309994
 30
0.0
 10
54.89524918949996
 20
54.1840357550999
 30
0.0
1001
ACAD
1000
RTMaterial
1005
0
  0
SPLINE
  5
60529
330
1F
100
AcDbEntity
  8
1
100
AcDbSpline
210
0.0
220
0.0
230
1.0
 70
     8
 71
     3
 72
    11
 73
     7
 74
     0
 42
0.0000000001
 43
0.0000000001
 40
0.0
 40
0.0
 40
0.0
 40
0.0
 40
0.2502996486
 40
0.5003874572
 40
0.7502656923000001
 40
1.0
 40
1.0
 40
1.0
 40
1.0
 10
55.60329743619991
 20
53.39350312749997
 30
0.0
 10
55.60449150949995
 20
53.35522388479995
 30
0.0
 10
55.62045373079991
 20
53.27845479679996
 30
0.0
 10
55.68224356879989
 20
53.17900265110001
 30
0.0
 10
55.77424018249991
 20
53.10670682829993
 30
0.0
 10
55.84872234789992
 20
53.08253258909997
 30
0.0
 10
55.88656510419991
 20
53.07723788869992
 30
0.0
1001
ACAD
1000
RTMaterial
1005
0
  0
SPLINE
  5
6052A
330
1F
100
AcDbEntity
  8
1
100
AcDbSpline
210
0.0
220
0.0
230
1.0
 70
     8
 71
     3
 72
     9
 73
     5
 74
     0
 42
0.0000000001
 43
0.0000000001
 40
0.0
 40
0.0
 40
0.0
 40
0.0
 40
0.5000427267000001
 40
1.0
 40
1.0
 40
1.0
 40
1.0
 10
57.33148275889994
 20
53.57708930809997
 30
0.0
 10
57.28889307849994
 20
53.59996082479995
 30
0.0
 10
57.19949889269992
 20
53.63824008659992
 30
0.0
 10
57.10475545709994
 20
53.66016018449994
 30
0.0
 10
57.05688746779992
 20
53.66685675739995
 30
0.0
1001
ACAD
1000
RTMaterial
1005
0
  0
SPLINE
  5
6052B
330
1F
100
AcDbEntity
  8
1
100
AcDbSpline
210
0.0
220
0.0
230
1.0
 70
     8
 71
     3
 72
     9
 73
     5
 74
     0
 42
0.0000000001
 43
0.0000000001
 40
0.0
 40
0.0
 40
0.0
 40
0.0
 40
0.7495490479000001
 40
1.0
 40
1.0
 40
1.0
 40
1.0
 10
57.33148275889994
 20
53.57708930809997
 30
0.0
 10
57.35699841179997
 20
53.5633868882
 30
0.0
 10
57.39374088409994
 20
53.54954893179996
 30
0.0
 10
57.43175567549991
 20
53.54251744789991
 30
0.0
 10
57.44133955419994
 20
53.54117620719989
 30
0.0
1001
ACAD
1000
RTMaterial
1005
0
  0
SPLINE
  5
6052C
330
1F
100
AcDbEntity
  8
1
100
AcDbSpline
210
0.0
220
0.0
230
1.0
 70
     8
 71
     3
 72
    15
 73
    11
 74
     0
 42
0.0000000001
 43
0.0000000001
 40
0.0
 40
0.0
 40
0.0
 40
0.0
 40
0.1249035286
 40
0.2498597456
 40
0.3748744754
 40
0.4999215358
 40
0.6249805071
 40
0.7500291854000001
 40
0.8750362872
 40
1.0
 40
1.0
 40
1.0
 40
1.0
 10
54.58167461649992
 20
54.80198343549995
 30
0.0
 10
54.62712916259994
 20
54.83025936799993
 30
0.0
 10
54.71275478639995
 20
54.89590233809997
 30
0.0
 10
54.81950147219993
 20
55.01727954839992
 30
0.0
 10
54.90079789309993
 20
55.15712546909992
 30
0.0
 10
54.95348079569993
 20
55.31009608329992
 30
0.0
 10
54.9755797805999
 20
55.47038252029995
 30
0.0
 10
54.96623010359996
 20
55.63191177089993
 30
0.0
 10
54.92584054889994
 20
55.7884865343999
 30
0.0
 10
54.87911880779989
 20
55.88578934089992
 30
0.0
 10
54.8513478518999
 20
55.93158432309997
 30
0.0
1001
ACAD
1000
RTMaterial
1005
0
  0
SPLINE
  5
6052D
330
1F
100
AcDbEntity
  8
1
100
AcDbSpline
210
0.0
220
0.0
230
1.0
 70
     8
 71
     3
 72
    11
 73
     7
 74
     0
 42
0.0000000001
 43
0.0000000001
 40
0.0
 40
0.0
 40
0.0
 40
0.0
 40
0.2497812734
 40
0.4996706779000001
 40
0.7497377359000001
 40
1.0
 40
1.0
 40
1.0
 40
1.0
 10
55.56283241039995
 20
56.3042824746999
 30
0.0
 10
55.64461745689993
 20
56.29284101789989
 30
0.0
 10
55.81279884979995
 20
56.29486274899995
 30
0.0
 10
56.05190969139994
 20
56.37302597619992
 30
0.0
 10
56.25713000749994
 20
56.51877744469993
 30
0.0
 10
56.35907260199997
 20
56.65280582599996
 30
0.0
 10
56.3987365262999
 20
56.72541962519995
 30
0.0
1001
ACAD
1000
RTMaterial
1005
0
  0
SPLINE
  5
6052E
330
1F
100
AcDbEntity
  8
1
100
AcDbSpline
210
0.0
220
0.0
230
1.0
 70
     8
 71
     3
 72
    11
 73
     7
 74
     0
 42
0.0000000001
 43
0.0000000001
 40
0.0
 40
0.0
 40
0.0
 40
0.0
 40
0.2497807494
 40
0.499671638
 40
0.7497263809
 40
1.0
 40
1.0
 40
1.0
 40
1.0
 10
56.73315477409994
 20
56.89390134329994
 30
0.0
 10
56.70043538249996
 20
56.89847921759991
 30
0.0
 10
56.63315113739992
 20
56.89767184889996
 30
0.0
 10
56.53749256759994
 20
56.86640030649994
 30
0.0
 10
56.45538945779993
 20
56.80809188129996
 30
0.0
 10
56.41460549099992
 20
56.75447136019994
 30
0.0
 10
56.3987365262999
 20
56.72541962519995
 30
0.0
1001
ACAD
1000
RTMaterial
1005
0
  0
SPLINE
  5
6052F
330
1F
100
AcDbEntity
  8
1
100
AcDbSpline
210
0.0
220
0.0
230
1.0
 70
     8
 71
     3
 72
     8
 73
     4
 74
     0
 42
0.0000000001
 43
0.0000000001
 40
0.0
 40
0.0
 40
0.0
 40
0.0
 40
1.0
 40
1.0
 40
1.0
 40
1.0
 10
57.7244706887999
 20
55.78710347689991
 30
0.0
 10
57.76837702969993
 20
55.78096304499997
 30
0.0
 10
57.81292691319993
 20
55.77837605599995
 30
0.0
 10
57.8572486134999
 20
55.77940491809994
 30
0.0
1001
ACAD
1000
RTMaterial
1005
0
  0
SPLINE
  5
60530
330
1F
100
AcDbEntity
  8
1
100
AcDbSpline
210
0.0
220
0.0
230
1.0
 70
     8
 71
     3
 72
     8
 73
     4
 74
     0
 42
0.0000000001
 43
0.0000000001
 40
0.0
 40
0.0
 40
0.0
 40
0.0
 40
1.0
 40
1.0
 40
1.0
 40
1.0
 10
57.91036842769995
 20
55.77632219559996
 30
0.0
 10
57.8928027968999
 20
55.77877747049996
 30
0.0
 10
57.8749802330999
 20
55.77981653119991
 30
0.0
 10
57.8572486134999
 20
55.77940491809994
 30
0.0
1001
ACAD
1000
RTMaterial
1005
0
  0
SPLINE
  5
60531
330
1F
100
AcDbEntity
  8
1
100
AcDbSpline
210
0.0
220
0.0
230
1.0
 70
     8
 71
     3
 72
    27
 73
    23
 74
     0
 42
0.0000000001
 43
0.0000000001
 40
0.0
 40
0.0
 40
0.0
 40
0.0
 40
0.0623947125
 40
0.0936232012
 40
0.1248550523
 40
0.1872761331
 40
0.249720486
 40
0.2809806853999999
 40
0.3122477685
 40
0.3747459269
 40
0.4372685048
 40
0.4998100351
 40
0.5623628903000001
 40
0.6249181621000001
 40
0.6874666821
 40
0.7187637134
 40
0.7500560675
 40
0.8125675237000001
 40
0.8750532600999999
 40
0.9063133248999999
 40
0.9375658356999998
 40
1.0
 40
1.0
 40
1.0
 40
1.0
 10
56.75950983129991
 20
58.40626156909997
 30
0.0
 10
56.95193629359994
 20
58.37933056489998
 30
0.0
 10
57.23800140949993
 20
58.31413778939992
 30
0.0
 10
57.60332863379989
 20
58.18009405249995
 30
0.0
 10
57.95614513949994
 20
58.01550622409997
 30
0.0
 10
58.36907798349995
 20
57.75435687899994
 30
0.0
 10
58.73192559789993
 20
57.42702675269993
 30
0.0
 10
58.98575905839994
 20
57.1314905957999
 30
0.0
 10
59.21377234729994
 20
56.81540870489993
 30
0.0
 10
59.44736887059992
 20
56.38555181479995
 30
0.0
 10
59.63655792029993
 20
55.83006492279998
 30
0.0
 10
59.72953893029995
 20
55.25041503929998
 30
0.0
 10
59.72356925229991
 20
54.66328468860002
 30
0.0
 10
59.61888284569994
 20
54.08558333409996
 30
0.0
 10
59.45167973289994
 20
53.62544737769997
 30
0.0
 10
59.27312204659995
 20
53.27862318139995
 30
0.0
 10
59.06597806759993
 20
52.94820360559993
 30
0.0
 10
58.75576966929992
 20
52.56996289699992
 30
0.0
 10
58.38621714079994
 20
52.24961592149992
 30
0.0
 10
58.06177618949994
 20
52.03377010759993
 30
0.0
 10
57.72046205699997
 20
51.84626595729992
 30
0.0
 10
57.44726564289994
 20
51.73874202219991
 30
0.0
 10
57.26095852049991
 20
51.68314853409992
 30
0.0
1001
ACAD
1000
RTMaterial
1005
0
  0
SPLINE
  5
60532
330
1F
100
AcDbEntity
  8
1
100
AcDbSpline
210
0.0
220
0.0
230
1.0
 70
     8
 71
     3
 72
     9
 73
     5
 74
     0
 42
0.0000000001
 43
0.0000000001
 40
0.0
 40
0.0
 40
0.0
 40
0.0
 40
0.4999358793999999
 40
1.0
 40
1.0
 40
1.0
 40
1.0
 10
55.8032491845999
 20
51.57284870639995
 30
0.0
 10
56.04590717469989
 20
51.53888755949992
 30
0.0
 10
56.54001451629989
 20
51.52305495349998
 30
0.0
 10
57.02610550959992
 20
51.61306909819995
 30
0.0
 10
57.26095852049991
 20
51.68314853409992
 30
0.0
1001
ACAD
1000
RTMaterial
1005
0
  0
SPLINE
  5
60533
330
1F
100
AcDbEntity
  8
1
100
AcDbSpline
210
0.0
220
0.0
230
1.0
 70
     8
 71
     3
 72
     9
 73
     5
 74
     0
 42
0.0000000001
 43
0.0000000001
 40
0.0
 40
0.0
 40
0.0
 40
0.0
 40
0.4999927562
 40
1.0
 40
1.0
 40
1.0
 40
1.0
 10
55.4346704141999
 20
56.32221688239997
 30
0.0
 10
55.38679942869993
 20
56.32891646359997
 30
0.0
 10
55.29205670419992
 20
56.35083748229994
 30
0.0
 10
55.20266179659995
 20
56.38911489979995
 30
0.0
 10
55.16007517899993
 20
56.41198477180001
 30
0.0
1001
ACAD
1000
RTMaterial
1005
0
  0
SPLINE
  5
60534
330
1F
100
AcDbEntity
  8
1
100
AcDbSpline
210
0.0
220
0.0
230
1.0
 70
     8
 71
     3
 72
    27
 73
    23
 74
     0
 42
0.0000000001
 43
0.0000000001
 40
0.0
 40
0.0
 40
0.0
 40
0.0
 40
0.0624341643
 40
0.0936866751
 40
0.1249467399
 40
0.1874324763
 40
0.2499439325
 40
0.2812362866
 40
0.3125333179
 40
0.3750818379
 40
0.4376371097
 40
0.5001899649000001
 40
0.5627314952
 40
0.6252540731
 40
0.6877522315000001
 40
0.7190193145999999
 40
0.750279514
 40
0.8127238669
 40
0.8751449476999999
 40
0.9063767988
 40
0.9376052875
 40
1.0
 40
1.0
 40
1.0
 40
1.0
 10
55.30180049539996
 20
58.29596174139999
 30
0.0
 10
55.11549337299993
 20
58.24036825329995
 30
0.0
 10
54.8422969588999
 20
58.1328443182
 30
0.0
 10
54.50098282639993
 20
57.94534016789993
 30
0.0
 10
54.17654187509993
 20
57.72949435399993
 30
0.0
 10
53.80698934659995
 20
57.40914737849994
 30
0.0
 10
53.49678094829994
 20
57.03090666989993
 30
0.0
 10
53.28963696929992
 20
56.70048709409996
 30
0.0
 10
53.11107928289994
 20
56.35366289779994
 30
0.0
 10
52.94387617019992
 20
55.89352694139996
 30
0.0
 10
52.83918976349991
 20
55.3158255868999
 30
0.0
 10
52.83322008559991
 20
54.72869523619994
 30
0.0
 10
52.92620109559994
 20
54.14904535269994
 30
0.0
 10
53.1153901452999
 20
53.59355846069997
 30
0.0
 10
53.34898666859993
 20
53.16370157059998
 30
0.0
 10
53.57699995749993
 20
52.8476196796999
 30
0.0
 10
53.83083341799994
 20
52.55208352279999
 30
0.0
 10
54.19368103239992
 20
52.22475339649992
 30
0.0
 10
54.60661387639993
 20
51.96360405139995
 30
0.0
 10
54.95943038209992
 20
51.79901622299991
 30
0.0
 10
55.32475760639994
 20
51.66497248609999
 30
0.0
 10
55.61082272229993
 20
51.59977971059993
 30
0.0
 10
55.8032491845999
 20
51.57284870639995
 30
0.0
1001
ACAD
1000
RTMaterial
1005
0
  0
SPLINE
  5
60535
330
1F
100
AcDbEntity
  8
1
100
AcDbSpline
210
0.0
220
0.0
230
1.0
 70
     8
 71
     3
 72
     9
 73
     5
 74
     0
 42
0.0000000001
 43
0.0000000001
 40
0.0
 40
0.0
 40
0.0
 40
0.0
 40
0.5000641206000001
 40
1.0
 40
1.0
 40
1.0
 40
1.0
 10
55.30180049539996
 20
58.29596174139999
 30
0.0
 10
55.5366535062999
 20
58.36604117729996
 30
0.0
 10
56.02274449959992
 20
58.45605532199994
 30
0.0
 10
56.51685184119992
 20
58.440222716
 30
0.0
 10
56.75950983129991
 20
58.40626156909997
 30
0.0
1001
ACAD
1000
RTMaterial
1005
0
  0
SPLINE
  5
60536
330
1F
100
AcDbEntity
  8
1
100
AcDbSpline
210
0.0
220
0.0
230
1.0
 70
     8
 71
     3
 72
    27
 73
    23
 74
     0
 42
0.0000000001
 43
0.0000000001
 40
0.0
 40
0.0
 40
0.0
 40
0.0
 40
0.0624427899
 40
0.0937102059
 40
0.1249873065
 40
0.1874900014
 40
0.2500207912
 40
0.281332068
 40
0.3126473387
 40
0.3752087474
 40
0.4377679573
 40
0.5003130489000001
 40
0.562834304
 40
0.6253256282000001
 40
0.6877854148
 40
0.7190421229
 40
0.7502924867000001
 40
0.8127033279999999
 40
0.8751043047999999
 40
0.9063425463999999
 40
0.9375810863999999
 40
1.0
 40
1.0
 40
1.0
 40
1.0
 10
55.64232396629989
 20
57.23872665639999
 30
0.0
 10
55.49539277939993
 20
57.1948828296999
 30
0.0
 10
55.28060998639995
 20
57.10700497509993
 30
0.0
 10
55.01641399379991
 20
56.95011471919997
 30
0.0
 10
54.76862895769994
 20
56.76799539669997
 30
0.0
 10
54.49416869049992
 20
56.49593712349997
 30
0.0
 10
54.27804740949994
 20
56.17546242719993
 30
0.0
 10
54.14516016179994
 20
55.89786538389995
 30
0.0
 10
54.03998129079991
 20
55.60855900789994
 30
0.0
 10
53.96244809619992
 20
55.22959432509992
 30
0.0
 10
53.9597546062999
 20
54.76588256239995
 30
0.0
 10
54.0473127763999
 20
54.31052550909993
 30
0.0
 10
54.22185035139995
 20
53.88110499839996
 30
0.0
 10
54.47654965739991
 20
53.49415134439993
 30
0.0
 10
54.74784489589996
 20
53.2191921507
 30
0.0
 10
54.99346524209994
 20
53.03453264599994
 30
0.0
 10
55.25590128239992
 20
52.87488780649994
 30
0.0
 10
55.6114428763999
 20
52.72495727309996
 30
0.0
 10
55.98943248539995
 20
52.64760294449996
 30
0.0
 10
56.29607913319995
 20
52.63094076839997
 30
0.0
 10
56.60282932409995
 20
52.64440875079992
 30
0.0
 10
56.83052090719991
 20
52.68858551349996
 30
0.0
 10
56.97739591189992
 20
52.73241257559994
 30
0.0
1001
ACAD
1000
RTMaterial
1005
0
  0
SPLINE
  5
60537
330
1F
100
AcDbEntity
  8
1
100
AcDbSpline
210
0.0
220
0.0
230
1.0
 70
     8
 71
     3
 72
     8
 73
     4
 74
     0
 42
0.0000000001
 43
0.0000000001
 40
0.0
 40
0.0
 40
0.0
 40
0.0
 40
1.0
 40
1.0
 40
1.0
 40
1.0
 10
55.16007517899993
 20
56.41198477180001
 30
0.0
 10
55.14521713369993
 20
56.41996384159995
 30
0.0
 10
55.12969427699994
 20
56.42680864359999
 30
0.0
 10
55.1137878616999
 20
56.43241337509994
 30
0.0
1001
ACAD
1000
RTMaterial
1005
0
  0
SPLINE
  5
60538
330
1F
100
AcDbEntity
  8
1
100
AcDbSpline
210
0.0
220
0.0
230
1.0
 70
     8
 71
     3
 72
    15
 73
    11
 74
     0
 42
0.0000000001
 43
0.0000000001
 40
0.0
 40
0.0
 40
0.0
 40
0.0
 40
0.1249035286
 40
0.2498597456
 40
0.3748744754
 40
0.4999215358
 40
0.6249805071
 40
0.7500291854000001
 40
0.8750362872
 40
1.0
 40
1.0
 40
1.0
 40
1.0
 10
58.03804526179994
 20
55.16915579659997
 30
0.0
 10
57.99259071559993
 20
55.14087986399994
 30
0.0
 10
57.90696509179992
 20
55.07523689389995
 30
0.0
 10
57.80021840609993
 20
54.9538596836
 30
0.0
 10
57.71892198519992
 20
54.81401376289989
 30
0.0
 10
57.66623908259993
 20
54.66104314869994
 30
0.0
 10
57.64414009769996
 20
54.50075671169997
 30
0.0
 10
57.65348977469989
 20
54.33922746109999
 30
0.0
 10
57.69387932939991
 20
54.18265269759991
 30
0.0
 10
57.7406010704999
 20
54.08534989119994
 30
0.0
 10
57.76837202639995
 20
54.03955490889996
 30
0.0
1001
ACAD
1000
RTMaterial
1005
0
  0
SPLINE
  5
60539
330
1F
100
AcDbEntity
  8
1
100
AcDbSpline
210
0.0
220
0.0
230
1.0
 70
     8
 71
     3
 72
    11
 73
     7
 74
     0
 42
0.0000000001
 43
0.0000000001
 40
0.0
 40
0.0
 40
0.0
 40
0.0
 40
0.2502234889999999
 40
0.500298469
 40
0.7502309122
 40
1.0
 40
1.0
 40
1.0
 40
1.0
 10
56.8882605016999
 20
56.59557095229996
 30
0.0
 10
56.88738193159991
 20
56.62373588809993
 30
0.0
 10
56.87834669279993
 20
56.68008696279997
 30
0.0
 10
56.84383359439994
 20
56.75818796769994
 30
0.0
 10
56.79069112719992
 20
56.82495791149989
 30
0.0
 10
56.74499373169993
 20
56.85904193779999
 30
0.0
 10
56.72047704439989
 20
56.87282911459999
 30
0.0
1001
ACAD
1000
RTMaterial
1005
0
  0
SPLINE
  5
6053A
330
1F
100
AcDbEntity
  8
1
100
AcDbSpline
210
0.0
220
0.0
230
1.0
 70
     8
 71
     3
 72
     8
 73
     4
 74
     0
 42
0.0000000001
 43
0.0000000001
 40
0.0
 40
0.0
 40
0.0
 40
0.0
 40
1.0
 40
1.0
 40
1.0
 40
1.0
 10
56.72047704439989
 20
56.87282911459999
 30
0.0
 10
56.70372534579991
 20
56.88224958109998
 30
0.0
 10
56.6860794330999
 20
56.89023124629994
 30
0.0
 10
56.6679388616999
 20
56.89657823479996
 30
0.0
1001
ACAD
1000
RTMaterial
1005
0
  0
SPLINE
  5
6053B
330
1F
100
AcDbEntity
  8
1
100
AcDbSpline
210
0.0
220
0.0
230
1.0
 70
     8
 71
     3
 72
    15
 73
    11
 74
     0
 42
0.0000000001
 43
0.0000000001
 40
0.0
 40
0.0
 40
0.0
 40
0.0
 40
0.1248757498
 40
0.2497465242
 40
0.3746627943
 40
0.4996245048
 40
0.6246450574
 40
0.7497140269
 40
0.8748478632999999
 40
1.0
 40
1.0
 40
1.0
 40
1.0
 10
57.59630910689992
 20
55.80504089439995
 30
0.0
 10
57.54882795939995
 20
55.81167887539994
 30
0.0
 10
57.45482911739992
 20
55.83336474749995
 30
0.0
 10
57.32182602209991
 20
55.88996705309995
 30
0.0
 10
57.20066206239994
 20
55.96892930899992
 30
0.0
 10
57.09509324339996
 20
56.06784604109998
 30
0.0
 10
57.00833499619995
 20
56.18368529629993
 30
0.0
 10
56.94302363229991
 20
56.31292197769994
 30
0.0
 10
56.90117945899993
 20
56.45155338939992
 30
0.0
 10
56.88975860219989
 20
56.54754529529999
 30
0.0
 10
56.8882605016999
 20
56.59557095229996
 30
0.0
1001
ACAD
1000
RTMaterial
1005
0
  0
SPLINE
  5
6053C
330
1F
100
AcDbEntity
  8
1
100
AcDbSpline
210
0.0
220
0.0
230
1.0
 70
     8
 71
     3
 72
    15
 73
    11
 74
     0
 42
0.0000000001
 43
0.0000000001
 40
0.0
 40
0.0
 40
0.0
 40
0.0
 40
0.1249712139
 40
0.2500063639
 40
0.3751077101
 40
0.5002138165
 40
0.6252813567000001
 40
0.7502739849
 40
0.8751788063999999
 40
1.0
 40
1.0
 40
1.0
 40
1.0
 10
57.90988332139995
 20
55.18709064439992
 30
0.0
 10
57.93561795599993
 20
55.20309940159996
 30
0.0
 10
57.98290616919991
 20
55.24249595019995
 30
0.0
 10
58.03482816359997
 20
55.31854376989997
 30
0.0
 10
58.06412539209993
 20
55.40594057989995
 30
0.0
 10
58.06848178279995
 20
55.49800897169996
 30
0.0
 10
58.04759910599995
 20
55.58775701499996
 30
0.0
 10
58.00302708269993
 20
55.66836879919998
 30
0.0
 10
57.93823356149994
 20
55.7336710168999
 30
0.0
 10
57.88462646999994
 20
55.76377829369994
 30
0.0
 10
57.85643963889993
 20
55.77481687459999
 30
0.0
1001
ACAD
1000
RTMaterial
1005
0
  0
LINE
  5
6053D
330
1F
100
AcDbEntity
  8
1
100
AcDbLine
 10
57.85643963889993
 20
55.77481687459999
 30
0.0
 11
57.84295967389994
 21
55.77975918119995
 31
0.0
1001
ACAD
1000
RTMaterial
1005
0
  0
SPLINE
  5
6053E
330
1F
100
AcDbEntity
  8
1
100
AcDbSpline
210
0.0
220
0.0
230
1.0
 70
     8
 71
     3
 72
    15
 73
    11
 74
     0
 42
0.0000000001
 43
0.0000000001
 40
0.0
 40
0.0
 40
0.0
 40
0.0
 40
0.1249599769
 40
0.2499720737
 40
0.3750190592
 40
0.5000784648
 40
0.6251259588
 40
0.7501389967000001
 40
0.8751002055
 40
1.0
 40
1.0
 40
1.0
 40
1.0
 10
57.64021008599991
 20
54.05748975680001
 30
0.0
 10
57.61243992879991
 20
54.10328342199995
 30
0.0
 10
57.5657193607999
 20
54.20058722109996
 30
0.0
 10
57.52532479969989
 20
54.35716084439992
 30
0.0
 10
57.5159776664999
 20
54.51869211319996
 30
0.0
 10
57.53807423669991
 20
54.67897869099994
 30
0.0
 10
57.59075935739992
 20
54.83194834009992
 30
0.0
 10
57.67205441959993
 20
54.97179720999998
 30
0.0
 10
57.77880505719991
 20
55.09317113949993
 30
0.0
 10
57.86443008249995
 20
55.15881552499997
 30
0.0
 10
57.90988332139995
 20
55.18709064439992
 30
0.0
1001
ACAD
1000
RTMaterial
1005
0
  0
SPLINE
  5
6053F
330
1F
100
AcDbEntity
  8
1
100
AcDbSpline
210
0.0
220
0.0
230
1.0
 70
     8
 71
     3
 72
    15
 73
    11
 74
     0
 42
0.0000000001
 43
0.0000000001
 40
0.0
 40
0.0
 40
0.0
 40
0.0
 40
0.1249929242
 40
0.2500590293
 40
0.3751822011
 40
0.5002973722000001
 40
0.6253498794
 40
0.7503080916
 40
0.8751765463999999
 40
1.0
 40
1.0
 40
1.0
 40
1.0
 10
58.03804526179994
 20
55.16915579659997
 30
0.0
 10
58.06647647619991
 20
55.18684201649989
 30
0.0
 10
58.11825407459991
 20
55.23127047499997
 30
0.0
 10
58.17203307889991
 20
55.31795284459997
 30
0.0
 10
58.19736209089995
 20
55.41688594119995
 30
0.0
 10
58.19178386319993
 20
55.5188367625999
 30
0.0
 10
58.15585543509991
 20
55.61436584229994
 30
0.0
 10
58.09284854319992
 20
55.69460145089994
 30
0.0
 10
58.00873320319993
 20
55.75207469209999
 30
0.0
 10
57.94348446319992
 20
55.77169332839992
 30
0.0
 10
57.91036842769995
 20
55.77632219559996
 30
0.0
1001
ACAD
1000
RTMaterial
1005
0
  0
SPLINE
  5
60540
330
1F
100
AcDbEntity
  8
1
100
AcDbSpline
210
0.0
220
0.0
230
1.0
 70
     8
 71
     3
 72
    11
 73
     7
 74
     0
 42
0.0000000001
 43
0.0000000001
 40
0.0
 40
0.0
 40
0.0
 40
0.0
 40
0.2502689694
 40
0.5003316144
 40
0.7502220338
 40
1.0
 40
1.0
 40
1.0
 40
1.0
 10
56.09282141159991
 20
53.26365445469992
 30
0.0
 10
56.13248639769995
 20
53.33627019789992
 30
0.0
 10
56.23443080299995
 20
53.47029770939991
 30
0.0
 10
56.43965057929995
 20
53.61605330479995
 30
0.0
 10
56.6787613000999
 20
53.69420590389996
 30
0.0
 10
56.84694222859997
 20
53.69623768859998
 30
0.0
 10
56.92872558329992
 20
53.68479204529996
 30
0.0
1001
ACAD
1000
RTMaterial
1005
0
  0
SPLINE
  5
60541
330
1F
100
AcDbEntity
  8
1
100
AcDbSpline
210
0.0
220
0.0
230
1.0
 70
     8
 71
     3
 72
    15
 73
    11
 74
     0
 42
0.0000000001
 43
0.0000000001
 40
0.0
 40
0.0
 40
0.0
 40
0.0
 40
0.1251602541
 40
0.2502837245
 40
0.3753592817
 40
0.5003790434000001
 40
0.6253432712000001
 40
0.7502586988
 40
0.8751367873999999
 40
1.0
 40
1.0
 40
1.0
 40
1.0
 10
57.01642244199996
 20
56.57763610449996
 30
0.0
 10
57.01792064319994
 20
56.52960722019992
 30
0.0
 10
57.02933804819991
 20
56.43361516229993
 30
0.0
 10
57.07118979869995
 20
56.29498422669996
 30
0.0
 10
57.1364937987999
 20
56.16574559169999
 30
0.0
 10
57.22325746609993
 20
56.0499053643
 30
0.0
 10
57.32882701099993
 20
55.95098905239996
 30
0.0
 10
57.44999343909995
 20
55.87202295499998
 30
0.0
 10
57.58299830709995
 20
55.81542926319997
 30
0.0
 10
57.67699452609992
 20
55.79374315889999
 30
0.0
 10
57.7244706887999
 20
55.78710347689991
 30
0.0
1001
ACAD
1000
RTMaterial
1005
0
  0
SPLINE
  5
60542
330
1F
100
AcDbEntity
  8
1
100
AcDbSpline
210
0.0
220
0.0
230
1.0
 70
     8
 71
     3
 72
     8
 73
     4
 74
     0
 42
0.0000000001
 43
0.0000000001
 40
0.0
 40
0.0
 40
0.0
 40
0.0
 40
1.0
 40
1.0
 40
1.0
 40
1.0
 10
54.64833787319992
 20
54.20987422069998
 30
0.0
 10
54.66901142689994
 20
54.20999890739995
 30
0.0
 10
54.6897043411999
 20
54.20933933029999
 30
0.0
 10
54.71032833999993
 20
54.20790334939994
 30
0.0
1001
ACAD
1000
RTMaterial
1005
0
  0
SPLINE
  5
60543
330
1F
100
AcDbEntity
  8
1
100
AcDbSpline
210
0.0
220
0.0
230
1.0
 70
     8
 71
     3
 72
     8
 73
     4
 74
     0
 42
0.0000000001
 43
0.0000000001
 40
0.0
 40
0.0
 40
0.0
 40
0.0
 40
1.0
 40
1.0
 40
1.0
 40
1.0
 10
54.71032833999993
 20
54.20790334939994
 30
0.0
 10
54.72930507679996
 20
54.20658206189995
 30
0.0
 10
54.74824742619995
 20
54.20460183669996
 30
0.0
 10
54.76708689059989
 20
54.20196803329992
 30
0.0
1001
ACAD
1000
RTMaterial
1005
0
  0
SPLINE
  5
60544
330
1F
100
AcDbEntity
  8
1
100
AcDbSpline
210
0.0
220
0.0
230
1.0
 70
     8
 71
     3
 72
    15
 73
    11
 74
     0
 42
0.0000000001
 43
0.0000000001
 40
0.0
 40
0.0
 40
0.0
 40
0.0
 40
0.1248035261
 40
0.2496613061
 40
0.3746006319
 40
0.499629273
 40
0.6247274788000001
 40
0.7498557666
 40
0.8749517093000001
 40
1.0
 40
1.0
 40
1.0
 40
1.0
 10
57.44133955419994
 20
53.54117620719989
 30
0.0
 10
57.47188251279993
 20
53.53690179389997
 30
0.0
 10
57.53455223809993
 20
53.53702944239995
 30
0.0
 10
57.62451614669993
 20
53.56341729399992
 30
0.0
 10
57.70368426119995
 20
53.61386213589992
 30
0.0
 10
57.76571107279995
 20
53.68438030229992
 30
0.0
 10
57.80573126319996
 20
53.76939243009991
 30
0.0
 10
57.82056195879988
 20
53.8622048343999
 30
0.0
 10
57.80910404769992
 20
53.9554147275
 30
0.0
 10
57.7843950429999
 20
54.01313256439994
 30
0.0
 10
57.76837202639995
 20
54.03955490889996
 30
0.0
1001
ACAD
1000
RTMaterial
1005
0
  0
SPLINE
  5
60545
330
1F
100
AcDbEntity
  8
1
100
AcDbSpline
210
0.0
220
0.0
230
1.0
 70
     8
 71
     3
 72
    15
 73
    11
 74
     0
 42
0.0000000001
 43
0.0000000001
 40
0.0
 40
0.0
 40
0.0
 40
0.0
 40
0.1248198495
 40
0.2497009272
 40
0.3746642443
 40
0.4997044267000001
 40
0.6247961708
 40
0.7499053905
 40
0.8749776184999998
 40
1.0
 40
1.0
 40
1.0
 40
1.0
 10
57.37833385189992
 20
53.55653502389998
 30
0.0
 10
57.40643494079989
 20
53.55822308309996
 30
0.0
 10
57.46248083799992
 20
53.56891411799995
 30
0.0
 10
57.53949808409993
 20
53.60581011469992
 30
0.0
 10
57.60468423229991
 20
53.6611325618
 30
0.0
 10
57.65367881609996
 20
53.73124139659996
 30
0.0
 10
57.68328990749996
 20
53.81151802499999
 30
0.0
 10
57.69154956699992
 20
53.89670025019995
 30
0.0
 10
57.67796580559991
 20
53.98112943849998
 30
0.0
 10
57.65483118169993
 20
54.03337921409996
 30
0.0
 10
57.64021008599991
 20
54.05748975680001
 30
0.0
1001
ACAD
1000
RTMaterial
1005
0
  0
SPLINE
  5
60546
330
1F
100
AcDbEntity
  8
1
100
AcDbSpline
210
0.0
220
0.0
230
1.0
 70
     8
 71
     3
 72
    11
 73
     7
 74
     0
 42
0.0000000001
 43
0.0000000001
 40
0.0
 40
0.0
 40
0.0
 40
0.0
 40
0.2497812734
 40
0.4996706779000001
 40
0.7497377359000001
 40
1.0
 40
1.0
 40
1.0
 40
1.0
 10
57.05688746779992
 20
53.66685675739995
 30
0.0
 10
56.97510242139992
 20
53.67829821409992
 30
0.0
 10
56.80692102849992
 20
53.67627648299992
 30
0.0
 10
56.56781018689992
 20
53.59811325589993
 30
0.0
 10
56.36258987079992
 20
53.45236178729994
 30
0.0
 10
56.2606472761999
 20
53.31833340599996
 30
0.0
 10
56.22098335199996
 20
53.24571960679998
 30
0.0
1001
ACAD
1000
RTMaterial
1005
0
  0
SPLINE
  5
60547
330
1F
100
AcDbEntity
  8
1
100
AcDbSpline
210
0.0
220
0.0
230
1.0
 70
     8
 71
     3
 72
    11
 73
     7
 74
     0
 42
0.0000000001
 43
0.0000000001
 40
0.0
 40
0.0
 40
0.0
 40
0.0
 40
0.2502996486
 40
0.5003874572
 40
0.7502656923000001
 40
1.0
 40
1.0
 40
1.0
 40
1.0
 10
57.01642244199996
 20
56.57763610449996
 30
0.0
 10
57.01522836869992
 20
56.61591534719992
 30
0.0
 10
56.99926614749995
 20
56.69268443519996
 30
0.0
 10
56.93747630949997
 20
56.79213658089992
 30
0.0
 10
56.8454796956999
 20
56.86443240369993
 30
0.0
 10
56.77099753039994
 20
56.8886066428999
 30
0.0
 10
56.73315477409994
 20
56.89390134329994
 30
0.0
1001
ACAD
1000
RTMaterial
1005
0
  0
SPLINE
  5
60548
330
1F
100
AcDbEntity
  8
1
100
AcDbSpline
210
0.0
220
0.0
230
1.0
 70
     8
 71
     3
 72
    11
 73
     7
 74
     0
 42
0.0000000001
 43
0.0000000001
 40
0.0
 40
0.0
 40
0.0
 40
0.0
 40
0.2497807494
 40
0.499671638
 40
0.7497263809
 40
1.0
 40
1.0
 40
1.0
 40
1.0
 10
55.88656510419991
 20
53.07723788869992
 30
0.0
 10
55.9192844957999
 20
53.07266001439995
 30
0.0
 10
55.98656874089994
 20
53.07346738309997
 30
0.0
 10
56.08222731069992
 20
53.10473892549993
 30
0.0
 10
56.16433042049994
 20
53.16304735069997
 30
0.0
 10
56.20511438729995
 20
53.21666787179998
 30
0.0
 10
56.22098335199996
 20
53.24571960679998
 30
0.0
1001
ACAD
1000
RTMaterial
1005
0
  0
SPLINE
  5
60549
330
1F
100
AcDbEntity
  8
1
100
AcDbSpline
210
0.0
220
0.0
230
1.0
 70
     8
 71
     3
 72
    11
 73
     7
 74
     0
 42
0.0000000001
 43
0.0000000001
 40
0.0
 40
0.0
 40
0.0
 40
0.0
 40
0.2497849674
 40
0.4997030093000001
 40
0.7497650819000001
 40
1.0
 40
1.0
 40
1.0
 40
1.0
 10
55.82350790329991
 20
53.09259034199993
 30
0.0
 10
55.85111596349992
 20
53.09423864179996
 30
0.0
 10
55.9061770136999
 20
53.10461028339995
 30
0.0
 10
55.98207024049992
 20
53.14032250579993
 30
0.0
 10
56.04668884999995
 20
53.19387456229993
 30
0.0
 10
56.07953928299991
 20
53.23933850909992
 30
0.0
 10
56.09282141159991
 20
53.26365445469992
 30
0.0
1001
ACAD
1000
RTMaterial
1005
0
  0
SPLINE
  5
6054A
330
1F
100
AcDbEntity
  8
1
100
AcDbSpline
210
0.0
220
0.0
230
1.0
 70
     8
 71
     3
 72
     9
 73
     5
 74
     0
 42
0.0000000001
 43
0.0000000001
 40
0.0
 40
0.0
 40
0.0
 40
0.0
 40
0.5000427267000001
 40
1.0
 40
1.0
 40
1.0
 40
1.0
 10
55.28823711939992
 20
56.39404992389995
 30
0.0
 10
55.33082679979992
 20
56.37117840719992
 30
0.0
 10
55.42022098559994
 20
56.33289914539989
 30
0.0
 10
55.51496442119992
 20
56.31097904759991
 30
0.0
 10
55.56283241039995
 20
56.3042824746999
 30
0.0
1001
ACAD
1000
RTMaterial
1005
0
  0
SPLINE
  5
6054B
330
1F
100
AcDbEntity
  8
1
100
AcDbSpline
210
0.0
220
0.0
230
1.0
 70
     8
 71
     3
 72
     9
 73
     5
 74
     0
 42
0.0000000001
 43
0.0000000001
 40
0.0
 40
0.0
 40
0.0
 40
0.0
 40
0.7495490479000001
 40
1.0
 40
1.0
 40
1.0
 40
1.0
 10
55.28823711939992
 20
56.39404992389995
 30
0.0
 10
55.2627214664999
 20
56.40775234379993
 30
0.0
 10
55.22597899419992
 20
56.42159030019996
 30
0.0
 10
55.18796420279994
 20
56.42862178409996
 30
0.0
 10
55.17838032409992
 20
56.42996302479992
 30
0.0
1001
ACAD
1000
RTMaterial
1005
0
  0
SPLINE
  5
6054C
330
1F
100
AcDbEntity
  8
1
100
AcDbSpline
210
0.0
220
0.0
230
1.0
 70
     8
 71
     3
 72
     8
 73
     4
 74
     0
 42
0.0000000001
 43
0.0000000001
 40
0.0
 40
0.0
 40
0.0
 40
0.0
 40
1.0
 40
1.0
 40
1.0
 40
1.0
 10
54.89524918949996
 20
54.1840357550999
 30
0.0
 10
54.85134284849994
 20
54.19017618699996
 30
0.0
 10
54.80679296509993
 20
54.19276317599997
 30
0.0
 10
54.76247126479996
 20
54.19173431389999
 30
0.0
1001
ACAD
1000
RTMaterial
1005
0
  0
SPLINE
  5
6054D
330
1F
100
AcDbEntity
  8
1
100
AcDbSpline
210
0.0
220
0.0
230
1.0
 70
     8
 71
     3
 72
    27
 73
    23
 74
     0
 42
0.0000000001
 43
0.0000000001
 40
0.0
 40
0.0
 40
0.0
 40
0.0
 40
0.0624189136
 40
0.0936574536
 40
0.1248956952
 40
0.187296672
 40
0.2497075133
 40
0.2809578771
 40
0.3122145852
 40
0.3746743718
 40
0.4371656960000001
 40
0.4996869511
 40
0.5622320427
 40
0.6247912526000001
 40
0.6873526613
 40
0.718667932
 40
0.7499792088
 40
0.8125099985999998
 40
0.8750126935
 40
0.9062897940999999
 40
0.9375572100999999
 40
1.0
 40
1.0
 40
1.0
 40
1.0
 10
55.64232396629989
 20
57.23872665639999
 30
0.0
 10
55.78919897109995
 20
57.28255371849996
 30
0.0
 10
56.01689055409991
 20
57.32673048119995
 30
0.0
 10
56.3236407450999
 20
57.34019846359996
 30
0.0
 10
56.63028739289996
 20
57.32353628749996
 30
0.0
 10
57.00827700189989
 20
57.24618195899989
 30
0.0
 10
57.36381859589994
 20
57.09625142549993
 30
0.0
 10
57.62625463619992
 20
56.93660658599998
 30
0.0
 10
57.8718749823999
 20
56.75194708129993
 30
0.0
 10
58.1431702207999
 20
56.47698788759993
 30
0.0
 10
58.39786952689991
 20
56.09003423359997
 30
0.0
 10
58.57240710179997
 20
55.66061372289993
 30
0.0
 10
58.65996527199996
 20
55.20525666959997
 30
0.0
 10
58.65727178199995
 20
54.74154490689994
 30
0.0
 10
58.57973858749994
 20
54.36258022409993
 30
0.0
 10
58.47455971649992
 20
54.07327384809997
 30
0.0
 10
58.34167246879991
 20
53.79567680479993
 30
0.0
 10
58.12555118779994
 20
53.47520210849996
 30
0.0
 10
57.85109092059991
 20
53.20314383529995
 30
0.0
 10
57.60330588449995
 20
53.02102451279996
 30
0.0
 10
57.33910989189991
 20
52.86413425689994
 30
0.0
 10
57.12432709889992
 20
52.77625640229996
 30
0.0
 10
56.97739591189992
 20
52.73241257559994
 30
0.0
1001
ACAD
1000
RTMaterial
1005
0
  0
SPLINE
  5
6054E
330
1F
100
AcDbEntity
  8
1
100
AcDbSpline
210
0.0
220
0.0
230
1.0
 70
     8
 71
     3
 72
     8
 73
     4
 74
     0
 42
0.0000000001
 43
0.0000000001
 40
0.0
 40
0.0
 40
0.0
 40
0.0
 40
1.0
 40
1.0
 40
1.0
 40
1.0
 10
54.70935145059991
 20
54.19481703639997
 30
0.0
 10
54.7269170813999
 20
54.19236176149991
 30
0.0
 10
54.74473964519996
 20
54.1913227007999
 30
0.0
 10
54.76247126479996
 20
54.19173431389999
 30
0.0
1001
ACAD
1000
RTMaterial
1005
0
  0
SPLINE
  5
60551
330
1F
100
AcDbEntity
  8
1
100
AcDbSpline
210
0.0
220
0.0
230
1.0
 70
     8
 71
     3
 72
     9
 73
     5
 74
     0
 42
0.0000000001
 43
0.0000000001
 40
0.0
 40
0.0
 40
0.0
 40
0.0
 40
0.2479593616
 40
1.0
 40
1.0
 40
1.0
 40
1.0
 10
55.02850853960001
 20
61.96103357659996
 30
0.0
 10
55.12941804569999
 20
61.9708301711999
 30
0.0
 10
55.53629739960001
 20
62.01116346729993
 30
0.0
 10
55.94285298619997
 20
62.05476639929997
 30
0.0
 10
56.24838147059995
 20
62.0894360014999
 30
0.0
1001
ACAD
1000
RTMaterial
1005
0
  0
LINE
  5
60552
330
1F
100
AcDbEntity
  8
1
100
AcDbLine
 10
54.6962188841
 20
61.86415013859999
 30
0.0
 11
54.7006953257
 21
61.86646217619994
 31
0.0
1001
ACAD
1000
RTMaterial
1005
0
  0
LINE
  5
60553
330
1F
100
AcDbEntity
  8
1
100
AcDbLine
 10
54.7006953257
 20
61.86646217619994
 30
0.0
 11
54.70934690439998
 21
61.87081877259993
 31
0.0
1001
ACAD
1000
RTMaterial
1005
0
  0
SPLINE
  5
60554
330
1F
100
AcDbEntity
  8
1
100
AcDbSpline
210
0.0
220
0.0
230
1.0
 70
     8
 71
     3
 72
     8
 73
     4
 74
     0
 42
0.0000000001
 43
0.0000000001
 40
0.0
 40
0.0
 40
0.0
 40
0.0
 40
1.0
 40
1.0
 40
1.0
 40
1.0
 10
54.70934690439998
 20
61.87081877259993
 30
0.0
 10
54.72951927930001
 20
61.88080651729996
 30
0.0
 10
54.75018650719994
 20
61.88985231489994
 30
0.0
 10
54.7712140722
 20
61.89788482829993
 30
0.0
1001
ACAD
1000
RTMaterial
1005
0
  0
SPLINE
  5
60555
330
1F
100
AcDbEntity
  8
1
100
AcDbSpline
210
0.0
220
0.0
230
1.0
 70
     8
 71
     3
 72
     9
 73
     5
 74
     0
 42
0.0000000001
 43
0.0000000001
 40
0.0
 40
0.0
 40
0.0
 40
0.0
 40
0.2498748411
 40
1.0
 40
1.0
 40
1.0
 40
1.0
 10
51.54799209049992
 20
50.23920488849995
 30
0.0
 10
51.48725203449993
 20
50.3231275453
 30
0.0
 10
51.24388887869992
 20
50.65878265019995
 30
0.0
 10
50.99940300069994
 20
50.9936239557
 30
0.0
 10
50.81533797679992
 20
51.24430388579992
 30
0.0
1001
ACAD
1000
RTMaterial
1005
0
  0
SPLINE
  5
60556
330
1F
100
AcDbEntity
  8
1
100
AcDbSpline
210
0.0
220
0.0
230
1.0
 70
     8
 71
     3
 72
     8
 73
     4
 74
     0
 42
0.0000000001
 43
0.0000000001
 40
0.0
 40
0.0
 40
0.0
 40
0.0
 40
1.0
 40
1.0
 40
1.0
 40
1.0
 10
51.78711045229994
 20
50.00577089759992
 30
0.0
 10
51.76964549429993
 20
50.01767713719994
 30
0.0
 10
51.75266973609996
 20
50.03033498279996
 30
0.0
 10
51.73627825979991
 20
50.04368049889996
 30
0.0
1001
ACAD
1000
RTMaterial
1005
0
  0
SPLINE
  5
60557
330
1F
100
AcDbEntity
  8
1
100
AcDbSpline
210
0.0
220
0.0
230
1.0
 70
     8
 71
     3
 72
     9
 73
     5
 74
     0
 42
0.0000000001
 43
0.0000000001
 40
0.0
 40
0.0
 40
0.0
 40
0.0
 40
0.2496740753
 40
1.0
 40
1.0
 40
1.0
 40
1.0
 10
63.38404129859992
 20
53.0693004268
 30
0.0
 10
63.34012359089996
 20
52.97558401989994
 30
0.0
 10
63.16555768109992
 20
52.59960563329991
 30
0.0
 10
62.99632321389992
 20
52.22114864229997
 30
0.0
 10
62.87256838209993
 20
51.93579904679996
 30
0.0
1001
ACAD
1000
RTMaterial
1005
0
  0
SPLINE
  5
60558
330
1F
100
AcDbEntity
  8
1
100
AcDbSpline
210
0.0
220
0.0
230
1.0
 70
     8
 71
     3
 72
     9
 73
     5
 74
     0
 42
0.0000000001
 43
0.0000000001
 40
0.0
 40
0.0
 40
0.0
 40
0.0
 40
0.2567257741
 40
1.0
 40
1.0
 40
1.0
 40
1.0
 10
53.2263273726
 20
61.34716495969991
 30
0.0
 10
53.20254954019998
 20
61.3425762839999
 30
0.0
 10
53.11036415770002
 20
61.32253372849999
 30
0.0
 10
53.02002245249997
 20
61.29392243369995
 30
0.0
 10
52.95491881049997
 20
61.26789942269994
 30
0.0
1001
ACAD
1000
RTMaterial
1005
0
  0
SPLINE
  5
60559
330
1F
100
AcDbEntity
  8
1
100
AcDbSpline
210
0.0
220
0.0
230
1.0
 70
     8
 71
     3
 72
     9
 73
     5
 74
     0
 42
0.0000000001
 43
0.0000000001
 40
0.0
 40
0.0
 40
0.0
 40
0.0
 40
0.501675589
 40
1.0
 40
1.0
 40
1.0
 40
1.0
 10
48.57413047129989
 20
54.29662544069998
 30
0.0
 10
48.53126056899992
 20
54.35501037419993
 30
0.0
 10
48.4540760523999
 20
54.47772920039989
 30
0.0
 10
48.39630752549993
 20
54.61075760589995
 30
0.0
 10
48.37285567699996
 20
54.67877803849995
 30
0.0
1001
ACAD
1000
RTMaterial
1005
0
  0
LINE
  5
6055A
330
1F
100
AcDbEntity
  8
1
100
AcDbLine
 10
47.6462249336999
 20
56.00501015319998
 30
0.0
 11
47.64245781409994
 21
55.97434649839994
 31
0.0
1001
ACAD
1000
RTMaterial
1005
0
  0
SPLINE
  5
6055B
330
1F
100
AcDbEntity
  8
1
100
AcDbSpline
210
0.0
220
0.0
230
1.0
 70
     8
 71
     3
 72
     9
 73
     5
 74
     0
 42
0.0000000001
 43
0.0000000001
 40
0.0
 40
0.0
 40
0.0
 40
0.0
 40
0.2493217228
 40
1.0
 40
1.0
 40
1.0
 40
1.0
 10
47.69825798469992
 20
56.23760175369994
 30
0.0
 10
47.6922699879999
 20
56.21870610539992
 30
0.0
 10
47.66991019649992
 20
56.14240206909994
 30
0.0
 10
47.65418734199994
 20
56.06415754249997
 30
0.0
 10
47.64622477319995
 20
56.00501016809994
 30
0.0
1001
ACAD
1000
RTMaterial
1005
0
  0
SPLINE
  5
6055C
330
1F
100
AcDbEntity
  8
1
100
AcDbSpline
210
0.0
220
0.0
230
1.0
 70
     8
 71
     3
 72
     9
 73
     5
 74
     0
 42
0.0000000001
 43
0.0000000001
 40
0.0
 40
0.0
 40
0.0
 40
0.0
 40
0.2491525352
 40
1.0
 40
1.0
 40
1.0
 40
1.0
 10
47.73037341609994
 20
56.32874572779996
 30
0.0
 10
47.72746611519994
 20
56.32126423879992
 30
0.0
 10
47.71603494829991
 20
56.29114472049991
 30
0.0
 10
47.70556339119991
 20
56.26066088099998
 30
0.0
 10
47.69825614919989
 20
56.23760223709997
 30
0.0
1001
ACAD
1000
RTMaterial
1005
0
  0
SPLINE
  5
6055D
330
1F
100
AcDbEntity
  8
1
100
AcDbSpline
210
0.0
220
0.0
230
1.0
 70
     8
 71
     3
 72
    11
 73
     7
 74
     0
 42
0.0000000001
 43
0.0000000001
 40
0.0
 40
0.0
 40
0.0
 40
0.0
 40
0.2482991202
 40
0.4971764117000001
 40
0.7476319500000001
 40
1.0
 40
1.0
 40
1.0
 40
1.0
 10
47.64050718129988
 20
55.94390263409991
 30
0.0
 10
47.63630294569992
 20
55.86412750529996
 30
0.0
 10
47.64135545219988
 20
55.70335063259995
 30
0.0
 10
47.68997944429992
 20
55.46658292519992
 30
0.0
 10
47.77954739069992
 20
55.24066220659995
 30
0.0
 10
47.86445032339992
 20
55.10187981999997
 30
0.0
 10
47.91250562349989
 20
55.03643284359998
 30
0.0
1001
ACAD
1000
RTMaterial
1005
0
  0
LINE
  5
6055E
330
1F
100
AcDbEntity
  8
1
100
AcDbLine
 10
47.64245781409994
 20
55.97434649839994
 30
0.0
 11
47.64050718129988
 21
55.94390263409991
 31
0.0
1001
ACAD
1000
RTMaterial
1005
0
  0
SPLINE
  5
6055F
330
1F
100
AcDbEntity
  8
1
100
AcDbSpline
210
0.0
220
0.0
230
1.0
 70
     8
 71
     3
 72
     9
 73
     5
 74
     0
 42
0.0000000001
 43
0.0000000001
 40
0.0
 40
0.0
 40
0.0
 40
0.0
 40
0.4973933731000001
 40
1.0
 40
1.0
 40
1.0
 40
1.0
 10
60.71710645109994
 20
47.73744815019995
 30
0.0
 10
60.63205807049991
 20
47.69668157859996
 30
0.0
 10
60.4519581502999
 20
47.63250224659993
 30
0.0
 10
60.26241613839994
 20
47.60749506969989
 30
0.0
 10
60.16715117359996
 20
47.60481801279996
 30
0.0
1001
ACAD
1000
RTMaterial
1005
0
  0
SPLINE
  5
60560
330
1F
100
AcDbEntity
  8
1
100
AcDbSpline
210
0.0
220
0.0
230
1.0
 70
     8
 71
     3
 72
     9
 73
     5
 74
     0
 42
0.0000000001
 43
0.0000000001
 40
0.0
 40
0.0
 40
0.0
 40
0.0
 40
0.2490451083
 40
1.0
 40
1.0
 40
1.0
 40
1.0
 10
60.9584460275999
 20
47.89964673299993
 30
0.0
 10
60.94383643409992
 20
47.88714884439992
 30
0.0
 10
60.88405202189995
 20
47.83829090849997
 30
0.0
 10
60.81989695559991
 20
47.79479157119993
 30
0.0
 10
60.76987463949996
 20
47.76548958719991
 30
0.0
1001
ACAD
1000
RTMaterial
1005
0
  0
SPLINE
  5
60561
330
1F
100
AcDbEntity
  8
1
100
AcDbSpline
210
0.0
220
0.0
230
1.0
 70
     8
 71
     3
 72
     9
 73
     5
 74
     0
 42
0.0000000001
 43
0.0000000001
 40
0.0
 40
0.0
 40
0.0
 40
0.0
 40
0.5012706207000001
 40
1.0
 40
1.0
 40
1.0
 40
1.0
 10
61.36426486189993
 20
48.45800434979992
 30
0.0
 10
61.31807793389993
 20
48.35150813539991
 30
0.0
 10
61.20380292399989
 20
48.14783927859997
 30
0.0
 10
61.04620827189989
 20
47.97472109979992
 30
0.0
 10
60.95844717829994
 20
47.89964520259991
 30
0.0
1001
ACAD
1000
RTMaterial
1005
0
  0
SPLINE
  5
60562
330
1F
100
AcDbEntity
  8
1
100
AcDbSpline
210
0.0
220
0.0
230
1.0
 70
     8
 71
     3
 72
     9
 73
     5
 74
     0
 42
0.0000000001
 43
0.0000000001
 40
0.0
 40
0.0
 40
0.0
 40
0.0
 40
0.4987360353
 40
1.0
 40
1.0
 40
1.0
 40
1.0
 10
60.96780067919997
 20
62.29670880489994
 30
0.0
 10
61.10100722700003
 20
62.20519638669998
 30
0.0
 10
61.33939949719996
 20
61.97549445659996
 30
0.0
 10
61.48616411109998
 20
61.6784993153999
 30
0.0
 10
61.53271046769998
 20
61.52287994949995
 30
0.0
1001
ACAD
1000
RTMaterial
1005
0
  0
SPLINE
  5
60563
330
1F
100
AcDbEntity
  8
1
100
AcDbSpline
210
0.0
220
0.0
230
1.0
 70
     8
 71
     3
 72
     9
 73
     5
 74
     0
 42
0.0000000001
 43
0.0000000001
 40
0.0
 40
0.0
 40
0.0
 40
0.0
 40
0.2492241108
 40
1.0
 40
1.0
 40
1.0
 40
1.0
 10
60.69643344129997
 20
62.43215215299994
 30
0.0
 10
60.71527568589999
 20
62.42522969359999
 30
0.0
 10
60.7902741501
 20
62.39583180069996
 30
0.0
 10
60.86275393749997
 20
62.36002093899992
 30
0.0
 10
60.91516481739995
 20
62.32985763129994
 30
0.0
1001
ACAD
1000
RTMaterial
1005
0
  0
SPLINE
  5
60564
330
1F
100
AcDbEntity
  8
1
100
AcDbSpline
210
0.0
220
0.0
230
1.0
 70
     8
 71
     3
 72
     9
 73
     5
 74
     0
 42
0.0000000001
 43
0.0000000001
 40
0.0
 40
0.0
 40
0.0
 40
0.0
 40
0.4950561726
 40
1.0
 40
1.0
 40
1.0
 40
1.0
 10
59.99789239619997
 20
62.51490910249998
 30
0.0
 10
60.1140148243
 20
62.5280860025
 30
0.0
 10
60.35236368609997
 20
62.52826466789992
 30
0.0
 10
60.58454456879997
 20
62.47326109839992
 30
0.0
 10
60.69643414749998
 20
62.43215394149991
 30
0.0
1001
ACAD
1000
RTMaterial
1005
0
  0
SPLINE
  5
60565
330
1F
100
AcDbEntity
  8
1
100
AcDbSpline
210
0.0
220
0.0
230
1.0
 70
     8
 71
     3
 72
     9
 73
     5
 74
     0
 42
0.0000000001
 43
0.0000000001
 40
0.0
 40
0.0
 40
0.0
 40
0.0
 40
0.7496191467000001
 40
1.0
 40
1.0
 40
1.0
 40
1.0
 10
63.46355001009993
 20
53.32797355319996
 30
0.0
 10
63.45165067369993
 20
53.26131900479992
 30
0.0
 10
63.42725769289995
 20
53.17364765899992
 30
0.0
 10
63.39316787779989
 20
53.08999241479995
 30
0.0
 10
63.38404129859992
 20
53.0693004268
 30
0.0
1001
ACAD
1000
RTMaterial
1005
0
  0
SPLINE
  5
60566
330
1F
100
AcDbEntity
  8
1
100
AcDbSpline
210
0.0
220
0.0
230
1.0
 70
     8
 71
     3
 72
     8
 73
     4
 74
     0
 42
0.0000000001
 43
0.0000000001
 40
0.0
 40
0.0
 40
0.0
 40
0.0
 40
1.0
 40
1.0
 40
1.0
 40
1.0
 10
63.47199999999992
 20
53.38406778329994
 30
0.0
 10
63.46969744869994
 20
53.36529946099995
 30
0.0
 10
63.46687315899993
 20
53.34658828779999
 30
0.0
 10
63.46355001009993
 20
53.32797355319996
 30
0.0
1001
ACAD
1000
RTMaterial
1005
0
  0
LINE
  5
60567
330
1F
100
AcDbEntity
  8
1
100
AcDbLine
 10
63.47384042659996
 20
53.41577373819996
 30
0.0
 11
63.47199999999992
 21
53.38406778329994
 31
0.0
1001
ACAD
1000
RTMaterial
1005
0
  0
SPLINE
  5
60568
330
1F
100
AcDbEntity
  8
1
100
AcDbSpline
210
0.0
220
0.0
230
1.0
 70
     8
 71
     3
 72
     9
 73
     5
 74
     0
 42
0.0000000001
 43
0.0000000001
 40
0.0
 40
0.0
 40
0.0
 40
0.0
 40
0.2434504122
 40
1.0
 40
1.0
 40
1.0
 40
1.0
 10
63.50058650459994
 20
54.72283465189992
 30
0.0
 10
63.50229583499992
 20
54.61674494949995
 30
0.0
 10
63.5054756854999
 20
54.18091598749999
 30
0.0
 10
63.49255661029991
 20
53.74497063619992
 30
0.0
 10
63.47384150749991
 20
53.41577369609996
 30
0.0
1001
ACAD
1000
RTMaterial
1005
0
  0
LINE
  5
60569
330
1F
100
AcDbEntity
  8
1
100
AcDbLine
 10
63.49999999999994
 20
54.75602156789989
 30
0.0
 11
63.50058541799995
 21
54.72283462039991
 31
0.0
1001
ACAD
1000
RTMaterial
1005
0
  0
SPLINE
  5
6056A
330
1F
100
AcDbEntity
  8
1
100
AcDbSpline
210
0.0
220
0.0
230
1.0
 70
     8
 71
     3
 72
     9
 73
     5
 74
     0
 42
0.0000000001
 43
0.0000000001
 40
0.0
 40
0.0
 40
0.0
 40
0.0
 40
0.2584941647
 40
1.0
 40
1.0
 40
1.0
 40
1.0
 10
63.43637431879989
 20
55.15832412239996
 30
0.0
 10
63.44644869079991
 20
55.12464227089992
 30
0.0
 10
63.48104092609992
 20
54.99307714519995
 30
0.0
 10
63.49806803979993
 20
54.85685077909995
 30
0.0
 10
63.5000004687999
 20
54.75602158229992
 30
0.0
1001
ACAD
1000
RTMaterial
1005
0
  0
SPLINE
  5
6056B
330
1F
100
AcDbEntity
  8
1
100
AcDbSpline
210
0.0
220
0.0
230
1.0
 70
     8
 71
     3
 72
     9
 73
     5
 74
     0
 42
0.0000000001
 43
0.0000000001
 40
0.0
 40
0.0
 40
0.0
 40
0.0
 40
0.2428026603
 40
1.0
 40
1.0
 40
1.0
 40
1.0
 10
52.92457528839998
 20
61.25572758219994
 30
0.0
 10
52.87848379079997
 20
61.23717104579992
 30
0.0
 10
52.68896759079996
 20
61.15996448959998
 30
0.0
 10
52.50087229180002
 20
61.07927243309996
 30
0.0
 10
52.35928643609998
 20
61.01631655
 30
0.0
1001
ACAD
1000
RTMaterial
1005
0
  0
LINE
  5
6056C
330
1F
100
AcDbEntity
  8
1
100
AcDbLine
 10
52.95491898159998
 20
61.26789898339996
 30
0.0
 11
52.92457568790002
 21
61.25572656199995
 31
0.0
1001
ACAD
1000
RTMaterial
1005
0
  0
SPLINE
  5
6056D
330
1F
100
AcDbEntity
  8
1
100
AcDbSpline
210
0.0
220
0.0
230
1.0
 70
     8
 71
     3
 72
     9
 73
     5
 74
     0
 42
0.0000000001
 43
0.0000000001
 40
0.0
 40
0.0
 40
0.0
 40
0.0
 40
0.2504623937
 40
1.0
 40
1.0
 40
1.0
 40
1.0
 10
54.77121399869997
 20
61.8978850169999
 30
0.0
 10
54.79190550989994
 20
61.90578915849994
 30
0.0
 10
54.87552444309995
 20
61.93467088329993
 30
0.0
 10
54.96270392689996
 20
61.95306059259991
 30
0.0
 10
55.02850853960001
 20
61.96103357659996
 30
0.0
1001
ACAD
1000
RTMaterial
1005
0
  0
SPLINE
  5
6056E
330
1F
100
AcDbEntity
  8
1
100
AcDbSpline
210
0.0
220
0.0
230
1.0
 70
     8
 71
     3
 72
     9
 73
     5
 74
     0
 42
0.0000000001
 43
0.0000000001
 40
0.0
 40
0.0
 40
0.0
 40
0.0
 40
0.2578430942
 40
1.0
 40
1.0
 40
1.0
 40
1.0
 10
51.83845683899988
 20
49.68964124989998
 30
0.0
 10
51.85924828549992
 20
49.66132517939991
 30
0.0
 10
51.94353830459994
 20
49.55423916279994
 30
0.0
 10
52.04208941629992
 20
49.45835783949997
 30
0.0
 10
52.12142139669992
 20
49.39566382219993
 30
0.0
1001
ACAD
1000
RTMaterial
1005
0
  0
SPLINE
  5
6056F
330
1F
100
AcDbEntity
  8
1
100
AcDbSpline
210
0.0
220
0.0
230
1.0
 70
     8
 71
     3
 72
    10
 73
     6
 74
     0
 42
0.0000000001
 43
0.0000000001
 40
0.0
 40
0.0
 40
0.0
 40
0.0
 40
0.2422545235
 40
0.6222899043
 40
1.0
 40
1.0
 40
1.0
 40
1.0
 10
52.14764154529991
 20
49.37499872799993
 30
0.0
 10
52.22082892449993
 20
49.31747755909992
 30
0.0
 10
52.40994022609993
 20
49.17112808389998
 30
0.0
 10
52.7186339495999
 20
48.9422503618
 30
0.0
 10
52.95650581399991
 20
48.77428628499996
 30
0.0
 10
53.07609918349993
 20
48.6920569218999
 30
0.0
1001
ACAD
1000
RTMaterial
1005
0
  0
LINE
  5
60570
330
1F
100
AcDbEntity
  8
1
100
AcDbLine
 10
52.12142168909991
 20
49.39566419109997
 30
0.0
 11
52.14764222319991
 21
49.37499958659993
 31
0.0
1001
ACAD
1000
RTMaterial
1005
0
  0
SPLINE
  5
60571
330
1F
100
AcDbEntity
  8
1
100
AcDbSpline
210
0.0
220
0.0
230
1.0
 70
     8
 71
     3
 72
     9
 73
     5
 74
     0
 42
0.0000000001
 43
0.0000000001
 40
0.0
 40
0.0
 40
0.0
 40
0.0
 40
0.2503103162
 40
1.0
 40
1.0
 40
1.0
 40
1.0
 10
51.73627813189995
 20
50.04368034179998
 30
0.0
 10
51.71869120999992
 20
50.0579991582
 30
0.0
 10
51.65024611089996
 20
50.11740944599996
 30
0.0
 10
51.58909065039996
 20
50.18512556789989
 30
0.0
 10
51.54799209049992
 20
50.23920488849995
 30
0.0
1001
ACAD
1000
RTMaterial
1005
0
  0
SPLINE
  5
60572
330
1F
100
AcDbEntity
  8
1
100
AcDbSpline
210
0.0
220
0.0
230
1.0
 70
     8
 71
     3
 72
     8
 73
     4
 74
     0
 42
0.0000000001
 43
0.0000000001
 40
0.0
 40
0.0
 40
0.0
 40
0.0
 40
1.0
 40
1.0
 40
1.0
 40
1.0
 10
60.91516606919999
 20
62.32985971519998
 30
0.0
 10
60.9331371939
 20
62.31951703619995
 30
0.0
 10
60.95071064329999
 20
62.30845028819999
 30
0.0
 10
60.96780117589998
 20
62.29670950349998
 30
0.0
1001
ACAD
1000
RTMaterial
1005
0
  0
SPLINE
  5
60573
330
1F
100
AcDbEntity
  8
1
100
AcDbSpline
210
0.0
220
0.0
230
1.0
 70
     8
 71
     3
 72
     8
 73
     4
 74
     0
 42
0.0000000001
 43
0.0000000001
 40
0.0
 40
0.0
 40
0.0
 40
0.0
 40
1.0
 40
1.0
 40
1.0
 40
1.0
 10
60.7698757752999
 20
47.76548743609999
 30
0.0
 10
60.75268869009994
 20
47.75541962209996
 30
0.0
 10
60.7350685516999
 20
47.74605736149993
 30
0.0
 10
60.71710679509994
 20
47.7374473628999
 30
0.0
1001
ACAD
1000
RTMaterial
1005
0
  0
SPLINE
  5
60574
330
1F
100
AcDbEntity
  8
1
100
AcDbSpline
210
0.0
220
0.0
230
1.0
 70
     8
 71
     3
 72
    11
 73
     7
 74
     0
 42
0.0000000001
 43
0.0000000001
 40
0.0
 40
0.0
 40
0.0
 40
0.0
 40
0.2476310057
 40
0.4970906347
 40
0.7482928707
 40
1.0
 40
1.0
 40
1.0
 40
1.0
 10
48.30283568389996
 20
55.23538180239995
 30
0.0
 10
48.3116296400999
 20
55.31515523849998
 30
0.0
 10
48.34276209549995
 20
55.47410210959998
 30
0.0
 10
48.4278343718999
 20
55.7023187632999
 30
0.0
 10
48.54928781659992
 20
55.91491851189994
 30
0.0
 10
48.65164705949997
 20
56.04274035139997
 30
0.0
 10
48.70739137299995
 20
56.10230124239996
 30
0.0
1001
ACAD
1000
RTMaterial
1005
0
  0
LINE
  5
60575
330
1F
100
AcDbEntity
  8
1
100
AcDbLine
 10
48.29980660209992
 20
55.20500257669993
 30
0.0
 11
48.30283568389996
 21
55.23538180239995
 31
0.0
1001
ACAD
1000
RTMaterial
1005
0
  0
LINE
  5
60576
330
1F
100
AcDbEntity
  8
1
100
AcDbLine
 10
48.29850311459995
 20
55.17419126019996
 30
0.0
 11
48.29980660209992
 21
55.20500257669993
 31
0.0
1001
ACAD
1000
RTMaterial
1005
0
  0
SPLINE
  5
60577
330
1F
100
AcDbEntity
  8
1
100
AcDbSpline
210
0.0
220
0.0
230
1.0
 70
     8
 71
     3
 72
     9
 73
     5
 74
     0
 42
0.0000000001
 43
0.0000000001
 40
0.0
 40
0.0
 40
0.0
 40
0.0
 40
0.2484673022
 40
1.0
 40
1.0
 40
1.0
 40
1.0
 10
48.31086564909992
 20
54.93774000759993
 30
0.0
 10
48.30817961619993
 20
54.95717865869995
 30
0.0
 10
48.29905462219989
 20
55.03563773119992
 30
0.0
 10
48.29662982009989
 20
55.11486657860001
 30
0.0
 10
48.29850295049993
 20
55.17419126459998
 30
0.0
1001
ACAD
1000
RTMaterial
1005
0
  0
SPLINE
  5
60578
330
1F
100
AcDbEntity
  8
1
100
AcDbSpline
210
0.0
220
0.0
230
1.0
 70
     8
 71
     3
 72
     9
 73
     5
 74
     0
 42
0.0000000001
 43
0.0000000001
 40
0.0
 40
0.0
 40
0.0
 40
0.0
 40
0.2304774491
 40
1.0
 40
1.0
 40
1.0
 40
1.0
 10
48.19711073079992
 20
55.44366015629993
 30
0.0
 10
48.19497854209993
 20
55.44861520459995
 30
0.0
 10
48.1847098936999
 20
55.46967828949994
 30
0.0
 10
48.17082357139992
 20
55.48883395859997
 30
0.0
 10
48.15912382729994
 20
55.50252703479992
 30
0.0
1001
ACAD
1000
RTMaterial
1005
0
  0
SPLINE
  5
60579
330
1F
100
AcDbEntity
  8
1
100
AcDbSpline
210
0.0
220
0.0
230
1.0
 70
     8
 71
     3
 72
     9
 73
     5
 74
     0
 42
0.0000000001
 43
0.0000000001
 40
0.0
 40
0.0
 40
0.0
 40
0.0
 40
0.2714774794
 40
1.0
 40
1.0
 40
1.0
 40
1.0
 10
47.95852006529992
 20
55.72290046469993
 30
0.0
 10
47.96475475959994
 20
55.7179404000999
 30
0.0
 10
47.98737015879993
 20
55.69924874119994
 30
0.0
 10
48.00856869039995
 20
55.67873285059994
 30
0.0
 10
48.02245709429996
 20
55.6624782239
 30
0.0
1001
ACAD
1000
RTMaterial
1005
0
  0
SPLINE
  5
6057A
330
1F
100
AcDbEntity
  8
1
100
AcDbSpline
210
0.0
220
0.0
230
1.0
 70
     8
 71
     3
 72
     9
 73
     5
 74
     0
 42
0.0000000001
 43
0.0000000001
 40
0.0
 40
0.0
 40
0.0
 40
0.0
 40
0.248159661
 40
1.0
 40
1.0
 40
1.0
 40
1.0
 10
60.16715117359996
 20
47.60481801279996
 30
0.0
 10
60.13563663859992
 20
47.60393241750001
 30
0.0
 10
60.00854980659994
 20
47.60463782699997
 30
0.0
 10
59.88163570579991
 20
47.62233279559995
 30
0.0
 10
59.78869359489994
 20
47.6443577
 30
0.0
1001
ACAD
1000
RTMaterial
1005
0
  0
SPLINE
  5
6057B
330
1F
100
AcDbEntity
  8
1
100
AcDbSpline
210
0.0
220
0.0
230
1.0
 70
     8
 71
     3
 72
     9
 73
     5
 74
     0
 42
0.0000000001
 43
0.0000000001
 40
0.0
 40
0.0
 40
0.0
 40
0.0
 40
0.2485144324
 40
1.0
 40
1.0
 40
1.0
 40
1.0
 10
48.37285567699996
 20
54.67877803849995
 30
0.0
 10
48.36565956029994
 20
54.69964986759993
 30
0.0
 10
48.33869749409996
 20
54.78431012689992
 30
0.0
 10
48.32000185679993
 20
54.87160762759993
 30
0.0
 10
48.31086372089993
 20
54.93773974979996
 30
0.0
1001
ACAD
1000
RTMaterial
1005
0
  0
SPLINE
  5
6057C
330
1F
100
AcDbEntity
  8
1
100
AcDbSpline
210
0.0
220
0.0
230
1.0
 70
     8
 71
     3
 72
     9
 73
     5
 74
     0
 42
0.0000000001
 43
0.0000000001
 40
0.0
 40
0.0
 40
0.0
 40
0.0
 40
0.2594039192
 40
1.0
 40
1.0
 40
1.0
 40
1.0
 10
53.23723186860002
 20
60.94228150139997
 30
0.0
 10
53.26118534869999
 20
60.9678749743
 30
0.0
 10
53.35664349540002
 20
61.06356526159993
 30
0.0
 10
53.46415774129997
 20
61.14728762789991
 30
0.0
 10
53.54884130669995
 20
61.20062219479996
 30
0.0
1001
ACAD
1000
RTMaterial
1005
0
  0
SPLINE
  5
6057D
330
1F
100
AcDbEntity
  8
1
100
AcDbSpline
210
0.0
220
0.0
230
1.0
 70
     8
 71
     3
 72
     9
 73
     5
 74
     0
 42
0.0000000001
 43
0.0000000001
 40
0.0
 40
0.0
 40
0.0
 40
0.0
 40
0.2436363991
 40
1.0
 40
1.0
 40
1.0
 40
1.0
 10
53.57656657529997
 20
61.21805395649994
 30
0.0
 10
53.6651784975
 20
61.27366699519996
 30
0.0
 10
54.03090718399994
 20
61.4986898807
 30
0.0
 10
54.40503022939998
 20
61.71006989609998
 30
0.0
 10
54.69209441639998
 20
61.86198598579995
 30
0.0
1001
ACAD
1000
RTMaterial
1005
0
  0
LINE
  5
6057E
330
1F
100
AcDbEntity
  8
1
100
AcDbLine
 10
53.54884157179998
 20
61.20062176459999
 30
0.0
 11
53.57656714839999
 21
61.21805302289994
 31
0.0
1001
ACAD
1000
RTMaterial
1005
0
  0
SPLINE
  5
6057F
330
1F
100
AcDbEntity
  8
1
100
AcDbSpline
210
0.0
220
0.0
230
1.0
 70
     8
 71
     3
 72
     9
 73
     5
 74
     0
 42
0.0000000001
 43
0.0000000001
 40
0.0
 40
0.0
 40
0.0
 40
0.0
 40
0.2435088423
 40
1.0
 40
1.0
 40
1.0
 40
1.0
 10
52.94436609569993
 20
49.32865028339995
 30
0.0
 10
52.85026151059992
 20
49.37910901189991
 30
0.0
 10
52.4656240541999
 20
49.58969159639997
 30
0.0
 10
52.08868685929991
 20
49.81433771409996
 30
0.0
 10
51.80840824269996
 20
49.99177431549992
 30
0.0
1001
ACAD
1000
RTMaterial
1005
0
  0
LINE
  5
60580
330
1F
100
AcDbEntity
  8
1
100
AcDbLine
 10
52.97380762729995
 20
49.31289555949996
 30
0.0
 11
52.94436661429995
 21
49.32865124860001
 31
0.0
1001
ACAD
1000
RTMaterial
1005
0
  0
SPLINE
  5
60581
330
1F
100
AcDbEntity
  8
1
100
AcDbSpline
210
0.0
220
0.0
230
1.0
 70
     8
 71
     3
 72
     9
 73
     5
 74
     0
 42
0.0000000001
 43
0.0000000001
 40
0.0
 40
0.0
 40
0.0
 40
0.0
 40
0.2574460055999999
 40
1.0
 40
1.0
 40
1.0
 40
1.0
 10
53.35518922359995
 20
49.16893329149991
 30
0.0
 10
53.32109568349995
 20
49.17701258949995
 30
0.0
 10
53.18972424519995
 20
49.21270962269995
 30
0.0
 10
53.06294843289993
 20
49.26528265399992
 30
0.0
 10
52.97380740499995
 20
49.3128951436999
 30
0.0
1001
ACAD
1000
RTMaterial
1005
0
  0
SPLINE
  5
60582
330
1F
100
AcDbEntity
  8
1
100
AcDbSpline
210
0.0
220
0.0
230
1.0
 70
     8
 71
     3
 72
     8
 73
     4
 74
     0
 42
0.0000000001
 43
0.0000000001
 40
0.0
 40
0.0
 40
0.0
 40
0.0
 40
1.0
 40
1.0
 40
1.0
 40
1.0
 10
51.80840893849989
 20
49.99177541469993
 30
0.0
 10
51.8012312768999
 20
49.9963193925999
 30
0.0
 10
51.79412964369993
 20
50.00098576299996
 30
0.0
 10
51.78711045229994
 20
50.00577089759992
 30
0.0
1001
ACAD
1000
RTMaterial
1005
0
  0
SPLINE
  5
60583
330
1F
100
AcDbEntity
  8
1
100
AcDbSpline
210
0.0
220
0.0
230
1.0
 70
     8
 71
     3
 72
     9
 73
     5
 74
     0
 42
0.0000000001
 43
0.0000000001
 40
0.0
 40
0.0
 40
0.0
 40
0.0
 40
0.4857519459000001
 40
1.0
 40
1.0
 40
1.0
 40
1.0
 10
60.97113896239989
 20
45.37297740259993
 30
0.0
 10
61.11848643379989
 20
44.83135921799993
 30
0.0
 10
61.48349572669991
 20
43.73267508099996
 30
0.0
 10
61.94430191729992
 20
42.67159033779996
 30
0.0
 10
62.19999999999993
 20
42.13518584649989
 30
0.0
1001
ACAD
1000
RTMaterial
1005
0
  0
SPLINE
  5
60584
330
1F
100
AcDbEntity
  8
1
100
AcDbSpline
210
0.0
220
0.0
230
1.0
 70
     8
 71
     3
 72
     9
 73
     5
 74
     0
 42
0.0000000001
 43
0.0000000001
 40
0.0
 40
0.0
 40
0.0
 40
0.0
 40
0.2372662001
 40
1.0
 40
1.0
 40
1.0
 40
1.0
 10
60.3253363561999
 20
45.70357389219992
 30
0.0
 10
60.37584265449993
 20
45.67633917479992
 30
0.0
 10
60.58940320569991
 20
45.56283904849993
 30
0.0
 10
60.80544320819996
 20
45.45404073229991
 30
0.0
 10
60.97113896239989
 20
45.37297740259993
 30
0.0
1001
ACAD
1000
RTMaterial
1005
0
  0
SPLINE
  5
60585
330
1F
100
AcDbEntity
  8
1
100
AcDbSpline
210
0.0
220
0.0
230
1.0
 70
     8
 71
     3
 72
    18
 73
    14
 74
     0
 42
0.0000000001
 43
0.0000000001
 40
0.0
 40
0.0
 40
0.0
 40
0.0
 40
0.2214976057
 40
0.4142664708
 40
0.5783981446000001
 40
0.7142816784999999
 40
0.8225202723999998
 40
0.8665695843000001
 40
0.9041301967
 40
0.9354988179999999
 40
0.9611825015
 40
0.9821122751
 40
1.0
 40
1.0
 40
1.0
 40
1.0
 10
51.89599008389996
 20
61.17423129439993
 30
0.0
 10
51.83490175059995
 20
61.18280429209995
 30
0.0
 10
51.72085975779999
 20
61.20042927259993
 30
0.0
 10
51.56255215719994
 20
61.23037595419998
 30
0.0
 10
51.42878080559995
 20
61.26126920879994
 30
0.0
 10
51.31941066029998
 20
61.29251171129993
 30
0.0
 10
51.24383297049996
 20
61.31989942269996
 30
0.0
 10
51.19588475910001
 20
61.34226874829995
 30
0.0
 10
51.16842723419996
 20
61.35771453799993
 30
0.0
 10
51.14686592840001
 20
61.37297500599999
 30
0.0
 10
51.13113643110001
 20
61.38811711689993
 30
0.0
 10
51.12117654499996
 20
61.40333445649992
 30
0.0
 10
51.11866560059997
 20
61.41419363289992
 30
0.0
 10
51.11865978189996
 20
61.41917535079994
 30
0.0
1001
ACAD
1000
RTMaterial
1005
0
  0
SPLINE
  5
60586
330
1F
100
AcDbEntity
  8
1
100
AcDbSpline
210
0.0
220
0.0
230
1.0
 70
     8
 71
     3
 72
     9
 73
     5
 74
     0
 42
0.0000000001
 43
0.0000000001
 40
0.0
 40
0.0
 40
0.0
 40
0.0
 40
0.231644062
 40
1.0
 40
1.0
 40
1.0
 40
1.0
 10
52.27670706949999
 20
60.51920162289992
 30
0.0
 10
52.27793571989997
 20
60.52203010209996
 30
0.0
 10
52.28391351489995
 20
60.53394986819995
 30
0.0
 10
52.2922541817
 20
60.54456866529995
 30
0.0
 10
52.29926991119999
 20
60.55201244309995
 30
0.0
1001
ACAD
1000
RTMaterial
1005
0
  0
SPLINE
  5
60587
330
1F
100
AcDbEntity
  8
1
100
AcDbSpline
210
0.0
220
0.0
230
1.0
 70
     8
 71
     3
 72
     9
 73
     5
 74
     0
 42
0.0000000001
 43
0.0000000001
 40
0.0
 40
0.0
 40
0.0
 40
0.0
 40
0.2663475434
 40
1.0
 40
1.0
 40
1.0
 40
1.0
 10
28.61982114319994
 20
48.36810365299993
 30
0.0
 10
28.5979296088999
 20
48.36265881939993
 30
0.0
 10
28.51549931639994
 20
48.34323824719991
 30
0.0
 10
28.43197595139992
 20
48.32807108229991
 30
0.0
 10
28.37026633319993
 20
48.32079404719991
 30
0.0
1001
ACAD
1000
RTMaterial
1005
0
  0
SPLINE
  5
60588
330
1F
100
AcDbEntity
  8
1
100
AcDbSpline
210
0.0
220
0.0
230
1.0
 70
     8
 71
     3
 72
     9
 73
     5
 74
     0
 42
0.0000000001
 43
0.0000000001
 40
0.0
 40
0.0
 40
0.0
 40
0.0
 40
0.265820782
 40
1.0
 40
1.0
 40
1.0
 40
1.0
 10
28.37026633319993
 20
48.32079404719991
 30
0.0
 10
28.35396546689992
 20
48.31887178649992
 30
0.0
 10
28.29253336509993
 20
48.31273534479993
 30
0.0
 10
28.23053444639993
 20
48.31115806659994
 30
0.0
 10
28.18528004619992
 20
48.31384099259992
 30
0.0
1001
ACAD
1000
RTMaterial
1005
0
  0
SPLINE
  5
60589
330
1F
100
AcDbEntity
  8
1
100
AcDbSpline
210
0.0
220
0.0
230
1.0
 70
     8
 71
     3
 72
     9
 73
     5
 74
     0
 42
0.0000000001
 43
0.0000000001
 40
0.0
 40
0.0
 40
0.0
 40
0.0
 40
0.2664631530999999
 40
1.0
 40
1.0
 40
1.0
 40
1.0
 10
59.59669272089996
 20
47.30116284509995
 30
0.0
 10
59.5939785757999
 20
47.29155114289989
 30
0.0
 10
59.58399185039997
 20
47.25542446289989
 30
0.0
 10
59.57470383429996
 20
47.21909972099996
 30
0.0
 10
59.56849370629993
 20
47.19231583659996
 30
0.0
1001
ACAD
1000
RTMaterial
1005
0
  0
SPLINE
  5
6058A
330
1F
100
AcDbEntity
  8
1
100
AcDbSpline
210
0.0
220
0.0
230
1.0
 70
     8
 71
     3
 72
     8
 73
     4
 74
     0
 42
0.0000000001
 43
0.0000000001
 40
0.0
 40
0.0
 40
0.0
 40
0.0
 40
1.0
 40
1.0
 40
1.0
 40
1.0
 10
59.64068449209992
 20
47.45401142799994
 30
0.0
 10
59.62576470429997
 20
47.40313623799994
 30
0.0
 10
59.6111004354999
 20
47.35218541649993
 30
0.0
 10
59.59669272089996
 20
47.30116284509995
 30
0.0
1001
ACAD
1000
RTMaterial
1005
0
  0
SPLINE
  5
6058B
330
1F
100
AcDbEntity
  8
1
100
AcDbSpline
210
0.0
220
0.0
230
1.0
 70
     8
 71
     3
 72
     9
 73
     5
 74
     0
 42
0.0000000001
 43
0.0000000001
 40
0.0
 40
0.0
 40
0.0
 40
0.0
 40
0.225817342
 40
1.0
 40
1.0
 40
1.0
 40
1.0
 10
59.94250952599992
 20
45.93202633859999
 30
0.0
 10
59.9703898397999
 20
45.91333753769993
 30
0.0
 10
60.09504417929992
 20
45.83235324929995
 30
0.0
 10
60.22405190569992
 20
45.75818991989996
 30
0.0
 10
60.3253363561999
 20
45.70357389219992
 30
0.0
1001
ACAD
1000
RTMaterial
1005
0
  0
SPLINE
  5
6058C
330
1F
100
AcDbEntity
  8
1
100
AcDbSpline
210
0.0
220
0.0
230
1.0
 70
     8
 71
     3
 72
    13
 73
     9
 74
     0
 42
0.0000000001
 43
0.0000000001
 40
0.0
 40
0.0
 40
0.0
 40
0.0
 40
0.3390963043
 40
0.6211091320000001
 40
0.7394220726000001
 40
0.8420845273000001
 40
0.9289330104000001
 40
1.0
 40
1.0
 40
1.0
 40
1.0
 10
59.83181070559993
 20
47.13034456269997
 30
0.0
 10
59.80354569429994
 20
47.00207780849996
 30
0.0
 10
59.75652019909995
 20
46.76605665860001
 30
0.0
 10
59.71416896969993
 20
46.48262176610001
 30
0.0
 10
59.69537307399992
 20
46.28866523729993
 30
0.0
 10
59.68886330039993
 20
46.16955996929999
 30
0.0
 10
59.6889415048999
 20
46.06858042079994
 30
0.0
 10
59.69380343269995
 20
46.00747417289989
 30
0.0
 10
59.69787595429995
 20
45.98025031959998
 30
0.0
1001
ACAD
1000
RTMaterial
1005
0
  0
LINE
  5
6058D
330
1F
100
AcDbEntity
  8
1
100
AcDbLine
 10
51.23623448809991
 20
49.52292469279996
 30
0.0
 11
51.23491284779993
 21
49.52600479749998
 31
0.0
1001
ACAD
1000
RTMaterial
1005
0
  0
SPLINE
  5
6058E
330
1F
100
AcDbEntity
  8
1
100
AcDbSpline
210
0.0
220
0.0
230
1.0
 70
     8
 71
     3
 72
    10
 73
     6
 74
     0
 42
0.0000000001
 43
0.0000000001
 40
0.0
 40
0.0
 40
0.0
 40
0.0
 40
0.2115698909
 40
0.4535037800000001
 40
1.0
 40
1.0
 40
1.0
 40
1.0
 10
53.02666190409991
 20
48.68089751389999
 30
0.0
 10
53.0484974984999
 20
48.68512719299991
 30
0.0
 10
53.09492402219991
 20
48.69621134099998
 30
0.0
 10
53.1953035425999
 20
48.7275870675
 30
0.0
 10
53.27160754029989
 20
48.76105847849999
 30
0.0
 10
53.3222870891999
 20
48.78811750729994
 30
0.0
1001
ACAD
1000
RTMaterial
1005
0
  0
SPLINE
  5
6058F
330
1F
100
AcDbEntity
  8
1
100
AcDbSpline
210
0.0
220
0.0
230
1.0
 70
     8
 71
     3
 72
    11
 73
     7
 74
     0
 42
0.0000000001
 43
0.0000000001
 40
0.0
 40
0.0
 40
0.0
 40
0.0
 40
0.2627667978
 40
0.5100185714
 40
0.7517924568000001
 40
1.0
 40
1.0
 40
1.0
 40
1.0
 10
51.39189137609992
 20
49.52119909819998
 30
0.0
 10
51.37195445499992
 20
49.54834987149991
 30
0.0
 10
51.33629362609991
 20
49.6034626364999
 30
0.0
 10
51.29820258229995
 20
49.69262767599997
 30
0.0
 10
51.27985132559991
 20
49.78608923589996
 30
0.0
 10
51.28176206859996
 20
49.84945780449994
 30
0.0
 10
51.28594195139993
 20
49.88100018069997
 30
0.0
1001
ACAD
1000
RTMaterial
1005
0
  0
SPLINE
  5
60590
330
1F
100
AcDbEntity
  8
1
100
AcDbSpline
210
0.0
220
0.0
230
1.0
 70
     8
 71
     3
 72
     9
 73
     5
 74
     0
 42
0.0000000001
 43
0.0000000001
 40
0.0
 40
0.0
 40
0.0
 40
0.0
 40
0.2472955426
 40
1.0
 40
1.0
 40
1.0
 40
1.0
 10
51.28594195139993
 20
49.88100018069997
 30
0.0
 10
51.28635218149992
 20
49.88409587319996
 30
0.0
 10
51.28813418779992
 20
49.89659750499999
 30
0.0
 10
51.29040500099989
 20
49.90902890729995
 30
0.0
 10
51.2923713845999
 20
49.9183281482999
 30
0.0
1001
ACAD
1000
RTMaterial
1005
0
  0
SPLINE
  5
60591
330
1F
100
AcDbEntity
  8
1
100
AcDbSpline
210
0.0
220
0.0
230
1.0
 70
     8
 71
     3
 72
     9
 73
     5
 74
     0
 42
0.0000000001
 43
0.0000000001
 40
0.0
 40
0.0
 40
0.0
 40
0.0
 40
0.2405587661
 40
1.0
 40
1.0
 40
1.0
 40
1.0
 10
51.2923713845999
 20
49.9183281482999
 30
0.0
 10
51.29431136589994
 20
49.9275025300999
 30
0.0
 10
51.30341687969991
 20
49.9654180743999
 30
0.0
 10
51.31655234129988
 20
50.00232133509991
 30
0.0
 10
51.32824619909991
 20
50.02951770789991
 30
0.0
1001
ACAD
1000
RTMaterial
1005
0
  0
SPLINE
  5
60592
330
1F
100
AcDbEntity
  8
1
100
AcDbSpline
210
0.0
220
0.0
230
1.0
 70
     8
 71
     3
 72
    10
 73
     6
 74
     0
 42
0.0000000001
 43
0.0000000001
 40
0.0
 40
0.0
 40
0.0
 40
0.0
 40
0.5396972388
 40
0.7865750914000001
 40
1.0
 40
1.0
 40
1.0
 40
1.0
 10
51.32866175329991
 20
49.35732554619995
 30
0.0
 10
51.3009275400999
 20
49.45182087339992
 30
0.0
 10
51.2751027116999
 20
49.59460092949996
 30
0.0
 10
51.27281654739994
 20
49.77727776069997
 30
0.0
 10
51.28058628569994
 20
49.86112614509995
 30
0.0
 10
51.28658692919993
 20
49.89960577769995
 30
0.0
1001
ACAD
1000
RTMaterial
1005
0
  0
SPLINE
  5
60593
330
1F
100
AcDbEntity
  8
1
100
AcDbSpline
210
0.0
220
0.0
230
1.0
 70
     8
 71
     3
 72
    18
 73
    14
 74
     0
 42
0.0000000001
 43
0.0000000001
 40
0.0
 40
0.0
 40
0.0
 40
0.0
 40
0.1248896425
 40
0.2497739557
 40
0.3746499861
 40
0.4995173160000001
 40
0.6243783990999999
 40
0.6869812133
 40
0.7495839218000002
 40
0.8121873187
 40
0.8747907985999999
 40
0.9373949088999999
 40
1.0
 40
1.0
 40
1.0
 40
1.0
 10
47.59941701519994
 20
54.55166235079992
 30
0.0
 10
47.52007298689995
 20
54.64452583429999
 30
0.0
 10
47.38739860549992
 20
54.8543706728999
 30
0.0
 10
47.28640239119994
 20
55.21167984189992
 30
0.0
 10
47.29167773049994
 20
55.58332783059995
 30
0.0
 10
47.40399597629988
 20
55.93753257509991
 30
0.0
 10
47.58016378719992
 20
56.19307902379995
 30
0.0
 10
47.76065916499994
 20
56.35921634869993
 30
0.0
 10
47.91329014119992
 20
56.46266946849994
 30
0.0
 10
48.07954692889996
 20
56.54231720489997
 30
0.0
 10
48.2557694521999
 20
56.59649537059994
 30
0.0
 10
48.43799978579989
 20
56.62417192110002
 30
0.0
 10
48.56097609389991
 20
56.62455621929996
 30
0.0
 10
48.62205580849991
 20
56.62028844119993
 30
0.0
1001
ACAD
1000
RTMaterial
1005
0
  0
SPLINE
  5
60594
330
1F
100
AcDbEntity
  8
1
100
AcDbSpline
210
0.0
220
0.0
230
1.0
 70
     8
 71
     3
 72
    23
 73
    19
 74
     0
 42
0.0000000001
 43
0.0000000001
 40
0.0
 40
0.0
 40
0.0
 40
0.0
 40
0.1563981458
 40
0.2337854419
 40
0.3094227334
 40
0.3821594169
 40
0.4506825715
 40
0.5137408132
 40
0.5706750636
 40
0.6221546477000001
 40
0.6704514325000001
 40
0.718525311
 40
0.7686261504000001
 40
0.7948251296
 40
0.8218411989999999
 40
0.8782949643
 40
0.9378026387999998
 40
1.0
 40
1.0
 40
1.0
 40
1.0
 10
53.0229821884999
 20
47.30079284509992
 30
0.0
 10
52.88298343289994
 20
47.30362491729994
 30
0.0
 10
52.67370065999995
 20
47.31610612539992
 30
0.0
 10
52.39888224529995
 20
47.35178514629995
 30
0.0
 10
52.20004883169991
 20
47.38885572149991
 30
0.0
 10
52.01185495739991
 20
47.43753548829994
 30
0.0
 10
51.83930600619993
 20
47.49928117679997
 30
0.0
 10
51.68811289549996
 20
47.57561623309993
 30
0.0
 10
51.56416046749995
 20
47.66795538709999
 30
0.0
 10
51.47322687169992
 20
47.77697089409992
 30
0.0
 10
51.41990835579992
 20
47.90020753109996
 30
0.0
 10
51.40344508829992
 20
48.03179599809993
 30
0.0
 10
51.41526525889992
 20
48.14328032610001
 30
0.0
 10
51.43644686209995
 20
48.23337980479994
 30
0.0
 10
51.46581692849991
 20
48.32715752139995
 30
0.0
 10
51.51535032489994
 20
48.44548335509995
 30
0.0
 10
51.58965655089992
 20
48.58677384569995
 30
0.0
 10
51.64651828489991
 20
48.67980533919996
 30
0.0
 10
51.67667003629992
 20
48.72662315139996
 30
0.0
1001
ACAD
1000
RTMaterial
1005
0
  0
SPLINE
  5
60595
330
1F
100
AcDbEntity
  8
1
100
AcDbSpline
210
0.0
220
0.0
230
1.0
 70
     8
 71
     3
 72
    15
 73
    11
 74
     0
 42
0.0000000001
 43
0.0000000001
 40
0.0
 40
0.0
 40
0.0
 40
0.0
 40
0.1112325679
 40
0.2249442244
 40
0.3423816943
 40
0.4644530827000001
 40
0.5916028284000001
 40
0.7237499605
 40
0.860272583
 40
1.0
 40
1.0
 40
1.0
 40
1.0
 10
55.09237365229996
 20
47.84236534949997
 30
0.0
 10
55.02790467819995
 20
47.79371696469991
 30
0.0
 10
54.89206365039996
 20
47.70235377559993
 30
0.0
 10
54.67163442709995
 20
47.58645461909992
 30
0.0
 10
54.43321610329991
 20
47.49080748289992
 30
0.0
 10
54.17762847269995
 20
47.41508234719993
 30
0.0
 10
53.90625524999996
 20
47.35862299599995
 30
0.0
 10
53.62114808629991
 20
47.32065582639996
 30
0.0
 10
53.32512465169992
 20
47.30050483649989
 30
0.0
 10
53.12441574409996
 20
47.29874091869993
 30
0.0
 10
53.0229821884999
 20
47.30079284509992
 30
0.0
1001
ACAD
1000
RTMaterial
1005
0
  0
LINE
  5
60596
330
1F
100
AcDbEntity
  8
1
100
AcDbLine
 10
28.61982114319994
 20
48.36810365299993
 30
0.0
 11
55.03050395999991
 21
46.79870977159993
 31
0.0
1001
ACAD
1000
RTMaterial
1005
0
  0
SPLINE
  5
60597
330
1F
100
AcDbEntity
  8
1
100
AcDbSpline
210
0.0
220
0.0
230
1.0
 70
     8
 71
     3
 72
    10
 73
     6
 74
     0
 42
0.0000000001
 43
0.0000000001
 40
0.0
 40
0.0
 40
0.0
 40
0.0
 40
0.4998802884000001
 40
0.7519965920999999
 40
1.0
 40
1.0
 40
1.0
 40
1.0
 10
51.01373802929993
 20
50.32810119249996
 30
0.0
 10
50.58123200679995
 20
50.88467419529997
 30
0.0
 10
49.94008639889995
 20
51.72938708599997
 30
0.0
 10
49.10500151689991
 20
52.86559306739997
 30
0.0
 10
48.6936902857999
 20
53.43844950909994
 30
0.0
 10
48.49154966919991
 20
53.72380969069997
 30
0.0
1001
ACAD
1000
RTMaterial
1005
0
  0
SPLINE
  5
60598
330
1F
100
AcDbEntity
  8
1
100
AcDbSpline
210
0.0
220
0.0
230
1.0
 70
     8
 71
     3
 72
    11
 73
     7
 74
     0
 42
0.0000000001
 43
0.0000000001
 40
0.0
 40
0.0
 40
0.0
 40
0.0
 40
0.256994952
 40
0.5081395173
 40
0.7550690544
 40
1.0
 40
1.0
 40
1.0
 40
1.0
 10
51.8408410991999
 20
48.96310105309993
 30
0.0
 10
51.76848268789996
 20
48.99649778239996
 30
0.0
 10
51.63045001419994
 20
49.07418170799991
 30
0.0
 10
51.44691962579992
 20
49.22118941089997
 30
0.0
 10
51.29226383319991
 20
49.39331474669995
 30
0.0
 10
51.20978201529993
 20
49.52256680899989
 30
0.0
 10
51.17429103769996
 20
49.58971734659996
 30
0.0
1001
ACAD
1000
RTMaterial
1005
0
  0
SPLINE
  5
60599
330
1F
100
AcDbEntity
  8
1
100
AcDbSpline
210
0.0
220
0.0
230
1.0
 70
     8
 71
     3
 72
     9
 73
     5
 74
     0
 42
0.0000000001
 43
0.0000000001
 40
0.0
 40
0.0
 40
0.0
 40
0.0
 40
0.4976380045
 40
1.0
 40
1.0
 40
1.0
 40
1.0
 10
55.44091950329994
 20
48.16322915019992
 30
0.0
 10
55.38864358999996
 20
48.10442255459998
 30
0.0
 10
55.27763901089992
 20
47.99139943959994
 30
0.0
 10
55.1557771343999
 20
47.89020971259993
 30
0.0
 10
55.09237365229996
 20
47.84236534949997
 30
0.0
1001
ACAD
1000
RTMaterial
1005
0
  0
SPLINE
  5
6059A
330
1F
100
AcDbEntity
  8
1
100
AcDbSpline
210
0.0
220
0.0
230
1.0
 70
     8
 71
     3
 72
     9
 73
     5
 74
     0
 42
0.0000000001
 43
0.0000000001
 40
0.0
 40
0.0
 40
0.0
 40
0.0
 40
0.25011786
 40
1.0
 40
1.0
 40
1.0
 40
1.0
 10
55.91343732889993
 20
48.05272673279995
 30
0.0
 10
55.87405610929994
 20
48.06199858259993
 30
0.0
 10
55.71659130799992
 20
48.09900838009991
 30
0.0
 10
55.55907074629994
 20
48.13578088869991
 30
0.0
 10
55.44091950329994
 20
48.16322915019992
 30
0.0
1001
ACAD
1000
RTMaterial
1005
0
  0
SPLINE
  5
6059B
330
1F
100
AcDbEntity
  8
1
100
AcDbSpline
210
0.0
220
0.0
230
1.0
 70
     8
 71
     3
 72
     9
 73
     5
 74
     0
 42
0.0000000001
 43
0.0000000001
 40
0.0
 40
0.0
 40
0.0
 40
0.0
 40
0.2506460445
 40
1.0
 40
1.0
 40
1.0
 40
1.0
 10
55.14953777229994
 20
46.7914318036
 30
0.0
 10
55.22130732499994
 20
46.78692090209994
 30
0.0
 10
55.50743257649992
 20
46.76566158229991
 30
0.0
 10
55.7925857923999
 20
46.73146597539994
 30
0.0
 10
56.00509181939992
 20
46.69886540789991
 30
0.0
1001
ACAD
1000
RTMaterial
1005
0
  0
LINE
  5
6059C
330
1F
100
AcDbEntity
  8
1
100
AcDbLine
 10
55.03050395999991
 20
46.79870977159993
 30
0.0
 11
55.14953777229994
 21
46.7914318036
 31
0.0
1001
ACAD
1000
RTMaterial
1005
0
  0
LINE
  5
6059D
330
1F
100
AcDbEntity
  8
1
100
AcDbLine
 10
59.83181070559993
 20
47.13034456269997
 30
0.0
 11
55.91343732889993
 21
48.05272673279995
 31
0.0
1001
ACAD
1000
RTMaterial
1005
0
  0
LINE
  5
6059E
330
1F
100
AcDbEntity
  8
1
100
AcDbLine
 10
56.53305254029993
 20
46.6062811086
 30
0.0
 11
59.94250952599992
 21
45.93202633859999
 31
0.0
1001
ACAD
1000
RTMaterial
1005
0
  0
SPLINE
  5
6059F
330
1F
100
AcDbEntity
  8
1
100
AcDbSpline
210
0.0
220
0.0
230
1.0
 70
     8
 71
     3
 72
     9
 73
     5
 74
     0
 42
0.0000000001
 43
0.0000000001
 40
0.0
 40
0.0
 40
0.0
 40
0.0
 40
0.2492052103
 40
1.0
 40
1.0
 40
1.0
 40
1.0
 10
56.00509181939992
 20
46.69886540789991
 30
0.0
 10
56.04910492199997
 20
46.69211335419999
 30
0.0
 10
56.22557593309989
 20
46.66409671559995
 30
0.0
 10
56.40144923069994
 20
46.63230701669994
 30
0.0
 10
56.53305254029993
 20
46.6062811086
 30
0.0
1001
ACAD
1000
RTMaterial
1005
0
  0
SPLINE
  5
605A0
330
1F
100
AcDbEntity
  8
1
100
AcDbSpline
210
0.0
220
0.0
230
1.0
 70
     8
 71
     3
 72
     9
 73
     5
 74
     0
 42
0.0000000001
 43
0.0000000001
 40
0.0
 40
0.0
 40
0.0
 40
0.0
 40
0.2671771251
 40
1.0
 40
1.0
 40
1.0
 40
1.0
 10
47.73724931349994
 20
54.85652109879993
 30
0.0
 10
47.71602330439992
 20
54.86160403039992
 30
0.0
 10
47.63706242069992
 20
54.88260273029999
 30
0.0
 10
47.56002008609994
 20
54.91078257689991
 30
0.0
 10
47.5053656588999
 20
54.93521139809996
 30
0.0
1001
ACAD
1000
RTMaterial
1005
0
  0
SPLINE
  5
605A1
330
1F
100
AcDbEntity
  8
1
100
AcDbSpline
210
0.0
220
0.0
230
1.0
 70
     8
 71
     3
 72
    10
 73
     6
 74
     0
 42
0.0000000001
 43
0.0000000001
 40
0.0
 40
0.0
 40
0.0
 40
0.0
 40
0.4447371121
 40
0.6983922491
 40
1.0
 40
1.0
 40
1.0
 40
1.0
 10
48.1582820482999
 20
54.17235396139995
 30
0.0
 10
48.05364716089991
 20
54.24643858729996
 30
0.0
 10
47.89145451179996
 20
54.36587854359999
 30
0.0
 10
47.66663261609994
 20
54.54636305099995
 30
0.0
 10
47.54617954889994
 20
54.65196669379998
 30
0.0
 10
47.48296731689992
 20
54.71166463729992
 30
0.0
1001
ACAD
1000
RTMaterial
1005
0
  0
SPLINE
  5
605A2
330
1F
100
AcDbEntity
  8
1
100
AcDbSpline
210
0.0
220
0.0
230
1.0
 70
     8
 71
     3
 72
     9
 73
     5
 74
     0
 42
0.0000000001
 43
0.0000000001
 40
0.0
 40
0.0
 40
0.0
 40
0.0
 40
0.2547779435
 40
1.0
 40
1.0
 40
1.0
 40
1.0
 10
47.81040724699994
 20
54.8394316536
 30
0.0
 10
47.80418681979995
 20
54.8408509368
 30
0.0
 10
47.77977856439991
 20
54.84645149199997
 30
0.0
 10
47.75539844809992
 20
54.85217497759993
 30
0.0
 10
47.73724931349994
 20
54.85652109879993
 30
0.0
1001
ACAD
1000
RTMaterial
1005
0
  0
SPLINE
  5
605A3
330
1F
100
AcDbEntity
  8
1
100
AcDbSpline
210
0.0
220
0.0
230
1.0
 70
     8
 71
     3
 72
     8
 73
     4
 74
     0
 42
0.0000000001
 43
0.0000000001
 40
0.0
 40
0.0
 40
0.0
 40
0.0
 40
1.0
 40
1.0
 40
1.0
 40
1.0
 10
47.42598014049991
 20
54.97963803259995
 30
0.0
 10
47.4191995825999
 20
54.98427165089992
 30
0.0
 10
47.41254349189989
 20
54.98909343639997
 30
0.0
 10
47.40603418139994
 20
54.99410095709999
 30
0.0
1001
ACAD
1000
RTMaterial
1005
0
  0
SPLINE
  5
605A4
330
1F
100
AcDbEntity
  8
1
100
AcDbSpline
210
0.0
220
0.0
230
1.0
 70
     8
 71
     3
 72
     9
 73
     5
 74
     0
 42
0.0000000001
 43
0.0000000001
 40
0.0
 40
0.0
 40
0.0
 40
0.0
 40
0.2555346797
 40
1.0
 40
1.0
 40
1.0
 40
1.0
 10
47.40603418139994
 20
54.99410095709999
 30
0.0
 10
47.39895344399991
 20
54.99954806849996
 30
0.0
 10
47.37191714949995
 20
55.02171951739995
 30
0.0
 10
47.3477553580999
 20
55.04744332599995
 30
0.0
 10
47.33207246019992
 20
55.06821423639997
 30
0.0
1001
ACAD
1000
RTMaterial
1005
0
  0
SPLINE
  5
605A5
330
1F
100
AcDbEntity
  8
1
100
AcDbSpline
210
0.0
220
0.0
230
1.0
 70
     8
 71
     3
 72
     8
 73
     4
 74
     0
 42
0.0000000001
 43
0.0000000001
 40
0.0
 40
0.0
 40
0.0
 40
0.0
 40
1.0
 40
1.0
 40
1.0
 40
1.0
 10
47.50536321889995
 20
54.93520425239996
 30
0.0
 10
47.47767948919994
 20
54.94758045699995
 30
0.0
 10
47.45101807029993
 20
54.96253068329991
 30
0.0
 10
47.42598014049991
 20
54.97963803259995
 30
0.0
1001
ACAD
1000
RTMaterial
1005
0
  0
SPLINE
  5
605A6
330
1F
100
AcDbEntity
  8
1
100
AcDbSpline
210
0.0
220
0.0
230
1.0
 70
     8
 71
     3
 72
    17
 73
    13
 74
     0
 42
0.0000000001
 43
0.0000000001
 40
0.0
 40
0.0
 40
0.0
 40
0.0
 40
0.0157136013
 40
0.038122035
 40
0.0673066995
 40
0.1032375884
 40
0.1949766985
 40
0.3124389701
 40
0.4542957989
 40
0.6184969167000001
 40
0.8018550314
 40
1.0
 40
1.0
 40
1.0
 40
1.0
 10
51.8408410991999
 20
48.96310105309993
 30
0.0
 10
51.84406792839997
 20
48.95871485639998
 30
0.0
 10
51.85338969139991
 20
48.94922910779996
 30
0.0
 10
51.8713429382999
 20
48.93434720989995
 30
0.0
 10
51.89600995789994
 20
48.91664811759994
 30
0.0
 10
51.9417884396999
 20
48.88731715329993
 30
0.0
 10
52.01660792899992
 20
48.84681702069997
 30
0.0
 10
52.12843908469989
 20
48.79850416109997
 30
0.0
 10
52.26860690749993
 20
48.75404260799996
 30
0.0
 10
52.43548605579992
 20
48.72147460319997
 30
0.0
 10
52.62476615699995
 20
48.70944721529998
 30
0.0
 10
52.75713120119991
 20
48.71988368949996
 30
0.0
 10
52.82500336839996
 20
48.73028040610001
 30
0.0
1001
ACAD
1000
RTMaterial
1005
0
  0
SPLINE
  5
605A7
330
1F
100
AcDbEntity
  8
1
100
AcDbSpline
210
0.0
220
0.0
230
1.0
 70
     8
 71
     3
 72
    10
 73
     6
 74
     0
 42
0.0000000001
 43
0.0000000001
 40
0.0
 40
0.0
 40
0.0
 40
0.0
 40
0.2932399726
 40
0.5487682914000001
 40
1.0
 40
1.0
 40
1.0
 40
1.0
 10
51.23491284779993
 20
49.52600479749998
 30
0.0
 10
51.20619147059989
 20
49.60217799229991
 30
0.0
 10
51.15725990789997
 20
49.74657554049992
 30
0.0
 10
51.08133826489989
 20
50.01366676649991
 30
0.0
 10
51.03800193979992
 20
50.20520447119992
 30
0.0
 10
51.01373802929993
 20
50.32810119249996
 30
0.0
1001
ACAD
1000
RTMaterial
1005
0
  0
SPLINE
  5
605A8
330
1F
100
AcDbEntity
  8
1
100
AcDbSpline
210
0.0
220
0.0
230
1.0
 70
     8
 71
     3
 72
     8
 73
     4
 74
     0
 42
0.0000000001
 43
0.0000000001
 40
0.0
 40
0.0
 40
0.0
 40
0.0
 40
1.0
 40
1.0
 40
1.0
 40
1.0
 10
53.46146478489993
 20
48.87294235119992
 30
0.0
 10
53.52846212249994
 20
48.91917477049992
 30
0.0
 10
53.59186238919995
 20
48.97110864869995
 30
0.0
 10
53.65034631899994
 20
49.02772763659993
 30
0.0
1001
ACAD
1000
RTMaterial
1005
0
  0
SPLINE
  5
605A9
330
1F
100
AcDbEntity
  8
1
100
AcDbSpline
210
0.0
220
0.0
230
1.0
 70
     8
 71
     3
 72
     9
 73
     5
 74
     0
 42
0.0000000001
 43
0.0000000001
 40
0.0
 40
0.0
 40
0.0
 40
0.0
 40
0.249520802
 40
1.0
 40
1.0
 40
1.0
 40
1.0
 10
53.3222870891999
 20
48.78811750729994
 30
0.0
 10
53.3342493502999
 20
48.79450444589991
 30
0.0
 10
53.38182258759991
 20
48.82078432979994
 30
0.0
 10
53.42789576919989
 20
48.84977759779997
 30
0.0
 10
53.46146478489993
 20
48.87294235119992
 30
0.0
1001
ACAD
1000
RTMaterial
1005
0
  0
LINE
  5
605AA
330
1F
100
AcDbEntity
  8
1
100
AcDbLine
 10
51.32824619909991
 20
50.02951770789991
 30
0.0
 11
51.33252468069992
 21
50.03944277579989
 31
0.0
1001
ACAD
1000
RTMaterial
1005
0
  0
SPLINE
  5
605AB
330
1F
100
AcDbEntity
  8
1
100
AcDbSpline
210
0.0
220
0.0
230
1.0
 70
     8
 71
     3
 72
     9
 73
     5
 74
     0
 42
0.0000000001
 43
0.0000000001
 40
0.0
 40
0.0
 40
0.0
 40
0.0
 40
0.2958628406
 40
1.0
 40
1.0
 40
1.0
 40
1.0
 10
51.41103823299994
 20
50.34310408649992
 30
0.0
 10
51.41040866709994
 20
50.34464532649991
 30
0.0
 10
51.40835272539994
 20
50.34987981369994
 30
0.0
 10
51.40653727389992
 20
50.35523519899993
 30
0.0
 10
51.40568790339995
 20
50.35910537659993
 30
0.0
1001
ACAD
1000
RTMaterial
1005
0
  0
SPLINE
  5
605AC
330
1F
100
AcDbEntity
  8
1
100
AcDbSpline
210
0.0
220
0.0
230
1.0
 70
     8
 71
     3
 72
     9
 73
     5
 74
     0
 42
0.0000000001
 43
0.0000000001
 40
0.0
 40
0.0
 40
0.0
 40
0.0
 40
0.2570774527
 40
1.0
 40
1.0
 40
1.0
 40
1.0
 10
51.37784584799994
 20
50.14344230559993
 30
0.0
 10
51.37898244019993
 20
50.16076631649991
 30
0.0
 10
51.38499443359996
 20
50.22803350619994
 30
0.0
 10
51.39758515039995
 20
50.29476946469992
 30
0.0
 10
51.41103823299994
 20
50.34310408649992
 30
0.0
1001
ACAD
1000
RTMaterial
1005
0
  0
SPLINE
  5
605AD
330
1F
100
AcDbEntity
  8
1
100
AcDbSpline
210
0.0
220
0.0
230
1.0
 70
     8
 71
     3
 72
     9
 73
     5
 74
     0
 42
0.0000000001
 43
0.0000000001
 40
0.0
 40
0.0
 40
0.0
 40
0.0
 40
0.243194049
 40
1.0
 40
1.0
 40
1.0
 40
1.0
 10
51.28658692919993
 20
49.89960577769995
 30
0.0
 10
51.28839785389994
 20
49.9112132207
 30
0.0
 10
51.29729549819995
 20
49.9587095725999
 30
0.0
 10
51.31184717489992
 20
50.00510582939995
 30
0.0
 10
51.3255111380999
 20
50.03901500169996
 30
0.0
1001
ACAD
1000
RTMaterial
1005
0
  0
SPLINE
  5
605AE
330
1F
100
AcDbEntity
  8
1
100
AcDbSpline
210
0.0
220
0.0
230
1.0
 70
     8
 71
     3
 72
    11
 73
     7
 74
     0
 42
0.0000000001
 43
0.0000000001
 40
0.0
 40
0.0
 40
0.0
 40
0.0
 40
0.213768129
 40
0.4537715346000001
 40
0.7168166308
 40
1.0
 40
1.0
 40
1.0
 40
1.0
 10
28.61982114319994
 20
48.36810365299993
 30
0.0
 10
28.98608593109992
 20
48.29058657829995
 30
0.0
 10
29.76570740859995
 20
48.13614318339995
 30
0.0
 10
31.00111455599995
 20
47.91290904979996
 30
0.0
 10
32.35907164759993
 20
47.68483416189991
 30
0.0
 10
33.30393864349992
 20
47.53523620849995
 30
0.0
 10
33.79405560059991
 20
47.45941769
 30
0.0
1001
ACAD
1000
RTMaterial
1005
0
  0
SPLINE
  5
605AF
330
1F
100
AcDbEntity
  8
1
100
AcDbSpline
210
0.0
220
0.0
230
1.0
 70
     8
 71
     3
 72
     9
 73
     5
 74
     0
 42
0.0000000001
 43
0.0000000001
 40
0.0
 40
0.0
 40
0.0
 40
0.0
 40
0.494864415
 40
1.0
 40
1.0
 40
1.0
 40
1.0
 10
51.17429103769996
 20
49.58971734659996
 30
0.0
 10
51.11550980389996
 20
49.70093410399994
 30
0.0
 10
51.0269523062999
 20
49.94296006059994
 30
0.0
 10
51.00679230319991
 20
50.19988316759992
 30
0.0
 10
51.01373802929993
 20
50.32810119249996
 30
0.0
1001
ACAD
1000
RTMaterial
1005
0
  0
SPLINE
  5
605B0
330
1F
100
AcDbEntity
  8
1
100
AcDbSpline
210
0.0
220
0.0
230
1.0
 70
     8
 71
     3
 72
     9
 73
     5
 74
     0
 42
0.0000000001
 43
0.0000000001
 40
0.0
 40
0.0
 40
0.0
 40
0.0
 40
0.4999932381
 40
1.0
 40
1.0
 40
1.0
 40
1.0
 10
48.1582820482999
 20
54.17235396139995
 30
0.0
 10
48.0507418329999
 20
54.20892144979996
 30
0.0
 10
47.84462004009992
 20
54.31160102669998
 30
0.0
 10
47.67320480639995
 20
54.46530183339996
 30
0.0
 10
47.59941701519994
 20
54.55166235079992
 30
0.0
1001
ACAD
1000
RTMaterial
1005
0
  0
SPLINE
  5
605B1
330
1F
100
AcDbEntity
  8
1
100
AcDbSpline
210
0.0
220
0.0
230
1.0
 70
     8
 71
     3
 72
    21
 73
    17
 74
     0
 42
0.0000000001
 43
0.0000000001
 40
0.0
 40
0.0
 40
0.0
 40
0.0
 40
0.0514126908
 40
0.0978703549
 40
0.1399350349
 40
0.1788280634
 40
0.2165452336
 40
0.2556548801
 40
0.2987106694999999
 40
0.347673806
 40
0.4037565004000001
 40
0.4675348167
 40
0.5390939459000001
 40
0.6181821538000002
 40
0.7970907979000001
 40
1.0
 40
1.0
 40
1.0
 40
1.0
 10
28.18528004619992
 20
48.31384099259992
 30
0.0
 10
28.15821802639994
 20
48.31544537579993
 30
0.0
 10
28.10678134699993
 20
48.32114823329994
 30
0.0
 10
28.03497262699995
 20
48.3393408057999
 30
0.0
 10
27.97340343559989
 20
48.3673578268
 30
0.0
 10
27.92328756909995
 20
48.40593956379996
 30
0.0
 10
27.88633928339994
 20
48.45553917999996
 30
0.0
 10
27.86416914059993
 20
48.51558274249999
 30
0.0
 10
27.85717161979994
 20
48.58496041129996
 30
0.0
 10
27.8648466700999
 20
48.66305637459999
 30
0.0
 10
27.88667690569992
 20
48.74960702959999
 30
0.0
 10
27.92212417809992
 20
48.84427472319998
 30
0.0
 10
27.97045885239993
 20
48.94659424789989
 30
0.0
 10
28.05444345049995
 20
49.09882032489997
 30
0.0
 10
28.18715161889992
 20
49.30273363619995
 30
0.0
 10
28.30588639459995
 20
49.46537120159996
 30
0.0
 10
28.37026633319993
 20
49.55082661199992
 30
0.0
1001
ACAD
1000
RTMaterial
1005
0
  0
SPLINE
  5
605B2
330
1F
100
AcDbEntity
  8
1
100
AcDbSpline
210
0.0
220
0.0
230
1.0
 70
     8
 71
     3
 72
     9
 73
     5
 74
     0
 42
0.0000000001
 43
0.0000000001
 40
0.0
 40
0.0
 40
0.0
 40
0.0
 40
0.2522005826
 40
1.0
 40
1.0
 40
1.0
 40
1.0
 10
55.14953777229994
 20
46.34722970369995
 30
0.0
 10
55.16832924769994
 20
46.34679840759992
 30
0.0
 10
55.24283487119993
 20
46.34490070279997
 30
0.0
 10
55.31732152649993
 20
46.34226047269993
 30
0.0
 10
55.3730036218999
 20
46.33987340659996
 30
0.0
1001
ACAD
1000
RTMaterial
1005
0
  0
SPLINE
  5
605B3
330
1F
100
AcDbEntity
  8
1
100
AcDbSpline
210
0.0
220
0.0
230
1.0
 70
     8
 71
     3
 72
     9
 73
     5
 74
     0
 42
0.0000000001
 43
0.0000000001
 40
0.0
 40
0.0
 40
0.0
 40
0.0
 40
0.2430563284
 40
1.0
 40
1.0
 40
1.0
 40
1.0
 10
47.72567243679993
 20
54.60444777519995
 30
0.0
 10
47.74824970999993
 20
54.59563442169997
 30
0.0
 10
47.84224086279993
 20
54.56225724149994
 30
0.0
 10
47.94038444779994
 20
54.5406235643
 30
0.0
 10
48.01526521279993
 20
54.53113852239994
 30
0.0
1001
ACAD
1000
RTMaterial
1005
0
  0
SPLINE
  5
605B4
330
1F
100
AcDbEntity
  8
1
100
AcDbSpline
210
0.0
220
0.0
230
1.0
 70
     8
 71
     3
 72
     9
 73
     5
 74
     0
 42
0.0000000001
 43
0.0000000001
 40
0.0
 40
0.0
 40
0.0
 40
0.0
 40
0.2450925777
 40
1.0
 40
1.0
 40
1.0
 40
1.0
 10
51.67667003629992
 20
48.72662315139996
 30
0.0
 10
51.68940568949995
 20
48.74639830179996
 30
0.0
 10
51.7421844820999
 20
48.82655706769992
 30
0.0
 10
51.79780585699996
 20
48.90482017139999
 30
0.0
 10
51.8408410991999
 20
48.96310105309993
 30
0.0
1001
ACAD
1000
RTMaterial
1005
0
  0
SPLINE
  5
605B5
330
1F
100
AcDbEntity
  8
1
100
AcDbSpline
210
0.0
220
0.0
230
1.0
 70
     8
 71
     3
 72
     9
 73
     5
 74
     0
 42
0.0000000001
 43
0.0000000001
 40
0.0
 40
0.0
 40
0.0
 40
0.0
 40
0.4842946831
 40
1.0
 40
1.0
 40
1.0
 40
1.0
 10
47.39950826899991
 20
55.68109372479995
 30
0.0
 10
47.43209637869995
 20
55.72714120789993
 30
0.0
 10
47.50713594849992
 20
55.81685349879996
 30
0.0
 10
47.59339235239991
 20
55.89563532839992
 30
0.0
 10
47.64006459049994
 20
55.9334539811
 30
0.0
1001
ACAD
1000
RTMaterial
1005
0
  0
SPLINE
  5
605B6
330
1F
100
AcDbEntity
  8
1
100
AcDbSpline
210
0.0
220
0.0
230
1.0
 70
     8
 71
     3
 72
    10
 73
     6
 74
     0
 42
0.0000000001
 43
0.0000000001
 40
0.0
 40
0.0
 40
0.0
 40
0.0
 40
0.5720993504000001
 40
0.8115837168
 40
1.0
 40
1.0
 40
1.0
 40
1.0
 10
51.18035190509994
 20
49.8857920868
 30
0.0
 10
51.18276435929994
 20
49.81985290329993
 30
0.0
 10
51.19186283089994
 20
49.72635349929999
 30
0.0
 10
51.2137366282999
 20
49.61306848139997
 30
0.0
 10
51.22555440679992
 20
49.56513555609996
 30
0.0
 10
51.23106754219993
 20
49.5441154582
 30
0.0
1001
ACAD
1000
RTMaterial
1005
0
  0
SPLINE
  5
605B7
330
1F
100
AcDbEntity
  8
1
100
AcDbSpline
210
0.0
220
0.0
230
1.0
 70
     8
 71
     3
 72
    11
 73
     7
 74
     0
 42
0.0000000001
 43
0.0000000001
 40
0.0
 40
0.0
 40
0.0
 40
0.0
 40
0.4038775066
 40
0.7269004203
 40
0.9400010609
 40
1.0
 40
1.0
 40
1.0
 40
1.0
 10
51.23106754219993
 20
49.5441154582
 30
0.0
 10
51.23181334799994
 20
49.54127190179997
 30
0.0
 10
51.23308973629992
 20
49.53649908379998
 30
0.0
 10
51.23506839199996
 20
49.52872657129995
 30
0.0
 10
51.2356579161999
 20
49.52668015979992
 30
0.0
 10
51.23651096169993
 20
49.52258663110001
 30
0.0
 10
51.23623448809991
 20
49.52292469279996
 30
0.0
1001
ACAD
1000
RTMaterial
1005
0
  0
SPLINE
  5
605B8
330
1F
100
AcDbEntity
  8
1
100
AcDbSpline
210
0.0
220
0.0
230
1.0
 70
     8
 71
     3
 72
     9
 73
     5
 74
     0
 42
0.0000000001
 43
0.0000000001
 40
0.0
 40
0.0
 40
0.0
 40
0.0
 40
0.5032955723
 40
1.0
 40
1.0
 40
1.0
 40
1.0
 10
51.31349424169991
 20
50.56238633519996
 30
0.0
 10
51.26552137289997
 20
50.45627043759992
 30
0.0
 10
51.19451308619995
 20
50.23359205559995
 30
0.0
 10
51.17614985209991
 20
50.00064605479991
 30
0.0
 10
51.18035190509994
 20
49.8857920868
 30
0.0
1001
ACAD
1000
RTMaterial
1005
0
  0
SPLINE
  5
605B9
330
1F
100
AcDbEntity
  8
1
100
AcDbSpline
210
0.0
220
0.0
230
1.0
 70
     8
 71
     3
 72
     9
 73
     5
 74
     0
 42
0.0000000001
 43
0.0000000001
 40
0.0
 40
0.0
 40
0.0
 40
0.0
 40
0.2523689193
 40
1.0
 40
1.0
 40
1.0
 40
1.0
 10
54.42762648329988
 20
40.22727451139997
 30
0.0
 10
54.43987306019995
 20
40.22636457769993
 30
0.0
 10
54.48834959199996
 20
40.22211118529997
 30
0.0
 10
54.53660233659991
 20
40.21533934649994
 30
0.0
 10
54.57241246999996
 20
40.20892587559996
 30
0.0
1001
ACAD
1000
RTMaterial
1005
0
  0
SPLINE
  5
605BA
330
1F
100
AcDbEntity
  8
1
100
AcDbSpline
210
0.0
220
0.0
230
1.0
 70
     8
 71
     3
 72
     9
 73
     5
 74
     0
 42
0.0000000001
 43
0.0000000001
 40
0.0
 40
0.0
 40
0.0
 40
0.0
 40
0.2499215717
 40
1.0
 40
1.0
 40
1.0
 40
1.0
 10
54.57241246999996
 20
40.20892587559996
 30
0.0
 10
54.67516318439994
 20
40.19052357819998
 30
0.0
 10
55.08630503879993
 20
40.11694724419993
 30
0.0
 10
55.49748660609992
 20
40.04359283419995
 30
0.0
 10
55.80592666609994
 20
39.98869295409992
 30
0.0
1001
ACAD
1000
RTMaterial
1005
0
  0
SPLINE
  5
605BB
330
1F
100
AcDbEntity
  8
1
100
AcDbSpline
210
0.0
220
0.0
230
1.0
 70
     8
 71
     3
 72
     9
 73
     5
 74
     0
 42
0.0000000001
 43
0.0000000001
 40
0.0
 40
0.0
 40
0.0
 40
0.0
 40
0.4940055448
 40
1.0
 40
1.0
 40
1.0
 40
1.0
 10
57.1461806980999
 20
39.59762301089995
 30
0.0
 10
56.93284890749993
 20
39.68416030849994
 30
0.0
 10
56.49249241789994
 20
39.83914018239995
 30
0.0
 10
56.03808039389992
 20
39.94737143489994
 30
0.0
 10
55.80592666609994
 20
39.98869295409992
 30
0.0
1001
ACAD
1000
RTMaterial
1005
0
  0
SPLINE
  5
605BC
330
1F
100
AcDbEntity
  8
1
100
AcDbSpline
210
0.0
220
0.0
230
1.0
 70
     8
 71
     3
 72
    15
 73
    11
 74
     0
 42
0.0000000001
 43
0.0000000001
 40
0.0
 40
0.0
 40
0.0
 40
0.0
 40
0.180064539
 40
0.3652193111999999
 40
0.5353695400000001
 40
0.6756721744
 40
0.7856942183
 40
0.8718599259000001
 40
0.9412261671999999
 40
1.0
 40
1.0
 40
1.0
 40
1.0
 10
59.49590150229994
 20
38.6526584968999
 30
0.0
 10
59.56976051809994
 20
38.62320357689993
 30
0.0
 10
59.72209920049994
 20
38.56957823259995
 30
0.0
 10
59.95164504929994
 20
38.51145251979995
 30
0.0
 10
60.16881552389993
 20
38.48051691439991
 30
0.0
 10
60.35506360359994
 20
38.4777012486
 30
0.0
 10
60.5029532284999
 20
38.49784865859999
 30
0.0
 10
60.61511241239992
 20
38.53469861539992
 30
0.0
 10
60.6971068975999
 20
38.58367526409995
 30
0.0
 10
60.73703828009991
 20
38.62493819079992
 30
0.0
 10
60.75211086069993
 20
38.64606734349997
 30
0.0
1001
ACAD
1000
RTMaterial
1005
0
  0
SPLINE
  5
605BD
330
1F
100
AcDbEntity
  8
1
100
AcDbSpline
210
0.0
220
0.0
230
1.0
 70
     8
 71
     3
 72
    22
 73
    18
 74
     0
 42
0.0000000001
 43
0.0000000001
 40
0.0
 40
0.0
 40
0.0
 40
0.0
 40
0.005877659
 40
0.0122366792
 40
0.0195501111
 40
0.0281416895
 40
0.0498934403
 40
0.0784869619
 40
0.1143927205
 40
0.1578952612
 40
0.2091804796
 40
0.2683582014
 40
0.3354574826999999
 40
0.4104070534000001
 40
0.5828780808000001
 40
0.7819267888
 40
1.0
 40
1.0
 40
1.0
 40
1.0
 10
51.11865978189996
 20
61.41917535079994
 30
0.0
 10
51.11865546719997
 20
61.42286945369995
 30
0.0
 10
51.11994457129998
 20
61.4306119236
 30
0.0
 10
51.12564980180002
 20
61.4416631728999
 30
0.0
 10
51.13490707049999
 20
61.45228750789994
 30
0.0
 10
51.15341011089999
 20
61.4671807682999
 30
0.0
 10
51.18650641699997
 20
61.48441721489996
 30
0.0
 10
51.23753180239998
 20
61.50286595729994
 30
0.0
 10
51.30318936079999
 20
61.5203728461999
 30
0.0
 10
51.38368594529999
 20
61.53685612469991
 30
0.0
 10
51.47924897839999
 20
61.55222442729996
 30
0.0
 10
51.58995649989998
 20
61.56640133199994
 30
0.0
 10
51.71577634709996
 20
61.57932208309995
 30
0.0
 10
51.91279499989997
 20
61.59555027019997
 30
0.0
 10
52.19298904939996
 20
61.61149582889999
 30
0.0
 10
52.5633496451
 20
61.6241890311
 30
0.0
 10
52.82548892739999
 20
61.62853876409991
 30
0.0
 10
52.96254206599996
 20
61.62979466369995
 30
0.0
1001
ACAD
1000
RTMaterial
1005
0
  0
SPLINE
  5
605BE
330
1F
100
AcDbEntity
  8
1
100
AcDbSpline
210
0.0
220
0.0
230
1.0
 70
     8
 71
     3
 72
    12
 73
     8
 74
     0
 42
0.0000000001
 43
0.0000000001
 40
0.0
 40
0.0
 40
0.0
 40
0.0
 40
0.2721419242
 40
0.5299209498
 40
0.7714950493000002
 40
0.8871228984999998
 40
1.0
 40
1.0
 40
1.0
 40
1.0
 10
52.39825897989994
 20
49.18157199099994
 30
0.0
 10
52.31950422389991
 20
49.15952830719994
 30
0.0
 10
52.16111258589996
 20
49.1322020618
 30
0.0
 10
51.92755620869991
 20
49.14535162059997
 30
0.0
 10
51.74930124999992
 20
49.20344712279995
 30
0.0
 10
51.62772355499993
 20
49.27629071939993
 30
0.0
 10
51.57475807809993
 20
49.32054824749997
 30
0.0
 10
51.55059647439992
 20
49.34435660869991
 30
0.0
1001
ACAD
1000
RTMaterial
1005
0
  0
SPLINE
  5
605BF
330
1F
100
AcDbEntity
  8
1
100
AcDbSpline
210
0.0
220
0.0
230
1.0
 70
     8
 71
     3
 72
     9
 73
     5
 74
     0
 42
0.0000000001
 43
0.0000000001
 40
0.0
 40
0.0
 40
0.0
 40
0.0
 40
0.5229006453000001
 40
1.0
 40
1.0
 40
1.0
 40
1.0
 10
51.55059647439992
 20
49.34435660869991
 30
0.0
 10
51.5210757577999
 20
49.37345134439993
 30
0.0
 10
51.46544670589992
 20
49.42995111539989
 30
0.0
 10
51.41427478719993
 20
49.49071661219988
 30
0.0
 10
51.39189137609992
 20
49.52119909819998
 30
0.0
1001
ACAD
1000
RTMaterial
1005
0
  0
SPLINE
  5
605C0
330
1F
100
AcDbEntity
  8
1
100
AcDbSpline
210
0.0
220
0.0
230
1.0
 70
     8
 71
     3
 72
    12
 73
     8
 74
     0
 42
0.0000000001
 43
0.0000000001
 40
0.0
 40
0.0
 40
0.0
 40
0.0
 40
0.0809961154
 40
0.175005807
 40
0.4022810367
 40
0.6790940888
 40
1.0
 40
1.0
 40
1.0
 40
1.0
 10
52.29926991119999
 20
60.55201244309995
 30
0.0
 10
52.30713699399996
 20
60.56035951749999
 30
0.0
 10
52.32596036699999
 20
60.57667905459999
 30
0.0
 10
52.37359267879998
 20
60.60809720269992
 30
0.0
 10
52.45058380239999
 20
60.64424419979991
 30
0.0
 10
52.56087644050001
 20
60.68297873309996
 30
0.0
 10
52.64252469770003
 20
60.70555441079995
 30
0.0
 10
52.68658501819999
 20
60.71668579809994
 30
0.0
1001
ACAD
1000
RTMaterial
1005
0
  0
SPLINE
  5
605C1
330
1F
100
AcDbEntity
  8
1
100
AcDbSpline
210
0.0
220
0.0
230
1.0
 70
     8
 71
     3
 72
     9
 73
     5
 74
     0
 42
0.0000000001
 43
0.0000000001
 40
0.0
 40
0.0
 40
0.0
 40
0.0
 40
0.203558692
 40
1.0
 40
1.0
 40
1.0
 40
1.0
 10
47.46228003439989
 20
54.74650095359999
 30
0.0
 10
47.47869508629992
 20
54.73449876619992
 30
0.0
 10
47.56114618409992
 20
54.67803609929996
 30
0.0
 10
47.65155734569993
 20
54.63337963499999
 30
0.0
 10
47.72567243679993
 20
54.60444777519995
 30
0.0
1001
ACAD
1000
RTMaterial
1005
0
  0
SPLINE
  5
605C2
330
1F
100
AcDbEntity
  8
1
100
AcDbSpline
210
0.0
220
0.0
230
1.0
 70
     8
 71
     3
 72
    14
 73
    10
 74
     0
 42
0.0000000001
 43
0.0000000001
 40
0.0
 40
0.0
 40
0.0
 40
0.0
 40
0.1880475912
 40
0.2951408141
 40
0.4126371359000001
 40
0.5417616267000001
 40
0.6833024636000001
 40
0.8369034775000001
 40
1.0
 40
1.0
 40
1.0
 40
1.0
 10
37.7118262457999
 20
43.89354115759994
 30
0.0
 10
38.05970508879989
 20
43.63281284559997
 30
0.0
 10
38.63514720659992
 20
43.26164169619994
 30
0.0
 10
39.48103159289997
 20
42.81981535969992
 30
0.0
 10
40.22880036089993
 20
42.48736333189992
 30
0.0
 10
41.07057093759993
 20
42.17475442149992
 30
0.0
 10
42.01036282139995
 20
41.89161850779998
 30
0.0
 10
43.04280985259993
 20
41.6511589746999
 30
0.0
 10
43.76584158129992
 20
41.53185751139995
 30
0.0
 10
44.13970234269993
 20
41.48286920739997
 30
0.0
1001
ACAD
1000
RTMaterial
1005
0
  0
SPLINE
  5
605C3
330
1F
100
AcDbEntity
  8
1
100
AcDbSpline
210
0.0
220
0.0
230
1.0
 70
     8
 71
     3
 72
    15
 73
    11
 74
     0
 42
0.0000000001
 43
0.0000000001
 40
0.0
 40
0.0
 40
0.0
 40
0.0
 40
0.1250005918
 40
0.2500008248999999
 40
0.3750009329
 40
0.5000009014
 40
0.6250007561
 40
0.7500005279000001
 40
0.8750002143000001
 40
1.0
 40
1.0
 40
1.0
 40
1.0
 10
37.7118262457999
 20
58.00642535239996
 30
0.0
 10
37.93304626619994
 20
58.19682366869995
 30
0.0
 10
38.39236095069992
 20
58.55851089129993
 30
0.0
 10
39.12604408869993
 20
59.03840882189991
 30
0.0
 10
39.89923079109997
 20
59.45182372309995
 30
0.0
 10
40.7059820259999
 20
59.79514382049996
 30
0.0
 10
41.54006516319992
 20
60.06539222639998
 30
0.0
 10
42.39494895429999
 20
60.26018348139996
 30
0.0
 10
43.26375323509995
 20
60.37778764959995
 30
0.0
 10
43.84783128039998
 20
60.40403093829991
 30
0.0
 10
44.13970234269998
 20
60.40405377349998
 30
0.0
1001
ACAD
1000
RTMaterial
1005
0
  0
SPLINE
  5
605C4
330
1F
100
AcDbEntity
  8
1
100
AcDbSpline
210
0.0
220
0.0
230
1.0
 70
     8
 71
     3
 72
    11
 73
     7
 74
     0
 42
0.0000000001
 43
0.0000000001
 40
0.0
 40
0.0
 40
0.0
 40
0.0
 40
0.2278734799
 40
0.470999141
 40
0.7286845811
 40
1.0
 40
1.0
 40
1.0
 40
1.0
 10
33.79405560059991
 20
47.45941769
 30
0.0
 10
34.05320459959995
 20
47.15053880109997
 30
0.0
 10
34.61650635309991
 20
46.53507056029996
 30
0.0
 10
35.54971872489989
 20
45.64440385269995
 30
0.0
 10
36.58891703499995
 20
44.7566709854999
 30
0.0
 10
37.32768432269995
 20
44.18144793089993
 30
0.0
 10
37.7118262457999
 20
43.89354115759994
 30
0.0
1001
ACAD
1000
RTMaterial
1005
0
  0
SPLINE
  5
605C5
330
1F
100
AcDbEntity
  8
1
100
AcDbSpline
210
0.0
220
0.0
230
1.0
 70
     8
 71
     3
 72
     9
 73
     5
 74
     0
 42
0.0000000001
 43
0.0000000001
 40
0.0
 40
0.0
 40
0.0
 40
0.0
 40
0.2380028874
 40
1.0
 40
1.0
 40
1.0
 40
1.0
 10
47.29894722969993
 20
55.49775137669996
 30
0.0
 10
47.30498057319993
 20
55.51323050029998
 30
0.0
 10
47.33263141249994
 20
55.5773665943999
 30
0.0
 10
47.3687817048999
 20
55.63767663339996
 30
0.0
 10
47.39950826899991
 20
55.68109372479995
 30
0.0
1001
ACAD
1000
RTMaterial
1005
0
  0
SPLINE
  5
605C6
330
1F
100
AcDbEntity
  8
1
100
AcDbSpline
210
0.0
220
0.0
230
1.0
 70
     8
 71
     3
 72
     9
 73
     5
 74
     0
 42
0.0000000001
 43
0.0000000001
 40
0.0
 40
0.0
 40
0.0
 40
0.0
 40
0.5169476279000001
 40
1.0
 40
1.0
 40
1.0
 40
1.0
 10
53.03729405230001
 20
61.62673845919994
 30
0.0
 10
53.20875045459996
 20
61.61111274749998
 30
0.0
 10
53.54015500239995
 20
61.57790433619993
 30
0.0
 10
53.87089983599998
 20
61.53858732509991
 30
0.0
 10
54.03040708989999
 20
61.51762870069996
 30
0.0
1001
ACAD
1000
RTMaterial
1005
0
  0
LINE
  5
605C7
330
1F
100
AcDbEntity
  8
1
100
AcDbLine
 10
53.03729405229995
 20
40.33058036439991
 30
0.0
 11
54.42762648329988
 21
40.22727451139997
 31
0.0
1001
ACAD
1000
RTMaterial
1005
0
  0
SPLINE
  5
605C8
330
1F
100
AcDbEntity
  8
1
100
AcDbSpline
210
0.0
220
0.0
230
1.0
 70
     8
 71
     3
 72
     9
 73
     5
 74
     0
 42
0.0000000001
 43
0.0000000001
 40
0.0
 40
0.0
 40
0.0
 40
0.0
 40
0.2490632236
 40
1.0
 40
1.0
 40
1.0
 40
1.0
 10
52.96254206599996
 20
61.62979466369995
 30
0.0
 10
52.96875443389996
 20
61.62985159129994
 30
0.0
 10
52.99369924069998
 20
61.62976966339994
 30
0.0
 10
53.01864000500001
 20
61.62843849929998
 30
0.0
 10
53.03729405230001
 20
61.62673845919994
 30
0.0
1001
ACAD
1000
RTMaterial
1005
0
  0
SPLINE
  5
605C9
330
1F
100
AcDbEntity
  8
1
100
AcDbSpline
210
0.0
220
0.0
230
1.0
 70
     8
 71
     3
 72
     8
 73
     4
 74
     0
 42
0.0000000001
 43
0.0000000001
 40
0.0
 40
0.0
 40
0.0
 40
0.0
 40
1.0
 40
1.0
 40
1.0
 40
1.0
 10
53.03729405229995
 20
40.33058036439991
 30
0.0
 10
53.0123176507999
 20
40.33243623359999
 30
0.0
 10
52.98738305509994
 20
40.33497265339997
 30
0.0
 10
52.96254206599991
 20
40.33816485339992
 30
0.0
1001
ACAD
1000
RTMaterial
1005
0
  0
SPLINE
  5
605CA
330
1F
100
AcDbEntity
  8
1
100
AcDbSpline
210
0.0
220
0.0
230
1.0
 70
     8
 71
     3
 72
     8
 73
     4
 74
     0
 42
0.0000000001
 43
0.0000000001
 40
0.0
 40
0.0
 40
0.0
 40
0.0
 40
1.0
 40
1.0
 40
1.0
 40
1.0
 10
37.7118262457999
 20
58.00642535239996
 30
0.0
 10
36.39266633339992
 20
56.87105873529998
 30
0.0
 10
35.07432063599992
 20
55.73474512539991
 30
0.0
 10
33.75695078379994
 20
54.59730198299991
 30
0.0
1001
ACAD
1000
RTMaterial
1005
0
  0
SPLINE
  5
605CB
330
1F
100
AcDbEntity
  8
1
100
AcDbSpline
210
0.0
220
0.0
230
1.0
 70
     8
 71
     3
 72
    17
 73
    13
 74
     0
 42
0.0000000001
 43
0.0000000001
 40
0.0
 40
0.0
 40
0.0
 40
0.0
 40
0.050239756
 40
0.1044092447
 40
0.161680616
 40
0.2213799173
 40
0.3459791032
 40
0.4750085195000001
 40
0.6063270144000001
 40
0.7383932415000001
 40
0.8699810280999999
 40
1.0
 40
1.0
 40
1.0
 40
1.0
 10
28.37026633319993
 20
49.55082661199992
 30
0.0
 10
28.44478777099994
 20
49.64974345159993
 30
0.0
 10
28.60517812059993
 20
49.85117177779994
 30
0.0
 10
28.86505634259993
 20
50.15343315569999
 30
0.0
 10
29.14931530379994
 20
50.46523710079992
 30
0.0
 10
29.56068121649991
 20
50.89586676609997
 30
0.0
 10
30.11008543869991
 20
51.43898409949997
 30
0.0
 10
30.80280041719993
 20
52.08765793399994
 30
0.0
 10
31.52300794699994
 20
52.73355413659993
 30
0.0
 10
32.25966600069995
 20
53.37028489409994
 30
0.0
 10
33.00439162219993
 20
53.99256492769996
 30
0.0
 10
33.5059613009999
 20
54.39797364639997
 30
0.0
 10
33.75695078379994
 20
54.59730198299991
 30
0.0
1001
ACAD
1000
RTMaterial
1005
0
  0
SPLINE
  5
605CC
330
1F
100
AcDbEntity
  8
1
100
AcDbSpline
210
0.0
220
0.0
230
1.0
 70
     8
 71
     3
 72
     9
 73
     5
 74
     0
 42
0.0000000001
 43
0.0000000001
 40
0.0
 40
0.0
 40
0.0
 40
0.0
 40
0.2455899182
 40
1.0
 40
1.0
 40
1.0
 40
1.0
 10
51.3255111380999
 20
50.03901500169996
 30
0.0
 10
51.3290872300999
 20
50.04788960999997
 30
0.0
 10
51.34439749199993
 20
50.08372049679997
 30
0.0
 10
51.36265594029993
 20
50.11828048809997
 30
0.0
 10
51.37784584799994
 20
50.14344230559993
 30
0.0
1001
ACAD
1000
RTMaterial
1005
0
  0
SPLINE
  5
605CD
330
1F
100
AcDbEntity
  8
1
100
AcDbSpline
210
0.0
220
0.0
230
1.0
 70
     8
 71
     3
 72
     9
 73
     5
 74
     0
 42
0.0000000001
 43
0.0000000001
 40
0.0
 40
0.0
 40
0.0
 40
0.0
 40
0.4959186114
 40
1.0
 40
1.0
 40
1.0
 40
1.0
 10
62.19999999999993
 20
40.92435151169996
 30
0.0
 10
61.98388208249991
 20
40.53373720539991
 30
0.0
 10
61.52125299659991
 20
39.76074219889995
 30
0.0
 10
61.01562753159993
 20
39.01547216729995
 30
0.0
 10
60.75211086069993
 20
38.64606734349997
 30
0.0
1001
ACAD
1000
RTMaterial
1005
0
  0
ELLIPSE
  5
605CE
330
1F
100
AcDbEntity
  8
1
100
AcDbEllipse
 10
5.130206357299925
 20
0.0
 30
0.0
 11
-71.3526059457
 21
-47.5325136385
 31
0.0
210
0.0
220
0.0
230
1.0
 40
0.5524295597
 41
-2.590703958899999
 42
-2.5859225936
1001
ACAD
1000
RTMaterial
1005
0
  0
ELLIPSE
  5
605CF
330
1F
100
AcDbEntity
  8
1
100
AcDbEllipse
 10
41.32169976049993
 20
0.0
 30
0.0
 11
9.350326219100002
 21
61.7085846004
 31
0.0
210
0.0
220
0.0
230
1.0
 40
0.2418325815
 41
-0.1454541193
 42
-0.1048197339
1001
ACAD
1000
RTMaterial
1005
0
  0
ELLIPSE
  5
605D0
330
1F
100
AcDbEntity
  8
1
100
AcDbEllipse
 10
-6.681431717000123
 20
0.0
 30
0.0
 11
59.1014640698
 21
61.66459022729999
 31
0.0
210
0.0
220
0.0
230
1.0
 40
0.054933693
 41
-0.1517183933
 42
-0.1473908561
1001
ACAD
1000
RTMaterial
1005
0
  0
ELLIPSE
  5
605D1
330
1F
100
AcDbEntity
  8
1
100
AcDbEllipse
 10
51.1469130120999
 20
56.26753824629997
 30
0.0
 11
-2.522367721899999
 21
0.3806746899000002
 31
0.0
210
0.0
220
0.0
230
1.0
 40
0.0812499867
 41
-0.46007086
 42
-0.1980372578
1001
ACAD
1000
RTMaterial
1005
0
  0
ELLIPSE
  5
605D2
330
1F
100
AcDbEntity
  8
1
100
AcDbEllipse
 10
53.12510458809993
 20
50.49164721389996
 30
0.0
 11
2.5101397666
 21
5.0077258413
 31
0.0
210
0.0
220
0.0
230
1.0
 40
0.2559254971
 41
1.7674061774
 42
1.787672183399999
1001
ACAD
1000
RTMaterial
1005
0
  0
ELLIPSE
  5
605D3
330
1F
100
AcDbEntity
  8
1
100
AcDbEllipse
 10
53.65932359879991
 20
48.57310394769996
 30
0.0
 11
-1.8085061566
 21
0.4238164245000002
 31
0.0
210
0.0
220
0.0
230
1.0
 40
0.0225904913
 41
1.0966025931
 42
2.9384186467
1001
ACAD
1000
RTMaterial
1005
0
  0
ELLIPSE
  5
605D4
330
1F
100
AcDbEntity
  8
1
100
AcDbEllipse
 10
5.288082645699944
 20
0.0
 30
0.0
 11
-62.6963132858
 21
-58.95354049859999
 31
0.0
210
0.0
220
0.0
230
1.0
 40
0.2930368706
 41
-2.6574095394
 42
-2.6562929128
1001
ACAD
1000
RTMaterial
1005
0
  0
ELLIPSE
  5
605D5
330
1F
100
AcDbEntity
  8
1
100
AcDbEllipse
 10
54.55675739809993
 20
34.22187169739994
 30
0.0
 11
1.4254166167
 21
12.0690505129
 31
0.0
210
0.0
220
0.0
230
1.0
 40
0.820104947
 41
-0.0559103229
 42
0.0613132921
1001
ACAD
1000
RTMaterial
1005
0
  0
ELLIPSE
  5
605D6
330
1F
100
AcDbEntity
  8
1
100
AcDbEllipse
 10
50.93481718949994
 20
48.2208687639
 30
0.0
 11
-8.541864353799999
 21
1.1080221116
 31
0.0
210
0.0
220
0.0
230
1.0
 40
0.1780051977
 41
-4.3068690422
 42
-4.173437461399999
1001
ACAD
1000
RTMaterial
1005
0
  0
ELLIPSE
  5
605D7
330
1F
100
AcDbEntity
  8
1
100
AcDbEllipse
 10
48.69192175399991
 20
54.26841168899994
 30
0.0
 11
-2.3701875655
 21
0.3525254196000001
 31
0.0
210
0.0
220
0.0
230
0.9999999999999998
 40
0.0700311318
 41
-1.464172001699999
 42
-1.270882900699999
1001
ACAD
1000
RTMaterial
1005
0
  0
ELLIPSE
  5
605D8
330
1F
100
AcDbEntity
  8
1
100
AcDbEllipse
 10
75.22841198209994
 20
0.0
 30
0.0
 11
-21.65720707059999
 21
61.02097775969998
 31
0.0
210
0.0
220
0.0
230
1.0
 40
0.43683336
 41
0.0505064335
 42
0.0553089532
1001
ACAD
1000
RTMaterial
1005
0
  0
ELLIPSE
  5
605D9
330
1F
100
AcDbEntity
  8
1
100
AcDbEllipse
 10
377.4309018863999
 20
-29.42413152270006
 30
0.0
 11
-349.755913528
 21
86.52270485610001
 31
0.0
210
0.0
220
0.0
230
0.9999999999999998
 40
0.0659786025
 41
0.4300795956
 42
0.446481409
1001
ACAD
1000
RTMaterial
1005
0
  0
ELLIPSE
  5
605DA
330
1F
100
AcDbEntity
  8
1
100
AcDbEllipse
 10
644.3712854179
 20
0.0
 30
0.0
 11
-694.3565392325999
 21
58.89724181000003
 31
0.0
210
0.0
220
0.0
230
1.0
 40
0.0267182894
 41
0.5290258839000001
 42
0.5537764563000001
1001
ACAD
1000
RTMaterial
1005
0
  0
VIEWPORT
  5
6B
102
{ACAD_XDICTIONARY
360
6060F
102
}
330
50
100
AcDbEntity
 67
     1
  8
0
100
AcDbViewport
 10
155.3592437148233
 20
160.4455827878762
 30
0.0
 40
349.5854424261001
 41
282.2272140146125
 68
     1
 69
     1
 12
155.3592437148233
 22
160.4455827878762
 13
0.0
 23
0.0
 14
10.0
 24
10.0
 15
10.0
 25
10.0
 16
0.0
 26
0.0
 36
1.0
 17
0.0
 27
0.0
 37
0.0
 42
50.0
 43
0.0
 44
0.0
 45
282.2272140146125
 50
0.0
 51
0.0
 72
  1000
 90
    32864
  1

281
     0
 71
     1
 74
     0
110
0.0
120
0.0
130
0.0
111
1.0
121
0.0
131
0.0
112
0.0
122
1.0
132
0.0
 79
     0
146
0.0
  0
VIEWPORT
  5
6D
102
{ACAD_XDICTIONARY
360
60611
102
}
330
50
100
AcDbEntity
 67
     1
  8
0
100
AcDbViewport
 10
133.3499939441681
 20
101.5999939441681
 30
0.0
 40
213.3599903106689
 41
162.5599903106689
 68
     2
 69
     2
 12
210.0
 22
148.5
 13
0.0
 23
0.0
 14
10.0
 24
10.0
 15
10.0
 25
10.0
 16
0.0
 26
0.0
 36
1.0
 17
0.0
 27
0.0
 37
0.0
 42
50.0
 43
0.0
 44
0.0
 45
324.0677920111345
 50
0.0
 51
0.0
 72
   100
 90
    32864
  1

281
     0
 71
     1
 74
     0
110
0.0
120
0.0
130
0.0
111
1.0
121
0.0
131
0.0
112
0.0
122
1.0
132
0.0
 79
     0
146
0.0
  0
ENDSEC
  0
SECTION
  2
OBJECTS
  0
DICTIONARY
  5
C
330
0
100
AcDbDictionary
281
     1
  3
ACAD_COLOR
350
85
  3
ACAD_GROUP
350
D
  3
ACAD_LAYOUT
350
1A
  3
ACAD_MATERIAL
350
84
  3
ACAD_MLINESTYLE
350
17
  3
ACAD_PLOTSETTINGS
350
19
  3
ACAD_PLOTSTYLENAME
350
E
  3
ACAD_TABLESTYLE
350
A1
  3
ACDBHEADERROUNDTRIPXREC
350
6060A
  3
AcDbVariableDictionary
350
5E
  3
ASE_INDEX_DICTIONARY
350
349E9
  3
DWGPROPS
350
60609
  0
DICTIONARY
  5
E2
330
2
100
AcDbDictionary
280
     1
281
     1
  3
ACAD_LAYERFILTERS
360
605F8
  3
ACAD_LAYERSTATES
360
3759A
  3
ACLYDICTIONARY
360
605F7
  0
DICTIONARY
  5
31EE
330
1F
100
AcDbDictionary
280
     1
281
     1
  3
ACAD_SORTENTS
360
31EF
  0
DICTIONARY
  5
43668
330
680
100
AcDbDictionary
280
     1
281
     1
  3
ACAD_SORTENTS
360
43669
  0
DICTIONARY
  5
60613
330
71
100
AcDbDictionary
280
     1
281
     1
  3
ACAD_XREC_ROUNDTRIP
360
60614
  0
DICTIONARY
  5
60615
330
73
100
AcDbDictionary
280
     1
281
     1
  3
ACAD_XREC_ROUNDTRIP
360
60616
  0
DICTIONARY
  5
60059
330
6004C
100
AcDbDictionary
280
     1
281
     1
  3
ACAD_DIMASSOC
360
60063
  0
DICTIONARY
  5
60071
330
60064
100
AcDbDictionary
280
     1
281
     1
  3
ACAD_DIMASSOC
360
6007B
  0
DICTIONARY
  5
60089
330
6007C
100
AcDbDictionary
280
     1
281
     1
  3
ACAD_DIMASSOC
360
60093
  0
DICTIONARY
  5
600EF
330
600E2
100
AcDbDictionary
280
     1
281
     1
  3
ACAD_DIMASSOC
360
600F9
  0
DICTIONARY
  5
6060F
330
6B
100
AcDbDictionary
280
     1
281
     1
  3
ACAD_XREC_ROUNDTRIP
360
60610
  0
DICTIONARY
  5
60611
330
6D
100
AcDbDictionary
280
     1
281
     1
  3
ACAD_XREC_ROUNDTRIP
360
60612
  0
DICTIONARY
  5
85
102
{ACAD_REACTORS
330
C
102
}
330
C
100
AcDbDictionary
281
     1
  0
DICTIONARY
  5
D
102
{ACAD_REACTORS
330
C
102
}
330
C
100
AcDbDictionary
281
     1
  0
DICTIONARY
  5
1A
102
{ACAD_REACTORS
330
C
102
}
330
C
100
AcDbDictionary
281
     1
  3
\M+1838C\M+18343\M+18341\M+18345\M+183671
350
51
  3
\M+1838C\M+18343\M+18341\M+18345\M+183672
350
56
  3
Model
350
22
  0
DICTIONARY
  5
84
102
{ACAD_REACTORS
330
C
102
}
330
C
100
AcDbDictionary
281
     1
  0
DICTIONARY
  5
17
102
{ACAD_REACTORS
330
C
102
}
330
C
100
AcDbDictionary
281
     1
  3
Standard
350
18
  0
DICTIONARY
  5
19
102
{ACAD_REACTORS
330
C
102
}
330
C
100
AcDbDictionary
281
     1
  0
ACDBDICTIONARYWDFLT
  5
E
102
{ACAD_REACTORS
330
C
102
}
330
C
100
AcDbDictionary
281
     1
  3
Normal
350
F
100
AcDbDictionaryWithDefault
340
F
  0
DICTIONARY
  5
A1
102
{ACAD_REACTORS
330
C
102
}
330
C
100
AcDbDictionary
281
     1
  3
Standard
350
A2
  0
DICTIONARY
  5
6060A
102
{ACAD_REACTORS
330
C
102
}
330
C
100
AcDbDictionary
281
     1
  0
DICTIONARY
  5
5E
102
{ACAD_REACTORS
330
C
102
}
330
C
100
AcDbDictionary
281
     1
  3
CTABLESTYLE
350
B8
  3
DIMASSOC
350
5F
  3
HIDETEXT
350
63
  3
PROJECTNAME
350
31CE
  0
DICTIONARY
  5
349E9
102
{ACAD_REACTORS
330
C
102
}
330
C
100
AcDbDictionary
281
     1
  3
ASEBlockHierarchyIndexRecord
350
349EA
1001
DCO15
1040
1842496176.844
  0
XRECORD
  5
60609
102
{ACAD_REACTORS
330
C
102
}
330
C
100
AcDbXrecord
280
     1
  1
DWGPROPS COOKIE
  2

  3

  4

  6

  7

  8

  9

300
=
301
=
302
=
303
=
304
=
305
=
306
=
307
=
308
=
309
=
 40
1.981101828703703
 41
2455489.391063368
 42
2458416.620301447
  1

 90
        0
  0
DICTIONARY
  5
605F8
102
{ACAD_REACTORS
330
E2
102
}
330
E2
100
AcDbDictionary
281
     1
  0
DICTIONARY
  5
3759A
102
{ACAD_REACTORS
330
E2
102
}
330
E2
100
AcDbDictionary
281
     1
  0
DICTIONARY
  5
605F7
102
{ACAD_REACTORS
330
E2
102
}
330
E2
100
AcDbDictionary
281
     1
1001
ACAD
1000
<All
  0
SORTENTSTABLE
  5
31EF
102
{ACAD_REACTORS
330
31EE
102
}
330
31EE
100
AcDbSortentsTable
330
1F
331
5FEC3
  5
5FEC3
331
5FEDD
  5
5FEDD
331
5FF5D
  5
5FF63
331
5FED4
  5
5FED4
331
5FEEE
  5
5FEF0
331
5FF6E
  5
5FF74
331
5FEC1
  5
5FEC1
331
5FF5B
  5
5FF61
331
5FF41
  5
5FF47
331
5FED2
  5
5FED2
331
5FF6C
  5
5FF72
331
5FED9
  5
5FED9
331
5FEFB
  5
5FEFD
331
5FF59
  5
5FF5F
331
5FF3F
  5
5FF45
331
5FED0
  5
5FED0
331
5FEEA
  5
5FEEC
331
5FF0C
  5
5FF0E
331
5FF6A
  5
5FF70
331
5FEF9
  5
5FEFB
331
5FF57
  5
5FF5D
331
5FF3D
  5
5FF43
331
5FECE
  5
5FECE
331
5FEE8
  5
5FEEA
331
5FF0A
  5
5FF0C
331
5FF68
  5
5FF6E
331
5FF4E
  5
5FF54
331
5FF55
  5
5FF5B
331
5FF3B
  5
5FF41
331
5FECC
  5
5FECC
331
5FF66
  5
5FF6C
331
5FF4C
  5
5FF52
331
5FEF7
  5
5FEF9
331
5FF75
  5
5FF7B
331
5FF53
  5
5FF59
331
5FF39
  5
5FF3F
331
5FECA
  5
5FECA
331
5FEE4
  5
5FEE6
331
5CD11
  5
5CD11
331
5FF64
  5
5FF6A
331
5FF4A
  5
5FF50
331
5FEF5
  5
5FEF7
331
5FF51
  5
5FF57
331
5FF73
  5
5FF79
331
5FEC8
  5
5FEC8
331
5FEE2
  5
5FEE2
331
5FF62
  5
5FF68
331
5FF48
  5
5FF4E
331
5FEF3
  5
5FEF5
331
5FF37
  5
5FF3D
331
5FF71
  5
5FF77
331
5FEC6
  5
5FEC6
331
5FEE0
  5
5FEE0
331
5FF60
  5
5FF66
331
5FF46
  5
5FF4C
331
5FEF1
  5
5FEF3
331
5FEC4
  5
5FEC4
331
5FEDE
  5
5FEDE
331
5FF5E
  5
5FF64
331
5FF44
  5
5FF4A
331
5FED5
  5
5FED5
331
5FEEF
  5
5FEF1
331
5FF6F
  5
5FF75
331
5FEC2
  5
5FEC2
331
5FEDC
  5
5FEDC
331
5FF5C
  5
5FF62
331
5FED3
  5
5FED3
331
5FEED
  5
5FEEF
331
5FF6D
  5
5FF73
331
5FEDA
  5
5FEDA
331
5FEFC
  5
5FEFE
331
5FF5A
  5
5FF60
331
5FED1
  5
5FED1
331
5FF0D
  5
5FF0F
331
5FF6B
  5
5FF71
331
5FF58
  5
5FF5E
331
5FF3E
  5
5FF44
331
5FEFA
  5
5FEFC
331
5FECF
  5
5FECF
331
5FEE9
  5
5FEEB
331
5FF0B
  5
5FF0D
331
5FF4F
  5
5FF55
331
5FF69
  5
5FF6F
331
5FEF8
  5
5FEFA
331
5FF56
  5
5FF5C
331
5FF3C
  5
5FF42
331
5FECD
  5
5FECD
331
5FEE7
  5
5FEE9
331
5FF4D
  5
5FF53
331
5FF67
  5
5FF6D
331
68C
  5
435D5
331
5FF76
  5
5FF7C
331
5FF54
  5
5FF5A
331
5FF3A
  5
5FF40
331
5FECB
  5
5FECB
331
5FEE5
  5
5FEE7
331
5FF65
  5
5FF6B
331
5FF4B
  5
5FF51
331
5FF38
  5
5FF3E
331
5FF52
  5
5FF58
331
5FF74
  5
5FF7A
331
5FEC9
  5
5FEC9
331
5FEE3
  5
5FEE5
331
5FF63
  5
5FF69
331
5FF49
  5
5FF4F
331
5FEF4
  5
5FEF6
331
5FF50
  5
5FF56
331
5FF72
  5
5FF78
331
5FEC7
  5
5FEC7
331
5FEE1
  5
5FEE1
331
5FF61
  5
5FF67
331
5FF47
  5
5FF4D
331
5FEF2
  5
5FEF4
331
5FF36
  5
5FF3C
331
5FF14
  5
5FF1A
331
5FF70
  5
5FF76
331
5FEC5
  5
5FEC5
331
5FEDF
  5
5FEDF
331
60012
  5
60018
331
5FF5F
  5
5FF65
331
5FED6
  5
5FED6
331
5FEF0
  5
5FEF2
  0
SORTENTSTABLE
  5
43669
102
{ACAD_REACTORS
330
43668
102
}
330
43668
100
AcDbSortentsTable
330
680
  0
XRECORD
  5
60614
102
{ACAD_REACTORS
330
60613
102
}
330
60613
100
AcDbXrecord
280
     1
102
SHADEPLOT
 70
     0
  0
XRECORD
  5
60616
102
{ACAD_REACTORS
330
60615
102
}
330
60615
100
AcDbXrecord
280
     1
102
SHADEPLOT
 70
     0
  0
DIMASSOC
  5
60063
102
{ACAD_REACTORS
330
60059
102
}
330
60059
100
AcDbDimAssoc
330
6004C
 90
        3
 70
     0
 71
     0
  1
AcDbOsnapPointRef
 72
     1
331
5FEEF
 73
     2
 91
        0
 40
1.0
 10
0.0
 20
0.0
 30
2.000000000000000E+50
 75
     0
  1
AcDbOsnapPointRef
 72
     1
331
5FED5
 73
     2
 91
        0
 40
1.0
 10
0.0
 20
0.0
 30
2.000000000000000E+50
 75
     0
  0
DIMASSOC
  5
6007B
102
{ACAD_REACTORS
330
60071
102
}
330
60071
100
AcDbDimAssoc
330
60064
 90
        3
 70
     0
 71
     0
  1
AcDbOsnapPointRef
 72
    13
331
5FF47
 73
     2
 91
        0
 40
1.570796326794896
 10
0.0
 20
0.0
 30
2.000000000000000E+50
 75
     0
  1
AcDbOsnapPointRef
 72
     1
331
5FF48
 73
     2
 91
        0
 40
4.712388980384689
 10
0.0
 20
0.0
 30
2.000000000000000E+50
 75
     0
  0
DIMASSOC
  5
60093
102
{ACAD_REACTORS
330
60089
102
}
330
60089
100
AcDbDimAssoc
330
6007C
 90
        3
 70
     0
 71
     0
  1
AcDbOsnapPointRef
 72
     1
331
5FF0C
 73
     2
 91
        0
 40
1.0
 10
0.0
 20
0.0
 30
2.000000000000000E+50
 75
     0
  1
AcDbOsnapPointRef
 72
    13
331
5FF4A
 73
     2
 91
        0
 40
3.141592653589793
 10
0.0
 20
0.0
 30
2.000000000000000E+50
 75
     0
  0
DIMASSOC
  5
600F9
102
{ACAD_REACTORS
330
600EF
102
}
330
600EF
100
AcDbDimAssoc
330
600E2
 90
        2
 70
     0
 71
     0
  1
AcDbOsnapPointRef
 72
     1
331
5FF47
 73
     2
 91
        0
 40
3.141592653589793
 10
0.0
 20
0.0
 30
2.000000000000000E+50
 75
     0
  0
XRECORD
  5
60610
102
{ACAD_REACTORS
330
6060F
102
}
330
6060F
100
AcDbXrecord
280
     1
102
SHADEPLOT
 70
     0
  0
XRECORD
  5
60612
102
{ACAD_REACTORS
330
60611
102
}
330
60611
100
AcDbXrecord
280
     1
102
SHADEPLOT
 70
     0
  0
LAYOUT
  5
51
102
{ACAD_XDICTIONARY
360
B2
102
}
102
{ACAD_REACTORS
330
1A
102
}
330
1A
100
AcDbPlotSettings
  1

  2
none_device
  4
Letter_(8.50_x_11.00_Inches)
  6

 40
6.349999904632567
 41
6.349999904632567
 42
6.350006103515625
 43
6.350006103515625
 44
215.8999938964844
 45
279.3999938964844
 46
0.0
 47
0.0
 48
0.0
 49
0.0
140
0.0
141
0.0
142
1.0
143
1.0
 70
   688
 72
     1
 73
     1
 74
     5
  7

 75
    16
147
1.0
148
0.0
149
0.0
100
AcDbLayout
  1
\M+1838C\M+18343\M+18341\M+18345\M+183671
 70
     1
 71
     1
 10
-6.350006103515625
 20
-6.349999904632567
 11
273.0499877929688
 21
209.5499939918518
 12
0.0
 22
0.0
 32
0.0
 14
26.66999878883364
 24
20.31999878883365
 34
0.0
 15
240.0299890995025
 25
182.8799890995025
 35
0.0
146
0.0
 13
0.0
 23
0.0
 33
0.0
 16
1.0
 26
0.0
 36
0.0
 17
0.0
 27
1.0
 37
0.0
 76
     0
330
50
331
6B
  0
LAYOUT
  5
56
102
{ACAD_XDICTIONARY
360
B5
102
}
102
{ACAD_REACTORS
330
1A
102
}
330
1A
100
AcDbPlotSettings
  1

  2
none_device
  4
Letter_(8.50_x_11.00_Inches)
  6

 40
6.349999904632567
 41
6.349999904632567
 42
6.350006103515625
 43
6.350006103515625
 44
215.8999938964844
 45
279.3999938964844
 46
0.0
 47
0.0
 48
0.0
 49
0.0
140
0.0
141
0.0
142
1.0
143
1.0
 70
   688
 72
     1
 73
     1
 74
     5
  7

 75
    16
147
1.0
148
0.0
149
0.0
100
AcDbLayout
  1
\M+1838C\M+18343\M+18341\M+18345\M+183672
 70
     1
 71
     2
 10
-6.350006103515625
 20
-6.349999904632567
 11
273.0499877929688
 21
209.5499939918518
 12
0.0
 22
0.0
 32
0.0
 14
26.66999878883363
 24
20.31999878883363
 34
0.0
 15
240.0299890995026
 25
182.8799890995025
 35
0.0
146
0.0
 13
0.0
 23
0.0
 33
0.0
 16
1.0
 26
0.0
 36
0.0
 17
0.0
 27
1.0
 37
0.0
 76
     0
330
55
331
71
  0
LAYOUT
  5
22
102
{ACAD_XDICTIONARY
360
6060B
102
}
102
{ACAD_REACTORS
330
1A
102
}
330
1A
100
AcDbPlotSettings
  1

  2
none_device
  4
ANSI_A_(8.50_x_11.00_Inches)
  6

 40
6.349999904632567
 41
19.04999923706055
 42
6.350006103515625
 43
19.04998779296875
 44
215.8999938964844
 45
279.3999938964844
 46
0.0
 47
0.0
 48
0.0
 49
0.0
140
0.0
141
0.0
142
1.0
143
78.436453180766
 70
 11952
 72
     0
 73
     1
 74
     0
  7

 75
     0
147
0.0127491741332998
148
0.0
149
0.0
100
AcDbLayout
  1
Model
 70
     1
 71
     0
 10
0.0
 20
0.0
 11
12.0
 21
9.0
 12
0.0
 22
0.0
 32
0.0
 14
0.0
 24
0.0
 34
0.0
 15
0.0
 25
0.0
 35
0.0
146
0.0
 13
0.0
 23
0.0
 33
0.0
 16
1.0
 26
0.0
 36
0.0
 17
0.0
 27
1.0
 37
0.0
 76
     0
330
1F
  0
MLINESTYLE
  5
18
102
{ACAD_REACTORS
330
17
102
}
330
17
100
AcDbMlineStyle
  2
STANDARD
 70
     0
  3

 62
   256
 51
90.0
 52
90.0
 71
     2
 49
0.5
 62
   256
  6
BYLAYER
 49
-0.5
 62
   256
  6
BYLAYER
  0
ACDBPLACEHOLDER
  5
F
102
{ACAD_REACTORS
330
E
102
}
330
E
  0
TABLESTYLE
  5
A2
102
{ACAD_REACTORS
330
A1
102
}
330
A1
100
AcDbTableStyle
  3
Standard
 70
     0
 71
     0
 40
1.5
 41
1.5
280
     0
281
     0
  7
Standard
140
4.5
170
     2
 62
     0
 63
     7
283
     0
274
    -2
284
     1
 64
     0
275
    -2
285
     1
 65
     0
276
    -2
286
     1
 66
     0
277
    -2
287
     1
 67
     0
278
    -2
288
     1
 68
     0
279
    -2
289
     1
 69
     0
  7
Standard
140
6.0
170
     5
 62
     0
 63
     7
283
     0
274
    -2
284
     1
 64
     0
275
    -2
285
     1
 65
     0
276
    -2
286
     1
 66
     0
277
    -2
287
     1
 67
     0
278
    -2
288
     1
 68
     0
279
    -2
289
     1
 69
     0
  7
Standard
140
4.5
170
     5
 62
     0
 63
     7
283
     0
274
    -2
284
     1
 64
     0
275
    -2
285
     1
 65
     0
276
    -2
286
     1
 66
     0
277
    -2
287
     1
 67
     0
278
    -2
288
     1
 68
     0
279
    -2
289
     1
 69
     0
  0
DICTIONARYVAR
  5
B8
102
{ACAD_REACTORS
330
5E
102
}
330
5E
100
DictionaryVariables
280
     0
  1
STANDARD
  0
DICTIONARYVAR
  5
5F
102
{ACAD_REACTORS
330
5E
102
}
330
5E
100
DictionaryVariables
280
     0
  1
2
  0
DICTIONARYVAR
  5
63
102
{ACAD_REACTORS
330
5E
102
}
330
5E
100
DictionaryVariables
280
     0
  1
1
  0
DICTIONARYVAR
  5
31CE
102
{ACAD_REACTORS
330
5E
102
}
330
5E
100
DictionaryVariables
280
     0
  1

  0
XRECORD
  5
349EA
102
{ACAD_REACTORS
330
349E9
102
}
330
349E9
100
AcDbXrecord
280
     1
330
68C
330
431D
330
431E
330
4329
330
4334
330
4335
330
4B09
330
4B0A
330
5153
330
5154
330
515D
330
515E
330
516A
330
516B
330
5177
330
5178
330
85B4
330
85B5
330
8620
330
8621
330
862A
330
862B
330
8637
330
8638
330
8644
330
8645
330
9773
330
9774
330
977D
330
977E
330
978A
330
978B
330
9797
330
9798
330
BD86
330
BD87
330
BD8F
330
BD90
330
BD98
330
BDA0
330
BDA1
330
BDDD
330
BDDE
330
BDE7
330
BDE8
330
BDF4
330
BDF5
330
BE01
330
BE02
330
E473
330
E474
330
E48D
330
E48E
330
E485
330
E47C
330
E47D
330
E4CC
330
E4CD
330
E4D7
330
E4D8
330
1C63B
330
1C63C
330
1C705
330
1C706
330
1C719
330
1C71A
330
1C72E
330
1C72F
330
1C738
330
1C739
330
27043
330
27044
330
2703A
330
2703B
330
2CF2C
330
2CF2D
330
2CF38
330
2CF39
330
2CF42
330
2CF43
330
2CF4F
330
2CF50
330
2CF59
330
2CF5A
330
2FA31
330
2FA32
330
2FA3D
330
2FA3E
330
2FA4A
330
2FA4B
330
2FA54
330
2FA55
330
329D8
330
329D9
330
329E1
330
329E2
330
329EA
330
329EB
330
329F3
330
329F4
330
32E63
330
32E64
330
32E6F
330
32E70
330
32E79
330
32E7A
330
32E88
330
32E89
330
32E92
330
32E93
  0
DICTIONARY
  5
B2
330
51
100
AcDbDictionary
280
     1
281
     1
  3
ACAD_XREC_ROUNDTRIP
360
6060D
  3
ADSK_XREC_LAYOUTTHUMBNAIL
360
B3
  0
DICTIONARY
  5
B5
330
56
100
AcDbDictionary
280
     1
281
     1
  3
ACAD_XREC_ROUNDTRIP
360
6060E
  3
ADSK_XREC_LAYOUTTHUMBNAIL
360
B6
  0
DICTIONARY
  5
6060B
330
22
100
AcDbDictionary
280
     1
281
     1
  3
ACAD_XREC_ROUNDTRIP
360
6060C
  0
XRECORD
  5
6060D
102
{ACAD_REACTORS
330
B2
102
}
330
B2
100
AcDbXrecord
280
     1
102
SHADEPLOT
 70
     0
102
SHADEPLOTRESLEVEL
 70
     2
102
SHADEPLOTCUSTOMDPI
 70
   300
  0
XRECORD
  5
B3
102
{ACAD_REACTORS
330
B2
102
}
330
B2
100
AcDbXrecord
280
     1
310
28000000B40000008B0000000100080000000000BC61000000000000000000000001000000000000FFFFFF0000000000FFFFFF000000000000000000000000000000000000000000000000000000000000000000330000006600000099000000CC000000FF00000000330000333300006633000099330000CC330000FF3300
310
0000660000336600006666000099660000CC660000FF66000000990000339900006699000099990000CC990000FF99000000CC000033CC000066CC000099CC0000CCCC0000FFCC000000FF000033FF000066FF000099FF0000CCFF0000FFFF000000003300330033006600330099003300CC003300FF003300003333003333
310
33006633330099333300CC333300FF33330000663300336633006666330099663300CC663300FF66330000993300339933006699330099993300CC993300FF99330000CC330033CC330066CC330099CC3300CCCC3300FFCC330000FF330033FF330066FF330099FF3300CCFF3300FFFF330000006600330066006600660099
310
006600CC006600FF00660000336600333366006633660099336600CC336600FF33660000666600336666006666660099666600CC666600FF66660000996600339966006699660099996600CC996600FF99660000CC660033CC660066CC660099CC6600CCCC6600FFCC660000FF660033FF660066FF660099FF6600CCFF6600
310
FFFF660000009900330099006600990099009900CC009900FF00990000339900333399006633990099339900CC339900FF33990000669900336699006666990099669900CC669900FF66990000999900339999006699990099999900CC999900FF99990000CC990033CC990066CC990099CC9900CCCC9900FFCC990000FF99
310
0033FF990066FF990099FF9900CCFF9900FFFF99000000CC003300CC006600CC009900CC00CC00CC00FF00CC000033CC003333CC006633CC009933CC00CC33CC00FF33CC000066CC003366CC006666CC009966CC00CC66CC00FF66CC000099CC003399CC006699CC009999CC00CC99CC00FF99CC0000CCCC0033CCCC0066CC
310
CC0099CCCC00CCCCCC00FFCCCC0000FFCC0033FFCC0066FFCC0099FFCC00CCFFCC00FFFFCC000000FF003300FF006600FF009900FF00CC00FF00FF00FF000033FF003333FF006633FF009933FF00CC33FF00FF33FF000066FF003366FF006666FF009966FF00CC66FF00FF66FF000099FF003399FF006699FF009999FF00CC
310
99FF00FF99FF0000CCFF0033CCFF0066CCFF0099CCFF00CCCCFF00FFCCFF0000FFFF0033FFFF0066FFFF0099FFFF00CCFFFF00FFFFFF00000000000D0D0D001A1A1A00282828003535350043434300505050005D5D5D006B6B6B00787878008686860093939300A1A1A100AEAEAE00BBBBBB00C9C9C900D6D6D600E4E4E400
310
F1F1F100FFFFFF0000000000000000000000000000000000000000000000000000000000000000000000000000000000EFEFEFE2E2E2E2E2E2E2E2E2E2E2E2E2E2E2E2E2E2E2E2E2E2E2E2E2E2E2E2E2E2E2E2E2E2E2E2E2E2E2E2E2E2E2E2E2E2E2E2E2E2E2E2E2E2E2E2E2E2E2E2E2E2E2E2E2E2E2E2E2E2E2E2E2E2E2E2
310
E2E2E2E2E2E2E2E2E2E2E2E2E2E2E2E2E2E2E2E2E2E2E2E2E2E2E2E2E2E2E2E2E2E2E2E2E2E2E2E2E2E2E2E2E2E2E2E2E2E2E2E2E2E2E2E2E2E2E2E2E2E2E2E2E2E2E2E2E2E2E2E2E2E2E2E2E2E2E2E2E2E2E2E2E2E2E2E2E2E2E2E2E2E2E2E2E2E2E2E2E2E2E2E2E2E2E2E2E2E2E2E2E2E2E2E2E2E2E2E2E2E2E2E2E2E2E2
310
E2E2E2E2E2E2E2E2E2E2E2E2E2E2E2E2E2E2E2E2E2E2E2E2E2E2E2E2E2E2E2E2E2E2E2E2E2E2E2E2E2E2E2E2E2E2E2E2E2E2E2E2E2E2E2E2E2E2E2E2E2E2E2E2E2E2E2E2E2E2E2E2E2E2E2E2E2E2E2E2E2E2E2E2E2E2E2E2E2E2E2E2E2E2E2E2E2E2E2E2E2E2E2E2E2E2E2E2E2E2E2E2E2E2E2E2E2E2E2E2E2E2E2E2E2E2E2
310
E2E2E2E2E2E2E2E2E2E2E2E2E2E2E2E2E2E2E2E2E2E2E2E2E2E2E2E2F5F5F5F5F5F5F5F5F5F5F5F5F5F5F5F5F5F5F5F5F5F5F5F5F5F5F5F5F5F5F5F5F5F5F5F5F5F5F5F5F5F5F5F5F5F5F5F5F5F5F5F5F5F5F5F5F5F5F5F5F5F5F5F5F5F5F5F5F5F5F5F5F5F5F5F5F5F5F5F5F5F5F5F5F5F5F5F5F5F5F5F5F5F5F5F5F5F5F5
310
F5F5F5F5F5F5F5F5F5F5F5F5F5F5F5F5F5F5F5F5F5F5F5F5F5F5F5F5F5F5F5F5F5F5F5F5F5F5F5F5F5F5F5F5F5F5F5F5F5F5F5F5F5F5F5F5F5F5F5F5F5F5F5F5F5F5F5F5F5F5F5F5F5F5F5F5F5F5F5E2E2F5F5F5F5F5F5F5F5F5F5F5F5F5F5F5F5F5F5F5F5F5F5F5F5F5F5F5F5F5F5F5F5F5F5F5F5F5F5F5F5F5F5F5F5F5F5
310
F5F5F5F5F5F5F5F5F5F5F5F5F5F5F5F5F5F5F5F5F5F5F5F5F5F5F5F5F5F5F5F5F5F5F5F5F5F5F5F5F5F5F5F5F5F5F5F5F5F5F5F5F5F5F5F5F5F5F5F5F5F5F5F5F5F5F5F5F5F5F5F5F5F5F5F5F5F5F5F5F5F5F5F5F5F5F5F5F5F5F5F5F5F5F5F5F5F5F5F5F5F5F5F5F5F5F5F5F5F5F5F5F5F5F5F5F5F5F5F5F5F5F5F5F5F5F5
310
F5F5F5F5F5E2E2F5F5F5F5F5F5F5F5F5F5F5F5F5F5F5F5F5F5F5F5F5F5F5F5F5F5F5F5F5F5F5F5F5F5F5F5F5F5F5F5F5F5F5F5F5F5F5F5F5F5F5F5F5F5F5F5F5F5F5F5F5F5F5F5F5F5F5F5F5F5F5F5F5F5F5F5F5F5F5F5F5F5F5F5F5F5F5F5F5F5F5F5F5F5F5F5F5F5F5F5F5F5F5F5F5F5F5F5F5F5F5F5F5F5F5F5F5F5F5F5
310
F5F5F5F5F5F5F5F5F5F5F5F5F5F5F5F5F5F5F5F5F5F5F5F5F5F5F5F5F5F5F5F5F5F5F5F5F5F5F5F5F5F5F5F5F5F5F5F5F5F5F5F5F5F5F5F5F5F5E2E2F5F5F5F5E2E2E2E2E2E2E2E2F5F5F5F5F5F5F5F5F5E2E2E2E2E2E2E2E2E2E2E2E2E2E2E2F5F5F5F5F5F5F5F5F5E2E2E2E2E2E2E2E2E2E2E2E2E2E2E2E2F5F5F5F5F5F5
310
F5F5E2E2E2E2E2E2E2E2E2E2E2E2E2E2E2E2F5F5F5F5F5F5F5F5E2E2E2E2E2E2E2E2E2E2E2E2E2E2E2E2F5F5F5F5F5F5F5F5E2E2E2E2E2E2E2E2E2E2E2E2E2E2E2E2F5F5F5F5F5F5F5F5F5E2E2E2E2E2E2E2E2E2E2E2E2E2E2E2F5F5F5F5F5F5F5F5F5E2E2E2E2E2E2E2E2F5F5F5F5E2E2F5F5F5F5E2F5F5F5F5F5F5F5F5F5
310
F5F5F5F5F5F5F5F5F5F5F5F5F5F5F5F5F5F5F5F5F5F5F5F5F5F5F5F5F5F5F5F5F5F5F5F5F5F5F5F5F5F5F5F5F5F5F5F5F5F5F5F5F5F5F5F5F5F5F5F5F5F5F5F5F5F5F5F5F5F5F5F5F5F5F5F5F5F5F5F5F5F5F5F5F5F5F5F5F5F5F5F5F5F5F5F5F5F5F5F5F5F5F5F5F5F5F5F5F5F5F5F5F5F5F5F5F5F5F5F5F5F5F5F5F5F5F5
310
F5F5F5F5F5F5F5F5F5F5F5F5F5F5F5F5F5F5F5F5F5F5F5F5F5F5F5F5F5F5F5F5E2F5F5F5F5E2E2F5F5F5F5E2F5F5F5F5F5F5F5F5F5F5F5F5F5F5F5F5F5F5F5F5F5F5F5F5F5F5F5F5F5F5F5F5F5F5F5F5F5F5F5F5F5F5F5F5F5F5F5F5F5F5F5F5F5F5F5F5F5F5F5F5F5F5F5F5F5F5F5F5F5F5F5F5F5F5F5F5F5F5F5F5F5F5F5
310
F5F5F5F5F5F5F5F5F5F5F5F5F5F5F5F5F5F5F5F5F5F5F5F5F5F5F5F5F5F5F5F5F5F5F5F5F5F5F5F5F5F5F5F5F5F5F5F5F5F5F5F5F5F5F5F5F5F5F5F5F5F5F5F5F5F5F5F5F5F5F5F5F5F5F5F5F5F5F5F5F5F5F5F5F5E2F5F5F5F5E2E2F5F5F5F5E2F5F5F5F5F5F5F5F5F5F5F5F5F5F5F5F5F5F5F5F5F5F5F5F5F5F5F5F5F5F5
310
F5F5F5F5F5F5F5F5F5F5F5F5F5F5F5F5F5F5F5F5F5F5F5F5F5F5F5F5F5F5F5F5F5F5F5F5F5F5F5F5F5F5F5F5F5F5F5F5F5F5F5F5F5F5F5F5F5F5F5F5F5F5F5F5F5F5F5F5F5F5F5F5F5F5F5F5F5F5F5F5F5F5F5F5F5F5F5F5F5F5F5F5F5F5F5F5F5F5F5F5F5F5F5F5F5F5F5F5F5F5F5F5F5F5F5F5F5F5F5F5F5F5F5F5F5F5F5
310
F5F5F5F5F5F5F5F5F5F5F5E2F5F5F5F5E2E2F5F5F5F5E2F5F5F5F5F5F5F5F5F5F5F5F5F5F5F5F5F5F5F5F5F5F5F5F5F5F5F5F5F5F5F5F5F5F5F5F5F5F5F5F5F5F5F5F5F5F5F5F5F5F5F5F5F5F5F5F5F5F5F5F5F5F5F5F5F5F5F5F5F5F5F5F5F5F5F5F5F5F5F5F5F5F5F5F5F5F5F5F5F5F5F5F5F5F5F5F5F5F5F5F5F5F5F5F5
310
F5F5F5F5F5F5F5F5F5F5F5F5F5F5F5F5F5F5F5F5F5F5F5F5F5F5F5F5F5F5F5F5F5F5F5F5F5F5F5F5F5F5F5F5F5F5F5F5F5F5F5F5F5F5F5F5F5F5F5F5F5F5F5F5E2F5F5F5F5E2E2F5F5F5F5E2F5F5F5F5F5F5F5F5F5F5F5F5F5F5F5F5F5F5F5F5F5F5F5F5F5F5F5F5F5F5F5F5F5F5F5F5F5F5F5F5F5F5F5F5F5F5F5F5F5F5F5
310
F5F5F5F5F5F5F5F5F5F5F5F5F5F5F5F5F5F5F5F5F5F5F5F5F5F5F5F5F5F5F5F5F5F5F5F5F5F5F5F5F5F5F5F5F5F5F5F5F5F5F5F5F5F5F5F5F5F5F5F5F5F5F5F5F5F5F5F5F5F5F5F5F5F5F5F5F5F5F5F5F5F5F5F5F5F5F5F5F5F5F5F5F5F5F5F5F5F5F5F5F5F5F5F5F5F5F5F5F5F5F5F5F5F5F5F5F5E2F5F5F5F5E2E2F5F5F5
310
F5E2F5F5F5F5F5F5F5F5F5F5F5F5F5F5F5F5F5F5F5F5F5F5F5F5F5F5F5F5F5F5F5F5F5F5F5F5F5F5F5F5F5F5F5F5F5F5F5F5F5F5F5F5F5F5F5F5F5F5F5F5F5F5F5F5F5F5F5F5F5F5F5F5F5F5F5F5F5F5F5F5F5F5F5F5F5F5F5F5F5F5F5F5F5F5F5F5F5F5F5F5F5F5F5F5F5F5F5F5F5F5F5F5F5F5F5F5F5F5F5F5F5F5F5F5F5
310
F5F5F5F5F5F5F5F5F5F5F5F5F5F5F5F5F5F5F5F5F5F5F5F5F5F5F5F5F5F5F5F5F5F5F5F5F5F5F5F5F5F5F5E2F5F5F5F5E2E2F5F5F5F5E2F5F5F5F5F5F5F5F5F5F5F5F5F5F5F5F5F5F5F5F5F5F5F5F5F5F5F5F5F5F5F5F5F5F5F5F5F5F5F5F5F5F5F5F5F5F5F5F5F5F5F5F5F5F5F5F5F5F5F5F5F5F5F5F5F5F5F5F5F5F5F5F5
310
F5F5F5F5F5F5F5F5F5F5F5F5F5F5F5F5F5F5F5F5F5F5F5F5F5F5F5F5F5F5F5F5F5F5F5F5F5F5F5F5F5F5F5F5F5F5F5F5F5F5F5F5F5F5F5F5F5F5F5F5F5F5F5F5F5F5F5F5F5F5F5F5F5F5F5F5F5F5F5F5F5F5F5F5F5F5F5F5F5F5F5F5F5F5F5F5E2F5F5F5F5E2E2F5F5F5F5E2F5F5F5F5F5F5F5F5F5F5F5F5F5F5F5F5F5F5F5
310
F5F5F5F5F5F5F5F5F5F5F5F5F5F5F5F5F5F5F5F5F5F5F5F5F5F5F5F5F5F5F5F5F5F5F5F5F5F5F5F5F5F5F5F5F5F5F5F5F5F5F5F5F5F5F5F5F5F5F5F5F5F5F5F5F5F5F5F5F5F5F5F5F5F5F5F5F5F5F5F5F5F5F5F5F5F5F5F5F5F5F5F5F5F5F5F5F5F5F5F5F5F5F5F5F5F5F5F5F5F5F5F5F5F5F5F5F5F5F5F5F5F5F5F5F5F5F5
310
F5F5F5F5F5F5F5F5F5F5F5F5F5F5F5F5F5F5F5F5F5F5E2F5F5F5F5E2E2F5F5F5F5F5F5F5F5F5F5F5F5F5F5F5F5F5F5F5F5F5F5F5F5F5F5F5F5F5F5F5F5F5F5F5F5F5F5F5F5F5F5F5F5F5F5F5F5F5F5F5F5F5F5F5F5F5F5F5F5F5F5F5F5F5F5F5F5F5F5F5F5F5F5F5F5F5F5F5F5F5F5F5F5F5F5F5F5F5F5F5F5F5F5F5F5F5F5
310
F5F5F5F5F5F5F5F5F5F5F5F5F5F5F5F5F5F5F5F5F5F5F5F5F5F5F5F5F5F5F5F5F5F5F5F5F5F5F5F5F5F5F5F5F5F5F5F5F5F5F5F5F5F5F5F5F5F5F5F5F5F5F5F5F5F5F5F5F5F5F5F5F5F5F5F5F5F5F5F5E2E2F5F5F5F5F5F5F5F5F5F5F5F5F5F5F5F5F5F5F5F5F5F5F5F5F5F5F5F5F5F5F5F5F5F5F5F5F5F5F5F5F5F5F5F5F5
310
F5F5F5F5F5F5F5F5F5F5F5F5F5F5F5F5F5F5F5F5F5F5F5F5F5F5F5F5F5F5F5F5F5F5F5F5F5F5F5F5F5F5F5F5F5F5F5F5F5F5F5F5F5F5F5F5F5F5F5F5F5F5F5F5F5F5F5F5F5F5F5F5F5F5F5F5F5F5F5F5F5F5F5F5F5F5F5F5F5F5F5F5F5F5F5F5F5F5F5F5F5F5F5F5F5F5F5F5F5F5F5F5F5F5F5F5F5F5F5F5F5F5F5F5F5F5F5
310
F5F5F5F5F5F5E2E2F5F5F5F5F5F5F5F5F5F5F5F5F5F5F5F5F5F5F5F5F5F5F5F5F5F5F5F5F5F5F5F5F5F5F5F5F5F5F5F5F5F5F5F5F5F5F5F5F5F5F5F5F5F5F5F5F5F5F5F5F5F5F5F5F5F5F5F5F5F5F5F5F5F5F5F5F5F5F5F5F5F5F5F5F5F5F5F5F5F5F5F5F5F5F5F5F5F5F5F5F5F5F5F5F5F5F5F5F5F5F5F5F5F5F5F5F5F5F5
310
F5F5F5F5F5F5F5F5F5F5F5F5F5F5F5F5F5F5F5F5F5F5F5F5F5F5F5F5F5F5F5F5F5F5F5F5F5F5F5F5F5F5F5F5F5F5F5F5F5F5F5F5F5F5F5F5F5F5F5E2E2F5F5F5F5F5F5F5F5F5F5F5F5F5F5F5F5F5F5F5F5F5F5F5F5F5F5F5F5F5F5F5F5F5F5F5F5F5F5F5F5F5F5F5F5F5F5F5F5F5F5F5F5F5F5F5F5F5F5F5F5F5F5F5F5F5F5
310
F5F5F5F5F5F5F5F5F5F5F5F5F5F5F5F5F5F5F5F5F5F5F5F5F5F5F5F5F5F5F5F5F5F5F5F5F5F5F5F5F5F5F5F5F5F5F5F5F5F5F5F5F5F5F5F5F5F5F5F5F5F5F5F5F5F5F5F5F5F5F5F5F5F5F5F5F5F5F5F5F5F5F5F5F5F5F5F5F5F5F5F5F5F5F5F5F5F5F5F5F5F5F5F5F5F5F5F5F5F5F5F5E2E2F5F5F5F5F5F5F5F5F5F5F5F5F5
310
F5F5F5F5F5F5F5F5E2E2E2E2E2E2E2E2E2E2E2E2E2E2E2E2E2E2E2E2E2E2E2E2E2E2E2E2E2E2E2E2E2E2E2E2E2E2E2E2E2E2E2E2E2E2E2E2E2E2E2E2E2E2E2E2E2E2E2E2E2E2E2E2E2E2E2E2E2E2E2E2E2E2E2E2E2E2E2E2E2E2E2E2E2E2E2E2E2E2E2E2E2E2E2E2E2E2E2E2E2E2E2E2E2E2E2E2E2E2E2E2E2E2E2E2E2E2E2
310
E2E2E2E2E2E2E2E2E2E2E2E2E2E2E2E2E2F5F5F5F5F5F5F5F5F5F5F5F5F5F5F5F5F5F5F5F5F5E2E2F5F5F5F5F5F5F5F5F5F5F5F5F5F5F5F5F5F5F5F5F5E22D2D2D2DF5F5F5F5E2F5F5F5F5F5F5F52DF5F5F5F5F5F5F5F5F5F5F5F5F5F5F5F5F5F5E2F5F5F5F5F5F5F5F5F5F5F5F5F5F5F5F5F5F5F5F5F5F5F5F5F5F5F5F5F5
310
F5F5F5F5F5F5F5F5F5F5F5F5F5F5F5F5F5F5F5F5F5F5F5F5F5F5F5F5F5F5F5F5F5F5F5F5F5F5F5F5F5F5F5F5F5F5F5F5F5F5F5F5F5F5F5F5F5F5F5F5F5F5F5F5F5F5F5F5F5E2F5F5F5F5F5F5F5F5F5F5F5F5F5F5F5F5F5F5F5F5F5E2E2F5F5F5F5F5F5F5F5F5F5F5F5F5F5F5F5F5F5F5F5F5E2DCF5F52DF5F5F5F5E2F5F5F5
310
F5F5F5F52DF5F5F5F5F5F5F5F5F5F5F5F5F5F5F5F5F5F5E2F5F5F5F5F5F5F5F5F5F5F5F5F5F5F5F5F5F5F5F5F5F5F5F5F5F5F5F5F5F5F5F5F5F5F5F5F5F5F5F5F5F5F5F5F5F5F5F5F5F5F5F5F5F5F5F5F5F5F5F5F5F5F5F5F5F5F5F5F5F5F5F5F5F5F5F5F5F5F5F5F5F5F5F5F5F5F5F5F5F5F5F5F5F5F5F5F5F5E2F5F5F5F5
310
F5F5F5F5F5F5F5F5F5F5F5F5F5F5F5F5F5E2E2F5F5F5F5F5F5F5F5F5F5F5F5F5F5F5F5F5F5F5F5F5E2DCF5F52DF5F5F5F5E2F5F5F5F5F5F5F52DF5F5F5F5F5F5F5F5F5F5F5F5F5F5F5F5F5F5E2E2F5F5F5F5F5F5F5F5F5F5F5F5F5F5F5F5F5F5F5F5F5F5F5F5F5F5F5F5F5F5F5F5F5F5F5F5F5F5F5F5F5F5F5F5F5F5F5F5F5
310
F5F5F5F5F5F5F5F5F5F5F5F5F5F5F5F5F5F5F5F5F5F5F5F5F5F5F5F5F5F5F5F5F5F5F5F5F5F5F5F5F5F5F5F5F5F5F5F5E2F5F5F5F5F5F5F5F5F5F5F5F5F5F5F5F5F5F5F5F5F5E2E2F5F5F5F5F5F5F5F5F5F5F5F5F5F5F5F5F5F5F5F5F5E2BEF5F52D2D2D2D2D2D2D2D2D2D2D2D2D2DE2E2E2E2E2E2E2E2E2E2E2E2E2E2E2E2
310
E2E2E2E2F5F5F5F5F5F5F5F5F5F5F5F5F5F5F5F5F5F5F5F5F5F5F5F5F5F5F5F5F5F5F5F5F5F5F5F5F5F5F5F5F5F5F5F5F5F5F5F5F5F5F5F5F5F5F5F5F5F5F5F5F5F5F5F5F5F5F5F5F5F5F5F5F5F5F5F5F5F5F5F5F5F5F5F5F5F5F5F5F5F5F5F5F5F5F5F5F5E2F5F5F5F5F5F5F5F5F5F5F5F5F5F5F5F5F5F5F5F5F5E2E2F5F5
310
F5F5E2F5F5F5F5F5F5F5F5F5F5F5F5F5F5F5F5E2DCF5F5F5F5F5F5F5E2F5F5F5F5F5F5F5E2F5F5F5F5F5F5F5F5F5F5F5F5F5F5F5F5F5F5F5F5F5F5F5F5F5F5F5F5F5F5F5F5F5F5F5F5F5F5F5F5F5F5F5F5F5F5F5F5F5F5F5F5F5F5F5F5F5F5F5F5F5F5F5F5F5F5F5F5F5F5F5F5F5F5F5F5F5F5F5F5F5F5F5F5F5F5F5F5F5F5
310
F5F5F5F5F5F5F5F5F5F5F5F5F5F5F5F5F5F5F5F5F5F5F5F5F5F5F5E2F5F5F5F5F5F5F5F5F5F5F5F5F5F5F5F5E2F5F5F5F5E2E2F5F5F5F5E2F5F5F5F5F5F5F5F5F5F5F5F5F5F5F5F5E2F5F5F5F5F5F5F5F5E2F5F5F5F5F5F5F5E2F5F5F5F5F5F5F5F5F5F5F5F5F5F5F5F5F5F5F5F5F5F5F5F5F5F5F5F5F5F5F5F5F5F5F5F5F5
310
F5F5F5F5F5F5F5F5F5F5F5F5F5F5F5F5F5F5F5F5F5F5F5F5F5F5F5F5F5F5F5F5F5F5F5F5F5F5F5F5F5F5F5F5F5F5F5F5F5F5F5F5F5F5F5F5F5F5F5F5F5F5F5F5F5F5F5F5F5F5F5F5F5F5F5F5F5F5F5F5E2F5F5F5F5F5F5F5F5F5F5F5F5F5F5F5F5E2F5F5F5F5E2E2F5F5F5F5E2F5F5F5F5F5F5F5F5F5F5F5F5F5F5F5F5E2E2
310
E2E2E2E2E2E2E2E2F5F5F5F5F5F5F5E2F5F5F5F5F5F5F5F5F5F5F5F5F5F5F5F5F5F5F5F5F5F5F5F5F5F5F5F5F5F5F5F5F5F5F5F5F5F5F5F5F5F5F5F5F5F5F5F5F5F5F5F5F5F5F5F5F5F5F5F5F5F5F5F5F5F5F5F5F5F5F5F5F5F5F5F5F5F5F5F5F5F5F5F5F5F5F5F5F5F5F5F5F5F5F5F5F5F5F5F5F5F5F5F5F5F5F5F5F5F5F5
310
F5F5F5F5F5F5E2F5F5F5F5F5F5F5F5F5F5F5F5F5F5F5F5E2F5F5F5F5E2E2F5F5F5F5E2F5F5F5F5F5F5F5F5F5F5F5F5F5F5F5F5E2E2E2E2F5F5F5F5F5F5F5F5F5F5F5F5F5E2F5F5F5F5F5F5F5F5F5F5F5F5F5F5F5F5F5F5F5F5F5F5F5F5F5F5F5F5F5F5F5F5F5F5F5F5F5F5F5F5F5F5F5F5F5F5F5F5F5F5F5F5F5F5F5F5F5F5
310
F5F5F5F5F5F5F5F5F5F5F5F5F5F5F5F5F5F5F5F5F5F5F5F5F5F5F5F5F5F5F5F5F5F5F5F5F5F5F5F5F5F5F5F5F5F5F5F5F5F5F5F5F5F5F5F5F5F5F5E2F5F5F5F5F5F5F5F5F5F5F5F5F5F5F5F5E2F5F5F5F5E2E2F5F5F5F5E2F5F5F5F5F5F5F5F5F5F5F5F5F5F5F5F5E2E2E2E2F5F5F5F5F5F5F5F5F5F5F5F5F5E2F5F5F5F5F5
310
F5F5F5F5F5F5F5F5F5F5F5F5F5F5F5F5F5F5F5F5F5F5F5F5F5F5F5F5F5F5F5F5F5F5F5F5F5F5F5F5F5F5F5F5F5F5F5F5F5F5F5F5F5F5F5F5F5F5F5F5F5F5F5F5F5F5F5F5F5F5F5F5F5F5F5F5F5F5F5F5F5F5F5F5F5F5F5F5F5F5F5F5F5F5F5F5F5F5F5F5F5F5F5F5F5F5F5F5F5F5F5F5E2F5F5F5F5F5F5F5F5F5F5F5F5F5F5
310
F5F5E2F5F5F5F5E2E2F5F5F5F5E2F5F5F5F5F5F5F5F5F5F5F5F5F5F5F5F5E2F5F5F5F5F5F5F5F5F5F5F5F5F5F5F5F5E2F5F5F5F5F5F5F5F5F5F5F5F5F5F5F5F5F5F5F5F5F5F5F5F5F5F5F5F5F5F5F5F5F5F5F5F5F5F5F5F5F5F5F5F5F5F5F5F5F5F5F5F5F5F5F5F5F5F5F5F5F5F5F5F5F5F5F5F5F5F5F5F5F5F5F5F5F5F5F5
310
F5F5F5F5F5F5F5F5F5F5F5F5F5F5F5F5F5F5F5F5F5F5F5F5F5F5F5F5F5F5F5F5F5F5F5F5F5F5E2F5F5F5F5F5F5F5F5F5F5F5F5F5F5F5F5E2F5F5F5F5E2E2F5F5F5F5E2F5F5F5F5F5F5F5F5F5F5F5F5F5F5F5F5E2E2E2E2E2E2E2E2E2E2E2E2E2E2E2E2E2E2F5F5F5F5F5F5F5F5F5F5F5F5F5F5F5F5F5F5F5F5F5F5F5F5F5F5
310
F5F5F5F5F5F5F5F5F5F5F5F5F5F5F5F5F5F5F5F5F5F5F5F5F5F5F5F5F5F5F5F5F5F5F5F5F5F5F5F5F5F5F5F5F5F5F5F5F5F5F5F5F5F5F5F5F5F5F5F5F5F5F5F5F5F5F5F5F5F5F5F5F5F5F5F5F5F5F5F5F5F5F5F5F5F5F5F5F5F5F5E2F5F5F5F5F5F5F5F5F5F5F5F5F5F5F5F5E2F5F5F5F5E2E2F5F5F5F5E2F5F5F5F5F5F5F5
310
F5F5F5F5F5F5F5F5F5E2E2E2F5F5F5F5F5F5F5F5F5F5F5F5F5F5F5F5F5F5F5F5F5F5F5F5F5F5F5F5F5F5F5F5F5F5F5F5F5F5F5F5F5F5F5F5F5F5F5F5F5F5F5F5F5F5F5F5F5F5F5F5F5F5F5F5F5F5F5F5F5F5F5F5F5F5F5F5F5F5F5F5F5F5F5F5F5F5F5F5F5F5F5F5F5F5F5F5F5F5F5F5F5F5F5F5F5F5F5F5F5F5F5F5F5F5F5
310
F5F5F5F5F5F5F5F5F5F5F5F5F5F5F5F5F5E2F5F5F5F5F5F5F5F5F5F5F5F5F5F5F5F5E2F5F5F5F5E2E2F5F5F5F5E2F5F5F5F5F5F5F5F5F5F5F5F5F5F5F5F5E2E2E2F5F5F5F5F5F5F5F5F5F5F5F5F5F5F5F5F5F5F5F5F5F5F5F5F5F5F5F5F5F5F5F5F5F5F5F5F5F5F5F5F5F5F5F5F5F5F5F5F5F5F5F5F5F5F5F5F5F5F5F5F5F5
310
F5F5F5F5F5F5F5F5F5F5F5F5F5F5F5F5F5F5F5F5F5F5F5F5F5F5F5F5F5F5F5F5F5F5F5F5F5F5F5F5F5F5F5F5F5F5F5F5F5F5F5F5F5F5F5F5F5F5F5F5F5F5F5F5F5F5F5F5F5F5E2F5F5F5F5F5F5F5F5F5F5F5F5F5F5F5F5E2F5F5F5F5E2E2F5F5F5F5E2F5F5F5F5F5F5F5F5F5F5F5F5F5F5F5F5E2F5F5F5F5F5F5F5F5F5F5F5
310
F5F5F5F5F5F5F5F5F5F5F5F5F5F5F5F5F5F5F5F5F5F5F5F5F5F5F5F5F5F5F5F5F5F5F5F5F5F5F5F5F5F5F5F5F5F5F5F5F5F5F5F5F5F5F5F5F5F5F5F5F5F5F5F5F5F5F5F5F5F5F5F5F5F5F5F5F5F5F5F5F5F5F5F5F5F5F5F5F5F5F5F5F5F5F5F5F5F5F5F5F5F5F5F5F5F5F5F5F5F5F5F5F5F5F5F5F5F5F5F5F5F5F5E2F5F5F5
310
F5F5F5F5F5F5F5F5F5F5F5F5F5E2F5F5F5F5E2E2F5F5F5F5E2F5F5F5F5F5F5F5F5F5F5F5F5F5F5F5F5E20F0F0F0F0F0F0F0F0F0F0FF5F5F5F5F5F5F5F5F5F5F5F5F5F5F5F5F5F5F5F5F5F5F5F5F5F5F5F5F5F5F5F5F5F5F5F5F5F5F5F5F5F5F5F5F5F5F5F5F5F5F5F5F5F5F5F5F5F5F5F5F5F5F5F5F5F5F5F5F5F5F5F5F5F5
310
F5F5F5F5F5F5F5F5F5F5F5F5F5F5F5F5F5F5F5F5F5F5F5F5F5F5F5F5F5F5F5F5F5F5F5F5F5F5F5F5F5F5F5F5F5F5F5F5F5E2F5F5F5F5F5F5F5F5F5F5F5F5F5F5F5F5E2F5F5F5F5E2E2F5F5F5F5E2F5F5F5F5F5F5F5F5F5F5F5F5F5F5F5F5E20F0F0F0F0F0F0F0F0F0FF5F5F5F5F5F5F5F5F5F5F5F5F5F5F5F5F5F5F5F5F5F5
310
F5F5F5F5F5F5F5F5F5F5F5F5F5F5F5F5F5F5F5F5F5F5F5F5F5F5F5F5F5F5F5F5F5F5F5F5F5F5F5F5F5F5F5F5F5F5F5F5F5F5F5F5F5F5F5F5F5F5F5F5F5F5F5F5F5F5F5F5F5F5F5F5F5F5F5F5F5F5F5F5F5F5F5F5F5F5F5F5F5F5F5F5F5F5F5F5F5F5F5F5F5F5E2F5F5F5F5F5F5F5F5F5F5F5F5F5F5F5F5E2F5F5F5F5E2E2F5
310
F5F5F5E2F5F5F5F5F5F5F5F5F5F5F5F5F5F5F5F5E2F5F5F5F5F5F5F5F5F5F5F5F5F5F5F5F5F5F5F5F5F5F5F5F5F5F5F5F5F5F5F5F5F5F5F5F5F5F5F5F5F5F5F5F5F5F5F5F5F5F5F5F5F5F5F5F5F5F5F5F5F5F5F5F5F5F5F5F5F5F5F5F5F5F5F5F5F5F5F5F5F5F5F5F5F5F5F5F5F5F5F5F5F5F5F5F5F5F5F5F5F5F5F5F5F5F5
310
F5F5F5F5F5F5F5F5F5F5F5F5F5F5F5F5F5F5F5F5F5F5F5F5F5F5F5F5E2F5F5F5F5F5F5F5F5F5F5F5F5F5F5F5F5E2F5F5F5F5E2E2F5F5F5F5E2F5F5F5F5F5F5F5F5F5F5F5F5F5F5F5F5E2F5F5F5F5F5F5F5F5F5F5F5F5F5F5F5F5F5F5F5F5F5F5F5F5F5F5F5F5F5F5F5F5F5F5F5F5F5F5F5F5F5F5F5F5F5F5F5F5F5F5F5F5F5
310
F5F5F5F5F5F5F5F5F5F5F5F5F5F5F5F5F5F5F5F5F5F5F5F5F5F5F5F5F5F5F5F5F5F5F5F5F5F5F5F5F5F5F5F5F5F5F5F5F5F5F5F5F5F5F5F5F5F5F5F5F5F5F5F5F5F5F5F5F5F5F5F5F5F5F5F5F5F5F5F5F5E2F5F5F5F5F5F5F5F5F5F5F5F5F5F5F5F5E2F5F5F5F5E2E2F5F5F5F5E2F5F5F5F5F5F5F5F5F5F5F5F5F5F5F5F5E2
310
F5F5F5F5F5F5F5F5F5F5F5F5F5F5F5F5F5F5F5F5F5F5F5F5F5F5F5F5F5F5F5F5F5F5F5F5F5F5F5F5F5F5F5F5F5F5F5F5F5F5F5F5F5F5F5F5F5F5F5F5F5F5F5F5F5F5F5F5F5F5F5F5F5F5F5F5F5F5F5F5F5F5F5F5F5F5F5F5F5F5F5F5F5F5F5F5F5F5F5F5F5F5F5F5F5F5F5F5F5F5F5F5F5F5F5F5F5F5F5F5F5F5F5F5F5F5F5
310
F5F5F5F5F5F5F5E2F5F5F5F5F5F5F5F5F5F5F5F5F5F5F5F5E2F5F5F5F5E2E2F5F5F5F5E2F5F5F5F5F5F5F5F5F5F5F5F5F5F5F5F5E2F5F5F5F5F5F5F5F5F5F5F5F5F5F5F5F5F5F5F5F5F5F5F5F5F5F5F5F5F5F5F5F5F5F5F5F5F5F5F5F5F5F5F5F5F5F5F5F5F5F5F5F5F5F5F5F5F5F5F5F5F5F5F5F5F5F5F5F5F5F5F5F5F5F5
310
F5F5F5F5F5F5F5F5F5F5F5F5F5F5F5F5F5F5F5F5F5F5F5F5F5F5F5F5F5F5F5F5F5F5F5F5F5F5F5F5F5F5F5F5F5F5F5F5F5F5F5F5F5F5F5F5F5F5F5F5E2F5F5F5F5F5F5F5F5F5F5F5F5F5F5F5F5E2F5F5F5F5E2E2F5F5F5F5F5F5F5F5F5F5F5F5F5F5F5F5F5F5F5F5F5E2F5F5F5F5F5F5F5F5F5F5F5F5F5F5F5F5F5F5F5F5F5
310
F5F5F5F5F5F5F5F5F5F5F5F5F5F5F5F5F5F5F5F5F5F5F5F5F5F5F5F5F5F5F5F5F5F5F5F5F5F5F5F5F5F5F5F5F5F5F5F5F5F5F5F5F5F5F5F5F5F5F5F5F5F5F5F5F5F5F5F5F5F5F5F5F5F5F5F5F5F5F5F5F5F5F5F5F5F5F5F5F5F5F5F5F5F5F5F5F5F5F5F5F5F5F5F5F5F5F5F5F5F5F5F5F5E2F5F5F5F5F5F5F5F5F5F5F5F5F5
310
F5F5F5F5F5F5F5F5E2E2F5F5F5F5F5F5F5F5F5F5F5F5F5F5F5F5F5F5F5F5F5E2F5F5F5F5F5F5F5F5F5F5F5F5F5F5F5F5F5F5F5F5F5F5F5F5F5F5F5F5F5F5F5F5F5F5F5F5F5F5F5F5F5F5F5F5F5F5F5F5F5F5F5F5F5F5F5F5F5F5F5F5F5F5F5F5F5F5F5F5F5F5F5F5F5F5F5F5F5F5F5F5F5F5F5F5F5F5F5F5F5F5F5F5F5F5F5
310
F5F5F5F5F5F5F5F5F5F5F5F5F5F5F5F5F5F5F5F5F5F5F5F5F5F5F5F5F5F5F5F5F5F5F5F5F5F5F5E2F5F5F5F5F5F5F5F5F5F5F5F5F5F5F5F5F5F5F5F5F5E2E2F5F5F5F5F5F5F5F5F5F5F5F5F5F5F5F5F5F5F5F5F5E2F5F5F5F5F5F5F5F5F5F5F5F5F5F5F5F5F5F5F5F5F5F5F5F5F5F5F5F5F5F5F5F5F5F5F5F5F5F5F5F5F5F5
310
F5F5F5F5F5F5F5F5F5F5F5F5F5F5F5F5F5F5F5F5F5F5F5F5F5F5F5F5F5F5F5F5F5F5F5F5F5F5F5F5F5F5F5F5F5F5F5F5F5F5F5F5F5F5F5F5F5F5F5F5F5F5F5F5F5F5F5F5F5F5F5F5F5F5F5F5F5F5F5F5F5F5F5F5F5F5F5F5F5F5F5F5E2F5F5F5F5F5F5F5F5F5F5F5F5F5F5F5F5F5F5F5F5F5E2E2F5F5F5F5F5F5F5F5F5F5F5
310
F5F5F5F5F5F5F5F5F5F5E2F5F5F5F5F5F5F5F5F5F5F5F5F5F5F5F5F5F5F5F5F5F5F5F5F5F5F5F5F5F5F5F5F5F5F5F5F5F5F5F5F5F5F5F5F5F5F5F5F5F5F5F5F5F5F5F5F5F5F5F5F5F5F5F5F5F5F5F5F5F5F5F5F5F5F5F5F5F5F5F5F5F5F5F5F5F5F5F5F5F5F5F5F5F5F5F5F5F5F5F5F5F5F5F5F5F5F5F5F5F5F5F5F5F5F5F5
310
F5F5F5F5F5F5F5F5F5F5F5F5F5F5F5F5F5F5E2F5F5F5F5F5F5F5F5F5F5F5F5F5F5F5F5F5F5F5F5F5E2E2F5F5F5F5F5F5F5F5F5F5F5F5F5F5F5F5F5F5F5F5F5E2F5F5F5F5F5F5F5F5F5F5F5F5F5F5F5F5F5F5F5F5F5F5F5F5F5F5F5F5F5F5F5F5F5F5F5F5F5F5F5F5F5F5F5F5F5F5F5F5F5F5F5F5F5F5F5F5F5F5F5F5F5F5F5
310
F5F5F5F5F5F5F5F5F5F5F5F5F5F5F5F5F5F5F5F5F5F5F5F5F5F5F5F5F5F5F5F5F5F5F5F5F5F5F5F5F5F5F5F5F5F5F5F5F5F5F5F5F5F5F5F5F5F5F5F5F5F5F5F5F5F5F5F5F5F5F5E2F5F5F5F5F5F5F5F5F5F5F5F5F5F5F5F5F5F5F5F5F5E2E2F5F5F5F5F5F5F5F5F5F5F5F5F5F5F5F5F5F5F5F5F5E2F5F5F5F5F5F5F5F5F5F5
310
F5F5F5F5F5F5F5F5F5F5F5F5F5F5F5F5F5F5F5F5F5F5F5F5F5F5F5F5F5F5F5F5F5F5F5F5F5F5F5F5F5F5F5F5F5F5F5F5F5F5F5F5F5F5F5F5F5F5F5F5F5F5F5F5F5F5F5F5F5F5F5F5F5F5F5F5F5F5F5F5F5F5F5F5F5F5F5F5F5F5F5F5F5F5F5F5F5F5F5F5F5F5F5F5F5F5F5F5F5F5F5F5F5F5F5F5F5F5F5F5F5F5F5F5E2F5F5
310
F5F5F5F5F5F5F5F5F5F5F5F5F5F5F5F5F5F5F5E2E2F5F5F5F5F5F5F5F5F5F5F5F5F5F5F5F5F5F5F5F5F5E2F5F5F5F5F5F5F5F5F5F5F5F5F5F5F5F5F5F5F5F5F5F5F5F5F5F5F5F5F5F5F5F5F5F5F5F5F5F5F5F5F5F5F5F5F5F5F5F5F5F5F5F5F5F5F5F5F5F5F5F5F5F5F5F5F5F5F5F5F5F5F5F5F5F5F5F5F5F5F5F5F5F5F5F5
310
F5F5F5F5F5F5F5F5F5F5F5F5F5F5F5F5F5F5F5F5F5F5F5F5F5F5F5F5F5F5F5F5F5F5F5F5F5F5F5F5F5F5F5F5F5F5F5F5F5F5E2F5F5F5F5F5F5F5F5F5F5F5F5F5F5F5F5F5F5F5F5F5E2E2F5F5F5F5F5F5F5F5F5F5F5F5F5F5F5F5F5F5F5F5F5E2F5F5F5F5F5F5F5F5F5F5F5F5F5F5F5F5F5F5F5F5F5F5F5F5F5F5F5F5F5F5F5
310
F5F5F5F5F5F5F5F5F5F5F5F5F5F5F5F5F5F5F5F5F5F5F5F5F5F5F5F5F5F5F5F5F5F5F5F5F5F5F5F5F5F5F5F5F5F5F5F5F5F5F5F5F5F5F5F5F5F5F5F5F5F5F5F5F5F5F5F5F5F5F5F5F5F5F5F5F5F5F5F5F5F5F5F5F5F5F5F5F5F5F5F5F5F5F5F5F5F5F5F5F5F5F5E2F5F5F5F5F5F5F5F5F5F5F5F5F5F5F5F5F5F5F5F5F5E2E2
310
F5F5F5F5F5F5F5F5F5F5F5F5F5F5F5F5F5F5F5F5F5E2F5F5F5F5F5F5F5F5F5F5F5F5F5F5F5F5F5F5F5F5F5F5F5F5F5F5F5F5F5F5F5F5F5F5F5F5F5F5F5F5F5F5F5F5F5F5F5F5F5F5F5F5F5F5F5F5F5F5F5F5F5F5F5F5F5F5F5F5F5F5F5F5F5F5F5F5F5F5F5F5F5F5F5F5F5F5F5F5F5F5F5F5F5F5F5F5F5F5F5F5F5F5F5F5F5
310
F5F5F5F5F5F5F5F5F5F5F5F5F5F5F5F5F5F5F5F5F5F5F5F5F5F5F5F5F5E2F5F5F5F5F5F5F5F5F5F5F5F5F5F5F5F5F5F5F5F5F5E2E2F5F5F5F5F5F5F5F5F5F5F5F5F5F5F5F5F5F5F5F5F5E2F5F5F5F5F5F5F5F5F5F5F5F5F5F5F5F5F5F5F5F5F5F5F5F5F5F5F5F5F5F5F5F5F5F5F5F5F5F5F5F5F5F5F5F5F5F5F5F5F5F5F5F5
310
F5F5F5F5F5F5F5F5F5F5F5F5F5F5F5F5F5F5F5F5F5F5F5F5F5F5F5F5F5F5F5F5F5F5F5F5F5F5F5F5F5F5F5F5F5F5F5F5F5F5F5F5F5F5F5F5F5F5F5F5F5F5F5F5F5F5F5F5F5F5F5F5F5F5F5F5F5F5F5F5F5F5E2F5F5F5F5F5F5F5F5F5F5F5F5F5F5F5F5F5F5F5F5F5E2E2F5F5F5F5E2F5F5F5F5F5F5F5F5F5F5F5F5F5F5F5F5
310
E2F5F5F5F5F5F5F5F5F5F5F5F5F5F5F5F5F5F5F5F5F5F5F5F5F5F5F5F5F5F5F5F5F5F5F5F5F5F5F5F5F5F5F5F5F5F5F5F5F5F5F5F5F5F5F5F5F5F5F5F5F5F5F5F5F5F5F5F5F5F5F5F5F5F5F5F5F5F5F5F5F5F5F5F5F5F5F5F5F5F5F5F5F5F5F5F5F5F5F5F5F5F5F5F5F5F5F5F5F5F5F5F5F5F5F5F5F5F5F5F5F5F5F5F5F5F5
310
F5F5F5F5F5F5F5F5E2F5F5F5F5F5F5F5F5F5F5F5F5F5F5F5F5E2F5F5F5F5E2E2F5F5F5F5E2F5F5F5F5F5F5F5F5F5F5F5F5F5F5F5F5E2F5F5F5F5F5F5F5F5F5F5F5F5F5F5F5F5F5F5F5F5F5F5F5F5F5F5F5F5F5F5F5F5F5F5F5F5F5F5F5F5F5F5F5F5F5F5F5F5F5F5F5F5F5F5F5F5F5F5F5F5F5F5F5F5F5F5F5F5F5F5F5F5F5
310
F5F5F5F5F5F5F5F5F5F5F5F5F5F5F5F5F5F5F5F5F5F5F5F5F5F5F5F5F5F5F5F5F5F5F5F5F5F5F5F5F5F5F5F5F5F5F5F5F5F5F5F5F5F5F5F5F5F5F5F5F5E2F5F5F5F5F5F5F5F5F5F5F5F5F5F5F5F5E2F5F5F5F5E2E2F5F5F5F5E2F5F5F5F5F5F5F5F5F5F5F5F5F5F5F5F5E2F5F5F5F5F5F5F5F5F5F5F5F5F5F5F5F5F5F5F5F5
310
F5F5F5F5F5F5F5F5F5F5F5F5F5F5F5F5F5F5F5F5F5F5F5F5F5F5F5F5F5F5F5F5F5F5F5F5F5F5F5F5F5F5F5F5F5F5F5F5F5F5F5F5F5F5F5F5F5F5F5F5F5F5F5F5F5F5F5F5F5F5F5F5F5F5F5F5F5F5F5F5F5F5F5F5F5F5F5F5F5F5F5F5F5F5F5F5F5F5F5F5F5F5F5F5F5F5F5F5F5F5F5F5F5F5E2F5F5F5F5F5F5F5F5F5F5F5F5
310
F5F5F5F5E2F5F5F5F5E2E2F5F5F5F5E2F5F5F5F5F5F5F5F5F5F5F5F5F5F5F5F5E2F5F5F5F5F5F5F5F5F5F5F5F5F5F5F5F5F5F5F5F5F5F5F5F5F5F5F5F5F5F5F5F5F5F5F5F5F5F5F5F5F5F5F5F5F5F5F5F5F5F5F5F5F5F5F5F5F5F5F5F5F5F5F5F5F5F5F5F5F5F5F5F5F5F5F5F5F5F5F5F5F5F5F5F5F5F5F5F5F5F5F5F5F5F5
310
F5F5F5F5F5F5F5F5F5F5F5F5F5F5F5F5F5F5F5F5F5F5F5F5F5F5F5F5F5F5F5F5F5F5F5F5F5F5F5F5E2F5F5F5F5F5F5F5F5F5F5F5F5F5F5F5F5E2F5F5F5F5E2E2F5F5F5F5E2F5F5F5F5F5F5F5F5F5F5F5F5F5F5F5F5E2F5F5F5F5F5F5F5F5F5F5F5F5F5F5F5F5F5F5F5F5F5F5F5F5F5F5F5F5F5F5F5F5F5F5F5F5F5F5F5F5F5
310
F5F5F5F5F5F5F5F5F5F5F5F5F5F5F5F5F5F5F5F5F5F5F5F5F5F5F5F5F5F5F5F5F5F5F5F5F5F5F5F5F5F5F5F5F5F5F5F5F5F5F5F5F5F5F5F5F5F5F5F5F5F5F5F5F5F5F5F5F5F5F5F5F5F5F5F5F5F5F5F5F5F5F5F5F5F5F5F5F5F5F5F5F5E2F5F5F5F5F5F5F5F5F5F5F5F5F5F5F5F5E2F5F5F5F5E2E2F5F5F5F5E2F5F5F5F5F5
310
F5F5F5F5F5F5F5F5F5F5F5E2F5F5F5F5F5F5F5F5F5F5F5F5F5F5F5F5F5F5F5F5F5F5F5F5F5F5F5F5F5F5F5F5F5F5F5F5F5F5F5F5F5F5F5F5F5F5F5F5F5F5F5F5F5F5F5F5F5F5F5F5F5F5F5F5F5F5F5F5F5F5F5F5F5F5F5F5F5F5F5F5F5F5F5F5F5F5F5F5F5F5F5F5F5F5F5F5F5F5F5F5F5F5F5F5F5F5F5F5F5F5F5F5F5F5F5
310
F5F5F5F5F5F5F5F5F5F5F5F5F5F5F5F5F5F5F5E2F5F5F5F5F5F5F5F5F5F5F5F5F5F5F5F5E2F5F5F5F5E2E2F5F5F5F5E2F5F5F5F5F5F5F5F5F5F5F5F5F5F5F5F5E2F5F5F5F5F5F5F5F5F5F5F5F5F5F5F5F5F5F5F5F5F5F5F5F5F5F5F5F5F5F5F5F5F5F5F5F5F5F5F5F5F5F5F5F5F5F5F5F5F5F5F5F5F5F5F5F5F5F5F5F5F5F5
310
F5F5F5F5F5F5F5F5F5F5F5F5F5F5F5F5F5F5F5F5F5F5F5F5F5F5F5F5F5F5F5F5F5F5F5F5F5F5F5F5F5F5F5F5F5F5F5F5F5F5F5F5F5F5F5F5F5F5F5F5F5F5F5F5F5F5F5F5F5F5F5F5E2F5F5F5F5F5F5F5F5F5F5F5F5F5F5F5F5E2F5F5F5F5E2E2F5F5F5F5E2F5F5F5F5F5F5F5F5F5F5F5F5F5F5F5F5E2F5F5F5F5F5F5F5F5F5
310
F5F5F5F5F5F5F5F5F5F5F5F5F5F5F5F5F5F5F5F5F5F5F5F5F5F5F5F5F5F5F5F5F5F5F5F5F5F5F5F5F5F5F5F5F5F5F5F5F5F5F5F5F5F5F5F5F5F5F5F5F5F5F5F5F5F5F5F5F5F5F5F5F5F5F5F5F5F5F5F5F5F5F5F5F5F5F5F5F5F5F5F5F5F5F5F5F5F5F5F5F5F5F5F5F5F5F5F5F5F5F5F5F5F5F5F5F5F5F5F5F5F5F5F5F5E2F5
310
F5F5F5F5F5F5F5F5F5F5F5F5F5F5F5E2F5F5F5F5E2E2F5F5F5F5E2F5F5F5F5F5F5F5F5F5F5F5F5F5F5F5F5E2F5F5F5F5F5F5F5F5F5F5F5F5F5F5F5F5F5F5F5F5F5F5F5F5F5F5F5F5F5F5F5F5F5F5F5F5F5F5F5F5F5F5F5F5F5F5F5F5F5F5F5F5F5F5F5F5F5F5F5F5F5F5F5F5F5F5F5F5F5F5F5F5F5F5F5F5F5F5F5F5F5F5F5
310
F5F5F5F5F5F5F5F5F5F5F5F5F5F5F5F5F5F5F5F5F5F5F5F5F5F5F5F5F5F5F5F5F5F5F5F5F5F5F5F5F5F5F5F5F5F5F5F5F5F5F5E2F5F5F5F5F5F5F5F5F5F5F5F5F5F5F5F5E2F5F5F5F5E2E2F5F5F5F5E2F5F5F5F5F5F5F5F5F5F5F5F5F5F5F5F5E2F5F5F5F5F5F5F5F5F5F5F5F5F5F5F5F5F5F5F5F5F5F5F5F5F5F5F5F5F5F5
310
F5F5F5F5F5F5F5F5F5F5F5F5F5F5F5F5F5F5F5F5F5F5F5F5F5F5F5F5F5F5F5F5F5F5F5F5F5F5F5F5F5F5F5F5F5F5F5F5F5F5F5F5F5F5F5F5F5F5F5F5F5F5F5F5F5F5F5F5F5F5F5F5F5F5F5F5F5F5F5F5F5F5F5F5F5F5F5F5F5F5F5F5F5F5F5F5F5F5F5F5F5F5F5F5E2F5F5F5F5F5F5F5F5F5F5F5F5F5F5F5F5E2F5F5F5F5E2
310
E2F5F5F5F5E2F5F5F5F5F5F5F5F5F5F5F5F5F5F5F5F5E2F5F5F5F5F5F5F5F5F5F5F5F5F5F5F5F5F5F5F5F5F5F5F5F5F5F5F5F5F5F5F5F5F5F5F5F5F5F5F5F5F5F5F5F5F5F5F5F5F5F5F5F5F5F5F5F5F5F5F5F5F5F5F5F5F5F5F5F5F5F5F5F5F5F5F5F5F5F5F5F5F5F5F5F5F5F5F5F5F5F5F5F5F5F5F5F5F5F5F5F5F5F5F5F5
310
F5F5F5F5F5F5F5F5F5F5F5F5F5F5F5F5F5F5F5F5F5F5F5F5F5F5F5F5F5F5E2F5F5F5F5F5F5F5F5F5F5F5F5F5F5F5F5E2F5F5F5F5E2E2F5F5F5F5E2F5F5F5F5F5F5F5F5F5F5F5F5F5F5F5F5E2F5F5F5F5F5F5F5F5F5F5F5F5F5F5F5F5F5F5F5F5F5F5F5F5F5F5F5F5F5F5F5F5F5F5F5F5F5F5F5F5F5F5F5F5F5F5F5F5F5F5F5
310
F5F5F5F5F5F5F5F5F5F5F5F5F5F5F5F5F5F5F5F5F5F5F5F5F5F5F5F5F5F5F5F5F5F5F5F5F5F5F5F5F5F5F5F5F5F5F5F5F5F5F5F5F5F5F5F5F5F5F5F5F5F5F5F5F5F5F5F5F5F5F5F5F5F5F5F5F5F5F5F5F5F5F5E2F5F5F5F5F5F5F5F5F5F5F5F5F5F5F5F5E2F5F5F5F5E2E2F5F5F5F5E2F5F5F5F5F5F5F5F5F5F5F5F5F5F5F5
310
F5E2F5F5F5F5F5F5F5F5F5F5F5F5F5F5F5F5F5F5F5F5F5F5F5F5F5F5F5F5F5F5F5F5F5F5F5F5F5F5F5F5F5F5F5F5F5F5F5F5F5F5F5F5F5F5F5F5F5F5F5F5F5F5F5F5F5F5F5F5F5F5F5F5F5F5F5F5F5F5F5F5F5F5F5F5F5F5F5F5F5F5F5F5F5F5F5F5F5F5F5F5F5F5F5F5F5F5F5F5F5F5F5F5F5F5F5F5F5F5F5F5F5F5F5F5F5
310
F5F5F5F5F5F5F5F5F5E2F5F5F5F5F5F5F5F5F5F5F5F5F5F5F5F5E2F5F5F5F5E2E2F5F5F5F5E2F5F5F5F5F5F5F5F5F5F5F5F5F5F5F5F5E2F5F5F5F5F5F5F5F5F5F5F5F5F5F5F5F5F5F5F5F5F5F5F5F5F5F5F5F5F5F5F5F5F5F5F5F5F5F5F5F5F5F5F5F5F5F5F5F5F5F5F5F5F5F5F5F5F5F5F5F5F5F5F5F5F5F5F5F5F5F5F5F5
310
F5F5F5F5F5F5F5F5F5F5F5F5F5F5F5F5F5F5F5F5F5F5F5F5F5F5F5F5F5F5F5F5F5F5F5F5F5F5F5F5F5F5F5F5F5F5F5F5F5F5F5F5F5F5F5F5F5F5F5F5F5F5E2F5F5F5F5F5F5F5F5F5F5F5F5F5F5F5F5E2F5F5F5F5E2E2F5F5F5F5E2F5F5F5F5F5F5F5F5F5F5F5F5F5F5F5F5E2F5F5F5F5F5F5F5F5F5F5F5F5F5F5F5F5F5F5F5
310
F5F5F5F5F5F5F5F5F5F5F5F5F5F5F5F5F5F5F5F5F5F5F5F5F5F5F5F5F5F5F5F5F5F5F5F5F5F5F5F5F5F5F5F5F5F5F5F5F5F5F5F5F5F5F5F5F5F5F5F5F5F5F5F5F5F5F5F5F5F5F5F5F5F5F5F5F5F5F5F5F5F5F5F5F5F5F5F5F5F5F5F5F5F5F5F5F5F5F5F5F5F5F5F5F5F5F5F5F5F5F5F5F5F5F5E2F5F5F5F5F5F5F5F5F5F5F5
310
F5F5F5F5F5E2F5F5F5F5E2E2F5F5F5F5E2F5F5F5F5F5F5F5F5F5F5F5F5F5F5F5F5E2F5F5F5F5F5F5F5F5F5F5F5F5F5F5F5F5F5F5F5F5F5F5F5F5F5F5F5F5F5F5F5F5F5F5F5F5F5F5F5F5F5F5F5F5F5F5F5F5F5F5F5F5F5F5F5F5F5F5F5F5F5F5F5F5F5F5F5F5F5F5F5F5F5F5F5F5F5F5F5F5F5F5F5F5F5F5F5F5F5F5F5F5F5
310
F5F5F5F5F5F5F5F5F5F5F5F5F5F5F5F5F5F5F5F5F5F5F5F5F5F5F5F5F5F5F5F5F5F5F5F5F5F5F5F5F5E2F5F5F5F5F5F5F5F5F5F5F5F5F5F5F5F5E2F5F5F5F5E2E2F5F5F5F5F5F5F5F5F5F5F5F5F5F5F5F5F5F5F5F5F5E2F5F5F5F5F5F5F5F5F5F5F5F5F5F5F5F5F5F5F5F5F5F5F5F5F5F5F5F5F5F5F5F5F5F5F5F5F5F5F5F5
310
F5F5F5F5F5F5F5F5F5F5F5F5F5F5F5F5F5F5F5F5F5F5F5F5F5F5F5F5F5F5F5F5F5F5F5F5F5F5F5F5F5F5F5F5F5F5F5F5F5F5F5F5F5F5F5F5F5F5F5F5F5F5F5F5F5F5F5F5F5F5F5F5F5F5F5F5F5F5F5F5F5F5F5F5F5F5F5F5F5F5F5F5F5F5E2F5F5F5F5F5F5F5F5F5F5F5F5F5F5F5F5F5F5F5F5F5E2E2F5F5F5F5F5F5F5F5F5
310
F5F5F5F5F5F5F5F5F5F5F5F5E2F5F5F5F5F5F5F5F5F5F5F5F5F5F5F5F5F5F5F5F5F5F5F5F5F5F5F5F5F5F5F5F5F5F5F5F5F5F5F5F5F5F5F5F5F5F5F5F5F5F5F5F5F5F5F5F5F5F5F5F5F5F5F5F5F5F5F5F5F5F5F5F5F5F5F5F5F5F5F5F5F5F5F5F5F5F5F5F5F5F5F5F5F5F5F5F5F5F5F5F5F5F5F5F5F5F5F5F5F5F5F5F5F5F5
310
F5F5F5F5F5F5F5F5F5F5F5F5F5F5F5F5F5F5F5F5E2F5F5F5F5F5F5F5F5F5F5F5F5F5F5F5F5F5F5F5F5F5E2E2F5F5F5F5F5F5F5F5F5F5F5F5F5F5F5F5F5F5F5F5F5E2F5F5F5F5F5F5F5F5F5F5F5F5F5F5F5F5F5F5F5F5F5F5F5F5F5F5F5F5F5F5F5F5F5F5F5F5F5F5F5F5F5F5F5F5F5F5F5F5F5F5F5F5F5F5F5F5F5F5F5F5F5
310
F5F5F5F5F5F5F5F5F5F5F5F5F5F5F5F5F5F5F5F5F5F5F5F5F5F5F5F5F5F5F5F5F5F5F5F5F5F5F5F5F5F5F5F5F5F5F5F5F5F5F5F5F5F5F5F5F5F5F5F5F5F5F5F5F5F5F5F5F5F5F5F5F5E2F5F5F5F5F5F5F5F5F5F5F5F5F5F5F5F5F5F5F5F5F5E2E2F5F5F5F5F5F5F5F5F5F5F5F5F5F5F5F5F5F5F5F5F5E2F5F5F5F5F5F5F5F5
310
F5F5F5F5F5F5F5F5F5F5F5F5F5F5F5F5F5F5F5F5F5F5F5F5F5F5F5F5F5F5F5F5F5F5F5F5F5F5F5F5F5F5F5F5F5F5F5F5F5F5F5F5F5F5F5F5F5F5F5F5F5F5F5F5F5F5F5F5F5F5F5F5F5F5F5F5F5F5F5F5F5F5F5F5F5F5F5F5F5F5F5F5F5F5F5F5F5F5DCF5F5F5F5F5F5F5F5F5F5F5F5F5F5F5F5F5F5F5F5F5F5F5F5F5F5F5E2
310
F5F5F5F5F5F5F5F5F5F5F5F5F5F5F5F5F5F5F5F5F5E2E2F5F5F5F5F5F5F5F5F5F5F5F5F5F5F5F5F5F5F5F5F5E2F5F5F5F5F5F5F5F5F5F5F5F5F5F5F5F5F5F5F5F5F5F5F5F5F5F5F5F5F5F5F5F5F5F5F5F5F5F5F5F5F5F5F5F5F5F5F5F5F5F5F5F5F5F5F5F5F5F5F5F5F5F5F5F5F5F5F5F5F5F5F5F5F5F5F5F5F5F5F5F5F5E2
310
ECE2E2E2E2E2E2E2E2E2E2E2E2E2E2E2E2E2E2E2E2E2E2E2DCE2E2E2E2E2E2E2E2E2E2E2E2E2E2E2E2E2E2E2E2E2E2E2ECE2F5F5E2F5F5F5F5F5F5F5F5F5F5F5F5F5F5F5F5F5F5F5F5F5E2E2F5F5F5F5F5F5F5F5F5F5F5F5F5F5F5F5F5F5F5F5F5E2F5F5F5F5F5F5F5F5F5F5F5F5F5F5F5F5F5F5F5F5F5F5F5F5F5F5F5F5F5
310
F5F5F5F5F5F5F5F5F5F5F5F5F5F5F5F5F5F5F5F5F5F5F5F5F5F5F5F5F5F5F5F5F5F5F5F5F5F5F5F5F5F5F5F5F5F5F5F5F5F5F5E2F5F5ECF5F5F5F5F5F5F5F5F5F5F5F5F5F5F5F5F5F5F5F5F5F5DCF5F5F5F5F5F5F5F5F5F5F5F5F5F5F5F5F5F5F5F5F5F5ECF5F5E2F5E2F5F5F5F5F5F5F5F5F5F5F5F5F5F5F5F5F5F5F5F5F5
310
E2E2F5F5F5F5F5F5F5F5F5F5F5F5F5F5F5F5F5F5F5F5F5E2F5F5F5F5F5F5F5F5F5F5F5F5F5F5F5F5F5F5F5F5F5F5F5F5F5F5F5F5F5F5F5F5F5F5F5F5F5F5F5F5F5F5F5F5F5F5F5F5F5F5F5F5F5F5F5F5F5F5F5F5F5F5F5F5F5F5F5F5F5F5F5F5F5F5F5F5F5F5F5E2F5F5F5F5ECF5F5F5F5F5F5F5F5F5F5F5F5F5F5F5F5F5F5
310
F5F5F5DCF5F5F5F5F5F5F5F5F5F5F5F5F5F5F5F5F5F5F5F5F5ECF5F5F5F5E2E2F5F5F5F5F5F5F5F5F5F5F5F5F5F5F5F5F5F5F5F5F5E2E2F5F5F5F5F5F5F5F5F5F5F5F5F5F5F5F5F5F5F5F5F5E2F5F5F5F5F5F5F5F5F5F5F5F5F5F5F5F5F5F5F5F5F5F5F5F5F5F5F5F5F5F5F5F5F5F5F5F5F5F5F5F5F5F5F5F5F5F5F5F5F5F5
310
F5F5F5F5F5F5F5F5F5F5F5F5F5F5F5F5F5F5F5F5F5F5F5F5F5F5F5F5E2E2E2E2E2E2ECE2E2E2E2E2E2E2E2E2ECECECECECECE2ECECECECECDCECECECECECE2ECECECECECECE2E2E2E2E2E2E2E2ECE2E2E2E2E2E2E2F5F5F5F5F5F5F5F5F5F5F5F5F5F5F5F5F5F5F5F5F5E2E2F5F5F5F5F5F5F5F5F5F5F5F5F5F5F5F5F5F5F5
310
F5F5E2F5F5F5F5F5F5F5F5F5F5F5F5F5F5F5F5F5F5F5F5F5F5F5F5F5F5F5F5F5F5F5F5F5F5F5F5F5F5F5F5F5F5F5F5F5F5F5F5F5F5F5F5F5F5F5F5F5F5F5F5F5F5F5F5F5F5F5F5F5F5F5F5F5F5F5F5F5F5E2F5F5F5F5F5F5F5F5F5F5F5F5F5F5F5ECF5F5F5F5F5F5F5F5F5F5F5DCF5F5F5F5F5F5F5F5F5F5ECF5F5F5F5F5F5
310
F5F5F5F5F5F5F5F5F5E2E2F5F5F5F5F5F5F5F5F5F5F5F5F5F5F5F5F5F5F5F5F5E2E2F5F5F5F5E2F5F5F5F5F5F5F5F5F5F5F5F5F5F5F5F5E2F5F5F5F5F5F5F5F5F5F5F5F5F5F5F5F5F5F5F5F5F5F5F5F5F5F5F5F5F5F5F5F5F5F5F5F5F5F5F5F5F5F5F5F5F5F5F5F5F5F5F5F5F5F5F5F5F5F5F5F5F5F5F5F5F5F5F5F5F5F5F5
310
F5F5F5F5F5F5F5E2F5F5F5F5F5F5F5F5F5F5F5F5F5F5F5ECECECECECECECECECECECECECECECECECECECECECECECECF5F5F5F5F5F5F5F5F5F5F5F5F5F5F5E2E2F5F5F5F5F5F5F5F5F5F5F5F5F5F5F5F5E2F5F5F5F5E2E2F5F5F5F5E2F5F5F5F5F5F5F5F5F5F5F5F5F5F5F5F5E2F5F5F5F5F5F5F5F5F5F5F5F5F5F5F5F5F5F5
310
F5F5F5F5F5F5F5F5F5F5F5F5F5F5F5F5F5F5F5F5F5F5F5F5F5F5F5F5F5F5F5F5F5F5F5F5F5F5F5F5F5F5F5F5F5F5F5F5F5F5F5F5F5F5F5F5F5F5F5F5F5E2F5F5F5F5F5F5F5F5F5F5F5F5F5F5F5F5F5F5F5ECF5F5F5F5F5F5DCF5F5F5F5F5ECF5F5F5F5F5F5F5F5F5F5F5F5F5F5F5F5F5F5F5F5E2E2F5F5F5F5F5F5F5F5F5F5
310
F5F5F5F5F5F5E2F5F5F5F5E2E2F5F5F5F5E2F5F5F5F5F5F5F5F5F5F5F5F5F5F5F5F5E2F5F5F5F5F5F5F5F5F5F5F5F5F5F5F5F5F5F5F5F5F5F5F5F5F5F5F5F5F5F5F5F5F5F5F5F5F5F5F5F5F5F5F5F5F5F5F5F5F5F5F5F5F5F5F5F5F5F5F5F5F5F5F5F5F5F5F5F5F5F5F5F5F5F5F5F5F5F5F5F5E2F5F5F5F5F5F5F5F5F5F5F5
310
F5F5F5F5F5ECECECECECECF5ECECECECECF5ECECECECECF5F5F5F5F5F5F5F5F5F5F5F5F5F5F5F5F5E2F5E2F5F5F5F5F5F5F5F5F5F5F5F5F5F5F5F5E2F5F5F5F5E2E2F5F5F5F5E2F5F5F5F5F5F5F5F5F5F5F5F5F5F5F5F5E2F5F5F5F5F5F5F5F5F5F5F5F5F5F5F5F5F5F5F5F5F5F5F5F5F5F5F5F5F5F5F5F5F5F5F5F5F5F5F5
310
F5F5F5F5F5F5F5F5F5F5F5F5F5F5F5F5F5F5F5F5F5F5F5F5F5F5F5F5F5F5F5F5F5F5F5F5F5F5F5F5F5F5E2E2F5F5F5F5F5F5F5F5F5F5F5F5F5F5ECF5F5F5F5F5F5F5F5DCF5F5F5F5F5F5F5ECF5F5F5F5F5F5F5F5F5F5F5F5F5F5F5E2E2F5F5E2F5F5F5F5F5F5F5F5F5F5F5F5F5F5F5F5E2F5F5F5F5E2E2F5F5F5F5E2F5F5F5
310
F5F5F5F5F5F5F5F5F5F5F5F5F5E2F5F5F5F5F5F5F5F5F5F5F5F5F5F5F5F5F5F5F5F5F5F5F5F5F5F5F5F5F5F5F5F5F5F5F5F5F5F5F5F5F5F5F5F5F5F5F5F5F5F5F5F5F5F5F5F5F5F5F5F5F5F5F5F5F5F5F5F5F5F5F5F5F5F5F5F5F5F5F5F5F5F5F5E2F5F5F5F5F5F5F5F5F5F5F5F5F5ECF5F5F5F5F5F5F5F5DCF5F5F5F5F5F5
310
F5ECF5F5F5F5F5F5F5F5F5F5F5F5F5E2E2F5F5F5F5E2F5F5F5F5F5F5F5F5F5F5F5F5F5F5F5F5E2F5F5F5F5E2E2F5F5F5F5E2F5F5F5F5F5F5F5F5F5F5F5F5F5F5F5F5E2F5F5F5F5F5F5F5F5F5F5F5F5F5F5F5F5F5F5F5F5F5F5F5F5F5F5F5F5F5F5F5F5F5F5F5F5F5F5F5F5F5F5F5F5F5F5F5F5F5F5F5F5F5F5F5F5F5F5F5F5
310
F5F5F5F5F5F5F5F5F5F5F5F5F5F5F5F5F5F5F5F5F5F5F5F5E2E2F5F5F5F5F5F5F5F5F5F5F5ECF5F5F5F5F5F5F5F5DCF5F5F5F5F5F5F5ECF5F5F5F5F5F5F5F5F5F5F5F5E2F5F5F5F5F5F5E2F5F5F5F5F5F5F5F5F5F5F5F5F5F5F5F5E2F5F5F5F5E2E2F5F5F5F5E2F5F5F5F5F5F5F5F5F5F5F5F5F5F5F5F5E2F5F5F5F5F5F5F5
310
F5F5F5F5F5F5F5F5F5F5F5F5F5F5F5F5F5F5F5F5F5F5F5F5F5F5F5F5F5F5F5F5F5F5F5F5F5F5F5F5F5F5F5F5F5F5F5F5F5F5F5F5F5F5F5F5F5F5F5F5F5F5F5F5F5F5F5F5F5F5F5F5F5F5F5F5F5F5F5E2F5F5F5F5F5F5F5F5F5F5ECF5F5F5F5F5F5F5F5DCF5F5F5F5F5F5F5ECF5F5F5F5F5F5F5F5F5F5E2E2F5F5F5F5F5F5F5
310
E2F5F5F5F5F5F5F5F5F5F5F5F5F5F5F5F5E2F5F5F5F5E2E2F5F5F5F5E2F5F5F5F5F5F5F5F5F5F5F5F5F5F5F5F5E2F5F5F5F5F5F5F5F5F5F5F5F5F5F5F5F5F5F5F5F5F5F5F5F5F5F5F5F5F5F5F5F5F5F5F5F5F5F5F5F5F5F5F5F5F5F5F5F5F5F5F5F5F5F5F5F5F5F5F5F5F5F5F5F5F5F5F5F5F5F5F5F5F5F5F5F5F5F5F5F5F5
310
F5F5F5F5F5F5E2E2F5F5F5F5F5F5F5F5F5ECECECECECF5ECECECECECF5ECECECECECF5F5F5F5F5F5F5F5E2E2F5F5F5F5F5F5F5F5F5E2F5F5F5F5F5F5F5F5F5F5F5F5F5F5F5F5E2F5F5F5F5E2E2F5F5F5F5E2F5F5F5F5F5F5F5F5F5F5F5F5F5F5F5F5E2F5F5F5F5F5F5F5F5F5F5F5F5F5F5F5F5F5F5F5F5F5F5F5F5F5F5F5F5
310
F5F5F5F5F5F5F5F5F5F5F5F5F5F5F5F5F5F5F5F5F5F5F5F5F5F5F5F5F5F5F5F5F5F5F5F5F5F5F5F5F5F5F5F5F5F5F5F5F5F5F5F5F5F5F5F5F5F5F5F5F5E2E2F5F5F5F5F5F5F5ECF5F5F5F5F5F5F5DCF5F5F5F5F5F5F5ECF5F5F5F5F5F5F5E2F5F5F5F5F5F5F5F5F5F5F5E2F5F5F5F5F5F5F5F5F5F5F5F5F5F5F5F5E2F5F5F5
310
F5E2E2F5F5F5F5E2F5F5F5F5F5F5F5F5F5F5F5F5F5F5F5F5E2F5F5F5F5F5F5F5F5F5F5F5F5F5F5F5F5F5F5F5F5F5F5F5F5F5F5F5F5F5F5F5F5F5F5F5F5F5F5F5F5F5F5F5F5F5F5F5F5F5F5F5F5F5F5F5F5F5F5F5F5F5F5F5F5F5F5F5F5F5F5F5F5F5F5F5F5F5F5F5F5F5F5F5F5F5F5F5F5F5F5E2F5F5F5F5F5F5F5ECF5F5F5
310
F5F5F5F5DCF5F5F5F5F5F5F5ECF5F5F5F5F5F5F5E2F5F5F5F5F5F5F5F5F5F5F5E2F5F5F5F5F5F5F5F5F5F5F5F5F5F5F5F5E2F5F5F5F5E2E2F5F5F5F5E2F5F5F5F5F5F5F5F5F5F5F5F5F5F5F5F5E2F5F5F5F5F5F5F5F5F5F5F5F5F5F5F5F5F5F5F5F5F5F5F5F5F5F5F5F5F5F5F5F5F5F5F5F5F5F5F5F5F5F5F5F5F5F5F5F5F5
310
F5F5F5F5F5F5F5F5F5F5F5F5F5F5F5F5F5F5F5F5F5F5F5F5F5F5F5F5F5F5F5F5F5F5F5F5F5F5F5F5F5E2F5F5F5F5F5F5F5ECF5F5F5F5F5F5F5DCF5F5F5F5F5F5F5ECF5F5F5F5F5F5F5E2F5F5F5F5F5F5F5F5F5F5F5E2F5F5F5F5F5F5F5F5F5F5F5F5F5F5F5F5E2F5F5F5F5E2E2F5F5F5F5E2F5F5F5F5F5F5F5F5F5F5F5F5F5
310
F5F5F5E2F5F5F5F5F5F5F5F5F5F5F5F5F5F5F5F5F5F5F5F5F5F5F5F5F5F5F5F5F5F5F5F5F5F5F5F5F5F5F5F5F5F5F5F5F5F5F5F5F5F5F5F5F5F5F5F5F5F5F5F5F5F5F5F5F5F5F5F5F5F5F5F5F5F5F5F5F5F5F5F5F5F5F5F5F5F5F5F5F5F5E2F5F5F5F5F5F5F5ECF5F5F5F5E2E2E2E2E2E2E2F5F5F5F5ECF5F5F5F5F5F5F5E2
310
F5F5F5F5F5F5F5F5F5F5F5E2F5F5F5F5F5F5F5F5F5F5F5F5F5F5F5F5E2F5F5F5F5E2E2F5F5F5F5E2F5F5F5F5F5F5F5F5F5F5F5F5F5F5F5F5E2F5F5F5F5F5F5F5F5F5F5F5F5F5F5F5F5F5F5F5F5F5F5F5F5F5F5F5F5F5F5F5F5F5F5F5F5F5F5F5F5F5F5F5F5F5F5F5F5F5F5F5F5F5F5F5F5F5F5F5F5F5F5F5F5F5F5F5F5F5F5
310
F5F5F5F5F5F5F5F5F5F5F5F5F5F5F5F5F5F5F5F5E2F5F5F5F5F5F5F5ECECECECECECF5F5DCF5F5ECECECECECECF5F5F5F5F5F5F5E2F5F5F5F5F5F5F5F5F5F5F5E2F5F5F5F5F5F5F5F5F5F5F5F5F5F5F5F5E2F5F5F5F5E2E2F5F5F5F5E2F5F5F5F5F5F5F5F5F5F5F5F5F5F5F5F5E2F5F5F5F5F5F5F5F5F5F5F5F5F5F5F5F5F5
310
F5F5F5F5F5F5F5F5F5F5F5F5F5F5F5F5F5F5F5F5F5F5F5F5F5F5F5F5F5F5F5F5F5F5F5F5F5F5F5F5F5F5F5F5F5F5F5F5F5F5F5F5F5F5F5F5F5F5F5F5F5F5F5F5F5F5F5F5F5F5F5F5F5E2F5F5F5F5F5F5F5ECF5F5F5F5E2F5F5DCF5F5E2F5F5F5F5ECF5F5F5F5F5F5F5E2F5F5F5F5F5F5F5F5F5F5F5E2F5F5F5F5F5F5F5F5F5
310
F5F5F5F5F5F5F5E2F5F5F5F5E2E2F5F5F5F5E2F5F5F5F5F5F5F5F5F5F5F5F5F5F5F5F5E2F5F5F5F5F5F5F5F5F5F5F5F5F5F5F5F5F5F5F5F5F5F5F5F5F5F5F5F5F5F5F5F5F5F5F5F5F5F5F5F5F5F5F5F5F5F5F5F5F5F5F5F5F5F5F5F5F5F5F5F5F5F5F5F5F5F5F5F5F5F5F5F5F5F5F5F5F5F5F5F5F5F5F5F5F5F5F5F5F5F5E2
310
E2E2E2E2E2E2E2E2E2E2E2E2ECF5F5DCF5F5E2E2E2E2E2E2E2E2E2E2E2E2E2E2F5F5F5F5F5F5F5F5F5F5F5E2F5F5F5F5F5F5F5F5F5F5F5F5F5F5F5F5E2F5F5F5F5E2E2F5F5F5F5E2F5F5F5F5F5F5F5F5F5F5F5F5F5F5F5F5E2F5F5F5F5F5F5F5F5F5F5F5F5F5F5F5F5F5F5F5F5F5F5F5F5F5F5F5F5F5F5F5F5F5F5F5F5F5F5
310
F5F5F5F5F5F5F5F5F5F5F5F5F5F5F5F5F5F5F5F5F5F5F5F5F5F5F5F5F5F5F5F5F5F5F5F5F5F5F5F5F5F5F5F5F5F5F5F5F5F5F5F5F5F5F5F5F5F5F5F5F5F5F5F5F5F5F5F5DCF5F5F5F5F5F5F5F5F5F5F5F5F5F5F5F5F5F5F5F5F5F5F5F5F5F5F5E2F5F5F5F5F5F5F5F5F5F5F5F5F5F5F5F5E2F5F5F5F5E2E2F5F5F5F5F5F5F5
310
F5F5F5F5F5F5F5F5F5F5F5F5F5F5E2F5F5F5F5F5F5F5F5F5F5F5F5F5F5F5F5F5F5F5F5F5F5F5F5F5F5F5F5F5F5F5F5F5F5F5F5F5F5F5F5F5F5F5F5F5F5F5F5F5F5F5F5F5F5F5F5F5F5F5F5F5F5F5F5F5F5F5F5F5F5F5F5F5F5F5F5F5F5F5F5F5F5F5F5F5F5F5F5F5F5F5F5F5F5F5F5F5F5F5F5F5F5F5F5F5F5F5F5F5F5F5F5
310
F5F5F5F5F5F5F5F5F5F5F5F5F5F5F5F5F5F5F5F5F5F5E2F5F5F5F5F5F5F5F5F5F5F5F5F5F5F5F5F5F5F5F5F5E2E2F5F5F5F5F5F5F5F5F5F5F5F5F5F5F5F5F5F5F5F5F5E2F5F5F5F5F5F5F5F5F5F5F5F5F5F5F5F5F5F5F5F5F5F5F5F5F5F5F5F5F5F5F5F5F5F5F5F5F5F5F5F5F5F5F5F5F5F5F5F5F5F5F5F5F5F5F5F5F5F5F5
310
F5F5F5F5F5F5F5F5F5F5F5F5F5F5F5F5F5F5F5F5F5F5F5F5F5F5F5F5F5F5F5F5F5F5F5F5F5F5F5F5F5F5F5F5F5F5F5F5F5F5F5F5F5F5F5F5F5F5F5F5F5F5F5F5F5F5F5F5F5F5F5F5F5F5F5E2F5F5F5F5F5F5F5F5F5F5F5F5F5F5F5F5F5F5F5F5F5E2E2F5F5F5F5F5F5F5F5F5F5F5F5F5F5F5F5F5F5F5F5F5E2F5F5F5F5F5F5
310
F5F5F5F5F5F5F5F5F5F5F5F5F5F5F5F5F5F5F5F5F5F5F5F5F5F5F5F5F5F5F5F5F5F5F5F5F5F5F5F5F5F5F5F5F5F5F5F5F5F5F5F5F5F5F5F5F5F5F5F5F5F5F5F5F5F5F5F5F5F5F5F5F5F5F5F5F5F5F5F5F5F5F5F5F5F5F5F5F5F5F5F5F5F5F5F5F5F5F5F5F5F5F5F5F5F5F5F5F5F5F5F5F5F5F5F5F5F5F5F5F5F5F5F5F5F5F5
310
F5E2F5F5F5F5F5F5F5F5F5F5F5F5F5F5F5F5F5F5F5F5F5E2E2F5F5F5F5F5F5F5F5F5F5F5F5F5F5F5F5F5F5F5F5F5E2F5F5F5F5F5F5F5F5F5F5F5F5F5F5F5F5F5F5F5F5F5F5F5F5F5F5F5F5F5F5F5F5F5F5F5F5F5F5F5F5F5F5F5F5F5F5F5F5F5F5F5F5F5F5F5F5F5F5F5F5F5F5F5F5F5F5F5F5F5F5F5F5F5F5F5F5F5F5F5F5
310
F5F5F5F5F5F5F5F5F5F5F5F5F5F5F5F5F5F5F5F5F5F5F5F5F5F5F5F5F5F5F5F5F5F5F5F5F5F5F5F5F5F5F5F5F5F5F5F5F5F5F5F5F5F5E2F5F5F5F5F5F5F5F5F5F5F5F5F5F5F5F5F5F5F5F5F5E2E2F5F5F5F5F5F5F5F5F5F5F5F5F5F5F5F5F5F5F5F5F5E2F5F5F5F5F5F5F5F5F5F5F5F5F5F5F5F5F5F5F5F5F5F5F5F5F5F5F5
310
F5F5F5F5F5F5F5F5F5F5F5F5F5F5F5F5F5F5F5F5F5F5F5F5F5F5F5F5F5F5F5F5F5F5F5F5F5F5F5F5F5F5F5F5F5F5F5F5F5F5F5F5F5F5F5F5F5F5F5F5F5F5F5F5F5F5F5F5F5F5F5F5F5F5F5F5F5F5F5F5F5F5F5F5F5F5F5F5F5F5F5F5F5F5F5F5F5F5F5F5F5F5F5F5F5F5F5E2F5F5F5F5F5F5F5F5F5F5F5F5F5F5F5F5F5F5F5
310
F5F5E2E2F5F5F5F5F5F5F5F5F5F5F5F5F5F5F5F5F5F5F5F5F5E2F5F5F5F5F5F5F5F5F5F5F5F5F5F5F5F5F5F5F5F5F5F5F5F5F5F5F5F5F5F5F5F5F5F5F5F5F5F5F5F5F5F5F5F5F5F5F5F5F5F5F5F5F5F5F5F5F5F5F5F5F5F5F5F5F5F5F5F5F5F5F5F5F5F5F5F5F5F5F5F5F5F5F5F5F5F5F5F5F5F5F5F5F5F5F5F5F5F5F5F5F5
310
F5F5F5F5F5F5F5F5F5F5F5F5F5F5F5F5F5F5F5F5F5F5F5F5F5F5F5F5F5F5F5F5F5E2F5F5F5F5F5F5F5F5F5F5F5F5F5F5F5F5F5F5F5F5F5E2E2F5F5F5F5F5F5F5F5F5F5F5F5F5F5F5F5F5F5F5F5F5E2F5F5F5F5F5F5F5F5F5F5F5F5F5F5F5F5F5F5F5F5F5F5F5F5F5F5F5F5F5F5F5F5F5F5F5F5F5F5F5F5F5F5F5F5F5F5F5F5
310
F5F5F5F5F5F5F5F5F5F5F5F5F5F5F5F5F5F5F5F5F5F5F5F5F5F5F5F5F5F5F5F5F5F5F5F5F5F5F5F5F5F5F5F5F5F5F5F5F5F5F5F5F5F5F5F5F5F5F5F5F5F5F5F5F5F5F5F5F5F5F5F5F5F5F5F5F5F5F5F5F5F5F5F5F5F5E2F5F5F5F5F5F5F5F5F5F5F5F5F5F5F5F5F5F5F5F5F5E2E2F5F5F5F5F5F5F5F5F5F5F5F5F5F5F5F5F5
310
F5F5F5F5E2F5F5F5F5F5F5F5F5F5F5F5F5F5F5F5F5F5F5F5F5F5F5F5F5F5F5F5F5F5F5F5F5F5F5F5F5F5F5F5F5F5F5F5F5F5F5F5F5F5F5F5F5F5F5F5F5F5F5F5F5F5F5F5F5F5F5F5F5F5F5F5F5F5F5F5F5F5F5F5F5F5F5F5F5F5F5F5F5F5F5F5F5F5F5F5F5F5F5F5F5F5F5F5F5F5F5F5F5F5F5F5F5F5F5F5F5F5F5F5F5F5F5
310
F5F5F5F5F5F5F5F5F5F5F5F5E2F5F5F5F5F5F5F5F5F5F5F5F5F5F5F5F5F5F5F5F5F5E2E2F5F5F5F5F5F5F5F5F5F5F5F5F5F5F5F5F5F5F5F5F5E2F5F5F5F5F5F5F5F5F5F5F5F5F5F5F5F5F5F5F5F5F5F5F5F5F5F5F5F5F5F5F5F5F5F5F5F5F5F5F5F5F5F5F5F5F5F5F5F5F5F5F5F5F5F5F5F5F5F5F5F5F5F5F5F5F5F5F5F5F5
310
F5F5F5F5F5F5F5F5F5F5F5F5F5F5F5F5F5F5F5F5F5F5F5F5F5F5F5F5F5F5F5F5F5F5F5F5F5F5F5F5F5F5F5F5F5F5F5F5F5F5F5F5F5F5F5F5F5F5F5F5F5F5F5F5F5E2F5F5F5F5F5F5F5F5F5F5F5F5F5F5F5F5F5F5F5F5F5E2E2F5F5F5F5F5F5F5F5F5F5F5F5F5F5F5F5F5F5F5F5F5E2F5F5F5F5F5F5F5F5F5F5F5F5F5F5F5F5
310
F5F5F5F5F5F5F5F5F5F5F5F5F5F5F5F5F5F5F5F5F5F5F5F5F5F5F5F5F5F5F5F5F5F5F5F5F5F5F5F5F5F5F5F5F5F5F5F5F5F5F5F5F5F5F5F5F5F5F5F5F5F5F5F5F5F5F5F5F5F5F5F5F5F5F5F5F5F5F5F5F5F5F5F5F5F5F5F5F5F5F5F5F5F5F5F5F5F5F5F5F5F5F5F5F5F5F5F5F5F5F5F5F5F5F5F5F5F5E2F5F5F5F5F5F5F5F5
310
F5F5F5F5F5F5F5F5F5F5F5F5F5E2E2F5F5F5F5E2F5F5F5F5F5F5F5F5F5F5F5F5F5F5F5F5E2F5F5F5F5F5F5F5F5F5F5F5F5F5F5F5F5F5F5F5F5F5F5F5F5F5F5F5F5F5F5F5F5F5F5F5F5F5F5F5F5F5F5F5F5F5F5F5F5F5F5F5F5F5F5F5F5F5F5F5F5F5F5F5F5F5F5F5F5F5F5F5F5F5F5F5F5F5F5F5F5F5F5F5F5F5F5F5F5F5F5
310
F5F5F5F5F5F5F5F5F5F5F5F5F5F5F5F5F5F5F5F5F5F5F5F5F5F5F5F5F5F5F5F5F5F5F5F5F5F5F5F5F5F5F5F5E2F5F5F5F5F5F5F5F5F5F5F5F5F5F5F5F5E2F5F5F5F5E2E2F5F5F5F5E2F5F5F5F5F5F5F5F5F5F5F5F5F5F5F5F5E2F5F5F5F5F5F5F5F5F5F5F5F5F5F5F5F5F5F5F5F5F5F5F5F5F5F5F5F5F5F5F5F5F5F5F5F5F5
310
F5F5F5F5F5F5F5F5F5F5F5F5F5F5F5F5F5F5F5F5F5F5F5F5F5F5F5F5F5F5F5F5F5F5F5F5F5F5F5F5F5F5F5F5F5F5F5F5F5F5F5F5F5F5F5F5F5F5F5F5F5F5F5F5F5F5F5F5F5F5F5F5F5F5F5F5F5F5F5F5F5F5F5F5F5F5F5F5F5F5F5F5F5F5F5F5F5E2F5F5F5F5F5F5F5F5F5F5F5F5F5F5F5F5E2F5F5F5F5E2E2F5F5F5F5E2F5
310
F5F5F5F5F5F5F5F5F5F5F5F5F5F5F5E2F5F5F5F5F5F5F5F5F5F5F5F5F5F5F5F5F5F5F5F5F5F5F5F5F5F5F5F5F5F5F5F5F5F5F5F5F5F5F5F5F5F5F5F5F5F5F5F5F5F5F5F5F5F5F5F5F5F5F5F5F5F5F5F5F5F5F5F5F5F5F5F5F5F5F5F5F5F5F5F5F5F5F5F5F5F5F5F5F5F5F5F5F5F5F5F5F5F5F5F5F5F5F5F5F5F5F5F5F5F5F5
310
F5F5F5F5F5F5F5F5F5F5F5F5F5F5F5F5F5F5F5F5F5F5F5E2F5F5F5F5F5F5F5F5F5F5F5F5F5F5F5F5E2F5F5F5F5E2E2F5F5F5F5E2F5F5F5F5F5F5F5F5F5F5F5F5F5F5F5F5E2F5F5F5F5F5F5F5F5F5F5F5F5F5F5F5F5F5F5F5F5F5F5F5F5F5F5F5F5F5F5F5F5F5F5F5F5F5F5F5F5F5F5F5F5F5F5F5F5F5F5F5F5F5F5F5F5F5F5
310
F5F5F5F5F5F5F5F5F5F5F5F5F5F5F5F5F5F5F5F5F5F5F5F5F5F5F5F5F5F5F5F5F5F5F5F5F5F5F5F5F5F5F5F5F5F5F5F5F5F5F5F5F5F5F5F5F5F5F5F5F5F5F5F5F5F5F5F5F5F5F5F5F5F5F5F5E2F5F5F5F5F5F5F5F5F5F5F5F5F5F5F5F5E2F5F5F5F5E2E2F5F5F5F5E2F5F5F5F5F5F5F5F5F5F5F5F5F5F5F5F5E2F5F5F5F5F5
310
F5F5F5F5F5F5F5F5F5F5F5F5F5F5F5F5F5F5F5F5F5F5F5F5F5F5F5F5F5F5F5F5F5F5F5F5F5F5F5F5F5F5F5F5F5F5F5F5F5F5F5F5F5F5F5F5F5F5F5F5F5F5F5F5F5F5F5F5F5F5F5F5F5F5F5F5F5F5F5F5F5F5F5F5F5F5F5F5F5F5F5F5F5F5F5F5F5F5F5F5F5F5F5F5F5F5F5F5F5F5F5F5F5F5F5F5F5F5F5F5F5F5F5F5F5F5F5
310
F5F5E2F5F5F5F5F5F5F5F5F5F5F5F5F5F5F5F5E2F5F5F5F5E2E2F5F5F5F5E2F5F5F5F5F5F5F5F5F5F5F5F5F5F5F5F5E2F5F5F5F5F5F5F5F5F5F5F5F5F5F5F5F5F5F5F5F5F5F5F5F5F5F5F5F5F5F5F5F5F5F5F5F5F5F5F5F5F5F5F5F5F5F5F5F5F5F5F5F5F5F5F5F5F5F5F5F5F5F5F5F5F5F5F5F5F5F5F5F5F5F5F5F5F5F5F5
310
F5F5F5F5F5F5F5F5F5F5F5F5F5F5F5F5F5F5F5F5F5F5F5F5F5F5F5F5F5F5F5F5F5F5F5F5F5F5F5F5F5F5F5F5F5F5F5F5F5F5F5F5F5F5F5E2F5F5F5F5F5F5F5F5F5F5F5F5F5F5F5F5E2F5F5F5F5E2E2F5F5F5F5E2F5F5F5F5F5F5F5F5F5F5F5F5F5F5F5F5E2F5F5F5F5F5F5F5F5F5F5F5F5F5F5F5F5F5F5F5F5F5F5F5F5F5F5
310
F5F5F5F5F5F5F5F5F5F5F5F5F5F5F5F5F5F5F5F5F5F5F5F5F5F5F5F5F5F5F5F5F5F5F5F5F5F5F5F5F5F5F5F5F5F5F5F5F5F5F5F5F5F5F5F5F5F5F5F5F5F5F5F5F5F5F5F5F5F5F5F5F5F5F5F5F5F5F5F5F5F5F5F5F5F5F5F5F5F5F5F5F5F5F5F5F5F5F5F5F5F5F5F5F5F5F5F5E2F5F5F5F5F5F5F5F5F5F5F5F5F5F5F5F5E2F5
310
F5F5F5E2E2F5F5F5F5E2F5F5F5F5F5F5F5F5F5F5F5F5F5F5F5F5E2F5F5F5F5F5F5F5F5F5F5F5F5F5F5F5F5F5F5F5F5F5F5F5F5F5F5F5F5F5F5F5F5F5F5F5F5F5F5F5F5F5F5F5F5F5F5F5F5F5F5F5F5F5F5F5F5F5F5F5F5F5F5F5F5F5F5F5F5F5F5F5F5F5F5F5F5F5F5F5F5F5F5F5F5F5F5F5F5F5F5F5F5F5F5F5F5F5F5F5F5
310
F5F5F5F5F5F5F5F5F5F5F5F5F5F5F5F5F5F5F5F5F5F5F5F5F5F5F5F5F5F5F5F5F5F5E2F5F5F5F5F5F5F5F5F5F5F5F5F5F5F5F5E2F5F5F5F5E2E2F5F5F5F5E2F5F5F5F5F5F5F5F5F5F5F5F5F5F5F5F5E2F5F5F5F5F5F5F5F5F5F5F5F5F5F5F5F5F5F5F5F5F5F5F5F5F5F5F5F5F5F5F5F5F5F5F5F5F5F5F5F5F5F5F5F5F5F5F5
310
F5F5F5F5F5F5F5F5F5F5F5F5F5F5F5F5F5F5F5F5F5F5F5F5F5F5F5F5F5F5F5F5F5F5F5F5F5F5F5F5F5F5F5F5F5F5F5F5F5F5F5F5F5F5F5F5F5F5F5F5F5F5F5F5F5F5F5F5F5F5F5F5F5F5F5F5F5F5F5F5F5F5F5F5F5F5F5E2F5F5F5F5F5F5F5F5F5F5F5F5F5F5F5F5E2F5F5F5F5E2E2F5F5F5F5E2F5F5F5F5F5F5F5F5F5F5F5
310
F5F5F5F5F5E2F5F5F5F5F5F5F5F5F5F5F5F5F5F5F5F5F5F5F5F5F5F5F5F5F5F5F5F5F5F5F5F5F5F5F5F5F5F5F5F5F5F5F5F5F5F5F5F5F5F5F5F5F5F5F5F5F5F5F5F5F5F5F5F5F5F5F5F5F5F5F5F5F5F5F5F5F5F5F5F5F5F5F5F5F5F5F5F5F5F5F5F5F5F5F5F5F5F5F5F5F5F5F5F5F5F5F5F5F5F5F5F5F5F5F5F5F5F5F5F5F5
310
F5F5F5F5F5F5F5F5F5F5F5F5F5E2F5F5F5F5F5F5F5F5F5F5F5F5F5F5F5F5E2F5F5F5F5E2E2F5F5F5F5E2F5F5F5F5F5F5F5F5F5F5F5F5F5F5F5F5E2F5F5F5F5F5F5F5F5F5F5F5F5F5F5F5F5F5F5F5F5F5F5F5F5F5F5F5F5F5F5F5F5F5F5F5F5F5F5F5F5F5F5F5F5F5F5F5F5F5F5F5F5F5F5F5F5F5F5F5F5F5F5F5F5F5F5F5F5
310
F5F5F5F5F5F5F5F5F5F5F5F5F5F5F5F5F5F5F5F5F5F5F5F5F5F5F5F5F5F5F5F5F5F5F5F5F5F5F5F5F5F5F5F5F5F5F5F5F5F5F5F5F5F5F5F5F5F5F5F5F5F5F5F5F5F5E2F5F5F5F5F5F5F5F5F5F5F5F5F5F5F5F5E2F5F5F5F5E2E2F5F5F5F5E2F5F5F5F5F5F5F5F5F5F5F5F5F5F5F5F5E2F5F5F5F5F5F5F5F5F5F5F5F5F5F5F5
310
F5F5F5F5F5F5F5F5F5F5F5F5F5F5F5F5F5F5F5F5F5F5F5F5F5F5F5F5F5F5F5F5F5F5F5F5F5F5F5F5F5F5F5F5F5F5F5F5F5F5F5F5F5F5F5F5F5F5F5F5F5F5F5F5F5F5F5F5F5F5F5F5F5F5F5F5F5F5F5F5F5F5F5F5F5F5F5F5F5F5F5F5F5F5F5F5F5F5F5F5F5F5F5F5F5F5F5F5F5F5F5F5F5F5F5F5F5F5F5E2F5F5F5F5F5F5F5
310
F5F5F5F5F5F5F5F5F5E2F5F5F5F5E2E2F5F5F5F5E2F5F5F5F5F5F5F5F5F5F5F5F5F5F5F5F5E2F5F5F5F5F5F5F5F5F5F5F5F5F5F5F5F5F5F5F5F5F5F5F5F5F5F5F5F5F5F5F5F5F5F5F5F5F5F5F5F5F5F5F5F5F5F5F5F5F5F5F5F5F5F5F5F5F5F5F5F5F5F5F5F5F5F5F5F5F5F5F5F5F5F5F5F5F5F5F5F5F5F5F5F5F5F5F5F5F5
310
F5F5F5F5F5F5F5F5F5F5F5F5F5F5F5F5F5F5F5F5F5F5F5F5F5F5F5F5F5F5F5F5F5F5F5F5F5F5F5F5F5F5F5F5F5E2F5F5F5F5F5F5F5F5F5F5F5F5F5F5F5F5E2F5F5F5F5E2E2F5F5F5F5E2F5F5F5F5F5F5F5F5F5F5F5F5F5F5F5F5E2F5F5F5F5F5F5F5F5F5F5F5F5F5F5F5F5F5F5F5F5F5F5F5F5F5F5F5F5F5F5F5F5F5F5F5F5
310
F5F5F5F5F5F5F5F5F5F5F5F5F5F5F5F5F5F5F5F5F5F5F5F5F5F5F5F5F5F5F5F5F5F5F5F5F5F5F5F5F5F5F5F5F5F5F5F5F5F5F5F5F5F5F5F5F5F5F5F5F5F5F5F5F5F5F5F5F5F5F5F5F5F5F5F5F5F5F5F5F5F5F5F5F5F5F5F5F5F5F5F5F5F5F5F5F5F5E2F5F5F5F5F5F5F5F5F5F5F5F5F5F5F5F5E2F5F5F5F5E2E2F5F5F5F5E2
310
F5F5F5F5F5F5F5F5F5F5F5F5F5F5F5F5E2F5F5F5F5F5F5F5F5F5F5F5F5F5F5F5F5F5F5F5F5F5F5F5F5F5F5F5F5F5F5F5F5F5F5F5F5F5F5F5F5F5F5F5F5F5F5F5F5F5F5F5F5F5F5F5F5F5F5F5F5F5F5F5F5F5F5F5F5F5F5F5F5F5F5F5F5F5F5F5F5F5F5F5F5F5F5F5F5F5F5F5F5F5F5F5F5F5F5F5F5F5F5F5F5F5F5F5F5F5F5
310
F5F5F5F5F5F5F5F5F5F5F5F5F5F5F5F5F5F5F5F5F5F5F5F5E2F5F5F5F5F5F5F5F5F5F5F5F5F5F5F5F5E2F5F5F5F5E2E2F5F5F5F5E2F5F5F5F5F5F5F5F5F5F5F5F5F5F5F5F5E2F5F5F5F5F5F5F5F5F5F5F5F5F5F5F5F5F5F5F5F5F5F5F5F5F5F5F5F5F5F5F5F5F5F5F5F5F5F5F5F5F5F5F5F5F5F5F5F5F5F5F5F5F5F5F5F5F5
310
F5F5F5F5F5F5F5F5F5F5F5F5F5F5F5F5F5F5F5F5F5F5F5F5F5F5F5F5F5F5F5F5F5F5F5F5F5F5F5F5F5F5F5F5F5F5F5F5F5F5F5F5F5F5F5F5F5F5F5F5F5F5F5F5F5F5F5F5F5F5F5F5F5F5F5F5F5E2F5F5F5F5F5F5F5F5F5F5F5F5F5F5F5F5E2F5F5F5F5E2E2F5F5F5F5F5F5F5F5F5F5F5F5F5F5F5F5F5F5F5F5F5E2F5F5F5F5
310
F5F5F5F5F5F5F5F5F5F5F5F5F5F5F5F5F5F5F5F5F5F5F5F5F5F5F5F5F5F5F5F5F5F5F5F5F5F5F5F5F5F5F5F5F5F5F5F5F5F5F5F5F5F5F5F5F5F5F5F5F5F5F5F5F5F5F5F5F5F5F5F5F5F5F5F5F5F5F5F5F5F5F5F5F5F5F5F5F5F5F5F5F5F5F5F5F5F5F5F5F5F5F5F5F5F5F5F5F5F5F5F5F5F5F5F5F5F5F5F5F5F5F5F5F5F5F5
310
F5F5F5E2F5F5F5F5F5F5F5F5F5F5F5F5F5F5F5F5F5F5F5F5F5E2E2F5F5F5F5F5F5F5F5F5F5F5F5F5F5F5F5F5F5F5F5F5E2F5F5F5F5F5F5F5F5F5F5F5F5F5F5F5F5F5F5F5F5F5F5F5F5F5F5F5F5F5F5F5F5F5F5F5F5F5F5F5F5F5F5F5F5F5F5F5F5F5F5F5F5F5F5F5F5F5F5F5F5F5F5F5F5F5F5F5F5F5F5F5F5F5F5F5F5F5F5
310
F5F5F5F5F5F5F5F5F5F5F5F5F5F5F5F5F5F5F5F5F5F5F5F5F5F5F5F5F5F5F5F5F5F5F5F5F5F5F5F5F5F5F5F5F5F5F5F5F5F5F5F5F5F5F5F5E2F5F5F5F5F5F5F5F5F5F5F5F5F5F5F5F5F5F5F5F5F5E2E2F5F5F5F5F5F5F5F5F5F5F5F5F5F5F5F5F5F5F5F5F5E2F5F5F5F5F5F5F5F5F5F5F5F5F5F5F5F5F5F5F5F5F5F5F5F5F5
310
F5F5F5F5F5F5F5F5F5F5F5F5F5F5F5F5F5F5F5F5F5F5F5F5F5F5F5F5F5F5F5F5F5F5F5F5F5F5F5F5F5F5F5F5F5F5F5F5F5F5F5F5F5F5F5F5F5F5F5F5F5F5F5F5F5F5F5F5F5F5F5F5F5F5F5F5F5F5F5F5F5F5F5F5F5F5F5F5F5F5F5F5F5F5F5F5F5F5F5F5F5F5F5F5F5F5F5F5F5E2F5F5F5F5F5F5F5F5F5F5F5F5F5F5F5F5F5
310
F5F5F5F5E2E2F5F5F5F5F5F5F5F5F5F5F5F5F5F5F5F5F5F5F5F5F5E2F5F5F5F5F5F5F5F5F5F5F5F5F5F5F5F5F5F5F5F5F5F5F5F5F5F5F5F5F5F5F5F5F5F5F5F5F5F5F5F5F5F5F5F5F5F5F5F5F5F5F5F5F5F5F5F5F5F5F5F5F5F5F5F5F5F5F5F5F5F5F5F5F5F5F5F5F5F5F5F5F5F5F5F5F5F5F5F5F5F5F5F5F5F5F5F5F5F5F5
310
F5F5F5F5F5F5F5F5F5F5F5F5F5F5F5F5F5F5F5F5F5F5F5F5F5F5F5F5F5F5F5F5F5F5F5E2F5F5F5F5F5F5F5F5F5F5F5F5F5F5F5F5F5F5F5F5F5E2E2F5F5F5F5F5F5F5F5F5F5F5F5F5F5F5F5F5F5F5F5F5E2E2E2E2E2E2E2E2E2E2E2E2E2E2E2E2E2E2E2E2E2E2E2E2E2E2E2E2E2E2E2E2E2E2E2E2E2E2E2E2E2E2E2E2E2E2E2
310
E2E2E2E2E2E2E2E2E2E2E2E2E2E2E2E2E2E2E2E2E2E2E2E2E2E2E2E2E2E2E2E2E2E2E2E2E2E2E2E2E2E2E2E2E2E2E2E2E2E2E2E2E2E2E2E2E2E2E2E2E2E2E2E2E2E2E2E2E2E2E2E2E2E2E2E2E2E2E2E2E2E2E2E2E2E2E2E2E2F5F5F5F5F5F5F5F5F5F5F5F5F5F5F5F5F5F5F5F5F5E2E2F5F5F5F5F5F5F5F5F5F5F5F5F5F5F5
310
F5F5F5F5F5F5F5F5F5F5F5F5F5F5F5F5F5F5F5F5F5F5F5F5F5F5F5F5F5F5F5F5F5F5F5F5F5F5F5F5F5F5F5F5F5F5F5F5F5F5F5F5F5F5F5F5F5F5F5F5F5F5F5F5F5F5F5F5F5F5F5F5F5F5F5F5F5F5F5F5F5F5F5F5F5F5F5F5F5F5F5F5F5F5F5F5F5F5F5F5F5F5F5F5F5F5F5F5F5F5F5F5F5F5F5F5F5F5F5F5F5F5F5F5F5F5F5
310
F5F5F5F5F5F5F5F5F5F5F5F5F5F5F5F5F5F5F5F5F5F5F5F5F5F5F5F5F5F5F5F5F5F5F5F5E2E2F5F5F5F5F5F5F5F5F5F5F5F5F5F5F5F5F5F5F5F5F5F5F5F5F5F5F5F5F5F5F5F5F5F5F5F5F5F5F5F5F5F5F5F5F5F5F5F5F5F5F5F5F5F5F5F5F5F5F5F5F5F5F5F5F5F5F5F5F5F5F5F5F5F5F5F5F5F5F5F5F5F5F5F5F5F5F5F5F5
310
F5F5F5F5F5F5F5F5F5F5F5F5F5F5F5F5F5F5F5F5F5F5F5F5F5F5F5F5F5F5F5F5F5F5F5F5F5F5F5F5F5F5F5F5F5F5F5F5F5F5F5F5F5F5F5F5F5F5F5F5F5F5F5F5F5F5F5F5F5F5F5F5F5F5F5F5F5F5F5F5F5F5F5F5F5F5F5F5F5E2E2F5F5F5F5F5F5F5F5F5F5F5F5F5F5F5F5F5F5F5F5F5F5F5F5F5F5F5F5F5F5F5F5F5F5F5F5
310
F5F5F5F5F5F5F5F5F5F5F5F5F5F5F5F5F5F5F5F5F5F5F5F5F5F5F5F5F5F5F5F5F5F5F5F5F5F5F5F5F5F5F5F5F5F5F5F5F5F5F5F5F5F5F5F5F5F5F5F5F5F5F5F5F5F5F5F5F5F5F5F5F5F5F5F5F5F5F5F5F5F5F5F5F5F5F5F5F5F5F5F5F5F5F5F5F5F5F5F5F5F5F5F5F5F5F5F5F5F5F5F5F5F5F5F5F5F5F5F5F5F5F5F5F5F5F5
310
F5F5F5F5F5F5F5F5F5F5F5F5F5F5F5E2E2F5F5F5F5F5F5F5F5F5F5F5F5F5F5F5F5F5F5F5F5F5F5F5F5F5F5F5F5F5F5F5F5F5F5F5F5F5F5F5F5F5F5F5F5F5F5F5F5F5F5F5F5F5F5F5F5F5F5F5F5F5F5F5F5F5F5F5F5F5F5F5F5F5F5F5F5F5F5F5F5F5F5F5F5F5F5F5F5F5F5F5F5F5F5F5F5F5F5F5F5F5F5F5F5F5F5F5F5F5F5
310
F5F5F5F5F5F5F5F5F5F5F5F5F5F5F5F5F5F5F5F5F5F5F5F5F5F5F5F5F5F5F5F5F5F5F5F5F5F5F5F5F5F5F5F5F5F5F5F5F5F5F5F5F5F5F5F5F5F5F5F5F5F5F5F5F5F5F5F5E2E2F5F5F5F5E2F5F5F5F5F5F5F5F5F5F5F5F5F5F5F5F5F5F5F5F5F5F5F5F5F5F5F5F5F5F5F5F5F5F5F5F5F5F5F5F5F5F5F5F5F5F5F5F5F5F5F5F5
310
F5F5F5F5F5F5F5F5F5F5F5F5F5F5F5F5F5F5F5F5F5F5F5F5F5F5F5F5F5F5F5F5F5F5F5F5F5F5F5F5F5F5F5F5F5F5F5F5F5F5F5F5F5F5F5F5F5F5F5F5F5F5F5F5F5F5F5F5F5F5F5F5F5F5F5F5F5F5F5F5F5F5F5F5F5F5F5F5F5F5F5F5F5F5F5F5F5F5F5F5F5F5F5F5F5F5F5F5F5F5F5F5F5F5F5F5E2F5F5F5F5E2E2F5F5F5F5
310
E2F5F5F5F5F5F5F5F5F5F5F5F5F5F5F5F5F5F5F5F5F5F5F5F5F5F5F5F5F5F5F5F5F5F5F5F5F5F5F5F5F5F5F5F5F5F5F5F5F5F5F5F5F5F5F5F5F5F5F5F5F5F5F5F5F5F5F5F5F5F5F5F5F5F5F5F5F5F5F5F5F5F5F5F5F5F5F5F5F5F5F5F5F5F5F5F5F5F5F5F5F5F5F5F5F5F5F5F5F5F5F5F5F5F5F5F5F5F5F5F5F5F5F5F5F5F5
310
F5F5F5F5F5F5F5F5F5F5F5F5F5F5F5F5F5F5F5F5F5F5F5F5F5F5F5F5F5F5F5F5F5F5F5F5F5F5F5F5F5F5E2F5F5F5F5E2E2F5F5F5F5E2F5F5F5F5F5F5F5F5F5F5F5F5F5F5F5F5F5F5F5F5F5F5F5F5F5F5F5F5F5F5F5F5F5F5F5F5F5F5F5F5F5F5F5F5F5F5F5F5F5F5F5F5F5F5F5F5F5F5F5F5F5F5F5F5F5F5F5F5F5F5F5F5F5
310
F5F5F5F5F5F5F5F5F5F5F5F5F5F5F5F5F5F5F5F5F5F5F5F5F5F5F5F5F5F5F5F5F5F5F5F5F5F5F5F5F5F5F5F5F5F5F5F5F5F5F5F5F5F5F5F5F5F5F5F5F5F5F5F5F5F5F5F5F5F5F5F5F5F5F5F5F5F5F5F5F5F5F5F5F5F5F5F5F5F5F5F5F5F5F5E2F5F5F5F5E2E2F5F5F5F5E2F5F5F5F5F5F5F5F5F5F5F5F5F5F5F5F5F5F5F5F5
310
F5F5F5F5F5F5F5F5F5F5F5F5F5F5F5F5F5F5F5F5F5F5F5F5F5F5F5F5F5F5F5F5F5F5F5F5F5F5F5F5F5F5F5F5F5F5F5F5F5F5F5F5F5F5F5F5F5F5F5F5F5F5F5F5F5F5F5F5F5F5F5F5F5F5F5F5F5F5F5F5F5F5F5F5F5F5F5F5F5F5F5F5F5F5F5F5F5F5F5F5F5F5F5F5F5F5F5F5F5F5F5F5F5F5F5F5F5F5F5F5F5F5F5F5F5F5F5
310
F5F5F5F5F5F5F5F5F5F5F5F5F5F5F5F5F5F5F5F5F5E2F5F5F5F5E2E2F5F5F5F5E2F5F5F5F5F5F5F5F5F5F5F5F5F5F5F5F5F5F5F5F5F5F5F5F5F5F5F5F5F5F5F5F5F5F5F5F5F5F5F5F5F5F5F5F5F5F5F5F5F5F5F5F5F5F5F5F5F5F5F5F5F5F5F5F5F5F5F5F5F5F5F5F5F5F5F5F5F5F5F5F5F5F5F5F5F5F5F5F5F5F5F5F5F5F5
310
F5F5F5F5F5F5F5F5F5F5F5F5F5F5F5F5F5F5F5F5F5F5F5F5F5F5F5F5F5F5F5F5F5F5F5F5F5F5F5F5F5F5F5F5F5F5F5F5F5F5F5F5F5F5F5F5F5F5F5F5F5F5F5F5F5F5F5F5F5F5F5F5F5F5E2F5F5F5F5E2E2F5F5F5F5E2F5F5F5F5F5F5F5F5F5F5F5F5F5F5F5F5F5F5F5F5F5F5F5F5F5F5F5F5F5F5F5F5F5F5F5F5F5F5F5F5F5
310
F5F5F5F5F5F5F5F5F5F5F5F5F5F5F5F5F5F5F5F5F5F5F5F5F5F5F5F5F5F5F5F5F5F5F5F5F5F5F5F5F5F5F5F5F5F5F5F5F5F5F5F5F5F5F5F5F5F5F5F5F5F5F5F5F5F5F5F5F5F5F5F5F5F5F5F5F5F5F5F5F5F5F5F5F5F5F5F5F5F5F5F5F5F5F5F5F5F5F5F5F5F5F5F5F5F5F5F5F5F5F5F5F5F5F5F5F5F5F5F5F5F5F5F5F5F5F5
310
E2F5F5F5F5E2E2F5F5F5F5E2F5F5F5F5F5F5F5F5F5F5F5F5F5F5F5F5F5F5F5F5F5F5F5F5F5F5F5F5F5F5F5F5F5F5F5F5F5F5F5F5F5F5F5F5F5F5F5F5F5F5F5F5F5F5F5F5F5F5F5F5F5F5F5F5F5F5F5F5F5F5F5F5F5F5F5F5F5F5F5F5F5F5F5F5F5F5F5F5F5F5F5F5F5F5F5F5F5F5F5F5F5F5F5F5F5F5F5F5F5F5F5F5F5F5F5
310
F5F5F5F5F5F5F5F5F5F5F5F5F5F5F5F5F5F5F5F5F5F5F5F5F5F5F5F5F5F5F5F5F5F5F5F5F5F5F5F5F5F5F5F5F5F5F5F5F5F5F5F5F5E2F5F5F5F5E2E2F5F5F5F5E2F5F5F5F5F5F5F5F5F5F5F5F5F5F5F5F5F5F5F5F5F5F5F5F5F5F5F5F5F5F5F5F5F5F5F5F5F5F5F5F5F5F5F5F5F5F5F5F5F5F5F5F5F5F5F5F5F5F5F5F5F5F5
310
F5F5F5F5F5F5F5F5F5F5F5F5F5F5F5F5F5F5F5F5F5F5F5F5F5F5F5F5F5F5F5F5F5F5F5F5F5F5F5F5F5F5F5F5F5F5F5F5F5F5F5F5F5F5F5F5F5F5F5F5F5F5F5F5F5F5F5F5F5F5F5F5F5F5F5F5F5F5F5F5F5F5F5F5F5F5F5F5F5F5F5F5F5F5F5F5F5F5F5F5F5F5F5F5F5F5E2F5F5F5F5E2E2F5F5F5F5E2E2E2E2E2E2E2E2F5F5
310
F5F5F5F5F5F5F5E2E2E2E2E2E2E2E2E2E2E2E2E2E2E2F5F5F5F5F5F5F5F5F5E2E2E2E2E2E2E2E2E2E2E2E2E2E2E2E2F5F5F5F5F5F5F5F5E2E2E2E2E2E2E2E2E2E2E2E2E2E2E2E2F5F5F5F5F5F5F5F5E2E2E2E2E2E2E2E2E2E2E2E2E2E2E2E2F5F5F5F5F5F5F5F5E2E2E2E2E2E2E2E2E2E2E2E2E2E2E2E2F5F5F5F5F5F5F5F5
310
F5E2E2E2E2E2E2E2E2E2E2E2E2E2E2E2F5F5F5F5F5F5F5F5F5E2E2E2E2E2E2E2E2F5F5F5F5E2E2F5F5F5F5F5F5F5F5F5F5F5F5F5F5F5F5F5F5F5F5F5F5F5F5F5F5F5F5F5F5F5F5F5F5F5F5F5F5F5F5F5F5F5F5F5F5F5F5F5F5F5F5F5F5F5F5F5F5F5F5F5F5F5F5F5F5F5F5F5F5F5F5F5F5F5F5F5F5F5F5F5F5F5F5F5F5F5F5
310
F5F5F5F5F5F5F5F5F5F5F5F5F5F5F5F5F5F5F5F5F5F5F5F5F5F5F5F5F5F5F5F5F5F5F5F5F5F5F5F5F5F5F5F5F5F5F5F5F5F5F5F5F5F5F5F5F5F5F5F5F5F5F5F5F5F5F5F5F5F5F5F5F5F5F5F5F5F5F5F5F5F5F5F5F5F5F5F5F5F5E2E2F5F5F5F5F5F5F5F5F5F5F5F5F5F5F5F5F5F5F5F5F5F5F5F5F5F5F5F5F5F5F5F5F5F5F5
310
F5F5F5F5F5F5F5F5F5F5F5F5F5F5F5F5F5F5F5F5F5F5F5F5F5F5F5F5F5F5F5F5F5F5F5F5F5F5F5F5F5F5F5F5F5F5F5F5F5F5F5F5F5F5F5F5F5F5F5F5F5F5F5F5F5F5F5F5F5F5F5F5F5F5F5F5F5F5F5F5F5F5F5F5F5F5F5F5F5F5F5F5F5F5F5F5F5F5F5F5F5F5F5F5F5F5F5F5F5F5F5F5F5F5F5F5F5F5F5F5F5F5F5F5F5F5F5
310
F5F5F5F5F5F5F5F5F5F5F5F5F5F5F5F5E2E2F5F5F5F5F5F5F5F5F5F5F5F5F5F5F5F5F5F5F5F5F5F5F5F5F5F5F5F5F5F5F5F5F5F5F5F5F5F5F5F5F5F5F5F5F5F5F5F5F5F5F5F5F5F5F5F5F5F5F5F5F5F5F5F5F5F5F5F5F5F5F5F5F5F5F5F5F5F5F5F5F5F5F5F5F5F5F5F5F5F5F5F5F5F5F5F5F5F5F5F5F5F5F5F5F5F5F5F5F5
310
F5F5F5F5F5F5F5F5F5F5F5F5F5F5F5F5F5F5F5F5F5F5F5F5F5F5F5F5F5F5F5F5F5F5F5F5F5F5F5F5F5F5F5F5F5F5F5F5F5F5F5F5F5F5F5F5F5F5F5F5F5F5F5F5F5F5F5F5F5E2E2E2E2E2E2E2E2E2E2E2E2E2E2E2E2E2E2E2E2E2E2E2E2E2E2E2E2E2E2E2E2E2E2E2E2E2E2E2E2E2E2E2E2E2E2E2E2E2E2E2E2E2E2E2E2E2E2
310
E2E2E2E2E2E2E2E2E2E2E2E2E2E2E2E2E2E2E2E2E2E2E2E2E2E2E2E2E2E2E2E2E2E2E2E2E2E2E2E2E2E2E2E2E2E2E2E2E2E2E2E2E2E2E2E2E2E2E2E2E2E2E2E2E2E2E2E2E2E2E2E2E2E2E2E2E2E2E2E2E2E2E2E2E2E2E2E2E2E2E2E2E2E2E2E2E2E2E2E2E2E2E2E2E2E2E2E2E2E2E2E2E2E2E2E2E2E2E2E2E2E2E2EFEFEFEF
310
EFEFEFEFEFEFEFEFEFEFEFEFEFEFEFEFEFEFEFEFEFEFEFEFEFEFEFEFEFEFEFEFEFEFEFEFEFEFEFEFEFEFEFEFEFEFEFEFEFEFEFEFEFEFEFEFEFEFEFEFEFEFEFEFEFEFEFEFEFEFEFEFEFEFEFEFEFEFEFEFEFEFEFEFEFEFEFEFEFEFEFEFEFEFEFEFEFEFEFEFEFEFEFEFEFEFEFEFEFEFEFEFEFEFEFEFEFEFEFEFEFEFEFEFEFEFEF
310
EFEFEFEFEFEFEFEFEFEFEFEFEFEFEFEFEFEFEFEFEFEFEFEFEFEFEFEFEFEFEFEFEFEFEFEFEFEFEFEFEFEFEFEFEFEFEFEFEF
  0
XRECORD
  5
6060E
102
{ACAD_REACTORS
330
B5
102
}
330
B5
100
AcDbXrecord
280
     1
102
SHADEPLOT
 70
     0
102
SHADEPLOTRESLEVEL
 70
     2
102
SHADEPLOTCUSTOMDPI
 70
   300
  0
XRECORD
  5
B6
102
{ACAD_REACTORS
330
B5
102
}
330
B5
100
AcDbXrecord
280
     1
310
28000000B40000008B0000000100080000000000BC610000000000000000000000010000000000000000000000000000FFFFFF000000000000000000000000000000000000000000000000000000000000000000330000006600000099000000CC000000FF00000000330000333300006633000099330000CC330000FF3300
310
0000660000336600006666000099660000CC660000FF66000000990000339900006699000099990000CC990000FF99000000CC000033CC000066CC000099CC0000CCCC0000FFCC000000FF000033FF000066FF000099FF0000CCFF0000FFFF000000003300330033006600330099003300CC003300FF003300003333003333
310
33006633330099333300CC333300FF33330000663300336633006666330099663300CC663300FF66330000993300339933006699330099993300CC993300FF99330000CC330033CC330066CC330099CC3300CCCC3300FFCC330000FF330033FF330066FF330099FF3300CCFF3300FFFF330000006600330066006600660099
310
006600CC006600FF00660000336600333366006633660099336600CC336600FF33660000666600336666006666660099666600CC666600FF66660000996600339966006699660099996600CC996600FF99660000CC660033CC660066CC660099CC6600CCCC6600FFCC660000FF660033FF660066FF660099FF6600CCFF6600
310
FFFF660000009900330099006600990099009900CC009900FF00990000339900333399006633990099339900CC339900FF33990000669900336699006666990099669900CC669900FF66990000999900339999006699990099999900CC999900FF99990000CC990033CC990066CC990099CC9900CCCC9900FFCC990000FF99
310
0033FF990066FF990099FF9900CCFF9900FFFF99000000CC003300CC006600CC009900CC00CC00CC00FF00CC000033CC003333CC006633CC009933CC00CC33CC00FF33CC000066CC003366CC006666CC009966CC00CC66CC00FF66CC000099CC003399CC006699CC009999CC00CC99CC00FF99CC0000CCCC0033CCCC0066CC
310
CC0099CCCC00CCCCCC00FFCCCC0000FFCC0033FFCC0066FFCC0099FFCC00CCFFCC00FFFFCC000000FF003300FF006600FF009900FF00CC00FF00FF00FF000033FF003333FF006633FF009933FF00CC33FF00FF33FF000066FF003366FF006666FF009966FF00CC66FF00FF66FF000099FF003399FF006699FF009999FF00CC
310
99FF00FF99FF0000CCFF0033CCFF0066CCFF0099CCFF00CCCCFF00FFCCFF0000FFFF0033FFFF0066FFFF0099FFFF00CCFFFF00FFFFFF00000000000D0D0D001A1A1A00282828003535350043434300505050005D5D5D006B6B6B00787878008686860093939300A1A1A100AEAEAE00BBBBBB00C9C9C900D6D6D600E4E4E400
310
F1F1F100FFFFFF0000000000000000000000000000000000000000000000000000000000000000000000000000000000F5F5F5F5F5F5F5F5F5F5F5F5F5F5F5F5F5F5F5F5F5F5F5F5F5F5F5F5F5F5F5F5F5F5F5F5F5F5F5F5F5F5F5F5F5F5F5F5F5F5F5F5F5F5F5F5F5F5F5F5F5F5F5F5F5F5F5F5F5F5F5F5F5F5F5F5F5F5F5
310
F5F5F5F5F5F5F5F5F5F5F5F5F5F5F5F5F5F5F5F5F5F5F5F5F5F5F5F5F5F5F5F5F5F5F5F5F5F5F5F5F5F5F5F5F5F5F5F5F5F5F5F5F5F5F5F5F5F5F5F5F5F5F5F5F5F5F5F5F5F5F5F5F5F5F5F5F5F5F5F5F5F5F5F5F5F5F5F5F5F5F5F5F5F5F5F5F5F5F5F5F5F5E2E2E2E2E2E2E2E2E2E2E2E2E2E2E2E2E2E2E2E2E2E2E2E2E2
310
E2E2E2E2E2E2E2E2E2E2E2E2E2E2E2E2E2E2E2E2E2E2E2E2E2E2E2E2E2E2E2E2E2E2E2E2E2E2E2E2E2E2E2E2E2E2E2E2E2E2E2E2E2E2E2E2E2E2E2E2E2E2E2E2E2E2E2E2E2E2E2E2E2E2E2E2E2E2E2E2E2E2E2E2E2E2E2E2E2E2E2E2E2E2E2E2E2E2E2E2E2E2E2E2E2E2E2E2E2E2E2E2E2E2E2E2E2E2E2E2E2E2E2E2E2E2E2
310
E2E2E2E2E2E2E2E2E2E2E2E2E2E2E2E2E2E2E2E2E2E2E2E2E2E2F5F5E2E2E2E2E2E2E2E2E2E2E2E2E2E2E2E2E2E2E2E2E2E2E2E2E2E2E2E2E2E2E2E2E2E2E2E2E2E2E2E2E2E2E2E2E2E2E2E2E2E2E2E2E2E2E2E2E2E2E2E2E2E2E2E2E2E2E2E2E2E2E2E2E2E2E2E2E2E2E2E2E2E2E2E2E2E2E2E2E2E2E2E2E2E2E2E2E2E2E2
310
E2E2E2E2E2E2E2E2E2E2E2E2E2E2E2E2E2E2E2E2E2E2E2E2E2E2E2E2E2E2E2E2E2E2E2E2E2E2E2E2E2E2E2E2E2E2E2E2E2E2E2E2E2E2E2E2E2E2E2E2E2E2E2E2E2E2E2E2E2E2E2E2E2E2E2E2E2E2E2F5F5E2E2E2E2E2E2E2E2E2E2E2E2E2E2E2E2E2E2E2E2E2E2E2E2E2E2E2E2E2E2E2E2E2E2E2E2E2E2E2E2E2E2E2E2E2E2
310
E2E2E2E2E2E2E2E2E2E2E2E2E2E2E2E2E2E2E2E2E2E2E2E2E2E2E2E2E2E2E2E2E2E2E2E2E2E2E2E2E2E2E2E2E2E2E2E2E2E2E2E2E2E2E2E2E2E2E2E2E2E2E2E2E2E2E2E2E2E2E2E2E2E2E2E2E2E2E2E2E2E2E2E2E2E2E2E2E2E2E2E2E2E2E2E2E2E2E2E2E2E2E2E2E2E2E2E2E2E2E2E2E2E2E2E2E2E2E2E2E2E2E2E2E2E2E2
310
E2E2E2E2E2F5F5E2E2E2E2E2E2E2E2E2E2E2E2E2E2E2E2E2E2E2E2E2E2E2E2E2E2E2E2E2E2E2E2E2E2E2E2E2E2E2E2E2E2E2E2E2E2E2E2E2E2E2E2E2E2E2E2E2E2E2E2E2E2E2E2E2E2E2E2E2E2E2E2E2E2E2E2E2E2E2E2E2E2E2E2E2E2E2E2E2E2E2E2E2E2E2E2E2E2E2E2E2E2E2E2E2E2E2E2E2E2E2E2E2E2E2E2E2E2E2E2
310
E2E2E2E2E2E2E2E2E2E2E2E2E2E2E2E2E2E2E2E2E2E2E2E2E2E2E2E2E2E2E2E2E2E2E2E2E2E2E2E2E2E2E2E2E2E2E2E2E2E2E2E2E2E2E2E2E2E2F5F5E2E2E2F5F5F5F5F5F5F5F5E2E2E2E2E2E2E2E2E2F5F5F5F5F5F5F5F5F5F5F5F5F5F5F5F5E2E2E2E2E2E2E2E2E2F5F5F5F5F5F5F5F5F5F5F5F5F5F5F5E2E2E2E2E2E2E2
310
E2E2F5F5F5F5F5F5F5F5F5F5F5F5F5F5F5F5E2E2E2E2E2E2E2E2F5F5F5F5F5F5F5F5F5F5F5F5F5F5F5F5E2E2E2E2E2E2E2E2E2F5F5F5F5F5F5F5F5F5F5F5F5F5F5F5E2E2E2E2E2E2E2E2E2F5F5F5F5F5F5F5F5F5F5F5F5F5F5F5F5E2E2E2E2E2E2E2E2E2F5F5F5F5F5F5F5F5E2E2E2F5F5E2E2E2F5E2E2E2E2E2E2E2E2E2E2
310
E2E2E2E2E2E2E2E2E2E2E2E2E2E2E2E2E2E2E2E2E2E2E2E2E2E2E2E2E2E2E2E2E2E2E2E2E2E2E2E2E2E2E2E2E2E2E2E2E2E2E2E2E2E2E2E2E2E2E2E2E2E2E2E2E2E2E2E2E2E2E2E2E2E2E2E2E2E2E2E2E2E2E2E2E2E2E2E2E2E2E2E2E2E2E2E2E2E2E2E2E2E2E2E2E2E2E2E2E2E2E2E2E2E2E2E2E2E2E2E2E2E2E2E2E2E2E2
310
E2E2E2E2E2E2E2E2E2E2E2E2E2E2E2E2E2E2E2E2E2E2E2E2E2E2E2E2E2E2E2E2E2F5E2E2E2F5F5E2E2E2F5E2E2E2E2E2E2E2E2E2E2E2E2E2E2E2E2E2E2E2E2E2E2E2E2E2E2E2E2E2E2E2E2E2E2E2E2E2E2E2E2E2E2E2E2E2E2E2E2E2E2E2E2E2E2E2E2E2E2E2E2E2E2E2E2E2E2E2E2E2E2E2E2E2E2E2E2E2E2E2E2E2E2E2E2
310
E2E2E2E2E2E2E2E2E2E2E2E2E2E2E2E2E2E2E2E2E2E2E2E2E2E2E2E2E2E2E2E2E2E2E2E2E2E2E2E2E2E2E2E2E2E2E2E2E2E2E2E2E2E2E2E2E2E2E2E2E2E2E2E2E2E2E2E2E2E2E2E2E2E2E2E2E2E2E2E2E2E2E2E2E2E2F5E2E2E2F5F5E2E2E2F5E2E2E2E2E2E2E2E2E2E2E2E2E2E2E2E2E2E2E2E2E2E2E2E2E2E2E2E2E2E2E2
310
E2E2E2E2E2E2E2E2E2E2E2E2E2E2E2E2E2E2E2E2E2E2E2E2E2E2E2E2E2E2E2E2E2E2E2E2E2E2E2E2E2E2E2E2E2E2E2E2E2E2E2E2E2E2E2E2E2E2E2E2E2E2E2E2E2E2E2E2E2E2E2E2E2E2E2E2E2E2E2E2E2E2E2E2E2E2E2E2E2E2E2E2E2E2E2E2E2E2E2E2E2E2E2E2E2E2E2E2E2E2E2E2E2E2E2E2E2E2E2E2E2E2E2E2E2E2E2
310
E2E2E2E2E2E2E2E2E2E2E2E2F5E2E2E2F5F5E2E2E2F5E2E2E2E2E2E2E2E2E2E2E2E2E2E2E2E2E2E2E2E2E2E2E2E2E2E2E2E2E2E2E2E2E2E2E2E2E2E2E2E2E2E2E2E2E2E2E2E2E2E2E2E2E2E2E2E2E2E2E2E2E2E2E2E2E2E2E2E2E2E2E2E2E2E2E2E2E2E2E2E2E2E2E2E2E2E2E2E2E2E2E2E2E2E2E2E2E2E2E2E2E2E2E2E2E2
310
E2E2E2E2E2E2E2E2E2E2E2E2E2E2E2E2E2E2E2E2E2E2E2E2E2E2E2E2E2E2E2E2E2E2E2E2E2E2E2E2E2E2E2E2E2E2E2E2E2E2E2E2E2E2E2E2E2E2E2E2E2E2E2E2E2F5E2E2E2F5F5E2E2E2F5E2E2E2E2E2E2E2E2E2E2E2E2E2E2E2E2E2E2E2E2E2E2E2E2E2E2E2E2E2E2E2E2E2E2E2E2E2E2E2E2E2E2E2E2E2E2E2E2E2E2E2E2
310
E2E2E2E2E2E2E2E2E2E2E2E2E2E2E2E2E2E2E2E2E2E2E2E2E2E2E2E2E2E2E2E2E2E2E2E2E2E2E2E2E2E2E2E2E2E2E2E2E2E2E2E2E2E2E2E2E2E2E2E2E2E2E2E2E2E2E2E2E2E2E2E2E2E2E2E2E2E2E2E2E2E2E2E2E2E2E2E2E2E2E2E2E2E2E2E2E2E2E2E2E2E2E2E2E2E2E2E2E2E2E2E2E2E2E2E2E2E2F5E2E2E2F5F5E2E2E2
310
F5E2E2E2E2E2E2E2E2E2E2E2E2E2E2E2E2E2E2E2E2E2E2E2E2E2E2E2E2E2E2E2E2E2E2E2E2E2E2E2E2E2E2E2E2E2E2E2E2E2E2E2E2E2E2E2E2E2E2E2E2E2E2E2E2E2E2E2E2E2E2E2E2E2E2E2E2E2E2E2E2E2E2E2E2E2E2E2E2E2E2E2E2E2E2E2E2E2E2E2E2E2E2E2E2E2E2E2E2E2E2E2E2E2E2E2E2E2E2E2E2E2E2E2E2E2E2
310
E2E2E2E2E2E2E2E2E2E2E2E2E2E2E2E2E2E2E2E2E2E2E2E2E2E2E2E2E2E2E2E2E2E2E2E2E2E2E2E2E2E2E2E2F5E2E2E2F5F5E2E2E2F5E2E2E2E2E2E2E2E2E2E2E2E2E2E2E2E2E2E2E2E2E2E2E2E2E2E2E2E2E2E2E2E2E2E2E2E2E2E2E2E2E2E2E2E2E2E2E2E2E2E2E2E2E2E2E2E2E2E2E2E2E2E2E2E2E2E2E2E2E2E2E2E2E2
310
E2E2E2E2E2E2E2E2E2E2E2E2E2E2E2E2E2E2E2E2E2E2E2E2E2E2E2E2E2E2E2E2E2E2E2E2E2E2E2E2E2E2E2E2E2E2E2E2E2E2E2E2E2E2E2E2E2E2E2E2E2E2E2E2E2E2E2E2E2E2E2E2E2E2E2E2E2E2E2E2E2E2E2E2E2E2E2E2E2E2E2E2E2E2E2E2E2F5E2E2E2F5F5E2E2E2F5E2E2E2E2E2E2E2E2E2E2E2E2E2E2E2E2E2E2E2E2
310
E2E2E2E2E2E2E2E2E2E2E2E2E2E2E2E2E2E2E2E2E2E2E2E2E2E2E2E2E2E2E2E2E2E2E2E2E2E2E2E2E2E2E2E2E2E2E2E2E2E2E2E2E2E2E2E2E2E2E2E2E2E2E2E2E2E2E2E2E2E2E2E2E2E2E2E2E2E2E2E2E2E2E2E2E2E2E2E2E2E2E2E2E2E2E2E2E2E2E2E2E2E2E2E2E2E2E2E2E2E2E2E2E2E2E2E2E2E2E2E2E2E2E2E2E2E2E2
310
E2E2E2E2E2E2E2E2E2E2E2E2E2E2E2E2E2E2E2E2E2E2E2F5E2E2E2F5F5E2E2E2E2E2E2E2E2E2E2E2E2E2E2E2E2E2E2E2E2E2E2E2E2E2E2E2E2E2E2E2E2E2E2E2E2E2E2E2E2E2E2E2E2E2E2E2E2E2E2E2E2E2E2E2E2E2E2E2E2E2E2E2E2E2E2E2E2E2E2E2E2E2E2E2E2E2E2E2E2E2E2E2E2E2E2E2E2E2E2E2E2E2E2E2E2E2E2
310
E2E2E2E2E2E2E2E2E2E2E2E2E2E2E2E2E2E2E2E2E2E2E2E2E2E2E2E2E2E2E2E2E2E2E2E2E2E2E2E2E2E2E2E2E2E2E2E2E2E2E2E2E2E2E2E2E2E2E2E2E2E2E2E2E2E2E2E2E2E2E2E2E2E2E2E2E2E2E2E2F5F5E2E2E2E2E2E2E2E2E2E2E2E2E2E2E2E2E2E2E2E2E2E2E2E2E2E2E2E2E2E2E2E2E2E2E2E2E2E2E2E2E2E2E2E2E2
310
E2E2E2E2E2E2E2E2E2E2E2E2E2E2E2E2E2E2E2E2E2E2E2E2E2E2E2E2E2E2E2E2E2E2E2E2E2E2E2E2E2E2E2E2E2E2E2E2E2E2E2E2E2E2E2E2E2E2E2E2E2E2E2E2E2E2E2E2E2E2E2E2E2E2E2E2E2E2E2E2E2E2E2E2E2E2E2E2E2E2E2E2E2E2E2E2E2E2E2E2E2E2E2E2E2E2E2E2E2E2E2E2E2E2E2E2E2E2E2E2E2E2E2E2E2E2E2
310
E2E2E2E2E2E2F5F5E2E2E2E2E2E2E2E2E2E2E2E2E2E2E2E2E2E2E2E2E2E2E2E2E2E2E2E2E2E2E2E2E2E2E2E2E2E2E2E2E2E2E2E2E2E2E2E2E2E2E2E2E2E2E2E2E2E2E2E2E2E2E2E2E2E2E2E2E2E2E2E2E2E2E2E2E2E2E2E2E2E2E2E2E2E2E2E2E2E2E2E2E2E2E2E2E2E2E2E2E2E2E2E2E2E2E2E2E2E2E2E2E2E2E2E2E2E2E2
310
E2E2E2E2E2E2E2E2E2E2E2E2E2E2E2E2E2E2E2E2E2E2E2E2E2E2E2E2E2E2E2E2E2E2E2E2E2E2E2E2E2E2E2E2E2E2E2E2E2E2E2E2E2E2E2E2E2E2E2F5F5E2E2E2E2E2E2E2E2E2E2E2E2E2E2E2E2E2E2E2E2E2E2E2E2E2E2E2E2E2E2E2E2E2E2E2E2E2E2E2E2E2E2E2E2E2E2E2E2E2E2E2E2E2E2E2E2E2E2E2E2E2E2E2E2E2E2
310
E2E2E2E2E2E2E2E2E2E2E2E2E2E2E2E2E2E2E2E2E2E2E2E2E2E2E2E2E2E2E2E2E2E2E2E2E2E2E2E2E2E2E2E2E2E2E2E2E2E2E2E2E2E2E2E2E2E2E2E2E2E2E2E2E2E2E2E2E2E2E2E2E2E2E2E2E2E2E2E2E2E2E2E2E2E2E2E2E2E2E2E2E2E2E2E2E2E2E2E2E2E2E2E2E2E2E2E2E2E2E2E2F5F5E2E2E2E2E2E2E2E2E2E2E2E2E2
310
E2E2E2E2E2E2E2F5F5F5F5F5F5F5F5F5F5F5F5F5F5F5F5F5F5F5F5F5F5F5F5F5F5F5F5F5F5F5F5F5F5F5F5F5F5F5F5F5F5F5F5F5F5F5F5F5F5F5F5F5F5F5F5F5F5F5F5F5F5F5F5F5F5F5F5F5F5F5F5F5F5F5F5F5F5F5F5F5F5F5F5F5F5F5F5F5F5F5F5F5F5F5F5F5F5F5F5F5F5F5F5F5F5F5F5F5F5F5F5F5F5F5F5F5F5F5F5
310
F5F5F5F5F5F5F5F5F5F5F5F5F5F5F5F5F5F5E2E2E2E2E2E2E2E2E2E2E2E2E2E2E2E2E2E2E2E2F5F5E2E2E2E2E2E2E2E2E2E2E2E2E2E2E2E2E2E2E2E2F5E2E2E2E2E2E2E2E2E2E2E2E2E2E2E2E2E2E2E2E2E2E2E2E2E2E2E2E2E2E2E2E2E2E2E2E2E2E2E2E2E2E2E2E2E2E2E2E2E2E2E2E2E2E2E2E2E2E2E2E2E2E2E2E2E2E2
310
E2E2E2E2E2E2E2E2E2E2E2E2E2E2E2E2E2E2E2E2E2E2E2E2E2E2E2E2E2E2E2E2E2E2E2E2E2E2E2E2E2E2E2E2E2E2E2E2E2E2E2E2E2E2E2E2E2E2E2E2E2E2E2E2E2E2E2E2E2E2F5E2E2E2E2E2E2E2E2E2E2E2E2E2E2E2E2E2E2E2E2F5F5E2E2E2E2E2E2E2E2E2E2E2E2E2E2E2E2E2E2E2E2F5E2E2E2E2E2E2E2E2E2E2E2E2E2
310
E2E2E2E2E2E2E2E2E2E2E2E2E2E2E2E2E2E2E2E2E2E2E2E2E2E2E2E2E2E2E2E2E2E2E2E2E2E2E2E2E2E2E2E2E2E2E2E2E2E2E2E2E2E2E2E2E2E2E2E2E2E2E2E2E2E2E2E2E2E2E2E2E2E2E2E2E2E2E2E2E2E2E2E2E2E2E2E2E2E2E2E2E2E2E2E2E2E2E2E2E2E2E2E2E2E2E2E2E2E2E2E2E2E2E2E2E2E2E2E2E2E2E2F5E2E2E2
310
E2E2E2E2E2E2E2E2E2E2E2E2E2E2E2E2E2F5F5E2E2E2E2E2E2E2E2E2E2E2E2E2E2E2E2E2E2E2E2F5E2E2E2E2E2E2E2E2E2E2E2E2E2E2E2E2E2E2E2E2E2E2E2E2E2E2E2E2E2E2E2E2E2E2E2E2E2E2E2E2E2E2E2E2E2E2E2E2E2E2E2E2E2E2E2E2E2E2E2E2E2E2E2E2E2E2E2E2E2E2E2E2E2E2E2E2E2E2E2E2E2E2E2E2E2E2E2
310
E2E2E2E2E2E2E2E2E2E2E2E2E2E2E2E2E2E2E2E2E2E2E2E2E2E2E2E2E2E2E2E2E2E2E2E2E2E2E2E2E2E2E2E2E2E2E2E2E2F5E2E2E2E2E2E2E2E2E2E2E2E2E2E2E2E2E2E2E2E2F5F5E2E2E2E2E2E2E2E2E2E2E2E2E2E2E2E2E2E2E2E2F5E2E2E2E2E2E2E2E2E2E2E2E2E2E2E2E2E2E2E2E2E2E2E2E2E2E2E2E2E2E2E2E2E2E2
310
E2E2E2E2E2E2E2E2E2E2E2E2E2E2E2E2E2E2E2E2E2E2E2E2E2E2E2E2E2E2E2E2E2E2E2E2E2E2E2E2E2E2E2E2E2E2E2E2E2E2E2E2E2E2E2E2E2E2E2E2E2E2E2E2E2E2E2E2E2E2E2E2E2E2E2E2E2E2E2E2E2E2E2E2E2E2E2E2E2E2E2E2E2E2E2E2E2E2E2E2E2E2F5E2E2E2E2E2E2E2E2E2E2E2E2E2E2E2E2E2E2E2E2F5F5E2E2
310
E2F5E2E2E2E2E2E2E2E2E2E2E2E2E2E2E2E2F5E2E2E2E2E2E2E2E2E2E2E2E2E2E2E2E2E2E2E2E2E2E2E2E2E2E2E2E2E2E2E2E2E2E2E2E2E2E2E2E2E2E2E2E2E2E2E2E2E2E2E2E2E2E2E2E2E2E2E2E2E2E2E2E2E2E2E2E2E2E2E2E2E2E2E2E2E2E2E2E2E2E2E2E2E2E2E2E2E2E2E2E2E2E2E2E2E2E2E2E2E2E2E2E2E2E2E2E2
310
E2E2E2E2E2E2E2E2E2E2E2E2E2E2E2E2E2E2E2E2E2E2E2E2E2E2E2E2F5E2E2E2E2E2E2E2E2E2E2E2E2E2E2E2E2F5E2E2E2F5F5E2E2E2F5E2E2E2E2E2E2E2E2E2E2E2E2E2E2E2E2F5E2E2E2E2E2E2E2E2E2E2E2E2E2E2E2E2E2E2E2E2E2E2E2E2E2E2E2E2E2E2E2E2E2E2E2E2E2E2E2E2E2E2E2E2E2E2E2E2E2E2E2E2E2E2E2
310
E2E2E2E2E2E2E2E2E2E2E2E2E2E2E2E2E2E2E2E2E2E2E2E2E2E2E2E2E2E2E2E2E2E2E2E2E2E2E2E2E2E2E2E2E2E2E2E2E2E2E2E2E2E2E2E2E2E2E2E2E2E2E2E2E2E2E2E2E2E2E2E2E2E2E2E2E2E2E2E2E2F5E2E2E2E2E2E2E2E2E2E2E2E2E2E2E2E2F5E2E2E2F5F5E2E2E2F5E2E2E2E2E2E2E2E2E2E2E2E2E2E2E2E2F5E2E2
310
E2E2E2E2E2E2E2E2E2E2E2E2E2E2E2E2E2E2E2E2E2E2E2E2E2E2E2E2E2E2E2E2E2E2E2E2E2E2E2E2E2E2E2E2E2E2E2E2E2E2E2E2E2E2E2E2E2E2E2E2E2E2E2E2E2E2E2E2E2E2E2E2E2E2E2E2E2E2E2E2E2E2E2E2E2E2E2E2E2E2E2E2E2E2E2E2E2E2E2E2E2E2E2E2E2E2E2E2E2E2E2E2E2E2E2E2E2E2E2E2E2E2E2E2E2E2E2
310
E2E2E2E2E2E2E2F5E2E2E2E2E2E2E2E2E2E2E2E2E2E2E2E2F5E2E2E2F5F5E2E2E2F5E2E2E2E2E2E2E2E2E2E2E2E2E2E2E2E2F5E2E2E2E2E2E2E2E2E2E2E2E2E2E2E2E2E2E2E2E2E2E2E2E2E2E2E2E2E2E2E2E2E2E2E2E2E2E2E2E2E2E2E2E2E2E2E2E2E2E2E2E2E2E2E2E2E2E2E2E2E2E2E2E2E2E2E2E2E2E2E2E2E2E2E2E2
310
E2E2E2E2E2E2E2E2E2E2E2E2E2E2E2E2E2E2E2E2E2E2E2E2E2E2E2E2E2E2E2E2E2E2E2E2E2E2E2E2E2E2E2E2E2E2E2E2E2E2E2E2E2E2E2E2E2E2E2E2F5E2E2E2E2E2E2E2E2E2E2E2E2E2E2E2E2F5E2E2E2F5F5E2E2E2F5E2E2E2E2E2E2E2E2E2E2E2E2E2E2E2E2F5E2E2E2E2E2E2E2E2E2E2E2E2E2E2E2E2E2E2E2E2E2E2E2
310
E2E2E2E2E2E2E2E2E2E2E2E2E2E2E2E2E2E2E2E2E2E2E2E2E2E2E2E2E2E2E2E2E2E2E2E2E2E2E2E2E2E2E2E2E2E2E2E2E2E2E2E2E2E2E2E2E2E2E2E2E2E2E2E2E2E2E2E2E2E2E2E2E2E2E2E2E2E2E2E2E2E2E2E2E2E2E2E2E2E2E2E2E2E2E2E2E2E2E2E2E2E2E2E2E2E2E2E2E2E2E2E2E2F5E2E2E2E2E2E2E2E2E2E2E2E2E2
310
E2E2E2F5E2E2E2F5F5E2E2E2F5E2E2E2E2E2E2E2E2E2E2E2E2E2E2E2E2F5E2E2E2E2E2E2E2E2E2E2E2E2E2E2E2E2E2E2E2E2E2E2E2E2E2E2E2E2E2E2E2E2E2E2E2E2E2E2E2E2E2E2E2E2E2E2E2E2E2E2E2E2E2E2E2E2E2E2E2E2E2E2E2E2E2E2E2E2E2E2E2E2E2E2E2E2E2E2E2E2E2E2E2E2E2E2E2E2E2E2E2E2E2E2E2E2E2
310
E2E2E2E2E2E2E2E2E2E2E2E2E2E2E2E2E2E2E2E2E2E2E2E2E2E2E2E2E2E2E2E2E2E2E2E2E2E2E2F5E2E2E2E2E2E2E2E2E2E2E2E2E2E2E2E2F5E2E2E2F5F5E2E2E2F5E2E2E2E2E2E2E2E2E2E2E2E2E2E2E2E2F5E2E2E2E2E2E2E2E2E2E2E2E2E2E2E2E2E2E2E2E2E2E2E2E2E2E2E2E2E2E2E2E2E2E2E2E2E2E2E2E2E2E2E2E2
310
E2E2E2E2E2E2E2E2E2E2E2E2E2E2E2E2E2E2E2E2E2E2E2E2E2E2E2E2E2E2E2E2E2E2E2E2E2E2E2E2E2E2E2E2E2E2E2E2E2E2E2E2E2E2E2E2E2E2E2E2E2E2E2E2E2E2E2E2E2E2E2E2E2E2E2E2E2E2E2E2E2E2E2E2E2E2E2E2E2E2E2E2F5E2E2E2E2E2E2E2E2E2E2E2E2E2E2E2E2F5E2E2E2F5F5E2E2E2F5E2E2E2E2E2E2E2E2
310
E2E2E2E2E2E2E2E2F5E2E2E2E2E2E2E2E2E2E2E2E2E2E2E2E2E2E2E2E2E2E2E2E2E2E2E2E2E2E2E2E2E2E2E2E2E2E2E2E2E2E2E2E2E2E2E2E2E2E2E2E2E2E2E2E2E2E2E2E2E2E2E2E2E2E2E2E2E2E2E2E2E2E2E2E2E2E2E2E2E2E2E2E2E2E2E2E2E2E2E2E2E2E2E2E2E2E2E2E2E2E2E2E2E2E2E2E2E2E2E2E2E2E2E2E2E2E2
310
E2E2E2E2E2E2E2E2E2E2E2E2E2E2E2E2E2E2F5E2E2E2E2E2E2E2E2E2E2E2E2E2E2E2E2F5E2E2E2F5F5E2E2E2F5E2E2E2E2E2E2E2E2E2E2E2E2E2E2E2E2F5E2E2E2E2E2E2E2E2E2E2E2E2E2E2E2E2E2E2E2E2E2E2E2E2E2E2E2E2E2E2E2E2E2E2E2E2E2E2E2E2E2E2E2E2E2E2E2E2E2E2E2E2E2E2E2E2E2E2E2E2E2E2E2E2E2
310
E2E2E2E2E2E2E2E2E2E2E2E2E2E2E2E2E2E2E2E2E2E2E2E2E2E2E2E2E2E2E2E2E2E2E2E2E2E2E2E2E2E2E2E2E2E2E2E2E2E2E2E2E2E2E2E2E2E2E2E2E2E2E2E2E2E2E2E2E2E2E2F5E2E2E2E2E2E2E2E2E2E2E2E2E2E2E2E2F5E2E2E2F5F5E2E2E2F5E2E2E2E2E2E2E2E2E2E2E2E2E2E2E2E2F5E2E2E2E2E2E2E2E2E2E2E2E2
310
E2E2E2E2E2E2E2E2E2E2E2E2E2E2E2E2E2E2E2E2E2E2E2E2E2E2E2E2E2E2E2E2E2E2E2E2E2E2E2E2E2E2E2E2E2E2E2E2E2E2E2E2E2E2E2E2E2E2E2E2E2E2E2E2E2E2E2E2E2E2E2E2E2E2E2E2E2E2E2E2E2E2E2E2E2E2E2E2E2E2E2E2E2E2E2E2E2E2E2E2E2E2E2E2E2E2E2E2E2E2E2E2E2E2E2E2E2E2E2E2E2E2E2E2F5E2E2
310
E2E2E2E2E2E2E2E2E2E2E2E2E2E2F5E2E2E2F5F5E2E2E2F5E2E2E2E2E2E2E2E2E2E2E2E2E2E2E2E2F5E2E2E2E2E2E2E2E2E2E2E2E2E2E2E2E2E2E2E2E2E2E2E2E2E2E2E2E2E2E2E2E2E2E2E2E2E2E2E2E2E2E2E2E2E2E2E2E2E2E2E2E2E2E2E2E2E2E2E2E2E2E2E2E2E2E2E2E2E2E2E2E2E2E2E2E2E2E2E2E2E2E2E2E2E2E2
310
E2E2E2E2E2E2E2E2E2E2E2E2E2E2E2E2E2E2E2E2E2E2E2E2E2E2E2E2E2E2E2E2E2E2E2E2E2E2E2E2E2E2E2E2E2E2E2E2E2E2F5E2E2E2E2E2E2E2E2E2E2E2E2E2E2E2E2F5E2E2E2F5F5E2E2E2F5E2E2E2E2E2E2E2E2E2E2E2E2E2E2E2E2F5E2E2E2E2E2E2E2E2E2E2E2E2E2E2E2E2E2E2E2E2E2E2E2E2E2E2E2E2E2E2E2E2E2
310
E2E2E2E2E2E2E2E2E2E2E2E2E2E2E2E2E2E2E2E2E2E2E2E2E2E2E2E2E2E2E2E2E2E2E2E2E2E2E2E2E2E2E2E2E2E2E2E2E2E2E2E2E2E2E2E2E2E2E2E2E2E2E2E2E2E2E2E2E2E2E2E2E2E2E2E2E2E2E2E2E2E2E2E2E2E2E2E2E2E2E2E2E2E2E2E2E2E2E2E2E2E2E2F5E2E2E2E2E2E2E2E2E2E2E2E2E2E2E2E2F5E2E2E2F5F5E2
310
E2E2F5E2E2E2E2E2E2E2E2E2E2E2E2E2E2E2E2F5E2E2E2E2E2E2E2E2E2E2E2E2E2E2E2E2E2E2E2E2E2E2E2E2E2E2E2E2E2E2E2E2E2E2E2E2E2E2E2E2E2E2E2E2E2E2E2E2E2E2E2E2E2E2E2E2E2E2E2E2E2E2E2E2E2E2E2E2E2E2E2E2E2E2E2E2E2E2E2E2E2E2E2E2E2E2E2E2E2E2E2E2E2E2E2E2E2E2E2E2E2E2E2E2E2E2E2
310
E2E2E2E2E2E2E2E2E2E2E2E2E2E2E2E2E2E2E2E2E2E2E2E2E2E2E2E2E2F5E2E2E2E2E2E2E2E2E2E2E2E2E2E2E2E2F5E2E2E2F5F5E2E2E2F5E2E2E2E2E2E2E2E2E2E2E2E2E2E2E2E2F5E2E2E2E2E2E2E2E2E2E2E2E2E2E2E2E2E2E2E2E2E2E2E2E2E2E2E2E2E2E2E2E2E2E2E2E2E2E2E2E2E2E2E2E2E2E2E2E2E2E2E2E2E2E2
310
E2E2E2E2E2E2E2E2E2E2E2E2E2E2E2E2E2E2E2E2E2E2E2E2E2E2E2E2E2E2E2E2E2E2E2E2E2E2E2E2E2E2E2E2E2E2E2E2E2E2E2E2E2E2E2E2E2E2E2E2E2E2E2E2E2E2E2E2E2E2E2E2E2E2E2E2E2E2E2E2E2E2F5E2E2E2E2E2E2E2E2E2E2E2E2E2E2E2E2F5E2E2E2F5F5E2E2E2F5E2E2E2E2E2E2E2E2E2E2E2E2E2E2E2E2F5E2
310
E2E2E2E2E2E2E2E2E2E2E2E2E2E2E2E2E2E2E2E2E2E2E2E2E2E2E2E2E2E2E2E2E2E2E2E2E2E2E2E2E2E2E2E2E2E2E2E2E2E2E2E2E2E2E2E2E2E2E2E2E2E2E2E2E2E2E2E2E2E2E2E2E2E2E2E2E2E2E2E2E2E2E2E2E2E2E2E2E2E2E2E2E2E2E2E2E2E2E2E2E2E2E2E2E2E2E2E2E2E2E2E2E2E2E2E2E2E2E2E2E2E2E2E2E2E2E2
310
E2E2E2E2E2E2E2E2F5E2E2E2E2E2E2E2E2E2E2E2E2E2E2E2E2F5E2E2E2F5F5E2E2E2F5E2E2E2E2E2E2E2E2E2E2E2E2E2E2E2E2F5E2E2E2E2E2E2E2E2E2E2E2E2E2E2E2E2E2E2E2E2E2E2E2E2E2E2E2E2E2E2E2E2E2E2E2E2E2E2E2E2E2E2E2E2E2E2E2E2E2E2E2E2E2E2E2E2E2E2E2E2E2E2E2E2E2E2E2E2E2E2E2E2E2E2E2
310
E2E2E2E2E2E2E2E2E2E2E2E2E2E2E2E2E2E2E2E2E2E2E2E2E2E2E2E2E2E2E2E2E2E2E2E2E2E2E2E2E2E2E2E2E2E2E2E2E2E2E2E2E2E2E2E2E2E2E2E2E2F5E2E2E2E2E2E2E2E2E2E2E2E2E2E2E2E2F5E2E2E2F5F5E2E2E2F5E2E2E2E2E2E2E2E2E2E2E2E2E2E2E2E2F5E2E2E2E2E2E2E2E2E2E2E2E2E2E2E2E2E2E2E2E2E2E2
310
E2E2E2E2E2E2E2E2E2E2E2E2E2E2E2E2E2E2E2E2E2E2E2E2E2E2E2E2E2E2E2E2E2E2E2E2E2E2E2E2E2E2E2E2E2E2E2E2E2E2E2E2E2E2E2E2E2E2E2E2E2E2E2E2E2E2E2E2E2E2E2E2E2E2E2E2E2E2E2E2E2E2E2E2E2E2E2E2E2E2E2E2E2E2E2E2E2E2E2E2E2E2E2E2E2E2E2E2E2E2E2E2E2E2F5E2E2E2E2E2E2E2E2E2E2E2E2
310
E2E2E2E2F5E2E2E2F5F5E2E2E2E2E2E2E2E2E2E2E2E2E2E2E2E2E2E2E2E2F5E2E2E2E2E2E2E2E2E2E2E2E2E2E2E2E2E2E2E2E2E2E2E2E2E2E2E2E2E2E2E2E2E2E2E2E2E2E2E2E2E2E2E2E2E2E2E2E2E2E2E2E2E2E2E2E2E2E2E2E2E2E2E2E2E2E2E2E2E2E2E2E2E2E2E2E2E2E2E2E2E2E2E2E2E2E2E2E2E2E2E2E2E2E2E2E2
310
E2E2E2E2E2E2E2E2E2E2E2E2E2E2E2E2E2E2E2E2E2E2E2E2E2E2E2E2E2E2E2E2E2E2E2E2E2E2E2E2F5E2E2E2E2E2E2E2E2E2E2E2E2E2E2E2E2E2E2E2E2F5F5E2E2E2E2E2E2E2E2E2E2E2E2E2E2E2E2E2E2E2E2F5E2E2E2E2E2E2E2E2E2E2E2E2E2E2E2E2E2E2E2E2E2E2E2E2E2E2E2E2E2E2E2E2E2E2E2E2E2E2E2E2E2E2E2
310
E2E2E2E2E2E2E2E2E2E2E2E2E2E2E2E2E2E2E2E2E2E2E2E2E2E2E2E2E2E2E2E2E2E2E2E2E2E2E2E2E2E2E2E2E2E2E2E2E2E2E2E2E2E2E2E2E2E2E2E2E2E2E2E2E2E2E2E2E2E2E2E2E2E2E2E2E2E2E2E2E2E2E2E2E2E2E2E2E2E2E2E2E2F5E2E2E2E2E2E2E2E2E2E2E2E2E2E2E2E2E2E2E2E2F5F5E2E2E2E2E2E2E2E2E2E2E2
310
E2E2E2E2E2E2E2E2E2F5E2E2E2E2E2E2E2E2E2E2E2E2E2E2E2E2E2E2E2E2E2E2E2E2E2E2E2E2E2E2E2E2E2E2E2E2E2E2E2E2E2E2E2E2E2E2E2E2E2E2E2E2E2E2E2E2E2E2E2E2E2E2E2E2E2E2E2E2E2E2E2E2E2E2E2E2E2E2E2E2E2E2E2E2E2E2E2E2E2E2E2E2E2E2E2E2E2E2E2E2E2E2E2E2E2E2E2E2E2E2E2E2E2E2E2E2E2
310
E2E2E2E2E2E2E2E2E2E2E2E2E2E2E2E2E2E2E2F5E2E2E2E2E2E2E2E2E2E2E2E2E2E2E2E2E2E2E2E2F5F5E2E2E2E2E2E2E2E2E2E2E2E2E2E2E2E2E2E2E2E2F5E2E2E2E2E2E2E2E2E2E2E2E2E2E2E2E2E2E2E2E2E2E2E2E2E2E2E2E2E2E2E2E2E2E2E2E2E2E2E2E2E2E2E2E2E2E2E2E2E2E2E2E2E2E2E2E2E2E2E2E2E2E2E2E2
310
E2E2E2E2E2E2E2E2E2E2E2E2E2E2E2E2E2E2E2E2E2E2E2E2E2E2E2E2E2E2E2E2E2E2E2E2E2E2E2E2E2E2E2E2E2E2E2E2E2E2E2E2E2E2E2E2E2E2E2E2E2E2E2E2E2E2E2E2E2E2E2E2F5E2E2E2E2E2E2E2E2E2E2E2E2E2E2E2E2E2E2E2E2F5F5E2E2E2E2E2E2E2E2E2E2E2E2E2E2E2E2E2E2E2E2F5E2E2E2E2E2E2E2E2E2E2E2
310
E2E2E2E2E2E2E2E2E2E2E2E2E2E2E2E2E2E2E2E2E2E2E2E2E2E2E2E2E2E2E2E2E2E2E2E2E2E2E2E2E2E2E2E2E2E2E2E2E2E2E2E2E2E2E2E2E2E2E2E2E2E2E2E2E2E2E2E2E2E2E2E2E2E2E2E2E2E2E2E2E2E2E2E2E2E2E2E2E2E2E2E2E2E2E2E2E2E2E2E2E2E2E2E2E2E2E2E2E2E2E2E2E2E2E2E2E2E2E2E2E2E2E2E2E2F5E2
310
E2E2E2E2E2E2E2E2E2E2E2E2E2E2E2E2E2E2E2F5F5E2E2E2E2E2E2E2E2E2E2E2E2E2E2E2E2E2E2E2E2F5E2E2E2E2E2E2E2E2E2E2E2E2E2E2E2E2E2E2E2E2E2E2E2E2E2E2E2E2E2E2E2E2E2E2E2E2E2E2E2E2E2E2E2E2E2E2E2E2E2E2E2E2E2E2E2E2E2E2E2E2E2E2E2E2E2E2E2E2E2E2E2E2E2E2E2E2E2E2E2E2E2E2E2E2E2
310
E2E2E2E2E2E2E2E2E2E2E2E2E2E2E2E2E2E2E2E2E2E2E2E2E2E2E2E2E2E2E2E2E2E2E2E2E2E2E2E2E2E2E2E2E2E2E2E2E2E2E2F5E2E2E2E2E2E2E2E2E2E2E2E2E2E2E2E2E2E2E2E2F5F5E2E2E2E2E2E2E2E2E2E2E2E2E2E2E2E2E2E2E2E2F5E2E2E2E2E2E2E2E2E2E2E2E2E2E2E2E2E2E2E2E2E2E2E2E2E2E2E2E2E2E2E2E2
310
E2E2E2E2E2E2E2E2E2E2E2E2E2E2E2E2E2E2E2E2E2E2E2E2E2E2E2E2E2E2E2E2E2E2E2E2E2E2E2E2E2E2E2E2E2E2E2E2E2E2E2E2E2E2E2E2E2E2E2E2E2E2E2E2E2E2E2E2E2E2E2E2E2E2E2E2E2E2E2E2E2E2E2E2E2E2E2E2E2E2E2E2E2E2E2E2E2E2E2E2E2E2E2E2F5E2E2E2E2E2E2E2E2E2E2E2E2E2E2E2E2E2E2E2E2F5F5
310
E2E2E2E2E2E2E2E2E2E2E2E2E2E2E2E2E2E2E2E2F5E2E2E2E2E2E2E2E2E2E2E2E2E2E2E2E2E2E2E2E2E2E2E2E2E2E2E2E2E2E2E2E2E2E2E2E2E2E2E2E2E2E2E2E2E2E2E2E2E2E2E2E2E2E2E2E2E2E2E2E2E2E2E2E2E2E2E2E2E2E2E2E2E2E2E2E2E2E2E2E2E2E2E2E2E2E2E2E2E2E2E2E2E2E2E2E2E2E2E2E2E2E2E2E2E2E2
310
E2E2E2E2E2E2E2E2E2E2E2E2E2E2E2E2E2E2E2E2E2E2E2E2E2E2E2E2E2E2F5E2E2E2E2E2E2E2E2E2E2E2E2E2E2E2E2E2E2E2E2F5F5E2E2E2E2E2E2E2E2E2E2E2E2E2E2E2E2E2E2E2E2F5E2E2E2E2E2E2E2E2E2E2E2E2E2E2E2E2E2E2E2E2E2E2E2E2E2E2E2E2E2E2E2E2E2E2E2E2E2E2E2E2E2E2E2E2E2E2E2E2E2E2E2E2E2
310
E2E2E2E2E2E2E2E2E2E2E2E2E2E2E2E2E2E2E2E2E2E2E2E2E2E2E2E2E2E2E2E2E2E2E2E2E2E2E2E2E2E2E2E2E2E2E2E2E2E2E2E2E2E2E2E2E2E2E2E2E2E2E2E2E2E2E2E2E2E2E2E2E2E2E2E2E2E2E2E2E2E2E2F5E2E2E2E2E2E2E2E2E2E2E2E2E2E2E2E2E2E2E2E2F5F5E2E2E2F5E2E2E2E2E2E2E2E2E2E2E2E2E2E2E2E2F5
310
E2E2E2E2E2E2E2E2E2E2E2E2E2E2E2E2E2E2E2E2E2E2E2E2E2E2E2E2E2E2E2E2E2E2E2E2E2E2E2E2E2E2E2E2E2E2E2E2E2E2E2E2E2E2E2E2E2E2E2E2E2E2E2E2E2E2E2E2E2E2E2E2E2E2E2E2E2E2E2E2E2E2E2E2E2E2E2E2E2E2E2E2E2E2E2E2E2E2E2E2E2E2E2E2E2E2E2E2E2E2E2E2E2E2E2E2E2E2E2E2E2E2E2E2E2E2E2
310
E2E2E2E2E2E2E2E2E2F5E2E2E2E2E2E2E2E2E2E2E2E2E2E2E2E2F5E2E2E2F5F5E2E2E2F5E2E2E2E2E2E2E2E2E2E2E2E2E2E2E2E2F5E2E2E2E2E2E2E2E2E2E2E2E2E2E2E2E2E2E2E2E2E2E2E2E2E2E2E2E2E2E2E2E2E2E2E2E2E2E2E2E2E2E2E2E2E2E2E2E2E2E2E2E2E2E2E2E2E2E2E2E2E2E2E2E2E2E2E2E2E2E2E2E2E2E2
310
E2E2E2E2E2E2E2E2E2E2E2E2E2E2E2E2E2E2E2E2E2E2E2E2E2E2E2E2E2E2E2E2E2E2E2E2E2E2E2E2E2E2E2E2E2E2E2E2E2E2E2E2E2E2E2E2E2E2E2E2E2E2F5E2E2E2E2E2E2E2E2E2E2E2E2E2E2E2E2F5E2E2E2F5F5E2E2E2F5E2E2E2E2E2E2E2E2E2E2E2E2E2E2E2E2F5E2E2E2E2E2E2E2E2E2E2E2E2E2E2E2E2E2E2E2E2E2
310
E2E2E2E2E2E2E2E2E2E2E2E2E2E2E2E2E2E2E2E2E2E2E2E2E2E2E2E2E2E2E2E2E2E2E2E2E2E2E2E2E2E2E2E2E2E2E2E2E2E2E2E2E2E2E2E2E2E2E2E2E2E2E2E2E2E2E2E2E2E2E2E2E2E2E2E2E2E2E2E2E2E2E2E2E2E2E2E2E2E2E2E2E2E2E2E2E2E2E2E2E2E2E2E2E2E2E2E2E2E2E2E2E2E2E2F5E2E2E2E2E2E2E2E2E2E2E2
310
E2E2E2E2E2F5E2E2E2F5F5E2E2E2F5E2E2E2E2E2E2E2E2E2E2E2E2E2E2E2E2F5E2E2E2E2E2E2E2E2E2E2E2E2E2E2E2E2E2E2E2E2E2E2E2E2E2E2E2E2E2E2E2E2E2E2E2E2E2E2E2E2E2E2E2E2E2E2E2E2E2E2E2E2E2E2E2E2E2E2E2E2E2E2E2E2E2E2E2E2E2E2E2E2E2E2E2E2E2E2E2E2E2E2E2E2E2E2E2E2E2E2E2E2E2E2E2
310
E2E2E2E2E2E2E2E2E2E2E2E2E2E2E2E2E2E2E2E2E2E2E2E2E2E2E2E2E2E2E2E2E2E2E2E2E2E2E2E2E2F5E2E2E2E2E2E2E2E2E2E2E2E2E2E2E2E2F5E2E2E2F5F5E2E2E2F5E2E2E2E2E2E2E2E2E2E2E2E2E2E2E2E2F5E2E2E2E2E2E2E2E2E2E2E2E2E2E2E2E2E2E2E2E2E2E2E2E2E2E2E2E2E2E2E2E2E2E2E2E2E2E2E2E2E2E2
310
E2E2E2E2E2E2E2E2E2E2E2E2E2E2E2E2E2E2E2E2E2E2E2E2E2E2E2E2E2E2E2E2E2E2E2E2E2E2E2E2E2E2E2E2E2E2E2E2E2E2E2E2E2E2E2E2E2E2E2E2E2E2E2E2E2E2E2E2E2E2E2E2E2E2E2E2E2E2E2E2E2E2E2E2E2E2E2E2E2E2E2E2E2E2F5E2E2E2E2E2E2E2E2E2E2E2E2E2E2E2E2F5E2E2E2F5F5E2E2E2F5E2E2E2E2E2E2
310
E2E2E2E2E2E2E2E2E2E2F5E2E2E2E2E2E2E2E2E2E2E2E2E2E2E2E2E2E2E2E2E2E2E2E2E2E2E2E2E2E2E2E2E2E2E2E2E2E2E2E2E2E2E2E2E2E2E2E2E2E2E2E2E2E2E2E2E2E2E2E2E2E2E2E2E2E2E2E2E2E2E2E2E2E2E2E2E2E2E2E2E2E2E2E2E2E2E2E2E2E2E2E2E2E2E2E2E2E2E2E2E2E2E2E2E2E2E2E2E2E2E2E2E2E2E2E2
310
E2E2E2E2E2E2E2E2E2E2E2E2E2E2E2E2E2E2E2E2F5E2E2E2E2E2E2E2E2E2E2E2E2E2E2E2E2F5E2E2E2F5F5E2E2E2F5E2E2E2E2E2E2E2E2E2E2E2E2E2E2E2E2F5E2E2E2E2E2E2E2E2E2E2E2E2E2E2E2E2E2E2E2E2E2E2E2E2E2E2E2E2E2E2E2E2E2E2E2E2E2E2E2E2E2E2E2E2E2E2E2E2E2E2E2E2E2E2E2E2E2E2E2E2E2E2E2
310
E2E2E2E2E2E2E2E2E2E2E2E2E2E2E2E2E2E2E2E2E2E2E2E2E2E2E2E2E2E2E2E2E2E2E2E2E2E2E2E2E2E2E2E2E2E2E2E2E2E2E2E2E2E2E2E2E2E2E2E2E2E2E2E2E2E2E2E2E2E2E2E2E2F5E2E2E2E2E2E2E2E2E2E2E2E2E2E2E2E2F5E2E2E2F5F5E2E2E2F5E2E2E2E2E2E2E2E2E2E2E2E2E2E2E2E2F5E2E2E2E2E2E2E2E2E2E2
310
E2E2E2E2E2E2E2E2E2E2E2E2E2E2E2E2E2E2E2E2E2E2E2E2E2E2E2E2E2E2E2E2E2E2E2E2E2E2E2E2E2E2E2E2E2E2E2E2E2E2E2E2E2E2E2E2E2E2E2E2E2E2E2E2E2E2E2E2E2E2E2E2E2E2E2E2E2E2E2E2E2E2E2E2E2E2E2E2E2E2E2E2E2E2E2E2E2E2E2E2E2E2E2E2E2E2E2E2E2E2E2E2E2E2E2E2E2E2E2E2E2E2E2E2E2E2F5
310
E2E2E2E2E2E2E2E2E2E2E2E2E2E2E2E2F5E2E2E2F5F5E2E2E2F5E2E2E2E2E2E2E2E2E2E2E2E2E2E2E2E2F5E2E2E2E2E2E2E2E2E2E2E2E2E2E2E2E2E2E2E2E2E2E2E2E2E2E2E2E2E2E2E2E2E2E2E2E2E2E2E2E2E2E2E2E2E2E2E2E2E2E2E2E2E2E2E2E2E2E2E2E2E2E2E2E2E2E2E2E2E2E2E2E2E2E2E2E2E2E2E2E2E2E2E2E2
310
E2E2E2E2E2E2E2E2E2E2E2E2E2E2E2E2E2E2E2E2E2E2E2E2E2E2E2E2E2E2E2E2E2E2E2E2E2E2E2E2E2E2E2E2E2E2E2E2E2E2E2E2F5E2E2E2E2E2E2E2E2E2E2E2E2E2E2E2E2F5E2E2E2F5F5E2E2E2F5E2E2E2E2E2E2E2E2E2E2E2E2E2E2E2E2F5E2E2E2E2E2E2E2E2E2E2E2E2E2E2E2E2E2E2E2E2E2E2E2E2E2E2E2E2E2E2E2
310
E2E2E2E2E2E2E2E2E2E2E2E2E2E2E2E2E2E2E2E2E2E2E2E2E2E2E2E2E2E2E2E2E2E2E2E2E2E2E2E2E2E2E2E2E2E2E2E2E2E2E2E2E2E2E2E2E2E2E2E2E2E2E2E2E2E2E2E2E2E2E2E2E2E2E2E2E2E2E2E2E2E2E2E2E2E2E2E2E2E2E2E2E2E2E2E2E2E2E2E2E2E2E2E2E2F5E2E2E2E2E2E2E2E2E2E2E2E2E2E2E2E2F5E2E2E2F5
310
F5E2E2E2F5E2E2E2E2E2E2E2E2E2E2E2E2E2E2E2E2F5E2E2E2E2E2E2E2E2E2E2E2E2E2E2E2E2E2E2E2E2E2E2E2E2E2E2E2E2E2E2E2E2E2E2E2E2E2E2E2E2E2E2E2E2E2E2E2E2E2E2E2E2E2E2E2E2E2E2E2E2E2E2E2E2E2E2E2E2E2E2E2E2E2E2E2E2E2E2E2E2E2E2E2E2E2E2E2E2E2E2E2E2E2E2E2E2E2E2E2E2E2E2E2E2E2
310
E2E2E2E2E2E2E2E2E2E2E2E2E2E2E2E2E2E2E2E2E2E2E2E2E2E2E2E2E2E2E2F5E2E2E2E2E2E2E2E2E2E2E2E2E2E2E2E2F5E2E2E2F5F5E2E2E2F5E2E2E2E2E2E2E2E2E2E2E2E2E2E2E2E2F5E2E2E2E2E2E2E2E2E2E2E2E2E2E2E2E2E2E2E2E2E2E2E2E2E2E2E2E2E2E2E2E2E2E2E2E2E2E2E2E2E2E2E2E2E2E2E2E2E2E2E2E2
310
E2E2E2E2E2E2E2E2E2E2E2E2E2E2E2E2E2E2E2E2E2E2E2E2E2E2E2E2E2E2E2E2E2E2E2E2E2E2E2E2E2E2E2E2E2E2E2E2E2E2E2E2E2E2E2E2E2E2E2E2E2E2E2E2E2E2E2E2E2E2E2E2E2E2E2E2E2E2E2E2E2E2E2E2F5E2E2E2E2E2E2E2E2E2E2E2E2E2E2E2E2F5E2E2E2F5F5E2E2E2F5E2E2E2E2E2E2E2E2E2E2E2E2E2E2E2E2
310
F5E2E2E2E2E2E2E2E2E2E2E2E2E2E2E2E2E2E2E2E2E2E2E2E2E2E2E2E2E2E2E2E2E2E2E2E2E2E2E2E2E2E2E2E2E2E2E2E2E2E2E2E2E2E2E2E2E2E2E2E2E2E2E2E2E2E2E2E2E2E2E2E2E2E2E2E2E2E2E2E2E2E2E2E2E2E2E2E2E2E2E2E2E2E2E2E2E2E2E2E2E2E2E2E2E2E2E2E2E2E2E2E2E2E2E2E2E2E2E2E2E2E2E2E2E2E2
310
E2E2E2E2E2E2E2E2E2E2F5E2E2E2E2E2E2E2E2E2E2E2E2E2E2E2E2F5E2E2E2F5F5E2E2E2F5E2E2E2E2E2E2E2E2E2E2E2E2E2E2E2E2F5E2E2E2E2E2E2E2E2E2E2E2E2E2E2E2E2E2E2E2E2E2E2E2E2E2E2E2E2E2E2E2E2E2E2E2E2E2E2E2E2E2E2E2E2E2E2E2E2E2E2E2E2E2E2E2E2E2E2E2E2E2E2E2E2E2E2E2E2E2E2E2E2E2
310
E2E2E2E2E2E2E2E2E2E2E2E2E2E2E2E2E2E2E2E2E2E2E2E2E2E2E2E2E2E2E2E2E2E2E2E2E2E2E2E2E2E2E2E2E2E2E2E2E2E2E2E2E2E2E2E2E2E2E2E2E2E2E2F5E2E2E2E2E2E2E2E2E2E2E2E2E2E2E2E2F5E2E2E2F5F5E2E2E2F5E2E2E2E2E2E2E2E2E2E2E2E2E2E2E2E2F5E2E2E2E2E2E2E2E2E2E2E2E2E2E2E2E2E2E2E2E2
310
E2E2E2E2E2E2E2E2E2E2E2E2E2E2E2E2E2E2E2E2E2E2E2E2E2E2E2E2E2E2E2E2E2E2E2E2E2E2E2E2E2E2E2E2E2E2E2E2E2E2E2E2E2E2E2E2E2E2E2E2E2E2E2E2E2E2E2E2E2E2E2E2E2E2E2E2E2E2E2E2E2E2E2E2E2E2E2E2E2E2E2E2E2E2E2E2E2E2E2E2E2E2E2E2E2E2E2E2E2E2E2E2E2E2E2E2F5E2E2E2E2E2E2E2E2E2E2
310
E2E2E2E2E2E2F5E2E2E2F5F5E2E2E2F5E2E2E2E2E2E2E2E2E2E2E2E2E2E2E2E2F5E2E2E2E2E2E2E2E2E2E2E2E2E2E2E2E2E2E2E2E2E2E2E2E2E2E2E2E2E2E2E2E2E2E2E2E2E2E2E2E2E2E2E2E2E2E2E2E2E2E2E2E2E2E2E2E2E2E2E2E2E2E2E2E2E2E2E2E2E2E2E2E2E2E2E2E2E2E2E2E2E2E2E2E2E2E2E2E2E2E2E2E2E2E2
310
E2E2E2E2E2E2E2E2E2E2E2E2E2E2E2E2E2E2E2E2E2E2E2E2E2E2E2E2E2E2E2E2E2E2E2E2E2E2E2E2E2E2F5E2E2E2E2E2E2E2E2E2E2E2E2E2E2E2E2F5E2E2E2F5F5E2E2E2E2E2E2E2E2E2E2E2E2E2E2E2E2E2E2E2E2F5E2E2E2E2E2E2E2E2E2E2E2E2E2E2E2E2E2E2E2E2E2E2E2E2E2E2E2E2E2E2E2E2E2E2E2E2E2E2E2E2E2
310
E2E2E2E2E2E2E2E2E2E2E2E2E2E2E2E2E2E2E2E2E2E2E2E2E2E2E2E2E2E2E2E2E2E2E2E2E2E2E2E2E2E2E2E2E2E2E2E2E2E2E2E2E2E2E2E2E2E2E2E2E2E2E2E2E2E2E2E2E2E2E2E2E2E2E2E2E2E2E2E2E2E2E2E2E2E2E2E2E2E2E2E2E2E2E2F5E2E2E2E2E2E2E2E2E2E2E2E2E2E2E2E2E2E2E2E2F5F5E2E2E2E2E2E2E2E2E2
310
E2E2E2E2E2E2E2E2E2E2E2F5E2E2E2E2E2E2E2E2E2E2E2E2E2E2E2E2E2E2E2E2E2E2E2E2E2E2E2E2E2E2E2E2E2E2E2E2E2E2E2E2E2E2E2E2E2E2E2E2E2E2E2E2E2E2E2E2E2E2E2E2E2E2E2E2E2E2E2E2E2E2E2E2E2E2E2E2E2E2E2E2E2E2E2E2E2E2E2E2E2E2E2E2E2E2E2E2E2E2E2E2E2E2E2E2E2E2E2E2E2E2E2E2E2E2E2
310
E2E2E2E2E2E2E2E2E2E2E2E2E2E2E2E2E2E2E2E2E2F5E2E2E2E2E2E2E2E2E2E2E2E2E2E2E2E2E2E2E2E2F5F5E2E2E2E2E2E2E2E2E2E2E2E2E2E2E2E2E2E2E2E2F5E2E2E2E2E2E2E2E2E2E2E2E2E2E2E2E2E2E2E2E2E2E2E2E2E2E2E2E2E2E2E2E2E2E2E2E2E2E2E2E2E2E2E2E2E2E2E2E2E2E2E2E2E2E2E2E2E2E2E2E2E2E2
310
E2E2E2E2E2E2E2E2E2E2E2E2E2E2E2E2E2E2E2E2E2E2E2E2E2E2E2E2E2E2E2E2E2E2E2E2E2E2E2E2E2E2E2E2E2E2E2E2E2E2E2E2E2E2E2E2E2E2E2E2E2E2E2E2E2E2E2E2E2E2E2E2E2E2F5E2E2E2E2E2E2E2E2E2E2E2E2E2E2E2E2E2E2E2E2F5F5E2E2E2E2E2E2E2E2E2E2E2E2E2E2E2E2E2E2E2E2F5E2E2E2E2E2E2E2E2E2
310
E2E2E2E2E2E2E2E2E2E2E2E2E2E2E2E2E2E2E2E2E2E2E2E2E2E2E2E2E2E2E2E2E2E2E2E2E2E2E2E2E2E2E2E2E2E2E2E2E2E2E2E2E2E2E2E2E2E2E2E2E2E2E2E2E2E2E2E2E2E2E2E2E2E2E2E2E2E2E2E2E2E2E2E2E2E2E2E2E2E2E2E2E2E2E2E2E2E2E2E2E2E2E2E2E2E2E2E2E2E2E2E2E2E2E2E2E2E2E2E2E2E2E2E2E2E2E2
310
F5E2E2E2E2E2E2E2E2E2E2E2E2E2E2E2E2E2E2E2E2F5F5E2E2E2E2E2E2E2E2E2E2E2E2E2E2E2E2E2E2E2E2F5E2E2E2E2E2E2E2E2E2E2E2E2E2E2E2E2E2E2E2E2E2E2E2E2E2E2E2E2E2E2E2E2E2E2E2E2E2E2E2E2E2E2E2E2E2E2E2E2E2E2E2E2E2E2E2E2E2E2E2E2E2E2E2E2E2E2E2E2E2E2E2E2E2E2E2E2E2E2E2E2E2E2E2
310
E2E2E2E2E2E2E2E2E2E2E2E2E2E2E2E2E2E2E2E2E2E2E2E2E2E2E2E2E2E2E2E2E2E2E2E2E2E2E2E2E2E2E2E2E2E2E2E2E2E2E2E2E2F5E2E2E2E2E2E2E2E2E2E2E2E2E2E2E2E2E2E2E2E2F5F5E2E2E2E2E2E2E2E2E2E2E2E2E2E2E2E2E2E2E2E2F5E2E2E2E2E2E2E2E2E2E2E2E2E2E2E2E2E2E2E2E2E2E2E2E2E2E2E2E2E2E2
310
E2E2E2E2E2E2E2E2E2E2E2E2E2E2E2E2E2E2E2E2E2E2E2E2E2E2E2E2E2E2E2E2E2E2E2E2E2E2E2E2E2E2E2E2E2E2E2E2E2E2E2E2E2E2E2E2E2E2E2E2E2E2E2E2E2E2E2E2E2E2E2E2E2E2E2E2E2E2E2E2E2E2E2E2E2E2E2E2E2E2E2E2E2E2E2E2E2E2E2E2E2E2E2E2E2E2F5E2E2E2E2E2E2E2E2E2E2E2E2E2E2E2E2E2E2E2E2
310
F5F5E2E2E2E2E2E2E2E2E2E2E2E2E2E2E2E2E2E2E2E2F5E2E2E2E2E2E2E2E2E2E2E2E2E2E2E2E2E2E2E2E2E2E2E2E2E2E2E2E2E2E2E2E2E2E2E2E2E2E2E2E2E2E2E2E2E2E2E2E2E2E2E2E2E2E2E2E2E2E2E2E2E2E2E2E2E2E2E2E2E2E2E2E2E2E2E2E2E2E2E2E2E2E2E2E2E2E2E2E2E2E2E2E2E2E2E2E2E2E2E2E2E2E2E2E2
310
E2E2E2E2E2E2E2E2E2E2E2E2E2E2E2E2E2E2E2E2E2E2E2E2E2E2E2E2E2E2E2E2F5E2E2E2E2E2E2E2E2E2E2E2E2E2E2E2E2E2E2E2E2F5F5E2E2E2E2E2E2E2E2E2E2E2E2E2E2E2E2E2E2E2E2F5E2E2E2E2E2E2E2E2E2E2E2E2E2E2E2E2E2E2E2E2E2E2E2E2E2E2E2E2E2E2E2E2E2E2E2E2E2E2E2E2E2E2E2E2E2E2E2E2E2E2E2
310
E2E2E2E2E2E2E2E2E2E2E2E2E2E2E2E2E2E2E2E2E2E2E2E2E2E2E2E2E2E2E2E2E2E2E2E2E2E2E2E2E2E2E2E2E2E2E2E2E2E2E2E2E2E2E2E2E2E2E2E2E2E2E2E2E2E2E2E2E2E2E2E2E2E2E2E2E2E2E2E2E2E2E2E2E2F5E2E2E2E2E2E2E2E2E2E2E2E2E2E2E2E2E2E2E2E2F5F5E2E2E2E2E2E2E2E2E2E2E2E2E2E2E2E2E2E2E2
310
E2F5E2E2E2E2E2E2E2E2E2E2E2E2E2E2E2E2E2E2E2E2E2E2E2E2E2E2E2E2E2E2E2E2E2E2E2E2E2E2E2E2E2E2E2E2E2E2E2E2E2E2E2E2E2E2E2E2E2E2E2E2E2E2E2E2E2E2E2E2E2E2E2E2E2E2E2E2E2E2E2E2E2E2E2E2E2E2E2E2E2E2E2E2E2E2E2E2E2E2E2E2E2E2E2E2E2E2E2E2E2E2E2E2E2E2E2E2E2E2E2E2E2E2E2E2E2
310
E2E2E2E2E2E2E2E2E2E2E2F5E2E2E2E2E2E2E2E2E2E2E2E2E2E2E2E2E2E2E2E2F5F5E2E2E2E2E2E2E2E2E2E2E2E2E2E2E2E2E2E2E2E2F5E2E2E2E2E2E2E2E2E2E2E2E2E2E2E2E2E2E2E2E2E2E2E2E2E2E2E2E2E2E2E2E2E2E2E2E2E2E2E2E2E2E2E2E2E2E2E2E2E2E2E2E2E2E2E2E2E2E2E2E2E2E2E2E2E2E2E2E2E2E2E2E2
310
E2E2E2E2E2E2E2E2E2E2E2E2E2E2E2E2E2E2E2E2E2E2E2E2E2E2E2E2E2E2E2E2E2E2E2E2E2E2E2E2E2E2E2E2E2E2E2E2E2E2E2E2E2E2E2E2E2E2E2E2E2E2E2E2F5E2E2E2E2E2E2E2E2E2E2E2E2E2E2E2E2E2E2E2E2F5F5E2E2E2F5E2E2E2E2E2E2E2E2E2E2E2E2E2E2E2E2F5E2E2E2E2E2E2E2E2E2E2E2E2E2E2E2E2E2E2E2
310
E2E2E2E2E2E2E2E2E2E2E2E2E2E2E2E2E2E2E2E2E2E2E2E2E2E2E2E2E2E2E2E2E2E2E2E2E2E2E2E2E2E2E2E2E2E2E2E2E2E2E2E2E2E2E2E2E2E2E2E2E2E2E2E2E2E2E2E2E2E2E2E2E2E2E2E2E2E2E2E2E2E2E2E2E2E2E2E2E2E2E2E2E2E2E2E2E2E2E2E2E2E2E2E2E2E2E2E2E2E2E2E2E2E2E2E2E2F5E2E2E2E2E2E2E2E2E2
310
E2E2E2E2E2E2E2F5E2E2E2F5F5E2E2E2F5E2E2E2E2E2E2E2E2E2E2E2E2E2E2E2E2F5E2E2E2E2E2E2E2E2E2E2E2E2E2E2E2E2E2E2E2E2E2E2E2E2E2E2E2E2E2E2E2E2E2E2E2E2E2E2E2E2E2E2E2E2E2E2E2E2E2E2E2E2E2E2E2E2E2E2E2E2E2E2E2E2E2E2E2E2E2E2E2E2E2E2E2E2E2E2E2E2E2E2E2E2E2E2E2E2E2E2E2E2E2
310
E2E2E2E2E2E2E2E2E2E2E2E2E2E2E2E2E2E2E2E2E2E2E2E2E2E2E2E2E2E2E2E2E2E2E2E2E2E2E2E2E2E2E2F5E2E2E2E2E2E2E2E2E2E2E2E2E2E2E2E2F5E2E2E2F5F5E2E2E2F5E2E2E2E2E2E2E2E2E2E2E2E2E2E2E2E2F5E2E2E2E2E2E2E2E2E2E2E2E2E2E2E2E2E2E2E2E2E2E2E2E2E2E2E2E2E2E2E2E2E2E2E2E2E2E2E2E2
310
E2E2E2E2E2E2E2E2E2E2E2E2E2E2E2E2E2E2E2E2E2E2E2E2E2E2E2E2E2E2E2E2E2E2E2E2E2E2E2E2E2E2E2E2E2E2E2E2E2E2E2E2E2E2E2E2E2E2E2E2E2E2E2E2E2E2E2E2E2E2E2E2E2E2E2E2E2E2E2E2E2E2E2E2E2E2E2E2E2E2E2E2E2E2E2E2F5E2E2E2E2E2E2E2E2E2E2E2E2E2E2E2E2F5E2E2E2F5F5E2E2E2F5E2E2E2E2
310
E2E2E2E2E2E2E2E2E2E2E2E2F5E2E2E2E2E2E2E2E2E2E2E2E2E2E2E2E2E2E2E2E2E2E2E2E2E2E2E2E2E2E2E2E2E2E2E2E2E2E2E2E2E2E2E2E2E2E2E2E2E2E2E2E2E2E2E2E2E2E2E2E2E2E2E2E2E2E2E2E2E2E2E2E2E2E2E2E2E2E2E2E2E2E2E2E2E2E2E2E2E2E2E2E2E2E2E2E2E2E2E2E2E2E2E2E2E2E2E2E2E2E2E2E2E2E2
310
E2E2E2E2E2E2E2E2E2E2E2E2E2E2E2E2E2E2E2E2E2E2F5E2E2E2E2E2E2E2E2E2E2E2E2E2E2E2E2F5E2E2E2F5F5E2E2E2F5E2E2E2E2E2E2E2E2E2E2E2E2E2E2E2E2F5E2E2E2E2E2E2E2E2E2E2E2E2E2E2E2E2E2E2E2E2E2E2E2E2E2E2E2E2E2E2E2E2E2E2E2E2E2E2E2E2E2E2E2E2E2E2E2E2E2E2E2E2E2E2E2E2E2E2E2E2E2
310
E2E2E2E2E2E2E2E2E2E2E2E2E2E2E2E2E2E2E2E2E2E2E2E2E2E2E2E2E2E2E2E2E2E2E2E2E2E2E2E2E2E2E2E2E2E2E2E2E2E2E2E2E2E2E2E2E2E2E2E2E2E2E2E2E2E2E2E2E2E2E2E2E2E2E2F5E2E2E2E2E2E2E2E2E2E2E2E2E2E2E2E2F5E2E2E2F5F5E2E2E2F5E2E2E2E2E2E2E2E2E2E2E2E2E2E2E2E2F5E2E2E2E2E2E2E2E2
310
E2E2E2E2E2E2E2E2E2E2E2E2E2E2E2E2E2E2E2E2E2E2E2E2E2E2E2E2E2E2E2E2E2E2E2E2E2E2E2E2E2E2E2E2E2E2E2E2E2E2E2E2E2E2E2E2E2E2E2E2E2E2E2E2E2E2E2E2E2E2E2E2E2E2E2E2E2E2E2E2E2E2E2E2E2E2E2E2E2E2E2E2E2E2E2E2E2E2E2E2E2E2E2E2E2E2E2E2E2E2E2E2E2E2E2E2E2E2E2E2E2E2E2E2E2E2E2
310
E2F5E2E2E2E2E2E2E2E2E2E2E2E2E2E2E2E2F5E2E2E2F5F5E2E2E2F5E2E2E2E2E2E2E2E2E2E2E2E2E2E2E2E2F5E2E2E2E2E2E2E2E2E2E2E2E2E2E2E2E2E2E2E2E2E2E2E2E2E2E2E2E2E2E2E2E2E2E2E2E2E2E2E2E2E2E2E2E2E2E2E2E2E2E2E2E2E2E2E2E2E2E2E2E2E2E2E2E2E2E2E2E2E2E2E2E2E2E2E2E2E2E2E2E2E2E2
310
E2E2E2E2E2E2E2E2E2E2E2E2E2E2E2E2E2E2E2E2E2E2E2E2E2E2E2E2E2E2E2E2E2E2E2E2E2E2E2E2E2E2E2E2E2E2E2E2E2E2E2E2E2E2F5E2E2E2E2E2E2E2E2E2E2E2E2E2E2E2E2F5E2E2E2F5F5E2E2E2F5E2E2E2E2E2E2E2E2E2E2E2E2E2E2E2E2F5E2E2E2E2E2E2E2E2E2E2E2E2E2E2E2E2E2E2E2E2E2E2E2E2E2E2E2E2E2
310
E2E2E2E2E2E2E2E2E2E2E2E2E2E2E2E2E2E2E2E2E2E2E2E2E2E2E2E2E2E2E2E2E2E2E2E2E2E2E2E2E2E2E2E2E2E2E2E2E2E2E2E2E2E2E2E2E2E2E2E2E2E2E2E2E2E2E2E2E2E2E2E2E2E2E2E2E2E2E2E2E2E2E2E2E2E2E2E2E2E2E2E2E2E2E2E2E2E2E2E2E2E2E2E2E2E2E2F5E2E2E2E2E2E2E2E2E2E2E2E2E2E2E2E2F5E2E2
310
E2F5F5E2E2E2F5E2E2E2E2E2E2E2E2E2E2E2E2E2E2E2E2F5E2E2E2E2E2E2E2E2E2E2E2E2E2E2E2E2E2E2E2E2E2E2E2E2E2E2E2E2E2E2E2E2E2E2E2E2E2E2E2E2E2E2E2E2E2E2E2E2E2E2E2E2E2E2E2E2E2E2E2E2E2E2E2E2E2E2E2E2E2E2E2E2E2E2E2E2E2E2E2E2E2E2E2E2E2E2E2E2E2E2E2E2E2E2E2E2E2E2E2E2E2E2E2
310
E2E2E2E2E2E2E2E2E2E2E2E2E2E2E2E2E2E2E2E2E2E2E2E2E2E2E2E2E2E2E2E2E2F5E2E2E2E2E2E2E2E2E2E2E2E2E2E2E2E2F5E2E2E2F5F5E2E2E2F5E2E2E2E2E2E2E2E2E2E2E2E2E2E2E2E2F5E2E2E2E2E2E2E2E2E2E2E2E2E2E2E2E2E2E2E2E2E2E2E2E2E2E2E2E2E2E2E2E2E2E2E2E2E2E2E2E2E2E2E2E2E2E2E2E2E2E2
310
E2E2E2E2E2E2E2E2E2E2E2E2E2E2E2E2E2E2E2E2E2E2E2E2E2E2E2E2E2E2E2E2E2E2E2E2E2E2E2E2E2E2E2E2E2E2E2E2E2E2E2E2E2E2E2E2E2E2E2E2E2E2E2E2E2E2E2E2E2E2E2E2E2E2E2E2E2E2E2E2E2E2E2E2E2E2F5E2E2E2E2E2E2E2E2E2E2E2E2E2E2E2E2F5E2E2E2F5F5E2E2E2F5E2E2E2E2E2E2E2E2E2E2E2E2E2E2
310
E2E2F5E2E2E2E2E2E2E2E2E2E2E2E2E2E2E2E2E2E2E2E2E2E2E2E2E2E2E2E2E2E2E2E2E2E2E2E2E2E2E2E2E2E2E2E2E2E2E2E2E2E2E2E2E2E2E2E2E2E2E2E2E2E2E2E2E2E2E2E2E2E2E2E2E2E2E2E2E2E2E2E2E2E2E2E2E2E2E2E2E2E2E2E2E2E2E2E2E2E2E2E2E2E2E2E2E2E2E2E2E2E2E2E2E2E2E2E2E2E2E2E2E2E2E2E2
310
E2E2E2E2E2E2E2E2E2E2E2E2F5E2E2E2E2E2E2E2E2E2E2E2E2E2E2E2E2F5E2E2E2F5F5E2E2E2F5E2E2E2E2E2E2E2E2E2E2E2E2E2E2E2E2F5E2E2E2E2E2E2E2E2E2E2E2E2E2E2E2E2E2E2E2E2E2E2E2E2E2E2E2E2E2E2E2E2E2E2E2E2E2E2E2E2E2E2E2E2E2E2E2E2E2E2E2E2E2E2E2E2E2E2E2E2E2E2E2E2E2E2E2E2E2E2E2
310
E2E2E2E2E2E2E2E2E2E2E2E2E2E2E2E2E2E2E2E2E2E2E2E2E2E2E2E2E2E2E2E2E2E2E2E2E2E2E2E2E2E2E2E2E2E2E2E2E2E2E2E2E2E2E2E2E2E2E2E2E2E2E2E2E2F5E2E2E2E2E2E2E2E2E2E2E2E2E2E2E2E2F5E2E2E2F5F5E2E2E2F5E2E2E2E2E2E2E2E2E2E2E2E2E2E2E2E2F5E2E2E2E2E2E2E2E2E2E2E2E2E2E2E2E2E2E2
310
E2E2E2E2E2E2E2E2E2E2E2E2E2E2E2E2E2E2E2E2E2E2E2E2E2E2E2E2E2E2E2E2E2E2E2E2E2E2E2E2E2E2E2E2E2E2E2E2E2E2E2E2E2E2E2E2E2E2E2E2E2E2E2E2E2E2E2E2E2E2E2E2E2E2E2E2E2E2E2E2E2E2E2E2E2E2E2E2E2E2E2E2E2E2E2E2E2E2E2E2E2E2E2E2E2E2E2E2E2E2E2E2E2E2E2E2E2E2F5E2E2E2E2E2E2E2E2
310
E2E2E2E2E2E2E2E2F5E2E2E2F5F5E2E2E2F5E2E2E2E2E2E2E2E2E2E2E2E2E2E2E2E2F5E2E2E2E2E2E2E2E2E2E2E2E2E2E2E2E2E2E2E2E2E2E2E2E2E2E2E2E2E2E2E2E2E2E2E2E2E2E2E2E2E2E2E2E2E2E2E2E2E2E2E2E2E2E2E2E2E2E2E2E2E2E2E2E2E2E2E2E2E2E2E2E2E2E2E2E2E2E2E2E2E2E2E2E2E2E2E2E2E2E2E2E2
310
E2E2E2E2E2E2E2E2E2E2E2E2E2E2E2E2E2E2E2E2E2E2E2E2E2E2E2E2E2E2E2E2E2E2E2E2E2E2E2E2E2E2E2E2F5E2E2E2E2E2E2E2E2E2E2E2E2E2E2E2E2F5E2E2E2F5F5E2E2E2F5E2E2E2E2E2E2E2E2E2E2E2E2E2E2E2E2F5E2E2E2E2E2E2E2E2E2E2E2E2E2E2E2E2E2E2E2E2E2E2E2E2E2E2E2E2E2E2E2E2E2E2E2E2E2E2E2
310
E2E2E2E2E2E2E2E2E2E2E2E2E2E2E2E2E2E2E2E2E2E2E2E2E2E2E2E2E2E2E2E2E2E2E2E2E2E2E2E2E2E2E2E2E2E2E2E2E2E2E2E2E2E2E2E2E2E2E2E2E2E2E2E2E2E2E2E2E2E2E2E2E2E2E2E2E2E2E2E2E2E2E2E2E2E2E2E2E2E2E2E2E2E2E2E2E2F5E2E2E2E2E2E2E2E2E2E2E2E2E2E2E2E2F5E2E2E2F5F5E2E2E2F5E2E2E2
310
E2E2E2E2E2E2E2E2E2E2E2E2E2F5E2E2E2E2E2E2E2E2E2E2E2E2E2E2E2E2E2E2E2E2E2E2E2E2E2E2E2E2E2E2E2E2E2E2E2E2E2E2E2E2E2E2E2E2E2E2E2E2E2E2E2E2E2E2E2E2E2E2E2E2E2E2E2E2E2E2E2E2E2E2E2E2E2E2E2E2E2E2E2E2E2E2E2E2E2E2E2E2E2E2E2E2E2E2E2E2E2E2E2E2E2E2E2E2E2E2E2E2E2E2E2E2E2
310
E2E2E2E2E2E2E2E2E2E2E2E2E2E2E2E2E2E2E2E2E2E2E2F5E2E2E2E2E2E2E2E2E2E2E2E2E2E2E2E2F5E2E2E2F5F5E2E2E2E2E2E2E2E2E2E2E2E2E2E2E2E2E2E2E2E2F5E2E2E2E2E2E2E2E2E2E2E2E2E2E2E2E2E2E2E2E2E2E2E2E2E2E2E2E2E2E2E2E2E2E2E2E2E2E2E2E2E2E2E2E2E2E2E2E2E2E2E2E2E2E2E2E2E2E2E2E2
310
E2E2E2E2E2E2E2E2E2E2E2E2E2E2E2E2E2E2E2E2E2E2E2E2E2E2E2E2E2E2E2E2E2E2E2E2E2E2E2E2E2E2E2E2E2E2E2E2E2E2E2E2E2E2E2E2E2E2E2E2E2E2E2E2E2E2E2E2E2E2E2E2E2E2E2E2F5E2E2E2E2E2E2E2E2E2E2E2E2E2E2E2E2E2E2E2E2F5F5E2E2E2E2E2E2E2E2E2E2E2E2E2E2E2E2E2E2E2E2F5E2E2E2E2E2E2E2
310
E2E2E2E2E2E2E2E2E2E2E2E2E2E2E2E2E2E2E2E2E2E2E2E2E2E2E2E2E2E2E2E2E2E2E2E2E2E2E2E2E2E2E2E2E2E2E2E2E2E2E2E2E2E2E2E2E2E2E2E2E2E2E2E2E2E2E2E2E2E2E2E2E2E2E2E2E2E2E2E2E2E2E2E2E2E2E2E2E2E2E2E2E2E2E2E2E2E2E2E2E2E2E2E2E2E2E2E2E2E2E2E2E2E2E2E2E2E2E2E2E2E2E2E2E2E2E2
310
E2E2F5E2E2E2E2E2E2E2E2E2E2E2E2E2E2E2E2E2E2E2E2F5F5E2E2E2E2E2E2E2E2E2E2E2E2E2E2E2E2E2E2E2E2F5E2E2E2E2E2E2E2E2E2E2E2E2E2E2E2E2E2E2E2E2E2E2E2E2E2E2E2E2E2E2E2E2E2E2E2E2E2E2E2E2E2E2E2E2E2E2E2E2E2E2E2E2E2E2E2E2E2E2E2E2E2E2E2E2E2E2E2E2E2E2E2E2E2E2E2E2E2E2E2E2E2
310
E2E2E2E2E2E2E2E2E2E2E2E2E2E2E2E2E2E2E2E2E2E2E2E2E2E2E2E2E2E2E2E2E2E2E2E2E2E2E2E2E2E2E2E2E2E2E2E2E2E2E2E2E2E2E2F5E2E2E2E2E2E2E2E2E2E2E2E2E2E2E2E2E2E2E2E2F5F5E2E2E2E2E2E2E2E2E2E2E2E2E2E2E2E2E2E2E2E2F5E2E2E2E2E2E2E2E2E2E2E2E2E2E2E2E2E2E2E2E2E2E2E2E2E2E2E2E2
310
E2E2E2E2E2E2E2E2E2E2E2E2E2E2E2E2E2E2E2E2E2E2E2E2E2E2E2E2E2E2E2E2E2E2E2E2E2E2E2E2E2E2E2E2E2E2E2E2E2E2E2E2E2E2E2E2E2E2E2E2E2E2E2E2E2E2E2E2E2E2E2E2E2E2E2E2E2E2E2E2E2E2E2E2E2E2E2E2E2E2E2E2E2E2E2E2E2E2E2E2E2E2E2E2E2E2E2E2F5E2E2E2E2E2E2E2E2E2E2E2E2E2E2E2E2E2E2
310
E2E2F5F5E2E2E2E2E2E2E2E2E2E2E2E2E2E2E2E2E2E2E2E2F5E2E2E2E2E2E2E2E2E2E2E2E2E2E2E2E2E2E2E2E2E2E2E2E2E2E2E2E2E2E2E2E2E2E2E2E2E2E2E2E2E2E2E2E2E2E2E2E2E2E2E2E2E2E2E2E2E2E2E2E2E2E2E2E2E2E2E2E2E2E2E2E2E2E2E2E2E2E2E2E2E2E2E2E2E2E2E2E2E2E2E2E2E2E2E2E2E2E2E2E2E2E2
310
E2E2E2E2E2E2E2E2E2E2E2E2E2E2E2E2E2E2E2E2E2E2E2E2E2E2E2E2E2E2E2E2E2E2F5E2E2E2E2E2E2E2E2E2E2E2E2E2E2E2E2E2E2E2E2F5F5E2E2E2E2E2E2E2E2E2E2E2E2E2E2E2E2E2E2E2E2F5E2E2E2E2E2E2E2E2E2E2E2E2E2E2E2E2E2E2E2E2E2E2E2E2E2E2E2E2E2E2E2E2E2E2E2E2E2E2E2E2E2E2E2E2E2E2E2E2E2
310
E2E2E2E2E2E2E2E2E2E2E2E2E2E2E2E2E2E2E2E2E2E2E2E2E2E2E2E2E2E2E2E2E2E2E2E2E2E2E2E2E2E2E2E2E2E2E2E2E2E2E2E2E2E2E2E2E2E2E2E2E2E2E2E2E2E2E2E2E2E2E2E2E2E2E2E2E2E2E2E2E2E2E2E2E2E2E2F5E2E2E2E2E2E2E2E2E2E2E2E2E2E2E2E2E2E2E2E2F5F5E2E2E2E2E2E2E2E2E2E2E2E2E2E2E2E2E2
310
E2E2E2F5E2E2E2E2E2E2E2E2E2E2E2E2E2E2E2E2E2E2E2E2E2E2E2E2E2E2E2E2E2E2E2E2E2E2E2E2E2E2E2E2E2E2E2E2E2E2E2E2E2E2E2E2E2E2E2E2E2E2E2E2E2E2E2E2E2E2E2E2E2E2E2E2E2E2E2E2E2E2E2E2E2E2E2E2E2E2E2E2E2E2E2E2E2E2E2E2E2E2E2E2E2E2E2E2E2E2E2E2E2E2E2E2E2E2E2E2E2E2E2E2E2E2E2
310
E2E2E2E2E2E2E2E2E2E2E2E2E2F5E2E2E2E2E2E2E2E2E2E2E2E2E2E2E2E2E2E2E2E2F5F5E2E2E2E2E2E2E2E2E2E2E2E2E2E2E2E2E2E2E2E2F5E2E2E2E2E2E2E2E2E2E2E2E2E2E2E2E2E2E2E2E2E2E2E2E2E2E2E2E2E2E2E2E2E2E2E2E2E2E2E2E2E2E2E2E2E2E2E2E2E2E2E2E2E2E2E2E2E2E2E2E2E2E2E2E2E2E2E2E2E2E2
310
E2E2E2E2E2E2E2E2E2E2E2E2E2E2E2E2E2E2E2E2E2E2E2E2E2E2E2E2E2E2E2E2E2E2E2E2E2E2E2E2E2E2E2E2E2E2E2E2E2E2E2E2E2E2E2E2E2E2E2E2E2E2E2E2E2E2F5E2E2E2E2E2E2E2E2E2E2E2E2E2E2E2E2E2E2E2E2F5F5E2E2E2E2E2E2E2E2E2E2E2E2E2E2E2E2E2E2E2E2F5E2E2E2E2E2E2E2E2E2E2E2E2E2E2E2E2E2
310
E2E2E2E2E2E2E2E2E2E2E2E2E2E2E2E2E2E2E2E2E2E2E2E2E2E2E2E2E2E2E2E2E2E2E2E2E2E2E2E2E2E2E2E2E2E2E2E2E2E2E2E2E2E2E2E2E2E2E2E2E2E2E2E2E2E2E2E2E2E2E2E2E2E2E2E2E2E2E2E2E2E2E2E2E2E2E2E2E2E2E2E2E2E2E2E2E2E2E2E2E2E2E2E2E2E2E2E2E2E2E2E2E2E2E2E2E2E2E2F5E2E2E2E2E2E2E2
310
E2E2E2E2E2E2E2E2E2E2E2E2E2F5F5E2E2E2F5E2E2E2E2E2E2E2E2E2E2E2E2E2E2E2E2F5E2E2E2E2E2E2E2E2E2E2E2E2E2E2E2E2E2E2E2E2E2E2E2E2E2E2E2E2E2E2E2E2E2E2E2E2E2E2E2E2E2E2E2E2E2E2E2E2E2E2E2E2E2E2E2E2E2E2E2E2E2E2E2E2E2E2E2E2E2E2E2E2E2E2E2E2E2E2E2E2E2E2E2E2E2E2E2E2E2E2E2
310
E2E2E2E2E2E2E2E2E2E2E2E2E2E2E2E2E2E2E2E2E2E2E2E2E2E2E2E2E2E2E2E2E2E2E2E2E2E2E2E2E2E2E2E2E2F5E2E2E2E2E2E2E2E2E2E2E2E2E2E2E2E2F5E2E2E2F5F5E2E2E2F5E2E2E2E2E2E2E2E2E2E2E2E2E2E2E2E2F5E2E2E2E2E2E2E2E2E2E2E2E2E2E2E2E2E2E2E2E2E2E2E2E2E2E2E2E2E2E2E2E2E2E2E2E2E2E2
310
E2E2E2E2E2E2E2E2E2E2E2E2E2E2E2E2E2E2E2E2E2E2E2E2E2E2E2E2E2E2E2E2E2E2E2E2E2E2E2E2E2E2E2E2E2E2E2E2E2E2E2E2E2E2E2E2E2E2E2E2E2E2E2E2E2E2E2E2E2E2E2E2E2E2E2E2E2E2E2E2E2E2E2E2E2E2E2E2E2E2E2E2E2E2E2E2E2E2F5E2E2E2E2E2E2E2E2E2E2E2E2E2E2E2E2F5E2E2E2F5F5E2E2E2F5E2E2
310
E2E2E2E2E2E2E2E2E2E2E2E2E2E2F5E2E2E2E2E2E2E2E2E2E2E2E2E2E2E2E2E2E2E2E2E2E2E2E2E2E2E2E2E2E2E2E2E2E2E2E2E2E2E2E2E2E2E2E2E2E2E2E2E2E2E2E2E2E2E2E2E2E2E2E2E2E2E2E2E2E2E2E2E2E2E2E2E2E2E2E2E2E2E2E2E2E2E2E2E2E2E2E2E2E2E2E2E2E2E2E2E2E2E2E2E2E2E2E2E2E2E2E2E2E2E2E2
310
E2E2E2E2E2E2E2E2E2E2E2E2E2E2E2E2E2E2E2E2E2E2E2E2F5E2E2E2E2E2E2E2E2E2E2E2E2E2E2E2E2F5E2E2E2F5F5E2E2E2F5E2E2E2E2E2E2E2E2E2E2E2E2E2E2E2E2F5E2E2E2E2E2E2E2E2E2E2E2E2E2E2E2E2E2E2E2E2E2E2E2E2E2E2E2E2E2E2E2E2E2E2E2E2E2E2E2E2E2E2E2E2E2E2E2E2E2E2E2E2E2E2E2E2E2E2E2
310
E2E2E2E2E2E2E2E2E2E2E2E2E2E2E2E2E2E2E2E2E2E2E2E2E2E2E2E2E2E2E2E2E2E2E2E2E2E2E2E2E2E2E2E2E2E2E2E2E2E2E2E2E2E2E2E2E2E2E2E2E2E2E2E2E2E2E2E2E2E2E2E2E2E2E2E2E2F5E2E2E2E2E2E2E2E2E2E2E2E2E2E2E2E2F5E2E2E2F5F5E2E2E2F5E2E2E2E2E2E2E2E2E2E2E2E2E2E2E2E2F5E2E2E2E2E2E2
310
E2E2E2E2E2E2E2E2E2E2E2E2E2E2E2E2E2E2E2E2E2E2E2E2E2E2E2E2E2E2E2E2E2E2E2E2E2E2E2E2E2E2E2E2E2E2E2E2E2E2E2E2E2E2E2E2E2E2E2E2E2E2E2E2E2E2E2E2E2E2E2E2E2E2E2E2E2E2E2E2E2E2E2E2E2E2E2E2E2E2E2E2E2E2E2E2E2E2E2E2E2E2E2E2E2E2E2E2E2E2E2E2E2E2E2E2E2E2E2E2E2E2E2E2E2E2E2
310
E2E2E2F5E2E2E2E2E2E2E2E2E2E2E2E2E2E2E2E2F5E2E2E2F5F5E2E2E2F5E2E2E2E2E2E2E2E2E2E2E2E2E2E2E2E2F5E2E2E2E2E2E2E2E2E2E2E2E2E2E2E2E2E2E2E2E2E2E2E2E2E2E2E2E2E2E2E2E2E2E2E2E2E2E2E2E2E2E2E2E2E2E2E2E2E2E2E2E2E2E2E2E2E2E2E2E2E2E2E2E2E2E2E2E2E2E2E2E2E2E2E2E2E2E2E2E2
310
E2E2E2E2E2E2E2E2E2E2E2E2E2E2E2E2E2E2E2E2E2E2E2E2E2E2E2E2E2E2E2E2E2E2E2E2E2E2E2E2E2E2E2E2E2E2E2E2E2E2E2E2E2E2E2E2F5E2E2E2E2E2E2E2E2E2E2E2E2E2E2E2E2F5E2E2E2F5F5E2E2E2F5E2E2E2E2E2E2E2E2E2E2E2E2E2E2E2E2F5E2E2E2E2E2E2E2E2E2E2E2E2E2E2E2E2E2E2E2E2E2E2E2E2E2E2E2
310
E2E2E2E2E2E2E2E2E2E2E2E2E2E2E2E2E2E2E2E2E2E2E2E2E2E2E2E2E2E2E2E2E2E2E2E2E2E2E2E2E2E2E2E2E2E2E2E2E2E2E2E2E2E2E2E2E2E2E2E2E2E2E2E2E2E2E2E2E2E2E2E2E2E2E2E2E2E2E2E2E2E2E2E2E2E2E2E2E2E2E2E2E2E2E2E2E2E2E2E2E2E2E2E2E2E2E2E2E2F5E2E2E2E2E2E2E2E2E2E2E2E2E2E2E2E2F5
310
E2E2E2F5F5E2E2E2F5E2E2E2E2E2E2E2E2E2E2E2E2E2E2E2E2F5E2E2E2E2E2E2E2E2E2E2E2E2E2E2E2E2E2E2E2E2E2E2E2E2E2E2E2E2E2E2E2E2E2E2E2E2E2E2E2E2E2E2E2E2E2E2E2E2E2E2E2E2E2E2E2E2E2E2E2E2E2E2E2E2E2E2E2E2E2E2E2E2E2E2E2E2E2E2E2E2E2E2E2E2E2E2E2E2E2E2E2E2E2E2E2E2E2E2E2E2E2
310
E2E2E2E2E2E2E2E2E2E2E2E2E2E2E2E2E2E2E2E2E2E2E2E2E2E2E2E2E2E2E2E2E2E2E2F5E2E2E2E2E2E2E2E2E2E2E2E2E2E2E2E2F5E2E2E2F5F5E2E2E2F5E2E2E2E2E2E2E2E2E2E2E2E2E2E2E2E2F5E2E2E2E2E2E2E2E2E2E2E2E2E2E2E2E2E2E2E2E2E2E2E2E2E2E2E2E2E2E2E2E2E2E2E2E2E2E2E2E2E2E2E2E2E2E2E2E2
310
E2E2E2E2E2E2E2E2E2E2E2E2E2E2E2E2E2E2E2E2E2E2E2E2E2E2E2E2E2E2E2E2E2E2E2E2E2E2E2E2E2E2E2E2E2E2E2E2E2E2E2E2E2E2E2E2E2E2E2E2E2E2E2E2E2E2E2E2E2E2E2E2E2E2E2E2E2E2E2E2E2E2E2E2E2E2E2E2F5E2E2E2E2E2E2E2E2E2E2E2E2E2E2E2E2F5E2E2E2F5F5E2E2E2F5E2E2E2E2E2E2E2E2E2E2E2E2
310
E2E2E2E2F5E2E2E2E2E2E2E2E2E2E2E2E2E2E2E2E2E2E2E2E2E2E2E2E2E2E2E2E2E2E2E2E2E2E2E2E2E2E2E2E2E2E2E2E2E2E2E2E2E2E2E2E2E2E2E2E2E2E2E2E2E2E2E2E2E2E2E2E2E2E2E2E2E2E2E2E2E2E2E2E2E2E2E2E2E2E2E2E2E2E2E2E2E2E2E2E2E2E2E2E2E2E2E2E2E2E2E2E2E2E2E2E2E2E2E2E2E2E2E2E2E2E2
310
E2E2E2E2E2E2E2E2E2E2E2E2E2E2F5E2E2E2E2E2E2E2E2E2E2E2E2E2E2E2E2F5E2E2E2F5F5E2E2E2F5E2E2E2E2E2E2E2E2E2E2E2E2E2E2E2E2F5E2E2E2E2E2E2E2E2E2E2E2E2E2E2E2E2E2E2E2E2E2E2E2E2E2E2E2E2E2E2E2E2E2E2E2E2E2E2E2E2E2E2E2E2E2E2E2E2E2E2E2E2E2E2E2E2E2E2E2E2E2E2E2E2E2E2E2E2E2
310
E2E2E2E2E2E2E2E2E2E2E2E2E2E2E2E2E2E2E2E2E2E2E2E2E2E2E2E2E2E2E2E2E2E2E2E2E2E2E2E2E2E2E2E2E2E2E2E2E2E2E2E2E2E2E2E2E2E2E2E2E2E2E2E2E2E2E2F5E2E2E2E2E2E2E2E2E2E2E2E2E2E2E2E2F5E2E2E2F5F5E2E2E2F5E2E2E2E2E2E2E2E2E2E2E2E2E2E2E2E2F5E2E2E2E2E2E2E2E2E2E2E2E2E2E2E2E2
310
E2E2E2E2E2E2E2E2E2E2E2E2E2E2E2E2E2E2E2E2E2E2E2E2E2E2E2E2E2E2E2E2E2E2E2E2E2E2E2E2E2E2E2E2E2E2E2E2E2E2E2E2E2E2E2E2E2E2E2E2E2E2E2E2E2E2E2E2E2E2E2E2E2E2E2E2E2E2E2E2E2E2E2E2E2E2E2E2E2E2E2E2E2E2E2E2E2E2E2E2E2E2E2E2E2E2E2E2E2E2E2E2E2E2E2E2E2E2E2E2F5E2E2E2E2E2E2
310
E2E2E2E2E2E2E2E2E2E2F5E2E2E2F5F5E2E2E2F5E2E2E2E2E2E2E2E2E2E2E2E2E2E2E2E2F5E2E2E2E2E2E2E2E2E2E2E2E2E2E2E2E2E2E2E2E2E2E2E2E2E2E2E2E2E2E2E2E2E2E2E2E2E2E2E2E2E2E2E2E2E2E2E2E2E2E2E2E2E2E2E2E2E2E2E2E2E2E2E2E2E2E2E2E2E2E2E2E2E2E2E2E2E2E2E2E2E2E2E2E2E2E2E2E2E2E2
310
E2E2E2E2E2E2E2E2E2E2E2E2E2E2E2E2E2E2E2E2E2E2E2E2E2E2E2E2E2E2E2E2E2E2E2E2E2E2E2E2E2E2E2E2E2E2F5E2E2E2E2E2E2E2E2E2E2E2E2E2E2E2E2F5E2E2E2F5F5E2E2E2F5E2E2E2E2E2E2E2E2E2E2E2E2E2E2E2E2F5E2E2E2E2E2E2E2E2E2E2E2E2E2E2E2E2E2E2E2E2E2E2E2E2E2E2E2E2E2E2E2E2E2E2E2E2E2
310
E2E2E2E2E2E2E2E2E2E2E2E2E2E2E2E2E2E2E2E2E2E2E2E2E2E2E2E2E2E2E2E2E2E2E2E2E2E2E2E2E2E2E2E2E2E2E2E2E2E2E2E2E2E2E2E2E2E2E2E2E2E2E2E2E2E2E2E2E2E2E2E2E2E2E2E2E2E2E2E2E2E2E2E2E2E2E2E2E2E2E2E2E2E2E2E2E2E2E2F5E2E2E2E2E2E2E2E2E2E2E2E2E2E2E2E2F5E2E2E2F5F5E2E2E2F5E2
310
E2E2E2E2E2E2E2E2E2E2E2E2E2E2E2F5E2E2E2E2E2E2E2E2E2E2E2E2E2E2E2E2E2E2E2E2E2E2E2E2E2E2E2E2E2E2E2E2E2E2E2E2E2E2E2E2E2E2E2E2E2E2E2E2E2E2E2E2E2E2E2E2E2E2E2E2E2E2E2E2E2E2E2E2E2E2E2E2E2E2E2E2E2E2E2E2E2E2E2E2E2E2E2E2E2E2E2E2E2E2E2E2E2E2E2E2E2E2E2E2E2E2E2E2E2E2E2
310
E2E2E2E2E2E2E2E2E2E2E2E2E2E2E2E2E2E2E2E2E2E2E2E2E2F5E2E2E2E2E2E2E2E2E2E2E2E2E2E2E2E2F5E2E2E2F5F5E2E2E2F5E2E2E2E2E2E2E2E2E2E2E2E2E2E2E2E2F5E2E2E2E2E2E2E2E2E2E2E2E2E2E2E2E2E2E2E2E2E2E2E2E2E2E2E2E2E2E2E2E2E2E2E2E2E2E2E2E2E2E2E2E2E2E2E2E2E2E2E2E2E2E2E2E2E2E2
310
E2E2E2E2E2E2E2E2E2E2E2E2E2E2E2E2E2E2E2E2E2E2E2E2E2E2E2E2E2E2E2E2E2E2E2E2E2E2E2E2E2E2E2E2E2E2E2E2E2E2E2E2E2E2E2E2E2E2E2E2E2E2E2E2E2E2E2E2E2E2E2E2E2E2E2E2E2E2F5E2E2E2E2E2E2E2E2E2E2E2E2E2E2E2E2F5E2E2E2F5F5E2E2E2F5E2E2E2E2E2E2E2E2E2E2E2E2E2E2E2E2F5E2E2E2E2E2
310
E2E2E2E2E2E2E2E2E2E2E2E2E2E2E2E2E2E2E2E2E2E2E2E2E2E2E2E2E2E2E2E2E2E2E2E2E2E2E2E2E2E2E2E2E2E2E2E2E2E2E2E2E2E2E2E2E2E2E2E2E2E2E2E2E2E2E2E2E2E2E2E2E2E2E2E2E2E2E2E2E2E2E2E2E2E2E2E2E2E2E2E2E2E2E2E2E2E2E2E2E2E2E2E2E2E2E2E2E2E2E2E2E2E2E2E2E2E2E2E2E2E2E2E2E2E2E2
310
E2E2E2E2F5E2E2E2E2E2E2E2E2E2E2E2E2E2E2E2E2F5E2E2E2F5F5E2E2E2E2E2E2E2E2E2E2E2E2E2E2E2E2E2E2E2E2F5E2E2E2E2E2E2E2E2E2E2E2E2E2E2E2E2E2E2E2E2E2E2E2E2E2E2E2E2E2E2E2E2E2E2E2E2E2E2E2E2E2E2E2E2E2E2E2E2E2E2E2E2E2E2E2E2E2E2E2E2E2E2E2E2E2E2E2E2E2E2E2E2E2E2E2E2E2E2E2
310
E2E2E2E2E2E2E2E2E2E2E2E2E2E2E2E2E2E2E2E2E2E2E2E2E2E2E2E2E2E2E2E2E2E2E2E2E2E2E2E2E2E2E2E2E2E2E2E2E2E2E2E2E2E2E2E2E2F5E2E2E2E2E2E2E2E2E2E2E2E2E2E2E2E2E2E2E2E2F5F5E2E2E2E2E2E2E2E2E2E2E2E2E2E2E2E2E2E2E2E2F5E2E2E2E2E2E2E2E2E2E2E2E2E2E2E2E2E2E2E2E2E2E2E2E2E2E2
310
E2E2E2E2E2E2E2E2E2E2E2E2E2E2E2E2E2E2E2E2E2E2E2E2E2E2E2E2E2E2E2E2E2E2E2E2E2E2E2E2E2E2E2E2E2E2E2E2E2E2E2E2E2E2E2E2E2E2E2E2E2E2E2E2E2E2E2E2E2E2E2E2E2E2E2E2E2E2E2E2E2E2E2E2E2E2E2E2E2E2E2E2E2E2E2E2E2E2E2E2E2E2E2E2E2E2E2E2E2E2F5E2E2E2E2E2E2E2E2E2E2E2E2E2E2E2E2
310
E2E2E2E2F5F5E2E2E2E2E2E2E2E2E2E2E2E2E2E2E2E2E2E2E2E2F5E2E2E2E2E2E2E2E2E2E2E2E2E2E2E2E2E2E2E2E2E2E2E2E2E2E2E2E2E2E2E2E2E2E2E2E2E2E2E2E2E2E2E2E2E2E2E2E2E2E2E2E2E2E2E2E2E2E2E2E2E2E2E2E2E2E2E2E2E2E2E2E2E2E2E2E2E2E2E2E2E2E2E2E2E2E2E2E2E2E2E2E2E2E2E2E2E2E2E2E2
310
E2E2E2E2E2E2E2E2E2E2E2E2E2E2E2E2E2E2E2E2E2E2E2E2E2E2E2E2E2E2E2E2E2E2E2E2F5E2E2E2E2E2E2E2E2E2E2E2E2E2E2E2E2E2E2E2E2F5F5E2E2E2E2E2E2E2E2E2E2E2E2E2E2E2E2E2E2E2E2F5E2E2E2E2E2E2E2E2E2E2E2E2E2E2E2E2E2E2E2E2E2E2E2E2E2E2E2E2E2E2E2E2E2E2E2E2E2E2E2E2E2E2E2E2E2E2E2
310
E2E2E2E2E2E2E2E2E2E2E2E2E2E2E2E2E2E2E2E2E2E2E2E2E2E2E2E2E2E2E2E2E2E2E2E2E2E2E2E2E2E2E2E2E2E2E2E2E2E2E2E2E2E2E2E2E2E2E2E2E2E2E2E2E2E2E2E2E2E2E2E2E2E2E2E2E2E2E2E2E2E2E2E2E2E2E2E2E2F5E2E2E2E2E2E2E2E2E2E2E2E2E2E2E2E2E2E2E2E2F5F5E2E2E2E2E2E2E2E2E2E2E2E2E2E2E2
310
E2E2E2E2E2F5F5F5F5F5F5F5F5F5F5F5F5F5F5F5F5F5F5F5F5F5F5F5F5F5F5F5F5F5F5F5F5F5F5F5F5F5F5F5F5F5F5F5F5F5F5F5F5F5F5F5F5F5F5F5F5F5F5F5F5F5F5F5F5F5F5F5F5F5F5F5F5F5F5F5F5F5F5F5F5F5F5F5F5F5F5F5F5F5F5F5F5F5F5F5F5F5F5F5F5F5F5F5F5F5F5F5F5F5F5F5F5F5F5F5F5F5F5F5F5F5F5
310
F5F5F5F5F5F5F5F5F5F5F5F5F5F5F5F5E2E2E2E2E2E2E2E2E2E2E2E2E2E2E2E2E2E2E2E2F5F5E2E2E2E2E2E2E2E2E2E2E2E2E2E2E2E2E2E2E2E2E2E2E2E2E2E2E2E2E2E2E2E2E2E2E2E2E2E2E2E2E2E2E2E2E2E2E2E2E2E2E2E2E2E2E2E2E2E2E2E2E2E2E2E2E2E2E2E2E2E2E2E2E2E2E2E2E2E2E2E2E2E2E2E2E2E2E2E2E2
310
E2E2E2E2E2E2E2E2E2E2E2E2E2E2E2E2E2E2E2E2E2E2E2E2E2E2E2E2E2E2E2E2E2E2E2E2E2E2E2E2E2E2E2E2E2E2E2E2E2E2E2E2E2E2E2E2E2E2E2E2E2E2E2E2E2E2E2E2E2E2E2E2E2E2E2E2E2E2E2E2E2E2E2E2E2E2E2E2E2F5F5E2E2E2E2E2E2E2E2E2E2E2E2E2E2E2E2E2E2E2E2E2E2E2E2E2E2E2E2E2E2E2E2E2E2E2E2
310
E2E2E2E2E2E2E2E2E2E2E2E2E2E2E2E2E2E2E2E2E2E2E2E2E2E2E2E2E2E2E2E2E2E2E2E2E2E2E2E2E2E2E2E2E2E2E2E2E2E2E2E2E2E2E2E2E2E2E2E2E2E2E2E2E2E2E2E2E2E2E2E2E2E2E2E2E2E2E2E2E2E2E2E2E2E2E2E2E2E2E2E2E2E2E2E2E2E2E2E2E2E2E2E2E2E2E2E2E2E2E2E2E2E2E2E2E2E2E2E2E2E2E2E2E2E2E2
310
E2E2E2E2E2E2E2E2E2E2E2E2E2E2E2F5F5E2E2E2E2E2E2E2E2E2E2E2E2E2E2E2E2E2E2E2E2E2E2E2E2E2E2E2E2E2E2E2E2E2E2E2E2E2E2E2E2E2E2E2E2E2E2E2E2E2E2E2E2E2E2E2E2E2E2E2E2E2E2E2E2E2E2E2E2E2E2E2E2E2E2E2E2E2E2E2E2E2E2E2E2E2E2E2E2E2E2E2E2E2E2E2E2E2E2E2E2E2E2E2E2E2E2E2E2E2E2
310
E2E2E2E2E2E2E2E2E2E2E2E2E2E2E2E2E2E2E2E2E2E2E2E2E2E2E2E2E2E2E2E2E2E2E2E2E2E2E2E2E2E2E2E2E2E2E2E2E2E2E2E2E2E2E2E2E2E2E2E2E2E2E2E2E2E2E2E2F5F5E2E2E2E2E2E2E2E2E2E2E2E2E2E2E2E2E2E2E2E2E2E2E2E2E2E2E2E2E2E2E2E2E2E2E2E2E2E2E2E2E2E2E2E2E2E2E2E2E2E2E2E2E2E2E2E2E2
310
E2E2E2E2E2E2E2E2E2E2E2E2E2E2E2E2E2E2E2E2E2E2E2E2E2E2E2E2E2E2E2E2E2E2E2E2E2E2E2E2E2E2E2E2E2E2E2E2E2E2E2E2E2E2E2E2E2E2E2E2E2E2E2E2E2E2E2E2E2E2E2E2E2E2E2E2E2E2E2E2E2E2E2E2E2E2E2E2E2E2E2E2E2E2E2E2E2E2E2E2E2E2E2E2E2E2E2E2E2E2E2E2E2E2E2E2E2E2E2E2E2F5F5E2E2E2F5
310
E2E2E2E2E2E2E2E2E2E2E2E2E2E2E2E2E2E2E2E2E2E2E2E2E2E2E2E2E2E2E2E2E2E2E2E2E2E2E2E2E2E2E2E2E2E2E2E2E2E2E2E2E2E2E2E2E2E2E2E2E2E2E2E2E2E2E2E2E2E2E2E2E2E2E2E2E2E2E2E2E2E2E2E2E2E2E2E2E2E2E2E2E2E2E2E2E2E2E2E2E2E2E2E2E2E2E2E2E2E2E2E2E2E2E2E2E2E2E2E2E2E2E2E2E2E2E2
310
E2E2E2E2E2E2E2E2E2E2E2E2E2E2E2E2E2E2E2E2E2E2E2E2E2E2E2E2E2E2E2E2E2E2E2E2E2E2E2E2E2E2E2F5E2E2E2F5F5E2E2E2F5E2E2E2E2E2E2E2E2E2E2E2E2E2E2E2E2E2E2E2E2E2E2E2E2E2E2E2E2E2E2E2E2E2E2E2E2E2E2E2E2E2E2E2E2E2E2E2E2E2E2E2E2E2E2E2E2E2E2E2E2E2E2E2E2E2E2E2E2E2E2E2E2E2E2
310
E2E2E2E2E2E2E2E2E2E2E2E2E2E2E2E2E2E2E2E2E2E2E2E2E2E2E2E2E2E2E2E2E2E2E2E2E2E2E2E2E2E2E2E2E2E2E2E2E2E2E2E2E2E2E2E2E2E2E2E2E2E2E2E2E2E2E2E2E2E2E2E2E2E2E2E2E2E2E2E2E2E2E2E2E2E2E2E2E2E2E2E2E2E2E2E2F5E2E2E2F5F5E2E2E2F5E2E2E2E2E2E2E2E2E2E2E2E2E2E2E2E2E2E2E2E2E2
310
E2E2E2E2E2E2E2E2E2E2E2E2E2E2E2E2E2E2E2E2E2E2E2E2E2E2E2E2E2E2E2E2E2E2E2E2E2E2E2E2E2E2E2E2E2E2E2E2E2E2E2E2E2E2E2E2E2E2E2E2E2E2E2E2E2E2E2E2E2E2E2E2E2E2E2E2E2E2E2E2E2E2E2E2E2E2E2E2E2E2E2E2E2E2E2E2E2E2E2E2E2E2E2E2E2E2E2E2E2E2E2E2E2E2E2E2E2E2E2E2E2E2E2E2E2E2E2
310
E2E2E2E2E2E2E2E2E2E2E2E2E2E2E2E2E2E2E2E2E2E2F5E2E2E2F5F5E2E2E2F5E2E2E2E2E2E2E2E2E2E2E2E2E2E2E2E2E2E2E2E2E2E2E2E2E2E2E2E2E2E2E2E2E2E2E2E2E2E2E2E2E2E2E2E2E2E2E2E2E2E2E2E2E2E2E2E2E2E2E2E2E2E2E2E2E2E2E2E2E2E2E2E2E2E2E2E2E2E2E2E2E2E2E2E2E2E2E2E2E2E2E2E2E2E2E2
310
E2E2E2E2E2E2E2E2E2E2E2E2E2E2E2E2E2E2E2E2E2E2E2E2E2E2E2E2E2E2E2E2E2E2E2E2E2E2E2E2E2E2E2E2E2E2E2E2E2E2E2E2E2E2E2E2E2E2E2E2E2E2E2E2E2E2E2E2E2E2E2E2E2E2E2F5E2E2E2F5F5E2E2E2F5E2E2E2E2E2E2E2E2E2E2E2E2E2E2E2E2E2E2E2E2E2E2E2E2E2E2E2E2E2E2E2E2E2E2E2E2E2E2E2E2E2E2
310
E2E2E2E2E2E2E2E2E2E2E2E2E2E2E2E2E2E2E2E2E2E2E2E2E2E2E2E2E2E2E2E2E2E2E2E2E2E2E2E2E2E2E2E2E2E2E2E2E2E2E2E2E2E2E2E2E2E2E2E2E2E2E2E2E2E2E2E2E2E2E2E2E2E2E2E2E2E2E2E2E2E2E2E2E2E2E2E2E2E2E2E2E2E2E2E2E2E2E2E2E2E2E2E2E2E2E2E2E2E2E2E2E2E2E2E2E2E2E2E2E2E2E2E2E2E2E2
310
E2F5E2E2E2F5F5E2E2E2F5E2E2E2E2E2E2E2E2E2E2E2E2E2E2E2E2E2E2E2E2E2E2E2E2E2E2E2E2E2E2E2E2E2E2E2E2E2E2E2E2E2E2E2E2E2E2E2E2E2E2E2E2E2E2E2E2E2E2E2E2E2E2E2E2E2E2E2E2E2E2E2E2E2E2E2E2E2E2E2E2E2E2E2E2E2E2E2E2E2E2E2E2E2E2E2E2E2E2E2E2E2E2E2E2E2E2E2E2E2E2E2E2E2E2E2E2
310
E2E2E2E2E2E2E2E2E2E2E2E2E2E2E2E2E2E2E2E2E2E2E2E2E2E2E2E2E2E2E2E2E2E2E2E2E2E2E2E2E2E2E2E2E2E2E2E2E2E2E2E2E2E2F5E2E2E2F5F5E2E2E2F5E2E2E2E2E2E2E2E2E2E2E2E2E2E2E2E2E2E2E2E2E2E2E2E2E2E2E2E2E2E2E2E2E2E2E2E2E2E2E2E2E2E2E2E2E2E2E2E2E2E2E2E2E2E2E2E2E2E2E2E2E2E2E2
310
E2E2E2E2E2E2E2E2E2E2E2E2E2E2E2E2E2E2E2E2E2E2E2E2E2E2E2E2E2E2E2E2E2E2E2E2E2E2E2E2E2E2E2E2E2E2E2E2E2E2E2E2E2E2E2E2E2E2E2E2E2E2E2E2E2E2E2E2E2E2E2E2E2E2E2E2E2E2E2E2E2E2E2E2E2E2E2E2E2E2E2E2E2E2E2E2E2E2E2E2E2E2E2E2E2E2E2F5E2E2E2F5F5E2E2E2F5E2E2E2E2E2E2E2E2E2E2
310
E2E2E2E2E2E2E2E2E2E2E2E2E2E2E2E2E2E2E2E2E2E2E2E2E2E2E2E2E2E2E2E2E2E2E2E2E2E2E2E2E2E2E2E2E2E2E2E2E2E2E2E2E2E2E2E2E2E2E2E2E2E2E2E2E2E2E2E2E2E2E2E2E2E2E2E2E2E2E2E2E2E2E2E2E2E2E2E2E2E2E2E2E2E2E2E2E2E2E2E2E2E2E2E2E2E2E2E2E2E2E2E2E2E2E2E2E2E2E2E2E2E2E2E2E2E2E2
310
E2E2E2E2E2E2E2E2E2E2E2E2E2E2E2E2E2E2E2E2E2E2E2E2E2E2E2E2E2E2E2E2E2F5E2E2E2F5F5E2E2E2F5F5F5F5F5F5F5F5E2E2E2E2E2E2E2E2E2F5F5F5F5F5F5F5F5F5F5F5F5F5F5F5F5E2E2E2E2E2E2E2E2E2F5F5F5F5F5F5F5F5F5F5F5F5F5F5F5E2E2E2E2E2E2E2E2E2F5F5F5F5F5F5F5F5F5F5F5F5F5F5F5F5E2E2E2
310
E2E2E2E2E2F5F5F5F5F5F5F5F5F5F5F5F5F5F5F5F5E2E2E2E2E2E2E2E2E2F5F5F5F5F5F5F5F5F5F5F5F5F5F5F5E2E2E2E2E2E2E2E2E2F5F5F5F5F5F5F5F5F5F5F5F5F5F5F5F5E2E2E2E2E2E2E2E2E2F5F5F5F5F5F5F5F5E2E2E2F5F5E2E2E2E2E2E2E2E2E2E2E2E2E2E2E2E2E2E2E2E2E2E2E2E2E2E2E2E2E2E2E2E2E2E2E2
310
E2E2E2E2E2E2E2E2E2E2E2E2E2E2E2E2E2E2E2E2E2E2E2E2E2E2E2E2E2E2E2E2E2E2E2E2E2E2E2E2E2E2E2E2E2E2E2E2E2E2E2E2E2E2E2E2E2E2E2E2E2E2E2E2E2E2E2E2E2E2E2E2E2E2E2E2E2E2E2E2E2E2E2E2E2E2E2E2E2E2E2E2E2E2E2E2E2E2E2E2E2E2E2E2E2E2E2E2E2E2E2E2E2E2E2E2E2E2E2E2E2E2E2E2E2E2E2
310
E2E2E2E2E2E2E2E2E2E2E2E2E2E2E2E2F5F5E2E2E2E2E2E2E2E2E2E2E2E2E2E2E2E2E2E2E2E2E2E2E2E2E2E2E2E2E2E2E2E2E2E2E2E2E2E2E2E2E2E2E2E2E2E2E2E2E2E2E2E2E2E2E2E2E2E2E2E2E2E2E2E2E2E2E2E2E2E2E2E2E2E2E2E2E2E2E2E2E2E2E2E2E2E2E2E2E2E2E2E2E2E2E2E2E2E2E2E2E2E2E2E2E2E2E2E2E2
310
E2E2E2E2E2E2E2E2E2E2E2E2E2E2E2E2E2E2E2E2E2E2E2E2E2E2E2E2E2E2E2E2E2E2E2E2E2E2E2E2E2E2E2E2E2E2E2E2E2E2E2E2E2E2E2E2E2E2E2E2E2E2E2E2E2E2E2E2E2F5F5E2E2E2E2E2E2E2E2E2E2E2E2E2E2E2E2E2E2E2E2E2E2E2E2E2E2E2E2E2E2E2E2E2E2E2E2E2E2E2E2E2E2E2E2E2E2E2E2E2E2E2E2E2E2E2E2
310
E2E2E2E2E2E2E2E2E2E2E2E2E2E2E2E2E2E2E2E2E2E2E2E2E2E2E2E2E2E2E2E2E2E2E2E2E2E2E2E2E2E2E2E2E2E2E2E2E2E2E2E2E2E2E2E2E2E2E2E2E2E2E2E2E2E2E2E2E2E2E2E2E2E2E2E2E2E2E2E2E2E2E2E2E2E2E2E2E2E2E2E2E2E2E2E2E2E2E2E2E2E2E2E2E2E2E2E2E2E2E2E2E2E2E2E2E2E2E2E2E2E2F5F5E2E2E2
310
E2E2E2E2E2E2E2E2E2E2E2E2E2E2E2E2E2E2E2E2E2E2E2E2E2E2E2E2E2E2E2E2E2E2E2E2E2E2E2E2E2E2E2E2E2E2E2E2E2E2E2E2E2E2E2E2E2E2E2E2E2E2E2E2E2E2E2E2E2E2E2E2E2E2E2E2E2E2E2E2E2E2E2E2E2E2E2E2E2E2E2E2E2E2E2E2E2E2E2E2E2E2E2E2E2E2E2E2E2E2E2E2E2E2E2E2E2E2E2E2E2E2E2E2E2E2E2
310
E2E2E2E2E2E2E2E2E2E2E2E2E2E2E2E2E2E2E2E2E2E2E2E2E2E2E2E2E2E2E2E2E2E2E2E2E2E2E2E2E2E2E2E2E2E2E2E2F5
  0
XRECORD
  5
6060C
102
{ACAD_REACTORS
330
6060B
102
}
330
6060B
100
AcDbXrecord
280
     1
102
SHADEPLOT
 70
     0
102
SHADEPLOTRESLEVEL
 70
     2
102
SHADEPLOTCUSTOMDPI
 70
   300
  0
ENDSEC
  0
EOF
