  0
SECTION
  2
HEADER
  9
$ACADVER
  1
AC1015
  9
$ACADMAINTVER
 70
    20
  9
$DWGCODEPAGE
  3
ANSI_936
  9
$INSBASE
 10
0.0
 20
0.0
 30
0.0
  9
$EXTMIN
 10
-65.01666666666671
 20
-192.9760687523845
 30
0.0
  9
$EXTMAX
 10
433.2218809661328
 20
133.400004275283
 30
0.0
  9
$LIMMIN
 10
0.0
 20
0.0
  9
$LIMMAX
 10
420.0
 20
297.0
  9
$ORTHOMODE
 70
     0
  9
$REGENMODE
 70
     1
  9
$FILLMODE
 70
     1
  9
$QTEXTMODE
 70
     0
  9
$MIRRTEXT
 70
     1
  9
$LTSCALE
 40
1.0
  9
$ATTMODE
 70
     1
  9
$TEXTSIZE
 40
3.5
  9
$TRACEWID
 40
1.0
  9
$TEXTSTYLE
  7
simplex
  9
$CLAYER
  8
0
  9
$CELTYPE
  6
ByLayer
  9
$CECOLOR
 62
   256
  9
$CELTSCALE
 40
1.0
  9
$DISPSILH
 70
     0
  9
$DIMSCALE
 40
0.0
  9
$DIMASZ
 40
3.5
  9
$DIMEXO
 40
0.0
  9
$DIMDLI
 40
0.38
  9
$DIMRND
 40
0.0
  9
$DIMDLE
 40
0.0
  9
$DIMEXE
 40
1.5
  9
$DIMTP
 40
0.0
  9
$DIMTM
 40
0.0
  9
$DIMTXT
 40
3.5
  9
$DIMCEN
 40
0.09
  9
$DIMTSZ
 40
0.0
  9
$DIMTOL
 70
     0
  9
$DIMLIM
 70
     0
  9
$DIMTIH
 70
     0
  9
$DIMTOH
 70
     0
  9
$DIMSE1
 70
     0
  9
$DIMSE2
 70
     0
  9
$DIMTAD
 70
     1
  9
$DIMZIN
 70
     8
  9
$DIMBLK
  1

  9
$DIMASO
 70
     1
  9
$DIMSHO
 70
     1
  9
$DIMPOST
  1

  9
$DIMAPOST
  1

  9
$DIMALT
 70
     0
  9
$DIMALTD
 70
     2
  9
$DIMALTF
 40
25.4
  9
$DIMLFAC
 40
1.0
  9
$DIMTOFL
 70
     0
  9
$DIMTVP
 40
0.0
  9
$DIMTIX
 70
     0
  9
$DIMSOXD
 70
     0
  9
$DIMSAH
 70
     0
  9
$DIMBLK1
  1

  9
$DIMBLK2
  1

  9
$DIMSTYLE
  2
\M+18352\M+18373\M+1815B - ISO-25
  9
$DIMCLRD
 70
   256
  9
$DIMCLRE
 70
   256
  9
$DIMCLRT
 70
   256
  9
$DIMTFAC
 40
1.0
  9
$DIMGAP
 40
2.299999999999998
  9
$DIMJUST
 70
     0
  9
$DIMSD1
 70
     0
  9
$DIMSD2
 70
     0
  9
$DIMTOLJ
 70
     1
  9
$DIMTZIN
 70
     8
  9
$DIMALTZ
 70
     0
  9
$DIMALTTZ
 70
     0
  9
$DIMUPT
 70
     0
  9
$DIMDEC
 70
     2
  9
$DIMTDEC
 70
     2
  9
$DIMALTU
 70
     2
  9
$DIMALTTD
 70
     2
  9
$DIMTXSTY
  7
simplex
  9
$DIMAUNIT
 70
     0
  9
$DIMADEC
 70
     0
  9
$DIMALTRND
 40
0.0
  9
$DIMAZIN
 70
     0
  9
$DIMDSEP
 70
    46
  9
$DIMATFIT
 70
     3
  9
$DIMFRAC
 70
     0
  9
$DIMLDRBLK
  1

  9
$DIMLUNIT
 70
     2
  9
$DIMLWD
 70
    -1
  9
$DIMLWE
 70
    -1
  9
$DIMTMOVE
 70
     0
  9
$LUNITS
 70
     2
  9
$LUPREC
 70
     4
  9
$SKETCHINC
 40
1.0
  9
$FILLETRAD
 40
1.5
  9
$AUNITS
 70
     0
  9
$AUPREC
 70
     0
  9
$MENU
  1
.
  9
$ELEVATION
 40
0.0
  9
$PELEVATION
 40
0.0
  9
$THICKNESS
 40
0.0
  9
$LIMCHECK
 70
     0
  9
$CHAMFERA
 40
10.0
  9
$CHAMFERB
 40
10.0
  9
$CHAMFERC
 40
20.0
  9
$CHAMFERD
 40
0.0
  9
$SKPOLY
 70
     0
  9
$TDCREATE
 40
2455489.391063368
  9
$TDUCREATE
 40
2455489.057730035
  9
$TDUPDATE
 40
2458416.617573426
  9
$TDUUPDATE
 40
2458416.284240093
  9
$TDINDWG
 40
1.9783812037
  9
$TDUSRTIMER
 40
1.9783294907
  9
$USRTIMER
 70
     1
  9
$ANGBASE
 50
0.0
  9
$ANGDIR
 70
     0
  9
$PDMODE
 70
     0
  9
$PDSIZE
 40
0.0
  9
$PLINEWID
 40
0.0
  9
$SPLFRAME
 70
     0
  9
$SPLINETYPE
 70
     6
  9
$SPLINESEGS
 70
     8
  9
$HANDSEED
  5
602E1
  9
$SURFTAB1
 70
     6
  9
$SURFTAB2
 70
     6
  9
$SURFTYPE
 70
     6
  9
$SURFU
 70
     6
  9
$SURFV
 70
     6
  9
$UCSBASE
  2

  9
$UCSNAME
  2

  9
$UCSORG
 10
0.0
 20
0.0
 30
0.0
  9
$UCSXDIR
 10
1.0
 20
0.0
 30
0.0
  9
$UCSYDIR
 10
0.0
 20
1.0
 30
0.0
  9
$UCSORTHOREF
  2

  9
$UCSORTHOVIEW
 70
     0
  9
$UCSORGTOP
 10
0.0
 20
0.0
 30
0.0
  9
$UCSORGBOTTOM
 10
0.0
 20
0.0
 30
0.0
  9
$UCSORGLEFT
 10
0.0
 20
0.0
 30
0.0
  9
$UCSORGRIGHT
 10
0.0
 20
0.0
 30
0.0
  9
$UCSORGFRONT
 10
0.0
 20
0.0
 30
0.0
  9
$UCSORGBACK
 10
0.0
 20
0.0
 30
0.0
  9
$PUCSBASE
  2

  9
$PUCSNAME
  2

  9
$PUCSORG
 10
0.0
 20
0.0
 30
0.0
  9
$PUCSXDIR
 10
1.0
 20
0.0
 30
0.0
  9
$PUCSYDIR
 10
0.0
 20
1.0
 30
0.0
  9
$PUCSORTHOREF
  2

  9
$PUCSORTHOVIEW
 70
     0
  9
$PUCSORGTOP
 10
0.0
 20
0.0
 30
0.0
  9
$PUCSORGBOTTOM
 10
0.0
 20
0.0
 30
0.0
  9
$PUCSORGLEFT
 10
0.0
 20
0.0
 30
0.0
  9
$PUCSORGRIGHT
 10
0.0
 20
0.0
 30
0.0
  9
$PUCSORGFRONT
 10
0.0
 20
0.0
 30
0.0
  9
$PUCSORGBACK
 10
0.0
 20
0.0
 30
0.0
  9
$USERI1
 70
     0
  9
$USERI2
 70
     0
  9
$USERI3
 70
     0
  9
$USERI4
 70
     0
  9
$USERI5
 70
     0
  9
$USERR1
 40
0.0
  9
$USERR2
 40
0.0
  9
$USERR3
 40
0.0
  9
$USERR4
 40
0.0
  9
$USERR5
 40
0.0
  9
$WORLDVIEW
 70
     1
  9
$SHADEDGE
 70
     3
  9
$SHADEDIF
 70
    70
  9
$TILEMODE
 70
     1
  9
$MAXACTVP
 70
    64
  9
$PINSBASE
 10
0.0
 20
0.0
 30
0.0
  9
$PLIMCHECK
 70
     0
  9
$PEXTMIN
 10
26.66999878883364
 20
20.31999878883365
 30
0.0
  9
$PEXTMAX
 10
240.0299890995025
 20
182.8799890995025
 30
0.0
  9
$PLIMMIN
 10
-6.350006103515625
 20
-6.349999904632567
  9
$PLIMMAX
 10
273.0499877929688
 20
209.5499939918518
  9
$UNITMODE
 70
     0
  9
$VISRETAIN
 70
     1
  9
$PLINEGEN
 70
     0
  9
$PSLTSCALE
 70
     1
  9
$TREEDEPTH
 70
  3020
  9
$CMLSTYLE
  2
Standard
  9
$CMLJUST
 70
     0
  9
$CMLSCALE
 40
20.0
  9
$PROXYGRAPHICS
 70
     1
  9
$MEASUREMENT
 70
     1
  9
$CELWEIGHT
370
    -1
  9
$ENDCAPS
280
     0
  9
$JOINSTYLE
280
     0
  9
$LWDISPLAY
290
     0
  9
$INSUNITS
 70
     4
  9
$HYPERLINKBASE
  1

  9
$STYLESHEET
  1

  9
$XEDIT
290
     1
  9
$CEPSNTYPE
380
     0
  9
$PSTYLEMODE
290
     1
  9
$FINGERPRINTGUID
  2
{601DDA01-5B13-4A4C-8F56-1333B78D855B}
  9
$VERSIONGUID
  2
{13935ABF-8354-4CA0-9F87-B9335B528DF9}
  9
$EXTNAMES
290
     1
  9
$PSVPSCALE
 40
0.0
  9
$OLESTARTUP
290
     0
  0
ENDSEC
  0
SECTION
  2
CLASSES
  0
CLASS
  1
ACDBDICTIONARYWDFLT
  2
AcDbDictionaryWithDefault
  3
ObjectDBX Classes
 90
        0
280
     0
281
     0
  0
CLASS
  1
ACDBPLACEHOLDER
  2
AcDbPlaceHolder
  3
ObjectDBX Classes
 90
        0
280
     0
281
     0
  0
CLASS
  1
LAYOUT
  2
AcDbLayout
  3
ObjectDBX Classes
 90
        0
280
     0
281
     0
  0
CLASS
  1
DICTIONARYVAR
  2
AcDbDictionaryVar
  3
ObjectDBX Classes
 90
        0
280
     0
281
     0
  0
CLASS
  1
TABLESTYLE
  2
AcDbTableStyle
  3
ObjectDBX Classes
 90
     2047
280
     0
281
     0
  0
CLASS
  1
SORTENTSTABLE
  2
AcDbSortentsTable
  3
ObjectDBX Classes
 90
        0
280
     0
281
     0
  0
CLASS
  1
DIMASSOC
  2
AcDbDimAssoc
  3
"AcDbDimAssoc|Product Desc:     AcDim ARX App For Dimension|Company:          Autodesk, Inc.|WEB Address:      www.autodesk.com"
 90
        0
280
     0
281
     0
  0
CLASS
  1
ACAD_EVALUATION_GRAPH
  2
AcDbEvalGraph
  3
ObjectDBX Classes
 90
    33921
280
     0
281
     0
  0
CLASS
  1
ACAECUSTOBJ
  2
AcAeEditorObj
  3
AcAeEditorObj
 90
    33792
280
     0
281
     0
  0
CLASS
  1
ACDB_DYNAMICBLOCKPURGEPREVENTER_VERSION
  2
AcDbDynamicBlockPurgePreventer
  3
ObjectDBX Classes
 90
    33921
280
     0
281
     0
  0
ENDSEC
  0
SECTION
  2
TABLES
  0
TABLE
  2
VPORT
  5
8
330
0
100
AcDbSymbolTable
 70
    20
  0
VPORT
  5
602D2
330
8
100
AcDbSymbolTableRecord
100
AcDbViewportTableRecord
  2
*Active
 70
     0
 10
0.0
 20
0.0
 11
1.0
 21
1.0
 12
35.38578112508458
 22
4.635366745894714
 13
0.0
 23
0.0
 14
10.0
 24
10.0
 15
10.0
 25
10.0
 16
0.0
 26
0.0
 36
1.0
 17
0.0
 27
0.0
 37
0.0
 40
455.8588606382935
 41
1.381443298969072
 42
50.0
 43
0.0
 44
0.0
 50
0.0
 51
0.0
 71
     0
 72
  1000
 73
     1
 74
     1
 75
     0
 76
     0
 77
     0
 78
     0
281
     0
 65
     1
110
0.0
120
0.0
130
0.0
111
1.0
121
0.0
131
0.0
112
0.0
122
1.0
132
0.0
 79
     0
146
0.0
  0
ENDTAB
  0
TABLE
  2
LTYPE
  5
5
330
0
100
AcDbSymbolTable
 70
     4
  0
LTYPE
  5
14
330
5
100
AcDbSymbolTableRecord
100
AcDbLinetypeTableRecord
  2
ByBlock
 70
     0
  3

 72
    65
 73
     0
 40
0.0
  0
LTYPE
  5
15
330
5
100
AcDbSymbolTableRecord
100
AcDbLinetypeTableRecord
  2
ByLayer
 70
     0
  3

 72
    65
 73
     0
 40
0.0
  0
LTYPE
  5
16
330
5
100
AcDbSymbolTableRecord
100
AcDbLinetypeTableRecord
  2
Continuous
 70
     0
  3
Solid line
 72
    65
 73
     0
 40
0.0
  0
LTYPE
  5
D7
330
5
100
AcDbSymbolTableRecord
100
AcDbLinetypeTableRecord
  2
HIDDEN
 70
     0
  3
Hidden __ __ __ __ __ __ __ __ __ __ __ __ __ _
 72
    65
 73
     2
 40
9.524999999999996
 49
6.349999999999997
 74
     0
 49
-3.174999999999998
 74
     0
  0
LTYPE
  5
D9
330
5
100
AcDbSymbolTableRecord
100
AcDbLinetypeTableRecord
  2
CENTER
 70
     0
  3
Center ____ _ ____ _ ____ _ ____ _ ____ _ ____
 72
    65
 73
     4
 40
50.8
 49
31.75
 74
     0
 49
-6.349999999999997
 74
     0
 49
6.349999999999997
 74
     0
 49
-6.349999999999997
 74
     0
  0
LTYPE
  5
35815
330
5
100
AcDbSymbolTableRecord
100
AcDbLinetypeTableRecord
  2
PHANTOM
 70
     0
  3
_____ _ _ _____ _ _ _____ _ _ _____
 72
    65
 73
     6
 40
0.8
 49
0.45
 74
     0
 49
-0.05
 74
     0
 49
0.1
 74
     0
 49
-0.05
 74
     0
 49
0.1
 74
     0
 49
-0.05
 74
     0
  0
ENDTAB
  0
TABLE
  2
LAYER
  5
2
102
{ACAD_XDICTIONARY
360
E2
102
}
330
0
100
AcDbSymbolTable
 70
    31
  0
LAYER
  5
10
330
2
100
AcDbSymbolTableRecord
100
AcDbLayerTableRecord
  2
0
 70
     0
 62
     7
  6
Continuous
370
    -3
390
F
  0
LAYER
  5
D1
330
2
100
AcDbSymbolTableRecord
100
AcDbLayerTableRecord
  2
1
 70
     0
 62
     4
  6
Continuous
370
    50
390
F
1001
AcAecLayerStandard
1000

1000

  0
LAYER
  5
D3
330
2
100
AcDbSymbolTableRecord
100
AcDbLayerTableRecord
  2
2
 70
     0
 62
     7
  6
Continuous
370
    25
390
F
1001
AcAecLayerStandard
1000

1000

  0
LAYER
  5
D4
330
2
100
AcDbSymbolTableRecord
100
AcDbLayerTableRecord
  2
3
 70
     0
 62
     1
  6
HIDDEN
370
    35
390
F
1001
AcAecLayerStandard
1000

1000

  0
LAYER
  5
D8
330
2
100
AcDbSymbolTableRecord
100
AcDbLayerTableRecord
  2
4
 70
     0
 62
     2
  6
CENTER
370
    25
390
F
1001
AcAecLayerStandard
1000

1000

  0
LAYER
  5
DA
330
2
100
AcDbSymbolTableRecord
100
AcDbLayerTableRecord
  2
6
 70
     0
 62
     5
  6
Continuous
370
    35
390
F
1001
AcAecLayerStandard
1000

1000

  0
LAYER
  5
DB
330
2
100
AcDbSymbolTableRecord
100
AcDbLayerTableRecord
  2
cut
 70
     0
 62
     1
  6
Continuous
370
    25
390
F
1001
AcAecLayerStandard
1000

1000

  0
LAYER
  5
DC
330
2
100
AcDbSymbolTableRecord
100
AcDbLayerTableRecord
  2
nocut
 70
     0
 62
     7
  6
Continuous
370
    25
390
F
1001
AcAecLayerStandard
1000

1000

  0
LAYER
  5
DD
330
2
100
AcDbSymbolTableRecord
100
AcDbLayerTableRecord
  2
sk1
 70
     0
 62
     4
  6
Continuous
370
    50
390
F
1001
AcAecLayerStandard
1000

1000

  0
LAYER
  5
DE
330
2
100
AcDbSymbolTableRecord
100
AcDbLayerTableRecord
  2
sk2
 70
     0
 62
     7
  6
Continuous
370
    25
390
F
1001
AcAecLayerStandard
1000

1000

  0
LAYER
  5
DF
330
2
100
AcDbSymbolTableRecord
100
AcDbLayerTableRecord
  2
sk3
 70
     0
 62
     1
  6
HIDDEN
370
    35
390
F
1001
AcAecLayerStandard
1000

1000

  0
LAYER
  5
E0
330
2
100
AcDbSymbolTableRecord
100
AcDbLayerTableRecord
  2
sk4
 70
     0
 62
     2
  6
CENTER
370
    25
390
F
1001
AcAecLayerStandard
1000

1000

  0
LAYER
  5
E1
330
2
100
AcDbSymbolTableRecord
100
AcDbLayerTableRecord
  2
sk6
 70
     0
 62
     5
  6
Continuous
370
    35
390
F
1001
AcAecLayerStandard
1000

1000

  0
LAYER
  5
31B6
330
2
100
AcDbSymbolTableRecord
100
AcDbLayerTableRecord
  2
Defpoints
 70
     0
 62
     7
  6
Continuous
290
     0
370
    -3
390
F
  0
ENDTAB
  0
TABLE
  2
STYLE
  5
3
330
0
100
AcDbSymbolTable
 70
    11
  0
STYLE
  5
11
330
3
100
AcDbSymbolTableRecord
100
AcDbTextStyleTableRecord
  2
Standard
 70
     0
 40
0.0
 41
1.0
 50
0.0
 71
     0
 42
2.5
  3
txt.shx
  4
@extfont2.shx
  0
STYLE
  5
D6
330
3
100
AcDbSymbolTableRecord
100
AcDbTextStyleTableRecord
  2

 70
     1
 40
0.0
 41
1.0
 50
0.0
 71
     0
 42
2.5
  3
ltypeshp.shx
  4

  0
STYLE
  5
24A
330
3
100
AcDbSymbolTableRecord
100
AcDbTextStyleTableRecord
  2
simplex
 70
     0
 40
3.5
 41
1.0
 50
0.0
 71
     0
 42
3.5
  3
txt.shx
  4

  0
STYLE
  5
69E
330
3
100
AcDbSymbolTableRecord
100
AcDbTextStyleTableRecord
  2
MX_NOTE_STANDARD
 70
     0
 40
0.0
 41
1.0
 50
0.0
 71
     0
 42
4.2
  3
txt.shx
  4
extfont.shx
  0
STYLE
  5
3524
330
3
100
AcDbSymbolTableRecord
100
AcDbTextStyleTableRecord
  2
TEXTSTYLE_2
 70
     0
 40
0.0
 41
0.775
 50
0.0
 71
     0
 42
0.2
  3
gdt
  4

  0
STYLE
  5
3525
330
3
100
AcDbSymbolTableRecord
100
AcDbTextStyleTableRecord
  2
TEXTSTYLE_3
 70
     0
 40
0.0
 41
0.75
 50
0.0
 71
     0
 42
0.2
  3
txt
  4

  0
STYLE
  5
3526
330
3
100
AcDbSymbolTableRecord
100
AcDbTextStyleTableRecord
  2
TEXTSTYLE_13
 70
     0
 40
0.0
 41
1.0
 50
0.0
 71
     0
 42
0.2
  3
txt
  4

  0
STYLE
  5
519A
330
3
100
AcDbSymbolTableRecord
100
AcDbTextStyleTableRecord
  2
TEXTSTYLE_14
 70
     0
 40
0.0
 41
1.0
 50
0.0
 71
     0
 42
0.2
  3
txt
  4

  0
STYLE
  5
6F72
330
3
100
AcDbSymbolTableRecord
100
AcDbTextStyleTableRecord
  2
TEXTSTYLE_4
 70
     0
 40
0.0
 41
0.75
 50
0.0
 71
     0
 42
0.2
  3
txt
  4

  0
STYLE
  5
6F73
330
3
100
AcDbSymbolTableRecord
100
AcDbTextStyleTableRecord
  2
TEXTSTYLE_17
 70
     0
 40
0.0
 41
1.0
 50
0.0
 71
     0
 42
0.2
  3
txt
  4

  0
STYLE
  5
FE12
330
3
100
AcDbSymbolTableRecord
100
AcDbTextStyleTableRecord
  2
TEXTSTYLE_12
 70
     0
 40
0.0
 41
1.0
 50
0.0
 71
     0
 42
0.2
  3
txt
  4

  0
ENDTAB
  0
TABLE
  2
VIEW
  5
6
330
0
100
AcDbSymbolTable
 70
     0
  0
ENDTAB
  0
TABLE
  2
UCS
  5
7
330
0
100
AcDbSymbolTable
 70
     0
  0
ENDTAB
  0
TABLE
  2
APPID
  5
9
330
0
100
AcDbSymbolTable
 70
    11
  0
APPID
  5
12
330
9
100
AcDbSymbolTableRecord
100
AcDbRegAppTableRecord
  2
ACAD
 70
     0
  0
APPID
  5
D2
330
9
100
AcDbSymbolTableRecord
100
AcDbRegAppTableRecord
  2
AcAecLayerStandard
 70
     0
  0
APPID
  5
E6
330
9
100
AcDbSymbolTableRecord
100
AcDbRegAppTableRecord
  2
ACAD_DSTYLE_DIMTEXT_FILL
 70
     0
  0
APPID
  5
4C84
330
9
100
AcDbSymbolTableRecord
100
AcDbRegAppTableRecord
  2
ACAD_EXEMPT_FROM_CAD_STANDARDS
 70
     0
  0
APPID
  5
3493E
330
9
100
AcDbSymbolTableRecord
100
AcDbRegAppTableRecord
  2
DCO15
 70
     0
  0
APPID
  5
4366A
330
9
100
AcDbSymbolTableRecord
100
AcDbRegAppTableRecord
  2
ACAUTHENVIRON
 70
     0
  0
APPID
  5
4366D
330
9
100
AcDbSymbolTableRecord
100
AcDbRegAppTableRecord
  2
AcDbDynamicBlockTrueName
 70
     0
  0
APPID
  5
4366E
330
9
100
AcDbSymbolTableRecord
100
AcDbRegAppTableRecord
  2
AcDbDynamicBlockGUID
 70
     0
  0
APPID
  5
43670
330
9
100
AcDbSymbolTableRecord
100
AcDbRegAppTableRecord
  2
AcDbBlockRepETag
 70
     0
  0
APPID
  5
45C9F
330
9
100
AcDbSymbolTableRecord
100
AcDbRegAppTableRecord
  2
ACAD_DSTYLE_DIMEXT_ENABLED
 70
     0
  0
APPID
  5
45CA0
330
9
100
AcDbSymbolTableRecord
100
AcDbRegAppTableRecord
  2
ACAD_DSTYLE_DIMEXT_LENGTH
 70
     0
  0
ENDTAB
  0
TABLE
  2
DIMSTYLE
  5
A
330
0
100
AcDbSymbolTable
 70
    10
100
AcDbDimStyleTable
 71
     2
340
1BF
340
27
  0
DIMSTYLE
105
27
330
A
100
AcDbSymbolTableRecord
100
AcDbDimStyleTableRecord
  2
ISO-25
 70
     0
 41
2.5
 42
0.625
 43
3.75
 44
1.25
 73
     0
 74
     0
 77
     1
 78
     8
140
2.5
141
2.5
143
0.03937007874016
147
0.625
171
     3
172
     1
271
     2
272
     2
274
     3
278
    44
283
     0
284
     8
340
11
  0
DIMSTYLE
105
1BF
102
{ACAD_REACTORS
330
600E2
330
600C8
330
600AE
330
600FB
330
60034
330
6001C
330
60064
330
6004C
330
6007C
330
60094
102
}
330
A
100
AcDbSymbolTableRecord
100
AcDbDimStyleTableRecord
  2
\M+18352\M+18373\M+1815B - ISO-25
 70
     0
 40
0.0
 41
3.5
 42
0.0
 44
1.5
 73
     0
 74
     0
 77
     1
 78
     8
140
3.5
147
2.299999999999998
176
   256
177
   256
178
   256
271
     2
272
     2
284
     8
340
24A
371
    -1
372
    -1
  0
DIMSTYLE
105
69F
330
A
100
AcDbSymbolTableRecord
100
AcDbDimStyleTableRecord
  2
MXDIMSTYLE
 70
     0
 41
2.5
 42
0.5
 43
3.75
 44
1.5
 73
     0
 74
     0
 77
     1
 78
     8
140
4.2
141
2.5
143
0.03937
147
1.0
171
     4
172
     1
173
     1
271
     2
272
     2
274
     4
283
     0
288
     1
340
69E
341
697
343
697
344
697
  0
DIMSTYLE
105
3527
330
A
100
AcDbSymbolTableRecord
100
AcDbDimStyleTableRecord
  2
STANDARD
 70
     0
 41
3.0
 47
0.001
 48
0.001
 71
     1
 73
     0
 74
     0
 77
     1
 78
     8
140
4.0
271
     3
272
     3
284
     8
340
11
341
34B1
342
34B1
343
34B1
344
34B1
  0
DIMSTYLE
105
3528
330
A
100
AcDbSymbolTableRecord
100
AcDbDimStyleTableRecord
  2
DIMSTYLE_1
 70
     0
 41
3.0
 73
     0
 74
     0
 77
     1
 78
     8
140
4.0
271
     3
272
     3
284
     8
340
11
341
34B1
342
34B1
343
34B1
344
34B1
  0
DIMSTYLE
105
3529
330
A
100
AcDbSymbolTableRecord
100
AcDbDimStyleTableRecord
  2
DIMSTYLE_2
 70
     0
 41
3.0
 47
0.001
 48
0.001
 73
     0
 74
     0
 77
     1
 78
     8
140
4.0
271
     3
272
     3
284
     8
340
11
341
34B1
342
34B1
343
34B1
344
34B1
  0
DIMSTYLE
105
352A
330
A
100
AcDbSymbolTableRecord
100
AcDbDimStyleTableRecord
  2
DIMSTYLE_3
 70
     0
 41
3.0
 47
-0.1
 48
0.3
 71
     1
 73
     0
 74
     0
 77
     1
 78
     8
140
4.0
146
0.5
271
     3
272
     3
284
     8
340
11
341
34B1
342
34B1
343
34B1
344
34B1
  0
DIMSTYLE
105
352B
330
A
100
AcDbSymbolTableRecord
100
AcDbDimStyleTableRecord
  2
DIMSTYLE_4
 70
     0
 41
3.0
 47
0.1
 48
0.1
 71
     1
 73
     0
 74
     0
 77
     1
 78
     8
140
4.0
271
     3
272
     3
284
     8
340
11
341
34B1
342
34B1
343
34B1
344
34B1
  0
DIMSTYLE
105
27245
330
A
100
AcDbSymbolTableRecord
100
AcDbDimStyleTableRecord
  2
DIMSTYLE_5
 70
     0
 41
3.0
 47
0.001
 48
0.001
 73
     0
 74
     0
 77
     1
 78
     8
140
4.0
271
     3
272
     3
284
     8
340
11
341
34B1
342
34B1
343
34B1
344
34B1
  0
DIMSTYLE
105
4771C
330
A
100
AcDbSymbolTableRecord
100
AcDbDimStyleTableRecord
  2
\M+18352\M+18373\M+1815B_-_ISO-25
 70
     0
 40
0.0
 41
3.5
 42
0.0
 44
1.5
 73
     0
 74
     0
 77
     1
 78
     8
140
3.5
147
2.299999999999998
176
   256
177
   256
178
   256
279
     2
284
     8
285
     8
286
     8
340
24A
  0
ENDTAB
  0
TABLE
  2
BLOCK_RECORD
  5
1
330
0
100
AcDbSymbolTable
 70
    81
  0
BLOCK_RECORD
  5
1F
102
{ACAD_XDICTIONARY
360
31EE
102
}
330
1
100
AcDbSymbolTableRecord
100
AcDbBlockTableRecord
  2
*Model_Space
340
22
  0
BLOCK_RECORD
  5
50
330
1
100
AcDbSymbolTableRecord
100
AcDbBlockTableRecord
  2
*Paper_Space
340
51
  0
BLOCK_RECORD
  5
55
330
1
100
AcDbSymbolTableRecord
100
AcDbBlockTableRecord
  2
*Paper_Space0
340
56
  0
BLOCK_RECORD
  5
680
102
{ACAD_XDICTIONARY
360
43668
102
}
330
1
100
AcDbSymbolTableRecord
100
AcDbBlockTableRecord
  2
zero block
340
0
102
{BLKREFS
331
68C
102
}
1001
ACAD
1000
DesignCenter Data
1002
{
1070
     1
1070
     4
1002
}
1001
AcDbDynamicBlockGUID
1000
{A89DF4EB-B2CB-439E-AC69-1EAC9F242D1C}
1001
AcDbBlockRepETag
1070
     1
1071
        7
  0
BLOCK_RECORD
  5
697
330
1
100
AcDbSymbolTableRecord
100
AcDbBlockTableRecord
  2
_OPEN30
340
0
  0
BLOCK_RECORD
  5
32F1
330
1
100
AcDbSymbolTableRecord
100
AcDbBlockTableRecord
  2
_None
340
0
102
{BLKREFS
331
5CE0B
331
5F1BF
102
}
  0
BLOCK_RECORD
  5
34B1
330
1
100
AcDbSymbolTableRecord
100
AcDbBlockTableRecord
  2
_OPEN
340
0
102
{BLKREFS
331
5CDDE
331
5CDDF
331
5CDE8
331
5CDE9
331
5CDF2
331
5CDF3
331
5CDFC
331
5CDFD
331
5CE03
331
5CE0C
331
5EDB1
331
5EDB8
331
5EDC0
331
5EDC1
331
5EDC9
331
5EDCA
331
5EDD2
331
5EDD3
331
5EDDB
331
5EDDC
331
5F1B0
331
5F1B1
331
5F1B7
331
5F1C0
331
5F192
331
5F193
331
5F19C
331
5F19D
331
5F1A6
331
5F1A7
331
5F61C
331
5F61D
331
5F625
331
5F626
331
5F62E
331
5F62F
331
5F637
331
5F638
331
5F64F
331
5F657
102
}
  0
BLOCK_RECORD
  5
45B07
330
1
100
AcDbSymbolTableRecord
100
AcDbBlockTableRecord
  2
*D7
340
0
  0
BLOCK_RECORD
  5
45B1F
330
1
100
AcDbSymbolTableRecord
100
AcDbBlockTableRecord
  2
*D8
340
0
  0
BLOCK_RECORD
  5
6001D
330
1
100
AcDbSymbolTableRecord
100
AcDbBlockTableRecord
  2
*D71
340
0
  0
BLOCK_RECORD
  5
60035
330
1
100
AcDbSymbolTableRecord
100
AcDbBlockTableRecord
  2
*D72
340
0
  0
BLOCK_RECORD
  5
6004D
330
1
100
AcDbSymbolTableRecord
100
AcDbBlockTableRecord
  2
*D73
340
0
  0
BLOCK_RECORD
  5
60065
330
1
100
AcDbSymbolTableRecord
100
AcDbBlockTableRecord
  2
*D74
340
0
  0
BLOCK_RECORD
  5
6007D
330
1
100
AcDbSymbolTableRecord
100
AcDbBlockTableRecord
  2
*D75
340
0
  0
BLOCK_RECORD
  5
60095
330
1
100
AcDbSymbolTableRecord
100
AcDbBlockTableRecord
  2
*D76
340
0
  0
BLOCK_RECORD
  5
600AF
330
1
100
AcDbSymbolTableRecord
100
AcDbBlockTableRecord
  2
*D77
340
0
  0
BLOCK_RECORD
  5
600C9
330
1
100
AcDbSymbolTableRecord
100
AcDbBlockTableRecord
  2
*D78
340
0
  0
BLOCK_RECORD
  5
600E3
330
1
100
AcDbSymbolTableRecord
100
AcDbBlockTableRecord
  2
*D79
340
0
  0
BLOCK_RECORD
  5
600FC
330
1
100
AcDbSymbolTableRecord
100
AcDbBlockTableRecord
  2
*D80
340
0
  0
ENDTAB
  0
ENDSEC
  0
SECTION
  2
BLOCKS
  0
BLOCK
  5
20
330
1F
100
AcDbEntity
  8
0
100
AcDbBlockBegin
  2
*Model_Space
 70
     0
 10
0.0
 20
0.0
 30
0.0
  3
*Model_Space
  1

  0
ENDBLK
  5
21
330
1F
100
AcDbEntity
  8
0
100
AcDbBlockEnd
  0
BLOCK
  5
52
330
50
100
AcDbEntity
 67
     1
  8
0
100
AcDbBlockBegin
  2
*Paper_Space
 70
     0
 10
0.0
 20
0.0
 30
0.0
  3
*Paper_Space
  1

  0
ENDBLK
  5
53
330
50
100
AcDbEntity
 67
     1
  8
0
100
AcDbBlockEnd
  0
BLOCK
  5
57
330
55
100
AcDbEntity
 67
     1
  8
0
100
AcDbBlockBegin
  2
*Paper_Space0
 70
     0
 10
0.0
 20
0.0
 30
0.0
  3
*Paper_Space0
  1

  0
VIEWPORT
  5
71
102
{ACAD_XDICTIONARY
360
602DD
102
}
330
55
100
AcDbEntity
 67
     1
  8
0
100
AcDbViewport
 10
150.1652135264906
 20
101.599997546291
 30
0.0
 40
339.1973820494347
 41
164.5360435314421
 68
     0
 69
     0
 12
150.1652135264906
 22
101.599997546291
 13
0.0
 23
0.0
 14
10.0
 24
10.0
 15
10.0
 25
10.0
 16
0.0
 26
0.0
 36
1.0
 17
0.0
 27
0.0
 37
0.0
 42
50.0
 43
0.0
 44
0.0
 45
164.5360435314421
 50
0.0
 51
0.0
 72
  1000
 90
    32864
  1

281
     0
 71
     1
 74
     0
110
0.0
120
0.0
130
0.0
111
1.0
121
0.0
131
0.0
112
0.0
122
1.0
132
0.0
 79
     0
146
0.0
  0
VIEWPORT
  5
73
102
{ACAD_XDICTIONARY
360
602DF
102
}
330
55
100
AcDbEntity
 67
     1
  8
0
100
AcDbViewport
 10
133.3499939441681
 20
101.5999939441681
 30
0.0
 40
213.3599903106689
 41
162.5599903106689
 68
     0
 69
     0
 12
210.0
 22
148.5
 13
0.0
 23
0.0
 14
10.0
 24
10.0
 15
10.0
 25
10.0
 16
0.0
 26
0.0
 36
1.0
 17
0.0
 27
0.0
 37
0.0
 42
50.0
 43
0.0
 44
0.0
 45
324.0677920111345
 50
0.0
 51
0.0
 72
   100
 90
    32864
  1

281
     0
 71
     1
 74
     0
110
0.0
120
0.0
130
0.0
111
1.0
121
0.0
131
0.0
112
0.0
122
1.0
132
0.0
 79
     0
146
0.0
  0
ENDBLK
  5
58
330
55
100
AcDbEntity
 67
     1
  8
0
100
AcDbBlockEnd
  0
BLOCK
  5
68A
330
680
100
AcDbEntity
  8
0
100
AcDbBlockBegin
  2
zero block
 70
     0
 10
0.0
 20
0.0
 30
0.0
  3
zero block
  1

  0
HATCH
  5
43661
330
680
100
AcDbEntity
  8
0
 62
     7
100
AcDbHatch
 10
0.0
 20
0.0
 30
0.0
210
0.0
220
0.0
230
1.0
  2
SOLID
 70
     1
 71
     0
 91
        2
 92
        7
 72
     1
 73
     1
 93
        3
 10
0.0
 20
0.9999999999999875
 42
0.4142135623730915
 10
-1.0
 20
0.0
 42
0.0
 10
0.0
 20
0.0
 42
0.0
 97
        0
 92
        7
 72
     1
 73
     1
 93
        3
 10
1.000000000000007
 20
0.0
 42
0.0
 10
0.0
 20
0.0
 42
0.0
 10
0.0
 20
-1.0
 42
0.4142135623730974
 97
        0
 75
     0
 76
     1
 47
0.0090601366782909
 98
        2
 10
-0.380591363650975
 20
0.4885804701532896
 10
0.4350764810977559
 20
-0.4536738423704725
1001
AcDbBlockRepETag
1070
     1
1071
        0
1005
43661
  0
LINE
  5
43662
330
680
100
AcDbEntity
  8
0
 62
     7
 48
0.2
100
AcDbLine
 10
-1.0
 20
0.0
 30
0.0
 11
1.000000000000007
 21
0.0
 31
0.0
1001
AcDbBlockRepETag
1070
     1
1071
        1
1005
43662
  0
LINE
  5
43663
330
680
100
AcDbEntity
  8
0
 62
     7
 48
0.2
100
AcDbLine
 10
0.0
 20
-1.0
 30
0.0
 11
0.0
 21
0.9999999999999875
 31
0.0
1001
AcDbBlockRepETag
1070
     1
1071
        2
1005
43663
  0
ARC
  5
43664
330
680
100
AcDbEntity
  8
0
 62
     7
 48
0.2
100
AcDbCircle
 10
0.0
 20
0.0
 30
0.0
 40
1.0
100
AcDbArc
 50
270.0
 51
0.0
1001
AcDbBlockRepETag
1070
     1
1071
        3
1005
43664
  0
ARC
  5
43665
330
680
100
AcDbEntity
  8
0
 62
     7
 48
0.2
100
AcDbCircle
 10
0.0
 20
0.0
 30
0.0
 40
1.0
100
AcDbArc
 50
0.0
 51
90.0
1001
AcDbBlockRepETag
1070
     1
1071
        4
1005
43665
  0
ARC
  5
43666
330
680
100
AcDbEntity
  8
0
 62
     7
 48
0.2
100
AcDbCircle
 10
0.0
 20
0.0
 30
0.0
 40
1.0
100
AcDbArc
 50
180.0
 51
270.0
1001
AcDbBlockRepETag
1070
     1
1071
        5
1005
43666
  0
ARC
  5
43667
330
680
100
AcDbEntity
  8
0
 62
     7
 48
0.2
100
AcDbCircle
 10
0.0
 20
0.0
 30
0.0
 40
1.0
100
AcDbArc
 50
90.0
 51
180.0
1001
AcDbBlockRepETag
1070
     1
1071
        6
1005
43667
  0
ENDBLK
  5
68B
330
680
100
AcDbEntity
  8
0
100
AcDbBlockEnd
  0
BLOCK
  5
698
330
697
100
AcDbEntity
  8
0
  6
ByBlock
 62
     0
370
    -2
100
AcDbBlockBegin
  2
_OPEN30
 70
     2
 10
0.0
 20
0.0
 30
0.0
  3
_OPEN30
  1

  0
LINE
  5
699
330
697
100
AcDbEntity
  8
0
  6
ByBlock
 62
     0
370
    -2
100
AcDbLine
 10
-1.0
 20
0.267949
 30
0.0
 11
0.0
 21
0.0
 31
0.0
  0
LINE
  5
69A
330
697
100
AcDbEntity
  8
0
  6
ByBlock
 62
     0
370
    -2
100
AcDbLine
 10
0.0
 20
0.0
 30
0.0
 11
-1.0
 21
-0.267949
 31
0.0
  0
LINE
  5
69B
330
697
100
AcDbEntity
  8
0
  6
ByBlock
 62
     0
370
    -2
100
AcDbLine
 10
0.0
 20
0.0
 30
0.0
 11
-1.0
 21
0.0
 31
0.0
  0
ENDBLK
  5
69C
330
697
100
AcDbEntity
  8
0
  6
ByBlock
 62
     0
370
    -2
100
AcDbBlockEnd
  0
BLOCK
  5
32F2
330
32F1
100
AcDbEntity
  8
0
100
AcDbBlockBegin
  2
_None
 70
     0
 10
0.0
 20
0.0
 30
0.0
  3
_None
  1

  0
ENDBLK
  5
32F3
330
32F1
100
AcDbEntity
  8
0
100
AcDbBlockEnd
  0
BLOCK
  5
34B2
330
34B1
100
AcDbEntity
  8
0
100
AcDbBlockBegin
  2
_OPEN
 70
     0
 10
0.0
 20
0.0
 30
0.0
  3
_OPEN
  1

  0
LINE
  5
34B3
330
34B1
100
AcDbEntity
  8
0
  6
ByBlock
 62
     0
100
AcDbLine
 10
0.0
 20
0.0
 30
0.0
 11
-1.0
 21
0.1766666667
 31
0.0
  0
LINE
  5
34B4
330
34B1
100
AcDbEntity
  8
0
  6
ByBlock
 62
     0
100
AcDbLine
 10
-1.0
 20
-0.1766666667
 30
0.0
 11
0.0
 21
0.0
 31
0.0
  0
LINE
  5
34B5
330
34B1
100
AcDbEntity
  8
0
  6
ByBlock
 62
     0
100
AcDbLine
 10
-1.0
 20
0.0
 30
0.0
 11
0.0
 21
0.0
 31
0.0
  0
ENDBLK
  5
34B6
330
34B1
100
AcDbEntity
  8
0
  6
ByBlock
 62
     0
100
AcDbBlockEnd
  0
BLOCK
  5
45B11
330
45B07
100
AcDbEntity
  8
0
100
AcDbBlockBegin
  2
*D7
 70
     1
 10
0.0
 20
0.0
 30
0.0
  3
*D7
  1

  0
LINE
  5
5CCE5
330
45B07
100
AcDbEntity
  8
sk2
100
AcDbLine
 10
-0.0000000000000526
 20
-28.49999999999995
 30
0.0
 11
-0.0000000000000538
 21
-48.51991747839992
 31
0.0
  0
LINE
  5
5CCE6
330
45B07
100
AcDbEntity
  8
sk2
100
AcDbLine
 10
30.99999999999995
 20
-8.099999999999972
 30
0.0
 11
30.99999999999994
 21
-48.51991747839992
 31
0.0
  0
LINE
  5
5CCE7
330
45B07
100
AcDbEntity
  8
sk2
100
AcDbLine
 10
3.499999999999946
 20
-47.01991747839993
 30
0.0
 11
27.49999999999995
 21
-47.01991747839993
 31
0.0
  0
SOLID
  5
5CCE8
330
45B07
100
AcDbEntity
  8
sk2
100
AcDbTrace
 10
3.499999999999946
 20
-46.43658414506659
 30
0.0
 11
3.499999999999946
 21
-47.60325081173324
 31
0.0
 12
-0.0000000000000537
 22
-47.01991747839993
 32
0.0
 13
-0.0000000000000537
 23
-47.01991747839993
 33
0.0
  0
SOLID
  5
5CCE9
330
45B07
100
AcDbEntity
  8
sk2
100
AcDbTrace
 10
27.49999999999995
 20
-46.43658414506659
 30
0.0
 11
27.49999999999995
 21
-47.60325081173324
 31
0.0
 12
30.99999999999994
 22
-47.01991747839993
 32
0.0
 13
30.99999999999994
 23
-47.01991747839993
 33
0.0
  0
MTEXT
  5
5CCEA
330
45B07
100
AcDbEntity
  8
sk2
100
AcDbMText
 10
15.49999999999994
 20
-42.96991747839992
 30
0.0
 40
3.5
 41
0.0
 71
     5
 72
     1
  1
\A1;31
  7
simplex
 73
     1
 44
1.0
1001
ACAD
1000
MTEXTBEGIN
1070
    73
1070
     1
1070
    44
1040
1.0
1070
    74
1070
     0
1000
MTEXTEND
  0
POINT
  5
5CCEB
330
45B07
100
AcDbEntity
  8
Defpoints
 62
     0
100
AcDbPoint
 10
-0.0000000000000526
 20
-28.49999999999995
 30
0.0
  0
POINT
  5
5CCEC
330
45B07
100
AcDbEntity
  8
Defpoints
 62
     0
100
AcDbPoint
 10
30.99999999999995
 20
-8.099999999999972
 30
0.0
  0
POINT
  5
5CCED
330
45B07
100
AcDbEntity
  8
Defpoints
 62
     0
100
AcDbPoint
 10
30.99999999999994
 20
-47.01991747839993
 30
0.0
  0
ENDBLK
  5
45B12
330
45B07
100
AcDbEntity
  8
0
100
AcDbBlockEnd
  0
BLOCK
  5
45B29
330
45B1F
100
AcDbEntity
  8
0
100
AcDbBlockBegin
  2
*D8
 70
     1
 10
0.0
 20
0.0
 30
0.0
  3
*D8
  1

  0
LINE
  5
475A2
330
45B1F
100
AcDbEntity
  8
2
100
AcDbLine
 10
46.67862375679994
 20
31.50000000000006
 30
0.0
 11
83.68825656423609
 21
31.50000000000004
 31
0.0
  0
LINE
  5
475A3
330
45B1F
100
AcDbEntity
  8
2
100
AcDbLine
 10
82.18825656423609
 20
-31.49999999999995
 30
0.0
 11
82.18825656423609
 21
28.00000000000004
 31
0.0
  0
SOLID
  5
475A4
330
45B1F
100
AcDbEntity
  8
2
100
AcDbTrace
 10
81.60492323090277
 20
28.00000000000004
 30
0.0
 11
82.77158989756944
 21
28.00000000000004
 31
0.0
 12
82.18825656423609
 22
31.50000000000004
 32
0.0
 13
82.18825656423609
 23
31.50000000000004
 33
0.0
  0
MTEXT
  5
475A5
330
45B1F
100
AcDbEntity
  8
2
100
AcDbMText
 10
78.1382565642361
 20
-1.749999999999953
 30
0.0
 40
3.5
 41
0.0
 71
     5
 72
     1
  1
\A1;%%C63
  7
simplex
 11
0.0000000000000001
 21
1.0
 31
0.0
 73
     1
 44
1.0
1001
ACAD
1000
MTEXTBEGIN
1070
    73
1070
     1
1070
    44
1040
1.0
1070
    74
1070
     0
1000
MTEXTEND
  0
POINT
  5
475A6
330
45B1F
100
AcDbEntity
  8
Defpoints
 62
     0
100
AcDbPoint
 10
82.95119073979995
 20
-31.49999999999995
 30
0.0
  0
POINT
  5
475A7
330
45B1F
100
AcDbEntity
  8
Defpoints
 62
     0
100
AcDbPoint
 10
46.67862375679994
 20
31.50000000000006
 30
0.0
  0
POINT
  5
475A8
330
45B1F
100
AcDbEntity
  8
Defpoints
 62
     0
100
AcDbPoint
 10
82.18825656423609
 20
31.50000000000004
 30
0.0
  0
ENDBLK
  5
45B2A
330
45B1F
100
AcDbEntity
  8
0
100
AcDbBlockEnd
  0
BLOCK
  5
60027
330
6001D
100
AcDbEntity
  8
0
100
AcDbBlockBegin
  2
*D71
 70
     1
 10
0.0
 20
0.0
 30
0.0
  3
*D71
  1

  0
LINE
  5
60263
330
6001D
100
AcDbEntity
  8
2
100
AcDbLine
 10
63.25940127593174
 20
55.74999999999994
 30
0.0
 11
87.39100825644413
 21
55.74999999999993
 31
0.0
  0
LINE
  5
60264
330
6001D
100
AcDbEntity
  8
2
100
AcDbLine
 10
85.89100825644413
 20
52.24999999999994
 30
0.0
 11
85.89100825644411
 21
-55.75000000000006
 31
0.0
  0
SOLID
  5
60265
330
6001D
100
AcDbEntity
  8
2
100
AcDbTrace
 10
85.30767492311081
 20
52.24999999999994
 30
0.0
 11
86.47434158977747
 21
52.24999999999994
 31
0.0
 12
85.89100825644413
 22
55.74999999999993
 32
0.0
 13
85.89100825644413
 23
55.74999999999993
 33
0.0
  0
MTEXT
  5
60266
330
6001D
100
AcDbEntity
  8
2
100
AcDbMText
 10
81.84100825644412
 20
-1.750000000000047
 30
0.0
 40
3.5
 41
0.0
 71
     5
 72
     1
  1
\A1;%%C111.5 [%%C4.390"]
  7
simplex
 11
0.0000000000000001
 21
1.0
 31
0.0
 73
     1
 44
1.0
1001
ACAD
1000
MTEXTBEGIN
1070
    73
1070
     1
1070
    44
1040
1.0
1070
    74
1070
     0
1000
MTEXTEND
  0
POINT
  5
60267
330
6001D
100
AcDbEntity
  8
Defpoints
 62
     0
100
AcDbPoint
 10
63.25940127593174
 20
55.74999999999994
 30
0.0
  0
POINT
  5
60268
330
6001D
100
AcDbEntity
  8
Defpoints
 62
     0
100
AcDbPoint
 10
63.25940127593174
 20
-55.75000000000006
 30
0.0
  0
POINT
  5
60269
330
6001D
100
AcDbEntity
  8
Defpoints
 62
     0
100
AcDbPoint
 10
85.89100825644411
 20
-55.75000000000006
 30
0.0
  0
ENDBLK
  5
60028
330
6001D
100
AcDbEntity
  8
0
100
AcDbBlockEnd
  0
BLOCK
  5
6003F
330
60035
100
AcDbEntity
  8
0
100
AcDbBlockBegin
  2
*D72
 70
     1
 10
0.0
 20
0.0
 30
0.0
  3
*D72
  1

  0
LINE
  5
6026A
330
60035
100
AcDbEntity
  8
2
100
AcDbLine
 10
60.11018566089996
 20
63.49999999999994
 30
0.0
 11
102.1584518906779
 21
63.49999999999994
 31
0.0
  0
LINE
  5
6026B
330
60035
100
AcDbEntity
  8
2
100
AcDbLine
 10
100.6584518906779
 20
59.99999999999993
 30
0.0
 11
100.6584518906779
 21
-63.50000000000006
 31
0.0
  0
SOLID
  5
6026C
330
60035
100
AcDbEntity
  8
2
100
AcDbTrace
 10
100.0751185573446
 20
59.99999999999993
 30
0.0
 11
101.2417852240113
 21
59.99999999999993
 31
0.0
 12
100.6584518906779
 22
63.49999999999994
 32
0.0
 13
100.6584518906779
 23
63.49999999999994
 33
0.0
  0
MTEXT
  5
6026D
330
60035
100
AcDbEntity
  8
2
100
AcDbMText
 10
96.60845189067794
 20
-1.750000000000048
 30
0.0
 40
3.5
 41
0.0
 71
     5
 72
     1
  1
\A1;%%C127 [%%C5.000"]
  7
simplex
 11
0.0000000000000001
 21
1.0
 31
0.0
 73
     1
 44
1.0
1001
ACAD
1000
MTEXTBEGIN
1070
    73
1070
     1
1070
    44
1040
1.0
1070
    74
1070
     0
1000
MTEXTEND
  0
POINT
  5
6026E
330
60035
100
AcDbEntity
  8
Defpoints
 62
     0
100
AcDbPoint
 10
60.11018566089996
 20
63.49999999999994
 30
0.0
  0
POINT
  5
6026F
330
60035
100
AcDbEntity
  8
Defpoints
 62
     0
100
AcDbPoint
 10
60.11018566089996
 20
-63.50000000000005
 30
0.0
  0
POINT
  5
60270
330
60035
100
AcDbEntity
  8
Defpoints
 62
     0
100
AcDbPoint
 10
100.6584518906779
 20
-63.50000000000006
 30
0.0
  0
ENDBLK
  5
60040
330
60035
100
AcDbEntity
  8
0
100
AcDbBlockEnd
  0
BLOCK
  5
60057
330
6004D
100
AcDbEntity
  8
0
100
AcDbBlockBegin
  2
*D73
 70
     1
 10
0.0
 20
0.0
 30
0.0
  3
*D73
  1

  0
LINE
  5
60271
330
6004D
100
AcDbEntity
  8
sk2
100
AcDbLine
 10
7.999999999999943
 20
19.04999999999995
 30
0.0
 11
-25.08302764287012
 21
19.04999999999996
 31
0.0
  0
LINE
  5
60272
330
6004D
100
AcDbEntity
  8
sk2
100
AcDbLine
 10
7.999999999999943
 20
-19.05000000000001
 30
0.0
 11
-25.08302764287012
 21
-19.05
 31
0.0
  0
LINE
  5
60273
330
6004D
100
AcDbEntity
  8
sk2
100
AcDbLine
 10
-23.58302764287012
 20
15.54999999999996
 30
0.0
 11
-23.58302764287012
 21
-15.55
 31
0.0
  0
SOLID
  5
60274
330
6004D
100
AcDbEntity
  8
sk2
100
AcDbTrace
 10
-24.16636097620345
 20
15.54999999999996
 30
0.0
 11
-22.99969430953678
 21
15.54999999999996
 31
0.0
 12
-23.58302764287012
 22
19.04999999999996
 32
0.0
 13
-23.58302764287012
 23
19.04999999999996
 33
0.0
  0
SOLID
  5
60275
330
6004D
100
AcDbEntity
  8
sk2
100
AcDbTrace
 10
-24.16636097620346
 20
-15.55
 30
0.0
 11
-22.99969430953679
 21
-15.55
 31
0.0
 12
-23.58302764287012
 22
-19.05
 32
0.0
 13
-23.58302764287012
 23
-19.05
 33
0.0
  0
MTEXT
  5
60276
330
6004D
100
AcDbEntity
  8
sk2
100
AcDbMText
 10
-27.63302764287012
 20
-0.0000000000000229
 30
0.0
 40
3.5
 41
0.0
 71
     5
 72
     1
  1
\A1;%%C38.1 [%%c1.500"]
  7
simplex
 11
0.0000000000000001
 21
1.0
 31
0.0
 73
     1
 44
1.0
1001
ACAD
1000
MTEXTBEGIN
1070
    73
1070
     1
1070
    44
1040
1.0
1070
    74
1070
     0
1000
MTEXTEND
  0
POINT
  5
60277
330
6004D
100
AcDbEntity
  8
Defpoints
 62
     0
100
AcDbPoint
 10
7.999999999999943
 20
19.04999999999995
 30
0.0
  0
POINT
  5
60278
330
6004D
100
AcDbEntity
  8
Defpoints
 62
     0
100
AcDbPoint
 10
7.999999999999943
 20
-19.05000000000001
 30
0.0
  0
POINT
  5
60279
330
6004D
100
AcDbEntity
  8
Defpoints
 62
     0
100
AcDbPoint
 10
-23.58302764287012
 20
-19.05
 30
0.0
  0
ENDBLK
  5
60058
330
6004D
100
AcDbEntity
  8
0
100
AcDbBlockEnd
  0
BLOCK
  5
6006F
330
60065
100
AcDbEntity
  8
0
100
AcDbBlockBegin
  2
*D74
 70
     1
 10
0.0
 20
0.0
 30
0.0
  3
*D74
  1

  0
LINE
  5
602BA
330
60065
100
AcDbEntity
  8
sk2
100
AcDbLine
 10
1.999999999999943
 20
48.41899999999998
 30
0.0
 11
-37.28508932154455
 21
48.41899999999998
 31
0.0
  0
LINE
  5
602BB
330
60065
100
AcDbEntity
  8
sk2
100
AcDbLine
 10
1.999999999999914
 20
-48.41900000000004
 30
0.0
 11
-37.28508932154458
 21
-48.41900000000003
 31
0.0
  0
LINE
  5
602BC
330
60065
100
AcDbEntity
  8
sk2
100
AcDbLine
 10
-35.78508932154456
 20
44.91899999999999
 30
0.0
 11
-35.78508932154457
 21
-44.91900000000003
 31
0.0
  0
SOLID
  5
602BD
330
60065
100
AcDbEntity
  8
sk2
100
AcDbTrace
 10
-36.36842265487789
 20
44.91899999999999
 30
0.0
 11
-35.20175598821122
 21
44.91899999999999
 31
0.0
 12
-35.78508932154455
 22
48.41899999999998
 32
0.0
 13
-35.78508932154455
 23
48.41899999999998
 33
0.0
  0
SOLID
  5
602BE
330
60065
100
AcDbEntity
  8
sk2
100
AcDbTrace
 10
-36.3684226548779
 20
-44.91900000000003
 30
0.0
 11
-35.20175598821123
 21
-44.91900000000003
 31
0.0
 12
-35.78508932154458
 22
-48.41900000000003
 32
0.0
 13
-35.78508932154458
 23
-48.41900000000003
 33
0.0
  0
MTEXT
  5
602BF
330
60065
100
AcDbEntity
  8
sk2
100
AcDbMText
 10
-39.83508932154456
 20
-0.0000000000000257
 30
0.0
 40
3.5
 41
0.0
 71
     5
 72
     1
  1
\A1;%%C96.838 [%%c3.813"]
  7
simplex
 11
0.0000000000000001
 21
1.0
 31
0.0
 73
     1
 44
1.0
1001
ACAD
1000
MTEXTBEGIN
1070
    73
1070
     1
1070
    44
1040
1.0
1070
    74
1070
     0
1000
MTEXTEND
  0
POINT
  5
602C0
330
60065
100
AcDbEntity
  8
Defpoints
 62
     0
100
AcDbPoint
 10
1.999999999999943
 20
48.41899999999998
 30
0.0
  0
POINT
  5
602C1
330
60065
100
AcDbEntity
  8
Defpoints
 62
     0
100
AcDbPoint
 10
1.999999999999914
 20
-48.41900000000004
 30
0.0
  0
POINT
  5
602C2
330
60065
100
AcDbEntity
  8
Defpoints
 62
     0
100
AcDbPoint
 10
-35.78508932154458
 20
-48.41900000000003
 30
0.0
  0
ENDBLK
  5
60070
330
60065
100
AcDbEntity
  8
0
100
AcDbBlockEnd
  0
BLOCK
  5
60087
330
6007D
100
AcDbEntity
  8
0
100
AcDbBlockBegin
  2
*D75
 70
     1
 10
0.0
 20
0.0
 30
0.0
  3
*D75
  1

  0
LINE
  5
60283
330
6007D
100
AcDbEntity
  8
sk2
100
AcDbLine
 10
-0.0000000000000853
 20
-46.41899967210003
 30
0.0
 11
-0.0000000000000876
 21
-84.94060425809028
 31
0.0
  0
LINE
  5
60284
330
6007D
100
AcDbEntity
  8
sk2
100
AcDbLine
 10
41.99999999999994
 20
-27.00000000000006
 30
0.0
 11
41.99999999999994
 21
-84.94060425809028
 31
0.0
  0
LINE
  5
60285
330
6007D
100
AcDbEntity
  8
sk2
100
AcDbLine
 10
3.499999999999912
 20
-83.44060425809027
 30
0.0
 11
38.49999999999994
 21
-83.44060425809027
 31
0.0
  0
SOLID
  5
60286
330
6007D
100
AcDbEntity
  8
sk2
100
AcDbTrace
 10
3.499999999999912
 20
-82.85727092475694
 30
0.0
 11
3.499999999999912
 21
-84.02393759142361
 31
0.0
 12
-0.0000000000000875
 22
-83.44060425809027
 32
0.0
 13
-0.0000000000000875
 23
-83.44060425809027
 33
0.0
  0
SOLID
  5
60287
330
6007D
100
AcDbEntity
  8
sk2
100
AcDbTrace
 10
38.49999999999994
 20
-82.85727092475694
 30
0.0
 11
38.49999999999994
 21
-84.02393759142361
 31
0.0
 12
41.99999999999994
 22
-83.44060425809027
 32
0.0
 13
41.99999999999994
 23
-83.44060425809027
 33
0.0
  0
MTEXT
  5
60288
330
6007D
100
AcDbEntity
  8
sk2
100
AcDbMText
 10
20.99999999999993
 20
-79.39060425809028
 30
0.0
 40
3.5
 41
0.0
 71
     5
 72
     1
  1
\A1;42 [1.654"]
  7
simplex
 73
     1
 44
1.0
1001
ACAD
1000
MTEXTBEGIN
1070
    73
1070
     1
1070
    44
1040
1.0
1070
    74
1070
     0
1000
MTEXTEND
  0
POINT
  5
60289
330
6007D
100
AcDbEntity
  8
Defpoints
 62
     0
100
AcDbPoint
 10
-0.0000000000000853
 20
-46.41899967210003
 30
0.0
  0
POINT
  5
6028A
330
6007D
100
AcDbEntity
  8
Defpoints
 62
     0
100
AcDbPoint
 10
41.99999999999994
 20
-27.00000000000006
 30
0.0
  0
POINT
  5
6028B
330
6007D
100
AcDbEntity
  8
Defpoints
 62
     0
100
AcDbPoint
 10
41.99999999999994
 20
-83.44060425809027
 30
0.0
  0
ENDBLK
  5
60088
330
6007D
100
AcDbEntity
  8
0
100
AcDbBlockEnd
  0
BLOCK
  5
600A0
330
60095
100
AcDbEntity
  8
0
100
AcDbBlockBegin
  2
*D76
 70
     1
 10
0.0
 20
0.0
 30
0.0
  3
*D76
  1

  0
LINE
  5
6028C
330
60095
100
AcDbEntity
  8
2
100
AcDbLine
 10
63.49999999999994
 20
55.8513537561615
 30
0.0
 11
63.49999999999994
 21
-84.94060425809028
 31
0.0
  0
LINE
  5
6028D
330
60095
100
AcDbEntity
  8
2
100
AcDbLine
 10
61.39999999999989
 20
48.54040198382572
 30
0.0
 11
61.39999999999989
 21
-84.94060425809028
 31
0.0
  0
LINE
  5
6028E
330
60095
100
AcDbEntity
  8
2
100
AcDbLine
 10
57.89999999999988
 20
-83.44060425809027
 30
0.0
 11
54.39999999999988
 21
-83.44060425809027
 31
0.0
  0
LINE
  5
6028F
330
60095
100
AcDbEntity
  8
2
100
AcDbLine
 10
66.99999999999994
 20
-83.44060425809027
 30
0.0
 11
117.6833333333333
 21
-83.44060425809027
 31
0.0
  0
SOLID
  5
60290
330
60095
100
AcDbEntity
  8
2
100
AcDbTrace
 10
57.89999999999988
 20
-82.85727092475694
 30
0.0
 11
57.89999999999988
 21
-84.02393759142361
 31
0.0
 12
61.39999999999989
 22
-83.44060425809027
 32
0.0
 13
61.39999999999989
 23
-83.44060425809027
 33
0.0
  0
SOLID
  5
60291
330
60095
100
AcDbEntity
  8
2
100
AcDbTrace
 10
66.99999999999994
 20
-82.85727092475694
 30
0.0
 11
66.99999999999994
 21
-84.02393759142361
 31
0.0
 12
63.49999999999994
 22
-83.44060425809027
 32
0.0
 13
63.49999999999994
 23
-83.44060425809027
 33
0.0
  0
MTEXT
  5
60292
330
60095
100
AcDbEntity
  8
2
100
AcDbMText
 10
94.09166666666662
 20
-79.39060425809028
 30
0.0
 40
3.5
 41
0.0
 71
     5
 72
     1
  1
\A1;2.1 [.083"](MAX)
  7
simplex
 73
     1
 44
1.0
1001
ACAD
1000
MTEXTBEGIN
1070
    73
1070
     1
1070
    44
1040
1.0
1070
    74
1070
     0
1000
MTEXTEND
  0
POINT
  5
60293
330
60095
100
AcDbEntity
  8
Defpoints
 62
     0
100
AcDbPoint
 10
63.49999999999994
 20
55.8513537561615
 30
0.0
  0
POINT
  5
60294
330
60095
100
AcDbEntity
  8
Defpoints
 62
     0
100
AcDbPoint
 10
61.39999999999989
 20
48.54040198382572
 30
0.0
  0
POINT
  5
60295
330
60095
100
AcDbEntity
  8
Defpoints
 62
     0
100
AcDbPoint
 10
61.39999999999989
 20
-83.44060425809027
 30
0.0
  0
ENDBLK
  5
600A1
330
60095
100
AcDbEntity
  8
0
100
AcDbBlockEnd
  0
BLOCK
  5
600BA
330
600AF
100
AcDbEntity
  8
0
100
AcDbBlockBegin
  2
*D77
 70
     1
 10
0.0
 20
0.0
 30
0.0
  3
*D77
  1

  0
LINE
  5
60296
330
600AF
100
AcDbEntity
  8
2
100
AcDbLine
 10
63.49999999999994
 20
55.8513537561615
 30
0.0
 11
63.49999999999994
 21
81.88117957483484
 31
0.0
  0
LINE
  5
60297
330
600AF
100
AcDbEntity
  8
2
100
AcDbLine
 10
61.49999999999995
 20
61.61953307477469
 30
0.0
 11
61.49999999999995
 21
81.88117957483484
 31
0.0
  0
LINE
  5
60298
330
600AF
100
AcDbEntity
  8
2
100
AcDbLine
 10
66.99999999999994
 20
80.38117957483484
 30
0.0
 11
70.49999999999994
 21
80.38117957483484
 31
0.0
  0
LINE
  5
60299
330
600AF
100
AcDbEntity
  8
2
100
AcDbLine
 10
57.99999999999994
 20
80.38117957483484
 30
0.0
 11
-65.01666666666671
 21
80.38117957483484
 31
0.0
  0
SOLID
  5
6029A
330
600AF
100
AcDbEntity
  8
2
100
AcDbTrace
 10
66.99999999999994
 20
80.96451290816817
 30
0.0
 11
66.99999999999994
 21
79.79784624150152
 31
0.0
 12
63.49999999999994
 22
80.38117957483484
 32
0.0
 13
63.49999999999994
 23
80.38117957483484
 33
0.0
  0
SOLID
  5
6029B
330
600AF
100
AcDbEntity
  8
2
100
AcDbTrace
 10
57.99999999999994
 20
80.96451290816817
 30
0.0
 11
57.99999999999994
 21
79.79784624150152
 31
0.0
 12
61.49999999999995
 22
80.38117957483484
 32
0.0
 13
61.49999999999995
 23
80.38117957483484
 33
0.0
  0
MTEXT
  5
6029C
330
600AF
100
AcDbEntity
  8
2
100
AcDbMText
 10
-5.258333333333382
 20
84.43117957483485
 30
0.0
 40
3.5
 41
0.0
 71
     5
 72
     1
  1
\A1;2 [.079"](APMX AT HIGH FEED PROCESS)
  7
simplex
 73
     1
 44
1.0
1001
ACAD
1000
MTEXTBEGIN
1070
    73
1070
     1
1070
    44
1040
1.0
1070
    74
1070
     0
1000
MTEXTEND
  0
POINT
  5
6029D
330
600AF
100
AcDbEntity
  8
Defpoints
 62
     0
100
AcDbPoint
 10
63.49999999999994
 20
55.8513537561615
 30
0.0
  0
POINT
  5
6029E
330
600AF
100
AcDbEntity
  8
Defpoints
 62
     0
100
AcDbPoint
 10
61.49999999999995
 20
61.61953307477469
 30
0.0
  0
POINT
  5
6029F
330
600AF
100
AcDbEntity
  8
Defpoints
 62
     0
100
AcDbPoint
 10
61.49999999999995
 20
80.38117957483484
 30
0.0
  0
ENDBLK
  5
600BB
330
600AF
100
AcDbEntity
  8
0
100
AcDbBlockEnd
  0
BLOCK
  5
600D4
330
600C9
100
AcDbEntity
  8
0
100
AcDbBlockBegin
  2
*D78
 70
     1
 10
0.0
 20
0.0
 30
0.0
  3
*D78
  1

  0
LINE
  5
602A0
330
600C9
100
AcDbEntity
  8
2
100
AcDbLine
 10
63.49999999999994
 20
55.8513537561615
 30
0.0
 11
63.49999999999994
 21
92.79539103960564
 31
0.0
  0
LINE
  5
602A1
330
600C9
100
AcDbEntity
  8
2
100
AcDbLine
 10
60.49999999999994
 20
62.48944404985829
 30
0.0
 11
60.49999999999994
 21
92.79539103960564
 31
0.0
  0
LINE
  5
602A2
330
600C9
100
AcDbEntity
  8
2
100
AcDbLine
 10
66.99999999999994
 20
91.29539103960565
 30
0.0
 11
70.49999999999994
 21
91.29539103960565
 31
0.0
  0
LINE
  5
602A3
330
600C9
100
AcDbEntity
  8
2
100
AcDbLine
 10
56.99999999999994
 20
91.29539103960565
 30
0.0
 11
12.73333333333328
 21
91.29539103960565
 31
0.0
  0
SOLID
  5
602A4
330
600C9
100
AcDbEntity
  8
2
100
AcDbTrace
 10
66.99999999999994
 20
91.87872437293897
 30
0.0
 11
66.99999999999994
 21
90.71205770627232
 31
0.0
 12
63.49999999999994
 22
91.29539103960565
 32
0.0
 13
63.49999999999994
 23
91.29539103960565
 33
0.0
  0
SOLID
  5
602A5
330
600C9
100
AcDbEntity
  8
2
100
AcDbTrace
 10
56.99999999999994
 20
91.87872437293897
 30
0.0
 11
56.99999999999994
 21
90.71205770627232
 31
0.0
 12
60.49999999999994
 22
91.29539103960565
 32
0.0
 13
60.49999999999994
 23
91.29539103960565
 33
0.0
  0
MTEXT
  5
602A6
330
600C9
100
AcDbEntity
  8
2
100
AcDbMText
 10
33.11666666666662
 20
95.34539103960565
 30
0.0
 40
3.5
 41
0.0
 71
     5
 72
     1
  1
\A1;APMX3 [.118"]
  7
simplex
 73
     1
 44
1.0
1001
ACAD
1000
MTEXTBEGIN
1070
    73
1070
     1
1070
    44
1040
1.0
1070
    74
1070
     0
1000
MTEXTEND
  0
POINT
  5
602A7
330
600C9
100
AcDbEntity
  8
Defpoints
 62
     0
100
AcDbPoint
 10
63.49999999999994
 20
55.8513537561615
 30
0.0
  0
POINT
  5
602A8
330
600C9
100
AcDbEntity
  8
Defpoints
 62
     0
100
AcDbPoint
 10
60.49999999999994
 20
62.48944404985829
 30
0.0
  0
POINT
  5
602A9
330
600C9
100
AcDbEntity
  8
Defpoints
 62
     0
100
AcDbPoint
 10
60.49999999999994
 20
91.29539103960565
 30
0.0
  0
ENDBLK
  5
600D5
330
600C9
100
AcDbEntity
  8
0
100
AcDbBlockEnd
  0
BLOCK
  5
600ED
330
600E3
100
AcDbEntity
  8
0
100
AcDbBlockBegin
  2
*D79
 70
     1
 10
0.0
 20
0.0
 30
0.0
  3
*D79
  1

  0
LINE
  5
602AA
330
600E3
100
AcDbEntity
  8
2
100
AcDbLine
 10
63.49999999999994
 20
55.8513537561615
 30
0.0
 11
63.49999999999994
 21
103.9149783474675
 31
0.0
  0
LINE
  5
602AB
330
600E3
100
AcDbEntity
  8
2
100
AcDbLine
 10
-0.0000000000000568
 20
46.41899999999998
 30
0.0
 11
-0.0000000000000533
 21
103.9149783474675
 31
0.0
  0
LINE
  5
602AC
330
600E3
100
AcDbEntity
  8
2
100
AcDbLine
 10
59.99999999999994
 20
102.4149783474674
 30
0.0
 11
3.499999999999946
 21
102.4149783474674
 31
0.0
  0
SOLID
  5
602AD
330
600E3
100
AcDbEntity
  8
2
100
AcDbTrace
 10
59.99999999999994
 20
102.9983116808008
 30
0.0
 11
59.99999999999994
 21
101.8316450141341
 31
0.0
 12
63.49999999999994
 22
102.4149783474674
 32
0.0
 13
63.49999999999994
 23
102.4149783474674
 33
0.0
  0
SOLID
  5
602AE
330
600E3
100
AcDbEntity
  8
2
100
AcDbTrace
 10
3.499999999999946
 20
102.9983116808008
 30
0.0
 11
3.499999999999946
 21
101.8316450141341
 31
0.0
 12
-0.0000000000000534
 22
102.4149783474674
 32
0.0
 13
-0.0000000000000534
 23
102.4149783474674
 33
0.0
  0
MTEXT
  5
602AF
330
600E3
100
AcDbEntity
  8
2
100
AcDbMText
 10
31.74999999999994
 20
106.4649783474674
 30
0.0
 40
3.5
 41
0.0
 71
     5
 72
     1
  1
\A1;63.5 [2.500"]
  7
simplex
 73
     1
 44
1.0
1001
ACAD
1000
MTEXTBEGIN
1070
    73
1070
     1
1070
    44
1040
1.0
1070
    74
1070
     0
1000
MTEXTEND
  0
POINT
  5
602B0
330
600E3
100
AcDbEntity
  8
Defpoints
 62
     0
100
AcDbPoint
 10
63.49999999999994
 20
55.8513537561615
 30
0.0
  0
POINT
  5
602B1
330
600E3
100
AcDbEntity
  8
Defpoints
 62
     0
100
AcDbPoint
 10
-0.0000000000000568
 20
46.41899999999998
 30
0.0
  0
POINT
  5
602B2
330
600E3
100
AcDbEntity
  8
Defpoints
 62
     0
100
AcDbPoint
 10
-0.0000000000000534
 20
102.4149783474674
 30
0.0
  0
ENDBLK
  5
600EE
330
600E3
100
AcDbEntity
  8
0
100
AcDbBlockEnd
  0
BLOCK
  5
60104
330
600FC
100
AcDbEntity
  8
0
100
AcDbBlockBegin
  2
*D80
 70
     1
 10
0.0
 20
0.0
 30
0.0
  3
*D80
  1

  0
LINE
  5
602B3
330
600FC
100
AcDbEntity
  8
2
100
AcDbLine
 10
102.0610576660663
 20
83.38237232456535
 30
0.0
 11
64.53139101646883
 21
63.40260591916074
 31
0.0
  0
MTEXT
  5
602B4
330
600FC
100
AcDbEntity
  8
2
100
AcDbMText
 10
82.93774992405642
 20
77.78981741210987
 30
0.0
 40
3.5
 41
0.0
 71
     5
 72
     1
  1
\A1;R1.5 [R.059"]
  7
simplex
 11
0.8827048212371026
 21
0.4699278652780389
 31
0.0
 73
     1
 44
1.0
1001
ACAD
1000
MTEXTBEGIN
1070
    73
1070
     1
1070
    44
1040
1.0
1070
    74
1070
     0
1000
MTEXTEND
  0
SOLID
  5
602B5
330
600FC
100
AcDbEntity
  8
2
100
AcDbTrace
 10
64.25726642838997
 20
63.91751706488237
 30
0.0
 11
64.80551560454768
 21
62.88769477343909
 31
0.0
 12
61.44192414213897
 22
61.7578583906876
 32
0.0
 13
61.44192414213897
 23
61.7578583906876
 33
0.0
  0
LINE
  5
602B6
330
600FC
100
AcDbEntity
  8
2
100
AcDbLine
 10
60.02786691028326
 20
61.05296659277051
 30
0.0
 11
60.20786691028327
 21
61.05296659277051
 31
0.0
  0
LINE
  5
602B7
330
600FC
100
AcDbEntity
  8
2
100
AcDbLine
 10
60.11786691028326
 20
60.96296659277051
 30
0.0
 11
60.11786691028325
 21
61.14296659277052
 31
0.0
  0
POINT
  5
602B8
330
600FC
100
AcDbEntity
  8
Defpoints
 62
     0
100
AcDbPoint
 10
61.44192414213897
 20
61.7578583906876
 30
0.0
  0
POINT
  5
602B9
330
600FC
100
AcDbEntity
  8
Defpoints
 62
     0
100
AcDbPoint
 10
60.11786691028326
 20
61.05296659277051
 30
0.0
  0
ENDBLK
  5
60105
330
600FC
100
AcDbEntity
  8
0
100
AcDbBlockEnd
  0
ENDSEC
  0
SECTION
  2
ENTITIES
  0
INSERT
  5
68C
330
1F
100
AcDbEntity
  8
0
100
AcDbBlockReference
  2
zero block
 10
0.0000000000000072
 20
0.0
 30
0.0
 50
180.0
  0
MTEXT
  5
5CD11
330
1F
100
AcDbEntity
  8
sk6
100
AcDbMText
 10
-5.166920598642718
 20
125.2043569669981
 30
0.0
 40
5.0
 41
85.25075165579854
 71
     1
 72
     5
  1
WJX14UR5_0009EA
  7
simplex
 73
     1
 44
1.0
1001
ACAD
1000
ACAD_MTEXT_DEFINED_HEIGHT_BEGIN
1070
    46
1040
0.0
1000
ACAD_MTEXT_DEFINED_HEIGHT_END
1000
MTEXTBEGIN
1070
    73
1070
     1
1070
    44
1040
1.0
1070
    74
1070
     0
1000
MTEXTEND
  0
LINE
  5
5FEC1
330
1F
100
AcDbEntity
  8
nocut
100
AcDbLine
 10
0.0
 20
-0.0000000000000568
 30
0.0
 11
-0.0000000000000568
 21
19.55799999999999
 31
0.0
1001
ACAD
1000
RTMaterial
1005
0
  0
LINE
  5
5FEC2
330
1F
100
AcDbEntity
  8
nocut
100
AcDbLine
 10
-0.0000000000001137
 20
0.0
 30
0.0
 11
-0.0000000000000568
 21
46.41899999999998
 31
0.0
1001
ACAD
1000
RTMaterial
1005
0
  0
LINE
  5
5FEC3
330
1F
100
AcDbEntity
  8
nocut
100
AcDbLine
 10
62.19999999999993
 20
56.27322421989998
 30
0.0
 11
62.19999999999993
 21
-0.0000000000000568
 31
0.0
1001
ACAD
1000
RTMaterial
1005
0
  0
LINE
  5
5FEC4
330
1F
100
AcDbEntity
  8
cut
100
AcDbLine
 10
63.43637431679991
 20
56.25098255489996
 30
0.0
 11
61.54464279479992
 21
62.43855755709995
 31
0.0
1001
ACAD
1000
RTMaterial
1005
0
  0
LINE
  5
5FEC5
330
1F
100
AcDbEntity
  8
nocut
100
AcDbLine
 10
60.75211086069998
 20
61.19174275150005
 30
0.0
 11
62.19999999999993
 21
56.27322421989998
 31
0.0
1001
ACAD
1000
RTMaterial
1005
0
  0
LINE
  5
5FEC6
330
1F
100
AcDbEntity
  8
cut
100
AcDbLine
 10
59.96996646269991
 20
63.49343181179995
 30
0.0
 11
56.24838147429989
 21
63.14400999089992
 31
0.0
1001
ACAD
1000
RTMaterial
1005
0
  0
LINE
  5
5FEC7
330
1F
100
AcDbEntity
  8
nocut
100
AcDbLine
 10
54.57241246999996
 20
61.61558771910006
 30
0.0
 11
59.49590150229994
 21
62.04826339490001
 31
0.0
1001
ACAD
1000
RTMaterial
1005
0
  0
LINE
  5
5FEC8
330
1F
100
AcDbEntity
  8
nocut
100
AcDbLine
 10
53.03729405229995
 20
61.74649993129998
 30
0.0
 11
54.42762648329995
 21
61.61601641620001
 31
0.0
1001
ACAD
1000
RTMaterial
1005
0
  0
LINE
  5
5FEC9
330
1F
100
AcDbEntity
  8
1
100
AcDbLine
 10
53.03729405229993
 20
-61.74649993130003
 30
0.0
 11
54.42762648329992
 21
-61.61601641620007
 31
0.0
1001
ACAD
1000
RTMaterial
1005
0
  0
LINE
  5
5FECA
330
1F
100
AcDbEntity
  8
1
100
AcDbLine
 10
52.96254206599988
 20
-61.75000000000006
 30
0.0
 11
53.03729405229993
 21
-61.74649993130003
 31
0.0
1001
ACAD
1000
RTMaterial
1005
0
  0
LINE
  5
5FECB
330
1F
100
AcDbEntity
  8
1
100
AcDbLine
 10
44.1397023426999
 20
-61.75000000000006
 30
0.0
 11
52.96254206599988
 21
-61.75000000000006
 31
0.0
1001
ACAD
1000
RTMaterial
1005
0
  0
LINE
  5
5FECC
330
1F
100
AcDbEntity
  8
1
100
AcDbLine
 10
54.57241246999993
 20
-61.61558771910006
 30
0.0
 11
59.49590150229991
 21
-62.04826339490006
 31
0.0
1001
ACAD
1000
RTMaterial
1005
0
  0
LINE
  5
5FECD
330
1F
100
AcDbEntity
  8
1
100
AcDbLine
 10
17.42111604669992
 20
-48.1196911293
 30
0.0
 11
14.21747399919991
 21
-48.39997349050008
 31
0.0
1001
ACAD
1000
RTMaterial
1005
0
  0
LINE
  5
5FECE
330
1F
100
AcDbEntity
  8
1
100
AcDbLine
 10
13.78169528549995
 20
-48.41900000000004
 30
0.0
 11
1.999999999999914
 21
-48.41900000000004
 31
0.0
1001
ACAD
1000
RTMaterial
1005
0
  0
LINE
  5
5FECF
330
1F
100
AcDbEntity
  8
1
100
AcDbLine
 10
37.7118262457999
 20
-59.41044443120006
 30
0.0
 11
28.37026633319993
 21
-51.57194495390001
 31
0.0
1001
ACAD
1000
RTMaterial
1005
0
  0
LINE
  5
5FED0
330
1F
100
AcDbEntity
  8
1
100
AcDbLine
 10
60.7521108606999
 20
-61.19174275150005
 30
0.0
 11
62.1999999999999
 21
-56.2732242199001
 31
0.0
1001
ACAD
1000
RTMaterial
1005
0
  0
LINE
  5
5FED1
330
1F
100
AcDbEntity
  8
sk3
100
AcDbLine
 10
57.99999999999991
 20
-28.00000000000006
 30
0.0
 11
42.99999999999994
 21
-28.00000000000006
 31
0.0
1001
ACAD
1000
RTMaterial
1005
0
  0
LINE
  5
5FED2
330
1F
100
AcDbEntity
  8
sk3
100
AcDbLine
 10
34.7783053373999
 20
-21.00000000000006
 30
0.0
 11
28.22169466269992
 21
-21.00000000000006
 31
0.0
1001
ACAD
1000
RTMaterial
1005
0
  0
LINE
  5
5FED3
330
1F
100
AcDbEntity
  8
sk3
100
AcDbLine
 10
41.49999999999994
 20
-20.00000000000006
 30
0.0
 11
37.36620158319994
 21
-20.00000000000006
 31
0.0
1001
ACAD
1000
RTMaterial
1005
0
  0
LINE
  5
5FED4
330
1F
100
AcDbEntity
  8
sk3
100
AcDbLine
 10
1.199999999999931
 20
-19.55000000000001
 30
0.0
 11
7.999999999999943
 21
-19.55000000000001
 31
0.0
1001
ACAD
1000
RTMaterial
1005
0
  0
LINE
  5
5FED5
102
{ACAD_REACTORS
330
60063
102
}
330
1F
100
AcDbEntity
  8
sk3
100
AcDbLine
 10
23.81821150499996
 20
-19.05000000000001
 30
0.0
 11
7.999999999999943
 21
-19.05000000000001
 31
0.0
1001
ACAD
1000
RTMaterial
1005
0
  0
LINE
  5
5FED6
330
1F
100
AcDbEntity
  8
sk3
100
AcDbLine
 10
27.79907640089994
 20
-20.90630778710005
 30
0.0
 11
23.81821150499996
 21
-19.05000000000001
 31
0.0
1001
ACAD
1000
RTMaterial
1005
0
  0
LINE
  5
5FED7
330
1F
100
AcDbEntity
  8
1
100
AcDbLine
 10
52.12813711189994
 20
60.40335657859998
 30
0.0
 11
52.14999390729992
 21
60.32459731469998
 31
0.0
1001
ACAD
1000
RTMaterial
1005
0
  0
LINE
  5
5FED8
330
1F
100
AcDbEntity
  8
1
100
AcDbLine
 10
62.19999999999993
 20
50.38501421589995
 30
0.0
 11
62.1999999999999
 21
-56.27322288910005
 31
0.0
1001
ACAD
1000
RTMaterial
1005
0
  0
LINE
  5
5FED9
330
1F
100
AcDbEntity
  8
sk3
100
AcDbLine
 10
35.20092359909995
 20
-20.90630778710005
 30
0.0
 11
36.94358332139996
 21
-20.09369221300005
 31
0.0
1001
ACAD
1000
RTMaterial
1005
0
  0
LINE
  5
5FEDA
330
1F
100
AcDbEntity
  8
1
100
AcDbLine
 10
-0.0000000000000568
 20
8.937499999999943
 30
0.0
 11
0.9999999999999431
 21
7.937499999999943
 31
0.0
1001
ACAD
1000
RTMaterial
1005
0
  0
LINE
  5
5FEDB
330
1F
100
AcDbEntity
  8
1
100
AcDbLine
 10
51.40568686799992
 20
50.35910676879996
 30
0.0
 11
51.38197777449988
 21
50.46821037149999
 31
0.0
1001
ACAD
1000
RTMaterial
1005
0
  0
LINE
  5
5FEDC
330
1F
100
AcDbEntity
  8
sk3
100
AcDbLine
 10
58.99999999999995
 20
44.21150135389996
 30
0.0
 11
58.99999999999991
 21
-44.21150135390002
 31
0.0
1001
ACAD
1000
RTMaterial
1005
0
  0
LINE
  5
5FEDD
330
1F
100
AcDbEntity
  8
sk3
100
AcDbLine
 10
57.99999999999994
 20
27.99999999999994
 30
0.0
 11
57.99999999999991
 21
-28.00000000000006
 31
0.0
1001
ACAD
1000
RTMaterial
1005
0
  0
LINE
  5
5FEDE
330
1F
100
AcDbEntity
  8
1
100
AcDbLine
 10
8.52499999999992
 20
-7.937500000000056
 30
0.0
 11
0.9999999999999431
 21
-7.937500000000056
 31
0.0
1001
ACAD
1000
RTMaterial
1005
0
  0
LINE
  5
5FEDF
330
1F
100
AcDbEntity
  8
1
100
AcDbLine
 10
8.52499999999992
 20
7.937499999999943
 30
0.0
 11
9.52499999999992
 21
6.937499999999943
 31
0.0
1001
ACAD
1000
RTMaterial
1005
0
  0
LINE
  5
5FEE0
330
1F
100
AcDbEntity
  8
sk3
100
AcDbLine
 10
1.199999999999931
 20
19.54999999999995
 30
0.0
 11
-0.0000000000000568
 21
20.74999999999994
 31
0.0
1001
ACAD
1000
RTMaterial
1005
0
  0
LINE
  5
5FEE1
330
1F
100
AcDbEntity
  8
sk3
100
AcDbLine
 10
41.49999999999994
 20
-20.00000000000006
 30
0.0
 11
41.99999999999994
 21
-20.50000000000006
 31
0.0
1001
ACAD
1000
RTMaterial
1005
0
  0
LINE
  5
5FEE2
330
1F
100
AcDbEntity
  8
4
100
AcDbLine
 10
67.10243534269989
 20
-0.0000000000000568
 30
0.0
 11
-4.217102988800093
 21
-0.0000000000000568
 31
0.0
1001
ACAD
1000
RTMaterial
1005
0
  0
LINE
  5
5FEE3
330
1F
100
AcDbEntity
  8
sk3
100
AcDbLine
 10
58.99999999999991
 20
-29.00000000000006
 30
0.0
 11
57.99999999999991
 21
-28.00000000000006
 31
0.0
1001
ACAD
1000
RTMaterial
1005
0
  0
LINE
  5
5FEE4
330
1F
100
AcDbEntity
  8
sk3
100
AcDbLine
 10
41.99999999999994
 20
26.99999999999994
 30
0.0
 11
41.99999999999994
 21
-27.00000000000006
 31
0.0
1001
ACAD
1000
RTMaterial
1005
0
  0
LINE
  5
5FEE5
330
1F
100
AcDbEntity
  8
sk3
100
AcDbLine
 10
41.49999999999994
 20
19.99999999999994
 30
0.0
 11
41.49999999999994
 21
-20.00000000000006
 31
0.0
1001
ACAD
1000
RTMaterial
1005
0
  0
LINE
  5
5FEE6
330
1F
100
AcDbEntity
  8
1
100
AcDbLine
 10
62.87256838219992
 20
51.93579904669997
 30
0.0
 11
61.36426457389996
 21
48.45800447869994
 31
0.0
1001
ACAD
1000
RTMaterial
1005
0
  0
LINE
  5
5FEE7
330
1F
100
AcDbEntity
  8
sk3
100
AcDbLine
 10
60.32533635619995
 20
50.37620525829999
 30
0.0
 11
62.19999999999993
 21
54.53461986699995
 31
0.0
1001
ACAD
1000
RTMaterial
1005
0
  0
LINE
  5
5FEE8
330
1F
100
AcDbEntity
  8
1
100
AcDbLine
 10
0.9999999999999431
 20
7.937499999999943
 30
0.0
 11
8.52499999999992
 21
7.937499999999943
 31
0.0
1001
ACAD
1000
RTMaterial
1005
0
  0
LINE
  5
5FEE9
330
1F
100
AcDbEntity
  8
sk3
100
AcDbLine
 10
60.32533635619993
 20
-50.37620525830004
 30
0.0
 11
62.1999999999999
 21
-54.53461986700006
 31
0.0
1001
ACAD
1000
RTMaterial
1005
0
  0
LINE
  5
5FEEA
330
1F
100
AcDbEntity
  8
sk3
100
AcDbLine
 10
58.99999999999995
 20
28.99999999999995
 30
0.0
 11
57.99999999999994
 21
27.99999999999994
 31
0.0
1001
ACAD
1000
RTMaterial
1005
0
  0
LINE
  5
5FEEB
330
1F
100
AcDbEntity
  8
1
100
AcDbLine
 10
52.73627550279991
 20
60.72920920139996
 30
0.0
 11
52.65694086589997
 21
60.51336174369993
 31
0.0
1001
ACAD
1000
RTMaterial
1005
0
  0
LINE
  5
5FEEC
330
1F
100
AcDbEntity
  8
1
100
AcDbLine
 10
51.3325246853999
 20
50.03944278409995
 30
0.0
 11
51.33339096639992
 21
50.04144617169993
 31
0.0
1001
ACAD
1000
RTMaterial
1005
0
  0
LINE
  5
5FEED
330
1F
100
AcDbEntity
  8
sk3
100
AcDbLine
 10
41.49999999999994
 20
19.99999999999994
 30
0.0
 11
41.99999999999994
 21
20.49999999999994
 31
0.0
1001
ACAD
1000
RTMaterial
1005
0
  0
LINE
  5
5FEEE
330
1F
100
AcDbEntity
  8
sk3
100
AcDbLine
 10
1.199999999999931
 20
-19.55000000000001
 30
0.0
 11
-0.0000000000000568
 21
-20.75000000000006
 31
0.0
1001
ACAD
1000
RTMaterial
1005
0
  0
LINE
  5
5FEEF
102
{ACAD_REACTORS
330
60063
102
}
330
1F
100
AcDbEntity
  8
sk3
100
AcDbLine
 10
23.81821150499996
 20
19.04999999999995
 30
0.0
 11
7.999999999999943
 21
19.04999999999995
 31
0.0
1001
ACAD
1000
RTMaterial
1005
0
  0
LINE
  5
5FEF0
330
1F
100
AcDbEntity
  8
sk3
100
AcDbLine
 10
1.199999999999931
 20
19.54999999999995
 30
0.0
 11
7.999999999999943
 21
19.54999999999995
 31
0.0
1001
ACAD
1000
RTMaterial
1005
0
  0
LINE
  5
5FEF1
330
1F
100
AcDbEntity
  8
sk3
100
AcDbLine
 10
41.49999999999994
 20
19.99999999999994
 30
0.0
 11
37.36620158319994
 21
19.99999999999994
 31
0.0
1001
ACAD
1000
RTMaterial
1005
0
  0
LINE
  5
5FEF2
330
1F
100
AcDbEntity
  8
sk3
100
AcDbLine
 10
36.94358332139996
 20
20.09369221289995
 30
0.0
 11
35.20092359909995
 21
20.90630778699995
 31
0.0
1001
ACAD
1000
RTMaterial
1005
0
  0
LINE
  5
5FEF3
330
1F
100
AcDbEntity
  8
sk3
100
AcDbLine
 10
23.81821150499996
 20
19.04999999999995
 30
0.0
 11
23.81821150499996
 21
-19.05000000000001
 31
0.0
1001
ACAD
1000
RTMaterial
1005
0
  0
LINE
  5
5FEF4
330
1F
100
AcDbEntity
  8
1
100
AcDbLine
 10
9.52499999999992
 20
-6.937500000000056
 30
0.0
 11
8.52499999999992
 21
-7.937500000000056
 31
0.0
1001
ACAD
1000
RTMaterial
1005
0
  0
LINE
  5
5FEF5
330
1F
100
AcDbEntity
  8
sk3
100
AcDbLine
 10
34.7783053373999
 20
20.99999999999994
 30
0.0
 11
28.22169466269992
 21
20.99999999999994
 31
0.0
1001
ACAD
1000
RTMaterial
1005
0
  0
LINE
  5
5FEF6
330
1F
100
AcDbEntity
  8
1
100
AcDbLine
 10
52.14999390729992
 20
60.32459731469998
 30
0.0
 11
52.25309460129989
 21
60.46554753509991
 31
0.0
1001
ACAD
1000
RTMaterial
1005
0
  0
LINE
  5
5FEF7
330
1F
100
AcDbEntity
  8
1
100
AcDbLine
 10
0.9999999999999431
 20
-7.937500000000056
 30
0.0
 11
-0.0000000000000568
 21
-8.937500000000056
 31
0.0
1001
ACAD
1000
RTMaterial
1005
0
  0
LINE
  5
5FEF8
330
1F
100
AcDbEntity
  8
sk3
100
AcDbLine
 10
27.79907640089994
 20
20.90630778699995
 30
0.0
 11
23.81821150499996
 21
19.04999999999995
 31
0.0
1001
ACAD
1000
RTMaterial
1005
0
  0
LINE
  5
5FEF9
330
1F
100
AcDbEntity
  8
sk3
100
AcDbLine
 10
57.99999999999994
 20
27.99999999999994
 30
0.0
 11
42.99999999999994
 21
27.99999999999994
 31
0.0
1001
ACAD
1000
RTMaterial
1005
0
  0
LINE
  5
5FEFA
330
1F
100
AcDbEntity
  8
1
100
AcDbLine
 10
9.52499999999992
 20
6.937499999999943
 30
0.0
 11
9.52499999999992
 21
-6.937500000000056
 31
0.0
1001
ACAD
1000
RTMaterial
1005
0
  0
LINE
  5
5FEFB
330
1F
100
AcDbEntity
  8
sk3
100
AcDbLine
 10
7.999999999999943
 20
-19.55000000000001
 30
0.0
 11
7.999999999999943
 21
-7.937500000000056
 31
0.0
1001
ACAD
1000
RTMaterial
1005
0
  0
LINE
  5
5FEFC
330
1F
100
AcDbEntity
  8
sk3
100
AcDbLine
 10
7.999999999999943
 20
7.937499999999943
 30
0.0
 11
7.999999999999943
 21
19.54999999999995
 31
0.0
1001
ACAD
1000
RTMaterial
1005
0
  0
LINE
  5
5FEFD
330
1F
100
AcDbEntity
  8
1
100
AcDbLine
 10
48.70739137309993
 20
56.10230124239996
 30
0.0
 11
53.23723223529992
 21
60.94228115429996
 31
0.0
1001
ACAD
1000
RTMaterial
1005
0
  0
LINE
  5
5FEFE
330
1F
100
AcDbEntity
  8
1
100
AcDbLine
 10
49.06450513619995
 20
56.70171450809994
 30
0.0
 11
52.65694086589997
 21
60.51336174369993
 31
0.0
1001
ACAD
1000
RTMaterial
1005
0
  0
LINE
  5
5FEFF
330
1F
100
AcDbEntity
  8
1
100
AcDbLine
 10
52.14999390729992
 20
60.32459731469998
 30
0.0
 11
48.6220679871999
 21
56.61961470389996
 31
0.0
1001
ACAD
1000
RTMaterial
1005
0
  0
LINE
  5
5FF00
330
1F
100
AcDbEntity
  8
1
100
AcDbLine
 10
59.60852405459991
 20
47.5380716708999
 30
0.0
 11
59.6951980318999
 21
47.58334763609997
 31
0.0
1001
ACAD
1000
RTMaterial
1005
0
  0
LINE
  5
5FF01
330
1F
100
AcDbEntity
  8
1
100
AcDbLine
 10
59.54563416069993
 20
47.50522263169995
 30
0.0
 11
59.60852405459991
 21
47.5380716708999
 31
0.0
1001
ACAD
1000
RTMaterial
1005
0
  0
LINE
  5
5FF02
330
1F
100
AcDbEntity
  8
1
100
AcDbLine
 10
48.29980660219991
 20
55.20500257659995
 30
0.0
 11
48.19711073089997
 21
55.44366015619994
 31
0.0
1001
ACAD
1000
RTMaterial
1005
0
  0
LINE
  5
5FF03
330
1F
100
AcDbEntity
  8
1
100
AcDbLine
 10
48.26161378159992
 20
55.00116636599995
 30
0.0
 11
48.26198681129989
 21
55.00008485399996
 31
0.0
1001
ACAD
1000
RTMaterial
1005
0
  0
LINE
  5
5FF04
330
1F
100
AcDbEntity
  8
1
100
AcDbLine
 10
48.26198754659992
 20
55.00006626639998
 30
0.0
 11
48.37284547899992
 21
54.67877464659995
 31
0.0
1001
ACAD
1000
RTMaterial
1005
0
  0
LINE
  5
5FF05
330
1F
100
AcDbEntity
  8
1
100
AcDbLine
 10
59.59645248379991
 20
47.56099096709994
 30
0.0
 11
59.73651331909991
 21
47.59271058159993
 31
0.0
1001
ACAD
1000
RTMaterial
1005
0
  0
LINE
  5
5FF06
330
1F
100
AcDbEntity
  8
1
100
AcDbLine
 10
17.42111604669992
 20
48.11969112929995
 30
0.0
 11
14.21747399919991
 21
48.39997349039999
 31
0.0
1001
ACAD
1000
RTMaterial
1005
0
  0
LINE
  5
5FF07
330
1F
100
AcDbEntity
  8
1
100
AcDbLine
 10
47.91250562349989
 20
55.03643284359998
 30
0.0
 11
48.10681431369994
 21
54.77180196559993
 31
0.0
1001
ACAD
1000
RTMaterial
1005
0
  0
LINE
  5
5FF08
330
1F
100
AcDbEntity
  8
1
100
AcDbLine
 10
51.39795320049995
 20
50.28956819589996
 30
0.0
 11
51.83845721689994
 21
49.68964153029998
 31
0.0
1001
ACAD
1000
RTMaterial
1005
0
  0
LINE
  5
5FF09
330
1F
100
AcDbEntity
  8
1
100
AcDbLine
 10
50.81533797679992
 20
51.24430388569999
 30
0.0
 11
48.57413073359992
 21
54.29662563099999
 31
0.0
1001
ACAD
1000
RTMaterial
1005
0
  0
LINE
  5
5FF0A
330
1F
100
AcDbEntity
  8
sk3
100
AcDbLine
 10
1.199999999999931
 20
19.54999999999995
 30
0.0
 11
1.199999999999931
 21
7.937499999999943
 31
0.0
1001
ACAD
1000
RTMaterial
1005
0
  0
LINE
  5
5FF0B
330
1F
100
AcDbEntity
  8
sk3
100
AcDbLine
 10
1.199999999999931
 20
-7.937500000000056
 30
0.0
 11
1.199999999999931
 21
-19.55000000000001
 31
0.0
1001
ACAD
1000
RTMaterial
1005
0
  0
LINE
  5
5FF0C
102
{ACAD_REACTORS
330
60093
102
}
330
1F
100
AcDbEntity
  8
1
100
AcDbLine
 10
-0.0000000000000568
 20
-8.937500000000056
 30
0.0
 11
-0.0000000000000853
 21
-46.41899967210003
 31
0.0
1001
ACAD
1000
RTMaterial
1005
0
  0
LINE
  5
5FF0D
330
1F
100
AcDbEntity
  8
1
100
AcDbLine
 10
-0.0000000000000568
 20
8.937499999999943
 30
0.0
 11
-0.0000000000000568
 21
46.41899999999998
 31
0.0
1001
ACAD
1000
RTMaterial
1005
0
  0
LINE
  5
5FF0E
330
1F
100
AcDbEntity
  8
1
100
AcDbLine
 10
37.7118262457999
 20
59.41044443119995
 30
0.0
 11
28.37026633319993
 21
51.57194495389996
 31
0.0
1001
ACAD
1000
RTMaterial
1005
0
  0
LINE
  5
5FF0F
330
1F
100
AcDbEntity
  8
1
100
AcDbLine
 10
53.81227027529991
 20
61.40396915539998
 30
0.0
 11
53.81630795049995
 21
61.40608941479991
 31
0.0
1001
ACAD
1000
RTMaterial
1005
0
  0
LINE
  5
5FF10
330
1F
100
AcDbEntity
  8
1
100
AcDbLine
 10
53.81236534479995
 20
61.4040203854999
 30
0.0
 11
53.80851485129989
 21
61.40201551039996
 31
0.0
1001
ACAD
1000
RTMaterial
1005
0
  0
LINE
  5
5FF11
330
1F
100
AcDbEntity
  8
1
100
AcDbLine
 10
54.14539470789993
 20
61.57750468509994
 30
0.0
 11
53.81631349809993
 21
61.40607666099993
 31
0.0
1001
ACAD
1000
RTMaterial
1005
0
  0
LINE
  5
5FF12
330
1F
100
AcDbEntity
  8
1
100
AcDbLine
 10
54.6962188857999
 20
61.86415035580001
 30
0.0
 11
54.5326682217999
 21
61.77899962249995
 31
0.0
1001
ACAD
1000
RTMaterial
1005
0
  0
LINE
  5
5FF13
330
1F
100
AcDbEntity
  8
1
100
AcDbLine
 10
59.65154868909991
 20
47.59033077789996
 30
0.0
 11
60.1671515189999
 21
47.60481910529995
 31
0.0
1001
ACAD
1000
RTMaterial
1005
0
  0
LINE
  5
5FF14
330
1F
100
AcDbEntity
  8
1
100
AcDbLine
 10
13.78169528549995
 20
48.41899999999998
 30
0.0
 11
1.999999999999943
 21
48.41899999999998
 31
0.0
1001
ACAD
1000
RTMaterial
1005
0
  0
LINE
  5
5FF15
330
1F
100
AcDbEntity
  8
1
100
AcDbLine
 10
55.1835008244999
 20
47.89675259619992
 30
0.0
 11
29.94938549599993
 21
49.39267423019993
 31
0.0
1001
ACAD
1000
RTMaterial
1005
0
  0
LINE
  5
5FF16
330
1F
100
AcDbEntity
  8
1
100
AcDbLine
 10
62.19999999999993
 20
46.58219385229995
 30
0.0
 11
56.56703362079992
 21
47.71724423099994
 31
0.0
1001
ACAD
1000
RTMaterial
1005
0
  0
LINE
  5
5FF17
330
1F
100
AcDbEntity
  8
1
100
AcDbLine
 10
52.30014443919992
 20
49.65451883179998
 30
0.0
 11
52.30048519839994
 21
49.6542724011
 31
0.0
1001
ACAD
1000
RTMaterial
1005
0
  0
LINE
  5
5FF18
330
1F
100
AcDbEntity
  8
1
100
AcDbLine
 10
48.15912382729994
 20
55.50252703479992
 30
0.0
 11
48.02245709429991
 21
55.66247822389994
 31
0.0
1001
ACAD
1000
RTMaterial
1005
0
  0
LINE
  5
5FF19
330
1F
100
AcDbEntity
  8
1
100
AcDbLine
 10
61.53271046769993
 20
61.52287994949995
 30
0.0
 11
63.43637386899991
 21
55.15832398639997
 31
0.0
1001
ACAD
1000
RTMaterial
1005
0
  0
LINE
  5
5FF1A
330
1F
100
AcDbEntity
  8
1
100
AcDbLine
 10
53.81236534479995
 20
61.4040203854999
 30
0.0
 11
53.81274123499991
 21
61.40421600209998
 31
0.0
1001
ACAD
1000
RTMaterial
1005
0
  0
LINE
  5
5FF1B
330
1F
100
AcDbEntity
  8
1
100
AcDbLine
 10
54.5326682217999
 20
61.77899962249995
 30
0.0
 11
54.14539470789993
 21
61.57750468509994
 31
0.0
1001
ACAD
1000
RTMaterial
1005
0
  0
LINE
  5
5FF1C
330
1F
100
AcDbEntity
  8
1
100
AcDbLine
 10
53.80850865939994
 20
61.40201228929999
 30
0.0
 11
53.80328662629989
 21
61.39930653149997
 31
0.0
1001
ACAD
1000
RTMaterial
1005
0
  0
LINE
  5
5FF1D
330
1F
100
AcDbEntity
  8
1
100
AcDbLine
 10
53.80328662629989
 20
61.39930653149997
 30
0.0
 11
53.79330108409994
 21
61.3942049579
 31
0.0
1001
ACAD
1000
RTMaterial
1005
0
  0
LINE
  5
5FF1E
330
1F
100
AcDbEntity
  8
1
100
AcDbLine
 10
53.79330108409994
 20
61.3942049579
 30
0.0
 11
53.78302635099993
 21
61.38905609069997
 31
0.0
1001
ACAD
1000
RTMaterial
1005
0
  0
LWPOLYLINE
  5
5FF1F
330
1F
100
AcDbEntity
  8
1
100
AcDbPolyline
 90
        6
 70
     0
 43
0.0
 10
53.78302635099993
 20
61.38905609069997
 10
53.77258145219991
 20
61.38392779569994
 10
53.76188790399993
 20
61.37878913649996
 10
53.75067106559993
 20
61.37352086789997
 10
53.73883758699992
 20
61.36809736839996
 10
53.73632639539988
 20
61.36696404599996
1001
ACAD
1000
RTMaterial
1005
0
  0
LINE
  5
5FF20
330
1F
100
AcDbEntity
  8
1
100
AcDbLine
 10
49.06450513619995
 20
56.70171450809994
 30
0.0
 11
48.90055166589997
 21
56.69962755479992
 31
0.0
1001
ACAD
1000
RTMaterial
1005
0
  0
LINE
  5
5FF21
330
1F
100
AcDbEntity
  8
1
100
AcDbLine
 10
47.43962672759994
 20
54.78794448349993
 30
0.0
 11
34.84469084279993
 21
55.53459388339991
 31
0.0
1001
ACAD
1000
RTMaterial
1005
0
  0
LINE
  5
5FF22
330
1F
100
AcDbEntity
  8
1
100
AcDbLine
 10
56.92872555169993
 20
53.68479177799992
 30
0.0
 11
57.05688749199993
 21
53.66685693019991
 31
0.0
1001
ACAD
1000
RTMaterial
1005
0
  0
LINE
  5
5FF23
330
1F
100
AcDbEntity
  8
1
100
AcDbLine
 10
54.76708734609991
 20
54.2019712965
 30
0.0
 11
54.8952492864999
 21
54.18403644859996
 31
0.0
1001
ACAD
1000
RTMaterial
1005
0
  0
LINE
  5
5FF24
330
1F
100
AcDbEntity
  8
1
100
AcDbLine
 10
48.16975310409993
 20
54.75744154299992
 30
0.0
 11
47.81040724709993
 21
54.8394316536
 31
0.0
1001
ACAD
1000
RTMaterial
1005
0
  0
LINE
  5
5FF25
330
1F
100
AcDbEntity
  8
1
100
AcDbLine
 10
59.12989448209993
 20
47.72921479529998
 30
0.0
 11
53.65035030779996
 21
49.02772669129996
 31
0.0
1001
ACAD
1000
RTMaterial
1005
0
  0
LINE
  5
5FF26
330
1F
100
AcDbEntity
  8
1
100
AcDbLine
 10
59.78869359489994
 20
47.64435769989995
 30
0.0
 11
53.35518933139991
 21
49.16893375109999
 31
0.0
1001
ACAD
1000
RTMaterial
1005
0
  0
LINE
  5
5FF27
330
1F
100
AcDbEntity
  8
1
100
AcDbLine
 10
59.64068449209992
 20
47.45401142799994
 30
0.0
 11
59.12989448219992
 21
47.72921479529998
 31
0.0
1001
ACAD
1000
RTMaterial
1005
0
  0
LINE
  5
5FF28
330
1F
100
AcDbEntity
  8
1
100
AcDbLine
 10
52.22955241329993
 20
49.70260362109996
 30
0.0
 11
52.29838530919995
 21
49.6557570022
 31
0.0
1001
ACAD
1000
RTMaterial
1005
0
  0
LINE
  5
5FF29
330
1F
100
AcDbEntity
  8
1
100
AcDbLine
 10
52.29697432659992
 20
49.65671509259994
 30
0.0
 11
52.2983398012999
 21
49.65578174709998
 31
0.0
1001
ACAD
1000
RTMaterial
1005
0
  0
LINE
  5
5FF2A
330
1F
100
AcDbEntity
  8
1
100
AcDbLine
 10
51.80815019059991
 20
49.99139666839994
 30
0.0
 11
52.22955241329993
 21
49.70260362109996
 31
0.0
1001
ACAD
1000
RTMaterial
1005
0
  0
LINE
  5
5FF2B
330
1F
100
AcDbEntity
  8
1
100
AcDbLine
 10
52.29843071349989
 20
49.65571943199996
 30
0.0
 11
52.30014443919992
 21
49.65451883179998
 31
0.0
1001
ACAD
1000
RTMaterial
1005
0
  0
LINE
  5
5FF2C
330
1F
100
AcDbEntity
  8
1
100
AcDbLine
 10
47.64245781409994
 20
55.97434649830001
 30
0.0
 11
47.95852006529992
 21
55.72290046459994
 31
0.0
1001
ACAD
1000
RTMaterial
1005
0
  0
LINE
  5
5FF2D
330
1F
100
AcDbEntity
  8
1
100
AcDbLine
 10
48.16975310409993
 20
54.75744154299992
 30
0.0
 11
48.42376048759991
 21
54.55187357209997
 31
0.0
1001
ACAD
1000
RTMaterial
1005
0
  0
LINE
  5
5FF2E
330
1F
100
AcDbEntity
  8
1
100
AcDbLine
 10
53.98364217839992
 20
61.493288549
 30
0.0
 11
53.22632773359993
 21
61.34716309269993
 31
0.0
1001
ACAD
1000
RTMaterial
1005
0
  0
LINE
  5
5FF2F
330
1F
100
AcDbEntity
  8
1
100
AcDbLine
 10
44.13970234269993
 20
60.40273134419994
 30
0.0
 11
52.12813711189994
 21
60.40335657859998
 31
0.0
1001
ACAD
1000
RTMaterial
1005
0
  0
LINE
  5
5FF30
330
1F
100
AcDbEntity
  8
1
100
AcDbLine
 10
44.13970234269993
 20
61.74999999999994
 30
0.0
 11
52.96254206599991
 21
61.74999999999994
 31
0.0
1001
ACAD
1000
RTMaterial
1005
0
  0
LINE
  5
5FF31
330
1F
100
AcDbEntity
  8
1
100
AcDbLine
 10
52.96254206599991
 20
61.74999999999994
 30
0.0
 11
53.03729405229995
 21
61.74649993129992
 31
0.0
1001
ACAD
1000
RTMaterial
1005
0
  0
LINE
  5
5FF32
330
1F
100
AcDbEntity
  8
1
100
AcDbLine
 10
57.5963086514999
 20
55.80503763109999
 30
0.0
 11
57.72447059189994
 21
55.78710278319994
 31
0.0
1001
ACAD
1000
RTMaterial
1005
0
  0
LINE
  5
5FF33
330
1F
100
AcDbEntity
  8
1
100
AcDbLine
 10
55.43467044589994
 20
56.32221714959996
 30
0.0
 11
55.56283238629993
 21
56.30428230169997
 31
0.0
1001
ACAD
1000
RTMaterial
1005
0
  0
LINE
  5
5FF34
330
1F
100
AcDbEntity
  8
1
100
AcDbLine
 10
56.24838147069993
 20
62.08943600139997
 30
0.0
 11
59.99789243809994
 21
62.51490878209995
 31
0.0
1001
ACAD
1000
RTMaterial
1005
0
  0
LINE
  5
5FF35
330
1F
100
AcDbEntity
  8
1
100
AcDbLine
 10
53.03729405229995
 20
61.74649993129992
 30
0.0
 11
54.2512259987999
 21
61.63257170519995
 31
0.0
1001
ACAD
1000
RTMaterial
1005
0
  0
LINE
  5
5FF36
330
1F
100
AcDbEntity
  8
nocut
100
AcDbLine
 10
37.71182624579996
 20
59.41044443120006
 30
0.0
 11
28.37026633319993
 21
51.57194495390001
 31
0.0
1001
ACAD
1000
RTMaterial
1005
0
  0
LINE
  5
5FF37
330
1F
100
AcDbEntity
  8
nocut
100
AcDbLine
 10
17.42111604669992
 20
48.1196911293
 30
0.0
 11
14.21747399919991
 21
48.39997349050003
 31
0.0
1001
ACAD
1000
RTMaterial
1005
0
  0
LINE
  5
5FF38
330
1F
100
AcDbEntity
  8
nocut
100
AcDbLine
 10
13.78169528549995
 20
48.41899999999998
 30
0.0
 11
1.999999999999943
 21
48.41899999999998
 31
0.0
1001
ACAD
1000
RTMaterial
1005
0
  0
LINE
  5
5FF39
330
1F
100
AcDbEntity
  8
nocut
100
AcDbLine
 10
52.96254206599996
 20
61.75000000000006
 30
0.0
 11
44.13970234269993
 21
61.75
 31
0.0
1001
ACAD
1000
RTMaterial
1005
0
  0
ARC
  5
5FF3A
330
1F
100
AcDbEntity
  8
cut
100
AcDbCircle
 10
60.11018566089996
 20
61.99999999999994
 30
0.0
 40
1.5
100
AcDbArc
 50
16.99999999999887
 51
95.36381013220106
1001
ACAD
1000
RTMaterial
1005
0
  0
ARC
  5
5FF3B
330
1F
100
AcDbEntity
  8
nocut
100
AcDbCircle
 10
59.60095250289999
 20
60.85287045220002
 30
0.0
 40
1.199999999999999
100
AcDbArc
 50
16.40311328500015
 51
95.02224461130072
1001
ACAD
1000
RTMaterial
1005
0
  0
ARC
  5
5FF3C
330
1F
100
AcDbEntity
  8
nocut
100
AcDbCircle
 10
52.96254206599996
 20
60.94999999999998
 30
0.0
 40
0.8
100
AcDbArc
 50
84.63846199779917
 51
90.0
1001
ACAD
1000
RTMaterial
1005
0
  0
ARC
  5
5FF3D
330
1F
100
AcDbEntity
  8
nocut
100
AcDbCircle
 10
54.50237846959993
 20
62.4125163475
 30
0.0
 40
0.8
100
AcDbArc
 50
264.6384619977991
 51
275.0222446113006
1001
ACAD
1000
RTMaterial
1005
0
  0
ARC
  5
5FF3E
330
1F
100
AcDbEntity
  8
sk3
100
AcDbCircle
 10
73.99999999999991
 20
44.21150135389996
 30
0.0
 40
15.0
100
AcDbArc
 50
155.7335718931992
 51
180.0
1001
ACAD
1000
RTMaterial
1005
0
  0
ARC
  5
5FF3F
330
1F
100
AcDbEntity
  8
sk3
100
AcDbCircle
 10
73.99999999999991
 20
-44.21150135390002
 30
0.0
 40
15.0
100
AcDbArc
 50
180.0
 51
204.2664281068008
1001
ACAD
1000
RTMaterial
1005
0
  0
ARC
  5
5FF40
330
1F
100
AcDbEntity
  8
1
100
AcDbCircle
 10
18.7284521878999
 20
63.0626116007
 30
0.0
 40
15.0
100
AcDbArc
 50
265.0000000000002
 51
309.9999999999998
1001
ACAD
1000
RTMaterial
1005
0
  0
ARC
  5
5FF41
330
1F
100
AcDbEntity
  8
1
100
AcDbCircle
 10
18.7284521878999
 20
-63.06261160070005
 30
0.0
 40
15.0
100
AcDbArc
 50
50.00000000000004
 51
94.99999999999976
1001
ACAD
1000
RTMaterial
1005
0
  0
ARC
  5
5FF42
330
1F
100
AcDbEntity
  8
1
100
AcDbCircle
 10
54.59172261169993
 20
37.91427802589993
 30
0.0
 40
10.0
100
AcDbArc
 50
78.60737846329936
 51
86.60737846329922
1001
ACAD
1000
RTMaterial
1005
0
  0
ARC
  5
5FF43
330
1F
100
AcDbEntity
  8
1
100
AcDbCircle
 10
44.13970234269993
 20
51.74999999999994
 30
0.0
 40
10.0
100
AcDbArc
 50
90.0
 51
129.9999999999998
1001
ACAD
1000
RTMaterial
1005
0
  0
ARC
  5
5FF44
330
1F
100
AcDbEntity
  8
1
100
AcDbCircle
 10
44.1397023426999
 20
-51.75000000000006
 30
0.0
 40
10.0
100
AcDbArc
 50
230.0000000000002
 51
270.0
1001
ACAD
1000
RTMaterial
1005
0
  0
ARC
  5
5FF45
330
1F
100
AcDbEntity
  8
1
100
AcDbCircle
 10
13.78169528549995
 20
43.41899999999998
 30
0.0
 40
5.0
100
AcDbArc
 50
85.00000000000021
 51
90.0
1001
ACAD
1000
RTMaterial
1005
0
  0
ARC
  5
5FF46
330
1F
100
AcDbEntity
  8
1
100
AcDbCircle
 10
13.78169528549995
 20
-43.41900000000004
 30
0.0
 40
5.0
100
AcDbArc
 50
270.0
 51
274.9999999999998
1001
ACAD
1000
RTMaterial
1005
0
  0
ARC
  5
5FF47
102
{ACAD_REACTORS
330
6007B
330
600F9
102
}
330
1F
100
AcDbEntity
  8
1
100
AcDbCircle
 10
1.999999999999943
 20
46.41899999999998
 30
0.0
 40
2.0
100
AcDbArc
 50
90.0
 51
180.0
1001
ACAD
1000
RTMaterial
1005
0
  0
ARC
  5
5FF48
102
{ACAD_REACTORS
330
6007B
102
}
330
1F
100
AcDbEntity
  8
1
100
AcDbCircle
 10
1.999999999999914
 20
-46.41900000000004
 30
0.0
 40
2.0
100
AcDbArc
 50
180.0
 51
270.0
1001
ACAD
1000
RTMaterial
1005
0
  0
ARC
  5
5FF49
330
1F
100
AcDbEntity
  8
1
100
AcDbCircle
 10
59.6009525028999
 20
-60.85287045220002
 30
0.0
 40
1.199999999999999
100
AcDbArc
 50
264.9777553886012
 51
343.5968867150001
1001
ACAD
1000
RTMaterial
1005
0
  0
ARC
  5
5FF4A
102
{ACAD_REACTORS
330
60093
102
}
330
1F
100
AcDbEntity
  8
sk3
100
AcDbCircle
 10
42.99999999999994
 20
-27.00000000000006
 30
0.0
 40
1.0
100
AcDbArc
 50
180.0
 51
270.0
1001
ACAD
1000
RTMaterial
1005
0
  0
ARC
  5
5FF4B
330
1F
100
AcDbEntity
  8
sk3
100
AcDbCircle
 10
42.99999999999994
 20
26.99999999999994
 30
0.0
 40
1.0
100
AcDbArc
 50
90.0
 51
180.0
1001
ACAD
1000
RTMaterial
1005
0
  0
ARC
  5
5FF4C
330
1F
100
AcDbEntity
  8
sk3
100
AcDbCircle
 10
28.22169466269992
 20
-20.00000000000006
 30
0.0
 40
1.0
100
AcDbArc
 50
245.0000000000004
 51
270.0
1001
ACAD
1000
RTMaterial
1005
0
  0
ARC
  5
5FF4D
330
1F
100
AcDbEntity
  8
sk3
100
AcDbCircle
 10
28.22169466269992
 20
19.99999999999994
 30
0.0
 40
1.0
100
AcDbArc
 50
90.0
 51
114.9999999999996
1001
ACAD
1000
RTMaterial
1005
0
  0
ARC
  5
5FF4E
330
1F
100
AcDbEntity
  8
sk3
100
AcDbCircle
 10
34.7783053373999
 20
19.99999999999994
 30
0.0
 40
1.0
100
AcDbArc
 50
65.00000000000039
 51
90.0
1001
ACAD
1000
RTMaterial
1005
0
  0
ARC
  5
5FF4F
330
1F
100
AcDbEntity
  8
sk3
100
AcDbCircle
 10
34.7783053373999
 20
-20.00000000000006
 30
0.0
 40
1.0
100
AcDbArc
 50
270.0
 51
294.9999999999996
1001
ACAD
1000
RTMaterial
1005
0
  0
ARC
  5
5FF50
330
1F
100
AcDbEntity
  8
sk3
100
AcDbCircle
 10
37.36620158319994
 20
-21.00000000000006
 30
0.0
 40
1.0
100
AcDbArc
 50
90.0
 51
114.9999999999996
1001
ACAD
1000
RTMaterial
1005
0
  0
ARC
  5
5FF51
330
1F
100
AcDbEntity
  8
sk3
100
AcDbCircle
 10
37.36620158319994
 20
20.99999999999994
 30
0.0
 40
1.0
100
AcDbArc
 50
245.0000000000004
 51
270.0
1001
ACAD
1000
RTMaterial
1005
0
  0
ARC
  5
5FF52
330
1F
100
AcDbEntity
  8
1
100
AcDbCircle
 10
54.5023784695999
 20
-62.4125163475
 30
0.0
 40
0.8
100
AcDbArc
 50
84.97775538869928
 51
95.36153800220082
1001
ACAD
1000
RTMaterial
1005
0
  0
ARC
  5
5FF53
330
1F
100
AcDbEntity
  8
nocut
100
AcDbCircle
 10
18.72845218789996
 20
63.0626116007
 30
0.0
 40
15.0
100
AcDbArc
 50
265.0000000000002
 51
309.9999999999998
1001
ACAD
1000
RTMaterial
1005
0
  0
ARC
  5
5FF54
330
1F
100
AcDbEntity
  8
nocut
100
AcDbCircle
 10
44.13970234269993
 20
51.75
 30
0.0
 40
10.0
100
AcDbArc
 50
90.0
 51
129.9999999999998
1001
ACAD
1000
RTMaterial
1005
0
  0
ARC
  5
5FF55
330
1F
100
AcDbEntity
  8
nocut
100
AcDbCircle
 10
13.78169528549995
 20
43.41899999999998
 30
0.0
 40
5.0
100
AcDbArc
 50
85.00000000000021
 51
90.0
1001
ACAD
1000
RTMaterial
1005
0
  0
ARC
  5
5FF56
330
1F
100
AcDbEntity
  8
nocut
100
AcDbCircle
 10
1.999999999999943
 20
46.41899999999998
 30
0.0
 40
2.0
100
AcDbArc
 50
90.0
 51
180.0
1001
ACAD
1000
RTMaterial
1005
0
  0
SPLINE
  5
5FF57
330
1F
100
AcDbEntity
  8
cut
100
AcDbSpline
210
0.0
220
0.0
230
1.0
 70
     8
 71
     3
 72
    22
 73
    18
 74
     0
 42
0.0000000001
 43
0.0000000001
 40
0.0
 40
0.0
 40
0.0
 40
0.0
 40
0.0666666667
 40
0.1333333333
 40
0.2
 40
0.2666666667
 40
0.3333333333
 40
0.4
 40
0.4666666667000001
 40
0.5333333333
 40
0.6
 40
0.6666666667
 40
0.7333333333
 40
0.8
 40
0.8666666667000001
 40
0.9333333333
 40
1.0
 40
1.0
 40
1.0
 40
1.0
 10
63.47384048889995
 20
54.50751930279995
 30
0.0
 10
63.47543822429992
 20
54.53568489929995
 30
0.0
 10
63.4784795052999
 20
54.59152807819998
 30
0.0
 10
63.48253862109993
 20
54.67285018309997
 30
0.0
 10
63.48625821029992
 20
54.75466307529996
 30
0.0
 10
63.48969218599989
 20
54.83900226759994
 30
0.0
 10
63.49287100729992
 20
54.9277740361
 30
0.0
 10
63.49569449269989
 20
55.01961378729993
 30
0.0
 10
63.49809658509991
 20
55.11338855739996
 30
0.0
 10
63.50003795309993
 20
55.20788450919997
 30
0.0
 10
63.50149673549992
 20
55.30198432159995
 30
0.0
 10
63.50245812249994
 20
55.39433717599997
 30
0.0
 10
63.50292844349991
 20
55.48376485879993
 30
0.0
 10
63.50294678029991
 20
55.56878766109997
 30
0.0
 10
63.50256821479991
 20
55.65127962579999
 30
0.0
 10
63.50181675229993
 20
55.73319406459996
 30
0.0
 10
63.50104384069993
 20
55.78960620629993
 30
0.0
 10
63.50058650509993
 20
55.81808053419996
 30
0.0
1001
ACAD
1000
RTMaterial
1005
0
  0
SPLINE
  5
5FF58
330
1F
100
AcDbEntity
  8
cut
100
AcDbSpline
210
0.0
220
0.0
230
1.0
 70
     8
 71
     3
 72
    11
 73
     7
 74
     0
 42
0.0000000001
 43
0.0000000001
 40
0.0
 40
0.0
 40
0.0
 40
0.0
 40
0.25
 40
0.5
 40
0.75
 40
1.0
 40
1.0
 40
1.0
 40
1.0
 10
63.50000023459995
 20
55.85134276589991
 30
0.0
 10
63.49922792089995
 20
55.88752549869991
 30
0.0
 10
63.49527636509993
 20
55.95851513979994
 30
0.0
 10
63.48181324889992
 20
56.06138399279996
 30
0.0
 10
63.46217007429988
 20
56.15911047419996
 30
0.0
 10
63.44549553369995
 20
56.22089174629997
 30
0.0
 10
63.43637431679991
 20
56.25098255489996
 30
0.0
1001
ACAD
1000
RTMaterial
1005
0
  0
LINE
  5
5FF59
330
1F
100
AcDbEntity
  8
cut
100
AcDbLine
 10
63.50058650509993
 20
55.81808053419996
 30
0.0
 11
63.50000023459995
 21
55.85134276589991
 31
0.0
1001
ACAD
1000
RTMaterial
1005
0
  0
SPLINE
  5
5FF5A
330
1F
100
AcDbEntity
  8
cut
100
AcDbSpline
210
0.0
220
0.0
230
1.0
 70
     8
 71
     3
 72
    11
 73
     7
 74
     0
 42
0.0000000001
 43
0.0000000001
 40
0.0
 40
0.0
 40
0.0
 40
0.0
 40
0.25
 40
0.5
 40
0.75
 40
1.0
 40
1.0
 40
1.0
 40
1.0
 10
56.24838147429989
 20
63.14400999089992
 30
0.0
 10
56.16780901329992
 20
63.13656105449997
 30
0.0
 10
55.99605807199992
 20
63.12132016009991
 30
0.0
 10
55.70517610849993
 20
63.0981295050999
 30
0.0
 10
55.38504527849994
 20
63.07579762929998
 30
0.0
 10
55.15076401489989
 20
63.06203976789999
 30
0.0
 10
55.02850851799991
 20
63.05564576309996
 30
0.0
1001
ACAD
1000
RTMaterial
1005
0
  0
SPLINE
  5
5FF5B
330
1F
100
AcDbEntity
  8
cut
100
AcDbSpline
210
0.0
220
0.0
230
1.0
 70
     8
 71
     3
 72
    11
 73
     7
 74
     0
 42
0.0000000001
 43
0.0000000001
 40
0.0
 40
0.0
 40
0.0
 40
0.0
 40
0.25
 40
0.5
 40
0.75
 40
1.0
 40
1.0
 40
1.0
 40
1.0
 10
55.02850851799991
 20
63.05564576309996
 30
0.0
 10
55.0051250292999
 20
63.05388444169995
 30
0.0
 10
54.95929870859993
 20
63.04899014339992
 30
0.0
 10
54.89311262959995
 20
63.03776152409994
 30
0.0
 10
54.8301972907999
 20
63.02312478949994
 30
0.0
 10
54.79051772339994
 20
63.01128445179995
 30
0.0
 10
54.77121398489993
 20
63.00489714299994
 30
0.0
1001
ACAD
1000
RTMaterial
1005
0
  0
SPLINE
  5
5FF5C
330
1F
100
AcDbEntity
  8
cut
100
AcDbSpline
210
0.0
220
0.0
230
1.0
 70
     8
 71
     3
 72
    10
 73
     6
 74
     0
 42
0.0000000001
 43
0.0000000001
 40
0.0
 40
0.0
 40
0.0
 40
0.0
 40
0.3333333333
 40
0.6666666667
 40
1.0
 40
1.0
 40
1.0
 40
1.0
 10
54.77121398489993
 20
63.00489714299994
 30
0.0
 10
54.76218968099994
 20
63.00191114029996
 30
0.0
 10
54.74429523799995
 20
62.99558180779996
 30
0.0
 10
54.71788676569992
 20
62.98498565309995
 30
0.0
 10
54.70063790429993
 20
62.97721875249999
 30
0.0
 10
54.69209503639991
 20
62.97316108029997
 30
0.0
1001
ACAD
1000
RTMaterial
1005
0
  0
SPLINE
  5
5FF5D
330
1F
100
AcDbEntity
  8
cut
100
AcDbSpline
210
0.0
220
0.0
230
1.0
 70
     8
 71
     3
 72
    22
 73
    18
 74
     0
 42
0.0000000001
 43
0.0000000001
 40
0.0
 40
0.0
 40
0.0
 40
0.0
 40
0.0666666667
 40
0.1333333333
 40
0.2
 40
0.2666666667
 40
0.3333333333
 40
0.4
 40
0.4666666667000001
 40
0.5333333333
 40
0.6
 40
0.6666666667
 40
0.7333333333
 40
0.8
 40
0.8666666667000001
 40
0.9333333333
 40
1.0
 40
1.0
 40
1.0
 40
1.0
 10
54.69209503639991
 20
62.97316108029997
 30
0.0
 10
54.66764532299993
 20
62.96154801059993
 30
0.0
 10
54.61922966959992
 20
62.93841613439991
 30
0.0
 10
54.54890427459992
 20
62.90441750619994
 30
0.0
 10
54.47832124189995
 20
62.86990135409991
 30
0.0
 10
54.40574061249993
 20
62.83397443830001
 30
0.0
 10
54.32953829569993
 20
62.7957809472
 30
0.0
 10
54.2509127205999
 20
62.75586544209994
 30
0.0
 10
54.17085151349994
 20
62.7146950190999
 30
0.0
 10
54.09039922639994
 20
62.67279775639997
 30
0.0
 10
54.01050808869991
 20
62.63067065489997
 30
0.0
 10
53.93232241949988
 20
62.58892344729992
 30
0.0
 10
53.85683231769991
 20
62.54810478799993
 30
0.0
 10
53.78526595569991
 20
62.50893039129994
 30
0.0
 10
53.71601805349991
 20
62.47058238229993
 30
0.0
 10
53.64743169969989
 20
62.43218015589992
 30
0.0
 10
53.6003167648999
 20
62.40551332459995
 30
0.0
 10
53.57656661959993
 20
62.39199520540001
 30
0.0
1001
ACAD
1000
RTMaterial
1005
0
  0
SPLINE
  5
5FF5E
330
1F
100
AcDbEntity
  8
cut
100
AcDbSpline
210
0.0
220
0.0
230
1.0
 70
     8
 71
     3
 72
    11
 73
     7
 74
     0
 42
0.0000000001
 43
0.0000000001
 40
0.0
 40
0.0
 40
0.0
 40
0.0
 40
0.25
 40
0.5
 40
0.75
 40
1.0
 40
1.0
 40
1.0
 40
1.0
 10
53.54884158429991
 20
62.37615397489992
 30
0.0
 10
53.52126487389995
 20
62.36033970569997
 30
0.0
 10
53.46679450839991
 20
62.32650320969998
 30
0.0
 10
53.38661497789991
 20
62.26841617599996
 30
0.0
 10
53.30999836829994
 20
62.20430617939991
 30
0.0
 10
53.26108765529994
 20
62.15741398899996
 30
0.0
 10
53.23723186499996
 20
62.13290184829998
 30
0.0
1001
ACAD
1000
RTMaterial
1005
0
  0
LINE
  5
5FF5F
330
1F
100
AcDbEntity
  8
cut
100
AcDbLine
 10
53.57656661959993
 20
62.39199520540001
 30
0.0
 11
53.54884158429991
 21
62.37615397489992
 31
0.0
1001
ACAD
1000
RTMaterial
1005
0
  0
SPLINE
  5
5FF60
330
1F
100
AcDbEntity
  8
cut
100
AcDbSpline
210
0.0
220
0.0
230
1.0
 70
     8
 71
     3
 72
    21
 73
    17
 74
     0
 42
0.0000000001
 43
0.0000000001
 40
0.0
 40
0.0
 40
0.0
 40
0.0
 40
0.0714285714
 40
0.1428571429
 40
0.2142857143
 40
0.2857142857
 40
0.3571428571
 40
0.4285714286
 40
0.5
 40
0.5714285714000001
 40
0.6428571429
 40
0.7142857143000001
 40
0.7857142857
 40
0.8571428570999998
 40
0.9285714285999999
 40
1.0
 40
1.0
 40
1.0
 40
1.0
 10
53.23723186499996
 20
62.13290184829998
 30
0.0
 10
53.17812596719988
 20
62.07216975479991
 30
0.0
 10
53.05468651509994
 20
61.94534919919994
 30
0.0
 10
52.85458143199992
 20
61.73982611059995
 30
0.0
 10
52.63728306759992
 20
61.51671542899999
 30
0.0
 10
52.40175294429992
 20
61.27497094919994
 30
0.0
 10
52.14702676969989
 20
61.01362546319996
 30
0.0
 10
51.8721538284999
 20
60.73172881059992
 30
0.0
 10
51.57427508199993
 20
60.42638086299991
 30
0.0
 10
51.25208494729992
 20
60.09628087900001
 30
0.0
 10
50.90383673059989
 20
59.73968362339991
 30
0.0
 10
50.5278727400999
 20
59.35494452739994
 30
0.0
 10
50.1225269805999
 20
58.94042064109999
 30
0.0
 10
49.68608043519992
 20
58.49442679529994
 30
0.0
 10
49.21706134379991
 20
58.0155436775999
 30
0.0
 10
48.88108459009993
 20
57.67281356299992
 30
0.0
 10
48.70739137969991
 20
57.49572099029996
 30
0.0
1001
ACAD
1000
RTMaterial
1005
0
  0
SPLINE
  5
5FF61
330
1F
100
AcDbEntity
  8
cut
100
AcDbSpline
210
0.0
220
0.0
230
1.0
 70
     8
 71
     3
 72
    16
 73
    12
 74
     0
 42
0.0000000001
 43
0.0000000001
 40
0.0
 40
0.0
 40
0.0
 40
0.0
 40
0.1111111111
 40
0.2222222222
 40
0.3333333333
 40
0.4444444444000001
 40
0.5555555556
 40
0.6666666667
 40
0.7777777778
 40
0.8888888889
 40
1.0
 40
1.0
 40
1.0
 40
1.0
 10
48.70739137969991
 20
57.49572099029996
 30
0.0
 10
48.68280253159992
 20
57.47065091209998
 30
0.0
 10
48.63541965299993
 20
57.4185471065
 30
0.0
 10
48.56920496069995
 20
57.33360280529996
 30
0.0
 10
48.50979032979996
 20
57.24420377209998
 30
0.0
 10
48.45686294819995
 20
57.15031423239992
 30
0.0
 10
48.41089870229996
 20
57.05210806479994
 30
0.0
 10
48.37226439829994
 20
56.9506769475999
 30
0.0
 10
48.34098596699988
 20
56.84623401919992
 30
0.0
 10
48.31727808699992
 20
56.739095819
 30
0.0
 10
48.30677277139995
 20
56.66682949559993
 30
0.0
 10
48.30283569239992
 20
56.63040519159995
 30
0.0
1001
ACAD
1000
RTMaterial
1005
0
  0
LINE
  5
5FF62
330
1F
100
AcDbEntity
  8
cut
100
AcDbLine
 10
48.30283569239992
 20
56.63040519159995
 30
0.0
 11
48.29980660199993
 21
56.59938666929997
 31
0.0
1001
ACAD
1000
RTMaterial
1005
0
  0
LINE
  5
5FF63
330
1F
100
AcDbEntity
  8
cut
100
AcDbLine
 10
48.29980660199993
 20
56.59938666929997
 30
0.0
 11
48.29850311529992
 21
56.56785135779995
 31
0.0
1001
ACAD
1000
RTMaterial
1005
0
  0
SPLINE
  5
5FF64
330
1F
100
AcDbEntity
  8
cut
100
AcDbSpline
210
0.0
220
0.0
230
1.0
 70
     8
 71
     3
 72
    10
 73
     6
 74
     0
 42
0.0000000001
 43
0.0000000001
 40
0.0
 40
0.0
 40
0.0
 40
0.0
 40
0.3333333333
 40
0.6666666667
 40
1.0
 40
1.0
 40
1.0
 40
1.0
 10
48.29850311529992
 20
56.56785135779995
 30
0.0
 10
48.29765292649989
 20
56.54027591799991
 30
0.0
 10
48.29749402249996
 20
56.48546669129996
 30
0.0
 10
48.30166925339995
 20
56.40400347479993
 30
0.0
 10
48.30734018899994
 20
56.35075827229991
 30
0.0
 10
48.31086566749997
 20
56.32434976429999
 30
0.0
1001
ACAD
1000
RTMaterial
1005
0
  0
SPLINE
  5
5FF65
330
1F
100
AcDbEntity
  8
cut
100
AcDbSpline
210
0.0
220
0.0
230
1.0
 70
     8
 71
     3
 72
    15
 73
    11
 74
     0
 42
0.0000000001
 43
0.0000000001
 40
0.0
 40
0.0
 40
0.0
 40
0.0
 40
0.125
 40
0.25
 40
0.375
 40
0.5
 40
0.625
 40
0.75
 40
0.875
 40
1.0
 40
1.0
 40
1.0
 40
1.0
 10
48.31086566749997
 20
56.32434976429999
 30
0.0
 10
48.31476531129993
 20
56.29513847479995
 30
0.0
 10
48.32432515069996
 20
56.23698815099993
 30
0.0
 10
48.3442638091999
 20
56.14992033289997
 30
0.0
 10
48.36949742369995
 20
56.06507375219996
 30
0.0
 10
48.39999110889994
 20
55.98157165819998
 30
0.0
 10
48.43567444219991
 20
55.90028633929995
 30
0.0
 10
48.47666593799994
 20
55.82124214559996
 30
0.0
 10
48.52273481399993
 20
55.74473112239997
 30
0.0
 10
48.55647016709991
 20
55.69595935079997
 30
0.0
 10
48.57413048159992
 20
55.67209179889994
 30
0.0
1001
ACAD
1000
RTMaterial
1005
0
  0
SPLINE
  5
5FF66
330
1F
100
AcDbEntity
  8
cut
100
AcDbSpline
210
0.0
220
0.0
230
1.0
 70
     8
 71
     3
 72
    17
 73
    13
 74
     0
 42
0.0000000001
 43
0.0000000001
 40
0.0
 40
0.0
 40
0.0
 40
0.0
 40
0.1
 40
0.2
 40
0.3
 40
0.4
 40
0.5
 40
0.6
 40
0.7
 40
0.8
 40
0.9
 40
1.0
 40
1.0
 40
1.0
 40
1.0
 10
48.57413048159992
 20
55.67209179889994
 30
0.0
 10
48.62411511419992
 20
55.60453859589995
 30
0.0
 10
48.72820441999994
 20
55.46387022869993
 30
0.0
 10
48.89612947239993
 20
55.23695062519994
 30
0.0
 10
49.07755570599994
 20
54.99180969769992
 30
0.0
 10
49.27283472929992
 20
54.72797847059997
 30
0.0
 10
49.48277426399994
 20
54.44437116829999
 30
0.0
 10
49.70958854309992
 20
54.13800548959994
 30
0.0
 10
49.95444946689992
 20
53.80730784499997
 30
0.0
 10
50.21883705689993
 20
53.45029079709997
 30
0.0
 10
50.50393659049991
 20
53.0653677354
 30
0.0
 10
50.70909249719989
 20
52.78842903269993
 30
0.0
 10
50.81533796619993
 20
52.64502355339994
 30
0.0
1001
ACAD
1000
RTMaterial
1005
0
  0
SPLINE
  5
5FF67
330
1F
100
AcDbEntity
  8
cut
100
AcDbSpline
210
0.0
220
0.0
230
1.0
 70
     8
 71
     3
 72
    11
 73
     7
 74
     0
 42
0.0000000001
 43
0.0000000001
 40
0.0
 40
0.0
 40
0.0
 40
0.0
 40
0.25
 40
0.5
 40
0.75
 40
1.0
 40
1.0
 40
1.0
 40
1.0
 10
50.81533796619993
 20
52.64502355339994
 30
0.0
 10
50.8651799591999
 20
52.57774901489995
 30
0.0
 10
50.97045020189995
 20
52.43596908119991
 30
0.0
 10
51.14609887699993
 20
52.20062452709999
 30
0.0
 10
51.33719777829992
 20
51.94604080769995
 30
0.0
 10
51.47586782819991
 20
51.76247762939993
 30
0.0
 10
51.54799208899993
 20
51.66736015619995
 30
0.0
1001
ACAD
1000
RTMaterial
1005
0
  0
SPLINE
  5
5FF68
330
1F
100
AcDbEntity
  8
cut
100
AcDbSpline
210
0.0
220
0.0
230
1.0
 70
     8
 71
     3
 72
    11
 73
     7
 74
     0
 42
0.0000000001
 43
0.0000000001
 40
0.0
 40
0.0
 40
0.0
 40
0.0
 40
0.25
 40
0.5
 40
0.75
 40
1.0
 40
1.0
 40
1.0
 40
1.0
 10
51.54799208899993
 20
51.66736015619995
 30
0.0
 10
51.56247481789989
 20
51.64918162859999
 30
0.0
 10
51.59214771259991
 20
51.61415935339994
 30
0.0
 10
51.63880663129993
 20
51.56532479319998
 30
0.0
 10
51.68686497409993
 20
51.52057251599996
 30
0.0
 10
51.71969023579993
 20
51.49344430219997
 30
0.0
 10
51.73627815459991
 20
51.4805150336
 30
0.0
1001
ACAD
1000
RTMaterial
1005
0
  0
SPLINE
  5
5FF69
330
1F
100
AcDbEntity
  8
cut
100
AcDbSpline
210
0.0
220
0.0
230
1.0
 70
     8
 71
     3
 72
    10
 73
     6
 74
     0
 42
0.0000000001
 43
0.0000000001
 40
0.0
 40
0.0
 40
0.0
 40
0.0
 40
0.3333333333
 40
0.6666666667
 40
1.0
 40
1.0
 40
1.0
 40
1.0
 10
51.73627815459991
 20
51.4805150336
 30
0.0
 10
51.74390315019991
 20
51.47457181569996
 30
0.0
 10
51.75940874349993
 20
51.46295656789999
 30
0.0
 10
51.78347914749991
 20
51.44635088999996
 30
0.0
 10
51.80001510399989
 20
51.43586683269996
 30
0.0
 10
51.80840894269988
 20
51.43076669369992
 30
0.0
1001
ACAD
1000
RTMaterial
1005
0
  0
SPLINE
  5
5FF6A
330
1F
100
AcDbEntity
  8
cut
100
AcDbSpline
210
0.0
220
0.0
230
1.0
 70
     8
 71
     3
 72
    22
 73
    18
 74
     0
 42
0.0000000001
 43
0.0000000001
 40
0.0
 40
0.0
 40
0.0
 40
0.0
 40
0.0666666667
 40
0.1333333333
 40
0.2
 40
0.2666666667
 40
0.3333333333
 40
0.4
 40
0.4666666667000001
 40
0.5333333333
 40
0.6
 40
0.6666666667
 40
0.7333333333
 40
0.8
 40
0.8666666667000001
 40
0.9333333333
 40
1.0
 40
1.0
 40
1.0
 40
1.0
 10
51.80840894269988
 20
51.43076669369992
 30
0.0
 10
51.83236100219989
 20
51.41621330039999
 30
0.0
 10
51.87990750799992
 20
51.38746603649997
 30
0.0
 10
51.94931750049994
 20
51.34591673049993
 30
0.0
 10
52.01930894039993
 20
51.30442774549994
 30
0.0
 10
52.09164198319996
 20
51.2619982708
 30
0.0
 10
52.16797207209992
 20
51.217709904
 30
0.0
 10
52.24714921549992
 20
51.17228659409994
 30
0.0
 10
52.32821095349994
 20
51.12631454759991
 30
0.0
 10
52.41011388179993
 20
51.08039435669997
 30
0.0
 10
52.49188815519989
 20
51.03506839599993
 30
0.0
 10
52.57235533729994
 20
50.99098272769992
 30
0.0
 10
52.65047931619995
 20
50.94868415009989
 30
0.0
 10
52.72494466109993
 20
50.90883327769995
 30
0.0
 10
52.79736994229995
 20
50.87050414729993
 30
0.0
 10
52.86945688369991
 20
50.83276026069995
 30
0.0
 10
52.9192182057999
 20
50.80698131679998
 30
0.0
 10
52.94436606739992
 20
50.79402571589992
 30
0.0
1001
ACAD
1000
RTMaterial
1005
0
  0
LINE
  5
5FF6B
330
1F
100
AcDbEntity
  8
cut
100
AcDbLine
 10
52.94436606739992
 20
50.79402571589992
 30
0.0
 11
52.97380763979993
 21
50.77885182319994
 31
0.0
1001
ACAD
1000
RTMaterial
1005
0
  0
SPLINE
  5
5FF6C
330
1F
100
AcDbEntity
  8
cut
100
AcDbSpline
210
0.0
220
0.0
230
1.0
 70
     8
 71
     3
 72
    11
 73
     7
 74
     0
 42
0.0000000001
 43
0.0000000001
 40
0.0
 40
0.0
 40
0.0
 40
0.0
 40
0.25
 40
0.5
 40
0.75
 40
1.0
 40
1.0
 40
1.0
 40
1.0
 10
52.97380763979993
 20
50.77885182319994
 30
0.0
 10
53.0039530736999
 20
50.76330633399999
 30
0.0
 10
53.06513184689993
 20
50.73393326139996
 30
0.0
 10
53.16024878069993
 20
50.69479166439993
 30
0.0
 10
53.2566862912999
 20
50.6613275011
 30
0.0
 10
53.32217087479995
 20
50.64261385659995
 30
0.0
 10
53.35518923319995
 20
50.63418695369989
 30
0.0
1001
ACAD
1000
RTMaterial
1005
0
  0
SPLINE
  5
5FF6D
330
1F
100
AcDbEntity
  8
cut
100
AcDbSpline
210
0.0
220
0.0
230
1.0
 70
     8
 71
     3
 72
    21
 73
    17
 74
     0
 42
0.0000000001
 43
0.0000000001
 40
0.0
 40
0.0
 40
0.0
 40
0.0
 40
0.0714285714
 40
0.1428571429
 40
0.2142857143
 40
0.2857142857
 40
0.3571428571
 40
0.4285714286
 40
0.5
 40
0.5714285714000001
 40
0.6428571429
 40
0.7142857143000001
 40
0.7857142857
 40
0.8571428570999998
 40
0.9285714285999999
 40
1.0
 40
1.0
 40
1.0
 40
1.0
 10
53.35518923319995
 20
50.63418695369989
 30
0.0
 10
53.43914094229996
 20
50.6127609065
 30
0.0
 10
53.61463604799991
 20
50.56797290719998
 30
0.0
 10
53.89964585349992
 20
50.4952373443
 30
0.0
 10
54.20944499799992
 20
50.41617967209998
 30
0.0
 10
54.54539626569993
 20
50.33045261139995
 30
0.0
 10
54.90870568139991
 20
50.23774959579998
 30
0.0
 10
55.30061715699992
 20
50.13775483129996
 30
0.0
 10
55.72504465729991
 20
50.02947067589992
 30
0.0
 10
56.18369554899993
 20
49.91246374009989
 30
0.0
 10
56.67890481929993
 20
49.78614055879996
 30
0.0
 10
57.21286973429989
 20
49.64994292529997
 30
0.0
 10
57.78779441649994
 20
49.50331142279998
 30
0.0
 10
58.40594444679988
 20
49.34567159589994
 30
0.0
 10
59.06924320179991
 20
49.17653678599993
 30
0.0
 10
59.5436282487999
 20
49.05558769219999
 30
0.0
 10
59.78869359389995
 20
48.99311007539996
 30
0.0
1001
ACAD
1000
RTMaterial
1005
0
  0
SPLINE
  5
5FF6E
330
1F
100
AcDbEntity
  8
cut
100
AcDbSpline
210
0.0
220
0.0
230
1.0
 70
     8
 71
     3
 72
    15
 73
    11
 74
     0
 42
0.0000000001
 43
0.0000000001
 40
0.0
 40
0.0
 40
0.0
 40
0.0
 40
0.125
 40
0.25
 40
0.375
 40
0.5
 40
0.625
 40
0.75
 40
0.875
 40
1.0
 40
1.0
 40
1.0
 40
1.0
 10
59.78869359389995
 20
48.99311007539996
 30
0.0
 10
59.83308706669993
 20
48.98179228429995
 30
0.0
 10
59.92070165859991
 20
48.9629416272
 30
0.0
 10
60.04928905839995
 20
48.94528571369995
 30
0.0
 10
60.17228689189995
 20
48.93766927159993
 30
0.0
 10
60.29115454899994
 20
48.93947538669994
 30
0.0
 10
60.40495999289993
 20
48.95012549109998
 30
0.0
 10
60.51400155079995
 20
48.96894075419993
 30
0.0
 10
60.61856225259993
 20
48.9956198097999
 30
0.0
 10
60.68479164169992
 20
49.01830935149996
 30
0.0
 10
60.71710647599991
 20
49.03083432819994
 30
0.0
1001
ACAD
1000
RTMaterial
1005
0
  0
SPLINE
  5
5FF6F
330
1F
100
AcDbEntity
  8
cut
100
AcDbSpline
210
0.0
220
0.0
230
1.0
 70
     8
 71
     3
 72
    10
 73
     6
 74
     0
 42
0.0000000001
 43
0.0000000001
 40
0.0
 40
0.0
 40
0.0
 40
0.0
 40
0.3333333333
 40
0.6666666667
 40
1.0
 40
1.0
 40
1.0
 40
1.0
 10
60.71710647599991
 20
49.03083432819994
 30
0.0
 10
60.72315625909993
 20
49.03317917669994
 30
0.0
 10
60.73513120839994
 20
49.03800793469997
 30
0.0
 10
60.75272811719992
 20
49.0456723954
 30
0.0
 10
60.76420127759991
 20
49.05104886959998
 30
0.0
 10
60.7698761316999
 20
49.05380169069997
 30
0.0
1001
ACAD
1000
RTMaterial
1005
0
  0
SPLINE
  5
5FF70
330
1F
100
AcDbEntity
  8
cut
100
AcDbSpline
210
0.0
220
0.0
230
1.0
 70
     8
 71
     3
 72
    10
 73
     6
 74
     0
 42
0.0000000001
 43
0.0000000001
 40
0.0
 40
0.0
 40
0.0
 40
0.0
 40
0.3333333333
 40
0.6666666667
 40
1.0
 40
1.0
 40
1.0
 40
1.0
 10
60.7698761316999
 20
49.05380169069997
 30
0.0
 10
60.79279790469991
 20
49.06492083839992
 30
0.0
 10
60.83728868159994
 20
49.08822283479992
 30
0.0
 10
60.90036822639991
 20
49.12621045549991
 30
0.0
 10
60.93951915899992
 20
49.15317381529996
 30
0.0
 10
60.95844612389993
 20
49.16704491079997
 30
0.0
1001
ACAD
1000
RTMaterial
1005
0
  0
SPLINE
  5
5FF71
330
1F
100
AcDbEntity
  8
cut
100
AcDbSpline
210
0.0
220
0.0
230
1.0
 70
     8
 71
     3
 72
    15
 73
    11
 74
     0
 42
0.0000000001
 43
0.0000000001
 40
0.0
 40
0.0
 40
0.0
 40
0.0
 40
0.125
 40
0.25
 40
0.375
 40
0.5
 40
0.625
 40
0.75
 40
0.875
 40
1.0
 40
1.0
 40
1.0
 40
1.0
 10
60.95844612389993
 20
49.16704491079997
 30
0.0
 10
60.97995931399992
 20
49.18281138549992
 30
0.0
 10
61.02167916009995
 20
49.21566627929997
 30
0.0
 10
61.08063901989993
 20
49.26898425039997
 30
0.0
 10
61.13541237259994
 20
49.32567507489995
 30
0.0
 10
61.18727366039991
 20
49.38655850529994
 30
0.0
 10
61.23598931849994
 20
49.45171029269994
 30
0.0
 10
61.28184926139994
 20
49.52199047499999
 30
0.0
 10
61.3249002401999
 20
49.59788544219998
 30
0.0
 10
61.35154812389993
 20
49.65245113409991
 30
0.0
 10
61.36426485989989
 20
49.68075652779998
 30
0.0
1001
ACAD
1000
RTMaterial
1005
0
  0
SPLINE
  5
5FF72
330
1F
100
AcDbEntity
  8
cut
100
AcDbSpline
210
0.0
220
0.0
230
1.0
 70
     8
 71
     3
 72
    16
 73
    12
 74
     0
 42
0.0000000001
 43
0.0000000001
 40
0.0
 40
0.0
 40
0.0
 40
0.0
 40
0.1111111111
 40
0.2222222222
 40
0.3333333333
 40
0.4444444444000001
 40
0.5555555556
 40
0.6666666667
 40
0.7777777778
 40
0.8888888889
 40
1.0
 40
1.0
 40
1.0
 40
1.0
 10
61.36426485989989
 20
49.68075652779998
 30
0.0
 10
61.40170073339993
 20
49.76408271639996
 30
0.0
 10
61.48002355969993
 20
49.93844964199997
 30
0.0
 10
61.6073482985999
 20
50.22201989339993
 30
0.0
 10
61.74601988609992
 20
50.53099567149996
 30
0.0
 10
61.89615580129992
 20
50.86567002019996
 30
0.0
 10
62.05931528949992
 20
51.22955374859998
 30
0.0
 10
62.23697239229995
 20
51.62597811619992
 30
0.0
 10
62.43038714379991
 20
52.05780364099997
 30
0.0
 10
62.64067125239989
 20
52.52756898859996
 30
0.0
 10
62.79326953449992
 20
52.86867982069998
 30
0.0
 10
62.87256837879994
 20
53.04600117779995
 30
0.0
1001
ACAD
1000
RTMaterial
1005
0
  0
SPLINE
  5
5FF73
330
1F
100
AcDbEntity
  8
cut
100
AcDbSpline
210
0.0
220
0.0
230
1.0
 70
     8
 71
     3
 72
    11
 73
     7
 74
     0
 42
0.0000000001
 43
0.0000000001
 40
0.0
 40
0.0
 40
0.0
 40
0.0
 40
0.25
 40
0.5
 40
0.75
 40
1.0
 40
1.0
 40
1.0
 40
1.0
 10
62.87256837879994
 20
53.04600117779995
 30
0.0
 10
62.90569792699989
 20
53.12008266669995
 30
0.0
 10
62.97658901069991
 20
53.27782187779996
 30
0.0
 10
63.0977314751999
 20
53.54425824329997
 30
0.0
 10
63.2323180535999
 20
53.83661429879992
 30
0.0
 10
63.33182326699989
 20
54.04993425769993
 30
0.0
 10
63.38404129409991
 20
54.16106202919997
 30
0.0
1001
ACAD
1000
RTMaterial
1005
0
  0
SPLINE
  5
5FF74
330
1F
100
AcDbEntity
  8
cut
100
AcDbSpline
210
0.0
220
0.0
230
1.0
 70
     8
 71
     3
 72
    11
 73
     7
 74
     0
 42
0.0000000001
 43
0.0000000001
 40
0.0
 40
0.0
 40
0.0
 40
0.0
 40
0.25
 40
0.5
 40
0.75
 40
1.0
 40
1.0
 40
1.0
 40
1.0
 10
63.38404129409991
 20
54.16106202919997
 30
0.0
 10
63.3937273910999
 20
54.18298413379995
 30
0.0
 10
63.41147544049994
 20
54.22672574169991
 30
0.0
 10
63.43352452789992
 20
54.29217977650001
 30
0.0
 10
63.4510510250999
 20
54.35660864349995
 30
0.0
 10
63.45983030059989
 20
54.39873030679996
 30
0.0
 10
63.4635500089999
 20
54.41958406839995
 30
0.0
1001
ACAD
1000
RTMaterial
1005
0
  0
SPLINE
  5
5FF75
330
1F
100
AcDbEntity
  8
cut
100
AcDbSpline
210
0.0
220
0.0
230
1.0
 70
     8
 71
     3
 72
    10
 73
     6
 74
     0
 42
0.0000000001
 43
0.0000000001
 40
0.0
 40
0.0
 40
0.0
 40
0.0
 40
0.3333333333
 40
0.6666666667
 40
1.0
 40
1.0
 40
1.0
 40
1.0
 10
63.4635500089999
 20
54.41958406839995
 30
0.0
 10
63.46467849869992
 20
54.42591070829997
 30
0.0
 10
63.46680678759992
 20
54.43850399699994
 30
0.0
 10
63.46959992729996
 20
54.45708606389996
 30
0.0
 10
63.4712390832999
 20
54.46952165179999
 30
0.0
 10
63.47199999949992
 20
54.47573018289995
 30
0.0
1001
ACAD
1000
RTMaterial
1005
0
  0
LINE
  5
5FF76
330
1F
100
AcDbEntity
  8
cut
100
AcDbLine
 10
63.47199999949992
 20
54.47573018289995
 30
0.0
 11
63.47384048889995
 21
54.50751930279995
 31
0.0
1001
ACAD
1000
RTMaterial
1005
0
  0
SPLINE
  5
5FF77
330
1F
100
AcDbEntity
  8
1
100
AcDbSpline
210
0.0
220
0.0
230
1.0
 70
     8
 71
     3
 72
    15
 73
    11
 74
     0
 42
0.0000000001
 43
0.0000000001
 40
0.0
 40
0.0
 40
0.0
 40
0.0
 40
0.1248035261
 40
0.2496613061
 40
0.3746006319
 40
0.499629273
 40
0.6247274788000001
 40
0.7498557666
 40
0.8749517093000001
 40
1.0
 40
1.0
 40
1.0
 40
1.0
 10
55.17838032409992
 20
56.42996302469999
 30
0.0
 10
55.14783736549992
 20
56.43423743809996
 30
0.0
 10
55.08516764019993
 20
56.43410978949993
 30
0.0
 10
54.99520373159993
 20
56.40772193799995
 30
0.0
 10
54.9160356170999
 20
56.35727709599996
 30
0.0
 10
54.85400880549992
 20
56.28675892959996
 30
0.0
 10
54.8139886150999
 20
56.20174680179997
 30
0.0
 10
54.79915791949991
 20
56.1089343975999
 30
0.0
 10
54.81061583059994
 20
56.01572450449992
 30
0.0
 10
54.8353248352999
 20
55.95800666749994
 30
0.0
 10
54.8513478518999
 20
55.93158432299992
 30
0.0
1001
ACAD
1000
RTMaterial
1005
0
  0
SPLINE
  5
5FF78
330
1F
100
AcDbEntity
  8
1
100
AcDbSpline
210
0.0
220
0.0
230
1.0
 70
     8
 71
     3
 72
    15
 73
    11
 74
     0
 42
0.0000000001
 43
0.0000000001
 40
0.0
 40
0.0
 40
0.0
 40
0.0
 40
0.1249745627
 40
0.2500150505
 40
0.3751191411999999
 40
0.5002276074000001
 40
0.6252937521000001
 40
0.7502820067
 40
0.8751804444999999
 40
1.0
 40
1.0
 40
1.0
 40
1.0
 10
54.58167461649992
 20
54.80198343539996
 30
0.0
 10
54.55555894439993
 20
54.78573764609996
 30
0.0
 10
54.50763141399988
 20
54.74564050529995
 30
0.0
 10
54.45539850509994
 20
54.66811460219997
 30
0.0
 10
54.42656800509991
 20
54.57908913809996
 30
0.0
 10
54.42349063079991
 20
54.48556921499999
 30
0.0
 10
54.44637647579992
 20
54.39486956719997
 30
0.0
 10
54.49346557139995
 20
54.31408414599997
 30
0.0
 10
54.56098900879993
 20
54.24957727629993
 30
0.0
 10
54.61633388029992
 20
54.22071578409992
 30
0.0
 10
54.64529149139991
 20
54.21046562979995
 30
0.0
1001
ACAD
1000
RTMaterial
1005
0
  0
SPLINE
  5
5FF79
330
1F
100
AcDbEntity
  8
1
100
AcDbSpline
210
0.0
220
0.0
230
1.0
 70
     8
 71
     3
 72
     8
 73
     4
 74
     0
 42
0.0000000001
 43
0.0000000001
 40
0.0
 40
0.0
 40
0.0
 40
0.0
 40
1.0
 40
1.0
 40
1.0
 40
1.0
 10
54.64529149139991
 20
54.21046562979995
 30
0.0
 10
54.66601284099994
 20
54.2031308732
 30
0.0
 10
54.68758188899994
 20
54.19785992509992
 30
0.0
 10
54.70935145059991
 20
54.19481703639997
 30
0.0
1001
ACAD
1000
RTMaterial
1005
0
  0
SPLINE
  5
5FF7A
330
1F
100
AcDbEntity
  8
1
100
AcDbSpline
210
0.0
220
0.0
230
1.0
 70
     8
 71
     3
 72
    15
 73
    11
 74
     0
 42
0.0000000001
 43
0.0000000001
 40
0.0
 40
0.0
 40
0.0
 40
0.0
 40
0.1251602541
 40
0.2502837245
 40
0.3753592817
 40
0.5003790434000001
 40
0.6253432712000001
 40
0.7502586988
 40
0.8751367873999999
 40
1.0
 40
1.0
 40
1.0
 40
1.0
 10
55.60329743629989
 20
53.39350312749997
 30
0.0
 10
55.60179923509991
 20
53.44153201179995
 30
0.0
 10
55.59038183009994
 20
53.53752406969999
 30
0.0
 10
55.54853007959991
 20
53.67615500519992
 30
0.0
 10
55.4832260794999
 20
53.80539364029994
 30
0.0
 10
55.39646241219992
 20
53.92123386759994
 30
0.0
 10
55.29089286729993
 20
54.02015017959996
 30
0.0
 10
55.16972643919991
 20
54.09911627699995
 30
0.0
 10
55.0367215711999
 20
54.15570996869991
 30
0.0
 10
54.94272535219988
 20
54.17739607299989
 30
0.0
 10
54.89524918949991
 20
54.1840357550999
 30
0.0
1001
ACAD
1000
RTMaterial
1005
0
  0
SPLINE
  5
5FF7B
330
1F
100
AcDbEntity
  8
1
100
AcDbSpline
210
0.0
220
0.0
230
1.0
 70
     8
 71
     3
 72
    11
 73
     7
 74
     0
 42
0.0000000001
 43
0.0000000001
 40
0.0
 40
0.0
 40
0.0
 40
0.0
 40
0.2502996486
 40
0.5003874572
 40
0.7502656923000001
 40
1.0
 40
1.0
 40
1.0
 40
1.0
 10
55.60329743629989
 20
53.39350312749997
 30
0.0
 10
55.60449150959994
 20
53.35522388479995
 30
0.0
 10
55.62045373079991
 20
53.27845479669997
 30
0.0
 10
55.68224356879989
 20
53.17900265109995
 30
0.0
 10
55.77424018259989
 20
53.10670682829999
 30
0.0
 10
55.84872234789992
 20
53.08253258909991
 30
0.0
 10
55.88656510419991
 20
53.07723788859999
 30
0.0
1001
ACAD
1000
RTMaterial
1005
0
  0
SPLINE
  5
5FF7C
330
1F
100
AcDbEntity
  8
1
100
AcDbSpline
210
0.0
220
0.0
230
1.0
 70
     8
 71
     3
 72
     9
 73
     5
 74
     0
 42
0.0000000001
 43
0.0000000001
 40
0.0
 40
0.0
 40
0.0
 40
0.0
 40
0.5000427267000001
 40
1.0
 40
1.0
 40
1.0
 40
1.0
 10
57.33148275889994
 20
53.57708930799993
 30
0.0
 10
57.28889307849994
 20
53.59996082479995
 30
0.0
 10
57.19949889269992
 20
53.63824008649999
 30
0.0
 10
57.10475545709994
 20
53.6601601843999
 30
0.0
 10
57.05688746789991
 20
53.66685675729991
 30
0.0
1001
ACAD
1000
RTMaterial
1005
0
  0
SPLINE
  5
5FF7D
330
1F
100
AcDbEntity
  8
1
100
AcDbSpline
210
0.0
220
0.0
230
1.0
 70
     8
 71
     3
 72
     9
 73
     5
 74
     0
 42
0.0000000001
 43
0.0000000001
 40
0.0
 40
0.0
 40
0.0
 40
0.0
 40
0.7495490479000001
 40
1.0
 40
1.0
 40
1.0
 40
1.0
 10
57.33148275889994
 20
53.57708930799993
 30
0.0
 10
57.3569984117999
 20
53.56338688819994
 30
0.0
 10
57.39374088409994
 20
53.54954893169997
 30
0.0
 10
57.43175567549991
 20
53.54251744789997
 30
0.0
 10
57.44133955419994
 20
53.54117620720001
 30
0.0
1001
ACAD
1000
RTMaterial
1005
0
  0
SPLINE
  5
5FF7E
330
1F
100
AcDbEntity
  8
1
100
AcDbSpline
210
0.0
220
0.0
230
1.0
 70
     8
 71
     3
 72
    15
 73
    11
 74
     0
 42
0.0000000001
 43
0.0000000001
 40
0.0
 40
0.0
 40
0.0
 40
0.0
 40
0.1249035286
 40
0.2498597456
 40
0.3748744754
 40
0.4999215358
 40
0.6249805071
 40
0.7500291854000001
 40
0.8750362872
 40
1.0
 40
1.0
 40
1.0
 40
1.0
 10
54.58167461649992
 20
54.80198343539996
 30
0.0
 10
54.62712916269993
 20
54.83025936789999
 30
0.0
 10
54.71275478649994
 20
54.89590233799993
 30
0.0
 10
54.81950147219993
 20
55.01727954829999
 30
0.0
 10
54.90079789319992
 20
55.15712546899999
 30
0.0
 10
54.95348079569993
 20
55.31009608329998
 30
0.0
 10
54.9755797805999
 20
55.47038252019996
 30
0.0
 10
54.96623010369996
 20
55.63191177089993
 30
0.0
 10
54.92584054889994
 20
55.78848653429997
 30
0.0
 10
54.87911880779996
 20
55.88578934079999
 30
0.0
 10
54.8513478518999
 20
55.93158432299992
 30
0.0
1001
ACAD
1000
RTMaterial
1005
0
  0
SPLINE
  5
5FF7F
330
1F
100
AcDbEntity
  8
1
100
AcDbSpline
210
0.0
220
0.0
230
1.0
 70
     8
 71
     3
 72
    11
 73
     7
 74
     0
 42
0.0000000001
 43
0.0000000001
 40
0.0
 40
0.0
 40
0.0
 40
0.0
 40
0.2497812734
 40
0.4996706779000001
 40
0.7497377359000001
 40
1.0
 40
1.0
 40
1.0
 40
1.0
 10
55.56283241049993
 20
56.30428247459997
 30
0.0
 10
55.64461745689993
 20
56.2928410179
 30
0.0
 10
55.81279884979995
 20
56.29486274889996
 30
0.0
 10
56.05190969139994
 20
56.37302597609999
 30
0.0
 10
56.25713000749994
 20
56.51877744459994
 30
0.0
 10
56.35907260209996
 20
56.65280582589992
 30
0.0
 10
56.3987365262999
 20
56.7254196250999
 30
0.0
1001
ACAD
1000
RTMaterial
1005
0
  0
SPLINE
  5
5FF80
330
1F
100
AcDbEntity
  8
1
100
AcDbSpline
210
0.0
220
0.0
230
1.0
 70
     8
 71
     3
 72
    11
 73
     7
 74
     0
 42
0.0000000001
 43
0.0000000001
 40
0.0
 40
0.0
 40
0.0
 40
0.0
 40
0.2497807494
 40
0.499671638
 40
0.7497263809
 40
1.0
 40
1.0
 40
1.0
 40
1.0
 10
56.73315477409994
 20
56.8939013433
 30
0.0
 10
56.70043538249996
 20
56.89847921749998
 30
0.0
 10
56.63315113739992
 20
56.89767184879992
 30
0.0
 10
56.53749256759994
 20
56.86640030639996
 30
0.0
 10
56.45538945779993
 20
56.80809188129996
 30
0.0
 10
56.41460549099992
 20
56.7544713600999
 30
0.0
 10
56.3987365262999
 20
56.7254196250999
 30
0.0
1001
ACAD
1000
RTMaterial
1005
0
  0
SPLINE
  5
5FF81
330
1F
100
AcDbEntity
  8
1
100
AcDbSpline
210
0.0
220
0.0
230
1.0
 70
     8
 71
     3
 72
     8
 73
     4
 74
     0
 42
0.0000000001
 43
0.0000000001
 40
0.0
 40
0.0
 40
0.0
 40
0.0
 40
1.0
 40
1.0
 40
1.0
 40
1.0
 10
57.7244706887999
 20
55.78710347679998
 30
0.0
 10
57.76837702979992
 20
55.78096304489998
 30
0.0
 10
57.81292691319993
 20
55.77837605589991
 30
0.0
 10
57.8572486134999
 20
55.77940491799989
 30
0.0
1001
ACAD
1000
RTMaterial
1005
0
  0
SPLINE
  5
5FF82
330
1F
100
AcDbEntity
  8
1
100
AcDbSpline
210
0.0
220
0.0
230
1.0
 70
     8
 71
     3
 72
     8
 73
     4
 74
     0
 42
0.0000000001
 43
0.0000000001
 40
0.0
 40
0.0
 40
0.0
 40
0.0
 40
1.0
 40
1.0
 40
1.0
 40
1.0
 10
57.91036842769989
 20
55.77632219549991
 30
0.0
 10
57.8928027968999
 20
55.7787774704999
 30
0.0
 10
57.8749802330999
 20
55.77981653109998
 30
0.0
 10
57.8572486134999
 20
55.77940491799989
 30
0.0
1001
ACAD
1000
RTMaterial
1005
0
  0
SPLINE
  5
5FF83
330
1F
100
AcDbEntity
  8
1
100
AcDbSpline
210
0.0
220
0.0
230
1.0
 70
     8
 71
     3
 72
    27
 73
    23
 74
     0
 42
0.0000000001
 43
0.0000000001
 40
0.0
 40
0.0
 40
0.0
 40
0.0
 40
0.0623947125
 40
0.0936232012
 40
0.1248550523
 40
0.1872761331
 40
0.249720486
 40
0.2809806853999999
 40
0.3122477685
 40
0.3747459269
 40
0.4372685048
 40
0.4998100351
 40
0.5623628903000001
 40
0.6249181621000001
 40
0.6874666821
 40
0.7187637134
 40
0.7500560675
 40
0.8125675237000001
 40
0.8750532600999999
 40
0.9063133248999999
 40
0.9375658356999998
 40
1.0
 40
1.0
 40
1.0
 40
1.0
 10
56.75950983139995
 20
58.40626156899998
 30
0.0
 10
56.95193629359988
 20
58.37933056479994
 30
0.0
 10
57.23800140949993
 20
58.31413778939992
 30
0.0
 10
57.60332863379989
 20
58.18009405239997
 30
0.0
 10
57.95614513949988
 20
58.01550622399997
 30
0.0
 10
58.36907798349995
 20
57.75435687899999
 30
0.0
 10
58.73192559789993
 20
57.42702675259995
 30
0.0
 10
58.98575905839994
 20
57.13149059569997
 30
0.0
 10
59.21377234729994
 20
56.81540870489993
 30
0.0
 10
59.44736887059992
 20
56.38555181469996
 30
0.0
 10
59.63655792029993
 20
55.83006492269993
 30
0.0
 10
59.72953893029995
 20
55.25041503919993
 30
0.0
 10
59.72356925239989
 20
54.66328468849997
 30
0.0
 10
59.61888284569994
 20
54.08558333409991
 30
0.0
 10
59.45167973299994
 20
53.62544737769991
 30
0.0
 10
59.27312204659995
 20
53.27862318129996
 30
0.0
 10
59.06597806759993
 20
52.94820360549994
 30
0.0
 10
58.75576966929992
 20
52.56996289699992
 30
0.0
 10
58.38621714079994
 20
52.24961592149998
 30
0.0
 10
58.06177618949994
 20
52.03377010759993
 30
0.0
 10
57.7204620569999
 20
51.84626595719999
 30
0.0
 10
57.44726564289994
 20
51.73874202209998
 30
0.0
 10
57.26095852049991
 20
51.68314853409992
 30
0.0
1001
ACAD
1000
RTMaterial
1005
0
  0
SPLINE
  5
5FF84
330
1F
100
AcDbEntity
  8
1
100
AcDbSpline
210
0.0
220
0.0
230
1.0
 70
     8
 71
     3
 72
     9
 73
     5
 74
     0
 42
0.0000000001
 43
0.0000000001
 40
0.0
 40
0.0
 40
0.0
 40
0.0
 40
0.4999358793999999
 40
1.0
 40
1.0
 40
1.0
 40
1.0
 10
55.8032491845999
 20
51.57284870629997
 30
0.0
 10
56.04590717469989
 20
51.53888755949992
 30
0.0
 10
56.54001451639993
 20
51.52305495339994
 30
0.0
 10
57.02610550959992
 20
51.61306909809997
 30
0.0
 10
57.26095852049991
 20
51.68314853409992
 30
0.0
1001
ACAD
1000
RTMaterial
1005
0
  0
SPLINE
  5
5FF85
330
1F
100
AcDbEntity
  8
1
100
AcDbSpline
210
0.0
220
0.0
230
1.0
 70
     8
 71
     3
 72
     9
 73
     5
 74
     0
 42
0.0000000001
 43
0.0000000001
 40
0.0
 40
0.0
 40
0.0
 40
0.0
 40
0.4999927562
 40
1.0
 40
1.0
 40
1.0
 40
1.0
 10
55.4346704141999
 20
56.32221688229993
 30
0.0
 10
55.38679942869993
 20
56.32891646349998
 30
0.0
 10
55.29205670419992
 20
56.35083748220001
 30
0.0
 10
55.20266179659995
 20
56.38911489979995
 30
0.0
 10
55.16007517899993
 20
56.41198477169997
 30
0.0
1001
ACAD
1000
RTMaterial
1005
0
  0
SPLINE
  5
5FF86
330
1F
100
AcDbEntity
  8
1
100
AcDbSpline
210
0.0
220
0.0
230
1.0
 70
     8
 71
     3
 72
    27
 73
    23
 74
     0
 42
0.0000000001
 43
0.0000000001
 40
0.0
 40
0.0
 40
0.0
 40
0.0
 40
0.0624341643
 40
0.0936866751
 40
0.1249467399
 40
0.1874324763
 40
0.2499439325
 40
0.2812362866
 40
0.3125333179
 40
0.3750818379
 40
0.4376371097
 40
0.5001899649000001
 40
0.5627314952
 40
0.6252540731
 40
0.6877522315000001
 40
0.7190193145999999
 40
0.750279514
 40
0.8127238669
 40
0.8751449476999999
 40
0.9063767988
 40
0.9376052875
 40
1.0
 40
1.0
 40
1.0
 40
1.0
 10
55.30180049549994
 20
58.29596174129995
 30
0.0
 10
55.11549337299993
 20
58.24036825330001
 30
0.0
 10
54.8422969588999
 20
58.13284431819994
 30
0.0
 10
54.50098282639993
 20
57.94534016779994
 30
0.0
 10
54.17654187509993
 20
57.72949435389995
 30
0.0
 10
53.80698934659995
 20
57.40914737839995
 30
0.0
 10
53.49678094829994
 20
57.03090666989993
 30
0.0
 10
53.28963696929992
 20
56.70048709409991
 30
0.0
 10
53.11107928299993
 20
56.35366289769996
 30
0.0
 10
52.94387617019992
 20
55.89352694129996
 30
0.0
 10
52.8391897635999
 20
55.31582558679997
 30
0.0
 10
52.83322008559991
 20
54.72869523619994
 30
0.0
 10
52.92620109559994
 20
54.14904535269994
 30
0.0
 10
53.11539014539988
 20
53.59355846069997
 30
0.0
 10
53.34898666859993
 20
53.16370157049994
 30
0.0
 10
53.57699995759992
 20
52.84761967969996
 30
0.0
 10
53.83083341799994
 20
52.55208352279993
 30
0.0
 10
54.19368103249997
 20
52.22475339639998
 30
0.0
 10
54.60661387639993
 20
51.96360405139995
 30
0.0
 10
54.95943038209992
 20
51.79901622299991
 30
0.0
 10
55.32475760639994
 20
51.66497248599995
 30
0.0
 10
55.61082272229993
 20
51.59977971049994
 30
0.0
 10
55.8032491845999
 20
51.57284870629997
 30
0.0
1001
ACAD
1000
RTMaterial
1005
0
  0
SPLINE
  5
5FF87
330
1F
100
AcDbEntity
  8
1
100
AcDbSpline
210
0.0
220
0.0
230
1.0
 70
     8
 71
     3
 72
     9
 73
     5
 74
     0
 42
0.0000000001
 43
0.0000000001
 40
0.0
 40
0.0
 40
0.0
 40
0.0
 40
0.5000641206000001
 40
1.0
 40
1.0
 40
1.0
 40
1.0
 10
55.30180049549994
 20
58.29596174129995
 30
0.0
 10
55.5366535062999
 20
58.36604117719997
 30
0.0
 10
56.02274449959992
 20
58.45605532199994
 30
0.0
 10
56.51685184119992
 20
58.44022271589995
 30
0.0
 10
56.75950983139995
 20
58.40626156899998
 30
0.0
1001
ACAD
1000
RTMaterial
1005
0
  0
SPLINE
  5
5FF88
330
1F
100
AcDbEntity
  8
1
100
AcDbSpline
210
0.0
220
0.0
230
1.0
 70
     8
 71
     3
 72
    27
 73
    23
 74
     0
 42
0.0000000001
 43
0.0000000001
 40
0.0
 40
0.0
 40
0.0
 40
0.0
 40
0.0624427899
 40
0.0937102059
 40
0.1249873065
 40
0.1874900014
 40
0.2500207912
 40
0.281332068
 40
0.3126473387
 40
0.3752087474
 40
0.4377679573
 40
0.5003130489000001
 40
0.562834304
 40
0.6253256282000001
 40
0.6877854148
 40
0.7190421229
 40
0.7502924867000001
 40
0.8127033279999999
 40
0.8751043047999999
 40
0.9063425463999999
 40
0.9375810863999999
 40
1.0
 40
1.0
 40
1.0
 40
1.0
 10
55.64232396639994
 20
57.23872665629994
 30
0.0
 10
55.49539277939993
 20
57.19488282959997
 30
0.0
 10
55.28060998639995
 20
57.10700497509993
 30
0.0
 10
55.01641399379991
 20
56.95011471909992
 30
0.0
 10
54.76862895769989
 20
56.76799539669997
 30
0.0
 10
54.49416869049992
 20
56.49593712339992
 30
0.0
 10
54.27804740949989
 20
56.17546242709995
 30
0.0
 10
54.14516016179987
 20
55.89786538379996
 30
0.0
 10
54.03998129079991
 20
55.6085590079
 30
0.0
 10
53.9624480962999
 20
55.22959432509992
 30
0.0
 10
53.9597546062999
 20
54.76588256229991
 30
0.0
 10
54.0473127764999
 20
54.310525509
 30
0.0
 10
54.22185035139995
 20
53.88110499829998
 30
0.0
 10
54.47654965749996
 20
53.49415134439993
 30
0.0
 10
54.74784489589996
 20
53.21919215069994
 30
0.0
 10
54.99346524209994
 20
53.03453264599994
 30
0.0
 10
55.25590128239992
 20
52.8748878065
 30
0.0
 10
55.6114428763999
 20
52.72495727299991
 30
0.0
 10
55.9894324853999
 20
52.64760294449996
 30
0.0
 10
56.29607913319995
 20
52.63094076829998
 30
0.0
 10
56.60282932419995
 20
52.6444087507
 30
0.0
 10
56.83052090719991
 20
52.68858551349996
 30
0.0
 10
56.9773959119999
 20
52.73241257559994
 30
0.0
1001
ACAD
1000
RTMaterial
1005
0
  0
SPLINE
  5
5FF89
330
1F
100
AcDbEntity
  8
1
100
AcDbSpline
210
0.0
220
0.0
230
1.0
 70
     8
 71
     3
 72
     8
 73
     4
 74
     0
 42
0.0000000001
 43
0.0000000001
 40
0.0
 40
0.0
 40
0.0
 40
0.0
 40
1.0
 40
1.0
 40
1.0
 40
1.0
 10
55.16007517899993
 20
56.41198477169997
 30
0.0
 10
55.14521713369993
 20
56.41996384149996
 30
0.0
 10
55.12969427699989
 20
56.42680864349995
 30
0.0
 10
55.1137878616999
 20
56.43241337499995
 30
0.0
1001
ACAD
1000
RTMaterial
1005
0
  0
SPLINE
  5
5FF8A
330
1F
100
AcDbEntity
  8
1
100
AcDbSpline
210
0.0
220
0.0
230
1.0
 70
     8
 71
     3
 72
    15
 73
    11
 74
     0
 42
0.0000000001
 43
0.0000000001
 40
0.0
 40
0.0
 40
0.0
 40
0.0
 40
0.1249035286
 40
0.2498597456
 40
0.3748744754
 40
0.4999215358
 40
0.6249805071
 40
0.7500291854000001
 40
0.8750362872
 40
1.0
 40
1.0
 40
1.0
 40
1.0
 10
58.03804526179987
 20
55.16915579649998
 30
0.0
 10
57.99259071569991
 20
55.14087986399999
 30
0.0
 10
57.90696509189991
 20
55.07523689379997
 30
0.0
 10
57.80021840609993
 20
54.9538596836
 30
0.0
 10
57.71892198519992
 20
54.8140137629
 30
0.0
 10
57.66623908259993
 20
54.66104314859996
 30
0.0
 10
57.6441400976999
 20
54.50075671169997
 30
0.0
 10
57.65348977469989
 20
54.33922746099995
 30
0.0
 10
57.69387932949991
 20
54.18265269759991
 30
0.0
 10
57.7406010704999
 20
54.08534989109995
 30
0.0
 10
57.76837202639995
 20
54.03955490889996
 30
0.0
1001
ACAD
1000
RTMaterial
1005
0
  0
SPLINE
  5
5FF8B
330
1F
100
AcDbEntity
  8
1
100
AcDbSpline
210
0.0
220
0.0
230
1.0
 70
     8
 71
     3
 72
    11
 73
     7
 74
     0
 42
0.0000000001
 43
0.0000000001
 40
0.0
 40
0.0
 40
0.0
 40
0.0
 40
0.2502234889999999
 40
0.500298469
 40
0.7502309122
 40
1.0
 40
1.0
 40
1.0
 40
1.0
 10
56.8882605016999
 20
56.59557095229991
 30
0.0
 10
56.88738193159991
 20
56.62373588799994
 30
0.0
 10
56.87834669279993
 20
56.68008696269993
 30
0.0
 10
56.84383359439994
 20
56.7581879675999
 30
0.0
 10
56.7906911272999
 20
56.82495791139996
 30
0.0
 10
56.74499373169993
 20
56.85904193769994
 30
0.0
 10
56.72047704439989
 20
56.87282911459994
 30
0.0
1001
ACAD
1000
RTMaterial
1005
0
  0
SPLINE
  5
5FF8C
330
1F
100
AcDbEntity
  8
1
100
AcDbSpline
210
0.0
220
0.0
230
1.0
 70
     8
 71
     3
 72
     8
 73
     4
 74
     0
 42
0.0000000001
 43
0.0000000001
 40
0.0
 40
0.0
 40
0.0
 40
0.0
 40
1.0
 40
1.0
 40
1.0
 40
1.0
 10
56.72047704439989
 20
56.87282911459994
 30
0.0
 10
56.70372534579991
 20
56.88224958109998
 30
0.0
 10
56.68607943319995
 20
56.8902312461999
 30
0.0
 10
56.66793886179988
 20
56.89657823469997
 30
0.0
1001
ACAD
1000
RTMaterial
1005
0
  0
SPLINE
  5
5FF8D
330
1F
100
AcDbEntity
  8
1
100
AcDbSpline
210
0.0
220
0.0
230
1.0
 70
     8
 71
     3
 72
    15
 73
    11
 74
     0
 42
0.0000000001
 43
0.0000000001
 40
0.0
 40
0.0
 40
0.0
 40
0.0
 40
0.1248757498
 40
0.2497465242
 40
0.3746627943
 40
0.4996245048
 40
0.6246450574
 40
0.7497140269
 40
0.8748478632999999
 40
1.0
 40
1.0
 40
1.0
 40
1.0
 10
57.59630910699991
 20
55.80504089429997
 30
0.0
 10
57.54882795939995
 20
55.81167887539999
 30
0.0
 10
57.45482911739992
 20
55.83336474749995
 30
0.0
 10
57.3218260221999
 20
55.88996705309995
 30
0.0
 10
57.20066206239994
 20
55.96892930889999
 30
0.0
 10
57.09509324339996
 20
56.06784604099994
 30
0.0
 10
57.00833499619995
 20
56.18368529629993
 30
0.0
 10
56.9430236323999
 20
56.31292197769994
 30
0.0
 10
56.90117945909992
 20
56.45155338929999
 30
0.0
 10
56.88975860219989
 20
56.54754529519994
 30
0.0
 10
56.8882605016999
 20
56.59557095229991
 30
0.0
1001
ACAD
1000
RTMaterial
1005
0
  0
SPLINE
  5
5FF8E
330
1F
100
AcDbEntity
  8
1
100
AcDbSpline
210
0.0
220
0.0
230
1.0
 70
     8
 71
     3
 72
    15
 73
    11
 74
     0
 42
0.0000000001
 43
0.0000000001
 40
0.0
 40
0.0
 40
0.0
 40
0.0
 40
0.1249712139
 40
0.2500063639
 40
0.3751077101
 40
0.5002138165
 40
0.6252813567000001
 40
0.7502739849
 40
0.8751788063999999
 40
1.0
 40
1.0
 40
1.0
 40
1.0
 10
57.90988332149993
 20
55.18709064429998
 30
0.0
 10
57.93561795609992
 20
55.20309940149997
 30
0.0
 10
57.98290616919991
 20
55.2424959500999
 30
0.0
 10
58.03482816359991
 20
55.31854376979993
 30
0.0
 10
58.06412539219991
 20
55.40594057979991
 30
0.0
 10
58.06848178279995
 20
55.49800897159991
 30
0.0
 10
58.04759910599995
 20
55.58775701489992
 30
0.0
 10
58.00302708269993
 20
55.66836879909994
 30
0.0
 10
57.93823356149994
 20
55.73367101679997
 30
0.0
 10
57.88462646999994
 20
55.76377829359995
 30
0.0
 10
57.85643963889993
 20
55.77481687459993
 30
0.0
1001
ACAD
1000
RTMaterial
1005
0
  0
LINE
  5
5FF8F
330
1F
100
AcDbEntity
  8
1
100
AcDbLine
 10
57.85643963889993
 20
55.77481687459993
 30
0.0
 11
57.84295967389994
 21
55.77975918109996
 31
0.0
1001
ACAD
1000
RTMaterial
1005
0
  0
SPLINE
  5
5FF90
330
1F
100
AcDbEntity
  8
1
100
AcDbSpline
210
0.0
220
0.0
230
1.0
 70
     8
 71
     3
 72
    15
 73
    11
 74
     0
 42
0.0000000001
 43
0.0000000001
 40
0.0
 40
0.0
 40
0.0
 40
0.0
 40
0.1249599769
 40
0.2499720737
 40
0.3750190592
 40
0.5000784648
 40
0.6251259588
 40
0.7501389967000001
 40
0.8751002055
 40
1.0
 40
1.0
 40
1.0
 40
1.0
 10
57.64021008599991
 20
54.05748975669997
 30
0.0
 10
57.61243992879991
 20
54.1032834218999
 30
0.0
 10
57.5657193607999
 20
54.20058722109996
 30
0.0
 10
57.52532479969989
 20
54.35716084439992
 30
0.0
 10
57.5159776664999
 20
54.51869211319996
 30
0.0
 10
57.53807423669991
 20
54.67897869099994
 30
0.0
 10
57.59075935739992
 20
54.83194834009992
 30
0.0
 10
57.67205441969991
 20
54.97179720999998
 30
0.0
 10
57.77880505729996
 20
55.09317113939994
 30
0.0
 10
57.86443008249995
 20
55.15881552499997
 30
0.0
 10
57.90988332149993
 20
55.18709064429998
 30
0.0
1001
ACAD
1000
RTMaterial
1005
0
  0
SPLINE
  5
5FF91
330
1F
100
AcDbEntity
  8
1
100
AcDbSpline
210
0.0
220
0.0
230
1.0
 70
     8
 71
     3
 72
    15
 73
    11
 74
     0
 42
0.0000000001
 43
0.0000000001
 40
0.0
 40
0.0
 40
0.0
 40
0.0
 40
0.1249929242
 40
0.2500590293
 40
0.3751822011
 40
0.5002973722000001
 40
0.6253498794
 40
0.7503080916
 40
0.8751765463999999
 40
1.0
 40
1.0
 40
1.0
 40
1.0
 10
58.03804526179987
 20
55.16915579649998
 30
0.0
 10
58.06647647619991
 20
55.18684201639996
 30
0.0
 10
58.11825407459991
 20
55.23127047499997
 30
0.0
 10
58.1720330789999
 20
55.31795284449993
 30
0.0
 10
58.19736209099994
 20
55.41688594109996
 30
0.0
 10
58.19178386319993
 20
55.51883676249997
 30
0.0
 10
58.15585543509991
 20
55.61436584229994
 30
0.0
 10
58.09284854319992
 20
55.6946014508
 30
0.0
 10
58.00873320319993
 20
55.75207469199995
 30
0.0
 10
57.94348446319992
 20
55.77169332829999
 30
0.0
 10
57.91036842769989
 20
55.77632219549991
 30
0.0
1001
ACAD
1000
RTMaterial
1005
0
  0
SPLINE
  5
5FF92
330
1F
100
AcDbEntity
  8
1
100
AcDbSpline
210
0.0
220
0.0
230
1.0
 70
     8
 71
     3
 72
    11
 73
     7
 74
     0
 42
0.0000000001
 43
0.0000000001
 40
0.0
 40
0.0
 40
0.0
 40
0.0
 40
0.2502689694
 40
0.5003316144
 40
0.7502220338
 40
1.0
 40
1.0
 40
1.0
 40
1.0
 10
56.09282141159991
 20
53.26365445459998
 30
0.0
 10
56.13248639779993
 20
53.33627019779993
 30
0.0
 10
56.23443080299995
 20
53.47029770929998
 30
0.0
 10
56.43965057939993
 20
53.61605330479995
 30
0.0
 10
56.67876130009995
 20
53.69420590379997
 30
0.0
 10
56.84694222859992
 20
53.69623768849994
 30
0.0
 10
56.92872558339996
 20
53.68479204519991
 30
0.0
1001
ACAD
1000
RTMaterial
1005
0
  0
SPLINE
  5
5FF93
330
1F
100
AcDbEntity
  8
1
100
AcDbSpline
210
0.0
220
0.0
230
1.0
 70
     8
 71
     3
 72
    15
 73
    11
 74
     0
 42
0.0000000001
 43
0.0000000001
 40
0.0
 40
0.0
 40
0.0
 40
0.0
 40
0.1251602541
 40
0.2502837245
 40
0.3753592817
 40
0.5003790434000001
 40
0.6253432712000001
 40
0.7502586988
 40
0.8751367873999999
 40
1.0
 40
1.0
 40
1.0
 40
1.0
 10
57.01642244209995
 20
56.57763610439991
 30
0.0
 10
57.01792064329993
 20
56.52960722009993
 30
0.0
 10
57.02933804819991
 20
56.4336151622
 30
0.0
 10
57.07118979869995
 20
56.29498422659992
 30
0.0
 10
57.1364937987999
 20
56.16574559159994
 30
0.0
 10
57.22325746609988
 20
56.04990536429994
 30
0.0
 10
57.32882701099993
 20
55.95098905229992
 30
0.0
 10
57.44999343909995
 20
55.87202295489993
 30
0.0
 10
57.58299830709995
 20
55.81542926319997
 30
0.0
 10
57.67699452609992
 20
55.79374315889999
 30
0.0
 10
57.7244706887999
 20
55.78710347679998
 30
0.0
1001
ACAD
1000
RTMaterial
1005
0
  0
SPLINE
  5
5FF94
330
1F
100
AcDbEntity
  8
1
100
AcDbSpline
210
0.0
220
0.0
230
1.0
 70
     8
 71
     3
 72
     8
 73
     4
 74
     0
 42
0.0000000001
 43
0.0000000001
 40
0.0
 40
0.0
 40
0.0
 40
0.0
 40
1.0
 40
1.0
 40
1.0
 40
1.0
 10
54.64833787319992
 20
54.20987422059994
 30
0.0
 10
54.66901142689994
 20
54.20999890729991
 30
0.0
 10
54.68970434119995
 20
54.20933933029994
 30
0.0
 10
54.71032833999993
 20
54.20790334939994
 30
0.0
1001
ACAD
1000
RTMaterial
1005
0
  0
SPLINE
  5
5FF95
330
1F
100
AcDbEntity
  8
1
100
AcDbSpline
210
0.0
220
0.0
230
1.0
 70
     8
 71
     3
 72
     8
 73
     4
 74
     0
 42
0.0000000001
 43
0.0000000001
 40
0.0
 40
0.0
 40
0.0
 40
0.0
 40
1.0
 40
1.0
 40
1.0
 40
1.0
 10
54.71032833999993
 20
54.20790334939994
 30
0.0
 10
54.7293050767999
 20
54.20658206189989
 30
0.0
 10
54.74824742629994
 20
54.20460183669996
 30
0.0
 10
54.76708689059989
 20
54.20196803329997
 30
0.0
1001
ACAD
1000
RTMaterial
1005
0
  0
SPLINE
  5
5FF96
330
1F
100
AcDbEntity
  8
1
100
AcDbSpline
210
0.0
220
0.0
230
1.0
 70
     8
 71
     3
 72
    15
 73
    11
 74
     0
 42
0.0000000001
 43
0.0000000001
 40
0.0
 40
0.0
 40
0.0
 40
0.0
 40
0.1248035261
 40
0.2496613061
 40
0.3746006319
 40
0.499629273
 40
0.6247274788000001
 40
0.7498557666
 40
0.8749517093000001
 40
1.0
 40
1.0
 40
1.0
 40
1.0
 10
57.44133955419994
 20
53.54117620720001
 30
0.0
 10
57.47188251279993
 20
53.53690179379992
 30
0.0
 10
57.53455223809993
 20
53.53702944239995
 30
0.0
 10
57.62451614679992
 20
53.56341729389999
 30
0.0
 10
57.70368426129988
 20
53.61386213579999
 30
0.0
 10
57.76571107289993
 20
53.68438030229992
 30
0.0
 10
57.80573126319996
 20
53.76939243009991
 30
0.0
 10
57.82056195889992
 20
53.86220483429998
 30
0.0
 10
57.80910404779991
 20
53.95541472739996
 30
0.0
 10
57.78439504309989
 20
54.01313256439994
 30
0.0
 10
57.76837202639995
 20
54.03955490889996
 30
0.0
1001
ACAD
1000
RTMaterial
1005
0
  0
SPLINE
  5
5FF97
330
1F
100
AcDbEntity
  8
1
100
AcDbSpline
210
0.0
220
0.0
230
1.0
 70
     8
 71
     3
 72
    15
 73
    11
 74
     0
 42
0.0000000001
 43
0.0000000001
 40
0.0
 40
0.0
 40
0.0
 40
0.0
 40
0.1248198495
 40
0.2497009272
 40
0.3746642443
 40
0.4997044267000001
 40
0.6247961708
 40
0.7499053905
 40
0.8749776184999998
 40
1.0
 40
1.0
 40
1.0
 40
1.0
 10
57.37833385189992
 20
53.55653502379993
 30
0.0
 10
57.40643494079989
 20
53.55822308299991
 30
0.0
 10
57.46248083799992
 20
53.56891411789996
 30
0.0
 10
57.53949808409993
 20
53.60581011459993
 30
0.0
 10
57.60468423229991
 20
53.66113256179994
 30
0.0
 10
57.65367881609989
 20
53.73124139649997
 30
0.0
 10
57.68328990749996
 20
53.81151802489995
 30
0.0
 10
57.69154956699992
 20
53.89670025009991
 30
0.0
 10
57.67796580559991
 20
53.98112943839993
 30
0.0
 10
57.65483118169993
 20
54.03337921399998
 30
0.0
 10
57.64021008599991
 20
54.05748975669997
 30
0.0
1001
ACAD
1000
RTMaterial
1005
0
  0
SPLINE
  5
5FF98
330
1F
100
AcDbEntity
  8
1
100
AcDbSpline
210
0.0
220
0.0
230
1.0
 70
     8
 71
     3
 72
    11
 73
     7
 74
     0
 42
0.0000000001
 43
0.0000000001
 40
0.0
 40
0.0
 40
0.0
 40
0.0
 40
0.2497812734
 40
0.4996706779000001
 40
0.7497377359000001
 40
1.0
 40
1.0
 40
1.0
 40
1.0
 10
57.05688746789991
 20
53.66685675729991
 30
0.0
 10
56.97510242139992
 20
53.67829821399999
 30
0.0
 10
56.80692102849992
 20
53.67627648299992
 30
0.0
 10
56.56781018689992
 20
53.5981132558
 30
0.0
 10
56.36258987079992
 20
53.45236178729994
 30
0.0
 10
56.26064727629989
 20
53.31833340589992
 30
0.0
 10
56.2209833519999
 20
53.24571960679998
 30
0.0
1001
ACAD
1000
RTMaterial
1005
0
  0
SPLINE
  5
5FF99
330
1F
100
AcDbEntity
  8
1
100
AcDbSpline
210
0.0
220
0.0
230
1.0
 70
     8
 71
     3
 72
    11
 73
     7
 74
     0
 42
0.0000000001
 43
0.0000000001
 40
0.0
 40
0.0
 40
0.0
 40
0.0
 40
0.2502996486
 40
0.5003874572
 40
0.7502656923000001
 40
1.0
 40
1.0
 40
1.0
 40
1.0
 10
57.01642244209995
 20
56.57763610439991
 30
0.0
 10
57.01522836879991
 20
56.61591534709998
 30
0.0
 10
56.99926614749995
 20
56.69268443519996
 30
0.0
 10
56.93747630959996
 20
56.79213658079999
 30
0.0
 10
56.84547969579989
 20
56.86443240359995
 30
0.0
 10
56.77099753039994
 20
56.88860664279997
 30
0.0
 10
56.73315477409994
 20
56.8939013433
 30
0.0
1001
ACAD
1000
RTMaterial
1005
0
  0
SPLINE
  5
5FF9A
330
1F
100
AcDbEntity
  8
1
100
AcDbSpline
210
0.0
220
0.0
230
1.0
 70
     8
 71
     3
 72
    11
 73
     7
 74
     0
 42
0.0000000001
 43
0.0000000001
 40
0.0
 40
0.0
 40
0.0
 40
0.0
 40
0.2497807494
 40
0.499671638
 40
0.7497263809
 40
1.0
 40
1.0
 40
1.0
 40
1.0
 10
55.88656510419991
 20
53.07723788859999
 30
0.0
 10
55.9192844957999
 20
53.0726600143999
 30
0.0
 10
55.98656874089994
 20
53.07346738299992
 30
0.0
 10
56.08222731069992
 20
53.10473892549993
 30
0.0
 10
56.16433042049994
 20
53.16304735059993
 30
0.0
 10
56.20511438729995
 20
53.21666787179998
 30
0.0
 10
56.2209833519999
 20
53.24571960679998
 30
0.0
1001
ACAD
1000
RTMaterial
1005
0
  0
SPLINE
  5
5FF9B
330
1F
100
AcDbEntity
  8
1
100
AcDbSpline
210
0.0
220
0.0
230
1.0
 70
     8
 71
     3
 72
    11
 73
     7
 74
     0
 42
0.0000000001
 43
0.0000000001
 40
0.0
 40
0.0
 40
0.0
 40
0.0
 40
0.2497849674
 40
0.4997030093000001
 40
0.7497650819000001
 40
1.0
 40
1.0
 40
1.0
 40
1.0
 10
55.82350790339996
 20
53.09259034199993
 30
0.0
 10
55.85111596349992
 20
53.09423864169997
 30
0.0
 10
55.90617701379989
 20
53.10461028329996
 30
0.0
 10
55.98207024049992
 20
53.14032250569994
 30
0.0
 10
56.04668884999995
 20
53.19387456229993
 30
0.0
 10
56.07953928299991
 20
53.23933850909992
 30
0.0
 10
56.09282141159991
 20
53.26365445459998
 30
0.0
1001
ACAD
1000
RTMaterial
1005
0
  0
SPLINE
  5
5FF9C
330
1F
100
AcDbEntity
  8
1
100
AcDbSpline
210
0.0
220
0.0
230
1.0
 70
     8
 71
     3
 72
     9
 73
     5
 74
     0
 42
0.0000000001
 43
0.0000000001
 40
0.0
 40
0.0
 40
0.0
 40
0.0
 40
0.5000427267000001
 40
1.0
 40
1.0
 40
1.0
 40
1.0
 10
55.28823711939992
 20
56.39404992389995
 30
0.0
 10
55.33082679979992
 20
56.37117840709999
 30
0.0
 10
55.42022098559994
 20
56.3328991454
 30
0.0
 10
55.51496442119992
 20
56.31097904749998
 30
0.0
 10
55.56283241049993
 20
56.30428247459997
 30
0.0
1001
ACAD
1000
RTMaterial
1005
0
  0
SPLINE
  5
5FF9D
330
1F
100
AcDbEntity
  8
1
100
AcDbSpline
210
0.0
220
0.0
230
1.0
 70
     8
 71
     3
 72
     9
 73
     5
 74
     0
 42
0.0000000001
 43
0.0000000001
 40
0.0
 40
0.0
 40
0.0
 40
0.0
 40
0.7495490479000001
 40
1.0
 40
1.0
 40
1.0
 40
1.0
 10
55.28823711939992
 20
56.39404992389995
 30
0.0
 10
55.2627214664999
 20
56.40775234369994
 30
0.0
 10
55.22597899419992
 20
56.42159030019991
 30
0.0
 10
55.18796420279994
 20
56.42862178399997
 30
0.0
 10
55.17838032409992
 20
56.42996302469999
 30
0.0
1001
ACAD
1000
RTMaterial
1005
0
  0
SPLINE
  5
5FF9E
330
1F
100
AcDbEntity
  8
1
100
AcDbSpline
210
0.0
220
0.0
230
1.0
 70
     8
 71
     3
 72
     8
 73
     4
 74
     0
 42
0.0000000001
 43
0.0000000001
 40
0.0
 40
0.0
 40
0.0
 40
0.0
 40
1.0
 40
1.0
 40
1.0
 40
1.0
 10
54.89524918949991
 20
54.1840357550999
 30
0.0
 10
54.85134284859992
 20
54.19017618699996
 30
0.0
 10
54.80679296509993
 20
54.19276317599997
 30
0.0
 10
54.76247126479996
 20
54.19173431389999
 30
0.0
1001
ACAD
1000
RTMaterial
1005
0
  0
SPLINE
  5
5FF9F
330
1F
100
AcDbEntity
  8
1
100
AcDbSpline
210
0.0
220
0.0
230
1.0
 70
     8
 71
     3
 72
    27
 73
    23
 74
     0
 42
0.0000000001
 43
0.0000000001
 40
0.0
 40
0.0
 40
0.0
 40
0.0
 40
0.0624189136
 40
0.0936574536
 40
0.1248956952
 40
0.187296672
 40
0.2497075133
 40
0.2809578771
 40
0.3122145852
 40
0.3746743718
 40
0.4371656960000001
 40
0.4996869511
 40
0.5622320427
 40
0.6247912526000001
 40
0.6873526613
 40
0.718667932
 40
0.7499792088
 40
0.8125099985999998
 40
0.8750126935
 40
0.9062897940999999
 40
0.9375572100999999
 40
1.0
 40
1.0
 40
1.0
 40
1.0
 10
55.64232396639994
 20
57.23872665629994
 30
0.0
 10
55.78919897109989
 20
57.28255371839992
 30
0.0
 10
56.0168905541999
 20
57.32673048119995
 30
0.0
 10
56.3236407450999
 20
57.34019846359996
 30
0.0
 10
56.6302873928999
 20
57.32353628739997
 30
0.0
 10
57.00827700189989
 20
57.24618195889997
 30
0.0
 10
57.36381859589994
 20
57.0962514254
 30
0.0
 10
57.62625463619992
 20
56.93660658589994
 30
0.0
 10
57.8718749823999
 20
56.75194708119994
 30
0.0
 10
58.14317022089994
 20
56.47698788749995
 30
0.0
 10
58.39786952689991
 20
56.09003423359997
 30
0.0
 10
58.5724071018999
 20
55.6606137229
 30
0.0
 10
58.65996527199991
 20
55.20525666949993
 30
0.0
 10
58.65727178209994
 20
54.74154490679996
 30
0.0
 10
58.57973858749994
 20
54.362580224
 30
0.0
 10
58.47455971649992
 20
54.07327384799993
 30
0.0
 10
58.34167246879991
 20
53.79567680479993
 30
0.0
 10
58.12555118789993
 20
53.47520210849996
 30
0.0
 10
57.85109092059991
 20
53.20314383519991
 30
0.0
 10
57.60330588449988
 20
53.02102451269991
 30
0.0
 10
57.3391098919999
 20
52.86413425679995
 30
0.0
 10
57.12432709889992
 20
52.77625640219998
 30
0.0
 10
56.9773959119999
 20
52.73241257559994
 30
0.0
1001
ACAD
1000
RTMaterial
1005
0
  0
SPLINE
  5
5FFA0
330
1F
100
AcDbEntity
  8
1
100
AcDbSpline
210
0.0
220
0.0
230
1.0
 70
     8
 71
     3
 72
     8
 73
     4
 74
     0
 42
0.0000000001
 43
0.0000000001
 40
0.0
 40
0.0
 40
0.0
 40
0.0
 40
1.0
 40
1.0
 40
1.0
 40
1.0
 10
54.70935145059991
 20
54.19481703639997
 30
0.0
 10
54.72691708139996
 20
54.19236176139998
 30
0.0
 10
54.7447396451999
 20
54.19132270080002
 30
0.0
 10
54.76247126479996
 20
54.19173431389999
 30
0.0
1001
ACAD
1000
RTMaterial
1005
0
  0
SPLINE
  5
5FFA1
330
1F
100
AcDbEntity
  8
1
100
AcDbSpline
210
0.0
220
0.0
230
1.0
 70
     8
 71
     3
 72
     9
 73
     5
 74
     0
 42
0.0000000001
 43
0.0000000001
 40
0.0
 40
0.0
 40
0.0
 40
0.0
 40
0.2479593616
 40
1.0
 40
1.0
 40
1.0
 40
1.0
 10
55.02850853959995
 20
61.96103357649997
 30
0.0
 10
55.12941804569994
 20
61.97083017109997
 30
0.0
 10
55.53629739969989
 20
62.01116346719999
 30
0.0
 10
55.94285298619991
 20
62.05476639919993
 30
0.0
 10
56.24838147069993
 20
62.08943600139997
 30
0.0
1001
ACAD
1000
RTMaterial
1005
0
  0
LINE
  5
5FFA2
330
1F
100
AcDbEntity
  8
1
100
AcDbLine
 10
54.69621888409995
 20
61.86415013849995
 30
0.0
 11
54.70069532569993
 21
61.86646217619994
 31
0.0
1001
ACAD
1000
RTMaterial
1005
0
  0
LINE
  5
5FFA3
330
1F
100
AcDbEntity
  8
1
100
AcDbLine
 10
54.70069532569993
 20
61.86646217619994
 30
0.0
 11
54.70934690439992
 21
61.87081877249994
 31
0.0
1001
ACAD
1000
RTMaterial
1005
0
  0
SPLINE
  5
5FFA4
330
1F
100
AcDbEntity
  8
1
100
AcDbSpline
210
0.0
220
0.0
230
1.0
 70
     8
 71
     3
 72
     8
 73
     4
 74
     0
 42
0.0000000001
 43
0.0000000001
 40
0.0
 40
0.0
 40
0.0
 40
0.0
 40
1.0
 40
1.0
 40
1.0
 40
1.0
 10
54.70934690439992
 20
61.87081877249994
 30
0.0
 10
54.72951927939994
 20
61.8808065172999
 30
0.0
 10
54.75018650729992
 20
61.88985231479995
 30
0.0
 10
54.77121407219994
 20
61.89788482819995
 30
0.0
1001
ACAD
1000
RTMaterial
1005
0
  0
SPLINE
  5
5FFA5
330
1F
100
AcDbEntity
  8
1
100
AcDbSpline
210
0.0
220
0.0
230
1.0
 70
     8
 71
     3
 72
     9
 73
     5
 74
     0
 42
0.0000000001
 43
0.0000000001
 40
0.0
 40
0.0
 40
0.0
 40
0.0
 40
0.2498748411
 40
1.0
 40
1.0
 40
1.0
 40
1.0
 10
51.54799209059991
 20
50.23920488839991
 30
0.0
 10
51.48725203449993
 20
50.32312754519995
 30
0.0
 10
51.24388887869992
 20
50.65878265009991
 30
0.0
 10
50.99940300079992
 20
50.99362395559996
 30
0.0
 10
50.81533797679992
 20
51.24430388569999
 30
0.0
1001
ACAD
1000
RTMaterial
1005
0
  0
SPLINE
  5
5FFA6
330
1F
100
AcDbEntity
  8
1
100
AcDbSpline
210
0.0
220
0.0
230
1.0
 70
     8
 71
     3
 72
     8
 73
     4
 74
     0
 42
0.0000000001
 43
0.0000000001
 40
0.0
 40
0.0
 40
0.0
 40
0.0
 40
1.0
 40
1.0
 40
1.0
 40
1.0
 10
51.78711045229994
 20
50.00577089749999
 30
0.0
 10
51.76964549429988
 20
50.01767713709995
 30
0.0
 10
51.7526697360999
 20
50.03033498269991
 30
0.0
 10
51.73627825979991
 20
50.04368049889996
 30
0.0
1001
ACAD
1000
RTMaterial
1005
0
  0
SPLINE
  5
5FFA7
330
1F
100
AcDbEntity
  8
1
100
AcDbSpline
210
0.0
220
0.0
230
1.0
 70
     8
 71
     3
 72
     9
 73
     5
 74
     0
 42
0.0000000001
 43
0.0000000001
 40
0.0
 40
0.0
 40
0.0
 40
0.0
 40
0.2496740753
 40
1.0
 40
1.0
 40
1.0
 40
1.0
 10
63.38404129859992
 20
53.0693004268
 30
0.0
 10
63.34012359089996
 20
52.97558401979995
 30
0.0
 10
63.16555768109992
 20
52.59960563319999
 30
0.0
 10
62.99632321389992
 20
52.22114864219998
 30
0.0
 10
62.87256838219992
 20
51.93579904669997
 30
0.0
1001
ACAD
1000
RTMaterial
1005
0
  0
SPLINE
  5
5FFA8
330
1F
100
AcDbEntity
  8
1
100
AcDbSpline
210
0.0
220
0.0
230
1.0
 70
     8
 71
     3
 72
     9
 73
     5
 74
     0
 42
0.0000000001
 43
0.0000000001
 40
0.0
 40
0.0
 40
0.0
 40
0.0
 40
0.2567257741
 40
1.0
 40
1.0
 40
1.0
 40
1.0
 10
53.22632737269993
 20
61.34716495969996
 30
0.0
 10
53.20254954029991
 20
61.34257628389997
 30
0.0
 10
53.1103641576999
 20
61.32253372839994
 30
0.0
 10
53.02002245249991
 20
61.29392243359996
 30
0.0
 10
52.95491881049992
 20
61.26789942269994
 30
0.0
1001
ACAD
1000
RTMaterial
1005
0
  0
SPLINE
  5
5FFA9
330
1F
100
AcDbEntity
  8
1
100
AcDbSpline
210
0.0
220
0.0
230
1.0
 70
     8
 71
     3
 72
     9
 73
     5
 74
     0
 42
0.0000000001
 43
0.0000000001
 40
0.0
 40
0.0
 40
0.0
 40
0.0
 40
0.501675589
 40
1.0
 40
1.0
 40
1.0
 40
1.0
 10
48.57413047139994
 20
54.29662544069998
 30
0.0
 10
48.53126056909991
 20
54.35501037409995
 30
0.0
 10
48.45407605249994
 20
54.47772920029996
 30
0.0
 10
48.39630752549993
 20
54.61075760589995
 30
0.0
 10
48.3728556769999
 20
54.67877803839991
 30
0.0
1001
ACAD
1000
RTMaterial
1005
0
  0
LINE
  5
5FFAA
330
1F
100
AcDbEntity
  8
1
100
AcDbLine
 10
47.64622493369995
 20
56.00501015309993
 30
0.0
 11
47.64245781409994
 21
55.97434649830001
 31
0.0
1001
ACAD
1000
RTMaterial
1005
0
  0
SPLINE
  5
5FFAB
330
1F
100
AcDbEntity
  8
1
100
AcDbSpline
210
0.0
220
0.0
230
1.0
 70
     8
 71
     3
 72
     9
 73
     5
 74
     0
 42
0.0000000001
 43
0.0000000001
 40
0.0
 40
0.0
 40
0.0
 40
0.0
 40
0.2493217228
 40
1.0
 40
1.0
 40
1.0
 40
1.0
 10
47.69825798469992
 20
56.23760175359996
 30
0.0
 10
47.6922699880999
 20
56.21870610539997
 30
0.0
 10
47.66991019659991
 20
56.14240206909994
 30
0.0
 10
47.65418734199989
 20
56.06415754239993
 30
0.0
 10
47.64622477319995
 20
56.00501016809994
 30
0.0
1001
ACAD
1000
RTMaterial
1005
0
  0
SPLINE
  5
5FFAC
330
1F
100
AcDbEntity
  8
1
100
AcDbSpline
210
0.0
220
0.0
230
1.0
 70
     8
 71
     3
 72
     9
 73
     5
 74
     0
 42
0.0000000001
 43
0.0000000001
 40
0.0
 40
0.0
 40
0.0
 40
0.0
 40
0.2491659492
 40
1.0
 40
1.0
 40
1.0
 40
1.0
 10
47.72961158489994
 20
56.32678124689994
 30
0.0
 10
47.72677763499996
 20
56.31945850619991
 30
0.0
 10
47.71563143319991
 20
56.28998195439994
 30
0.0
 10
47.7054039891999
 20
56.26015787379992
 30
0.0
 10
47.69825614919994
 20
56.23760223699992
 30
0.0
1001
ACAD
1000
RTMaterial
1005
0
  0
SPLINE
  5
5FFAD
330
1F
100
AcDbEntity
  8
1
100
AcDbSpline
210
0.0
220
0.0
230
1.0
 70
     8
 71
     3
 72
    11
 73
     7
 74
     0
 42
0.0000000001
 43
0.0000000001
 40
0.0
 40
0.0
 40
0.0
 40
0.0
 40
0.2482991202
 40
0.4971764117000001
 40
0.7476319500000001
 40
1.0
 40
1.0
 40
1.0
 40
1.0
 10
47.64050718129993
 20
55.94390263399998
 30
0.0
 10
47.63630294569992
 20
55.86412750519992
 30
0.0
 10
47.64135545219988
 20
55.70335063249996
 30
0.0
 10
47.68997944429992
 20
55.46658292519992
 30
0.0
 10
47.7795473907999
 20
55.24066220659995
 30
0.0
 10
47.86445032339992
 20
55.10187981989997
 30
0.0
 10
47.91250562349989
 20
55.03643284359998
 30
0.0
1001
ACAD
1000
RTMaterial
1005
0
  0
LINE
  5
5FFAE
330
1F
100
AcDbEntity
  8
1
100
AcDbLine
 10
47.64245781409994
 20
55.97434649830001
 30
0.0
 11
47.64050718129993
 21
55.94390263399998
 31
0.0
1001
ACAD
1000
RTMaterial
1005
0
  0
SPLINE
  5
5FFAF
330
1F
100
AcDbEntity
  8
1
100
AcDbSpline
210
0.0
220
0.0
230
1.0
 70
     8
 71
     3
 72
     9
 73
     5
 74
     0
 42
0.0000000001
 43
0.0000000001
 40
0.0
 40
0.0
 40
0.0
 40
0.0
 40
0.4973933731000001
 40
1.0
 40
1.0
 40
1.0
 40
1.0
 10
60.71710645109988
 20
47.7374481500999
 30
0.0
 10
60.6320580705999
 20
47.69668157849998
 30
0.0
 10
60.4519581502999
 20
47.63250224659993
 30
0.0
 10
60.26241613839994
 20
47.6074950697
 30
0.0
 10
60.16715117369995
 20
47.60481801269992
 30
0.0
1001
ACAD
1000
RTMaterial
1005
0
  0
SPLINE
  5
5FFB0
330
1F
100
AcDbEntity
  8
1
100
AcDbSpline
210
0.0
220
0.0
230
1.0
 70
     8
 71
     3
 72
     9
 73
     5
 74
     0
 42
0.0000000001
 43
0.0000000001
 40
0.0
 40
0.0
 40
0.0
 40
0.0
 40
0.2490451083
 40
1.0
 40
1.0
 40
1.0
 40
1.0
 10
60.9584460275999
 20
47.89964673299993
 30
0.0
 10
60.94383643409992
 20
47.88714884429999
 30
0.0
 10
60.88405202199993
 20
47.83829090839993
 30
0.0
 10
60.81989695559991
 20
47.79479157119993
 30
0.0
 10
60.7698746394999
 20
47.76548958709997
 30
0.0
1001
ACAD
1000
RTMaterial
1005
0
  0
SPLINE
  5
5FFB1
330
1F
100
AcDbEntity
  8
1
100
AcDbSpline
210
0.0
220
0.0
230
1.0
 70
     8
 71
     3
 72
     9
 73
     5
 74
     0
 42
0.0000000001
 43
0.0000000001
 40
0.0
 40
0.0
 40
0.0
 40
0.0
 40
0.5012706207000001
 40
1.0
 40
1.0
 40
1.0
 40
1.0
 10
61.36426486189993
 20
48.45800434979992
 30
0.0
 10
61.31807793399992
 20
48.35150813529998
 30
0.0
 10
61.20380292409993
 20
48.14783927859997
 30
0.0
 10
61.04620827189989
 20
47.97472109969999
 30
0.0
 10
60.95844717839992
 20
47.89964520249998
 30
0.0
1001
ACAD
1000
RTMaterial
1005
0
  0
SPLINE
  5
5FFB2
330
1F
100
AcDbEntity
  8
1
100
AcDbSpline
210
0.0
220
0.0
230
1.0
 70
     8
 71
     3
 72
     9
 73
     5
 74
     0
 42
0.0000000001
 43
0.0000000001
 40
0.0
 40
0.0
 40
0.0
 40
0.0
 40
0.4987360353
 40
1.0
 40
1.0
 40
1.0
 40
1.0
 10
60.9678006792999
 20
62.29670880479995
 30
0.0
 10
61.10100722699991
 20
62.20519638669992
 30
0.0
 10
61.33939949719991
 20
61.97549445649997
 30
0.0
 10
61.48616411109992
 20
61.67849931529997
 30
0.0
 10
61.53271046769993
 20
61.52287994949995
 30
0.0
1001
ACAD
1000
RTMaterial
1005
0
  0
SPLINE
  5
5FFB3
330
1F
100
AcDbEntity
  8
1
100
AcDbSpline
210
0.0
220
0.0
230
1.0
 70
     8
 71
     3
 72
     9
 73
     5
 74
     0
 42
0.0000000001
 43
0.0000000001
 40
0.0
 40
0.0
 40
0.0
 40
0.0
 40
0.2492241108
 40
1.0
 40
1.0
 40
1.0
 40
1.0
 10
60.69643344129992
 20
62.43215215289996
 30
0.0
 10
60.71527568589994
 20
62.42522969349995
 30
0.0
 10
60.79027415009995
 20
62.39583180059992
 30
0.0
 10
60.86275393749992
 20
62.36002093889993
 30
0.0
 10
60.9151648173999
 20
62.32985763129994
 30
0.0
1001
ACAD
1000
RTMaterial
1005
0
  0
SPLINE
  5
5FFB4
330
1F
100
AcDbEntity
  8
1
100
AcDbSpline
210
0.0
220
0.0
230
1.0
 70
     8
 71
     3
 72
     9
 73
     5
 74
     0
 42
0.0000000001
 43
0.0000000001
 40
0.0
 40
0.0
 40
0.0
 40
0.0
 40
0.4950561726
 40
1.0
 40
1.0
 40
1.0
 40
1.0
 10
59.99789239619992
 20
62.51490910239994
 30
0.0
 10
60.11401482439993
 20
62.52808600249995
 30
0.0
 10
60.35236368609992
 20
62.52826466789997
 30
0.0
 10
60.58454456879991
 20
62.47326109839992
 30
0.0
 10
60.69643414749993
 20
62.43215394149996
 30
0.0
1001
ACAD
1000
RTMaterial
1005
0
  0
SPLINE
  5
5FFB5
330
1F
100
AcDbEntity
  8
1
100
AcDbSpline
210
0.0
220
0.0
230
1.0
 70
     8
 71
     3
 72
     9
 73
     5
 74
     0
 42
0.0000000001
 43
0.0000000001
 40
0.0
 40
0.0
 40
0.0
 40
0.0
 40
0.7496191467000001
 40
1.0
 40
1.0
 40
1.0
 40
1.0
 10
63.46355001009993
 20
53.32797355309992
 30
0.0
 10
63.45165067369993
 20
53.26131900479992
 30
0.0
 10
63.4272576928999
 20
53.17364765899998
 30
0.0
 10
63.39316787789988
 20
53.08999241479995
 30
0.0
 10
63.38404129859992
 20
53.0693004268
 30
0.0
1001
ACAD
1000
RTMaterial
1005
0
  0
SPLINE
  5
5FFB6
330
1F
100
AcDbEntity
  8
1
100
AcDbSpline
210
0.0
220
0.0
230
1.0
 70
     8
 71
     3
 72
     8
 73
     4
 74
     0
 42
0.0000000001
 43
0.0000000001
 40
0.0
 40
0.0
 40
0.0
 40
0.0
 40
1.0
 40
1.0
 40
1.0
 40
1.0
 10
63.47199999999992
 20
53.3840677833
 30
0.0
 10
63.46969744879993
 20
53.36529946089996
 30
0.0
 10
63.46687315899993
 20
53.34658828779993
 30
0.0
 10
63.46355001009993
 20
53.32797355309992
 30
0.0
1001
ACAD
1000
RTMaterial
1005
0
  0
LINE
  5
5FFB7
330
1F
100
AcDbEntity
  8
1
100
AcDbLine
 10
63.4738404266999
 20
53.41577373819996
 30
0.0
 11
63.47199999999992
 21
53.3840677833
 31
0.0
1001
ACAD
1000
RTMaterial
1005
0
  0
SPLINE
  5
5FFB8
330
1F
100
AcDbEntity
  8
1
100
AcDbSpline
210
0.0
220
0.0
230
1.0
 70
     8
 71
     3
 72
     9
 73
     5
 74
     0
 42
0.0000000001
 43
0.0000000001
 40
0.0
 40
0.0
 40
0.0
 40
0.0
 40
0.2434504122
 40
1.0
 40
1.0
 40
1.0
 40
1.0
 10
63.50058650459994
 20
54.72283465189992
 30
0.0
 10
63.50229583499992
 20
54.6167449493999
 30
0.0
 10
63.50547568559989
 20
54.18091598739994
 30
0.0
 10
63.4925566103999
 20
53.74497063609999
 30
0.0
 10
63.47384150749991
 20
53.41577369599997
 30
0.0
1001
ACAD
1000
RTMaterial
1005
0
  0
LINE
  5
5FFB9
330
1F
100
AcDbEntity
  8
1
100
AcDbLine
 10
63.49999999999994
 20
54.75602156779996
 30
0.0
 11
63.50058541809989
 21
54.72283462039996
 31
0.0
1001
ACAD
1000
RTMaterial
1005
0
  0
SPLINE
  5
5FFBA
330
1F
100
AcDbEntity
  8
1
100
AcDbSpline
210
0.0
220
0.0
230
1.0
 70
     8
 71
     3
 72
     9
 73
     5
 74
     0
 42
0.0000000001
 43
0.0000000001
 40
0.0
 40
0.0
 40
0.0
 40
0.0
 40
0.2584941647
 40
1.0
 40
1.0
 40
1.0
 40
1.0
 10
63.43637431879989
 20
55.15832412239996
 30
0.0
 10
63.44644869079991
 20
55.12464227089992
 30
0.0
 10
63.48104092609992
 20
54.99307714519995
 30
0.0
 10
63.49806803989991
 20
54.85685077900001
 30
0.0
 10
63.50000046889994
 20
54.75602158229992
 30
0.0
1001
ACAD
1000
RTMaterial
1005
0
  0
SPLINE
  5
5FFBB
330
1F
100
AcDbEntity
  8
1
100
AcDbSpline
210
0.0
220
0.0
230
1.0
 70
     8
 71
     3
 72
     9
 73
     5
 74
     0
 42
0.0000000001
 43
0.0000000001
 40
0.0
 40
0.0
 40
0.0
 40
0.0
 40
0.2428026603
 40
1.0
 40
1.0
 40
1.0
 40
1.0
 10
52.92457528839992
 20
61.25572758219999
 30
0.0
 10
52.87848379079992
 20
61.23717104569999
 30
0.0
 10
52.6889675907999
 20
61.15996448949994
 30
0.0
 10
52.50087229179991
 20
61.07927243309996
 30
0.0
 10
52.35928643609992
 20
61.01631654989995
 30
0.0
1001
ACAD
1000
RTMaterial
1005
0
  0
LINE
  5
5FFBC
330
1F
100
AcDbEntity
  8
1
100
AcDbLine
 10
52.95491898159991
 20
61.26789898329997
 30
0.0
 11
52.92457568799995
 21
61.25572656189991
 31
0.0
1001
ACAD
1000
RTMaterial
1005
0
  0
SPLINE
  5
5FFBD
330
1F
100
AcDbEntity
  8
1
100
AcDbSpline
210
0.0
220
0.0
230
1.0
 70
     8
 71
     3
 72
     9
 73
     5
 74
     0
 42
0.0000000001
 43
0.0000000001
 40
0.0
 40
0.0
 40
0.0
 40
0.0
 40
0.2504623937
 40
1.0
 40
1.0
 40
1.0
 40
1.0
 10
54.77121399869992
 20
61.89788501699997
 30
0.0
 10
54.79190550999994
 20
61.90578915849994
 30
0.0
 10
54.87552444309989
 20
61.93467088319994
 30
0.0
 10
54.9627039268999
 20
61.95306059259991
 30
0.0
 10
55.02850853959995
 20
61.96103357649997
 30
0.0
1001
ACAD
1000
RTMaterial
1005
0
  0
SPLINE
  5
5FFBE
330
1F
100
AcDbEntity
  8
1
100
AcDbSpline
210
0.0
220
0.0
230
1.0
 70
     8
 71
     3
 72
     9
 73
     5
 74
     0
 42
0.0000000001
 43
0.0000000001
 40
0.0
 40
0.0
 40
0.0
 40
0.0
 40
0.2578430942
 40
1.0
 40
1.0
 40
1.0
 40
1.0
 10
51.83845683909993
 20
49.68964124989992
 30
0.0
 10
51.85924828549992
 20
49.66132517929998
 30
0.0
 10
51.94353830459994
 20
49.55423916279994
 30
0.0
 10
52.04208941629992
 20
49.45835783939992
 30
0.0
 10
52.12142139669992
 20
49.39566382209995
 30
0.0
1001
ACAD
1000
RTMaterial
1005
0
  0
SPLINE
  5
5FFBF
330
1F
100
AcDbEntity
  8
1
100
AcDbSpline
210
0.0
220
0.0
230
1.0
 70
     8
 71
     3
 72
    10
 73
     6
 74
     0
 42
0.0000000001
 43
0.0000000001
 40
0.0
 40
0.0
 40
0.0
 40
0.0
 40
0.242254595
 40
0.6222901804
 40
1.0
 40
1.0
 40
1.0
 40
1.0
 10
52.14764154529991
 20
49.37499872789999
 30
0.0
 10
52.22082961579991
 20
49.31747701579997
 30
0.0
 10
52.40994274289988
 20
49.17112615119993
 30
0.0
 10
52.71863934949988
 20
48.94224641309995
 30
0.0
 10
52.95651345049993
 20
48.77428093169993
 30
0.0
 10
53.07610787469991
 20
48.69205094599994
 30
0.0
1001
ACAD
1000
RTMaterial
1005
0
  0
LINE
  5
5FFC0
330
1F
100
AcDbEntity
  8
1
100
AcDbLine
 10
52.1214216891999
 20
49.39566419099998
 30
0.0
 11
52.14764222319991
 21
49.37499958659993
 31
0.0
1001
ACAD
1000
RTMaterial
1005
0
  0
SPLINE
  5
5FFC1
330
1F
100
AcDbEntity
  8
1
100
AcDbSpline
210
0.0
220
0.0
230
1.0
 70
     8
 71
     3
 72
     9
 73
     5
 74
     0
 42
0.0000000001
 43
0.0000000001
 40
0.0
 40
0.0
 40
0.0
 40
0.0
 40
0.2503103162
 40
1.0
 40
1.0
 40
1.0
 40
1.0
 10
51.73627813189995
 20
50.04368034169994
 30
0.0
 10
51.7186912100999
 20
50.05799915819995
 30
0.0
 10
51.65024611089996
 20
50.11740944589991
 30
0.0
 10
51.58909065039989
 20
50.18512556779995
 30
0.0
 10
51.54799209059991
 20
50.23920488839991
 30
0.0
1001
ACAD
1000
RTMaterial
1005
0
  0
SPLINE
  5
5FFC2
330
1F
100
AcDbEntity
  8
1
100
AcDbSpline
210
0.0
220
0.0
230
1.0
 70
     8
 71
     3
 72
     8
 73
     4
 74
     0
 42
0.0000000001
 43
0.0000000001
 40
0.0
 40
0.0
 40
0.0
 40
0.0
 40
1.0
 40
1.0
 40
1.0
 40
1.0
 10
60.91516606919992
 20
62.32985971509993
 30
0.0
 10
60.93313719399993
 20
62.3195170361999
 30
0.0
 10
60.95071064329994
 20
62.30845028819999
 30
0.0
 10
60.96780117589992
 20
62.29670950339993
 30
0.0
1001
ACAD
1000
RTMaterial
1005
0
  0
SPLINE
  5
5FFC3
330
1F
100
AcDbEntity
  8
1
100
AcDbSpline
210
0.0
220
0.0
230
1.0
 70
     8
 71
     3
 72
     8
 73
     4
 74
     0
 42
0.0000000001
 43
0.0000000001
 40
0.0
 40
0.0
 40
0.0
 40
0.0
 40
1.0
 40
1.0
 40
1.0
 40
1.0
 10
60.76987577539989
 20
47.76548743599994
 30
0.0
 10
60.75268869019993
 20
47.75541962199992
 30
0.0
 10
60.7350685516999
 20
47.74605736139995
 30
0.0
 10
60.71710679509994
 20
47.73744736279996
 30
0.0
1001
ACAD
1000
RTMaterial
1005
0
  0
SPLINE
  5
5FFC4
330
1F
100
AcDbEntity
  8
1
100
AcDbSpline
210
0.0
220
0.0
230
1.0
 70
     8
 71
     3
 72
    11
 73
     7
 74
     0
 42
0.0000000001
 43
0.0000000001
 40
0.0
 40
0.0
 40
0.0
 40
0.0
 40
0.2476310057
 40
0.4970906347
 40
0.7482928707
 40
1.0
 40
1.0
 40
1.0
 40
1.0
 10
48.30283568389996
 20
55.23538180229991
 30
0.0
 10
48.3116296400999
 20
55.31515523839994
 30
0.0
 10
48.34276209549995
 20
55.47410210949994
 30
0.0
 10
48.42783437199989
 20
55.70231876319997
 30
0.0
 10
48.54928781659992
 20
55.91491851189994
 30
0.0
 10
48.6516470594999
 20
56.04274035129993
 30
0.0
 10
48.70739137309993
 20
56.10230124239996
 30
0.0
1001
ACAD
1000
RTMaterial
1005
0
  0
LINE
  5
5FFC5
330
1F
100
AcDbEntity
  8
1
100
AcDbLine
 10
48.29980660219991
 20
55.20500257659995
 30
0.0
 11
48.30283568389996
 21
55.23538180229991
 31
0.0
1001
ACAD
1000
RTMaterial
1005
0
  0
LINE
  5
5FFC6
330
1F
100
AcDbEntity
  8
1
100
AcDbLine
 10
48.29850311459995
 20
55.17419126009992
 30
0.0
 11
48.29980660219991
 21
55.20500257659995
 31
0.0
1001
ACAD
1000
RTMaterial
1005
0
  0
SPLINE
  5
5FFC7
330
1F
100
AcDbEntity
  8
1
100
AcDbSpline
210
0.0
220
0.0
230
1.0
 70
     8
 71
     3
 72
     9
 73
     5
 74
     0
 42
0.0000000001
 43
0.0000000001
 40
0.0
 40
0.0
 40
0.0
 40
0.0
 40
0.2484673022
 40
1.0
 40
1.0
 40
1.0
 40
1.0
 10
48.31086564909992
 20
54.9377400075
 30
0.0
 10
48.30817961619993
 20
54.95717865859996
 30
0.0
 10
48.29905462219989
 20
55.03563773109999
 30
0.0
 10
48.29662982019988
 20
55.11486657859996
 30
0.0
 10
48.29850295049993
 20
55.17419126459998
 30
0.0
1001
ACAD
1000
RTMaterial
1005
0
  0
SPLINE
  5
5FFC8
330
1F
100
AcDbEntity
  8
1
100
AcDbSpline
210
0.0
220
0.0
230
1.0
 70
     8
 71
     3
 72
     9
 73
     5
 74
     0
 42
0.0000000001
 43
0.0000000001
 40
0.0
 40
0.0
 40
0.0
 40
0.0
 40
0.2304774491
 40
1.0
 40
1.0
 40
1.0
 40
1.0
 10
48.19711073089997
 20
55.44366015619994
 30
0.0
 10
48.19497854209993
 20
55.44861520449996
 30
0.0
 10
48.1847098936999
 20
55.46967828939989
 30
0.0
 10
48.17082357149991
 20
55.48883395849998
 30
0.0
 10
48.15912382729994
 20
55.50252703479992
 30
0.0
1001
ACAD
1000
RTMaterial
1005
0
  0
SPLINE
  5
5FFC9
330
1F
100
AcDbEntity
  8
1
100
AcDbSpline
210
0.0
220
0.0
230
1.0
 70
     8
 71
     3
 72
     9
 73
     5
 74
     0
 42
0.0000000001
 43
0.0000000001
 40
0.0
 40
0.0
 40
0.0
 40
0.0
 40
0.2714774794
 40
1.0
 40
1.0
 40
1.0
 40
1.0
 10
47.95852006529992
 20
55.72290046459994
 30
0.0
 10
47.96475475969993
 20
55.7179404000999
 30
0.0
 10
47.98737015879993
 20
55.69924874119994
 30
0.0
 10
48.00856869039989
 20
55.67873285059994
 30
0.0
 10
48.02245709429991
 20
55.66247822389994
 30
0.0
1001
ACAD
1000
RTMaterial
1005
0
  0
SPLINE
  5
5FFCA
330
1F
100
AcDbEntity
  8
1
100
AcDbSpline
210
0.0
220
0.0
230
1.0
 70
     8
 71
     3
 72
     9
 73
     5
 74
     0
 42
0.0000000001
 43
0.0000000001
 40
0.0
 40
0.0
 40
0.0
 40
0.0
 40
0.248159661
 40
1.0
 40
1.0
 40
1.0
 40
1.0
 10
60.16715117369995
 20
47.60481801269992
 30
0.0
 10
60.13563663859992
 20
47.60393241739996
 30
0.0
 10
60.00854980659994
 20
47.60463782689993
 30
0.0
 10
59.88163570579991
 20
47.62233279549991
 30
0.0
 10
59.78869359489994
 20
47.64435769989995
 30
0.0
1001
ACAD
1000
RTMaterial
1005
0
  0
SPLINE
  5
5FFCB
330
1F
100
AcDbEntity
  8
1
100
AcDbSpline
210
0.0
220
0.0
230
1.0
 70
     8
 71
     3
 72
     9
 73
     5
 74
     0
 42
0.0000000001
 43
0.0000000001
 40
0.0
 40
0.0
 40
0.0
 40
0.0
 40
0.2485144324
 40
1.0
 40
1.0
 40
1.0
 40
1.0
 10
48.3728556769999
 20
54.67877803839991
 30
0.0
 10
48.36565956029994
 20
54.69964986749994
 30
0.0
 10
48.33869749409996
 20
54.78431012679999
 30
0.0
 10
48.32000185679987
 20
54.87160762759993
 30
0.0
 10
48.31086372099992
 20
54.93773974969997
 30
0.0
1001
ACAD
1000
RTMaterial
1005
0
  0
SPLINE
  5
5FFCC
330
1F
100
AcDbEntity
  8
1
100
AcDbSpline
210
0.0
220
0.0
230
1.0
 70
     8
 71
     3
 72
     9
 73
     5
 74
     0
 42
0.0000000001
 43
0.0000000001
 40
0.0
 40
0.0
 40
0.0
 40
0.0
 40
0.2594039192
 40
1.0
 40
1.0
 40
1.0
 40
1.0
 10
53.2372318685999
 20
60.94228150129993
 30
0.0
 10
53.26118534879992
 20
60.96787497429994
 30
0.0
 10
53.35664349549995
 20
61.06356526159993
 30
0.0
 10
53.46415774129991
 20
61.14728762779998
 30
0.0
 10
53.5488413066999
 20
61.2006221947999
 30
0.0
1001
ACAD
1000
RTMaterial
1005
0
  0
SPLINE
  5
5FFCD
330
1F
100
AcDbEntity
  8
1
100
AcDbSpline
210
0.0
220
0.0
230
1.0
 70
     8
 71
     3
 72
     9
 73
     5
 74
     0
 42
0.0000000001
 43
0.0000000001
 40
0.0
 40
0.0
 40
0.0
 40
0.0
 40
0.2436363991
 40
1.0
 40
1.0
 40
1.0
 40
1.0
 10
53.57656657529992
 20
61.2180539565
 30
0.0
 10
53.66517849749993
 20
61.27366699509991
 30
0.0
 10
54.03090718399994
 20
61.49868988059996
 30
0.0
 10
54.40503022939992
 20
61.71006989599994
 30
0.0
 10
54.69209441639993
 20
61.86198598569996
 30
0.0
1001
ACAD
1000
RTMaterial
1005
0
  0
LINE
  5
5FFCE
330
1F
100
AcDbEntity
  8
1
100
AcDbLine
 10
53.54884157179992
 20
61.20062176449994
 30
0.0
 11
53.57656714839993
 21
61.21805302279994
 31
0.0
1001
ACAD
1000
RTMaterial
1005
0
  0
SPLINE
  5
5FFCF
330
1F
100
AcDbEntity
  8
1
100
AcDbSpline
210
0.0
220
0.0
230
1.0
 70
     8
 71
     3
 72
     9
 73
     5
 74
     0
 42
0.0000000001
 43
0.0000000001
 40
0.0
 40
0.0
 40
0.0
 40
0.0
 40
0.2435088423
 40
1.0
 40
1.0
 40
1.0
 40
1.0
 10
52.94436609569993
 20
49.32865028339995
 30
0.0
 10
52.85026151059992
 20
49.37910901189991
 30
0.0
 10
52.4656240541999
 20
49.58969159629993
 30
0.0
 10
52.08868685939989
 20
49.8143377140999
 30
0.0
 10
51.80840824269989
 20
49.99177431549992
 30
0.0
1001
ACAD
1000
RTMaterial
1005
0
  0
LINE
  5
5FFD0
330
1F
100
AcDbEntity
  8
1
100
AcDbLine
 10
52.97380762729995
 20
49.31289555939992
 30
0.0
 11
52.9443666142999
 21
49.32865124849996
 31
0.0
1001
ACAD
1000
RTMaterial
1005
0
  0
SPLINE
  5
5FFD1
330
1F
100
AcDbEntity
  8
1
100
AcDbSpline
210
0.0
220
0.0
230
1.0
 70
     8
 71
     3
 72
     9
 73
     5
 74
     0
 42
0.0000000001
 43
0.0000000001
 40
0.0
 40
0.0
 40
0.0
 40
0.0
 40
0.2574460055999999
 40
1.0
 40
1.0
 40
1.0
 40
1.0
 10
53.35518922359989
 20
49.16893329139998
 30
0.0
 10
53.32109568349995
 20
49.17701258939991
 30
0.0
 10
53.1897242451999
 20
49.2127096225999
 30
0.0
 10
53.06294843289993
 20
49.26528265389999
 30
0.0
 10
52.97380740499995
 20
49.3128951436999
 30
0.0
1001
ACAD
1000
RTMaterial
1005
0
  0
SPLINE
  5
5FFD2
330
1F
100
AcDbEntity
  8
1
100
AcDbSpline
210
0.0
220
0.0
230
1.0
 70
     8
 71
     3
 72
     8
 73
     4
 74
     0
 42
0.0000000001
 43
0.0000000001
 40
0.0
 40
0.0
 40
0.0
 40
0.0
 40
1.0
 40
1.0
 40
1.0
 40
1.0
 10
51.80840893859988
 20
49.99177541459994
 30
0.0
 10
51.8012312768999
 20
49.9963193925999
 30
0.0
 10
51.79412964369993
 20
50.00098576289997
 30
0.0
 10
51.78711045229994
 20
50.00577089749999
 30
0.0
1001
ACAD
1000
RTMaterial
1005
0
  0
SPLINE
  5
5FFD3
330
1F
100
AcDbEntity
  8
1
100
AcDbSpline
210
0.0
220
0.0
230
1.0
 70
     8
 71
     3
 72
    10
 73
     6
 74
     0
 42
0.0000000001
 43
0.0000000001
 40
0.0
 40
0.0
 40
0.0
 40
0.0
 40
0.4364208239
 40
0.7058633676000001
 40
1.0
 40
1.0
 40
1.0
 40
1.0
 10
52.07733748209995
 20
48.82117617839992
 30
0.0
 10
52.17944844249996
 20
48.77824776719996
 30
0.0
 10
52.35416301729992
 20
48.7293187665
 30
0.0
 10
52.60775162749997
 20
48.70859802259992
 30
0.0
 10
52.75120027109989
 20
48.71897244379994
 30
0.0
 10
52.82499318469991
 20
48.73028291739996
 30
0.0
1001
ACAD
1000
RTMaterial
1005
0
  0
SPLINE
  5
5FFD4
330
1F
100
AcDbEntity
  8
1
100
AcDbSpline
210
0.0
220
0.0
230
1.0
 70
     8
 71
     3
 72
    18
 73
    14
 74
     0
 42
0.0000000001
 43
0.0000000001
 40
0.0
 40
0.0
 40
0.0
 40
0.0
 40
0.2214976057
 40
0.4142664708
 40
0.5783981446000001
 40
0.7142816784999999
 40
0.8225202723999998
 40
0.8665695843000001
 40
0.9041301967
 40
0.9354988179999999
 40
0.9611825015
 40
0.9821122751
 40
1.0
 40
1.0
 40
1.0
 40
1.0
 10
51.89599008389996
 20
61.17423129439993
 30
0.0
 10
51.8349017505999
 20
61.18280429209995
 30
0.0
 10
51.72085975779992
 20
61.20042927249994
 30
0.0
 10
51.56255215719989
 20
61.23037595419993
 30
0.0
 10
51.4287808055999
 20
61.26126920879994
 30
0.0
 10
51.31941066029992
 20
61.29251171119995
 30
0.0
 10
51.24383297059989
 20
61.31989942269996
 30
0.0
 10
51.19588475919994
 20
61.3422687483
 30
0.0
 10
51.16842723419989
 20
61.35771453789999
 30
0.0
 10
51.14686592839996
 20
61.37297500599993
 30
0.0
 10
51.13113643109989
 20
61.38811711679995
 30
0.0
 10
51.12117654499991
 20
61.40333445649997
 30
0.0
 10
51.11866560059991
 20
61.41419363289998
 30
0.0
 10
51.11865978189991
 20
61.41917535069996
 30
0.0
1001
ACAD
1000
RTMaterial
1005
0
  0
SPLINE
  5
5FFD5
330
1F
100
AcDbEntity
  8
1
100
AcDbSpline
210
0.0
220
0.0
230
1.0
 70
     8
 71
     3
 72
     9
 73
     5
 74
     0
 42
0.0000000001
 43
0.0000000001
 40
0.0
 40
0.0
 40
0.0
 40
0.0
 40
0.2316440825
 40
1.0
 40
1.0
 40
1.0
 40
1.0
 10
52.27670706949993
 20
60.51920162289997
 30
0.0
 10
52.27793571999995
 20
60.52203010229994
 30
0.0
 10
52.28391351429991
 20
60.53394986879993
 30
0.0
 10
52.29225418209995
 20
60.54456866549992
 30
0.0
 10
52.29926991159993
 20
60.55201244299991
 30
0.0
1001
ACAD
1000
RTMaterial
1005
0
  0
SPLINE
  5
5FFD6
330
1F
100
AcDbEntity
  8
1
100
AcDbSpline
210
0.0
220
0.0
230
1.0
 70
     8
 71
     3
 72
    11
 73
     7
 74
     0
 42
0.0000000001
 43
0.0000000001
 40
0.0
 40
0.0
 40
0.0
 40
0.0
 40
0.2958236081
 40
0.5628378485
 40
0.7982375177
 40
1.0
 40
1.0
 40
1.0
 40
1.0
 10
29.94938549599993
 20
49.39267423019993
 30
0.0
 10
29.88170177049994
 20
49.3694648883
 30
0.0
 10
29.75186282429991
 20
49.32829436179997
 30
0.0
 10
29.56434905909993
 20
49.281534964
 30
0.0
 10
29.39599499699989
 20
49.25436375449994
 30
0.0
 10
29.28983512269991
 20
49.25013634719999
 30
0.0
 10
29.24111922619994
 20
49.25302413529994
 30
0.0
1001
ACAD
1000
RTMaterial
1005
0
  0
LINE
  5
5FFD7
330
1F
100
AcDbEntity
  8
1
100
AcDbLine
 10
51.23622625949991
 20
49.52293476269995
 30
0.0
 11
51.23490420279996
 21
49.52601536559996
 31
0.0
1001
ACAD
1000
RTMaterial
1005
0
  0
SPLINE
  5
5FFD8
330
1F
100
AcDbEntity
  8
1
100
AcDbSpline
210
0.0
220
0.0
230
1.0
 70
     8
 71
     3
 72
     9
 73
     5
 74
     0
 42
0.0000000001
 43
0.0000000001
 40
0.0
 40
0.0
 40
0.0
 40
0.0
 40
0.2569915056
 40
1.0
 40
1.0
 40
1.0
 40
1.0
 10
59.5966927209999
 20
47.30116284509989
 30
0.0
 10
59.59494227539988
 20
47.29496392749996
 30
0.0
 10
59.58821524149993
 20
47.27081917099996
 30
0.0
 10
59.58181079439992
 20
47.24658409109998
 30
0.0
 10
59.57726575769993
 20
47.22852420589993
 30
0.0
1001
ACAD
1000
RTMaterial
1005
0
  0
SPLINE
  5
5FFD9
330
1F
100
AcDbEntity
  8
1
100
AcDbSpline
210
0.0
220
0.0
230
1.0
 70
     8
 71
     3
 72
     8
 73
     4
 74
     0
 42
0.0000000001
 43
0.0000000001
 40
0.0
 40
0.0
 40
0.0
 40
0.0
 40
1.0
 40
1.0
 40
1.0
 40
1.0
 10
59.64068449209992
 20
47.45401142799994
 30
0.0
 10
59.62576470429991
 20
47.40313623799994
 30
0.0
 10
59.6111004354999
 20
47.35218541639994
 30
0.0
 10
59.5966927209999
 20
47.30116284509989
 30
0.0
1001
ACAD
1000
RTMaterial
1005
0
  0
SPLINE
  5
5FFDA
330
1F
100
AcDbEntity
  8
1
100
AcDbSpline
210
0.0
220
0.0
230
1.0
 70
     8
 71
     3
 72
    10
 73
     6
 74
     0
 42
0.0000000001
 43
0.0000000001
 40
0.0
 40
0.0
 40
0.0
 40
0.0
 40
0.211572255
 40
0.4535014511
 40
1.0
 40
1.0
 40
1.0
 40
1.0
 10
53.02667616449991
 20
48.68089429389994
 30
0.0
 10
53.04851157119992
 20
48.68512222759989
 30
0.0
 10
53.09493649969994
 20
48.69620564859997
 30
0.0
 10
53.19530955579989
 20
48.72759078229996
 30
0.0
 10
53.27160749649994
 20
48.76106521949992
 30
0.0
 10
53.3222889148999
 20
48.78811707199992
 30
0.0
1001
ACAD
1000
RTMaterial
1005
0
  0
SPLINE
  5
5FFDB
330
1F
100
AcDbEntity
  8
1
100
AcDbSpline
210
0.0
220
0.0
230
1.0
 70
     8
 71
     3
 72
     9
 73
     5
 74
     0
 42
0.0000000001
 43
0.0000000001
 40
0.0
 40
0.0
 40
0.0
 40
0.0
 40
0.266511501
 40
1.0
 40
1.0
 40
1.0
 40
1.0
 10
60.00238873319995
 20
47.12903685699996
 30
0.0
 10
60.00195639989994
 20
47.11981649449995
 30
0.0
 10
60.00061192739991
 20
47.08520898149998
 30
0.0
 10
60.00041562909996
 20
47.0505460693999
 30
0.0
 10
60.00119564149992
 20
47.02515403929999
 30
0.0
1001
ACAD
1000
RTMaterial
1005
0
  0
SPLINE
  5
5FFDC
330
1F
100
AcDbEntity
  8
1
100
AcDbSpline
210
0.0
220
0.0
230
1.0
 70
     8
 71
     3
 72
    11
 73
     7
 74
     0
 42
0.0000000001
 43
0.0000000001
 40
0.0
 40
0.0
 40
0.0
 40
0.0
 40
0.2627667978
 40
0.5100185714
 40
0.7517924568000001
 40
1.0
 40
1.0
 40
1.0
 40
1.0
 10
51.39189137609992
 20
49.52119909819998
 30
0.0
 10
51.37195445499992
 20
49.54834987139998
 30
0.0
 10
51.33629362609991
 20
49.60346263639997
 30
0.0
 10
51.29820258229995
 20
49.69262767599997
 30
0.0
 10
51.27985132559991
 20
49.78608923589991
 30
0.0
 10
51.2817620685999
 20
49.84945780449994
 30
0.0
 10
51.28594195149992
 20
49.88100018059992
 30
0.0
1001
ACAD
1000
RTMaterial
1005
0
  0
SPLINE
  5
5FFDD
330
1F
100
AcDbEntity
  8
1
100
AcDbSpline
210
0.0
220
0.0
230
1.0
 70
     8
 71
     3
 72
     9
 73
     5
 74
     0
 42
0.0000000001
 43
0.0000000001
 40
0.0
 40
0.0
 40
0.0
 40
0.0
 40
0.2472955426
 40
1.0
 40
1.0
 40
1.0
 40
1.0
 10
51.28594195149992
 20
49.88100018059992
 30
0.0
 10
51.28635218159996
 20
49.88409587319996
 30
0.0
 10
51.28813418789992
 20
49.89659750489995
 30
0.0
 10
51.29040500099989
 20
49.90902890729995
 30
0.0
 10
51.2923713845999
 20
49.91832814819997
 30
0.0
1001
ACAD
1000
RTMaterial
1005
0
  0
SPLINE
  5
5FFDE
330
1F
100
AcDbEntity
  8
1
100
AcDbSpline
210
0.0
220
0.0
230
1.0
 70
     8
 71
     3
 72
     9
 73
     5
 74
     0
 42
0.0000000001
 43
0.0000000001
 40
0.0
 40
0.0
 40
0.0
 40
0.0
 40
0.2405587661
 40
1.0
 40
1.0
 40
1.0
 40
1.0
 10
51.2923713845999
 20
49.91832814819997
 30
0.0
 10
51.29431136589994
 20
49.92750252999996
 30
0.0
 10
51.30341687969991
 20
49.9654180743999
 30
0.0
 10
51.31655234139993
 20
50.00232133499998
 30
0.0
 10
51.32824619909996
 20
50.02951770779998
 30
0.0
1001
ACAD
1000
RTMaterial
1005
0
  0
SPLINE
  5
5FFDF
330
1F
100
AcDbEntity
  8
1
100
AcDbSpline
210
0.0
220
0.0
230
1.0
 70
     8
 71
     3
 72
    10
 73
     6
 74
     0
 42
0.0000000001
 43
0.0000000001
 40
0.0
 40
0.0
 40
0.0
 40
0.0
 40
0.5397398241
 40
0.7862548195
 40
1.0
 40
1.0
 40
1.0
 40
1.0
 10
51.31934985949993
 20
49.39055455869993
 30
0.0
 10
51.29557924389991
 20
49.47974835319996
 30
0.0
 10
51.27394459339996
 20
49.61378301549991
 30
0.0
 10
51.27338447229994
 20
49.7849840300999
 30
0.0
 10
51.28095872709991
 20
49.8635129893999
 30
0.0
 10
51.28659229129993
 20
49.89963124129997
 30
0.0
1001
ACAD
1000
RTMaterial
1005
0
  0
SPLINE
  5
5FFE0
330
1F
100
AcDbEntity
  8
1
100
AcDbSpline
210
0.0
220
0.0
230
1.0
 70
     8
 71
     3
 72
     9
 73
     5
 74
     0
 42
0.0000000001
 43
0.0000000001
 40
0.0
 40
0.0
 40
0.0
 40
0.0
 40
0.2520055142
 40
1.0
 40
1.0
 40
1.0
 40
1.0
 10
47.59314465749992
 20
54.55900108119994
 30
0.0
 10
47.57808409709991
 20
54.57662815769992
 30
0.0
 10
47.52036346009993
 20
54.64829307079998
 30
0.0
 10
47.47097920479996
 20
54.72668513279995
 30
0.0
 10
47.43962672759994
 20
54.78794448349993
 30
0.0
1001
ACAD
1000
RTMaterial
1005
0
  0
SPLINE
  5
5FFE1
330
1F
100
AcDbEntity
  8
1
100
AcDbSpline
210
0.0
220
0.0
230
1.0
 70
     8
 71
     3
 72
    18
 73
    14
 74
     0
 42
0.0000000001
 43
0.0000000001
 40
0.0
 40
0.0
 40
0.0
 40
0.0
 40
0.1479255245
 40
0.2951516379
 40
0.4388988069
 40
0.5755210255
 40
0.7007404918000001
 40
0.7580000239000001
 40
0.8114514876000001
 40
0.8614293695999998
 40
0.9087328062999999
 40
0.9545109189000001
 40
1.0
 40
1.0
 40
1.0
 40
1.0
 10
53.65042952229993
 20
48.27504831809995
 30
0.0
 10
53.55820682479992
 20
48.27687082469998
 30
0.0
 10
53.37425082609991
 20
48.28542243209994
 30
0.0
 10
53.10188599319991
 20
48.31378914109996
 30
0.0
 10
52.83890203459993
 20
48.35945632919993
 30
0.0
 10
52.59423849599994
 20
48.42496243799991
 30
0.0
 10
52.4092452678999
 20
48.50104478249995
 30
0.0
 10
52.2831385909999
 20
48.57740129379994
 30
0.0
 10
52.20437043679988
 20
48.63985252099997
 30
0.0
 10
52.14011103509995
 20
48.70902288389999
 30
0.0
 10
52.09146831859988
 20
48.78440636249997
 30
0.0
 10
52.05885617449991
 20
48.86495770129994
 30
0.0
 10
52.04748514699992
 20
48.92107162779996
 30
0.0
 10
52.04416484089995
 20
48.94924188019996
 30
0.0
1001
ACAD
1000
RTMaterial
1005
0
  0
SPLINE
  5
5FFE2
330
1F
100
AcDbEntity
  8
1
100
AcDbSpline
210
0.0
220
0.0
230
1.0
 70
     8
 71
     3
 72
     9
 73
     5
 74
     0
 42
0.0000000001
 43
0.0000000001
 40
0.0
 40
0.0
 40
0.0
 40
0.0
 40
0.4866722664
 40
1.0
 40
1.0
 40
1.0
 40
1.0
 10
54.68834029919992
 20
48.3675295054
 30
0.0
 10
54.52286317749991
 20
48.33166341999998
 30
0.0
 10
54.17741285759991
 20
48.28229466329998
 30
0.0
 10
53.8289878143999
 20
48.27151964589996
 30
0.0
 10
53.65042952229993
 20
48.27504831809995
 30
0.0
1001
ACAD
1000
RTMaterial
1005
0
  0
LINE
  5
5FFE3
330
1F
100
AcDbEntity
  8
1
100
AcDbLine
 10
55.11773688339991
 20
48.27020773659995
 30
0.0
 11
54.68834029919992
 21
48.3675295054
 31
0.0
1001
ACAD
1000
RTMaterial
1005
0
  0
SPLINE
  5
5FFE4
330
1F
100
AcDbEntity
  8
1
100
AcDbSpline
210
0.0
220
0.0
230
1.0
 70
     8
 71
     3
 72
    11
 73
     7
 74
     0
 42
0.0000000001
 43
0.0000000001
 40
0.0
 40
0.0
 40
0.0
 40
0.0
 40
0.2405827263
 40
0.4909972304
 40
0.7458599978000001
 40
1.0
 40
1.0
 40
1.0
 40
1.0
 10
50.99815677439995
 20
50.40965216479992
 30
0.0
 10
50.75968590289988
 20
50.70704572339991
 30
0.0
 10
50.27782733369992
 20
51.31786683269996
 30
0.0
 10
49.55793082389994
 20
52.25512662679995
 30
0.0
 10
48.83640683289991
 20
53.2181136936
 30
0.0
 10
48.36053705929993
 20
53.86929182479992
 30
0.0
 10
48.12508521329994
 20
54.19596025919998
 30
0.0
1001
ACAD
1000
RTMaterial
1005
0
  0
SPLINE
  5
5FFE5
330
1F
100
AcDbEntity
  8
1
100
AcDbSpline
210
0.0
220
0.0
230
1.0
 70
     8
 71
     3
 72
    11
 73
     7
 74
     0
 42
0.0000000001
 43
0.0000000001
 40
0.0
 40
0.0
 40
0.0
 40
0.0
 40
0.2729582838
 40
0.5266170159
 40
0.7665362427
 40
1.0
 40
1.0
 40
1.0
 40
1.0
 10
52.04416484089995
 20
48.94924188019996
 30
0.0
 10
51.9415584260999
 20
48.97612847839991
 30
0.0
 10
51.74817745529992
 20
49.04832778419995
 30
0.0
 10
51.4951184457999
 20
49.20936705369991
 30
0.0
 10
51.2917685967999
 20
49.40829594819996
 30
0.0
 10
51.18867313299995
 20
49.56248854589995
 30
0.0
 10
51.14627746159993
 20
49.64269637439992
 30
0.0
1001
ACAD
1000
RTMaterial
1005
0
  0
SPLINE
  5
5FFE6
330
1F
100
AcDbEntity
  8
1
100
AcDbSpline
210
0.0
220
0.0
230
1.0
 70
     8
 71
     3
 72
     9
 73
     5
 74
     0
 42
0.0000000001
 43
0.0000000001
 40
0.0
 40
0.0
 40
0.0
 40
0.0
 40
0.2540474567
 40
1.0
 40
1.0
 40
1.0
 40
1.0
 10
55.89358279499993
 20
48.09156661589992
 30
0.0
 10
55.82794299829993
 20
48.10695633569998
 30
0.0
 10
55.56950144499996
 20
48.16725529519993
 30
0.0
 10
55.31081463539994
 20
48.22650115529995
 30
0.0
 10
55.11773688339991
 20
48.27020773659995
 30
0.0
1001
ACAD
1000
RTMaterial
1005
0
  0
SPLINE
  5
5FFE7
330
1F
100
AcDbEntity
  8
1
100
AcDbSpline
210
0.0
220
0.0
230
1.0
 70
     8
 71
     3
 72
     8
 73
     4
 74
     0
 42
0.0000000001
 43
0.0000000001
 40
0.0
 40
0.0
 40
0.0
 40
0.0
 40
1.0
 40
1.0
 40
1.0
 40
1.0
 10
60.00238873319995
 20
47.12903685699996
 30
0.0
 10
58.63271577819995
 20
47.44957698139995
 30
0.0
 10
57.26312485419993
 20
47.77046768539998
 30
0.0
 10
55.89358279499993
 20
48.09156661589992
 30
0.0
1001
ACAD
1000
RTMaterial
1005
0
  0
SPLINE
  5
5FFE8
330
1F
100
AcDbEntity
  8
1
100
AcDbSpline
210
0.0
220
0.0
230
1.0
 70
     8
 71
     3
 72
    15
 73
    11
 74
     0
 42
0.0000000001
 43
0.0000000001
 40
0.0
 40
0.0
 40
0.0
 40
0.0
 40
0.1250139403
 40
0.2500224133
 40
0.3750244252
 40
0.5000201694
 40
0.625012248
 40
0.7500039478
 40
0.8749989292
 40
1.0
 40
1.0
 40
1.0
 40
1.0
 10
47.43962672759994
 20
54.78794448349993
 30
0.0
 10
47.38840681219989
 20
54.88560731959996
 30
0.0
 10
47.31104821409991
 20
55.09529393269992
 30
0.0
 10
47.28027322979994
 20
55.42833328579996
 30
0.0
 10
47.33716689999994
 20
55.75818839919998
 30
0.0
 10
47.47873590979992
 20
56.06151331259991
 30
0.0
 10
47.69551956249995
 20
56.31661752999997
 30
0.0
 10
47.97232257389993
 20
56.50500165619991
 30
0.0
 10
48.28890330699988
 20
56.61329675069999
 30
0.0
 10
48.51206463999995
 20
56.62724812409994
 30
0.0
 10
48.6220679871999
 20
56.61961470389996
 30
0.0
1001
ACAD
1000
RTMaterial
1005
0
  0
SPLINE
  5
5FFE9
330
1F
100
AcDbEntity
  8
1
100
AcDbSpline
210
0.0
220
0.0
230
1.0
 70
     8
 71
     3
 72
     9
 73
     5
 74
     0
 42
0.0000000001
 43
0.0000000001
 40
0.0
 40
0.0
 40
0.0
 40
0.0
 40
0.2671771251
 40
1.0
 40
1.0
 40
1.0
 40
1.0
 10
47.73724931359993
 20
54.85652109879993
 30
0.0
 10
47.71602330439992
 20
54.86160403029998
 30
0.0
 10
47.63706242069992
 20
54.88260273029993
 30
0.0
 10
47.56002008609988
 20
54.91078257689991
 30
0.0
 10
47.50536565889996
 20
54.93521139809996
 30
0.0
1001
ACAD
1000
RTMaterial
1005
0
  0
SPLINE
  5
5FFEA
330
1F
100
AcDbEntity
  8
1
100
AcDbSpline
210
0.0
220
0.0
230
1.0
 70
     8
 71
     3
 72
    10
 73
     6
 74
     0
 42
0.0000000001
 43
0.0000000001
 40
0.0
 40
0.0
 40
0.0
 40
0.0
 40
0.4454300521000001
 40
0.6992420328
 40
1.0
 40
1.0
 40
1.0
 40
1.0
 10
48.12508521329994
 20
54.19596025919998
 30
0.0
 10
48.02529278939994
 20
54.26723327729991
 30
0.0
 10
47.8706541013999
 20
54.38203915219998
 30
0.0
 10
47.65648253179989
 20
54.55507370479995
 30
0.0
 10
47.54180710809992
 20
54.65603552720001
 30
0.0
 10
47.48163873239991
 20
54.71292005279997
 30
0.0
1001
ACAD
1000
RTMaterial
1005
0
  0
SPLINE
  5
5FFEB
330
1F
100
AcDbEntity
  8
1
100
AcDbSpline
210
0.0
220
0.0
230
1.0
 70
     8
 71
     3
 72
     9
 73
     5
 74
     0
 42
0.0000000001
 43
0.0000000001
 40
0.0
 40
0.0
 40
0.0
 40
0.0
 40
0.2547779435
 40
1.0
 40
1.0
 40
1.0
 40
1.0
 10
47.81040724709993
 20
54.8394316536
 30
0.0
 10
47.80418681989994
 20
54.84085093669995
 30
0.0
 10
47.7797785644999
 20
54.84645149189993
 30
0.0
 10
47.75539844809992
 20
54.85217497759993
 30
0.0
 10
47.73724931359993
 20
54.85652109879993
 30
0.0
1001
ACAD
1000
RTMaterial
1005
0
  0
SPLINE
  5
5FFEC
330
1F
100
AcDbEntity
  8
1
100
AcDbSpline
210
0.0
220
0.0
230
1.0
 70
     8
 71
     3
 72
     8
 73
     4
 74
     0
 42
0.0000000001
 43
0.0000000001
 40
0.0
 40
0.0
 40
0.0
 40
0.0
 40
1.0
 40
1.0
 40
1.0
 40
1.0
 10
47.4259801405999
 20
54.97963803249996
 30
0.0
 10
47.41919957099992
 20
54.98427165879997
 30
0.0
 10
47.41254346909994
 20
54.98909345289996
 30
0.0
 10
47.40603414799994
 20
54.99410098279998
 30
0.0
1001
ACAD
1000
RTMaterial
1005
0
  0
SPLINE
  5
5FFED
330
1F
100
AcDbEntity
  8
1
100
AcDbSpline
210
0.0
220
0.0
230
1.0
 70
     8
 71
     3
 72
     9
 73
     5
 74
     0
 42
0.0000000001
 43
0.0000000001
 40
0.0
 40
0.0
 40
0.0
 40
0.0
 40
0.2554902901
 40
1.0
 40
1.0
 40
1.0
 40
1.0
 10
47.40603414799994
 20
54.99410098279998
 30
0.0
 10
47.39902615199992
 20
54.99949213639997
 30
0.0
 10
47.37225609839993
 20
55.02143114339992
 30
0.0
 10
47.34829975809993
 20
55.04684902290001
 30
0.0
 10
47.33271471029991
 20
55.06736618409991
 30
0.0
1001
ACAD
1000
RTMaterial
1005
0
  0
SPLINE
  5
5FFEE
330
1F
100
AcDbEntity
  8
1
100
AcDbSpline
210
0.0
220
0.0
230
1.0
 70
     8
 71
     3
 72
     8
 73
     4
 74
     0
 42
0.0000000001
 43
0.0000000001
 40
0.0
 40
0.0
 40
0.0
 40
0.0
 40
1.0
 40
1.0
 40
1.0
 40
1.0
 10
47.50536321889995
 20
54.93520425229991
 30
0.0
 10
47.47767948919994
 20
54.94758045689991
 30
0.0
 10
47.45101807039993
 20
54.96253068319998
 30
0.0
 10
47.4259801405999
 20
54.97963803249996
 30
0.0
1001
ACAD
1000
RTMaterial
1005
0
  0
SPLINE
  5
5FFEF
330
1F
100
AcDbEntity
  8
1
100
AcDbSpline
210
0.0
220
0.0
230
1.0
 70
     8
 71
     3
 72
    10
 73
     6
 74
     0
 42
0.0000000001
 43
0.0000000001
 40
0.0
 40
0.0
 40
0.0
 40
0.0
 40
0.295719288
 40
0.5510713297
 40
1.0
 40
1.0
 40
1.0
 40
1.0
 10
51.23490420279996
 20
49.52601536559996
 30
0.0
 10
51.20304570699989
 20
49.61048347279995
 30
0.0
 10
51.14959581159997
 20
49.7701592043
 30
0.0
 10
51.06830651169992
 20
50.06448537319994
 30
0.0
 10
51.02306167899991
 20
50.27488635119993
 30
0.0
 10
50.99815677439995
 20
50.40965216479992
 30
0.0
1001
ACAD
1000
RTMaterial
1005
0
  0
SPLINE
  5
5FFF0
330
1F
100
AcDbEntity
  8
1
100
AcDbSpline
210
0.0
220
0.0
230
1.0
 70
     8
 71
     3
 72
     8
 73
     4
 74
     0
 42
0.0000000001
 43
0.0000000001
 40
0.0
 40
0.0
 40
0.0
 40
0.0
 40
1.0
 40
1.0
 40
1.0
 40
1.0
 10
53.46146352559992
 20
48.8729369783
 30
0.0
 10
53.5284601521999
 20
48.91917445699994
 30
0.0
 10
53.59186324839993
 20
48.9711076458999
 30
0.0
 10
53.65035030779996
 20
49.02772669129996
 30
0.0
1001
ACAD
1000
RTMaterial
1005
0
  0
SPLINE
  5
5FFF1
330
1F
100
AcDbEntity
  8
1
100
AcDbSpline
210
0.0
220
0.0
230
1.0
 70
     8
 71
     3
 72
     9
 73
     5
 74
     0
 42
0.0000000001
 43
0.0000000001
 40
0.0
 40
0.0
 40
0.0
 40
0.0
 40
0.2495207675
 40
1.0
 40
1.0
 40
1.0
 40
1.0
 10
53.3222889148999
 20
48.78811707199992
 30
0.0
 10
53.33425160769991
 20
48.79450231159996
 30
0.0
 10
53.38182605629993
 20
48.82077661659991
 30
0.0
 10
53.42789684139995
 20
48.84977105299992
 30
0.0
 10
53.46146352559992
 20
48.8729369783
 30
0.0
1001
ACAD
1000
RTMaterial
1005
0
  0
LINE
  5
5FFF2
330
1F
100
AcDbEntity
  8
1
100
AcDbLine
 10
51.32824619909996
 20
50.02951770779998
 30
0.0
 11
51.33252468069992
 21
50.03944277569996
 31
0.0
1001
ACAD
1000
RTMaterial
1005
0
  0
SPLINE
  5
5FFF3
330
1F
100
AcDbEntity
  8
1
100
AcDbSpline
210
0.0
220
0.0
230
1.0
 70
     8
 71
     3
 72
     9
 73
     5
 74
     0
 42
0.0000000001
 43
0.0000000001
 40
0.0
 40
0.0
 40
0.0
 40
0.0
 40
0.2958253199
 40
1.0
 40
1.0
 40
1.0
 40
1.0
 10
51.41103823309993
 20
50.34310408649997
 30
0.0
 10
51.41040868599993
 20
50.34464527999995
 30
0.0
 10
51.40835276399991
 20
50.34988034959997
 30
0.0
 10
51.40653636509989
 20
50.35523601040001
 30
0.0
 10
51.40568686799992
 20
50.35910676879996
 30
0.0
1001
ACAD
1000
RTMaterial
1005
0
  0
SPLINE
  5
5FFF4
330
1F
100
AcDbEntity
  8
1
100
AcDbSpline
210
0.0
220
0.0
230
1.0
 70
     8
 71
     3
 72
     9
 73
     5
 74
     0
 42
0.0000000001
 43
0.0000000001
 40
0.0
 40
0.0
 40
0.0
 40
0.0
 40
0.2570774527
 40
1.0
 40
1.0
 40
1.0
 40
1.0
 10
51.37784584799994
 20
50.14344230559993
 30
0.0
 10
51.37898244019993
 20
50.16076631639998
 30
0.0
 10
51.38499443359989
 20
50.22803350619994
 30
0.0
 10
51.39758515049994
 20
50.29476946469998
 30
0.0
 10
51.41103823309993
 20
50.34310408649997
 30
0.0
1001
ACAD
1000
RTMaterial
1005
0
  0
SPLINE
  5
5FFF5
330
1F
100
AcDbEntity
  8
1
100
AcDbSpline
210
0.0
220
0.0
230
1.0
 70
     8
 71
     3
 72
     9
 73
     5
 74
     0
 42
0.0000000001
 43
0.0000000001
 40
0.0
 40
0.0
 40
0.0
 40
0.0
 40
0.2431598525
 40
1.0
 40
1.0
 40
1.0
 40
1.0
 10
51.28659229129993
 20
49.89963124129997
 30
0.0
 10
51.2884028426999
 20
49.91123493659995
 30
0.0
 10
51.29729815699988
 20
49.95872290400001
 30
0.0
 10
51.31184898599991
 20
50.00511035729994
 30
0.0
 10
51.32551112699991
 20
50.03901496929995
 30
0.0
1001
ACAD
1000
RTMaterial
1005
0
  0
SPLINE
  5
5FFF6
330
1F
100
AcDbEntity
  8
1
100
AcDbSpline
210
0.0
220
0.0
230
1.0
 70
     8
 71
     3
 72
     9
 73
     5
 74
     0
 42
0.0000000001
 43
0.0000000001
 40
0.0
 40
0.0
 40
0.0
 40
0.0
 40
0.245589445
 40
1.0
 40
1.0
 40
1.0
 40
1.0
 10
51.32551112699991
 20
50.03901496929995
 30
0.0
 10
51.32908721659993
 20
50.04788956159996
 30
0.0
 10
51.34439748479991
 20
50.08372045749997
 30
0.0
 10
51.36265592639995
 20
50.11828046499999
 30
0.0
 10
51.37784584799994
 20
50.14344230559993
 30
0.0
1001
ACAD
1000
RTMaterial
1005
0
  0
SPLINE
  5
5FFF7
330
1F
100
AcDbEntity
  8
1
100
AcDbSpline
210
0.0
220
0.0
230
1.0
 70
     8
 71
     3
 72
     9
 73
     5
 74
     0
 42
0.0000000001
 43
0.0000000001
 40
0.0
 40
0.0
 40
0.0
 40
0.0
 40
0.4901582367000001
 40
1.0
 40
1.0
 40
1.0
 40
1.0
 10
51.14627746159993
 20
49.64269637439992
 30
0.0
 10
51.08599198469988
 20
49.75674969689993
 30
0.0
 10
50.99683425649994
 20
50.00887275639996
 30
0.0
 10
50.98499245919993
 20
50.27611310639997
 30
0.0
 10
50.99815677439995
 20
50.40965216479992
 30
0.0
1001
ACAD
1000
RTMaterial
1005
0
  0
SPLINE
  5
5FFF8
330
1F
100
AcDbEntity
  8
1
100
AcDbSpline
210
0.0
220
0.0
230
1.0
 70
     8
 71
     3
 72
    15
 73
    11
 74
     0
 42
0.0000000001
 43
0.0000000001
 40
0.0
 40
0.0
 40
0.0
 40
0.0
 40
0.1250005929
 40
0.2500008267
 40
0.375000935
 40
0.5000009035000001
 40
0.6250007579
 40
0.7500005292000001
 40
0.875000215
 40
1.0
 40
1.0
 40
1.0
 40
1.0
 10
37.7118262457999
 20
58.00504633049991
 30
0.0
 10
37.93304476269992
 20
58.19544802129996
 30
0.0
 10
38.39235672859991
 20
58.55714213819999
 30
0.0
 10
39.12603694659992
 20
59.03705038739997
 30
0.0
 10
39.89922204289991
 20
59.45047510809996
 30
0.0
 10
40.70597301669994
 20
59.79380404629996
 30
0.0
 10
41.54005714429991
 20
60.0640598679999
 30
0.0
 10
42.39494297479995
 20
60.25885672969997
 30
0.0
 10
43.26375004469992
 20
60.37646440039998
 30
0.0
 10
43.84783022289991
 20
60.40270849729996
 30
0.0
 10
44.13970234269993
 20
60.40273134419994
 30
0.0
1001
ACAD
1000
RTMaterial
1005
0
  0
SPLINE
  5
5FFF9
330
1F
100
AcDbEntity
  8
1
100
AcDbSpline
210
0.0
220
0.0
230
1.0
 70
     8
 71
     3
 72
     9
 73
     5
 74
     0
 42
0.0000000001
 43
0.0000000001
 40
0.0
 40
0.0
 40
0.0
 40
0.0
 40
0.5023609685000001
 40
1.0
 40
1.0
 40
1.0
 40
1.0
 10
48.12508521329994
 20
54.19596025919998
 30
0.0
 10
48.02248735329993
 20
54.23209925379996
 30
0.0
 10
47.82668945699993
 20
54.33082274489994
 30
0.0
 10
47.66314046849993
 20
54.47707707029997
 30
0.0
 10
47.59314465749992
 20
54.55900108119994
 30
0.0
1001
ACAD
1000
RTMaterial
1005
0
  0
SPLINE
  5
5FFFA
330
1F
100
AcDbEntity
  8
1
100
AcDbSpline
210
0.0
220
0.0
230
1.0
 70
     8
 71
     3
 72
    31
 73
    27
 74
     0
 42
0.0000000001
 43
0.0000000001
 40
0.0
 40
0.0
 40
0.0
 40
0.0
 40
0.0129800563
 40
0.0239176469
 40
0.0289315776
 40
0.0338719001
 40
0.0389545315
 40
0.0443879315
 40
0.0503455719
 40
0.0569544814
 40
0.0642991259
 40
0.0724295444
 40
0.0911092029
 40
0.1129578621
 40
0.1377451768
 40
0.1651557689
 40
0.194844857
 40
0.2264857127
 40
0.2944458345
 40
0.3670663918
 40
0.4428931544
 40
0.5208736725000001
 40
0.6002302642
 40
0.6803663445999999
 40
0.841128808
 40
1.0
 40
1.0
 40
1.0
 40
1.0
 10
29.24111922619994
 20
49.25302413529994
 30
0.0
 10
29.20242265019988
 20
49.25531799659996
 30
0.0
 10
29.1311182712999
 20
49.26502702199991
 30
0.0
 10
29.05008798999995
 20
49.29989644869994
 30
0.0
 10
29.00244718059992
 20
49.34088951879994
 30
0.0
 10
28.97530902599994
 20
49.37712591849993
 30
0.0
 10
28.95619846429992
 20
49.41952435349998
 30
0.0
 10
28.94527752979991
 20
49.46778632529998
 30
0.0
 10
28.94248187499994
 20
49.52168259849997
 30
0.0
 10
28.94768715729993
 20
49.58107190999999
 30
0.0
 10
28.96077696129993
 20
49.64582589419996
 30
0.0
 10
28.98999122349994
 20
49.74366902879996
 30
0.0
 10
29.04717955449991
 20
49.87771039259991
 30
0.0
 10
29.14068396869993
 20
50.04909478359997
 30
0.0
 10
29.2598796755999
 20
50.23552666399996
 30
0.0
 10
29.40210622709992
 20
50.43456258059996
 30
0.0
 10
29.56463882679992
 20
50.64396334269992
 30
0.0
 10
29.81093308169994
 20
50.94139487999996
 30
0.0
 10
30.15411494709991
 20
51.32473507359998
 30
0.0
 10
30.60174139659995
 20
51.79103020650001
 30
0.0
 10
31.08272423249991
 20
52.26643954759992
 30
0.0
 10
31.5880235032999
 20
52.74561681739993
 30
0.0
 10
32.11093519139996
 20
53.22476096139997
 30
0.0
 10
32.82558079549995
 20
53.86044571749994
 30
0.0
 10
33.73318782989992
 20
54.63629809119993
 30
0.0
 10
34.47320776769994
 20
55.23943978279993
 30
0.0
 10
34.84469084279993
 20
55.53459388339991
 30
0.0
1001
ACAD
1000
RTMaterial
1005
0
  0
SPLINE
  5
5FFFB
330
1F
100
AcDbEntity
  8
1
100
AcDbSpline
210
0.0
220
0.0
230
1.0
 70
     8
 71
     3
 72
     8
 73
     4
 74
     0
 42
0.0000000001
 43
0.0000000001
 40
0.0
 40
0.0
 40
0.0
 40
0.0
 40
1.0
 40
1.0
 40
1.0
 40
1.0
 10
37.7118262457999
 20
58.00504633049991
 30
0.0
 10
36.7556655137999
 20
57.18208348509989
 30
0.0
 10
35.79993385959995
 20
56.3586217768999
 30
0.0
 10
34.84469084279993
 20
55.53459388339991
 30
0.0
1001
ACAD
1000
RTMaterial
1005
0
  0
SPLINE
  5
5FFFC
330
1F
100
AcDbEntity
  8
1
100
AcDbSpline
210
0.0
220
0.0
230
1.0
 70
     8
 71
     3
 72
    22
 73
    18
 74
     0
 42
0.0000000001
 43
0.0000000001
 40
0.0
 40
0.0
 40
0.0
 40
0.0
 40
0.005877659
 40
0.0122366792
 40
0.0195501111
 40
0.0281416895
 40
0.0498934403
 40
0.0784869619
 40
0.1143927205
 40
0.1578952612
 40
0.2091804796
 40
0.2683582014
 40
0.3354574826999999
 40
0.4104070534000001
 40
0.5828780808000001
 40
0.7819267888
 40
1.0
 40
1.0
 40
1.0
 40
1.0
 10
51.11865978189991
 20
61.41917535069996
 30
0.0
 10
51.11865546719991
 20
61.42286945359995
 30
0.0
 10
51.11994457129992
 20
61.43061192349995
 30
0.0
 10
51.12564980189995
 20
61.4416631729
 30
0.0
 10
51.13490707059992
 20
61.4522875079
 30
0.0
 10
51.15341011089992
 20
61.46718076830001
 30
0.0
 10
51.18650641699992
 20
61.48441721479992
 30
0.0
 10
51.23753180239993
 20
61.50286595719996
 30
0.0
 10
51.30318936089992
 20
61.5203728461999
 30
0.0
 10
51.38368594529993
 20
61.53685612459998
 30
0.0
 10
51.47924897849993
 20
61.55222442719997
 30
0.0
 10
51.58995649989993
 20
61.5664013318999
 30
0.0
 10
51.7157763470999
 20
61.57932208299991
 30
0.0
 10
51.91279499999996
 20
61.59555027009992
 30
0.0
 10
52.19298904939989
 20
61.61149582889999
 30
0.0
 10
52.56334964509995
 20
61.6241890311
 30
0.0
 10
52.82548892739993
 20
61.62853876399998
 30
0.0
 10
52.96254206599991
 20
61.62979466359996
 30
0.0
1001
ACAD
1000
RTMaterial
1005
0
  0
SPLINE
  5
5FFFD
330
1F
100
AcDbEntity
  8
1
100
AcDbSpline
210
0.0
220
0.0
230
1.0
 70
     8
 71
     3
 72
     9
 73
     5
 74
     0
 42
0.0000000001
 43
0.0000000001
 40
0.0
 40
0.0
 40
0.0
 40
0.0
 40
0.2430563284
 40
1.0
 40
1.0
 40
1.0
 40
1.0
 10
47.72567243679993
 20
54.60444777519995
 30
0.0
 10
47.74824970999993
 20
54.59563442159993
 30
0.0
 10
47.84224086289992
 20
54.56225724139994
 30
0.0
 10
47.94038444779994
 20
54.54062356419996
 30
0.0
 10
48.01526521279993
 20
54.53113852239994
 30
0.0
1001
ACAD
1000
RTMaterial
1005
0
  0
SPLINE
  5
5FFFE
330
1F
100
AcDbEntity
  8
1
100
AcDbSpline
210
0.0
220
0.0
230
1.0
 70
     8
 71
     3
 72
     9
 73
     5
 74
     0
 42
0.0000000001
 43
0.0000000001
 40
0.0
 40
0.0
 40
0.0
 40
0.0
 40
0.2381815446
 40
1.0
 40
1.0
 40
1.0
 40
1.0
 10
47.29994826069992
 20
55.50030493939994
 30
0.0
 10
47.30596664939992
 20
55.51557023189992
 30
0.0
 10
47.33346114829993
 20
55.57877889419995
 30
0.0
 10
47.36918987569993
 20
55.63825338469996
 30
0.0
 10
47.39950826899991
 20
55.68109372469996
 30
0.0
1001
ACAD
1000
RTMaterial
1005
0
  0
SPLINE
  5
5FFFF
330
1F
100
AcDbEntity
  8
1
100
AcDbSpline
210
0.0
220
0.0
230
1.0
 70
     8
 71
     3
 72
     9
 73
     5
 74
     0
 42
0.0000000001
 43
0.0000000001
 40
0.0
 40
0.0
 40
0.0
 40
0.0
 40
0.4842948367
 40
1.0
 40
1.0
 40
1.0
 40
1.0
 10
47.39950826899991
 20
55.68109372469996
 30
0.0
 10
47.43209587079991
 20
55.72714049009994
 30
0.0
 10
47.50713412809989
 20
55.81685143649997
 30
0.0
 10
47.59338892109991
 20
55.89563226269996
 30
0.0
 10
47.64006026349995
 20
55.93345047479994
 30
0.0
1001
ACAD
1000
RTMaterial
1005
0
  0
SPLINE
  5
60000
330
1F
100
AcDbEntity
  8
1
100
AcDbSpline
210
0.0
220
0.0
230
1.0
 70
     8
 71
     3
 72
    10
 73
     6
 74
     0
 42
0.0000000001
 43
0.0000000001
 40
0.0
 40
0.0
 40
0.0
 40
0.0
 40
0.5721237785000001
 40
0.811599344
 40
1.0
 40
1.0
 40
1.0
 40
1.0
 10
51.18034313139992
 20
49.88580340179999
 30
0.0
 10
51.18275765819993
 20
49.81985956799992
 30
0.0
 10
51.19187481189993
 20
49.72635840299995
 30
0.0
 10
51.21372634479991
 20
49.61306601259991
 30
0.0
 10
51.2255424034999
 20
49.56513385779993
 30
0.0
 10
51.23105765369991
 20
49.54411552929997
 30
0.0
1001
ACAD
1000
RTMaterial
1005
0
  0
SPLINE
  5
60001
330
1F
100
AcDbEntity
  8
1
100
AcDbSpline
210
0.0
220
0.0
230
1.0
 70
     8
 71
     3
 72
    11
 73
     7
 74
     0
 42
0.0000000001
 43
0.0000000001
 40
0.0
 40
0.0
 40
0.0
 40
0.0
 40
0.4038522935000001
 40
0.7268730731000001
 40
0.9399867561
 40
1.0
 40
1.0
 40
1.0
 40
1.0
 10
51.23105765369991
 20
49.54411552929997
 30
0.0
 10
51.2318034180999
 20
49.54127346019993
 30
0.0
 10
51.23307974969993
 20
49.53650303769996
 30
0.0
 10
51.23505920759993
 20
49.52873432789999
 30
0.0
 10
51.23564837189992
 20
49.52668892619993
 30
0.0
 10
51.23650267959994
 20
49.52259676569997
 30
0.0
 10
51.23622625949991
 20
49.52293476269995
 30
0.0
1001
ACAD
1000
RTMaterial
1005
0
  0
SPLINE
  5
60002
330
1F
100
AcDbEntity
  8
1
100
AcDbSpline
210
0.0
220
0.0
230
1.0
 70
     8
 71
     3
 72
     9
 73
     5
 74
     0
 42
0.0000000001
 43
0.0000000001
 40
0.0
 40
0.0
 40
0.0
 40
0.0
 40
0.5032949883
 40
1.0
 40
1.0
 40
1.0
 40
1.0
 10
51.31349176629993
 20
50.56238958979992
 30
0.0
 10
51.26552200279991
 20
50.45627372289999
 30
0.0
 10
51.19451070029993
 20
50.23360048539996
 30
0.0
 10
51.17613780679988
 20
50.00065622779994
 30
0.0
 10
51.18034313139992
 20
49.88580340179999
 30
0.0
1001
ACAD
1000
RTMaterial
1005
0
  0
SPLINE
  5
60003
330
1F
100
AcDbEntity
  8
1
100
AcDbSpline
210
0.0
220
0.0
230
1.0
 70
     8
 71
     3
 72
    12
 73
     8
 74
     0
 42
0.0000000001
 43
0.0000000001
 40
0.0
 40
0.0
 40
0.0
 40
0.0
 40
0.0809961107
 40
0.1750058012
 40
0.402281034
 40
0.6790940874000001
 40
1.0
 40
1.0
 40
1.0
 40
1.0
 10
52.29926991159993
 20
60.55201244299991
 30
0.0
 10
52.3071369939999
 20
60.56035951679996
 30
0.0
 10
52.32596036599995
 20
60.57667905369993
 30
0.0
 10
52.37359267739993
 20
60.60809720189991
 30
0.0
 10
52.45058380119991
 20
60.64424419929998
 30
0.0
 10
52.56087644009994
 20
60.68297873289998
 30
0.0
 10
52.64252469749994
 20
60.70555441069996
 30
0.0
 10
52.68658501819993
 20
60.7166857979999
 30
0.0
1001
ACAD
1000
RTMaterial
1005
0
  0
SPLINE
  5
60004
330
1F
100
AcDbEntity
  8
1
100
AcDbSpline
210
0.0
220
0.0
230
1.0
 70
     8
 71
     3
 72
     9
 73
     5
 74
     0
 42
0.0000000001
 43
0.0000000001
 40
0.0
 40
0.0
 40
0.0
 40
0.0
 40
0.2034119967
 40
1.0
 40
1.0
 40
1.0
 40
1.0
 10
47.46180645749996
 20
54.74684743849997
 30
0.0
 10
47.47823449549992
 20
54.73482076009992
 30
0.0
 10
47.56081583869991
 20
54.67820343519992
 30
0.0
 10
47.65139924679988
 20
54.63344135099993
 30
0.0
 10
47.72567243679993
 20
54.60444777519995
 30
0.0
1001
ACAD
1000
RTMaterial
1005
0
  0
SPLINE
  5
60005
330
1F
100
AcDbEntity
  8
1
100
AcDbSpline
210
0.0
220
0.0
230
1.0
 70
     8
 71
     3
 72
    12
 73
     8
 74
     0
 42
0.0000000001
 43
0.0000000001
 40
0.0
 40
0.0
 40
0.0
 40
0.0
 40
0.2721419642
 40
0.5299209767000001
 40
0.7714950629000001
 40
0.8871229053
 40
1.0
 40
1.0
 40
1.0
 40
1.0
 10
52.3982591443999
 20
49.18157173679998
 30
0.0
 10
52.31950338819996
 20
49.15953154199996
 30
0.0
 10
52.16111306559992
 20
49.13220064489997
 30
0.0
 10
51.92755613909992
 20
49.14535196689991
 30
0.0
 10
51.74930127849989
 20
49.20344707349994
 30
0.0
 10
51.62772355869993
 20
49.27629072239994
 30
0.0
 10
51.57475807989993
 20
49.32054824569997
 30
0.0
 10
51.55059647439992
 20
49.34435660869991
 30
0.0
1001
ACAD
1000
RTMaterial
1005
0
  0
SPLINE
  5
60006
330
1F
100
AcDbEntity
  8
1
100
AcDbSpline
210
0.0
220
0.0
230
1.0
 70
     8
 71
     3
 72
     9
 73
     5
 74
     0
 42
0.0000000001
 43
0.0000000001
 40
0.0
 40
0.0
 40
0.0
 40
0.0
 40
0.5229006453000001
 40
1.0
 40
1.0
 40
1.0
 40
1.0
 10
51.55059647439992
 20
49.34435660869991
 30
0.0
 10
51.5210757577999
 20
49.37345134439993
 30
0.0
 10
51.46544670589992
 20
49.42995111529995
 30
0.0
 10
51.41427478719993
 20
49.49071661209996
 30
0.0
 10
51.39189137609992
 20
49.52119909819998
 30
0.0
1001
ACAD
1000
RTMaterial
1005
0
  0
SPLINE
  5
60007
330
1F
100
AcDbEntity
  8
1
100
AcDbSpline
210
0.0
220
0.0
230
1.0
 70
     8
 71
     3
 72
     9
 73
     5
 74
     0
 42
0.0000000001
 43
0.0000000001
 40
0.0
 40
0.0
 40
0.0
 40
0.0
 40
0.5169476279000001
 40
1.0
 40
1.0
 40
1.0
 40
1.0
 10
53.03729405229995
 20
61.62673845909996
 30
0.0
 10
53.20875045459991
 20
61.61111274739994
 30
0.0
 10
53.5401550023999
 20
61.57790433619993
 30
0.0
 10
53.87089983599992
 20
61.53858732499998
 30
0.0
 10
54.03040708999992
 20
61.51762870069996
 30
0.0
1001
ACAD
1000
RTMaterial
1005
0
  0
SPLINE
  5
60008
330
1F
100
AcDbEntity
  8
1
100
AcDbSpline
210
0.0
220
0.0
230
1.0
 70
     8
 71
     3
 72
     9
 73
     5
 74
     0
 42
0.0000000001
 43
0.0000000001
 40
0.0
 40
0.0
 40
0.0
 40
0.0
 40
0.2490632236
 40
1.0
 40
1.0
 40
1.0
 40
1.0
 10
52.96254206599991
 20
61.62979466359996
 30
0.0
 10
52.96875443389996
 20
61.6298515911999
 30
0.0
 10
52.99369924069992
 20
61.62976966339994
 30
0.0
 10
53.01864000499995
 20
61.62843849919994
 30
0.0
 10
53.03729405229995
 20
61.62673845909996
 30
0.0
1001
ACAD
1000
RTMaterial
1005
0
  0
ELLIPSE
  5
60009
330
1F
100
AcDbEntity
  8
1
100
AcDbEllipse
 10
5.130206357399913
 20
-0.0000000000000568
 30
0.0
 11
-71.3526059457
 21
-47.53251363850001
 31
0.0
210
0.0
220
0.0
230
1.0
 40
0.5524295597
 41
-2.590703958899999
 42
-2.5859225936
1001
ACAD
1000
RTMaterial
1005
0
  0
ELLIPSE
  5
6000A
330
1F
100
AcDbEntity
  8
1
100
AcDbEllipse
 10
41.32169976049993
 20
-0.0000000000000568
 30
0.0
 11
9.350326219100002
 21
61.7085846004
 31
0.0
210
0.0
220
0.0
230
1.0
 40
0.2418325815
 41
-0.1454541193
 42
-0.1048197339
1001
ACAD
1000
RTMaterial
1005
0
  0
ELLIPSE
  5
6000B
330
1F
100
AcDbEntity
  8
1
100
AcDbEllipse
 10
-6.681431717000066
 20
-0.0000000000000568
 30
0.0
 11
59.1014640698
 21
61.66459022729999
 31
0.0
210
0.0
220
0.0
230
1.0
 40
0.054933693
 41
-0.1517183933
 42
-0.1473908561
1001
ACAD
1000
RTMaterial
1005
0
  0
ELLIPSE
  5
6000C
330
1F
100
AcDbEntity
  8
1
100
AcDbEllipse
 10
53.65932359879991
 20
48.57310394769996
 30
0.0
 11
-1.8085061566
 21
0.4238164245000002
 31
0.0
210
0.0
220
0.0
230
1.0
 40
0.0225904913
 41
7.379781553599999
 42
8.352632564
1001
ACAD
1000
RTMaterial
1005
0
  0
ELLIPSE
  5
6000D
330
1F
100
AcDbEntity
  8
1
100
AcDbEllipse
 10
51.14691301219989
 20
56.26753824629992
 30
0.0
 11
-2.522367721899999
 21
0.3806746899000002
 31
0.0
210
0.0
220
0.0
230
1.0
 40
0.0812499867
 41
-0.46007086
 42
-0.1997330027
1001
ACAD
1000
RTMaterial
1005
0
  0
ELLIPSE
  5
6000E
330
1F
100
AcDbEntity
  8
1
100
AcDbEllipse
 10
53.12510458809993
 20
50.49164721379992
 30
0.0
 11
2.5101397666
 21
5.0077258413
 31
0.0
210
0.0
220
0.0
230
1.0
 40
0.2559254971
 41
1.7674061774
 42
1.787672183399999
1001
ACAD
1000
RTMaterial
1005
0
  0
ELLIPSE
  5
6000F
330
1F
100
AcDbEntity
  8
1
100
AcDbEllipse
 10
5.288082645699944
 20
-0.0000000000000568
 30
0.0
 11
-62.6963132858
 21
-58.95354049859999
 31
0.0
210
0.0
220
0.0
230
1.0
 40
0.2930368706
 41
-2.6574095394
 42
-2.6562929128
1001
ACAD
1000
RTMaterial
1005
0
  0
ELLIPSE
  5
60010
330
1F
100
AcDbEntity
  8
1
100
AcDbEllipse
 10
75.2284119821999
 20
-0.0000000000000568
 30
0.0
 11
-21.65720707059999
 21
61.02097775969998
 31
0.0
210
0.0
220
0.0
230
1.0
 40
0.43683336
 41
0.0505064335
 42
0.0554120777
1001
ACAD
1000
RTMaterial
1005
0
  0
ELLIPSE
  5
60011
330
1F
100
AcDbEntity
  8
1
100
AcDbEllipse
 10
48.69192175399991
 20
54.26841168889996
 30
0.0
 11
-2.3701875655
 21
0.3525254196000001
 31
0.0
210
0.0
220
0.0
230
1.0
 40
0.0700311318
 41
-1.464172001699999
 42
-1.270882900699999
1001
ACAD
1000
RTMaterial
1005
0
  0
LINE
  5
60012
330
1F
100
AcDbEntity
  8
nocut
100
AcDbLine
 10
-0.0000000000000568
 20
0.0
 30
0.0
 11
62.19999999999993
 21
0.0
 31
0.0
  0
DIMENSION
  5
6001C
330
1F
100
AcDbEntity
  8
2
100
AcDbDimension
  2
*D71
 10
85.89100825644411
 20
-55.75000000000006
 30
0.0
 11
81.84100825644412
 21
-1.750000000000047
 31
0.0
 70
    32
  1
%%C<>
 71
     5
 42
111.5
  3
\M+18352\M+18373\M+1815B - ISO-25
100
AcDbAlignedDimension
 13
63.25940127593174
 23
55.74999999999994
 33
0.0
 14
63.25940127593174
 24
-55.75000000000006
 34
0.0
 50
90.0
100
AcDbRotatedDimension
1001
ACAD
1000
DSTYLE
1002
{
1070
     4
1000
%%C[]"
1070
    40
1040
1.0
1070
    76
1070
     1
1070
   143
1040
0.0393700787401575
1070
   170
1070
     1
1070
   171
1070
     3
1070
   173
1070
     1
1070
   271
1070
     8
1070
   285
1070
     4
1070
   344
1005
32F1
1002
}
  0
DIMENSION
  5
60034
330
1F
100
AcDbEntity
  8
2
100
AcDbDimension
  2
*D72
 10
100.6584518906779
 20
-63.50000000000006
 30
0.0
 11
96.60845189067794
 21
-1.750000000000048
 31
0.0
 70
    32
  1
%%C<>
 71
     5
 42
127.0
  3
\M+18352\M+18373\M+1815B - ISO-25
100
AcDbAlignedDimension
 13
60.11018566089996
 23
63.49999999999994
 33
0.0
 14
60.11018566089996
 24
-63.50000000000005
 34
0.0
 50
90.0
100
AcDbRotatedDimension
1001
ACAD
1000
DSTYLE
1002
{
1070
     4
1000
%%C[]"
1070
    40
1040
1.0
1070
    76
1070
     1
1070
   143
1040
0.0393700787401575
1070
   170
1070
     1
1070
   171
1070
     3
1070
   173
1070
     1
1070
   271
1070
     8
1070
   285
1070
     4
1070
   344
1005
32F1
1002
}
  0
DIMENSION
  5
6004C
102
{ACAD_XDICTIONARY
360
60059
102
}
102
{ACAD_REACTORS
330
60063
102
}
330
1F
100
AcDbEntity
  8
sk2
100
AcDbDimension
  2
*D73
 10
-23.58302764287012
 20
-19.05
 30
0.0
 11
-23.58302764287012
 21
-0.0000000000000234
 31
0.0
 70
   160
  1
%%C<>
 71
     5
 42
38.09999999999997
  3
\M+18352\M+18373\M+1815B - ISO-25
100
AcDbAlignedDimension
 13
7.999999999999943
 23
19.04999999999995
 33
0.0
 14
7.999999999999943
 24
-19.05000000000001
 34
0.0
 50
90.0
100
AcDbRotatedDimension
1001
ACAD
1000
DSTYLE
1002
{
1070
     4
1000
%%c[]"
1070
    40
1040
1.0
1070
   143
1040
0.0393700787401575
1070
   170
1070
     1
1070
   171
1070
     3
1070
   271
1070
     8
1070
   285
1070
     4
1002
}
  0
DIMENSION
  5
60064
102
{ACAD_XDICTIONARY
360
60071
102
}
102
{ACAD_REACTORS
330
6007B
102
}
330
1F
100
AcDbEntity
  8
sk2
100
AcDbDimension
  2
*D74
 10
-35.78508932154458
 20
-48.41900000000003
 30
0.0
 11
-39.83508932154456
 21
-0.0000000000000257
 31
0.0
 70
    32
  1
%%C<>
 71
     5
 42
96.83800000000003
  3
\M+18352\M+18373\M+1815B - ISO-25
100
AcDbAlignedDimension
 13
1.999999999999943
 23
48.41899999999998
 33
0.0
 14
1.999999999999914
 24
-48.41900000000004
 34
0.0
 50
90.0
100
AcDbRotatedDimension
1001
ACAD
1000
DSTYLE
1002
{
1070
     4
1000
%%c[]"
1070
    40
1040
1.0
1070
   143
1040
0.0393700787401575
1070
   170
1070
     1
1070
   171
1070
     3
1070
   271
1070
     8
1070
   285
1070
     4
1002
}
  0
DIMENSION
  5
6007C
102
{ACAD_XDICTIONARY
360
60089
102
}
102
{ACAD_REACTORS
330
60093
102
}
330
1F
100
AcDbEntity
  8
sk2
100
AcDbDimension
  2
*D75
 10
41.99999999999994
 20
-83.44060425809027
 30
0.0
 11
20.99999999999993
 21
-79.39060425809028
 31
0.0
 70
    32
 71
     5
 42
42.00000000000002
  3
\M+18352\M+18373\M+1815B - ISO-25
100
AcDbAlignedDimension
 13
-0.0000000000000853
 23
-46.41899967210003
 33
0.0
 14
41.99999999999994
 24
-27.00000000000006
 34
0.0
100
AcDbRotatedDimension
1001
ACAD
1000
DSTYLE
1002
{
1070
     4
1000
[]"
1070
    40
1040
1.0
1070
   143
1040
0.0393700787401575
1070
   170
1070
     1
1070
   171
1070
     3
1070
   271
1070
     8
1070
   285
1070
     4
1002
}
  0
DIMENSION
  5
60094
330
1F
100
AcDbEntity
  8
2
100
AcDbDimension
  2
*D76
 10
61.39999999999989
 20
-83.44060425809027
 30
0.0
 11
94.09166666666662
 21
-83.44060425809027
 31
0.0
 70
   160
  1
<>(MAX)
 71
     5
 42
2.100000000000051
  3
\M+18352\M+18373\M+1815B - ISO-25
100
AcDbAlignedDimension
 13
63.49999999999994
 23
55.8513537561615
 33
0.0
 14
61.39999999999989
 24
48.54040198382572
 34
0.0
100
AcDbRotatedDimension
1001
ACAD
1000
DSTYLE
1002
{
1070
     4
1000
"
1070
    40
1040
1.0
1070
   143
1040
0.0393700787401575
1070
   170
1070
     1
1070
   171
1070
     3
1070
   271
1070
     8
1070
   285
1070
     4
1002
}
  0
DIMENSION
  5
600AE
330
1F
100
AcDbEntity
  8
2
100
AcDbDimension
  2
*D77
 10
61.49999999999995
 20
80.38117957483484
 30
0.0
 11
-5.258333333333382
 21
84.43117957483485
 31
0.0
 70
    32
  1
<>(APMX AT HIGH FEED PROCESS)
 71
     5
 42
2.0
  3
\M+18352\M+18373\M+1815B - ISO-25
100
AcDbAlignedDimension
 13
63.49999999999994
 23
55.8513537561615
 33
0.0
 14
61.49999999999995
 24
61.61953307477469
 34
0.0
100
AcDbRotatedDimension
1001
ACAD
1000
DSTYLE
1002
{
1070
     4
1000
"
1070
    40
1040
1.0
1070
   143
1040
0.0393700787401575
1070
   170
1070
     1
1070
   171
1070
     3
1070
   271
1070
     8
1070
   285
1070
     4
1002
}
  0
DIMENSION
  5
600C8
330
1F
100
AcDbEntity
  8
2
100
AcDbDimension
  2
*D78
 10
60.49999999999994
 20
91.29539103960565
 30
0.0
 11
33.11666666666662
 21
95.34539103960565
 31
0.0
 70
    32
  1
APMX<>
 71
     5
 42
3.0
  3
\M+18352\M+18373\M+1815B - ISO-25
100
AcDbAlignedDimension
 13
63.49999999999994
 23
55.8513537561615
 33
0.0
 14
60.49999999999994
 24
62.48944404985829
 34
0.0
100
AcDbRotatedDimension
1001
ACAD
1000
DSTYLE
1002
{
1070
     4
1000
"
1070
    40
1040
1.0
1070
   143
1040
0.0393700787401575
1070
   170
1070
     1
1070
   171
1070
     3
1070
   271
1070
     8
1070
   285
1070
     4
1002
}
  0
DIMENSION
  5
600E2
102
{ACAD_XDICTIONARY
360
600EF
102
}
102
{ACAD_REACTORS
330
600F9
102
}
330
1F
100
AcDbEntity
  8
2
100
AcDbDimension
  2
*D79
 10
-0.0000000000000534
 20
102.4149783474674
 30
0.0
 11
31.74999999999994
 21
106.4649783474674
 31
0.0
 70
    32
 71
     5
 42
63.5
  3
\M+18352\M+18373\M+1815B - ISO-25
100
AcDbAlignedDimension
 13
63.49999999999994
 23
55.8513537561615
 33
0.0
 14
-0.0000000000000568
 24
46.41899999999998
 34
0.0
100
AcDbRotatedDimension
1001
ACAD
1000
DSTYLE
1002
{
1070
     4
1000
"
1070
    40
1040
1.0
1070
   143
1040
0.0393700787401575
1070
   170
1070
     1
1070
   171
1070
     3
1070
   271
1070
     8
1070
   285
1070
     4
1002
}
  0
DIMENSION
  5
600FB
330
1F
100
AcDbEntity
  8
2
100
AcDbDimension
  2
*D80
 10
60.11786691028326
 20
61.05296659277051
 30
0.0
 11
82.93774992405642
 21
77.78981741210987
 31
0.0
 70
    36
 71
     5
 42
1.500000000000056
  3
\M+18352\M+18373\M+1815B - ISO-25
100
AcDbRadialDimension
 15
61.44192414213897
 25
61.7578583906876
 35
0.0
 40
0.0
1001
ACAD
1000
DSTYLE
1002
{
1070
     4
1000
"
1070
    40
1040
1.0
1070
   143
1040
0.0393700787401575
1070
   170
1070
     1
1070
   171
1070
     3
1070
   271
1070
     8
1070
   285
1070
     4
1002
}
  0
VIEWPORT
  5
6B
102
{ACAD_XDICTIONARY
360
602D9
102
}
330
50
100
AcDbEntity
 67
     1
  8
0
100
AcDbViewport
 10
155.3592437148233
 20
160.4455827878762
 30
0.0
 40
349.5854424261001
 41
282.2272140146125
 68
     1
 69
     1
 12
155.3592437148233
 22
160.4455827878762
 13
0.0
 23
0.0
 14
10.0
 24
10.0
 15
10.0
 25
10.0
 16
0.0
 26
0.0
 36
1.0
 17
0.0
 27
0.0
 37
0.0
 42
50.0
 43
0.0
 44
0.0
 45
282.2272140146125
 50
0.0
 51
0.0
 72
  1000
 90
    32864
  1

281
     0
 71
     1
 74
     0
110
0.0
120
0.0
130
0.0
111
1.0
121
0.0
131
0.0
112
0.0
122
1.0
132
0.0
 79
     0
146
0.0
  0
VIEWPORT
  5
6D
102
{ACAD_XDICTIONARY
360
602DB
102
}
330
50
100
AcDbEntity
 67
     1
  8
0
100
AcDbViewport
 10
133.3499939441681
 20
101.5999939441681
 30
0.0
 40
213.3599903106689
 41
162.5599903106689
 68
     2
 69
     2
 12
210.0
 22
148.5
 13
0.0
 23
0.0
 14
10.0
 24
10.0
 15
10.0
 25
10.0
 16
0.0
 26
0.0
 36
1.0
 17
0.0
 27
0.0
 37
0.0
 42
50.0
 43
0.0
 44
0.0
 45
324.0677920111345
 50
0.0
 51
0.0
 72
   100
 90
    32864
  1

281
     0
 71
     1
 74
     0
110
0.0
120
0.0
130
0.0
111
1.0
121
0.0
131
0.0
112
0.0
122
1.0
132
0.0
 79
     0
146
0.0
  0
ENDSEC
  0
SECTION
  2
OBJECTS
  0
DICTIONARY
  5
C
330
0
100
AcDbDictionary
281
     1
  3
ACAD_COLOR
350
85
  3
ACAD_GROUP
350
D
  3
ACAD_LAYOUT
350
1A
  3
ACAD_MATERIAL
350
84
  3
ACAD_MLINESTYLE
350
17
  3
ACAD_PLOTSETTINGS
350
19
  3
ACAD_PLOTSTYLENAME
350
E
  3
ACAD_TABLESTYLE
350
A1
  3
ACDBHEADERROUNDTRIPXREC
350
602D4
  3
AcDbVariableDictionary
350
5E
  3
ASE_INDEX_DICTIONARY
350
349E9
  3
DWGPROPS
350
602D3
  0
DICTIONARY
  5
E2
330
2
100
AcDbDictionary
280
     1
281
     1
  3
ACAD_LAYERFILTERS
360
60262
  3
ACAD_LAYERSTATES
360
3759A
  3
ACLYDICTIONARY
360
60261
  0
DICTIONARY
  5
31EE
330
1F
100
AcDbDictionary
280
     1
281
     1
  3
ACAD_SORTENTS
360
31EF
  0
DICTIONARY
  5
43668
330
680
100
AcDbDictionary
280
     1
281
     1
  3
ACAD_SORTENTS
360
43669
  0
DICTIONARY
  5
602DD
330
71
100
AcDbDictionary
280
     1
281
     1
  3
ACAD_XREC_ROUNDTRIP
360
602DE
  0
DICTIONARY
  5
602DF
330
73
100
AcDbDictionary
280
     1
281
     1
  3
ACAD_XREC_ROUNDTRIP
360
602E0
  0
DICTIONARY
  5
60059
330
6004C
100
AcDbDictionary
280
     1
281
     1
  3
ACAD_DIMASSOC
360
60063
  0
DICTIONARY
  5
60071
330
60064
100
AcDbDictionary
280
     1
281
     1
  3
ACAD_DIMASSOC
360
6007B
  0
DICTIONARY
  5
60089
330
6007C
100
AcDbDictionary
280
     1
281
     1
  3
ACAD_DIMASSOC
360
60093
  0
DICTIONARY
  5
600EF
330
600E2
100
AcDbDictionary
280
     1
281
     1
  3
ACAD_DIMASSOC
360
600F9
  0
DICTIONARY
  5
602D9
330
6B
100
AcDbDictionary
280
     1
281
     1
  3
ACAD_XREC_ROUNDTRIP
360
602DA
  0
DICTIONARY
  5
602DB
330
6D
100
AcDbDictionary
280
     1
281
     1
  3
ACAD_XREC_ROUNDTRIP
360
602DC
  0
DICTIONARY
  5
85
102
{ACAD_REACTORS
330
C
102
}
330
C
100
AcDbDictionary
281
     1
  0
DICTIONARY
  5
D
102
{ACAD_REACTORS
330
C
102
}
330
C
100
AcDbDictionary
281
     1
  0
DICTIONARY
  5
1A
102
{ACAD_REACTORS
330
C
102
}
330
C
100
AcDbDictionary
281
     1
  3
\M+1838C\M+18343\M+18341\M+18345\M+183671
350
51
  3
\M+1838C\M+18343\M+18341\M+18345\M+183672
350
56
  3
Model
350
22
  0
DICTIONARY
  5
84
102
{ACAD_REACTORS
330
C
102
}
330
C
100
AcDbDictionary
281
     1
  0
DICTIONARY
  5
17
102
{ACAD_REACTORS
330
C
102
}
330
C
100
AcDbDictionary
281
     1
  3
Standard
350
18
  0
DICTIONARY
  5
19
102
{ACAD_REACTORS
330
C
102
}
330
C
100
AcDbDictionary
281
     1
  0
ACDBDICTIONARYWDFLT
  5
E
102
{ACAD_REACTORS
330
C
102
}
330
C
100
AcDbDictionary
281
     1
  3
Normal
350
F
100
AcDbDictionaryWithDefault
340
F
  0
DICTIONARY
  5
A1
102
{ACAD_REACTORS
330
C
102
}
330
C
100
AcDbDictionary
281
     1
  3
Standard
350
A2
  0
DICTIONARY
  5
602D4
102
{ACAD_REACTORS
330
C
102
}
330
C
100
AcDbDictionary
281
     1
  0
DICTIONARY
  5
5E
102
{ACAD_REACTORS
330
C
102
}
330
C
100
AcDbDictionary
281
     1
  3
CTABLESTYLE
350
B8
  3
DIMASSOC
350
5F
  3
HIDETEXT
350
63
  3
PROJECTNAME
350
31CE
  0
DICTIONARY
  5
349E9
102
{ACAD_REACTORS
330
C
102
}
330
C
100
AcDbDictionary
281
     1
  3
ASEBlockHierarchyIndexRecord
350
349EA
1001
DCO15
1040
1842496176.844
  0
XRECORD
  5
602D3
102
{ACAD_REACTORS
330
C
102
}
330
C
100
AcDbXrecord
280
     1
  1
DWGPROPS COOKIE
  2

  3

  4

  6

  7

  8

  9

300
=
301
=
302
=
303
=
304
=
305
=
306
=
307
=
308
=
309
=
 40
1.97837380787037
 41
2455489.391063368
 42
2458416.617573426
  1

 90
        0
  0
DICTIONARY
  5
60262
102
{ACAD_REACTORS
330
E2
102
}
330
E2
100
AcDbDictionary
281
     1
  0
DICTIONARY
  5
3759A
102
{ACAD_REACTORS
330
E2
102
}
330
E2
100
AcDbDictionary
281
     1
  0
DICTIONARY
  5
60261
102
{ACAD_REACTORS
330
E2
102
}
330
E2
100
AcDbDictionary
281
     1
1001
ACAD
1000
<All
  0
SORTENTSTABLE
  5
31EF
102
{ACAD_REACTORS
330
31EE
102
}
330
31EE
100
AcDbSortentsTable
330
1F
331
5FF90
  5
5FF96
331
5FFB2
  5
5FFB8
331
5FFCC
  5
5FFD2
331
5FEC3
  5
5FEC3
331
5FEDD
  5
5FEDD
331
5FFEE
  5
5FFF4
331
5FEFF
  5
5FF01
331
60010
  5
60016
331
5FF5D
  5
5FF63
331
5FF43
  5
5FF49
331
5FF21
  5
5FF27
331
5FF7F
  5
5FF85
331
5FFA1
  5
5FFA7
331
5FFC3
  5
5FFC9
331
5FED4
  5
5FED4
331
5FFDD
  5
5FFE3
331
5FEEE
  5
5FEF0
331
5FFFF
  5
60005
331
5FF10
  5
5FF16
331
5FF32
  5
5FF38
331
5FF6E
  5
5FF74
331
5FFB0
  5
5FFB6
331
5FFCA
  5
5FFD0
331
5FEC1
  5
5FEC1
331
5FEDB
  5
5FEDB
331
5FFEC
  5
5FFF2
331
5FEFD
  5
5FEFF
331
6000E
  5
60014
331
5FF5B
  5
5FF61
331
5FF41
  5
5FF47
331
5FF1F
  5
5FF25
331
5FF7D
  5
5FF83
331
5FF9F
  5
5FFA5
331
5FFC1
  5
5FFC7
331
5FED2
  5
5FED2
331
5FFDB
  5
5FFE1
331
5FEEC
  5
5FEEE
331
5FFFD
  5
60003
331
5FF0E
  5
5FF14
331
5FF30
  5
5FF36
331
5FF8E
  5
5FF94
331
5FF6C
  5
5FF72
331
5FFC8
  5
5FFCE
331
5FED9
  5
5FED9
331
5FFEA
  5
5FFF0
331
6000C
  5
60012
331
5FEFB
  5
5FEFD
331
5FF59
  5
5FF5F
331
5FF3F
  5
5FF45
331
5FF1D
  5
5FF23
331
5FF7B
  5
5FF81
331
5FF9D
  5
5FFA3
331
5FFBF
  5
5FFC5
331
5FFD9
  5
5FFDF
331
5FED0
  5
5FED0
331
5FEEA
  5
5FEEC
331
5FFFB
  5
60001
331
5FF0C
  5
5FF0E
331
5FF2E
  5
5FF34
331
5FF8C
  5
5FF92
331
5FF6A
  5
5FF70
331
5FFAE
  5
5FFB4
331
5FFE8
  5
5FFEE
331
6000A
  5
60010
331
5FEF9
  5
5FEFB
331
5FF79
  5
5FF7F
331
5FF57
  5
5FF5D
331
5FF3D
  5
5FF43
331
5FF1B
  5
5FF21
331
5FF9B
  5
5FFA1
331
5FFBD
  5
5FFC3
331
5FECE
  5
5FECE
331
5FFD7
  5
5FFDD
331
5FEE8
  5
5FEEA
331
5FFF9
  5
5FFFF
331
5FF0A
  5
5FF0C
331
5FF2C
  5
5FF32
331
5FF68
  5
5FF6E
331
5FF4E
  5
5FF54
331
5FF8A
  5
5FF90
331
5FFAC
  5
5FFB2
331
60008
  5
6000E
331
5FF77
  5
5FF7D
331
5FF55
  5
5FF5B
331
5FF3B
  5
5FF41
331
5FF19
  5
5FF1F
331
5FF99
  5
5FF9F
331
5FFBB
  5
5FFC1
331
5FECC
  5
5FECC
331
5FFD5
  5
5FFDB
331
5FEE6
  5
5FEE8
331
5FFF7
  5
5FFFD
331
5FF08
  5
5FF0A
331
5FF2A
  5
5FF30
331
5FF66
  5
5FF6C
331
5FF4C
  5
5FF52
331
5FF88
  5
5FF8E
331
5FFAA
  5
5FFB0
331
5FFE6
  5
5FFEC
331
5FEF7
  5
5FEF9
331
5FF75
  5
5FF7B
331
5FF53
  5
5FF59
331
5FF39
  5
5FF3F
331
5FF97
  5
5FF9D
331
5FFB9
  5
5FFBF
331
5FFD3
  5
5FFD9
331
5FECA
  5
5FECA
331
5FEE4
  5
5FEE6
331
5FFF5
  5
5FFFB
331
5CD11
  5
5CD11
331
5FF06
  5
5FF08
331
5FF64
  5
5FF6A
331
5FF4A
  5
5FF50
331
5FF28
  5
5FF2E
331
5FF86
  5
5FF8C
331
5FFA8
  5
5FFAE
331
5FFE4
  5
5FFEA
331
60006
  5
6000C
331
5FF17
  5
5FF1D
331
5FEF5
  5
5FEF7
331
5FF51
  5
5FF57
331
5FF73
  5
5FF79
331
5FF95
  5
5FF9B
331
5FFB7
  5
5FFBD
331
5FEC8
  5
5FEC8
331
5FFD1
  5
5FFD7
331
5FEE2
  5
5FEE2
331
5FFF3
  5
5FFF9
331
5FF04
  5
5FF06
331
5FF62
  5
5FF68
331
5FF48
  5
5FF4E
331
5FF26
  5
5FF2C
331
5FF84
  5
5FF8A
331
5FFA6
  5
5FFAC
331
5FFE2
  5
5FFE8
331
5FEF3
  5
5FEF5
331
60004
  5
6000A
331
5FF37
  5
5FF3D
331
5FF15
  5
5FF1B
331
5FF71
  5
5FF77
331
5FF93
  5
5FF99
331
5FFB5
  5
5FFBB
331
5FFCF
  5
5FFD5
331
5FEC6
  5
5FEC6
331
5FEE0
  5
5FEE0
331
5FFF1
  5
5FFF7
331
5FF02
  5
5FF04
331
5FF60
  5
5FF66
331
5FF46
  5
5FF4C
331
5FF24
  5
5FF2A
331
5FF82
  5
5FF88
331
5FFA4
  5
5FFAA
331
5FFC6
  5
5FFCC
331
5FED7
  5
5FED7
331
5FFE0
  5
5FFE6
331
60002
  5
60008
331
5FEF1
  5
5FEF3
331
5FF35
  5
5FF3B
331
5FF13
  5
5FF19
331
5FF91
  5
5FF97
331
5FFB3
  5
5FFB9
331
5FFCD
  5
5FFD3
331
5FEC4
  5
5FEC4
331
5FEDE
  5
5FEDE
331
5FFEF
  5
5FFF5
331
5FF00
  5
5FF02
331
60011
  5
60017
331
5FF5E
  5
5FF64
331
5FF44
  5
5FF4A
331
5FF22
  5
5FF28
331
5FF80
  5
5FF86
331
5FFA2
  5
5FFA8
331
5FFC4
  5
5FFCA
331
5FED5
  5
5FED5
331
5FFDE
  5
5FFE4
331
60000
  5
60006
331
5FEEF
  5
5FEF1
331
5FF11
  5
5FF17
331
5FF33
  5
5FF39
331
5FF6F
  5
5FF75
331
5FFB1
  5
5FFB7
331
5FFCB
  5
5FFD1
331
5FEC2
  5
5FEC2
331
5FEDC
  5
5FEDC
331
5FFED
  5
5FFF3
331
5FEFE
  5
5FF00
331
6000F
  5
60015
331
5FF20
  5
5FF26
331
5FF5C
  5
5FF62
331
5FF42
  5
5FF48
331
5FF7E
  5
5FF84
331
5FFA0
  5
5FFA6
331
5FFC2
  5
5FFC8
331
5FED3
  5
5FED3
331
5FFDC
  5
5FFE2
331
5FEED
  5
5FEEF
331
5FFFE
  5
60004
331
5FF0F
  5
5FF15
331
5FF31
  5
5FF37
331
5FF6D
  5
5FF73
331
5FF8F
  5
5FF95
331
5FFC9
  5
5FFCF
331
5FEDA
  5
5FEDA
331
5FFEB
  5
5FFF1
331
6000D
  5
60013
331
5FEFC
  5
5FEFE
331
5FF5A
  5
5FF60
331
5FF40
  5
5FF46
331
5FF1E
  5
5FF24
331
5FF7C
  5
5FF82
331
5FF9E
  5
5FFA4
331
5FFC0
  5
5FFC6
331
5FFDA
  5
5FFE0
331
5FED1
  5
5FED1
331
5FEEB
  5
5FEED
331
5FFFC
  5
60002
331
5FF0D
  5
5FF0F
331
5FF2F
  5
5FF35
331
5FF6B
  5
5FF71
331
5FF8D
  5
5FF93
331
5FFAF
  5
5FFB5
331
5FED8
  5
5FED8
331
5FFE9
  5
5FFEF
331
6000B
  5
60011
331
5FF7A
  5
5FF80
331
5FF58
  5
5FF5E
331
5FF3E
  5
5FF44
331
5FF1C
  5
5FF22
331
5FEFA
  5
5FEFC
331
5FF9C
  5
5FFA2
331
5FFBE
  5
5FFC4
331
5FECF
  5
5FECF
331
5FFD8
  5
5FFDE
331
5FEE9
  5
5FEEB
331
5FFFA
  5
60000
331
5FF0B
  5
5FF0D
331
5FF2D
  5
5FF33
331
5FF4F
  5
5FF55
331
5FF8B
  5
5FF91
331
5FF69
  5
5FF6F
331
5FFAD
  5
5FFB3
331
5FEF8
  5
5FEFA
331
60009
  5
6000F
331
5FF56
  5
5FF5C
331
5FF3C
  5
5FF42
331
5FF1A
  5
5FF20
331
5FF78
  5
5FF7E
331
5FF9A
  5
5FFA0
331
5FFBC
  5
5FFC2
331
5FECD
  5
5FECD
331
5FFD6
  5
5FFDC
331
5FEE7
  5
5FEE9
331
5FFF8
  5
5FFFE
331
5FF09
  5
5FF0B
331
5FF2B
  5
5FF31
331
5FF4D
  5
5FF53
331
5FF89
  5
5FF8F
331
5FF67
  5
5FF6D
331
5FFAB
  5
5FFB1
331
5FFE7
  5
5FFED
331
68C
  5
435D5
331
5FF76
  5
5FF7C
331
5FF54
  5
5FF5A
331
5FF3A
  5
5FF40
331
5FF18
  5
5FF1E
331
5FF98
  5
5FF9E
331
5FFBA
  5
5FFC0
331
5FECB
  5
5FECB
331
5FFD4
  5
5FFDA
331
5FEE5
  5
5FEE7
331
5FFF6
  5
5FFFC
331
5FF07
  5
5FF09
331
5FF29
  5
5FF2F
331
5FF65
  5
5FF6B
331
5FF4B
  5
5FF51
331
5FF87
  5
5FF8D
331
5FFA9
  5
5FFAF
331
5FFE5
  5
5FFEB
331
60007
  5
6000D
331
5FEF6
  5
5FEF8
331
5FF38
  5
5FF3E
331
5FF52
  5
5FF58
331
5FF74
  5
5FF7A
331
5FF96
  5
5FF9C
331
5FFB8
  5
5FFBE
331
5FFD2
  5
5FFD8
331
5FEC9
  5
5FEC9
331
5FEE3
  5
5FEE5
331
5FFF4
  5
5FFFA
331
5FF05
  5
5FF07
331
5FF63
  5
5FF69
331
5FF49
  5
5FF4F
331
5FF27
  5
5FF2D
331
5FF85
  5
5FF8B
331
5FFA7
  5
5FFAD
331
5FFE3
  5
5FFE9
331
5FEF4
  5
5FEF6
331
60005
  5
6000B
331
5FF16
  5
5FF1C
331
5FF50
  5
5FF56
331
5FF72
  5
5FF78
331
5FF94
  5
5FF9A
331
5FFB6
  5
5FFBC
331
5FFD0
  5
5FFD6
331
5FEC7
  5
5FEC7
331
5FEE1
  5
5FEE1
331
5FFF2
  5
5FFF8
331
5FF03
  5
5FF05
331
5FF25
  5
5FF2B
331
5FF61
  5
5FF67
331
5FF47
  5
5FF4D
331
5FF83
  5
5FF89
331
5FFA5
  5
5FFAB
331
5FFC7
  5
5FFCD
331
5FFE1
  5
5FFE7
331
60003
  5
60009
331
5FEF2
  5
5FEF4
331
5FF36
  5
5FF3C
331
5FF14
  5
5FF1A
331
5FF70
  5
5FF76
331
5FF92
  5
5FF98
331
5FFB4
  5
5FFBA
331
5FFCE
  5
5FFD4
331
5FEC5
  5
5FEC5
331
5FEDF
  5
5FEDF
331
5FFF0
  5
5FFF6
331
5FF01
  5
5FF03
331
60012
  5
60018
331
5FF5F
  5
5FF65
331
5FF45
  5
5FF4B
331
5FF23
  5
5FF29
331
5FF81
  5
5FF87
331
5FFA3
  5
5FFA9
331
5FFC5
  5
5FFCB
331
5FED6
  5
5FED6
331
5FFDF
  5
5FFE5
331
60001
  5
60007
331
5FEF0
  5
5FEF2
331
5FF34
  5
5FF3A
331
5FF12
  5
5FF18
  0
SORTENTSTABLE
  5
43669
102
{ACAD_REACTORS
330
43668
102
}
330
43668
100
AcDbSortentsTable
330
680
  0
XRECORD
  5
602DE
102
{ACAD_REACTORS
330
602DD
102
}
330
602DD
100
AcDbXrecord
280
     1
102
SHADEPLOT
 70
     0
  0
XRECORD
  5
602E0
102
{ACAD_REACTORS
330
602DF
102
}
330
602DF
100
AcDbXrecord
280
     1
102
SHADEPLOT
 70
     0
  0
DIMASSOC
  5
60063
102
{ACAD_REACTORS
330
60059
102
}
330
60059
100
AcDbDimAssoc
330
6004C
 90
        3
 70
     0
 71
     0
  1
AcDbOsnapPointRef
 72
     1
331
5FEEF
 73
     2
 91
        0
 40
1.0
 10
0.0
 20
0.0
 30
2.000000000000000E+50
 75
     0
  1
AcDbOsnapPointRef
 72
     1
331
5FED5
 73
     2
 91
        0
 40
1.0
 10
0.0
 20
0.0
 30
2.000000000000000E+50
 75
     0
  0
DIMASSOC
  5
6007B
102
{ACAD_REACTORS
330
60071
102
}
330
60071
100
AcDbDimAssoc
330
60064
 90
        3
 70
     0
 71
     0
  1
AcDbOsnapPointRef
 72
    13
331
5FF47
 73
     2
 91
        0
 40
1.570796326794896
 10
0.0
 20
0.0
 30
2.000000000000000E+50
 75
     0
  1
AcDbOsnapPointRef
 72
     1
331
5FF48
 73
     2
 91
        0
 40
4.712388980384689
 10
0.0
 20
0.0
 30
2.000000000000000E+50
 75
     0
  0
DIMASSOC
  5
60093
102
{ACAD_REACTORS
330
60089
102
}
330
60089
100
AcDbDimAssoc
330
6007C
 90
        3
 70
     0
 71
     0
  1
AcDbOsnapPointRef
 72
     1
331
5FF0C
 73
     2
 91
        0
 40
1.0
 10
0.0
 20
0.0
 30
2.000000000000000E+50
 75
     0
  1
AcDbOsnapPointRef
 72
    13
331
5FF4A
 73
     2
 91
        0
 40
3.141592653589793
 10
0.0
 20
0.0
 30
2.000000000000000E+50
 75
     0
  0
DIMASSOC
  5
600F9
102
{ACAD_REACTORS
330
600EF
102
}
330
600EF
100
AcDbDimAssoc
330
600E2
 90
        2
 70
     0
 71
     0
  1
AcDbOsnapPointRef
 72
     1
331
5FF47
 73
     2
 91
        0
 40
3.141592653589793
 10
0.0
 20
0.0
 30
2.000000000000000E+50
 75
     0
  0
XRECORD
  5
602DA
102
{ACAD_REACTORS
330
602D9
102
}
330
602D9
100
AcDbXrecord
280
     1
102
SHADEPLOT
 70
     0
  0
XRECORD
  5
602DC
102
{ACAD_REACTORS
330
602DB
102
}
330
602DB
100
AcDbXrecord
280
     1
102
SHADEPLOT
 70
     0
  0
LAYOUT
  5
51
102
{ACAD_XDICTIONARY
360
B2
102
}
102
{ACAD_REACTORS
330
1A
102
}
330
1A
100
AcDbPlotSettings
  1

  2
none_device
  4
Letter_(8.50_x_11.00_Inches)
  6

 40
6.349999904632567
 41
6.349999904632567
 42
6.350006103515625
 43
6.350006103515625
 44
215.8999938964844
 45
279.3999938964844
 46
0.0
 47
0.0
 48
0.0
 49
0.0
140
0.0
141
0.0
142
1.0
143
1.0
 70
   688
 72
     1
 73
     1
 74
     5
  7

 75
    16
147
1.0
148
0.0
149
0.0
100
AcDbLayout
  1
\M+1838C\M+18343\M+18341\M+18345\M+183671
 70
     1
 71
     1
 10
-6.350006103515625
 20
-6.349999904632567
 11
273.0499877929688
 21
209.5499939918518
 12
0.0
 22
0.0
 32
0.0
 14
26.66999878883364
 24
20.31999878883365
 34
0.0
 15
240.0299890995025
 25
182.8799890995025
 35
0.0
146
0.0
 13
0.0
 23
0.0
 33
0.0
 16
1.0
 26
0.0
 36
0.0
 17
0.0
 27
1.0
 37
0.0
 76
     0
330
50
331
6B
  0
LAYOUT
  5
56
102
{ACAD_XDICTIONARY
360
B5
102
}
102
{ACAD_REACTORS
330
1A
102
}
330
1A
100
AcDbPlotSettings
  1

  2
none_device
  4
Letter_(8.50_x_11.00_Inches)
  6

 40
6.349999904632567
 41
6.349999904632567
 42
6.350006103515625
 43
6.350006103515625
 44
215.8999938964844
 45
279.3999938964844
 46
0.0
 47
0.0
 48
0.0
 49
0.0
140
0.0
141
0.0
142
1.0
143
1.0
 70
   688
 72
     1
 73
     1
 74
     5
  7

 75
    16
147
1.0
148
0.0
149
0.0
100
AcDbLayout
  1
\M+1838C\M+18343\M+18341\M+18345\M+183672
 70
     1
 71
     2
 10
-6.350006103515625
 20
-6.349999904632567
 11
273.0499877929688
 21
209.5499939918518
 12
0.0
 22
0.0
 32
0.0
 14
26.66999878883363
 24
20.31999878883363
 34
0.0
 15
240.0299890995026
 25
182.8799890995025
 35
0.0
146
0.0
 13
0.0
 23
0.0
 33
0.0
 16
1.0
 26
0.0
 36
0.0
 17
0.0
 27
1.0
 37
0.0
 76
     0
330
55
331
71
  0
LAYOUT
  5
22
102
{ACAD_XDICTIONARY
360
602D5
102
}
102
{ACAD_REACTORS
330
1A
102
}
330
1A
100
AcDbPlotSettings
  1

  2
none_device
  4
ANSI_A_(8.50_x_11.00_Inches)
  6

 40
6.349999904632567
 41
19.04999923706055
 42
6.350006103515625
 43
19.04998779296875
 44
215.8999938964844
 45
279.3999938964844
 46
0.0
 47
0.0
 48
0.0
 49
0.0
140
0.0
141
0.0
142
1.0
143
78.436453180766
 70
 11952
 72
     0
 73
     1
 74
     0
  7

 75
     0
147
0.0127491741332998
148
0.0
149
0.0
100
AcDbLayout
  1
Model
 70
     1
 71
     0
 10
0.0
 20
0.0
 11
12.0
 21
9.0
 12
0.0
 22
0.0
 32
0.0
 14
0.0
 24
0.0
 34
0.0
 15
0.0
 25
0.0
 35
0.0
146
0.0
 13
0.0
 23
0.0
 33
0.0
 16
1.0
 26
0.0
 36
0.0
 17
0.0
 27
1.0
 37
0.0
 76
     0
330
1F
  0
MLINESTYLE
  5
18
102
{ACAD_REACTORS
330
17
102
}
330
17
100
AcDbMlineStyle
  2
STANDARD
 70
     0
  3

 62
   256
 51
90.0
 52
90.0
 71
     2
 49
0.5
 62
   256
  6
BYLAYER
 49
-0.5
 62
   256
  6
BYLAYER
  0
ACDBPLACEHOLDER
  5
F
102
{ACAD_REACTORS
330
E
102
}
330
E
  0
TABLESTYLE
  5
A2
102
{ACAD_REACTORS
330
A1
102
}
330
A1
100
AcDbTableStyle
  3
Standard
 70
     0
 71
     0
 40
1.5
 41
1.5
280
     0
281
     0
  7
Standard
140
4.5
170
     2
 62
     0
 63
     7
283
     0
274
    -2
284
     1
 64
     0
275
    -2
285
     1
 65
     0
276
    -2
286
     1
 66
     0
277
    -2
287
     1
 67
     0
278
    -2
288
     1
 68
     0
279
    -2
289
     1
 69
     0
  7
Standard
140
6.0
170
     5
 62
     0
 63
     7
283
     0
274
    -2
284
     1
 64
     0
275
    -2
285
     1
 65
     0
276
    -2
286
     1
 66
     0
277
    -2
287
     1
 67
     0
278
    -2
288
     1
 68
     0
279
    -2
289
     1
 69
     0
  7
Standard
140
4.5
170
     5
 62
     0
 63
     7
283
     0
274
    -2
284
     1
 64
     0
275
    -2
285
     1
 65
     0
276
    -2
286
     1
 66
     0
277
    -2
287
     1
 67
     0
278
    -2
288
     1
 68
     0
279
    -2
289
     1
 69
     0
  0
DICTIONARYVAR
  5
B8
102
{ACAD_REACTORS
330
5E
102
}
330
5E
100
DictionaryVariables
280
     0
  1
STANDARD
  0
DICTIONARYVAR
  5
5F
102
{ACAD_REACTORS
330
5E
102
}
330
5E
100
DictionaryVariables
280
     0
  1
2
  0
DICTIONARYVAR
  5
63
102
{ACAD_REACTORS
330
5E
102
}
330
5E
100
DictionaryVariables
280
     0
  1
1
  0
DICTIONARYVAR
  5
31CE
102
{ACAD_REACTORS
330
5E
102
}
330
5E
100
DictionaryVariables
280
     0
  1

  0
XRECORD
  5
349EA
102
{ACAD_REACTORS
330
349E9
102
}
330
349E9
100
AcDbXrecord
280
     1
330
68C
330
431D
330
431E
330
4329
330
4334
330
4335
330
4B09
330
4B0A
330
5153
330
5154
330
515D
330
515E
330
516A
330
516B
330
5177
330
5178
330
85B4
330
85B5
330
8620
330
8621
330
862A
330
862B
330
8637
330
8638
330
8644
330
8645
330
9773
330
9774
330
977D
330
977E
330
978A
330
978B
330
9797
330
9798
330
BD86
330
BD87
330
BD8F
330
BD90
330
BD98
330
BDA0
330
BDA1
330
BDDD
330
BDDE
330
BDE7
330
BDE8
330
BDF4
330
BDF5
330
BE01
330
BE02
330
E473
330
E474
330
E48D
330
E48E
330
E485
330
E47C
330
E47D
330
E4CC
330
E4CD
330
E4D7
330
E4D8
330
1C63B
330
1C63C
330
1C705
330
1C706
330
1C719
330
1C71A
330
1C72E
330
1C72F
330
1C738
330
1C739
330
27043
330
27044
330
2703A
330
2703B
330
2CF2C
330
2CF2D
330
2CF38
330
2CF39
330
2CF42
330
2CF43
330
2CF4F
330
2CF50
330
2CF59
330
2CF5A
330
2FA31
330
2FA32
330
2FA3D
330
2FA3E
330
2FA4A
330
2FA4B
330
2FA54
330
2FA55
330
329D8
330
329D9
330
329E1
330
329E2
330
329EA
330
329EB
330
329F3
330
329F4
330
32E63
330
32E64
330
32E6F
330
32E70
330
32E79
330
32E7A
330
32E88
330
32E89
330
32E92
330
32E93
  0
DICTIONARY
  5
B2
330
51
100
AcDbDictionary
280
     1
281
     1
  3
ACAD_XREC_ROUNDTRIP
360
602D7
  3
ADSK_XREC_LAYOUTTHUMBNAIL
360
B3
  0
DICTIONARY
  5
B5
330
56
100
AcDbDictionary
280
     1
281
     1
  3
ACAD_XREC_ROUNDTRIP
360
602D8
  3
ADSK_XREC_LAYOUTTHUMBNAIL
360
B6
  0
DICTIONARY
  5
602D5
330
22
100
AcDbDictionary
280
     1
281
     1
  3
ACAD_XREC_ROUNDTRIP
360
602D6
  0
XRECORD
  5
602D7
102
{ACAD_REACTORS
330
B2
102
}
330
B2
100
AcDbXrecord
280
     1
102
SHADEPLOT
 70
     0
102
SHADEPLOTRESLEVEL
 70
     2
102
SHADEPLOTCUSTOMDPI
 70
   300
  0
XRECORD
  5
B3
102
{ACAD_REACTORS
330
B2
102
}
330
B2
100
AcDbXrecord
280
     1
310
28000000B40000008B0000000100080000000000BC61000000000000000000000001000000000000FFFFFF0000000000FFFFFF000000000000000000000000000000000000000000000000000000000000000000330000006600000099000000CC000000FF00000000330000333300006633000099330000CC330000FF3300
310
0000660000336600006666000099660000CC660000FF66000000990000339900006699000099990000CC990000FF99000000CC000033CC000066CC000099CC0000CCCC0000FFCC000000FF000033FF000066FF000099FF0000CCFF0000FFFF000000003300330033006600330099003300CC003300FF003300003333003333
310
33006633330099333300CC333300FF33330000663300336633006666330099663300CC663300FF66330000993300339933006699330099993300CC993300FF99330000CC330033CC330066CC330099CC3300CCCC3300FFCC330000FF330033FF330066FF330099FF3300CCFF3300FFFF330000006600330066006600660099
310
006600CC006600FF00660000336600333366006633660099336600CC336600FF33660000666600336666006666660099666600CC666600FF66660000996600339966006699660099996600CC996600FF99660000CC660033CC660066CC660099CC6600CCCC6600FFCC660000FF660033FF660066FF660099FF6600CCFF6600
310
FFFF660000009900330099006600990099009900CC009900FF00990000339900333399006633990099339900CC339900FF33990000669900336699006666990099669900CC669900FF66990000999900339999006699990099999900CC999900FF99990000CC990033CC990066CC990099CC9900CCCC9900FFCC990000FF99
310
0033FF990066FF990099FF9900CCFF9900FFFF99000000CC003300CC006600CC009900CC00CC00CC00FF00CC000033CC003333CC006633CC009933CC00CC33CC00FF33CC000066CC003366CC006666CC009966CC00CC66CC00FF66CC000099CC003399CC006699CC009999CC00CC99CC00FF99CC0000CCCC0033CCCC0066CC
310
CC0099CCCC00CCCCCC00FFCCCC0000FFCC0033FFCC0066FFCC0099FFCC00CCFFCC00FFFFCC000000FF003300FF006600FF009900FF00CC00FF00FF00FF000033FF003333FF006633FF009933FF00CC33FF00FF33FF000066FF003366FF006666FF009966FF00CC66FF00FF66FF000099FF003399FF006699FF009999FF00CC
310
99FF00FF99FF0000CCFF0033CCFF0066CCFF0099CCFF00CCCCFF00FFCCFF0000FFFF0033FFFF0066FFFF0099FFFF00CCFFFF00FFFFFF00000000000D0D0D001A1A1A00282828003535350043434300505050005D5D5D006B6B6B00787878008686860093939300A1A1A100AEAEAE00BBBBBB00C9C9C900D6D6D600E4E4E400
310
F1F1F100FFFFFF0000000000000000000000000000000000000000000000000000000000000000000000000000000000EFEFEFE2E2E2E2E2E2E2E2E2E2E2E2E2E2E2E2E2E2E2E2E2E2E2E2E2E2E2E2E2E2E2E2E2E2E2E2E2E2E2E2E2E2E2E2E2E2E2E2E2E2E2E2E2E2E2E2E2E2E2E2E2E2E2E2E2E2E2E2E2E2E2E2E2E2E2E2
310
E2E2E2E2E2E2E2E2E2E2E2E2E2E2E2E2E2E2E2E2E2E2E2E2E2E2E2E2E2E2E2E2E2E2E2E2E2E2E2E2E2E2E2E2E2E2E2E2E2E2E2E2E2E2E2E2E2E2E2E2E2E2E2E2E2E2E2E2E2E2E2E2E2E2E2E2E2E2E2E2E2E2E2E2E2E2E2E2E2E2E2E2E2E2E2E2E2E2E2E2E2E2E2E2E2E2E2E2E2E2E2E2E2E2E2E2E2E2E2E2E2E2E2E2E2E2E2
310
E2E2E2E2E2E2E2E2E2E2E2E2E2E2E2E2E2E2E2E2E2E2E2E2E2E2E2E2E2E2E2E2E2E2E2E2E2E2E2E2E2E2E2E2E2E2E2E2E2E2E2E2E2E2E2E2E2E2E2E2E2E2E2E2E2E2E2E2E2E2E2E2E2E2E2E2E2E2E2E2E2E2E2E2E2E2E2E2E2E2E2E2E2E2E2E2E2E2E2E2E2E2E2E2E2E2E2E2E2E2E2E2E2E2E2E2E2E2E2E2E2E2E2E2E2E2E2
310
E2E2E2E2E2E2E2E2E2E2E2E2E2E2E2E2E2E2E2E2E2E2E2E2E2E2E2E2F5F5F5F5F5F5F5F5F5F5F5F5F5F5F5F5F5F5F5F5F5F5F5F5F5F5F5F5F5F5F5F5F5F5F5F5F5F5F5F5F5F5F5F5F5F5F5F5F5F5F5F5F5F5F5F5F5F5F5F5F5F5F5F5F5F5F5F5F5F5F5F5F5F5F5F5F5F5F5F5F5F5F5F5F5F5F5F5F5F5F5F5F5F5F5F5F5F5F5
310
F5F5F5F5F5F5F5F5F5F5F5F5F5F5F5F5F5F5F5F5F5F5F5F5F5F5F5F5F5F5F5F5F5F5F5F5F5F5F5F5F5F5F5F5F5F5F5F5F5F5F5F5F5F5F5F5F5F5F5F5F5F5F5F5F5F5F5F5F5F5F5F5F5F5F5F5F5F5F5E2E2F5F5F5F5F5F5F5F5F5F5F5F5F5F5F5F5F5F5F5F5F5F5F5F5F5F5F5F5F5F5F5F5F5F5F5F5F5F5F5F5F5F5F5F5F5F5
310
F5F5F5F5F5F5F5F5F5F5F5F5F5F5F5F5F5F5F5F5F5F5F5F5F5F5F5F5F5F5F5F5F5F5F5F5F5F5F5F5F5F5F5F5F5F5F5F5F5F5F5F5F5F5F5F5F5F5F5F5F5F5F5F5F5F5F5F5F5F5F5F5F5F5F5F5F5F5F5F5F5F5F5F5F5F5F5F5F5F5F5F5F5F5F5F5F5F5F5F5F5F5F5F5F5F5F5F5F5F5F5F5F5F5F5F5F5F5F5F5F5F5F5F5F5F5F5
310
F5F5F5F5F5E2E2F5F5F5F5F5F5F5F5F5F5F5F5F5F5F5F5F5F5F5F5F5F5F5F5F5F5F5F5F5F5F5F5F5F5F5F5F5F5F5F5F5F5F5F5F5F5F5F5F5F5F5F5F5F5F5F5F5F5F5F5F5F5F5F5F5F5F5F5F5F5F5F5F5F5F5F5F5F5F5F5F5F5F5F5F5F5F5F5F5F5F5F5F5F5F5F5F5F5F5F5F5F5F5F5F5F5F5F5F5F5F5F5F5F5F5F5F5F5F5F5
310
F5F5F5F5F5F5F5F5F5F5F5F5F5F5F5F5F5F5F5F5F5F5F5F5F5F5F5F5F5F5F5F5F5F5F5F5F5F5F5F5F5F5F5F5F5F5F5F5F5F5F5F5F5F5F5F5F5F5E2E2F5F5F5F5E2E2E2E2E2E2E2E2F5F5F5F5F5F5F5F5F5E2E2E2E2E2E2E2E2E2E2E2E2E2E2E2F5F5F5F5F5F5F5F5F5E2E2E2E2E2E2E2E2E2E2E2E2E2E2E2E2F5F5F5F5F5F5
310
F5F5E2E2E2E2E2E2E2E2E2E2E2E2E2E2E2E2F5F5F5F5F5F5F5F5E2E2E2E2E2E2E2E2E2E2E2E2E2E2E2E2F5F5F5F5F5F5F5F5E2E2E2E2E2E2E2E2E2E2E2E2E2E2E2E2F5F5F5F5F5F5F5F5F5E2E2E2E2E2E2E2E2E2E2E2E2E2E2E2F5F5F5F5F5F5F5F5F5E2E2E2E2E2E2E2E2F5F5F5F5E2E2F5F5F5F5E2F5F5F5F5F5F5F5F5F5
310
F5F5F5F5F5F5F5F5F5F5F5F5F5F5F5F5F5F5F5F5F5F5F5F5F5F5F5F5F5F5F5F5F5F5F5F5F5F5F5F5F5F5F5F5F5F5F5F5F5F5F5F5F5F5F5F5F5F5F5F5F5F5F5F5F5F5F5F5F5F5F5F5F5F5F5F5F5F5F5F5F5F5F5F5F5F5F5F5F5F5F5F5F5F5F5F5F5F5F5F5F5F5F5F5F5F5F5F5F5F5F5F5F5F5F5F5F5F5F5F5F5F5F5F5F5F5F5
310
F5F5F5F5F5F5F5F5F5F5F5F5F5F5F5F5F5F5F5F5F5F5F5F5F5F5F5F5F5F5F5F5E2F5F5F5F5E2E2F5F5F5F5E2F5F5F5F5F5F5F5F5F5F5F5F5F5F5F5F5F5F5F5F5F5F5F5F5F5F5F5F5F5F5F5F5F5F5F5F5F5F5F5F5F5F5F5F5F5F5F5F5F5F5F5F5F5F5F5F5F5F5F5F5F5F5F5F5F5F5F5F5F5F5F5F5F5F5F5F5F5F5F5F5F5F5F5
310
F5F5F5F5F5F5F5F5F5F5F5F5F5F5F5F5F5F5F5F5F5F5F5F5F5F5F5F5F5F5F5F5F5F5F5F5F5F5F5F5F5F5F5F5F5F5F5F5F5F5F5F5F5F5F5F5F5F5F5F5F5F5F5F5F5F5F5F5F5F5F5F5F5F5F5F5F5F5F5F5F5F5F5F5F5E2F5F5F5F5E2E2F5F5F5F5E2F5F5F5F5F5F5F5F5F5F5F5F5F5F5F5F5F5F5F5F5F5F5F5F5F5F5F5F5F5F5
310
F5F5F5F5F5F5F5F5F5F5F5F5F5F5F5F5F5F5F5F5F5F5F5F5F5F5F5F5F5F5F5F5F5F5F5F5F5F5F5F5F5F5F5F5F5F5F5F5F5F5F5F5F5F5F5F5F5F5F5F5F5F5F5F5F5F5F5F5F5F5F5F5F5F5F5F5F5F5F5F5F5F5F5F5F5F5F5F5F5F5F5F5F5F5F5F5F5F5F5F5F5F5F5F5F5F5F5F5F5F5F5F5F5F5F5F5F5F5F5F5F5F5F5F5F5F5F5
310
F5F5F5F5F5F5F5F5F5F5F5E2F5F5F5F5E2E2F5F5F5F5E2F5F5F5F5F5F5F5F5F5F5F5F5F5F5F5F5F5F5F5F5F5F5F5F5F5F5F5F5F5F5F5F5F5F5F5F5F5F5F5F5F5F5F5F5F5F5F5F5F5F5F5F5F5F5F5F5F5F5F5F5F5F5F5F5F5F5F5F5F5F5F5F5F5F5F5F5F5F5F5F5F5F5F5F5F5F5F5F5F5F5F5F5F5F5F5F5F5F5F5F5F5F5F5F5
310
F5F5F5F5F5F5F5F5F5F5F5F5F5F5F5F5F5F5F5F5F5F5F5F5F5F5F5F5F5F5F5F5F5F5F5F5F5F5F5F5F5F5F5F5F5F5F5F5F5F5F5F5F5F5F5F5F5F5F5F5F5F5F5F5E2F5F5F5F5E2E2F5F5F5F5E2F5F5F5F5F5F5F5F5F5F5F5F5F5F5F5F5F5F5F5F5F5F5F5F5F5F5F5F5F5F5F5F5F5F5F5F5F5F5F5F5F5F5F5F5F5F5F5F5F5F5F5
310
F5F5F5F5F5F5F5F5F5F5F5F5F5F5F5F5F5F5F5F5F5F5F5F5F5F5F5F5F5F5F5F5F5F5F5F5F5F5F5F5F5F5F5F5F5F5F5F5F5F5F5F5F5F5F5F5F5F5F5F5F5F5F5F5F5F5F5F5F5F5F5F5F5F5F5F5F5F5F5F5F5F5F5F5F5F5F5F5F5F5F5F5F5F5F5F5F5F5F5F5F5F5F5F5F5F5F5F5F5F5F5F5F5F5F5F5F5E2F5F5F5F5E2E2F5F5F5
310
F5E2F5F5F5F5F5F5F5F5F5F5F5F5F5F5F5F5F5F5F5F5F5F5F5F5F5F5F5F5F5F5F5F5F5F5F5F5F5F5F5F5F5F5F5F5F5F5F5F5F5F5F5F5F5F5F5F5F5F5F5F5F5F5F5F5F5F5F5F5F5F5F5F5F5F5F5F5F5F5F5F5F5F5F5F5F5F5F5F5F5F5F5F5F5F5F5F5F5F5F5F5F5F5F5F5F5F5F5F5F5F5F5F5F5F5F5F5F5F5F5F5F5F5F5F5F5
310
F5F5F5F5F5F5F5F5F5F5F5F5F5F5F5F5F5F5F5F5F5F5F5F5F5F5F5F5F5F5F5F5F5F5F5F5F5F5F5F5F5F5F5E2F5F5F5F5E2E2F5F5F5F5E2F5F5F5F5F5F5F5F5F5F5F5F5F5F5F5F5F5F5F5F5F5F5F5F5F5F5F5F5F5F5F5F5F5F5F5F5F5F5F5F5F5F5F5F5F5F5F5F5F5F5F5F5F5F5F5F5F5F5F5F5F5F5F5F5F5F5F5F5F5F5F5F5
310
F5F5F5F5F5F5F5F5F5F5F5F5F5F5F5F5F5F5F5F5F5F5F5F5F5F5F5F5F5F5F5F5F5F5F5F5F5F5F5F5F5F5F5F5F5F5F5F5F5F5F5F5F5F5F5F5F5F5F5F5F5F5F5F5F5F5F5F5F5F5F5F5F5F5F5F5F5F5F5F5F5F5F5F5F5F5F5F5F5F5F5F5F5F5F5F5E2F5F5F5F5E2E2F5F5F5F5E2F5F5F5F5F5F5F5F5F5F5F5F5F5F5F5F5F5F5F5
310
F5F5F5F5F5F5F5F5F5F5F5F5F5F5F5F5F5F5F5F5F5F5F5F5F5F5F5F5F5F5F5F5F5F5F5F5F5F5F5F5F5F5F5F5F5F5F5F5F5F5F5F5F5F5F5F5F5F5F5F5F5F5F5F5F5F5F5F5F5F5F5F5F5F5F5F5F5F5F5F5F5F5F5F5F5F5F5F5F5F5F5F5F5F5F5F5F5F5F5F5F5F5F5F5F5F5F5F5F5F5F5F5F5F5F5F5F5F5F5F5F5F5F5F5F5F5F5
310
F5F5F5F5F5F5F5F5F5F5F5F5F5F5F5F5F5F5F5F5F5F5E2F5F5F5F5E2E2F5F5F5F5F5F5F5F5F5F5F5F5F5F5F5F5F5F5F5F5F5F5F5F5F5F5F5F5F5F5F5F5F5F5F5F5F5F5F5F5F5F5F5F5F5F5F5F5F5F5F5F5F5F5F5F5F5F5F5F5F5F5F5F5F5F5F5F5F5F5F5F5F5F5F5F5F5F5F5F5F5F5F5F5F5F5F5F5F5F5F5F5F5F5F5F5F5F5
310
F5F5F5F5F5F5F5F5F5F5F5F5F5F5F5F5F5F5F5F5F5F5F5F5F5F5F5F5F5F5F5F5F5F5F5F5F5F5F5F5F5F5F5F5F5F5F5F5F5F5F5F5F5F5F5F5F5F5F5F5F5F5F5F5F5F5F5F5F5F5F5F5F5F5F5F5F5F5F5F5E2E2F5F5F5F5F5F5F5F5F5F5F5F5F5F5F5F5F5F5F5F5F5F5F5F5F5F5F5F5F5F5F5F5F5F5F5F5F5F5F5F5F5F5F5F5F5
310
F5F5F5F5F5F5F5F5F5F5F5F5F5F5F5F5F5F5F5F5F5F5F5F5F5F5F5F5F5F5F5F5F5F5F5F5F5F5F5F5F5F5F5F5F5F5F5F5F5F5F5F5F5F5F5F5F5F5F5F5F5F5F5F5F5F5F5F5F5F5F5F5F5F5F5F5F5F5F5F5F5F5F5F5F5F5F5F5F5F5F5F5F5F5F5F5F5F5F5F5F5F5F5F5F5F5F5F5F5F5F5F5F5F5F5F5F5F5F5F5F5F5F5F5F5F5F5
310
F5F5F5F5F5F5E2E2F5F5F5F5F5F5F5F5F5F5F5F5F5F5F5F5F5F5F5F5F5F5F5F5F5F5F5F5F5F5F5F5F5F5F5F5F5F5F5F5F5F5F5F5F5F5F5F5F5F5F5F5F5F5F5F5F5F5F5F5F5F5F5F5F5F5F5F5F5F5F5F5F5F5F5F5F5F5F5F5F5F5F5F5F5F5F5F5F5F5F5F5F5F5F5F5F5F5F5F5F5F5F5F5F5F5F5F5F5F5F5F5F5F5F5F5F5F5F5
310
F5F5F5F5F5F5F5F5F5F5F5F5F5F5F5F5F5F5F5F5F5F5F5F5F5F5F5F5F5F5F5F5F5F5F5F5F5F5F5F5F5F5F5F5F5F5F5F5F5F5F5F5F5F5F5F5F5F5F5E2E2F5F5F5F5F5F5F5F5F5F5F5F5F5F5F5F5F5F5F5F5F5F5F5F5F5F5F5F5F5F5F5F5F5F5F5F5F5F5F5F5F5F5F5F5F5F5F5F5F5F5F5F5F5F5F5F5F5F5F5F5F5F5F5F5F5F5
310
F5F5F5F5F5F5F5F5F5F5F5F5F5F5F5F5F5F5F5F5F5F5F5F5F5F5F5F5F5F5F5F5F5F5F5F5F5F5F5F5F5F5F5F5F5F5F5F5F5F5F5F5F5F5F5F5F5F5F5F5F5F5F5F5F5F5F5F5F5F5F5F5F5F5F5F5F5F5F5F5F5F5F5F5F5F5F5F5F5F5F5F5F5F5F5F5F5F5F5F5F5F5F5F5F5F5F5F5F5F5F5F5E2E2F5F5F5F5F5F5F5F5F5F5F5F5F5
310
F5F5F5F5F5F5F5F5E2E2E2E2E2E2E2E2E2E2E2E2E2E2E2E2E2E2E2E2E2E2E2E2E2E2E2E2E2E2E2E2E2E2E2E2E2E2E2E2E2E2E2E2E2E2E2E2E2E2E2E2E2E2E2E2E2E2E2E2E2E2E2E2E2E2E2E2E2E2E2E2E2E2E2E2E2E2E2E2E2E2E2E2E2E2E2E2E2E2E2E2E2E2E2E2E2E2E2E2E2E2E2E2E2E2E2E2E2E2E2E2E2E2E2E2E2E2E2
310
E2E2E2E2E2E2E2E2E2E2E2E2E2E2E2E2E2F5F5F5F5F5F5F5F5F5F5F5F5F5F5F5F5F5F5F5F5F5E2E2F5F5F5F5F5F5F5F5F5F5F5F5F5F5F5F5F5F5F5F5F5E22D2D2D2DF5F5F5F5E2F5F5F5F5F5F5F52DF5F5F5F5F5F5F5F5F5F5F5F5F5F5F5F5F5F5E2F5F5F5F5F5F5F5F5F5F5F5F5F5F5F5F5F5F5F5F5F5F5F5F5F5F5F5F5F5
310
F5F5F5F5F5F5F5F5F5F5F5F5F5F5F5F5F5F5F5F5F5F5F5F5F5F5F5F5F5F5F5F5F5F5F5F5F5F5F5F5F5F5F5F5F5F5F5F5F5F5F5F5F5F5F5F5F5F5F5F5F5F5F5F5F5F5F5F5F5E2F5F5F5F5F5F5F5F5F5F5F5F5F5F5F5F5F5F5F5F5F5E2E2F5F5F5F5F5F5F5F5F5F5F5F5F5F5F5F5F5F5F5F5F5E2DCF5F52DF5F5F5F5E2F5F5F5
310
F5F5F5F52DF5F5F5F5F5F5F5F5F5F5F5F5F5F5F5F5F5F5E2F5F5F5F5F5F5F5F5F5F5F5F5F5F5F5F5F5F5F5F5F5F5F5F5F5F5F5F5F5F5F5F5F5F5F5F5F5F5F5F5F5F5F5F5F5F5F5F5F5F5F5F5F5F5F5F5F5F5F5F5F5F5F5F5F5F5F5F5F5F5F5F5F5F5F5F5F5F5F5F5F5F5F5F5F5F5F5F5F5F5F5F5F5F5F5F5F5F5E2F5F5F5F5
310
F5F5F5F5F5F5F5F5F5F5F5F5F5F5F5F5F5E2E2F5F5F5F5F5F5F5F5F5F5F5F5F5F5F5F5F5F5F5F5F5E2DCF5F52DF5F5F5F5E2F5F5F5F5F5F5F52DF5F5F5F5F5F5F5F5F5F5F5F5F5F5F5F5F5F5E2E2F5F5F5F5F5F5F5F5F5F5F5F5F5F5F5F5F5F5F5F5F5F5F5F5F5F5F5F5F5F5F5F5F5F5F5F5F5F5F5F5F5F5F5F5F5F5F5F5F5
310
F5F5F5F5F5F5F5F5F5F5F5F5F5F5F5F5F5F5F5F5F5F5F5F5F5F5F5F5F5F5F5F5F5F5F5F5F5F5F5F5F5F5F5F5F5F5F5F5E2F5F5F5F5F5F5F5F5F5F5F5F5F5F5F5F5F5F5F5F5F5E2E2F5F5F5F5F5F5F5F5F5F5F5F5F5F5F5F5F5F5F5F5F5E2BEF5F52D2D2D2D2D2D2D2D2D2D2D2D2D2DE2E2E2E2E2E2E2E2E2E2E2E2E2E2E2E2
310
E2E2E2E2F5F5F5F5F5F5F5F5F5F5F5F5F5F5F5F5F5F5F5F5F5F5F5F5F5F5F5F5F5F5F5F5F5F5F5F5F5F5F5F5F5F5F5F5F5F5F5F5F5F5F5F5F5F5F5F5F5F5F5F5F5F5F5F5F5F5F5F5F5F5F5F5F5F5F5F5F5F5F5F5F5F5F5F5F5F5F5F5F5F5F5F5F5F5F5F5F5E2F5F5F5F5F5F5F5F5F5F5F5F5F5F5F5F5F5F5F5F5F5E2E2F5F5
310
F5F5E2F5F5F5F5F5F5F5F5F5F5F5F5F5F5F5F5E2DCF5F5F5F5F5F5F5E2F5F5F5F5F5F5F5E2F5F5F5F5F5F5F5F5F5F5F5F5F5F5F5F5F5F5F5F5F5F5F5F5F5F5F5F5F5F5F5F5F5F5F5F5F5F5F5F5F5F5F5F5F5F5F5F5F5F5F5F5F5F5F5F5F5F5F5F5F5F5F5F5F5F5F5F5F5F5F5F5F5F5F5F5F5F5F5F5F5F5F5F5F5F5F5F5F5F5
310
F5F5F5F5F5F5F5F5F5F5F5F5F5F5F5F5F5F5F5F5F5F5F5F5F5F5F5E2F5F5F5F5F5F5F5F5F5F5F5F5F5F5F5F5E2F5F5F5F5E2E2F5F5F5F5E2F5F5F5F5F5F5F5F5F5F5F5F5F5F5F5F5E2F5F5F5F5F5F5F5F5E2F5F5F5F5F5F5F5E2F5F5F5F5F5F5F5F5F5F5F5F5F5F5F5F5F5F5F5F5F5F5F5F5F5F5F5F5F5F5F5F5F5F5F5F5F5
310
F5F5F5F5F5F5F5F5F5F5F5F5F5F5F5F5F5F5F5F5F5F5F5F5F5F5F5F5F5F5F5F5F5F5F5F5F5F5F5F5F5F5F5F5F5F5F5F5F5F5F5F5F5F5F5F5F5F5F5F5F5F5F5F5F5F5F5F5F5F5F5F5F5F5F5F5F5F5F5F5E2F5F5F5F5F5F5F5F5F5F5F5F5F5F5F5F5E2F5F5F5F5E2E2F5F5F5F5E2F5F5F5F5F5F5F5F5F5F5F5F5F5F5F5F5E2E2
310
E2E2E2E2E2E2E2E2F5F5F5F5F5F5F5E2F5F5F5F5F5F5F5F5F5F5F5F5F5F5F5F5F5F5F5F5F5F5F5F5F5F5F5F5F5F5F5F5F5F5F5F5F5F5F5F5F5F5F5F5F5F5F5F5F5F5F5F5F5F5F5F5F5F5F5F5F5F5F5F5F5F5F5F5F5F5F5F5F5F5F5F5F5F5F5F5F5F5F5F5F5F5F5F5F5F5F5F5F5F5F5F5F5F5F5F5F5F5F5F5F5F5F5F5F5F5F5
310
F5F5F5F5F5F5E2F5F5F5F5F5F5F5F5F5F5F5F5F5F5F5F5E2F5F5F5F5E2E2F5F5F5F5E2F5F5F5F5F5F5F5F5F5F5F5F5F5F5F5F5E2E2E2E2F5F5F5F5F5F5F5F5F5F5F5F5F5E2F5F5F5F5F5F5F5F5F5F5F5F5F5F5F5F5F5F5F5F5F5F5F5F5F5F5F5F5F5F5F5F5F5F5F5F5F5F5F5F5F5F5F5F5F5F5F5F5F5F5F5F5F5F5F5F5F5F5
310
F5F5F5F5F5F5F5F5F5F5F5F5F5F5F5F5F5F5F5F5F5F5F5F5F5F5F5F5F5F5F5F5F5F5F5F5F5F5F5F5F5F5F5F5F5F5F5F5F5F5F5F5F5F5F5F5F5F5F5E2F5F5F5F5F5F5F5F5F5F5F5F5F5F5F5F5E2F5F5F5F5E2E2F5F5F5F5E2F5F5F5F5F5F5F5F5F5F5F5F5F5F5F5F5E2E2E2E2F5F5F5F5F5F5F5F5F5F5F5F5F5E2F5F5F5F5F5
310
F5F5F5F5F5F5F5F5F5F5F5F5F5F5F5F5F5F5F5F5F5F5F5F5F5F5F5F5F5F5F5F5F5F5F5F5F5F5F5F5F5F5F5F5F5F5F5F5F5F5F5F5F5F5F5F5F5F5F5F5F5F5F5F5F5F5F5F5F5F5F5F5F5F5F5F5F5F5F5F5F5F5F5F5F5F5F5F5F5F5F5F5F5F5F5F5F5F5F5F5F5F5F5F5F5F5F5F5F5F5F5F5E2F5F5F5F5F5F5F5F5F5F5F5F5F5F5
310
F5F5E2F5F5F5F5E2E2F5F5F5F5E2F5F5F5F5F5F5F5F5F5F5F5F5F5F5F5F5E2F5F5F5F5F5F5F5F5F5F5F5F5F5F5F5F5E2F5F5F5F5F5F5F5F5F5F5F5F5F5F5F5F5F5F5F5F5F5F5F5F5F5F5F5F5F5F5F5F5F5F5F5F5F5F5F5F5F5F5F5F5F5F5F5F5F5F5F5F5F5F5F5F5F5F5F5F5F5F5F5F5F5F5F5F5F5F5F5F5F5F5F5F5F5F5F5
310
F5F5F5F5F5F5F5F5F5F5F5F5F5F5F5F5F5F5F5F5F5F5F5F5F5F5F5F5F5F5F5F5F5F5F5F5F5F5E2F5F5F5F5F5F5F5F5F5F5F5F5F5F5F5F5E2F5F5F5F5E2E2F5F5F5F5E2F5F5F5F5F5F5F5F5F5F5F5F5F5F5F5F5E2E2E2E2E2E2E2E2E2E2E2E2E2E2E2E2E2E2F5F5F5F5F5F5F5F5F5F5F5F5F5F5F5F5F5F5F5F5F5F5F5F5F5F5
310
F5F5F5F5F5F5F5F5F5F5F5F5F5F5F5F5F5F5F5F5F5F5F5F5F5F5F5F5F5F5F5F5F5F5F5F5F5F5F5F5F5F5F5F5F5F5F5F5F5F5F5F5F5F5F5F5F5F5F5F5F5F5F5F5F5F5F5F5F5F5F5F5F5F5F5F5F5F5F5F5F5F5F5F5F5F5F5F5F5F5F5E2F5F5F5F5F5F5F5F5F5F5F5F5F5F5F5F5E2F5F5F5F5E2E2F5F5F5F5E2F5F5F5F5F5F5F5
310
F5F5F5F5F5F5F5F5F5E2E2E2F5F5F5F5F5F5F5F5F5F5F5F5F5F5F5F5F5F5F5F5F5F5F5F5F5F5F5F5F5F5F5F5F5F5F5F5F5F5F5F5F5F5F5F5F5F5F5F5F5F5F5F5F5F5F5F5F5F5F5F5F5F5F5F5F5F5F5F5F5F5F5F5F5F5F5F5F5F5F5F5F5F5F5F5F5F5F5F5F5F5F5F5F5F5F5F5F5F5F5F5F5F5F5F5F5F5F5F5F5F5F5F5F5F5F5
310
F5F5F5F5F5F5F5F5F5F5F5F5F5F5F5F5F5E2F5F5F5F5F5F5F5F5F5F5F5F5F5F5F5F5E2F5F5F5F5E2E2F5F5F5F5E2F5F5F5F5F5F5F5F5F5F5F5F5F5F5F5F5E2E2E2F5F5F5F5F5F5F5F5F5F5F5F5F5F5F5F5F5F5F5F5F5F5F5F5F5F5F5F5F5F5F5F5F5F5F5F5F5F5F5F5F5F5F5F5F5F5F5F5F5F5F5F5F5F5F5F5F5F5F5F5F5F5
310
F5F5F5F5F5F5F5F5F5F5F5F5F5F5F5F5F5F5F5F5F5F5F5F5F5F5F5F5F5F5F5F5F5F5F5F5F5F5F5F5F5F5F5F5F5F5F5F5F5F5F5F5F5F5F5F5F5F5F5F5F5F5F5F5F5F5F5F5F5F5E2F5F5F5F5F5F5F5F5F5F5F5F5F5F5F5F5E2F5F5F5F5E2E2F5F5F5F5E2F5F5F5F5F5F5F5F5F5F5F5F5F5F5F5F5E2F5F5F5F5F5F5F5F5F5F5F5
310
F5F5F5F5F5F5F5F5F5F5F5F5F5F5F5F5F5F5F5F5F5F5F5F5F5F5F5F5F5F5F5F5F5F5F5F5F5F5F5F5F5F5F5F5F5F5F5F5F5F5F5F5F5F5F5F5F5F5F5F5F5F5F5F5F5F5F5F5F5F5F5F5F5F5F5F5F5F5F5F5F5F5F5F5F5F5F5F5F5F5F5F5F5F5F5F5F5F5F5F5F5F5F5F5F5F5F5F5F5F5F5F5F5F5F5F5F5F5F5F5F5F5F5E2F5F5F5
310
F5F5F5F5F5F5F5F5F5F5F5F5F5E2F5F5F5F5E2E2F5F5F5F5E2F5F5F5F5F5F5F5F5F5F5F5F5F5F5F5F5E20F0F0F0F0F0F0F0F0F0F0FF5F5F5F5F5F5F5F5F5F5F5F5F5F5F5F5F5F5F5F5F5F5F5F5F5F5F5F5F5F5F5F5F5F5F5F5F5F5F5F5F5F5F5F5F5F5F5F5F5F5F5F5F5F5F5F5F5F5F5F5F5F5F5F5F5F5F5F5F5F5F5F5F5F5
310
F5F5F5F5F5F5F5F5F5F5F5F5F5F5F5F5F5F5F5F5F5F5F5F5F5F5F5F5F5F5F5F5F5F5F5F5F5F5F5F5F5F5F5F5F5F5F5F5F5E2F5F5F5F5F5F5F5F5F5F5F5F5F5F5F5F5E2F5F5F5F5E2E2F5F5F5F5E2F5F5F5F5F5F5F5F5F5F5F5F5F5F5F5F5E20F0F0F0F0F0F0F0F0F0FF5F5F5F5F5F5F5F5F5F5F5F5F5F5F5F5F5F5F5F5F5F5
310
F5F5F5F5F5F5F5F5F5F5F5F5F5F5F5F5F5F5F5F5F5F5F5F5F5F5F5F5F5F5F5F5F5F5F5F5F5F5F5F5F5F5F5F5F5F5F5F5F5F5F5F5F5F5F5F5F5F5F5F5F5F5F5F5F5F5F5F5F5F5F5F5F5F5F5F5F5F5F5F5F5F5F5F5F5F5F5F5F5F5F5F5F5F5F5F5F5F5F5F5F5F5E2F5F5F5F5F5F5F5F5F5F5F5F5F5F5F5F5E2F5F5F5F5E2E2F5
310
F5F5F5E2F5F5F5F5F5F5F5F5F5F5F5F5F5F5F5F5E2F5F5F5F5F5F5F5F5F5F5F5F5F5F5F5F5F5F5F5F5F5F5F5F5F5F5F5F5F5F5F5F5F5F5F5F5F5F5F5F5F5F5F5F5F5F5F5F5F5F5F5F5F5F5F5F5F5F5F5F5F5F5F5F5F5F5F5F5F5F5F5F5F5F5F5F5F5F5F5F5F5F5F5F5F5F5F5F5F5F5F5F5F5F5F5F5F5F5F5F5F5F5F5F5F5F5
310
F5F5F5F5F5F5F5F5F5F5F5F5F5F5F5F5F5F5F5F5F5F5F5F5F5F5F5F5E2F5F5F5F5F5F5F5F5F5F5F5F5F5F5F5F5E2F5F5F5F5E2E2F5F5F5F5E2F5F5F5F5F5F5F5F5F5F5F5F5F5F5F5F5E2F5F5F5F5F5F5F5F5F5F5F5F5F5F5F5F5F5F5F5F5F5F5F5F5F5F5F5F5F5F5F5F5F5F5F5F5F5F5F5F5F5F5F5F5F5F5F5F5F5F5F5F5F5
310
F5F5F5F5F5F5F5F5F5F5F5F5F5F5F5F5F5F5F5F5F5F5F5F5F5F5F5F5F5F5F5F5F5F5F5F5F5F5F5F5F5F5F5F5F5F5F5F5F5F5F5F5F5F5F5F5F5F5F5F5F5F5F5F5F5F5F5F5F5F5F5F5F5F5F5F5F5F5F5F5F5E2F5F5F5F5F5F5F5F5F5F5F5F5F5F5F5F5E2F5F5F5F5E2E2F5F5F5F5E2F5F5F5F5F5F5F5F5F5F5F5F5F5F5F5F5E2
310
F5F5F5F5F5F5F5F5F5F5F5F5F5F5F5F5F5F5F5F5F5F5F5F5F5F5F5F5F5F5F5F5F5F5F5F5F5F5F5F5F5F5F5F5F5F5F5F5F5F5F5F5F5F5F5F5F5F5F5F5F5F5F5F5F5F5F5F5F5F5F5F5F5F5F5F5F5F5F5F5F5F5F5F5F5F5F5F5F5F5F5F5F5F5F5F5F5F5F5F5F5F5F5F5F5F5F5F5F5F5F5F5F5F5F5F5F5F5F5F5F5F5F5F5F5F5F5
310
F5F5F5F5F5F5F5E2F5F5F5F5F5F5F5F5F5F5F5F5F5F5F5F5E2F5F5F5F5E2E2F5F5F5F5E2F5F5F5F5F5F5F5F5F5F5F5F5F5F5F5F5E2F5F5F5F5F5F5F5F5F5F5F5F5F5F5F5F5F5F5F5F5F5F5F5F5F5F5F5F5F5F5F5F5F5F5F5F5F5F5F5F5F5F5F5F5F5F5F5F5F5F5F5F5F5F5F5F5F5F5F5F5F5F5F5F5F5F5F5F5F5F5F5F5F5F5
310
F5F5F5F5F5F5F5F5F5F5F5F5F5F5F5F5F5F5F5F5F5F5F5F5F5F5F5F5F5F5F5F5F5F5F5F5F5F5F5F5F5F5F5F5F5F5F5F5F5F5F5F5F5F5F5F5F5F5F5F5E2F5F5F5F5F5F5F5F5F5F5F5F5F5F5F5F5E2F5F5F5F5E2E2F5F5F5F5F5F5F5F5F5F5F5F5F5F5F5F5F5F5F5F5F5E2F5F5F5F5F5F5F5F5F5F5F5F5F5F5F5F5F5F5F5F5F5
310
F5F5F5F5F5F5F5F5F5F5F5F5F5F5F5F5F5F5F5F5F5F5F5F5F5F5F5F5F5F5F5F5F5F5F5F5F5F5F5F5F5F5F5F5F5F5F5F5F5F5F5F5F5F5F5F5F5F5F5F5F5F5F5F5F5F5F5F5F5F5F5F5F5F5F5F5F5F5F5F5F5F5F5F5F5F5F5F5F5F5F5F5F5F5F5F5F5F5F5F5F5F5F5F5F5F5F5F5F5F5F5F5F5E2F5F5F5F5F5F5F5F5F5F5F5F5F5
310
F5F5F5F5F5F5F5F5E2E2F5F5F5F5F5F5F5F5F5F5F5F5F5F5F5F5F5F5F5F5F5E2F5F5F5F5F5F5F5F5F5F5F5F5F5F5F5F5F5F5F5F5F5F5F5F5F5F5F5F5F5F5F5F5F5F5F5F5F5F5F5F5F5F5F5F5F5F5F5F5F5F5F5F5F5F5F5F5F5F5F5F5F5F5F5F5F5F5F5F5F5F5F5F5F5F5F5F5F5F5F5F5F5F5F5F5F5F5F5F5F5F5F5F5F5F5F5
310
F5F5F5F5F5F5F5F5F5F5F5F5F5F5F5F5F5F5F5F5F5F5F5F5F5F5F5F5F5F5F5F5F5F5F5F5F5F5F5E2F5F5F5F5F5F5F5F5F5F5F5F5F5F5F5F5F5F5F5F5F5E2E2F5F5F5F5F5F5F5F5F5F5F5F5F5F5F5F5F5F5F5F5F5E2F5F5F5F5F5F5F5F5F5F5F5F5F5F5F5F5F5F5F5F5F5F5F5F5F5F5F5F5F5F5F5F5F5F5F5F5F5F5F5F5F5F5
310
F5F5F5F5F5F5F5F5F5F5F5F5F5F5F5F5F5F5F5F5F5F5F5F5F5F5F5F5F5F5F5F5F5F5F5F5F5F5F5F5F5F5F5F5F5F5F5F5F5F5F5F5F5F5F5F5F5F5F5F5F5F5F5F5F5F5F5F5F5F5F5F5F5F5F5F5F5F5F5F5F5F5F5F5F5F5F5F5F5F5F5F5E2F5F5F5F5F5F5F5F5F5F5F5F5F5F5F5F5F5F5F5F5F5E2E2F5F5F5F5F5F5F5F5F5F5F5
310
F5F5F5F5F5F5F5F5F5F5E2F5F5F5F5F5F5F5F5F5F5F5F5F5F5F5F5F5F5F5F5F5F5F5F5F5F5F5F5F5F5F5F5F5F5F5F5F5F5F5F5F5F5F5F5F5F5F5F5F5F5F5F5F5F5F5F5F5F5F5F5F5F5F5F5F5F5F5F5F5F5F5F5F5F5F5F5F5F5F5F5F5F5F5F5F5F5F5F5F5F5F5F5F5F5F5F5F5F5F5F5F5F5F5F5F5F5F5F5F5F5F5F5F5F5F5F5
310
F5F5F5F5F5F5F5F5F5F5F5F5F5F5F5F5F5F5E2F5F5F5F5F5F5F5F5F5F5F5F5F5F5F5F5F5F5F5F5F5E2E2F5F5F5F5F5F5F5F5F5F5F5F5F5F5F5F5F5F5F5F5F5E2F5F5F5F5F5F5F5F5F5F5F5F5F5F5F5F5F5F5F5F5F5F5F5F5F5F5F5F5F5F5F5F5F5F5F5F5F5F5F5F5F5F5F5F5F5F5F5F5F5F5F5F5F5F5F5F5F5F5F5F5F5F5F5
310
F5F5F5F5F5F5F5F5F5F5F5F5F5F5F5F5F5F5F5F5F5F5F5F5F5F5F5F5F5F5F5F5F5F5F5F5F5F5F5F5F5F5F5F5F5F5F5F5F5F5F5F5F5F5F5F5F5F5F5F5F5F5F5F5F5F5F5F5F5F5F5E2F5F5F5F5F5F5F5F5F5F5F5F5F5F5F5F5F5F5F5F5F5E2E2F5F5F5F5F5F5F5F5F5F5F5F5F5F5F5F5F5F5F5F5F5E2F5F5F5F5F5F5F5F5F5F5
310
F5F5F5F5F5F5F5F5F5F5F5F5F5F5F5F5F5F5F5F5F5F5F5F5F5F5F5F5F5F5F5F5F5F5F5F5F5F5F5F5F5F5F5F5F5F5F5F5F5F5F5F5F5F5F5F5F5F5F5F5F5F5F5F5F5F5F5F5F5F5F5F5F5F5F5F5F5F5F5F5F5F5F5F5F5F5F5F5F5F5F5F5F5F5F5F5F5F5F5F5F5F5F5F5F5F5F5F5F5F5F5F5F5F5F5F5F5F5F5F5F5F5F5F5E2F5F5
310
F5F5F5F5F5F5F5F5F5F5F5F5F5F5F5F5F5F5F5E2E2F5F5F5F5F5F5F5F5F5F5F5F5F5F5F5F5F5F5F5F5F5E2F5F5F5F5F5F5F5F5F5F5F5F5F5F5F5F5F5F5F5F5F5F5F5F5F5F5F5F5F5F5F5F5F5F5F5F5F5F5F5F5F5F5F5F5F5F5F5F5F5F5F5F5F5F5F5F5F5F5F5F5F5F5F5F5F5F5F5F5F5F5F5F5F5F5F5F5F5F5F5F5F5F5F5F5
310
F5F5F5F5F5F5F5F5F5F5F5F5F5F5F5F5F5F5F5F5F5F5F5F5F5F5F5F5F5F5F5F5F5F5F5F5F5F5F5F5F5F5F5F5F5F5F5F5F5F5E2F5F5F5F5F5F5F5F5F5F5F5F5F5F5F5F5F5F5F5F5F5E2E2F5F5F5F5F5F5F5F5F5F5F5F5F5F5F5F5F5F5F5F5F5E2F5F5F5F5F5F5F5F5F5F5F5F5F5F5F5F5F5F5F5F5F5F5F5F5F5F5F5F5F5F5F5
310
F5F5F5F5F5F5F5F5F5F5F5F5F5F5F5F5F5F5F5F5F5F5F5F5F5F5F5F5F5F5F5F5F5F5F5F5F5F5F5F5F5F5F5F5F5F5F5F5F5F5F5F5F5F5F5F5F5F5F5F5F5F5F5F5F5F5F5F5F5F5F5F5F5F5F5F5F5F5F5F5F5F5F5F5F5F5F5F5F5F5F5F5F5F5F5F5F5F5F5F5F5F5F5E2F5F5F5F5F5F5F5F5F5F5F5F5F5F5F5F5F5F5F5F5F5E2E2
310
F5F5F5F5F5F5F5F5F5F5F5F5F5F5F5F5F5F5F5F5F5E2F5F5F5F5F5F5F5F5F5F5F5F5F5F5F5F5F5F5F5F5F5F5F5F5F5F5F5F5F5F5F5F5F5F5F5F5F5F5F5F5F5F5F5F5F5F5F5F5F5F5F5F5F5F5F5F5F5F5F5F5F5F5F5F5F5F5F5F5F5F5F5F5F5F5F5F5F5F5F5F5F5F5F5F5F5F5F5F5F5F5F5F5F5F5F5F5F5F5F5F5F5F5F5F5F5
310
F5F5F5F5F5F5F5F5F5F5F5F5F5F5F5F5F5F5F5F5F5F5F5F5F5F5F5F5F5E2F5F5F5F5F5F5F5F5F5F5F5F5F5F5F5F5F5F5F5F5F5E2E2F5F5F5F5F5F5F5F5F5F5F5F5F5F5F5F5F5F5F5F5F5E2F5F5F5F5F5F5F5F5F5F5F5F5F5F5F5F5F5F5F5F5F5F5F5F5F5F5F5F5F5F5F5F5F5F5F5F5F5F5F5F5F5F5F5F5F5F5F5F5F5F5F5F5
310
F5F5F5F5F5F5F5F5F5F5F5F5F5F5F5F5F5F5F5F5F5F5F5F5F5F5F5F5F5F5F5F5F5F5F5F5F5F5F5F5F5F5F5F5F5F5F5F5F5F5F5F5F5F5F5F5F5F5F5F5F5F5F5F5F5F5F5F5F5F5F5F5F5F5F5F5F5F5F5F5F5F5E2F5F5F5F5F5F5F5F5F5F5F5F5F5F5F5F5F5F5F5F5F5E2E2F5F5F5F5E2F5F5F5F5F5F5F5F5F5F5F5F5F5F5F5F5
310
E2F5F5F5F5F5F5F5F5F5F5F5F5F5F5F5F5F5F5F5F5F5F5F5F5F5F5F5F5F5F5F5F5F5F5F5F5F5F5F5F5F5F5F5F5F5F5F5F5F5F5F5F5F5F5F5F5F5F5F5F5F5F5F5F5F5F5F5F5F5F5F5F5F5F5F5F5F5F5F5F5F5F5F5F5F5F5F5F5F5F5F5F5F5F5F5F5F5F5F5F5F5F5F5F5F5F5F5F5F5F5F5F5F5F5F5F5F5F5F5F5F5F5F5F5F5F5
310
F5F5F5F5F5F5F5F5E2F5F5F5F5F5F5F5F5F5F5F5F5F5F5F5F5E2F5F5F5F5E2E2F5F5F5F5E2F5F5F5F5F5F5F5F5F5F5F5F5F5F5F5F5E2F5F5F5F5F5F5F5F5F5F5F5F5F5F5F5F5F5F5F5F5F5F5F5F5F5F5F5F5F5F5F5F5F5F5F5F5F5F5F5F5F5F5F5F5F5F5F5F5F5F5F5F5F5F5F5F5F5F5F5F5F5F5F5F5F5F5F5F5F5F5F5F5F5
310
F5F5F5F5F5F5F5F5F5F5F5F5F5F5F5F5F5F5F5F5F5F5F5F5F5F5F5F5F5F5F5F5F5F5F5F5F5F5F5F5F5F5F5F5F5F5F5F5F5F5F5F5F5F5F5F5F5F5F5F5F5E2F5F5F5F5F5F5F5F5F5F5F5F5F5F5F5F5E2F5F5F5F5E2E2F5F5F5F5E2F5F5F5F5F5F5F5F5F5F5F5F5F5F5F5F5E2F5F5F5F5F5F5F5F5F5F5F5F5F5F5F5F5F5F5F5F5
310
F5F5F5F5F5F5F5F5F5F5F5F5F5F5F5F5F5F5F5F5F5F5F5F5F5F5F5F5F5F5F5F5F5F5F5F5F5F5F5F5F5F5F5F5F5F5F5F5F5F5F5F5F5F5F5F5F5F5F5F5F5F5F5F5F5F5F5F5F5F5F5F5F5F5F5F5F5F5F5F5F5F5F5F5F5F5F5F5F5F5F5F5F5F5F5F5F5F5F5F5F5F5F5F5F5F5F5F5F5F5F5F5F5F5E2F5F5F5F5F5F5F5F5F5F5F5F5
310
F5F5F5F5E2F5F5F5F5E2E2F5F5F5F5E2F5F5F5F5F5F5F5F5F5F5F5F5F5F5F5F5E2F5F5F5F5F5F5F5F5F5F5F5F5F5F5F5F5F5F5F5F5F5F5F5F5F5F5F5F5F5F5F5F5F5F5F5F5F5F5F5F5F5F5F5F5F5F5F5F5F5F5F5F5F5F5F5F5F5F5F5F5F5F5F5F5F5F5F5F5F5F5F5F5F5F5F5F5F5F5F5F5F5F5F5F5F5F5F5F5F5F5F5F5F5F5
310
F5F5F5F5F5F5F5F5F5F5F5F5F5F5F5F5F5F5F5F5F5F5F5F5F5F5F5F5F5F5F5F5F5F5F5F5F5F5F5F5E2F5F5F5F5F5F5F5F5F5F5F5F5F5F5F5F5E2F5F5F5F5E2E2F5F5F5F5E2F5F5F5F5F5F5F5F5F5F5F5F5F5F5F5F5E2F5F5F5F5F5F5F5F5F5F5F5F5F5F5F5F5F5F5F5F5F5F5F5F5F5F5F5F5F5F5F5F5F5F5F5F5F5F5F5F5F5
310
F5F5F5F5F5F5F5F5F5F5F5F5F5F5F5F5F5F5F5F5F5F5F5F5F5F5F5F5F5F5F5F5F5F5F5F5F5F5F5F5F5F5F5F5F5F5F5F5F5F5F5F5F5F5F5F5F5F5F5F5F5F5F5F5F5F5F5F5F5F5F5F5F5F5F5F5F5F5F5F5F5F5F5F5F5F5F5F5F5F5F5F5F5E2F5F5F5F5F5F5F5F5F5F5F5F5F5F5F5F5E2F5F5F5F5E2E2F5F5F5F5E2F5F5F5F5F5
310
F5F5F5F5F5F5F5F5F5F5F5E2F5F5F5F5F5F5F5F5F5F5F5F5F5F5F5F5F5F5F5F5F5F5F5F5F5F5F5F5F5F5F5F5F5F5F5F5F5F5F5F5F5F5F5F5F5F5F5F5F5F5F5F5F5F5F5F5F5F5F5F5F5F5F5F5F5F5F5F5F5F5F5F5F5F5F5F5F5F5F5F5F5F5F5F5F5F5F5F5F5F5F5F5F5F5F5F5F5F5F5F5F5F5F5F5F5F5F5F5F5F5F5F5F5F5F5
310
F5F5F5F5F5F5F5F5F5F5F5F5F5F5F5F5F5F5F5E2F5F5F5F5F5F5F5F5F5F5F5F5F5F5F5F5E2F5F5F5F5E2E2F5F5F5F5E2F5F5F5F5F5F5F5F5F5F5F5F5F5F5F5F5E2F5F5F5F5F5F5F5F5F5F5F5F5F5F5F5F5F5F5F5F5F5F5F5F5F5F5F5F5F5F5F5F5F5F5F5F5F5F5F5F5F5F5F5F5F5F5F5F5F5F5F5F5F5F5F5F5F5F5F5F5F5F5
310
F5F5F5F5F5F5F5F5F5F5F5F5F5F5F5F5F5F5F5F5F5F5F5F5F5F5F5F5F5F5F5F5F5F5F5F5F5F5F5F5F5F5F5F5F5F5F5F5F5F5F5F5F5F5F5F5F5F5F5F5F5F5F5F5F5F5F5F5F5F5F5F5E2F5F5F5F5F5F5F5F5F5F5F5F5F5F5F5F5E2F5F5F5F5E2E2F5F5F5F5E2F5F5F5F5F5F5F5F5F5F5F5F5F5F5F5F5E2F5F5F5F5F5F5F5F5F5
310
F5F5F5F5F5F5F5F5F5F5F5F5F5F5F5F5F5F5F5F5F5F5F5F5F5F5F5F5F5F5F5F5F5F5F5F5F5F5F5F5F5F5F5F5F5F5F5F5F5F5F5F5F5F5F5F5F5F5F5F5F5F5F5F5F5F5F5F5F5F5F5F5F5F5F5F5F5F5F5F5F5F5F5F5F5F5F5F5F5F5F5F5F5F5F5F5F5F5F5F5F5F5F5F5F5F5F5F5F5F5F5F5F5F5F5F5F5F5F5F5F5F5F5F5F5E2F5
310
F5F5F5F5F5F5F5F5F5F5F5F5F5F5F5E2F5F5F5F5E2E2F5F5F5F5E2F5F5F5F5F5F5F5F5F5F5F5F5F5F5F5F5E2F5F5F5F5F5F5F5F5F5F5F5F5F5F5F5F5F5F5F5F5F5F5F5F5F5F5F5F5F5F5F5F5F5F5F5F5F5F5F5F5F5F5F5F5F5F5F5F5F5F5F5F5F5F5F5F5F5F5F5F5F5F5F5F5F5F5F5F5F5F5F5F5F5F5F5F5F5F5F5F5F5F5F5
310
F5F5F5F5F5F5F5F5F5F5F5F5F5F5F5F5F5F5F5F5F5F5F5F5F5F5F5F5F5F5F5F5F5F5F5F5F5F5F5F5F5F5F5F5F5F5F5F5F5F5F5E2F5F5F5F5F5F5F5F5F5F5F5F5F5F5F5F5E2F5F5F5F5E2E2F5F5F5F5E2F5F5F5F5F5F5F5F5F5F5F5F5F5F5F5F5E2F5F5F5F5F5F5F5F5F5F5F5F5F5F5F5F5F5F5F5F5F5F5F5F5F5F5F5F5F5F5
310
F5F5F5F5F5F5F5F5F5F5F5F5F5F5F5F5F5F5F5F5F5F5F5F5F5F5F5F5F5F5F5F5F5F5F5F5F5F5F5F5F5F5F5F5F5F5F5F5F5F5F5F5F5F5F5F5F5F5F5F5F5F5F5F5F5F5F5F5F5F5F5F5F5F5F5F5F5F5F5F5F5F5F5F5F5F5F5F5F5F5F5F5F5F5F5F5F5F5F5F5F5F5F5F5E2F5F5F5F5F5F5F5F5F5F5F5F5F5F5F5F5E2F5F5F5F5E2
310
E2F5F5F5F5E2F5F5F5F5F5F5F5F5F5F5F5F5F5F5F5F5E2F5F5F5F5F5F5F5F5F5F5F5F5F5F5F5F5F5F5F5F5F5F5F5F5F5F5F5F5F5F5F5F5F5F5F5F5F5F5F5F5F5F5F5F5F5F5F5F5F5F5F5F5F5F5F5F5F5F5F5F5F5F5F5F5F5F5F5F5F5F5F5F5F5F5F5F5F5F5F5F5F5F5F5F5F5F5F5F5F5F5F5F5F5F5F5F5F5F5F5F5F5F5F5F5
310
F5F5F5F5F5F5F5F5F5F5F5F5F5F5F5F5F5F5F5F5F5F5F5F5F5F5F5F5F5F5E2F5F5F5F5F5F5F5F5F5F5F5F5F5F5F5F5E2F5F5F5F5E2E2F5F5F5F5E2F5F5F5F5F5F5F5F5F5F5F5F5F5F5F5F5E2F5F5F5F5F5F5F5F5F5F5F5F5F5F5F5F5F5F5F5F5F5F5F5F5F5F5F5F5F5F5F5F5F5F5F5F5F5F5F5F5F5F5F5F5F5F5F5F5F5F5F5
310
F5F5F5F5F5F5F5F5F5F5F5F5F5F5F5F5F5F5F5F5F5F5F5F5F5F5F5F5F5F5F5F5F5F5F5F5F5F5F5F5F5F5F5F5F5F5F5F5F5F5F5F5F5F5F5F5F5F5F5F5F5F5F5F5F5F5F5F5F5F5F5F5F5F5F5F5F5F5F5F5F5F5F5E2F5F5F5F5F5F5F5F5F5F5F5F5F5F5F5F5E2F5F5F5F5E2E2F5F5F5F5E2F5F5F5F5F5F5F5F5F5F5F5F5F5F5F5
310
F5E2F5F5F5F5F5F5F5F5F5F5F5F5F5F5F5F5F5F5F5F5F5F5F5F5F5F5F5F5F5F5F5F5F5F5F5F5F5F5F5F5F5F5F5F5F5F5F5F5F5F5F5F5F5F5F5F5F5F5F5F5F5F5F5F5F5F5F5F5F5F5F5F5F5F5F5F5F5F5F5F5F5F5F5F5F5F5F5F5F5F5F5F5F5F5F5F5F5F5F5F5F5F5F5F5F5F5F5F5F5F5F5F5F5F5F5F5F5F5F5F5F5F5F5F5F5
310
F5F5F5F5F5F5F5F5F5E2F5F5F5F5F5F5F5F5F5F5F5F5F5F5F5F5E2F5F5F5F5E2E2F5F5F5F5E2F5F5F5F5F5F5F5F5F5F5F5F5F5F5F5F5E2F5F5F5F5F5F5F5F5F5F5F5F5F5F5F5F5F5F5F5F5F5F5F5F5F5F5F5F5F5F5F5F5F5F5F5F5F5F5F5F5F5F5F5F5F5F5F5F5F5F5F5F5F5F5F5F5F5F5F5F5F5F5F5F5F5F5F5F5F5F5F5F5
310
F5F5F5F5F5F5F5F5F5F5F5F5F5F5F5F5F5F5F5F5F5F5F5F5F5F5F5F5F5F5F5F5F5F5F5F5F5F5F5F5F5F5F5F5F5F5F5F5F5F5F5F5F5F5F5F5F5F5F5F5F5F5E2F5F5F5F5F5F5F5F5F5F5F5F5F5F5F5F5E2F5F5F5F5E2E2F5F5F5F5E2F5F5F5F5F5F5F5F5F5F5F5F5F5F5F5F5E2F5F5F5F5F5F5F5F5F5F5F5F5F5F5F5F5F5F5F5
310
F5F5F5F5F5F5F5F5F5F5F5F5F5F5F5F5F5F5F5F5F5F5F5F5F5F5F5F5F5F5F5F5F5F5F5F5F5F5F5F5F5F5F5F5F5F5F5F5F5F5F5F5F5F5F5F5F5F5F5F5F5F5F5F5F5F5F5F5F5F5F5F5F5F5F5F5F5F5F5F5F5F5F5F5F5F5F5F5F5F5F5F5F5F5F5F5F5F5F5F5F5F5F5F5F5F5F5F5F5F5F5F5F5F5F5E2F5F5F5F5F5F5F5F5F5F5F5
310
F5F5F5F5F5E2F5F5F5F5E2E2F5F5F5F5E2F5F5F5F5F5F5F5F5F5F5F5F5F5F5F5F5E2F5F5F5F5F5F5F5F5F5F5F5F5F5F5F5F5F5F5F5F5F5F5F5F5F5F5F5F5F5F5F5F5F5F5F5F5F5F5F5F5F5F5F5F5F5F5F5F5F5F5F5F5F5F5F5F5F5F5F5F5F5F5F5F5F5F5F5F5F5F5F5F5F5F5F5F5F5F5F5F5F5F5F5F5F5F5F5F5F5F5F5F5F5
310
F5F5F5F5F5F5F5F5F5F5F5F5F5F5F5F5F5F5F5F5F5F5F5F5F5F5F5F5F5F5F5F5F5F5F5F5F5F5F5F5F5E2F5F5F5F5F5F5F5F5F5F5F5F5F5F5F5F5E2F5F5F5F5E2E2F5F5F5F5F5F5F5F5F5F5F5F5F5F5F5F5F5F5F5F5F5E2F5F5F5F5F5F5F5F5F5F5F5F5F5F5F5F5F5F5F5F5F5F5F5F5F5F5F5F5F5F5F5F5F5F5F5F5F5F5F5F5
310
F5F5F5F5F5F5F5F5F5F5F5F5F5F5F5F5F5F5F5F5F5F5F5F5F5F5F5F5F5F5F5F5F5F5F5F5F5F5F5F5F5F5F5F5F5F5F5F5F5F5F5F5F5F5F5F5F5F5F5F5F5F5F5F5F5F5F5F5F5F5F5F5F5F5F5F5F5F5F5F5F5F5F5F5F5F5F5F5F5F5F5F5F5F5E2F5F5F5F5F5F5F5F5F5F5F5F5F5F5F5F5F5F5F5F5F5E2E2F5F5F5F5F5F5F5F5F5
310
F5F5F5F5F5F5F5F5F5F5F5F5E2F5F5F5F5F5F5F5F5F5F5F5F5F5F5F5F5F5F5F5F5F5F5F5F5F5F5F5F5F5F5F5F5F5F5F5F5F5F5F5F5F5F5F5F5F5F5F5F5F5F5F5F5F5F5F5F5F5F5F5F5F5F5F5F5F5F5F5F5F5F5F5F5F5F5F5F5F5F5F5F5F5F5F5F5F5F5F5F5F5F5F5F5F5F5F5F5F5F5F5F5F5F5F5F5F5F5F5F5F5F5F5F5F5F5
310
F5F5F5F5F5F5F5F5F5F5F5F5F5F5F5F5F5F5F5F5E2F5F5F5F5F5F5F5F5F5F5F5F5F5F5F5F5F5F5F5F5F5E2E2F5F5F5F5F5F5F5F5F5F5F5F5F5F5F5F5F5F5F5F5F5E2F5F5F5F5F5F5F5F5F5F5F5F5F5F5F5F5F5F5F5F5F5F5F5F5F5F5F5F5F5F5F5F5F5F5F5F5F5F5F5F5F5F5F5F5F5F5F5F5F5F5F5F5F5F5F5F5F5F5F5F5F5
310
F5F5F5F5F5F5F5F5F5F5F5F5F5F5F5F5F5F5F5F5F5F5F5F5F5F5F5F5F5F5F5F5F5F5F5F5F5F5F5F5F5F5F5F5F5F5F5F5F5F5F5F5F5F5F5F5F5F5F5F5F5F5F5F5F5F5F5F5F5F5F5F5F5E2F5F5F5F5F5F5F5F5F5F5F5F5F5F5F5F5F5F5F5F5F5E2E2F5F5F5F5F5F5F5F5F5F5F5F5F5F5F5F5F5F5F5F5F5E2F5F5F5F5F5F5F5F5
310
F5F5F5F5F5F5F5F5F5F5F5F5F5F5F5F5F5F5F5F5F5F5F5F5F5F5F5F5F5F5F5F5F5F5F5F5F5F5F5F5F5F5F5F5F5F5F5F5F5F5F5F5F5F5F5F5F5F5F5F5F5F5F5F5F5F5F5F5F5F5F5F5F5F5F5F5F5F5F5F5F5F5F5F5F5F5F5F5F5F5F5F5F5F5F5F5F5F5DCF5F5F5F5F5F5F5F5F5F5F5F5F5F5F5F5F5F5F5F5F5F5F5F5F5F5F5E2
310
F5F5F5F5F5F5F5F5F5F5F5F5F5F5F5F5F5F5F5F5F5E2E2F5F5F5F5F5F5F5F5F5F5F5F5F5F5F5F5F5F5F5F5F5E2F5F5F5F5F5F5F5F5F5F5F5F5F5F5F5F5F5F5F5F5F5F5F5F5F5F5F5F5F5F5F5F5F5F5F5F5F5F5F5F5F5F5F5F5F5F5F5F5F5F5F5F5F5F5F5F5F5F5F5F5F5F5F5F5F5F5F5F5F5F5F5F5F5F5F5F5F5F5F5F5F5E2
310
ECE2E2E2E2E2E2E2E2E2E2E2E2E2E2E2E2E2E2E2E2E2E2E2DCE2E2E2E2E2E2E2E2E2E2E2E2E2E2E2E2E2E2E2E2E2E2E2ECE2F5F5E2F5F5F5F5F5F5F5F5F5F5F5F5F5F5F5F5F5F5F5F5F5E2E2F5F5F5F5F5F5F5F5F5F5F5F5F5F5F5F5F5F5F5F5F5E2F5F5F5F5F5F5F5F5F5F5F5F5F5F5F5F5F5F5F5F5F5F5F5F5F5F5F5F5F5
310
F5F5F5F5F5F5F5F5F5F5F5F5F5F5F5F5F5F5F5F5F5F5F5F5F5F5F5F5F5F5F5F5F5F5F5F5F5F5F5F5F5F5F5F5F5F5F5F5F5F5F5E2F5F5ECF5F5F5F5F5F5F5F5F5F5F5F5F5F5F5F5F5F5F5F5F5F5DCF5F5F5F5F5F5F5F5F5F5F5F5F5F5F5F5F5F5F5F5F5F5ECF5F5E2F5E2F5F5F5F5F5F5F5F5F5F5F5F5F5F5F5F5F5F5F5F5F5
310
E2E2F5F5F5F5F5F5F5F5F5F5F5F5F5F5F5F5F5F5F5F5F5E2F5F5F5F5F5F5F5F5F5F5F5F5F5F5F5F5F5F5F5F5F5F5F5F5F5F5F5F5F5F5F5F5F5F5F5F5F5F5F5F5F5F5F5F5F5F5F5F5F5F5F5F5F5F5F5F5F5F5F5F5F5F5F5F5F5F5F5F5F5F5F5F5F5F5F5F5F5F5F5E2F5F5F5F5ECF5F5F5F5F5F5F5F5F5F5F5F5F5F5F5F5F5F5
310
F5F5F5DCF5F5F5F5F5F5F5F5F5F5F5F5F5F5F5F5F5F5F5F5F5ECF5F5F5F5E2E2F5F5F5F5F5F5F5F5F5F5F5F5F5F5F5F5F5F5F5F5F5E2E2F5F5F5F5F5F5F5F5F5F5F5F5F5F5F5F5F5F5F5F5F5E2F5F5F5F5F5F5F5F5F5F5F5F5F5F5F5F5F5F5F5F5F5F5F5F5F5F5F5F5F5F5F5F5F5F5F5F5F5F5F5F5F5F5F5F5F5F5F5F5F5F5
310
F5F5F5F5F5F5F5F5F5F5F5F5F5F5F5F5F5F5F5F5F5F5F5F5F5F5F5F5E2E2E2E2E2E2ECE2E2E2E2E2E2E2E2E2ECECECECECECE2ECECECECECDCECECECECECE2ECECECECECECE2E2E2E2E2E2E2E2ECE2E2E2E2E2E2E2F5F5F5F5F5F5F5F5F5F5F5F5F5F5F5F5F5F5F5F5F5E2E2F5F5F5F5F5F5F5F5F5F5F5F5F5F5F5F5F5F5F5
310
F5F5E2F5F5F5F5F5F5F5F5F5F5F5F5F5F5F5F5F5F5F5F5F5F5F5F5F5F5F5F5F5F5F5F5F5F5F5F5F5F5F5F5F5F5F5F5F5F5F5F5F5F5F5F5F5F5F5F5F5F5F5F5F5F5F5F5F5F5F5F5F5F5F5F5F5F5F5F5F5F5E2F5F5F5F5F5F5F5F5F5F5F5F5F5F5F5ECF5F5F5F5F5F5F5F5F5F5F5DCF5F5F5F5F5F5F5F5F5F5ECF5F5F5F5F5F5
310
F5F5F5F5F5F5F5F5F5E2E2F5F5F5F5F5F5F5F5F5F5F5F5F5F5F5F5F5F5F5F5F5E2E2F5F5F5F5E2F5F5F5F5F5F5F5F5F5F5F5F5F5F5F5F5E2F5F5F5F5F5F5F5F5F5F5F5F5F5F5F5F5F5F5F5F5F5F5F5F5F5F5F5F5F5F5F5F5F5F5F5F5F5F5F5F5F5F5F5F5F5F5F5F5F5F5F5F5F5F5F5F5F5F5F5F5F5F5F5F5F5F5F5F5F5F5F5
310
F5F5F5F5F5F5F5E2F5F5F5F5F5F5F5F5F5F5F5F5F5F5F5ECECECECECECECECECECECECECECECECECECECECECECECECF5F5F5F5F5F5F5F5F5F5F5F5F5F5F5E2E2F5F5F5F5F5F5F5F5F5F5F5F5F5F5F5F5E2F5F5F5F5E2E2F5F5F5F5E2F5F5F5F5F5F5F5F5F5F5F5F5F5F5F5F5E2F5F5F5F5F5F5F5F5F5F5F5F5F5F5F5F5F5F5
310
F5F5F5F5F5F5F5F5F5F5F5F5F5F5F5F5F5F5F5F5F5F5F5F5F5F5F5F5F5F5F5F5F5F5F5F5F5F5F5F5F5F5F5F5F5F5F5F5F5F5F5F5F5F5F5F5F5F5F5F5F5E2F5F5F5F5F5F5F5F5F5F5F5F5F5F5F5F5F5F5F5ECF5F5F5F5F5F5DCF5F5F5F5F5ECF5F5F5F5F5F5F5F5F5F5F5F5F5F5F5F5F5F5F5F5E2E2F5F5F5F5F5F5F5F5F5F5
310
F5F5F5F5F5F5E2F5F5F5F5E2E2F5F5F5F5E2F5F5F5F5F5F5F5F5F5F5F5F5F5F5F5F5E2F5F5F5F5F5F5F5F5F5F5F5F5F5F5F5F5F5F5F5F5F5F5F5F5F5F5F5F5F5F5F5F5F5F5F5F5F5F5F5F5F5F5F5F5F5F5F5F5F5F5F5F5F5F5F5F5F5F5F5F5F5F5F5F5F5F5F5F5F5F5F5F5F5F5F5F5F5F5F5F5E2F5F5F5F5F5F5F5F5F5F5F5
310
F5F5F5F5F5ECECECECECECF5ECECECECECF5ECECECECECF5F5F5F5F5F5F5F5F5F5F5F5F5F5F5F5F5E2F5E2F5F5F5F5F5F5F5F5F5F5F5F5F5F5F5F5E2F5F5F5F5E2E2F5F5F5F5E2F5F5F5F5F5F5F5F5F5F5F5F5F5F5F5F5E2F5F5F5F5F5F5F5F5F5F5F5F5F5F5F5F5F5F5F5F5F5F5F5F5F5F5F5F5F5F5F5F5F5F5F5F5F5F5F5
310
F5F5F5F5F5F5F5F5F5F5F5F5F5F5F5F5F5F5F5F5F5F5F5F5F5F5F5F5F5F5F5F5F5F5F5F5F5F5F5F5F5F5E2E2F5F5F5F5F5F5F5F5F5F5F5F5F5F5ECF5F5F5F5F5F5F5F5DCF5F5F5F5F5F5F5ECF5F5F5F5F5F5F5F5F5F5F5F5F5F5F5E2E2F5F5E2F5F5F5F5F5F5F5F5F5F5F5F5F5F5F5F5E2F5F5F5F5E2E2F5F5F5F5E2F5F5F5
310
F5F5F5F5F5F5F5F5F5F5F5F5F5E2F5F5F5F5F5F5F5F5F5F5F5F5F5F5F5F5F5F5F5F5F5F5F5F5F5F5F5F5F5F5F5F5F5F5F5F5F5F5F5F5F5F5F5F5F5F5F5F5F5F5F5F5F5F5F5F5F5F5F5F5F5F5F5F5F5F5F5F5F5F5F5F5F5F5F5F5F5F5F5F5F5F5F5E2F5F5F5F5F5F5F5F5F5F5F5F5F5ECF5F5F5F5F5F5F5F5DCF5F5F5F5F5F5
310
F5ECF5F5F5F5F5F5F5F5F5F5F5F5F5E2E2F5F5F5F5E2F5F5F5F5F5F5F5F5F5F5F5F5F5F5F5F5E2F5F5F5F5E2E2F5F5F5F5E2F5F5F5F5F5F5F5F5F5F5F5F5F5F5F5F5E2F5F5F5F5F5F5F5F5F5F5F5F5F5F5F5F5F5F5F5F5F5F5F5F5F5F5F5F5F5F5F5F5F5F5F5F5F5F5F5F5F5F5F5F5F5F5F5F5F5F5F5F5F5F5F5F5F5F5F5F5
310
F5F5F5F5F5F5F5F5F5F5F5F5F5F5F5F5F5F5F5F5F5F5F5F5E2E2F5F5F5F5F5F5F5F5F5F5F5ECF5F5F5F5F5F5F5F5DCF5F5F5F5F5F5F5ECF5F5F5F5F5F5F5F5F5F5F5F5E2F5F5F5F5F5F5E2F5F5F5F5F5F5F5F5F5F5F5F5F5F5F5F5E2F5F5F5F5E2E2F5F5F5F5E2F5F5F5F5F5F5F5F5F5F5F5F5F5F5F5F5E2F5F5F5F5F5F5F5
310
F5F5F5F5F5F5F5F5F5F5F5F5F5F5F5F5F5F5F5F5F5F5F5F5F5F5F5F5F5F5F5F5F5F5F5F5F5F5F5F5F5F5F5F5F5F5F5F5F5F5F5F5F5F5F5F5F5F5F5F5F5F5F5F5F5F5F5F5F5F5F5F5F5F5F5F5F5F5F5E2F5F5F5F5F5F5F5F5F5F5ECF5F5F5F5F5F5F5F5DCF5F5F5F5F5F5F5ECF5F5F5F5F5F5F5F5F5F5E2E2F5F5F5F5F5F5F5
310
E2F5F5F5F5F5F5F5F5F5F5F5F5F5F5F5F5E2F5F5F5F5E2E2F5F5F5F5E2F5F5F5F5F5F5F5F5F5F5F5F5F5F5F5F5E2F5F5F5F5F5F5F5F5F5F5F5F5F5F5F5F5F5F5F5F5F5F5F5F5F5F5F5F5F5F5F5F5F5F5F5F5F5F5F5F5F5F5F5F5F5F5F5F5F5F5F5F5F5F5F5F5F5F5F5F5F5F5F5F5F5F5F5F5F5F5F5F5F5F5F5F5F5F5F5F5F5
310
F5F5F5F5F5F5E2E2F5F5F5F5F5F5F5F5F5ECECECECECF5ECECECECECF5ECECECECECF5F5F5F5F5F5F5F5E2E2F5F5F5F5F5F5F5F5F5E2F5F5F5F5F5F5F5F5F5F5F5F5F5F5F5F5E2F5F5F5F5E2E2F5F5F5F5E2F5F5F5F5F5F5F5F5F5F5F5F5F5F5F5F5E2F5F5F5F5F5F5F5F5F5F5F5F5F5F5F5F5F5F5F5F5F5F5F5F5F5F5F5F5
310
F5F5F5F5F5F5F5F5F5F5F5F5F5F5F5F5F5F5F5F5F5F5F5F5F5F5F5F5F5F5F5F5F5F5F5F5F5F5F5F5F5F5F5F5F5F5F5F5F5F5F5F5F5F5F5F5F5F5F5F5F5E2E2F5F5F5F5F5F5F5ECF5F5F5F5F5F5F5DCF5F5F5F5F5F5F5ECF5F5F5F5F5F5F5E2F5F5F5F5F5F5F5F5F5F5F5E2F5F5F5F5F5F5F5F5F5F5F5F5F5F5F5F5E2F5F5F5
310
F5E2E2F5F5F5F5E2F5F5F5F5F5F5F5F5F5F5F5F5F5F5F5F5E2F5F5F5F5F5F5F5F5F5F5F5F5F5F5F5F5F5F5F5F5F5F5F5F5F5F5F5F5F5F5F5F5F5F5F5F5F5F5F5F5F5F5F5F5F5F5F5F5F5F5F5F5F5F5F5F5F5F5F5F5F5F5F5F5F5F5F5F5F5F5F5F5F5F5F5F5F5F5F5F5F5F5F5F5F5F5F5F5F5F5E2F5F5F5F5F5F5F5ECF5F5F5
310
F5F5F5F5DCF5F5F5F5F5F5F5ECF5F5F5F5F5F5F5E2F5F5F5F5F5F5F5F5F5F5F5E2F5F5F5F5F5F5F5F5F5F5F5F5F5F5F5F5E2F5F5F5F5E2E2F5F5F5F5E2F5F5F5F5F5F5F5F5F5F5F5F5F5F5F5F5E2F5F5F5F5F5F5F5F5F5F5F5F5F5F5F5F5F5F5F5F5F5F5F5F5F5F5F5F5F5F5F5F5F5F5F5F5F5F5F5F5F5F5F5F5F5F5F5F5F5
310
F5F5F5F5F5F5F5F5F5F5F5F5F5F5F5F5F5F5F5F5F5F5F5F5F5F5F5F5F5F5F5F5F5F5F5F5F5F5F5F5F5E2F5F5F5F5F5F5F5ECF5F5F5F5F5F5F5DCF5F5F5F5F5F5F5ECF5F5F5F5F5F5F5E2F5F5F5F5F5F5F5F5F5F5F5E2F5F5F5F5F5F5F5F5F5F5F5F5F5F5F5F5E2F5F5F5F5E2E2F5F5F5F5E2F5F5F5F5F5F5F5F5F5F5F5F5F5
310
F5F5F5E2F5F5F5F5F5F5F5F5F5F5F5F5F5F5F5F5F5F5F5F5F5F5F5F5F5F5F5F5F5F5F5F5F5F5F5F5F5F5F5F5F5F5F5F5F5F5F5F5F5F5F5F5F5F5F5F5F5F5F5F5F5F5F5F5F5F5F5F5F5F5F5F5F5F5F5F5F5F5F5F5F5F5F5F5F5F5F5F5F5F5E2F5F5F5F5F5F5F5ECF5F5F5F5E2E2E2E2E2E2E2F5F5F5F5ECF5F5F5F5F5F5F5E2
310
F5F5F5F5F5F5F5F5F5F5F5E2F5F5F5F5F5F5F5F5F5F5F5F5F5F5F5F5E2F5F5F5F5E2E2F5F5F5F5E2F5F5F5F5F5F5F5F5F5F5F5F5F5F5F5F5E2F5F5F5F5F5F5F5F5F5F5F5F5F5F5F5F5F5F5F5F5F5F5F5F5F5F5F5F5F5F5F5F5F5F5F5F5F5F5F5F5F5F5F5F5F5F5F5F5F5F5F5F5F5F5F5F5F5F5F5F5F5F5F5F5F5F5F5F5F5F5
310
F5F5F5F5F5F5F5F5F5F5F5F5F5F5F5F5F5F5F5F5E2F5F5F5F5F5F5F5ECECECECECECF5F5DCF5F5ECECECECECECF5F5F5F5F5F5F5E2F5F5F5F5F5F5F5F5F5F5F5E2F5F5F5F5F5F5F5F5F5F5F5F5F5F5F5F5E2F5F5F5F5E2E2F5F5F5F5E2F5F5F5F5F5F5F5F5F5F5F5F5F5F5F5F5E2F5F5F5F5F5F5F5F5F5F5F5F5F5F5F5F5F5
310
F5F5F5F5F5F5F5F5F5F5F5F5F5F5F5F5F5F5F5F5F5F5F5F5F5F5F5F5F5F5F5F5F5F5F5F5F5F5F5F5F5F5F5F5F5F5F5F5F5F5F5F5F5F5F5F5F5F5F5F5F5F5F5F5F5F5F5F5F5F5F5F5F5E2F5F5F5F5F5F5F5ECF5F5F5F5E2F5F5DCF5F5E2F5F5F5F5ECF5F5F5F5F5F5F5E2F5F5F5F5F5F5F5F5F5F5F5E2F5F5F5F5F5F5F5F5F5
310
F5F5F5F5F5F5F5E2F5F5F5F5E2E2F5F5F5F5E2F5F5F5F5F5F5F5F5F5F5F5F5F5F5F5F5E2F5F5F5F5F5F5F5F5F5F5F5F5F5F5F5F5F5F5F5F5F5F5F5F5F5F5F5F5F5F5F5F5F5F5F5F5F5F5F5F5F5F5F5F5F5F5F5F5F5F5F5F5F5F5F5F5F5F5F5F5F5F5F5F5F5F5F5F5F5F5F5F5F5F5F5F5F5F5F5F5F5F5F5F5F5F5F5F5F5F5E2
310
E2E2E2E2E2E2E2E2E2E2E2E2ECF5F5DCF5F5E2E2E2E2E2E2E2E2E2E2E2E2E2E2F5F5F5F5F5F5F5F5F5F5F5E2F5F5F5F5F5F5F5F5F5F5F5F5F5F5F5F5E2F5F5F5F5E2E2F5F5F5F5E2F5F5F5F5F5F5F5F5F5F5F5F5F5F5F5F5E2F5F5F5F5F5F5F5F5F5F5F5F5F5F5F5F5F5F5F5F5F5F5F5F5F5F5F5F5F5F5F5F5F5F5F5F5F5F5
310
F5F5F5F5F5F5F5F5F5F5F5F5F5F5F5F5F5F5F5F5F5F5F5F5F5F5F5F5F5F5F5F5F5F5F5F5F5F5F5F5F5F5F5F5F5F5F5F5F5F5F5F5F5F5F5F5F5F5F5F5F5F5F5F5F5F5F5F5DCF5F5F5F5F5F5F5F5F5F5F5F5F5F5F5F5F5F5F5F5F5F5F5F5F5F5F5E2F5F5F5F5F5F5F5F5F5F5F5F5F5F5F5F5E2F5F5F5F5E2E2F5F5F5F5F5F5F5
310
F5F5F5F5F5F5F5F5F5F5F5F5F5F5E2F5F5F5F5F5F5F5F5F5F5F5F5F5F5F5F5F5F5F5F5F5F5F5F5F5F5F5F5F5F5F5F5F5F5F5F5F5F5F5F5F5F5F5F5F5F5F5F5F5F5F5F5F5F5F5F5F5F5F5F5F5F5F5F5F5F5F5F5F5F5F5F5F5F5F5F5F5F5F5F5F5F5F5F5F5F5F5F5F5F5F5F5F5F5F5F5F5F5F5F5F5F5F5F5F5F5F5F5F5F5F5F5
310
F5F5F5F5F5F5F5F5F5F5F5F5F5F5F5F5F5F5F5F5F5F5E2F5F5F5F5F5F5F5F5F5F5F5F5F5F5F5F5F5F5F5F5F5E2E2F5F5F5F5F5F5F5F5F5F5F5F5F5F5F5F5F5F5F5F5F5E2F5F5F5F5F5F5F5F5F5F5F5F5F5F5F5F5F5F5F5F5F5F5F5F5F5F5F5F5F5F5F5F5F5F5F5F5F5F5F5F5F5F5F5F5F5F5F5F5F5F5F5F5F5F5F5F5F5F5F5
310
F5F5F5F5F5F5F5F5F5F5F5F5F5F5F5F5F5F5F5F5F5F5F5F5F5F5F5F5F5F5F5F5F5F5F5F5F5F5F5F5F5F5F5F5F5F5F5F5F5F5F5F5F5F5F5F5F5F5F5F5F5F5F5F5F5F5F5F5F5F5F5F5F5F5F5E2F5F5F5F5F5F5F5F5F5F5F5F5F5F5F5F5F5F5F5F5F5E2E2F5F5F5F5F5F5F5F5F5F5F5F5F5F5F5F5F5F5F5F5F5E2F5F5F5F5F5F5
310
F5F5F5F5F5F5F5F5F5F5F5F5F5F5F5F5F5F5F5F5F5F5F5F5F5F5F5F5F5F5F5F5F5F5F5F5F5F5F5F5F5F5F5F5F5F5F5F5F5F5F5F5F5F5F5F5F5F5F5F5F5F5F5F5F5F5F5F5F5F5F5F5F5F5F5F5F5F5F5F5F5F5F5F5F5F5F5F5F5F5F5F5F5F5F5F5F5F5F5F5F5F5F5F5F5F5F5F5F5F5F5F5F5F5F5F5F5F5F5F5F5F5F5F5F5F5F5
310
F5E2F5F5F5F5F5F5F5F5F5F5F5F5F5F5F5F5F5F5F5F5F5E2E2F5F5F5F5F5F5F5F5F5F5F5F5F5F5F5F5F5F5F5F5F5E2F5F5F5F5F5F5F5F5F5F5F5F5F5F5F5F5F5F5F5F5F5F5F5F5F5F5F5F5F5F5F5F5F5F5F5F5F5F5F5F5F5F5F5F5F5F5F5F5F5F5F5F5F5F5F5F5F5F5F5F5F5F5F5F5F5F5F5F5F5F5F5F5F5F5F5F5F5F5F5F5
310
F5F5F5F5F5F5F5F5F5F5F5F5F5F5F5F5F5F5F5F5F5F5F5F5F5F5F5F5F5F5F5F5F5F5F5F5F5F5F5F5F5F5F5F5F5F5F5F5F5F5F5F5F5F5E2F5F5F5F5F5F5F5F5F5F5F5F5F5F5F5F5F5F5F5F5F5E2E2F5F5F5F5F5F5F5F5F5F5F5F5F5F5F5F5F5F5F5F5F5E2F5F5F5F5F5F5F5F5F5F5F5F5F5F5F5F5F5F5F5F5F5F5F5F5F5F5F5
310
F5F5F5F5F5F5F5F5F5F5F5F5F5F5F5F5F5F5F5F5F5F5F5F5F5F5F5F5F5F5F5F5F5F5F5F5F5F5F5F5F5F5F5F5F5F5F5F5F5F5F5F5F5F5F5F5F5F5F5F5F5F5F5F5F5F5F5F5F5F5F5F5F5F5F5F5F5F5F5F5F5F5F5F5F5F5F5F5F5F5F5F5F5F5F5F5F5F5F5F5F5F5F5F5F5F5F5E2F5F5F5F5F5F5F5F5F5F5F5F5F5F5F5F5F5F5F5
310
F5F5E2E2F5F5F5F5F5F5F5F5F5F5F5F5F5F5F5F5F5F5F5F5F5E2F5F5F5F5F5F5F5F5F5F5F5F5F5F5F5F5F5F5F5F5F5F5F5F5F5F5F5F5F5F5F5F5F5F5F5F5F5F5F5F5F5F5F5F5F5F5F5F5F5F5F5F5F5F5F5F5F5F5F5F5F5F5F5F5F5F5F5F5F5F5F5F5F5F5F5F5F5F5F5F5F5F5F5F5F5F5F5F5F5F5F5F5F5F5F5F5F5F5F5F5F5
310
F5F5F5F5F5F5F5F5F5F5F5F5F5F5F5F5F5F5F5F5F5F5F5F5F5F5F5F5F5F5F5F5F5E2F5F5F5F5F5F5F5F5F5F5F5F5F5F5F5F5F5F5F5F5F5E2E2F5F5F5F5F5F5F5F5F5F5F5F5F5F5F5F5F5F5F5F5F5E2F5F5F5F5F5F5F5F5F5F5F5F5F5F5F5F5F5F5F5F5F5F5F5F5F5F5F5F5F5F5F5F5F5F5F5F5F5F5F5F5F5F5F5F5F5F5F5F5
310
F5F5F5F5F5F5F5F5F5F5F5F5F5F5F5F5F5F5F5F5F5F5F5F5F5F5F5F5F5F5F5F5F5F5F5F5F5F5F5F5F5F5F5F5F5F5F5F5F5F5F5F5F5F5F5F5F5F5F5F5F5F5F5F5F5F5F5F5F5F5F5F5F5F5F5F5F5F5F5F5F5F5F5F5F5F5E2F5F5F5F5F5F5F5F5F5F5F5F5F5F5F5F5F5F5F5F5F5E2E2F5F5F5F5F5F5F5F5F5F5F5F5F5F5F5F5F5
310
F5F5F5F5E2F5F5F5F5F5F5F5F5F5F5F5F5F5F5F5F5F5F5F5F5F5F5F5F5F5F5F5F5F5F5F5F5F5F5F5F5F5F5F5F5F5F5F5F5F5F5F5F5F5F5F5F5F5F5F5F5F5F5F5F5F5F5F5F5F5F5F5F5F5F5F5F5F5F5F5F5F5F5F5F5F5F5F5F5F5F5F5F5F5F5F5F5F5F5F5F5F5F5F5F5F5F5F5F5F5F5F5F5F5F5F5F5F5F5F5F5F5F5F5F5F5F5
310
F5F5F5F5F5F5F5F5F5F5F5F5E2F5F5F5F5F5F5F5F5F5F5F5F5F5F5F5F5F5F5F5F5F5E2E2F5F5F5F5F5F5F5F5F5F5F5F5F5F5F5F5F5F5F5F5F5E2F5F5F5F5F5F5F5F5F5F5F5F5F5F5F5F5F5F5F5F5F5F5F5F5F5F5F5F5F5F5F5F5F5F5F5F5F5F5F5F5F5F5F5F5F5F5F5F5F5F5F5F5F5F5F5F5F5F5F5F5F5F5F5F5F5F5F5F5F5
310
F5F5F5F5F5F5F5F5F5F5F5F5F5F5F5F5F5F5F5F5F5F5F5F5F5F5F5F5F5F5F5F5F5F5F5F5F5F5F5F5F5F5F5F5F5F5F5F5F5F5F5F5F5F5F5F5F5F5F5F5F5F5F5F5F5E2F5F5F5F5F5F5F5F5F5F5F5F5F5F5F5F5F5F5F5F5F5E2E2F5F5F5F5F5F5F5F5F5F5F5F5F5F5F5F5F5F5F5F5F5E2F5F5F5F5F5F5F5F5F5F5F5F5F5F5F5F5
310
F5F5F5F5F5F5F5F5F5F5F5F5F5F5F5F5F5F5F5F5F5F5F5F5F5F5F5F5F5F5F5F5F5F5F5F5F5F5F5F5F5F5F5F5F5F5F5F5F5F5F5F5F5F5F5F5F5F5F5F5F5F5F5F5F5F5F5F5F5F5F5F5F5F5F5F5F5F5F5F5F5F5F5F5F5F5F5F5F5F5F5F5F5F5F5F5F5F5F5F5F5F5F5F5F5F5F5F5F5F5F5F5F5F5F5F5F5F5E2F5F5F5F5F5F5F5F5
310
F5F5F5F5F5F5F5F5F5F5F5F5F5E2E2F5F5F5F5E2F5F5F5F5F5F5F5F5F5F5F5F5F5F5F5F5E2F5F5F5F5F5F5F5F5F5F5F5F5F5F5F5F5F5F5F5F5F5F5F5F5F5F5F5F5F5F5F5F5F5F5F5F5F5F5F5F5F5F5F5F5F5F5F5F5F5F5F5F5F5F5F5F5F5F5F5F5F5F5F5F5F5F5F5F5F5F5F5F5F5F5F5F5F5F5F5F5F5F5F5F5F5F5F5F5F5F5
310
F5F5F5F5F5F5F5F5F5F5F5F5F5F5F5F5F5F5F5F5F5F5F5F5F5F5F5F5F5F5F5F5F5F5F5F5F5F5F5F5F5F5F5F5E2F5F5F5F5F5F5F5F5F5F5F5F5F5F5F5F5E2F5F5F5F5E2E2F5F5F5F5E2F5F5F5F5F5F5F5F5F5F5F5F5F5F5F5F5E2F5F5F5F5F5F5F5F5F5F5F5F5F5F5F5F5F5F5F5F5F5F5F5F5F5F5F5F5F5F5F5F5F5F5F5F5F5
310
F5F5F5F5F5F5F5F5F5F5F5F5F5F5F5F5F5F5F5F5F5F5F5F5F5F5F5F5F5F5F5F5F5F5F5F5F5F5F5F5F5F5F5F5F5F5F5F5F5F5F5F5F5F5F5F5F5F5F5F5F5F5F5F5F5F5F5F5F5F5F5F5F5F5F5F5F5F5F5F5F5F5F5F5F5F5F5F5F5F5F5F5F5F5F5F5F5E2F5F5F5F5F5F5F5F5F5F5F5F5F5F5F5F5E2F5F5F5F5E2E2F5F5F5F5E2F5
310
F5F5F5F5F5F5F5F5F5F5F5F5F5F5F5E2F5F5F5F5F5F5F5F5F5F5F5F5F5F5F5F5F5F5F5F5F5F5F5F5F5F5F5F5F5F5F5F5F5F5F5F5F5F5F5F5F5F5F5F5F5F5F5F5F5F5F5F5F5F5F5F5F5F5F5F5F5F5F5F5F5F5F5F5F5F5F5F5F5F5F5F5F5F5F5F5F5F5F5F5F5F5F5F5F5F5F5F5F5F5F5F5F5F5F5F5F5F5F5F5F5F5F5F5F5F5F5
310
F5F5F5F5F5F5F5F5F5F5F5F5F5F5F5F5F5F5F5F5F5F5F5E2F5F5F5F5F5F5F5F5F5F5F5F5F5F5F5F5E2F5F5F5F5E2E2F5F5F5F5E2F5F5F5F5F5F5F5F5F5F5F5F5F5F5F5F5E2F5F5F5F5F5F5F5F5F5F5F5F5F5F5F5F5F5F5F5F5F5F5F5F5F5F5F5F5F5F5F5F5F5F5F5F5F5F5F5F5F5F5F5F5F5F5F5F5F5F5F5F5F5F5F5F5F5F5
310
F5F5F5F5F5F5F5F5F5F5F5F5F5F5F5F5F5F5F5F5F5F5F5F5F5F5F5F5F5F5F5F5F5F5F5F5F5F5F5F5F5F5F5F5F5F5F5F5F5F5F5F5F5F5F5F5F5F5F5F5F5F5F5F5F5F5F5F5F5F5F5F5F5F5F5F5E2F5F5F5F5F5F5F5F5F5F5F5F5F5F5F5F5E2F5F5F5F5E2E2F5F5F5F5E2F5F5F5F5F5F5F5F5F5F5F5F5F5F5F5F5E2F5F5F5F5F5
310
F5F5F5F5F5F5F5F5F5F5F5F5F5F5F5F5F5F5F5F5F5F5F5F5F5F5F5F5F5F5F5F5F5F5F5F5F5F5F5F5F5F5F5F5F5F5F5F5F5F5F5F5F5F5F5F5F5F5F5F5F5F5F5F5F5F5F5F5F5F5F5F5F5F5F5F5F5F5F5F5F5F5F5F5F5F5F5F5F5F5F5F5F5F5F5F5F5F5F5F5F5F5F5F5F5F5F5F5F5F5F5F5F5F5F5F5F5F5F5F5F5F5F5F5F5F5F5
310
F5F5E2F5F5F5F5F5F5F5F5F5F5F5F5F5F5F5F5E2F5F5F5F5E2E2F5F5F5F5E2F5F5F5F5F5F5F5F5F5F5F5F5F5F5F5F5E2F5F5F5F5F5F5F5F5F5F5F5F5F5F5F5F5F5F5F5F5F5F5F5F5F5F5F5F5F5F5F5F5F5F5F5F5F5F5F5F5F5F5F5F5F5F5F5F5F5F5F5F5F5F5F5F5F5F5F5F5F5F5F5F5F5F5F5F5F5F5F5F5F5F5F5F5F5F5F5
310
F5F5F5F5F5F5F5F5F5F5F5F5F5F5F5F5F5F5F5F5F5F5F5F5F5F5F5F5F5F5F5F5F5F5F5F5F5F5F5F5F5F5F5F5F5F5F5F5F5F5F5F5F5F5F5E2F5F5F5F5F5F5F5F5F5F5F5F5F5F5F5F5E2F5F5F5F5E2E2F5F5F5F5E2F5F5F5F5F5F5F5F5F5F5F5F5F5F5F5F5E2F5F5F5F5F5F5F5F5F5F5F5F5F5F5F5F5F5F5F5F5F5F5F5F5F5F5
310
F5F5F5F5F5F5F5F5F5F5F5F5F5F5F5F5F5F5F5F5F5F5F5F5F5F5F5F5F5F5F5F5F5F5F5F5F5F5F5F5F5F5F5F5F5F5F5F5F5F5F5F5F5F5F5F5F5F5F5F5F5F5F5F5F5F5F5F5F5F5F5F5F5F5F5F5F5F5F5F5F5F5F5F5F5F5F5F5F5F5F5F5F5F5F5F5F5F5F5F5F5F5F5F5F5F5F5F5E2F5F5F5F5F5F5F5F5F5F5F5F5F5F5F5F5E2F5
310
F5F5F5E2E2F5F5F5F5E2F5F5F5F5F5F5F5F5F5F5F5F5F5F5F5F5E2F5F5F5F5F5F5F5F5F5F5F5F5F5F5F5F5F5F5F5F5F5F5F5F5F5F5F5F5F5F5F5F5F5F5F5F5F5F5F5F5F5F5F5F5F5F5F5F5F5F5F5F5F5F5F5F5F5F5F5F5F5F5F5F5F5F5F5F5F5F5F5F5F5F5F5F5F5F5F5F5F5F5F5F5F5F5F5F5F5F5F5F5F5F5F5F5F5F5F5F5
310
F5F5F5F5F5F5F5F5F5F5F5F5F5F5F5F5F5F5F5F5F5F5F5F5F5F5F5F5F5F5F5F5F5F5E2F5F5F5F5F5F5F5F5F5F5F5F5F5F5F5F5E2F5F5F5F5E2E2F5F5F5F5E2F5F5F5F5F5F5F5F5F5F5F5F5F5F5F5F5E2F5F5F5F5F5F5F5F5F5F5F5F5F5F5F5F5F5F5F5F5F5F5F5F5F5F5F5F5F5F5F5F5F5F5F5F5F5F5F5F5F5F5F5F5F5F5F5
310
F5F5F5F5F5F5F5F5F5F5F5F5F5F5F5F5F5F5F5F5F5F5F5F5F5F5F5F5F5F5F5F5F5F5F5F5F5F5F5F5F5F5F5F5F5F5F5F5F5F5F5F5F5F5F5F5F5F5F5F5F5F5F5F5F5F5F5F5F5F5F5F5F5F5F5F5F5F5F5F5F5F5F5F5F5F5F5E2F5F5F5F5F5F5F5F5F5F5F5F5F5F5F5F5E2F5F5F5F5E2E2F5F5F5F5E2F5F5F5F5F5F5F5F5F5F5F5
310
F5F5F5F5F5E2F5F5F5F5F5F5F5F5F5F5F5F5F5F5F5F5F5F5F5F5F5F5F5F5F5F5F5F5F5F5F5F5F5F5F5F5F5F5F5F5F5F5F5F5F5F5F5F5F5F5F5F5F5F5F5F5F5F5F5F5F5F5F5F5F5F5F5F5F5F5F5F5F5F5F5F5F5F5F5F5F5F5F5F5F5F5F5F5F5F5F5F5F5F5F5F5F5F5F5F5F5F5F5F5F5F5F5F5F5F5F5F5F5F5F5F5F5F5F5F5F5
310
F5F5F5F5F5F5F5F5F5F5F5F5F5E2F5F5F5F5F5F5F5F5F5F5F5F5F5F5F5F5E2F5F5F5F5E2E2F5F5F5F5E2F5F5F5F5F5F5F5F5F5F5F5F5F5F5F5F5E2F5F5F5F5F5F5F5F5F5F5F5F5F5F5F5F5F5F5F5F5F5F5F5F5F5F5F5F5F5F5F5F5F5F5F5F5F5F5F5F5F5F5F5F5F5F5F5F5F5F5F5F5F5F5F5F5F5F5F5F5F5F5F5F5F5F5F5F5
310
F5F5F5F5F5F5F5F5F5F5F5F5F5F5F5F5F5F5F5F5F5F5F5F5F5F5F5F5F5F5F5F5F5F5F5F5F5F5F5F5F5F5F5F5F5F5F5F5F5F5F5F5F5F5F5F5F5F5F5F5F5F5F5F5F5F5E2F5F5F5F5F5F5F5F5F5F5F5F5F5F5F5F5E2F5F5F5F5E2E2F5F5F5F5E2F5F5F5F5F5F5F5F5F5F5F5F5F5F5F5F5E2F5F5F5F5F5F5F5F5F5F5F5F5F5F5F5
310
F5F5F5F5F5F5F5F5F5F5F5F5F5F5F5F5F5F5F5F5F5F5F5F5F5F5F5F5F5F5F5F5F5F5F5F5F5F5F5F5F5F5F5F5F5F5F5F5F5F5F5F5F5F5F5F5F5F5F5F5F5F5F5F5F5F5F5F5F5F5F5F5F5F5F5F5F5F5F5F5F5F5F5F5F5F5F5F5F5F5F5F5F5F5F5F5F5F5F5F5F5F5F5F5F5F5F5F5F5F5F5F5F5F5F5F5F5F5F5E2F5F5F5F5F5F5F5
310
F5F5F5F5F5F5F5F5F5E2F5F5F5F5E2E2F5F5F5F5E2F5F5F5F5F5F5F5F5F5F5F5F5F5F5F5F5E2F5F5F5F5F5F5F5F5F5F5F5F5F5F5F5F5F5F5F5F5F5F5F5F5F5F5F5F5F5F5F5F5F5F5F5F5F5F5F5F5F5F5F5F5F5F5F5F5F5F5F5F5F5F5F5F5F5F5F5F5F5F5F5F5F5F5F5F5F5F5F5F5F5F5F5F5F5F5F5F5F5F5F5F5F5F5F5F5F5
310
F5F5F5F5F5F5F5F5F5F5F5F5F5F5F5F5F5F5F5F5F5F5F5F5F5F5F5F5F5F5F5F5F5F5F5F5F5F5F5F5F5F5F5F5F5E2F5F5F5F5F5F5F5F5F5F5F5F5F5F5F5F5E2F5F5F5F5E2E2F5F5F5F5E2F5F5F5F5F5F5F5F5F5F5F5F5F5F5F5F5E2F5F5F5F5F5F5F5F5F5F5F5F5F5F5F5F5F5F5F5F5F5F5F5F5F5F5F5F5F5F5F5F5F5F5F5F5
310
F5F5F5F5F5F5F5F5F5F5F5F5F5F5F5F5F5F5F5F5F5F5F5F5F5F5F5F5F5F5F5F5F5F5F5F5F5F5F5F5F5F5F5F5F5F5F5F5F5F5F5F5F5F5F5F5F5F5F5F5F5F5F5F5F5F5F5F5F5F5F5F5F5F5F5F5F5F5F5F5F5F5F5F5F5F5F5F5F5F5F5F5F5F5F5F5F5F5E2F5F5F5F5F5F5F5F5F5F5F5F5F5F5F5F5E2F5F5F5F5E2E2F5F5F5F5E2
310
F5F5F5F5F5F5F5F5F5F5F5F5F5F5F5F5E2F5F5F5F5F5F5F5F5F5F5F5F5F5F5F5F5F5F5F5F5F5F5F5F5F5F5F5F5F5F5F5F5F5F5F5F5F5F5F5F5F5F5F5F5F5F5F5F5F5F5F5F5F5F5F5F5F5F5F5F5F5F5F5F5F5F5F5F5F5F5F5F5F5F5F5F5F5F5F5F5F5F5F5F5F5F5F5F5F5F5F5F5F5F5F5F5F5F5F5F5F5F5F5F5F5F5F5F5F5F5
310
F5F5F5F5F5F5F5F5F5F5F5F5F5F5F5F5F5F5F5F5F5F5F5F5E2F5F5F5F5F5F5F5F5F5F5F5F5F5F5F5F5E2F5F5F5F5E2E2F5F5F5F5E2F5F5F5F5F5F5F5F5F5F5F5F5F5F5F5F5E2F5F5F5F5F5F5F5F5F5F5F5F5F5F5F5F5F5F5F5F5F5F5F5F5F5F5F5F5F5F5F5F5F5F5F5F5F5F5F5F5F5F5F5F5F5F5F5F5F5F5F5F5F5F5F5F5F5
310
F5F5F5F5F5F5F5F5F5F5F5F5F5F5F5F5F5F5F5F5F5F5F5F5F5F5F5F5F5F5F5F5F5F5F5F5F5F5F5F5F5F5F5F5F5F5F5F5F5F5F5F5F5F5F5F5F5F5F5F5F5F5F5F5F5F5F5F5F5F5F5F5F5F5F5F5F5E2F5F5F5F5F5F5F5F5F5F5F5F5F5F5F5F5E2F5F5F5F5E2E2F5F5F5F5F5F5F5F5F5F5F5F5F5F5F5F5F5F5F5F5F5E2F5F5F5F5
310
F5F5F5F5F5F5F5F5F5F5F5F5F5F5F5F5F5F5F5F5F5F5F5F5F5F5F5F5F5F5F5F5F5F5F5F5F5F5F5F5F5F5F5F5F5F5F5F5F5F5F5F5F5F5F5F5F5F5F5F5F5F5F5F5F5F5F5F5F5F5F5F5F5F5F5F5F5F5F5F5F5F5F5F5F5F5F5F5F5F5F5F5F5F5F5F5F5F5F5F5F5F5F5F5F5F5F5F5F5F5F5F5F5F5F5F5F5F5F5F5F5F5F5F5F5F5F5
310
F5F5F5E2F5F5F5F5F5F5F5F5F5F5F5F5F5F5F5F5F5F5F5F5F5E2E2F5F5F5F5F5F5F5F5F5F5F5F5F5F5F5F5F5F5F5F5F5E2F5F5F5F5F5F5F5F5F5F5F5F5F5F5F5F5F5F5F5F5F5F5F5F5F5F5F5F5F5F5F5F5F5F5F5F5F5F5F5F5F5F5F5F5F5F5F5F5F5F5F5F5F5F5F5F5F5F5F5F5F5F5F5F5F5F5F5F5F5F5F5F5F5F5F5F5F5F5
310
F5F5F5F5F5F5F5F5F5F5F5F5F5F5F5F5F5F5F5F5F5F5F5F5F5F5F5F5F5F5F5F5F5F5F5F5F5F5F5F5F5F5F5F5F5F5F5F5F5F5F5F5F5F5F5F5E2F5F5F5F5F5F5F5F5F5F5F5F5F5F5F5F5F5F5F5F5F5E2E2F5F5F5F5F5F5F5F5F5F5F5F5F5F5F5F5F5F5F5F5F5E2F5F5F5F5F5F5F5F5F5F5F5F5F5F5F5F5F5F5F5F5F5F5F5F5F5
310
F5F5F5F5F5F5F5F5F5F5F5F5F5F5F5F5F5F5F5F5F5F5F5F5F5F5F5F5F5F5F5F5F5F5F5F5F5F5F5F5F5F5F5F5F5F5F5F5F5F5F5F5F5F5F5F5F5F5F5F5F5F5F5F5F5F5F5F5F5F5F5F5F5F5F5F5F5F5F5F5F5F5F5F5F5F5F5F5F5F5F5F5F5F5F5F5F5F5F5F5F5F5F5F5F5F5F5F5F5E2F5F5F5F5F5F5F5F5F5F5F5F5F5F5F5F5F5
310
F5F5F5F5E2E2F5F5F5F5F5F5F5F5F5F5F5F5F5F5F5F5F5F5F5F5F5E2F5F5F5F5F5F5F5F5F5F5F5F5F5F5F5F5F5F5F5F5F5F5F5F5F5F5F5F5F5F5F5F5F5F5F5F5F5F5F5F5F5F5F5F5F5F5F5F5F5F5F5F5F5F5F5F5F5F5F5F5F5F5F5F5F5F5F5F5F5F5F5F5F5F5F5F5F5F5F5F5F5F5F5F5F5F5F5F5F5F5F5F5F5F5F5F5F5F5F5
310
F5F5F5F5F5F5F5F5F5F5F5F5F5F5F5F5F5F5F5F5F5F5F5F5F5F5F5F5F5F5F5F5F5F5F5E2F5F5F5F5F5F5F5F5F5F5F5F5F5F5F5F5F5F5F5F5F5E2E2F5F5F5F5F5F5F5F5F5F5F5F5F5F5F5F5F5F5F5F5F5E2E2E2E2E2E2E2E2E2E2E2E2E2E2E2E2E2E2E2E2E2E2E2E2E2E2E2E2E2E2E2E2E2E2E2E2E2E2E2E2E2E2E2E2E2E2E2
310
E2E2E2E2E2E2E2E2E2E2E2E2E2E2E2E2E2E2E2E2E2E2E2E2E2E2E2E2E2E2E2E2E2E2E2E2E2E2E2E2E2E2E2E2E2E2E2E2E2E2E2E2E2E2E2E2E2E2E2E2E2E2E2E2E2E2E2E2E2E2E2E2E2E2E2E2E2E2E2E2E2E2E2E2E2E2E2E2E2F5F5F5F5F5F5F5F5F5F5F5F5F5F5F5F5F5F5F5F5F5E2E2F5F5F5F5F5F5F5F5F5F5F5F5F5F5F5
310
F5F5F5F5F5F5F5F5F5F5F5F5F5F5F5F5F5F5F5F5F5F5F5F5F5F5F5F5F5F5F5F5F5F5F5F5F5F5F5F5F5F5F5F5F5F5F5F5F5F5F5F5F5F5F5F5F5F5F5F5F5F5F5F5F5F5F5F5F5F5F5F5F5F5F5F5F5F5F5F5F5F5F5F5F5F5F5F5F5F5F5F5F5F5F5F5F5F5F5F5F5F5F5F5F5F5F5F5F5F5F5F5F5F5F5F5F5F5F5F5F5F5F5F5F5F5F5
310
F5F5F5F5F5F5F5F5F5F5F5F5F5F5F5F5F5F5F5F5F5F5F5F5F5F5F5F5F5F5F5F5F5F5F5F5E2E2F5F5F5F5F5F5F5F5F5F5F5F5F5F5F5F5F5F5F5F5F5F5F5F5F5F5F5F5F5F5F5F5F5F5F5F5F5F5F5F5F5F5F5F5F5F5F5F5F5F5F5F5F5F5F5F5F5F5F5F5F5F5F5F5F5F5F5F5F5F5F5F5F5F5F5F5F5F5F5F5F5F5F5F5F5F5F5F5F5
310
F5F5F5F5F5F5F5F5F5F5F5F5F5F5F5F5F5F5F5F5F5F5F5F5F5F5F5F5F5F5F5F5F5F5F5F5F5F5F5F5F5F5F5F5F5F5F5F5F5F5F5F5F5F5F5F5F5F5F5F5F5F5F5F5F5F5F5F5F5F5F5F5F5F5F5F5F5F5F5F5F5F5F5F5F5F5F5F5F5E2E2F5F5F5F5F5F5F5F5F5F5F5F5F5F5F5F5F5F5F5F5F5F5F5F5F5F5F5F5F5F5F5F5F5F5F5F5
310
F5F5F5F5F5F5F5F5F5F5F5F5F5F5F5F5F5F5F5F5F5F5F5F5F5F5F5F5F5F5F5F5F5F5F5F5F5F5F5F5F5F5F5F5F5F5F5F5F5F5F5F5F5F5F5F5F5F5F5F5F5F5F5F5F5F5F5F5F5F5F5F5F5F5F5F5F5F5F5F5F5F5F5F5F5F5F5F5F5F5F5F5F5F5F5F5F5F5F5F5F5F5F5F5F5F5F5F5F5F5F5F5F5F5F5F5F5F5F5F5F5F5F5F5F5F5F5
310
F5F5F5F5F5F5F5F5F5F5F5F5F5F5F5E2E2F5F5F5F5F5F5F5F5F5F5F5F5F5F5F5F5F5F5F5F5F5F5F5F5F5F5F5F5F5F5F5F5F5F5F5F5F5F5F5F5F5F5F5F5F5F5F5F5F5F5F5F5F5F5F5F5F5F5F5F5F5F5F5F5F5F5F5F5F5F5F5F5F5F5F5F5F5F5F5F5F5F5F5F5F5F5F5F5F5F5F5F5F5F5F5F5F5F5F5F5F5F5F5F5F5F5F5F5F5F5
310
F5F5F5F5F5F5F5F5F5F5F5F5F5F5F5F5F5F5F5F5F5F5F5F5F5F5F5F5F5F5F5F5F5F5F5F5F5F5F5F5F5F5F5F5F5F5F5F5F5F5F5F5F5F5F5F5F5F5F5F5F5F5F5F5F5F5F5F5E2E2F5F5F5F5E2F5F5F5F5F5F5F5F5F5F5F5F5F5F5F5F5F5F5F5F5F5F5F5F5F5F5F5F5F5F5F5F5F5F5F5F5F5F5F5F5F5F5F5F5F5F5F5F5F5F5F5F5
310
F5F5F5F5F5F5F5F5F5F5F5F5F5F5F5F5F5F5F5F5F5F5F5F5F5F5F5F5F5F5F5F5F5F5F5F5F5F5F5F5F5F5F5F5F5F5F5F5F5F5F5F5F5F5F5F5F5F5F5F5F5F5F5F5F5F5F5F5F5F5F5F5F5F5F5F5F5F5F5F5F5F5F5F5F5F5F5F5F5F5F5F5F5F5F5F5F5F5F5F5F5F5F5F5F5F5F5F5F5F5F5F5F5F5F5F5E2F5F5F5F5E2E2F5F5F5F5
310
E2F5F5F5F5F5F5F5F5F5F5F5F5F5F5F5F5F5F5F5F5F5F5F5F5F5F5F5F5F5F5F5F5F5F5F5F5F5F5F5F5F5F5F5F5F5F5F5F5F5F5F5F5F5F5F5F5F5F5F5F5F5F5F5F5F5F5F5F5F5F5F5F5F5F5F5F5F5F5F5F5F5F5F5F5F5F5F5F5F5F5F5F5F5F5F5F5F5F5F5F5F5F5F5F5F5F5F5F5F5F5F5F5F5F5F5F5F5F5F5F5F5F5F5F5F5F5
310
F5F5F5F5F5F5F5F5F5F5F5F5F5F5F5F5F5F5F5F5F5F5F5F5F5F5F5F5F5F5F5F5F5F5F5F5F5F5F5F5F5F5E2F5F5F5F5E2E2F5F5F5F5E2F5F5F5F5F5F5F5F5F5F5F5F5F5F5F5F5F5F5F5F5F5F5F5F5F5F5F5F5F5F5F5F5F5F5F5F5F5F5F5F5F5F5F5F5F5F5F5F5F5F5F5F5F5F5F5F5F5F5F5F5F5F5F5F5F5F5F5F5F5F5F5F5F5
310
F5F5F5F5F5F5F5F5F5F5F5F5F5F5F5F5F5F5F5F5F5F5F5F5F5F5F5F5F5F5F5F5F5F5F5F5F5F5F5F5F5F5F5F5F5F5F5F5F5F5F5F5F5F5F5F5F5F5F5F5F5F5F5F5F5F5F5F5F5F5F5F5F5F5F5F5F5F5F5F5F5F5F5F5F5F5F5F5F5F5F5F5F5F5F5E2F5F5F5F5E2E2F5F5F5F5E2F5F5F5F5F5F5F5F5F5F5F5F5F5F5F5F5F5F5F5F5
310
F5F5F5F5F5F5F5F5F5F5F5F5F5F5F5F5F5F5F5F5F5F5F5F5F5F5F5F5F5F5F5F5F5F5F5F5F5F5F5F5F5F5F5F5F5F5F5F5F5F5F5F5F5F5F5F5F5F5F5F5F5F5F5F5F5F5F5F5F5F5F5F5F5F5F5F5F5F5F5F5F5F5F5F5F5F5F5F5F5F5F5F5F5F5F5F5F5F5F5F5F5F5F5F5F5F5F5F5F5F5F5F5F5F5F5F5F5F5F5F5F5F5F5F5F5F5F5
310
F5F5F5F5F5F5F5F5F5F5F5F5F5F5F5F5F5F5F5F5F5E2F5F5F5F5E2E2F5F5F5F5E2F5F5F5F5F5F5F5F5F5F5F5F5F5F5F5F5F5F5F5F5F5F5F5F5F5F5F5F5F5F5F5F5F5F5F5F5F5F5F5F5F5F5F5F5F5F5F5F5F5F5F5F5F5F5F5F5F5F5F5F5F5F5F5F5F5F5F5F5F5F5F5F5F5F5F5F5F5F5F5F5F5F5F5F5F5F5F5F5F5F5F5F5F5F5
310
F5F5F5F5F5F5F5F5F5F5F5F5F5F5F5F5F5F5F5F5F5F5F5F5F5F5F5F5F5F5F5F5F5F5F5F5F5F5F5F5F5F5F5F5F5F5F5F5F5F5F5F5F5F5F5F5F5F5F5F5F5F5F5F5F5F5F5F5F5F5F5F5F5F5E2F5F5F5F5E2E2F5F5F5F5E2F5F5F5F5F5F5F5F5F5F5F5F5F5F5F5F5F5F5F5F5F5F5F5F5F5F5F5F5F5F5F5F5F5F5F5F5F5F5F5F5F5
310
F5F5F5F5F5F5F5F5F5F5F5F5F5F5F5F5F5F5F5F5F5F5F5F5F5F5F5F5F5F5F5F5F5F5F5F5F5F5F5F5F5F5F5F5F5F5F5F5F5F5F5F5F5F5F5F5F5F5F5F5F5F5F5F5F5F5F5F5F5F5F5F5F5F5F5F5F5F5F5F5F5F5F5F5F5F5F5F5F5F5F5F5F5F5F5F5F5F5F5F5F5F5F5F5F5F5F5F5F5F5F5F5F5F5F5F5F5F5F5F5F5F5F5F5F5F5F5
310
E2F5F5F5F5E2E2F5F5F5F5E2F5F5F5F5F5F5F5F5F5F5F5F5F5F5F5F5F5F5F5F5F5F5F5F5F5F5F5F5F5F5F5F5F5F5F5F5F5F5F5F5F5F5F5F5F5F5F5F5F5F5F5F5F5F5F5F5F5F5F5F5F5F5F5F5F5F5F5F5F5F5F5F5F5F5F5F5F5F5F5F5F5F5F5F5F5F5F5F5F5F5F5F5F5F5F5F5F5F5F5F5F5F5F5F5F5F5F5F5F5F5F5F5F5F5F5
310
F5F5F5F5F5F5F5F5F5F5F5F5F5F5F5F5F5F5F5F5F5F5F5F5F5F5F5F5F5F5F5F5F5F5F5F5F5F5F5F5F5F5F5F5F5F5F5F5F5F5F5F5F5E2F5F5F5F5E2E2F5F5F5F5E2F5F5F5F5F5F5F5F5F5F5F5F5F5F5F5F5F5F5F5F5F5F5F5F5F5F5F5F5F5F5F5F5F5F5F5F5F5F5F5F5F5F5F5F5F5F5F5F5F5F5F5F5F5F5F5F5F5F5F5F5F5F5
310
F5F5F5F5F5F5F5F5F5F5F5F5F5F5F5F5F5F5F5F5F5F5F5F5F5F5F5F5F5F5F5F5F5F5F5F5F5F5F5F5F5F5F5F5F5F5F5F5F5F5F5F5F5F5F5F5F5F5F5F5F5F5F5F5F5F5F5F5F5F5F5F5F5F5F5F5F5F5F5F5F5F5F5F5F5F5F5F5F5F5F5F5F5F5F5F5F5F5F5F5F5F5F5F5F5F5E2F5F5F5F5E2E2F5F5F5F5E2E2E2E2E2E2E2E2F5F5
310
F5F5F5F5F5F5F5E2E2E2E2E2E2E2E2E2E2E2E2E2E2E2F5F5F5F5F5F5F5F5F5E2E2E2E2E2E2E2E2E2E2E2E2E2E2E2E2F5F5F5F5F5F5F5F5E2E2E2E2E2E2E2E2E2E2E2E2E2E2E2E2F5F5F5F5F5F5F5F5E2E2E2E2E2E2E2E2E2E2E2E2E2E2E2E2F5F5F5F5F5F5F5F5E2E2E2E2E2E2E2E2E2E2E2E2E2E2E2E2F5F5F5F5F5F5F5F5
310
F5E2E2E2E2E2E2E2E2E2E2E2E2E2E2E2F5F5F5F5F5F5F5F5F5E2E2E2E2E2E2E2E2F5F5F5F5E2E2F5F5F5F5F5F5F5F5F5F5F5F5F5F5F5F5F5F5F5F5F5F5F5F5F5F5F5F5F5F5F5F5F5F5F5F5F5F5F5F5F5F5F5F5F5F5F5F5F5F5F5F5F5F5F5F5F5F5F5F5F5F5F5F5F5F5F5F5F5F5F5F5F5F5F5F5F5F5F5F5F5F5F5F5F5F5F5F5
310
F5F5F5F5F5F5F5F5F5F5F5F5F5F5F5F5F5F5F5F5F5F5F5F5F5F5F5F5F5F5F5F5F5F5F5F5F5F5F5F5F5F5F5F5F5F5F5F5F5F5F5F5F5F5F5F5F5F5F5F5F5F5F5F5F5F5F5F5F5F5F5F5F5F5F5F5F5F5F5F5F5F5F5F5F5F5F5F5F5F5E2E2F5F5F5F5F5F5F5F5F5F5F5F5F5F5F5F5F5F5F5F5F5F5F5F5F5F5F5F5F5F5F5F5F5F5F5
310
F5F5F5F5F5F5F5F5F5F5F5F5F5F5F5F5F5F5F5F5F5F5F5F5F5F5F5F5F5F5F5F5F5F5F5F5F5F5F5F5F5F5F5F5F5F5F5F5F5F5F5F5F5F5F5F5F5F5F5F5F5F5F5F5F5F5F5F5F5F5F5F5F5F5F5F5F5F5F5F5F5F5F5F5F5F5F5F5F5F5F5F5F5F5F5F5F5F5F5F5F5F5F5F5F5F5F5F5F5F5F5F5F5F5F5F5F5F5F5F5F5F5F5F5F5F5F5
310
F5F5F5F5F5F5F5F5F5F5F5F5F5F5F5F5E2E2F5F5F5F5F5F5F5F5F5F5F5F5F5F5F5F5F5F5F5F5F5F5F5F5F5F5F5F5F5F5F5F5F5F5F5F5F5F5F5F5F5F5F5F5F5F5F5F5F5F5F5F5F5F5F5F5F5F5F5F5F5F5F5F5F5F5F5F5F5F5F5F5F5F5F5F5F5F5F5F5F5F5F5F5F5F5F5F5F5F5F5F5F5F5F5F5F5F5F5F5F5F5F5F5F5F5F5F5F5
310
F5F5F5F5F5F5F5F5F5F5F5F5F5F5F5F5F5F5F5F5F5F5F5F5F5F5F5F5F5F5F5F5F5F5F5F5F5F5F5F5F5F5F5F5F5F5F5F5F5F5F5F5F5F5F5F5F5F5F5F5F5F5F5F5F5F5F5F5F5E2E2E2E2E2E2E2E2E2E2E2E2E2E2E2E2E2E2E2E2E2E2E2E2E2E2E2E2E2E2E2E2E2E2E2E2E2E2E2E2E2E2E2E2E2E2E2E2E2E2E2E2E2E2E2E2E2E2
310
E2E2E2E2E2E2E2E2E2E2E2E2E2E2E2E2E2E2E2E2E2E2E2E2E2E2E2E2E2E2E2E2E2E2E2E2E2E2E2E2E2E2E2E2E2E2E2E2E2E2E2E2E2E2E2E2E2E2E2E2E2E2E2E2E2E2E2E2E2E2E2E2E2E2E2E2E2E2E2E2E2E2E2E2E2E2E2E2E2E2E2E2E2E2E2E2E2E2E2E2E2E2E2E2E2E2E2E2E2E2E2E2E2E2E2E2E2E2E2E2E2E2E2EFEFEFEF
310
EFEFEFEFEFEFEFEFEFEFEFEFEFEFEFEFEFEFEFEFEFEFEFEFEFEFEFEFEFEFEFEFEFEFEFEFEFEFEFEFEFEFEFEFEFEFEFEFEFEFEFEFEFEFEFEFEFEFEFEFEFEFEFEFEFEFEFEFEFEFEFEFEFEFEFEFEFEFEFEFEFEFEFEFEFEFEFEFEFEFEFEFEFEFEFEFEFEFEFEFEFEFEFEFEFEFEFEFEFEFEFEFEFEFEFEFEFEFEFEFEFEFEFEFEFEFEF
310
EFEFEFEFEFEFEFEFEFEFEFEFEFEFEFEFEFEFEFEFEFEFEFEFEFEFEFEFEFEFEFEFEFEFEFEFEFEFEFEFEFEFEFEFEFEFEFEFEF
  0
XRECORD
  5
602D8
102
{ACAD_REACTORS
330
B5
102
}
330
B5
100
AcDbXrecord
280
     1
102
SHADEPLOT
 70
     0
102
SHADEPLOTRESLEVEL
 70
     2
102
SHADEPLOTCUSTOMDPI
 70
   300
  0
XRECORD
  5
B6
102
{ACAD_REACTORS
330
B5
102
}
330
B5
100
AcDbXrecord
280
     1
310
28000000B40000008B0000000100080000000000BC610000000000000000000000010000000000000000000000000000FFFFFF000000000000000000000000000000000000000000000000000000000000000000330000006600000099000000CC000000FF00000000330000333300006633000099330000CC330000FF3300
310
0000660000336600006666000099660000CC660000FF66000000990000339900006699000099990000CC990000FF99000000CC000033CC000066CC000099CC0000CCCC0000FFCC000000FF000033FF000066FF000099FF0000CCFF0000FFFF000000003300330033006600330099003300CC003300FF003300003333003333
310
33006633330099333300CC333300FF33330000663300336633006666330099663300CC663300FF66330000993300339933006699330099993300CC993300FF99330000CC330033CC330066CC330099CC3300CCCC3300FFCC330000FF330033FF330066FF330099FF3300CCFF3300FFFF330000006600330066006600660099
310
006600CC006600FF00660000336600333366006633660099336600CC336600FF33660000666600336666006666660099666600CC666600FF66660000996600339966006699660099996600CC996600FF99660000CC660033CC660066CC660099CC6600CCCC6600FFCC660000FF660033FF660066FF660099FF6600CCFF6600
310
FFFF660000009900330099006600990099009900CC009900FF00990000339900333399006633990099339900CC339900FF33990000669900336699006666990099669900CC669900FF66990000999900339999006699990099999900CC999900FF99990000CC990033CC990066CC990099CC9900CCCC9900FFCC990000FF99
310
0033FF990066FF990099FF9900CCFF9900FFFF99000000CC003300CC006600CC009900CC00CC00CC00FF00CC000033CC003333CC006633CC009933CC00CC33CC00FF33CC000066CC003366CC006666CC009966CC00CC66CC00FF66CC000099CC003399CC006699CC009999CC00CC99CC00FF99CC0000CCCC0033CCCC0066CC
310
CC0099CCCC00CCCCCC00FFCCCC0000FFCC0033FFCC0066FFCC0099FFCC00CCFFCC00FFFFCC000000FF003300FF006600FF009900FF00CC00FF00FF00FF000033FF003333FF006633FF009933FF00CC33FF00FF33FF000066FF003366FF006666FF009966FF00CC66FF00FF66FF000099FF003399FF006699FF009999FF00CC
310
99FF00FF99FF0000CCFF0033CCFF0066CCFF0099CCFF00CCCCFF00FFCCFF0000FFFF0033FFFF0066FFFF0099FFFF00CCFFFF00FFFFFF00000000000D0D0D001A1A1A00282828003535350043434300505050005D5D5D006B6B6B00787878008686860093939300A1A1A100AEAEAE00BBBBBB00C9C9C900D6D6D600E4E4E400
310
F1F1F100FFFFFF0000000000000000000000000000000000000000000000000000000000000000000000000000000000F5F5F5F5F5F5F5F5F5F5F5F5F5F5F5F5F5F5F5F5F5F5F5F5F5F5F5F5F5F5F5F5F5F5F5F5F5F5F5F5F5F5F5F5F5F5F5F5F5F5F5F5F5F5F5F5F5F5F5F5F5F5F5F5F5F5F5F5F5F5F5F5F5F5F5F5F5F5F5
310
F5F5F5F5F5F5F5F5F5F5F5F5F5F5F5F5F5F5F5F5F5F5F5F5F5F5F5F5F5F5F5F5F5F5F5F5F5F5F5F5F5F5F5F5F5F5F5F5F5F5F5F5F5F5F5F5F5F5F5F5F5F5F5F5F5F5F5F5F5F5F5F5F5F5F5F5F5F5F5F5F5F5F5F5F5F5F5F5F5F5F5F5F5F5F5F5F5F5F5F5F5F5E2E2E2E2E2E2E2E2E2E2E2E2E2E2E2E2E2E2E2E2E2E2E2E2E2
310
E2E2E2E2E2E2E2E2E2E2E2E2E2E2E2E2E2E2E2E2E2E2E2E2E2E2E2E2E2E2E2E2E2E2E2E2E2E2E2E2E2E2E2E2E2E2E2E2E2E2E2E2E2E2E2E2E2E2E2E2E2E2E2E2E2E2E2E2E2E2E2E2E2E2E2E2E2E2E2E2E2E2E2E2E2E2E2E2E2E2E2E2E2E2E2E2E2E2E2E2E2E2E2E2E2E2E2E2E2E2E2E2E2E2E2E2E2E2E2E2E2E2E2E2E2E2E2
310
E2E2E2E2E2E2E2E2E2E2E2E2E2E2E2E2E2E2E2E2E2E2E2E2E2E2F5F5E2E2E2E2E2E2E2E2E2E2E2E2E2E2E2E2E2E2E2E2E2E2E2E2E2E2E2E2E2E2E2E2E2E2E2E2E2E2E2E2E2E2E2E2E2E2E2E2E2E2E2E2E2E2E2E2E2E2E2E2E2E2E2E2E2E2E2E2E2E2E2E2E2E2E2E2E2E2E2E2E2E2E2E2E2E2E2E2E2E2E2E2E2E2E2E2E2E2E2
310
E2E2E2E2E2E2E2E2E2E2E2E2E2E2E2E2E2E2E2E2E2E2E2E2E2E2E2E2E2E2E2E2E2E2E2E2E2E2E2E2E2E2E2E2E2E2E2E2E2E2E2E2E2E2E2E2E2E2E2E2E2E2E2E2E2E2E2E2E2E2E2E2E2E2E2E2E2E2E2F5F5E2E2E2E2E2E2E2E2E2E2E2E2E2E2E2E2E2E2E2E2E2E2E2E2E2E2E2E2E2E2E2E2E2E2E2E2E2E2E2E2E2E2E2E2E2E2
310
E2E2E2E2E2E2E2E2E2E2E2E2E2E2E2E2E2E2E2E2E2E2E2E2E2E2E2E2E2E2E2E2E2E2E2E2E2E2E2E2E2E2E2E2E2E2E2E2E2E2E2E2E2E2E2E2E2E2E2E2E2E2E2E2E2E2E2E2E2E2E2E2E2E2E2E2E2E2E2E2E2E2E2E2E2E2E2E2E2E2E2E2E2E2E2E2E2E2E2E2E2E2E2E2E2E2E2E2E2E2E2E2E2E2E2E2E2E2E2E2E2E2E2E2E2E2E2
310
E2E2E2E2E2F5F5E2E2E2E2E2E2E2E2E2E2E2E2E2E2E2E2E2E2E2E2E2E2E2E2E2E2E2E2E2E2E2E2E2E2E2E2E2E2E2E2E2E2E2E2E2E2E2E2E2E2E2E2E2E2E2E2E2E2E2E2E2E2E2E2E2E2E2E2E2E2E2E2E2E2E2E2E2E2E2E2E2E2E2E2E2E2E2E2E2E2E2E2E2E2E2E2E2E2E2E2E2E2E2E2E2E2E2E2E2E2E2E2E2E2E2E2E2E2E2E2
310
E2E2E2E2E2E2E2E2E2E2E2E2E2E2E2E2E2E2E2E2E2E2E2E2E2E2E2E2E2E2E2E2E2E2E2E2E2E2E2E2E2E2E2E2E2E2E2E2E2E2E2E2E2E2E2E2E2E2F5F5E2E2E2F5F5F5F5F5F5F5F5E2E2E2E2E2E2E2E2E2F5F5F5F5F5F5F5F5F5F5F5F5F5F5F5F5E2E2E2E2E2E2E2E2E2F5F5F5F5F5F5F5F5F5F5F5F5F5F5F5E2E2E2E2E2E2E2
310
E2E2F5F5F5F5F5F5F5F5F5F5F5F5F5F5F5F5E2E2E2E2E2E2E2E2F5F5F5F5F5F5F5F5F5F5F5F5F5F5F5F5E2E2E2E2E2E2E2E2E2F5F5F5F5F5F5F5F5F5F5F5F5F5F5F5E2E2E2E2E2E2E2E2E2F5F5F5F5F5F5F5F5F5F5F5F5F5F5F5F5E2E2E2E2E2E2E2E2E2F5F5F5F5F5F5F5F5E2E2E2F5F5E2E2E2F5E2E2E2E2E2E2E2E2E2E2
310
E2E2E2E2E2E2E2E2E2E2E2E2E2E2E2E2E2E2E2E2E2E2E2E2E2E2E2E2E2E2E2E2E2E2E2E2E2E2E2E2E2E2E2E2E2E2E2E2E2E2E2E2E2E2E2E2E2E2E2E2E2E2E2E2E2E2E2E2E2E2E2E2E2E2E2E2E2E2E2E2E2E2E2E2E2E2E2E2E2E2E2E2E2E2E2E2E2E2E2E2E2E2E2E2E2E2E2E2E2E2E2E2E2E2E2E2E2E2E2E2E2E2E2E2E2E2E2
310
E2E2E2E2E2E2E2E2E2E2E2E2E2E2E2E2E2E2E2E2E2E2E2E2E2E2E2E2E2E2E2E2E2F5E2E2E2F5F5E2E2E2F5E2E2E2E2E2E2E2E2E2E2E2E2E2E2E2E2E2E2E2E2E2E2E2E2E2E2E2E2E2E2E2E2E2E2E2E2E2E2E2E2E2E2E2E2E2E2E2E2E2E2E2E2E2E2E2E2E2E2E2E2E2E2E2E2E2E2E2E2E2E2E2E2E2E2E2E2E2E2E2E2E2E2E2E2
310
E2E2E2E2E2E2E2E2E2E2E2E2E2E2E2E2E2E2E2E2E2E2E2E2E2E2E2E2E2E2E2E2E2E2E2E2E2E2E2E2E2E2E2E2E2E2E2E2E2E2E2E2E2E2E2E2E2E2E2E2E2E2E2E2E2E2E2E2E2E2E2E2E2E2E2E2E2E2E2E2E2E2E2E2E2E2F5E2E2E2F5F5E2E2E2F5E2E2E2E2E2E2E2E2E2E2E2E2E2E2E2E2E2E2E2E2E2E2E2E2E2E2E2E2E2E2E2
310
E2E2E2E2E2E2E2E2E2E2E2E2E2E2E2E2E2E2E2E2E2E2E2E2E2E2E2E2E2E2E2E2E2E2E2E2E2E2E2E2E2E2E2E2E2E2E2E2E2E2E2E2E2E2E2E2E2E2E2E2E2E2E2E2E2E2E2E2E2E2E2E2E2E2E2E2E2E2E2E2E2E2E2E2E2E2E2E2E2E2E2E2E2E2E2E2E2E2E2E2E2E2E2E2E2E2E2E2E2E2E2E2E2E2E2E2E2E2E2E2E2E2E2E2E2E2E2
310
E2E2E2E2E2E2E2E2E2E2E2E2F5E2E2E2F5F5E2E2E2F5E2E2E2E2E2E2E2E2E2E2E2E2E2E2E2E2E2E2E2E2E2E2E2E2E2E2E2E2E2E2E2E2E2E2E2E2E2E2E2E2E2E2E2E2E2E2E2E2E2E2E2E2E2E2E2E2E2E2E2E2E2E2E2E2E2E2E2E2E2E2E2E2E2E2E2E2E2E2E2E2E2E2E2E2E2E2E2E2E2E2E2E2E2E2E2E2E2E2E2E2E2E2E2E2E2
310
E2E2E2E2E2E2E2E2E2E2E2E2E2E2E2E2E2E2E2E2E2E2E2E2E2E2E2E2E2E2E2E2E2E2E2E2E2E2E2E2E2E2E2E2E2E2E2E2E2E2E2E2E2E2E2E2E2E2E2E2E2E2E2E2E2F5E2E2E2F5F5E2E2E2F5E2E2E2E2E2E2E2E2E2E2E2E2E2E2E2E2E2E2E2E2E2E2E2E2E2E2E2E2E2E2E2E2E2E2E2E2E2E2E2E2E2E2E2E2E2E2E2E2E2E2E2E2
310
E2E2E2E2E2E2E2E2E2E2E2E2E2E2E2E2E2E2E2E2E2E2E2E2E2E2E2E2E2E2E2E2E2E2E2E2E2E2E2E2E2E2E2E2E2E2E2E2E2E2E2E2E2E2E2E2E2E2E2E2E2E2E2E2E2E2E2E2E2E2E2E2E2E2E2E2E2E2E2E2E2E2E2E2E2E2E2E2E2E2E2E2E2E2E2E2E2E2E2E2E2E2E2E2E2E2E2E2E2E2E2E2E2E2E2E2E2E2F5E2E2E2F5F5E2E2E2
310
F5E2E2E2E2E2E2E2E2E2E2E2E2E2E2E2E2E2E2E2E2E2E2E2E2E2E2E2E2E2E2E2E2E2E2E2E2E2E2E2E2E2E2E2E2E2E2E2E2E2E2E2E2E2E2E2E2E2E2E2E2E2E2E2E2E2E2E2E2E2E2E2E2E2E2E2E2E2E2E2E2E2E2E2E2E2E2E2E2E2E2E2E2E2E2E2E2E2E2E2E2E2E2E2E2E2E2E2E2E2E2E2E2E2E2E2E2E2E2E2E2E2E2E2E2E2E2
310
E2E2E2E2E2E2E2E2E2E2E2E2E2E2E2E2E2E2E2E2E2E2E2E2E2E2E2E2E2E2E2E2E2E2E2E2E2E2E2E2E2E2E2E2F5E2E2E2F5F5E2E2E2F5E2E2E2E2E2E2E2E2E2E2E2E2E2E2E2E2E2E2E2E2E2E2E2E2E2E2E2E2E2E2E2E2E2E2E2E2E2E2E2E2E2E2E2E2E2E2E2E2E2E2E2E2E2E2E2E2E2E2E2E2E2E2E2E2E2E2E2E2E2E2E2E2E2
310
E2E2E2E2E2E2E2E2E2E2E2E2E2E2E2E2E2E2E2E2E2E2E2E2E2E2E2E2E2E2E2E2E2E2E2E2E2E2E2E2E2E2E2E2E2E2E2E2E2E2E2E2E2E2E2E2E2E2E2E2E2E2E2E2E2E2E2E2E2E2E2E2E2E2E2E2E2E2E2E2E2E2E2E2E2E2E2E2E2E2E2E2E2E2E2E2E2F5E2E2E2F5F5E2E2E2F5E2E2E2E2E2E2E2E2E2E2E2E2E2E2E2E2E2E2E2E2
310
E2E2E2E2E2E2E2E2E2E2E2E2E2E2E2E2E2E2E2E2E2E2E2E2E2E2E2E2E2E2E2E2E2E2E2E2E2E2E2E2E2E2E2E2E2E2E2E2E2E2E2E2E2E2E2E2E2E2E2E2E2E2E2E2E2E2E2E2E2E2E2E2E2E2E2E2E2E2E2E2E2E2E2E2E2E2E2E2E2E2E2E2E2E2E2E2E2E2E2E2E2E2E2E2E2E2E2E2E2E2E2E2E2E2E2E2E2E2E2E2E2E2E2E2E2E2E2
310
E2E2E2E2E2E2E2E2E2E2E2E2E2E2E2E2E2E2E2E2E2E2E2F5E2E2E2F5F5E2E2E2E2E2E2E2E2E2E2E2E2E2E2E2E2E2E2E2E2E2E2E2E2E2E2E2E2E2E2E2E2E2E2E2E2E2E2E2E2E2E2E2E2E2E2E2E2E2E2E2E2E2E2E2E2E2E2E2E2E2E2E2E2E2E2E2E2E2E2E2E2E2E2E2E2E2E2E2E2E2E2E2E2E2E2E2E2E2E2E2E2E2E2E2E2E2E2
310
E2E2E2E2E2E2E2E2E2E2E2E2E2E2E2E2E2E2E2E2E2E2E2E2E2E2E2E2E2E2E2E2E2E2E2E2E2E2E2E2E2E2E2E2E2E2E2E2E2E2E2E2E2E2E2E2E2E2E2E2E2E2E2E2E2E2E2E2E2E2E2E2E2E2E2E2E2E2E2E2F5F5E2E2E2E2E2E2E2E2E2E2E2E2E2E2E2E2E2E2E2E2E2E2E2E2E2E2E2E2E2E2E2E2E2E2E2E2E2E2E2E2E2E2E2E2E2
310
E2E2E2E2E2E2E2E2E2E2E2E2E2E2E2E2E2E2E2E2E2E2E2E2E2E2E2E2E2E2E2E2E2E2E2E2E2E2E2E2E2E2E2E2E2E2E2E2E2E2E2E2E2E2E2E2E2E2E2E2E2E2E2E2E2E2E2E2E2E2E2E2E2E2E2E2E2E2E2E2E2E2E2E2E2E2E2E2E2E2E2E2E2E2E2E2E2E2E2E2E2E2E2E2E2E2E2E2E2E2E2E2E2E2E2E2E2E2E2E2E2E2E2E2E2E2E2
310
E2E2E2E2E2E2F5F5E2E2E2E2E2E2E2E2E2E2E2E2E2E2E2E2E2E2E2E2E2E2E2E2E2E2E2E2E2E2E2E2E2E2E2E2E2E2E2E2E2E2E2E2E2E2E2E2E2E2E2E2E2E2E2E2E2E2E2E2E2E2E2E2E2E2E2E2E2E2E2E2E2E2E2E2E2E2E2E2E2E2E2E2E2E2E2E2E2E2E2E2E2E2E2E2E2E2E2E2E2E2E2E2E2E2E2E2E2E2E2E2E2E2E2E2E2E2E2
310
E2E2E2E2E2E2E2E2E2E2E2E2E2E2E2E2E2E2E2E2E2E2E2E2E2E2E2E2E2E2E2E2E2E2E2E2E2E2E2E2E2E2E2E2E2E2E2E2E2E2E2E2E2E2E2E2E2E2E2F5F5E2E2E2E2E2E2E2E2E2E2E2E2E2E2E2E2E2E2E2E2E2E2E2E2E2E2E2E2E2E2E2E2E2E2E2E2E2E2E2E2E2E2E2E2E2E2E2E2E2E2E2E2E2E2E2E2E2E2E2E2E2E2E2E2E2E2
310
E2E2E2E2E2E2E2E2E2E2E2E2E2E2E2E2E2E2E2E2E2E2E2E2E2E2E2E2E2E2E2E2E2E2E2E2E2E2E2E2E2E2E2E2E2E2E2E2E2E2E2E2E2E2E2E2E2E2E2E2E2E2E2E2E2E2E2E2E2E2E2E2E2E2E2E2E2E2E2E2E2E2E2E2E2E2E2E2E2E2E2E2E2E2E2E2E2E2E2E2E2E2E2E2E2E2E2E2E2E2E2E2F5F5E2E2E2E2E2E2E2E2E2E2E2E2E2
310
E2E2E2E2E2E2E2F5F5F5F5F5F5F5F5F5F5F5F5F5F5F5F5F5F5F5F5F5F5F5F5F5F5F5F5F5F5F5F5F5F5F5F5F5F5F5F5F5F5F5F5F5F5F5F5F5F5F5F5F5F5F5F5F5F5F5F5F5F5F5F5F5F5F5F5F5F5F5F5F5F5F5F5F5F5F5F5F5F5F5F5F5F5F5F5F5F5F5F5F5F5F5F5F5F5F5F5F5F5F5F5F5F5F5F5F5F5F5F5F5F5F5F5F5F5F5F5
310
F5F5F5F5F5F5F5F5F5F5F5F5F5F5F5F5F5F5E2E2E2E2E2E2E2E2E2E2E2E2E2E2E2E2E2E2E2E2F5F5E2E2E2E2E2E2E2E2E2E2E2E2E2E2E2E2E2E2E2E2F5E2E2E2E2E2E2E2E2E2E2E2E2E2E2E2E2E2E2E2E2E2E2E2E2E2E2E2E2E2E2E2E2E2E2E2E2E2E2E2E2E2E2E2E2E2E2E2E2E2E2E2E2E2E2E2E2E2E2E2E2E2E2E2E2E2E2
310
E2E2E2E2E2E2E2E2E2E2E2E2E2E2E2E2E2E2E2E2E2E2E2E2E2E2E2E2E2E2E2E2E2E2E2E2E2E2E2E2E2E2E2E2E2E2E2E2E2E2E2E2E2E2E2E2E2E2E2E2E2E2E2E2E2E2E2E2E2E2F5E2E2E2E2E2E2E2E2E2E2E2E2E2E2E2E2E2E2E2E2F5F5E2E2E2E2E2E2E2E2E2E2E2E2E2E2E2E2E2E2E2E2F5E2E2E2E2E2E2E2E2E2E2E2E2E2
310
E2E2E2E2E2E2E2E2E2E2E2E2E2E2E2E2E2E2E2E2E2E2E2E2E2E2E2E2E2E2E2E2E2E2E2E2E2E2E2E2E2E2E2E2E2E2E2E2E2E2E2E2E2E2E2E2E2E2E2E2E2E2E2E2E2E2E2E2E2E2E2E2E2E2E2E2E2E2E2E2E2E2E2E2E2E2E2E2E2E2E2E2E2E2E2E2E2E2E2E2E2E2E2E2E2E2E2E2E2E2E2E2E2E2E2E2E2E2E2E2E2E2E2F5E2E2E2
310
E2E2E2E2E2E2E2E2E2E2E2E2E2E2E2E2E2F5F5E2E2E2E2E2E2E2E2E2E2E2E2E2E2E2E2E2E2E2E2F5E2E2E2E2E2E2E2E2E2E2E2E2E2E2E2E2E2E2E2E2E2E2E2E2E2E2E2E2E2E2E2E2E2E2E2E2E2E2E2E2E2E2E2E2E2E2E2E2E2E2E2E2E2E2E2E2E2E2E2E2E2E2E2E2E2E2E2E2E2E2E2E2E2E2E2E2E2E2E2E2E2E2E2E2E2E2E2
310
E2E2E2E2E2E2E2E2E2E2E2E2E2E2E2E2E2E2E2E2E2E2E2E2E2E2E2E2E2E2E2E2E2E2E2E2E2E2E2E2E2E2E2E2E2E2E2E2E2F5E2E2E2E2E2E2E2E2E2E2E2E2E2E2E2E2E2E2E2E2F5F5E2E2E2E2E2E2E2E2E2E2E2E2E2E2E2E2E2E2E2E2F5E2E2E2E2E2E2E2E2E2E2E2E2E2E2E2E2E2E2E2E2E2E2E2E2E2E2E2E2E2E2E2E2E2E2
310
E2E2E2E2E2E2E2E2E2E2E2E2E2E2E2E2E2E2E2E2E2E2E2E2E2E2E2E2E2E2E2E2E2E2E2E2E2E2E2E2E2E2E2E2E2E2E2E2E2E2E2E2E2E2E2E2E2E2E2E2E2E2E2E2E2E2E2E2E2E2E2E2E2E2E2E2E2E2E2E2E2E2E2E2E2E2E2E2E2E2E2E2E2E2E2E2E2E2E2E2E2E2F5E2E2E2E2E2E2E2E2E2E2E2E2E2E2E2E2E2E2E2E2F5F5E2E2
310
E2F5E2E2E2E2E2E2E2E2E2E2E2E2E2E2E2E2F5E2E2E2E2E2E2E2E2E2E2E2E2E2E2E2E2E2E2E2E2E2E2E2E2E2E2E2E2E2E2E2E2E2E2E2E2E2E2E2E2E2E2E2E2E2E2E2E2E2E2E2E2E2E2E2E2E2E2E2E2E2E2E2E2E2E2E2E2E2E2E2E2E2E2E2E2E2E2E2E2E2E2E2E2E2E2E2E2E2E2E2E2E2E2E2E2E2E2E2E2E2E2E2E2E2E2E2E2
310
E2E2E2E2E2E2E2E2E2E2E2E2E2E2E2E2E2E2E2E2E2E2E2E2E2E2E2E2F5E2E2E2E2E2E2E2E2E2E2E2E2E2E2E2E2F5E2E2E2F5F5E2E2E2F5E2E2E2E2E2E2E2E2E2E2E2E2E2E2E2E2F5E2E2E2E2E2E2E2E2E2E2E2E2E2E2E2E2E2E2E2E2E2E2E2E2E2E2E2E2E2E2E2E2E2E2E2E2E2E2E2E2E2E2E2E2E2E2E2E2E2E2E2E2E2E2E2
310
E2E2E2E2E2E2E2E2E2E2E2E2E2E2E2E2E2E2E2E2E2E2E2E2E2E2E2E2E2E2E2E2E2E2E2E2E2E2E2E2E2E2E2E2E2E2E2E2E2E2E2E2E2E2E2E2E2E2E2E2E2E2E2E2E2E2E2E2E2E2E2E2E2E2E2E2E2E2E2E2E2F5E2E2E2E2E2E2E2E2E2E2E2E2E2E2E2E2F5E2E2E2F5F5E2E2E2F5E2E2E2E2E2E2E2E2E2E2E2E2E2E2E2E2F5E2E2
310
E2E2E2E2E2E2E2E2E2E2E2E2E2E2E2E2E2E2E2E2E2E2E2E2E2E2E2E2E2E2E2E2E2E2E2E2E2E2E2E2E2E2E2E2E2E2E2E2E2E2E2E2E2E2E2E2E2E2E2E2E2E2E2E2E2E2E2E2E2E2E2E2E2E2E2E2E2E2E2E2E2E2E2E2E2E2E2E2E2E2E2E2E2E2E2E2E2E2E2E2E2E2E2E2E2E2E2E2E2E2E2E2E2E2E2E2E2E2E2E2E2E2E2E2E2E2E2
310
E2E2E2E2E2E2E2F5E2E2E2E2E2E2E2E2E2E2E2E2E2E2E2E2F5E2E2E2F5F5E2E2E2F5E2E2E2E2E2E2E2E2E2E2E2E2E2E2E2E2F5E2E2E2E2E2E2E2E2E2E2E2E2E2E2E2E2E2E2E2E2E2E2E2E2E2E2E2E2E2E2E2E2E2E2E2E2E2E2E2E2E2E2E2E2E2E2E2E2E2E2E2E2E2E2E2E2E2E2E2E2E2E2E2E2E2E2E2E2E2E2E2E2E2E2E2E2
310
E2E2E2E2E2E2E2E2E2E2E2E2E2E2E2E2E2E2E2E2E2E2E2E2E2E2E2E2E2E2E2E2E2E2E2E2E2E2E2E2E2E2E2E2E2E2E2E2E2E2E2E2E2E2E2E2E2E2E2E2F5E2E2E2E2E2E2E2E2E2E2E2E2E2E2E2E2F5E2E2E2F5F5E2E2E2F5E2E2E2E2E2E2E2E2E2E2E2E2E2E2E2E2F5E2E2E2E2E2E2E2E2E2E2E2E2E2E2E2E2E2E2E2E2E2E2E2
310
E2E2E2E2E2E2E2E2E2E2E2E2E2E2E2E2E2E2E2E2E2E2E2E2E2E2E2E2E2E2E2E2E2E2E2E2E2E2E2E2E2E2E2E2E2E2E2E2E2E2E2E2E2E2E2E2E2E2E2E2E2E2E2E2E2E2E2E2E2E2E2E2E2E2E2E2E2E2E2E2E2E2E2E2E2E2E2E2E2E2E2E2E2E2E2E2E2E2E2E2E2E2E2E2E2E2E2E2E2E2E2E2E2F5E2E2E2E2E2E2E2E2E2E2E2E2E2
310
E2E2E2F5E2E2E2F5F5E2E2E2F5E2E2E2E2E2E2E2E2E2E2E2E2E2E2E2E2F5E2E2E2E2E2E2E2E2E2E2E2E2E2E2E2E2E2E2E2E2E2E2E2E2E2E2E2E2E2E2E2E2E2E2E2E2E2E2E2E2E2E2E2E2E2E2E2E2E2E2E2E2E2E2E2E2E2E2E2E2E2E2E2E2E2E2E2E2E2E2E2E2E2E2E2E2E2E2E2E2E2E2E2E2E2E2E2E2E2E2E2E2E2E2E2E2E2
310
E2E2E2E2E2E2E2E2E2E2E2E2E2E2E2E2E2E2E2E2E2E2E2E2E2E2E2E2E2E2E2E2E2E2E2E2E2E2E2F5E2E2E2E2E2E2E2E2E2E2E2E2E2E2E2E2F5E2E2E2F5F5E2E2E2F5E2E2E2E2E2E2E2E2E2E2E2E2E2E2E2E2F5E2E2E2E2E2E2E2E2E2E2E2E2E2E2E2E2E2E2E2E2E2E2E2E2E2E2E2E2E2E2E2E2E2E2E2E2E2E2E2E2E2E2E2E2
310
E2E2E2E2E2E2E2E2E2E2E2E2E2E2E2E2E2E2E2E2E2E2E2E2E2E2E2E2E2E2E2E2E2E2E2E2E2E2E2E2E2E2E2E2E2E2E2E2E2E2E2E2E2E2E2E2E2E2E2E2E2E2E2E2E2E2E2E2E2E2E2E2E2E2E2E2E2E2E2E2E2E2E2E2E2E2E2E2E2E2E2E2F5E2E2E2E2E2E2E2E2E2E2E2E2E2E2E2E2F5E2E2E2F5F5E2E2E2F5E2E2E2E2E2E2E2E2
310
E2E2E2E2E2E2E2E2F5E2E2E2E2E2E2E2E2E2E2E2E2E2E2E2E2E2E2E2E2E2E2E2E2E2E2E2E2E2E2E2E2E2E2E2E2E2E2E2E2E2E2E2E2E2E2E2E2E2E2E2E2E2E2E2E2E2E2E2E2E2E2E2E2E2E2E2E2E2E2E2E2E2E2E2E2E2E2E2E2E2E2E2E2E2E2E2E2E2E2E2E2E2E2E2E2E2E2E2E2E2E2E2E2E2E2E2E2E2E2E2E2E2E2E2E2E2E2
310
E2E2E2E2E2E2E2E2E2E2E2E2E2E2E2E2E2E2F5E2E2E2E2E2E2E2E2E2E2E2E2E2E2E2E2F5E2E2E2F5F5E2E2E2F5E2E2E2E2E2E2E2E2E2E2E2E2E2E2E2E2F5E2E2E2E2E2E2E2E2E2E2E2E2E2E2E2E2E2E2E2E2E2E2E2E2E2E2E2E2E2E2E2E2E2E2E2E2E2E2E2E2E2E2E2E2E2E2E2E2E2E2E2E2E2E2E2E2E2E2E2E2E2E2E2E2E2
310
E2E2E2E2E2E2E2E2E2E2E2E2E2E2E2E2E2E2E2E2E2E2E2E2E2E2E2E2E2E2E2E2E2E2E2E2E2E2E2E2E2E2E2E2E2E2E2E2E2E2E2E2E2E2E2E2E2E2E2E2E2E2E2E2E2E2E2E2E2E2E2F5E2E2E2E2E2E2E2E2E2E2E2E2E2E2E2E2F5E2E2E2F5F5E2E2E2F5E2E2E2E2E2E2E2E2E2E2E2E2E2E2E2E2F5E2E2E2E2E2E2E2E2E2E2E2E2
310
E2E2E2E2E2E2E2E2E2E2E2E2E2E2E2E2E2E2E2E2E2E2E2E2E2E2E2E2E2E2E2E2E2E2E2E2E2E2E2E2E2E2E2E2E2E2E2E2E2E2E2E2E2E2E2E2E2E2E2E2E2E2E2E2E2E2E2E2E2E2E2E2E2E2E2E2E2E2E2E2E2E2E2E2E2E2E2E2E2E2E2E2E2E2E2E2E2E2E2E2E2E2E2E2E2E2E2E2E2E2E2E2E2E2E2E2E2E2E2E2E2E2E2E2F5E2E2
310
E2E2E2E2E2E2E2E2E2E2E2E2E2E2F5E2E2E2F5F5E2E2E2F5E2E2E2E2E2E2E2E2E2E2E2E2E2E2E2E2F5E2E2E2E2E2E2E2E2E2E2E2E2E2E2E2E2E2E2E2E2E2E2E2E2E2E2E2E2E2E2E2E2E2E2E2E2E2E2E2E2E2E2E2E2E2E2E2E2E2E2E2E2E2E2E2E2E2E2E2E2E2E2E2E2E2E2E2E2E2E2E2E2E2E2E2E2E2E2E2E2E2E2E2E2E2E2
310
E2E2E2E2E2E2E2E2E2E2E2E2E2E2E2E2E2E2E2E2E2E2E2E2E2E2E2E2E2E2E2E2E2E2E2E2E2E2E2E2E2E2E2E2E2E2E2E2E2E2F5E2E2E2E2E2E2E2E2E2E2E2E2E2E2E2E2F5E2E2E2F5F5E2E2E2F5E2E2E2E2E2E2E2E2E2E2E2E2E2E2E2E2F5E2E2E2E2E2E2E2E2E2E2E2E2E2E2E2E2E2E2E2E2E2E2E2E2E2E2E2E2E2E2E2E2E2
310
E2E2E2E2E2E2E2E2E2E2E2E2E2E2E2E2E2E2E2E2E2E2E2E2E2E2E2E2E2E2E2E2E2E2E2E2E2E2E2E2E2E2E2E2E2E2E2E2E2E2E2E2E2E2E2E2E2E2E2E2E2E2E2E2E2E2E2E2E2E2E2E2E2E2E2E2E2E2E2E2E2E2E2E2E2E2E2E2E2E2E2E2E2E2E2E2E2E2E2E2E2E2E2F5E2E2E2E2E2E2E2E2E2E2E2E2E2E2E2E2F5E2E2E2F5F5E2
310
E2E2F5E2E2E2E2E2E2E2E2E2E2E2E2E2E2E2E2F5E2E2E2E2E2E2E2E2E2E2E2E2E2E2E2E2E2E2E2E2E2E2E2E2E2E2E2E2E2E2E2E2E2E2E2E2E2E2E2E2E2E2E2E2E2E2E2E2E2E2E2E2E2E2E2E2E2E2E2E2E2E2E2E2E2E2E2E2E2E2E2E2E2E2E2E2E2E2E2E2E2E2E2E2E2E2E2E2E2E2E2E2E2E2E2E2E2E2E2E2E2E2E2E2E2E2E2
310
E2E2E2E2E2E2E2E2E2E2E2E2E2E2E2E2E2E2E2E2E2E2E2E2E2E2E2E2E2F5E2E2E2E2E2E2E2E2E2E2E2E2E2E2E2E2F5E2E2E2F5F5E2E2E2F5E2E2E2E2E2E2E2E2E2E2E2E2E2E2E2E2F5E2E2E2E2E2E2E2E2E2E2E2E2E2E2E2E2E2E2E2E2E2E2E2E2E2E2E2E2E2E2E2E2E2E2E2E2E2E2E2E2E2E2E2E2E2E2E2E2E2E2E2E2E2E2
310
E2E2E2E2E2E2E2E2E2E2E2E2E2E2E2E2E2E2E2E2E2E2E2E2E2E2E2E2E2E2E2E2E2E2E2E2E2E2E2E2E2E2E2E2E2E2E2E2E2E2E2E2E2E2E2E2E2E2E2E2E2E2E2E2E2E2E2E2E2E2E2E2E2E2E2E2E2E2E2E2E2E2F5E2E2E2E2E2E2E2E2E2E2E2E2E2E2E2E2F5E2E2E2F5F5E2E2E2F5E2E2E2E2E2E2E2E2E2E2E2E2E2E2E2E2F5E2
310
E2E2E2E2E2E2E2E2E2E2E2E2E2E2E2E2E2E2E2E2E2E2E2E2E2E2E2E2E2E2E2E2E2E2E2E2E2E2E2E2E2E2E2E2E2E2E2E2E2E2E2E2E2E2E2E2E2E2E2E2E2E2E2E2E2E2E2E2E2E2E2E2E2E2E2E2E2E2E2E2E2E2E2E2E2E2E2E2E2E2E2E2E2E2E2E2E2E2E2E2E2E2E2E2E2E2E2E2E2E2E2E2E2E2E2E2E2E2E2E2E2E2E2E2E2E2E2
310
E2E2E2E2E2E2E2E2F5E2E2E2E2E2E2E2E2E2E2E2E2E2E2E2E2F5E2E2E2F5F5E2E2E2F5E2E2E2E2E2E2E2E2E2E2E2E2E2E2E2E2F5E2E2E2E2E2E2E2E2E2E2E2E2E2E2E2E2E2E2E2E2E2E2E2E2E2E2E2E2E2E2E2E2E2E2E2E2E2E2E2E2E2E2E2E2E2E2E2E2E2E2E2E2E2E2E2E2E2E2E2E2E2E2E2E2E2E2E2E2E2E2E2E2E2E2E2
310
E2E2E2E2E2E2E2E2E2E2E2E2E2E2E2E2E2E2E2E2E2E2E2E2E2E2E2E2E2E2E2E2E2E2E2E2E2E2E2E2E2E2E2E2E2E2E2E2E2E2E2E2E2E2E2E2E2E2E2E2E2F5E2E2E2E2E2E2E2E2E2E2E2E2E2E2E2E2F5E2E2E2F5F5E2E2E2F5E2E2E2E2E2E2E2E2E2E2E2E2E2E2E2E2F5E2E2E2E2E2E2E2E2E2E2E2E2E2E2E2E2E2E2E2E2E2E2
310
E2E2E2E2E2E2E2E2E2E2E2E2E2E2E2E2E2E2E2E2E2E2E2E2E2E2E2E2E2E2E2E2E2E2E2E2E2E2E2E2E2E2E2E2E2E2E2E2E2E2E2E2E2E2E2E2E2E2E2E2E2E2E2E2E2E2E2E2E2E2E2E2E2E2E2E2E2E2E2E2E2E2E2E2E2E2E2E2E2E2E2E2E2E2E2E2E2E2E2E2E2E2E2E2E2E2E2E2E2E2E2E2E2E2F5E2E2E2E2E2E2E2E2E2E2E2E2
310
E2E2E2E2F5E2E2E2F5F5E2E2E2E2E2E2E2E2E2E2E2E2E2E2E2E2E2E2E2E2F5E2E2E2E2E2E2E2E2E2E2E2E2E2E2E2E2E2E2E2E2E2E2E2E2E2E2E2E2E2E2E2E2E2E2E2E2E2E2E2E2E2E2E2E2E2E2E2E2E2E2E2E2E2E2E2E2E2E2E2E2E2E2E2E2E2E2E2E2E2E2E2E2E2E2E2E2E2E2E2E2E2E2E2E2E2E2E2E2E2E2E2E2E2E2E2E2
310
E2E2E2E2E2E2E2E2E2E2E2E2E2E2E2E2E2E2E2E2E2E2E2E2E2E2E2E2E2E2E2E2E2E2E2E2E2E2E2E2F5E2E2E2E2E2E2E2E2E2E2E2E2E2E2E2E2E2E2E2E2F5F5E2E2E2E2E2E2E2E2E2E2E2E2E2E2E2E2E2E2E2E2F5E2E2E2E2E2E2E2E2E2E2E2E2E2E2E2E2E2E2E2E2E2E2E2E2E2E2E2E2E2E2E2E2E2E2E2E2E2E2E2E2E2E2E2
310
E2E2E2E2E2E2E2E2E2E2E2E2E2E2E2E2E2E2E2E2E2E2E2E2E2E2E2E2E2E2E2E2E2E2E2E2E2E2E2E2E2E2E2E2E2E2E2E2E2E2E2E2E2E2E2E2E2E2E2E2E2E2E2E2E2E2E2E2E2E2E2E2E2E2E2E2E2E2E2E2E2E2E2E2E2E2E2E2E2E2E2E2E2F5E2E2E2E2E2E2E2E2E2E2E2E2E2E2E2E2E2E2E2E2F5F5E2E2E2E2E2E2E2E2E2E2E2
310
E2E2E2E2E2E2E2E2E2F5E2E2E2E2E2E2E2E2E2E2E2E2E2E2E2E2E2E2E2E2E2E2E2E2E2E2E2E2E2E2E2E2E2E2E2E2E2E2E2E2E2E2E2E2E2E2E2E2E2E2E2E2E2E2E2E2E2E2E2E2E2E2E2E2E2E2E2E2E2E2E2E2E2E2E2E2E2E2E2E2E2E2E2E2E2E2E2E2E2E2E2E2E2E2E2E2E2E2E2E2E2E2E2E2E2E2E2E2E2E2E2E2E2E2E2E2E2
310
E2E2E2E2E2E2E2E2E2E2E2E2E2E2E2E2E2E2E2F5E2E2E2E2E2E2E2E2E2E2E2E2E2E2E2E2E2E2E2E2F5F5E2E2E2E2E2E2E2E2E2E2E2E2E2E2E2E2E2E2E2E2F5E2E2E2E2E2E2E2E2E2E2E2E2E2E2E2E2E2E2E2E2E2E2E2E2E2E2E2E2E2E2E2E2E2E2E2E2E2E2E2E2E2E2E2E2E2E2E2E2E2E2E2E2E2E2E2E2E2E2E2E2E2E2E2E2
310
E2E2E2E2E2E2E2E2E2E2E2E2E2E2E2E2E2E2E2E2E2E2E2E2E2E2E2E2E2E2E2E2E2E2E2E2E2E2E2E2E2E2E2E2E2E2E2E2E2E2E2E2E2E2E2E2E2E2E2E2E2E2E2E2E2E2E2E2E2E2E2E2F5E2E2E2E2E2E2E2E2E2E2E2E2E2E2E2E2E2E2E2E2F5F5E2E2E2E2E2E2E2E2E2E2E2E2E2E2E2E2E2E2E2E2F5E2E2E2E2E2E2E2E2E2E2E2
310
E2E2E2E2E2E2E2E2E2E2E2E2E2E2E2E2E2E2E2E2E2E2E2E2E2E2E2E2E2E2E2E2E2E2E2E2E2E2E2E2E2E2E2E2E2E2E2E2E2E2E2E2E2E2E2E2E2E2E2E2E2E2E2E2E2E2E2E2E2E2E2E2E2E2E2E2E2E2E2E2E2E2E2E2E2E2E2E2E2E2E2E2E2E2E2E2E2E2E2E2E2E2E2E2E2E2E2E2E2E2E2E2E2E2E2E2E2E2E2E2E2E2E2E2E2F5E2
310
E2E2E2E2E2E2E2E2E2E2E2E2E2E2E2E2E2E2E2F5F5E2E2E2E2E2E2E2E2E2E2E2E2E2E2E2E2E2E2E2E2F5E2E2E2E2E2E2E2E2E2E2E2E2E2E2E2E2E2E2E2E2E2E2E2E2E2E2E2E2E2E2E2E2E2E2E2E2E2E2E2E2E2E2E2E2E2E2E2E2E2E2E2E2E2E2E2E2E2E2E2E2E2E2E2E2E2E2E2E2E2E2E2E2E2E2E2E2E2E2E2E2E2E2E2E2E2
310
E2E2E2E2E2E2E2E2E2E2E2E2E2E2E2E2E2E2E2E2E2E2E2E2E2E2E2E2E2E2E2E2E2E2E2E2E2E2E2E2E2E2E2E2E2E2E2E2E2E2E2F5E2E2E2E2E2E2E2E2E2E2E2E2E2E2E2E2E2E2E2E2F5F5E2E2E2E2E2E2E2E2E2E2E2E2E2E2E2E2E2E2E2E2F5E2E2E2E2E2E2E2E2E2E2E2E2E2E2E2E2E2E2E2E2E2E2E2E2E2E2E2E2E2E2E2E2
310
E2E2E2E2E2E2E2E2E2E2E2E2E2E2E2E2E2E2E2E2E2E2E2E2E2E2E2E2E2E2E2E2E2E2E2E2E2E2E2E2E2E2E2E2E2E2E2E2E2E2E2E2E2E2E2E2E2E2E2E2E2E2E2E2E2E2E2E2E2E2E2E2E2E2E2E2E2E2E2E2E2E2E2E2E2E2E2E2E2E2E2E2E2E2E2E2E2E2E2E2E2E2E2E2F5E2E2E2E2E2E2E2E2E2E2E2E2E2E2E2E2E2E2E2E2F5F5
310
E2E2E2E2E2E2E2E2E2E2E2E2E2E2E2E2E2E2E2E2F5E2E2E2E2E2E2E2E2E2E2E2E2E2E2E2E2E2E2E2E2E2E2E2E2E2E2E2E2E2E2E2E2E2E2E2E2E2E2E2E2E2E2E2E2E2E2E2E2E2E2E2E2E2E2E2E2E2E2E2E2E2E2E2E2E2E2E2E2E2E2E2E2E2E2E2E2E2E2E2E2E2E2E2E2E2E2E2E2E2E2E2E2E2E2E2E2E2E2E2E2E2E2E2E2E2E2
310
E2E2E2E2E2E2E2E2E2E2E2E2E2E2E2E2E2E2E2E2E2E2E2E2E2E2E2E2E2E2F5E2E2E2E2E2E2E2E2E2E2E2E2E2E2E2E2E2E2E2E2F5F5E2E2E2E2E2E2E2E2E2E2E2E2E2E2E2E2E2E2E2E2F5E2E2E2E2E2E2E2E2E2E2E2E2E2E2E2E2E2E2E2E2E2E2E2E2E2E2E2E2E2E2E2E2E2E2E2E2E2E2E2E2E2E2E2E2E2E2E2E2E2E2E2E2E2
310
E2E2E2E2E2E2E2E2E2E2E2E2E2E2E2E2E2E2E2E2E2E2E2E2E2E2E2E2E2E2E2E2E2E2E2E2E2E2E2E2E2E2E2E2E2E2E2E2E2E2E2E2E2E2E2E2E2E2E2E2E2E2E2E2E2E2E2E2E2E2E2E2E2E2E2E2E2E2E2E2E2E2E2F5E2E2E2E2E2E2E2E2E2E2E2E2E2E2E2E2E2E2E2E2F5F5E2E2E2F5E2E2E2E2E2E2E2E2E2E2E2E2E2E2E2E2F5
310
E2E2E2E2E2E2E2E2E2E2E2E2E2E2E2E2E2E2E2E2E2E2E2E2E2E2E2E2E2E2E2E2E2E2E2E2E2E2E2E2E2E2E2E2E2E2E2E2E2E2E2E2E2E2E2E2E2E2E2E2E2E2E2E2E2E2E2E2E2E2E2E2E2E2E2E2E2E2E2E2E2E2E2E2E2E2E2E2E2E2E2E2E2E2E2E2E2E2E2E2E2E2E2E2E2E2E2E2E2E2E2E2E2E2E2E2E2E2E2E2E2E2E2E2E2E2E2
310
E2E2E2E2E2E2E2E2E2F5E2E2E2E2E2E2E2E2E2E2E2E2E2E2E2E2F5E2E2E2F5F5E2E2E2F5E2E2E2E2E2E2E2E2E2E2E2E2E2E2E2E2F5E2E2E2E2E2E2E2E2E2E2E2E2E2E2E2E2E2E2E2E2E2E2E2E2E2E2E2E2E2E2E2E2E2E2E2E2E2E2E2E2E2E2E2E2E2E2E2E2E2E2E2E2E2E2E2E2E2E2E2E2E2E2E2E2E2E2E2E2E2E2E2E2E2E2
310
E2E2E2E2E2E2E2E2E2E2E2E2E2E2E2E2E2E2E2E2E2E2E2E2E2E2E2E2E2E2E2E2E2E2E2E2E2E2E2E2E2E2E2E2E2E2E2E2E2E2E2E2E2E2E2E2E2E2E2E2E2E2F5E2E2E2E2E2E2E2E2E2E2E2E2E2E2E2E2F5E2E2E2F5F5E2E2E2F5E2E2E2E2E2E2E2E2E2E2E2E2E2E2E2E2F5E2E2E2E2E2E2E2E2E2E2E2E2E2E2E2E2E2E2E2E2E2
310
E2E2E2E2E2E2E2E2E2E2E2E2E2E2E2E2E2E2E2E2E2E2E2E2E2E2E2E2E2E2E2E2E2E2E2E2E2E2E2E2E2E2E2E2E2E2E2E2E2E2E2E2E2E2E2E2E2E2E2E2E2E2E2E2E2E2E2E2E2E2E2E2E2E2E2E2E2E2E2E2E2E2E2E2E2E2E2E2E2E2E2E2E2E2E2E2E2E2E2E2E2E2E2E2E2E2E2E2E2E2E2E2E2E2E2F5E2E2E2E2E2E2E2E2E2E2E2
310
E2E2E2E2E2F5E2E2E2F5F5E2E2E2F5E2E2E2E2E2E2E2E2E2E2E2E2E2E2E2E2F5E2E2E2E2E2E2E2E2E2E2E2E2E2E2E2E2E2E2E2E2E2E2E2E2E2E2E2E2E2E2E2E2E2E2E2E2E2E2E2E2E2E2E2E2E2E2E2E2E2E2E2E2E2E2E2E2E2E2E2E2E2E2E2E2E2E2E2E2E2E2E2E2E2E2E2E2E2E2E2E2E2E2E2E2E2E2E2E2E2E2E2E2E2E2E2
310
E2E2E2E2E2E2E2E2E2E2E2E2E2E2E2E2E2E2E2E2E2E2E2E2E2E2E2E2E2E2E2E2E2E2E2E2E2E2E2E2E2F5E2E2E2E2E2E2E2E2E2E2E2E2E2E2E2E2F5E2E2E2F5F5E2E2E2F5E2E2E2E2E2E2E2E2E2E2E2E2E2E2E2E2F5E2E2E2E2E2E2E2E2E2E2E2E2E2E2E2E2E2E2E2E2E2E2E2E2E2E2E2E2E2E2E2E2E2E2E2E2E2E2E2E2E2E2
310
E2E2E2E2E2E2E2E2E2E2E2E2E2E2E2E2E2E2E2E2E2E2E2E2E2E2E2E2E2E2E2E2E2E2E2E2E2E2E2E2E2E2E2E2E2E2E2E2E2E2E2E2E2E2E2E2E2E2E2E2E2E2E2E2E2E2E2E2E2E2E2E2E2E2E2E2E2E2E2E2E2E2E2E2E2E2E2E2E2E2E2E2E2E2F5E2E2E2E2E2E2E2E2E2E2E2E2E2E2E2E2F5E2E2E2F5F5E2E2E2F5E2E2E2E2E2E2
310
E2E2E2E2E2E2E2E2E2E2F5E2E2E2E2E2E2E2E2E2E2E2E2E2E2E2E2E2E2E2E2E2E2E2E2E2E2E2E2E2E2E2E2E2E2E2E2E2E2E2E2E2E2E2E2E2E2E2E2E2E2E2E2E2E2E2E2E2E2E2E2E2E2E2E2E2E2E2E2E2E2E2E2E2E2E2E2E2E2E2E2E2E2E2E2E2E2E2E2E2E2E2E2E2E2E2E2E2E2E2E2E2E2E2E2E2E2E2E2E2E2E2E2E2E2E2E2
310
E2E2E2E2E2E2E2E2E2E2E2E2E2E2E2E2E2E2E2E2F5E2E2E2E2E2E2E2E2E2E2E2E2E2E2E2E2F5E2E2E2F5F5E2E2E2F5E2E2E2E2E2E2E2E2E2E2E2E2E2E2E2E2F5E2E2E2E2E2E2E2E2E2E2E2E2E2E2E2E2E2E2E2E2E2E2E2E2E2E2E2E2E2E2E2E2E2E2E2E2E2E2E2E2E2E2E2E2E2E2E2E2E2E2E2E2E2E2E2E2E2E2E2E2E2E2E2
310
E2E2E2E2E2E2E2E2E2E2E2E2E2E2E2E2E2E2E2E2E2E2E2E2E2E2E2E2E2E2E2E2E2E2E2E2E2E2E2E2E2E2E2E2E2E2E2E2E2E2E2E2E2E2E2E2E2E2E2E2E2E2E2E2E2E2E2E2E2E2E2E2E2F5E2E2E2E2E2E2E2E2E2E2E2E2E2E2E2E2F5E2E2E2F5F5E2E2E2F5E2E2E2E2E2E2E2E2E2E2E2E2E2E2E2E2F5E2E2E2E2E2E2E2E2E2E2
310
E2E2E2E2E2E2E2E2E2E2E2E2E2E2E2E2E2E2E2E2E2E2E2E2E2E2E2E2E2E2E2E2E2E2E2E2E2E2E2E2E2E2E2E2E2E2E2E2E2E2E2E2E2E2E2E2E2E2E2E2E2E2E2E2E2E2E2E2E2E2E2E2E2E2E2E2E2E2E2E2E2E2E2E2E2E2E2E2E2E2E2E2E2E2E2E2E2E2E2E2E2E2E2E2E2E2E2E2E2E2E2E2E2E2E2E2E2E2E2E2E2E2E2E2E2E2F5
310
E2E2E2E2E2E2E2E2E2E2E2E2E2E2E2E2F5E2E2E2F5F5E2E2E2F5E2E2E2E2E2E2E2E2E2E2E2E2E2E2E2E2F5E2E2E2E2E2E2E2E2E2E2E2E2E2E2E2E2E2E2E2E2E2E2E2E2E2E2E2E2E2E2E2E2E2E2E2E2E2E2E2E2E2E2E2E2E2E2E2E2E2E2E2E2E2E2E2E2E2E2E2E2E2E2E2E2E2E2E2E2E2E2E2E2E2E2E2E2E2E2E2E2E2E2E2E2
310
E2E2E2E2E2E2E2E2E2E2E2E2E2E2E2E2E2E2E2E2E2E2E2E2E2E2E2E2E2E2E2E2E2E2E2E2E2E2E2E2E2E2E2E2E2E2E2E2E2E2E2E2F5E2E2E2E2E2E2E2E2E2E2E2E2E2E2E2E2F5E2E2E2F5F5E2E2E2F5E2E2E2E2E2E2E2E2E2E2E2E2E2E2E2E2F5E2E2E2E2E2E2E2E2E2E2E2E2E2E2E2E2E2E2E2E2E2E2E2E2E2E2E2E2E2E2E2
310
E2E2E2E2E2E2E2E2E2E2E2E2E2E2E2E2E2E2E2E2E2E2E2E2E2E2E2E2E2E2E2E2E2E2E2E2E2E2E2E2E2E2E2E2E2E2E2E2E2E2E2E2E2E2E2E2E2E2E2E2E2E2E2E2E2E2E2E2E2E2E2E2E2E2E2E2E2E2E2E2E2E2E2E2E2E2E2E2E2E2E2E2E2E2E2E2E2E2E2E2E2E2E2E2E2F5E2E2E2E2E2E2E2E2E2E2E2E2E2E2E2E2F5E2E2E2F5
310
F5E2E2E2F5E2E2E2E2E2E2E2E2E2E2E2E2E2E2E2E2F5E2E2E2E2E2E2E2E2E2E2E2E2E2E2E2E2E2E2E2E2E2E2E2E2E2E2E2E2E2E2E2E2E2E2E2E2E2E2E2E2E2E2E2E2E2E2E2E2E2E2E2E2E2E2E2E2E2E2E2E2E2E2E2E2E2E2E2E2E2E2E2E2E2E2E2E2E2E2E2E2E2E2E2E2E2E2E2E2E2E2E2E2E2E2E2E2E2E2E2E2E2E2E2E2E2
310
E2E2E2E2E2E2E2E2E2E2E2E2E2E2E2E2E2E2E2E2E2E2E2E2E2E2E2E2E2E2E2F5E2E2E2E2E2E2E2E2E2E2E2E2E2E2E2E2F5E2E2E2F5F5E2E2E2F5E2E2E2E2E2E2E2E2E2E2E2E2E2E2E2E2F5E2E2E2E2E2E2E2E2E2E2E2E2E2E2E2E2E2E2E2E2E2E2E2E2E2E2E2E2E2E2E2E2E2E2E2E2E2E2E2E2E2E2E2E2E2E2E2E2E2E2E2E2
310
E2E2E2E2E2E2E2E2E2E2E2E2E2E2E2E2E2E2E2E2E2E2E2E2E2E2E2E2E2E2E2E2E2E2E2E2E2E2E2E2E2E2E2E2E2E2E2E2E2E2E2E2E2E2E2E2E2E2E2E2E2E2E2E2E2E2E2E2E2E2E2E2E2E2E2E2E2E2E2E2E2E2E2E2F5E2E2E2E2E2E2E2E2E2E2E2E2E2E2E2E2F5E2E2E2F5F5E2E2E2F5E2E2E2E2E2E2E2E2E2E2E2E2E2E2E2E2
310
F5E2E2E2E2E2E2E2E2E2E2E2E2E2E2E2E2E2E2E2E2E2E2E2E2E2E2E2E2E2E2E2E2E2E2E2E2E2E2E2E2E2E2E2E2E2E2E2E2E2E2E2E2E2E2E2E2E2E2E2E2E2E2E2E2E2E2E2E2E2E2E2E2E2E2E2E2E2E2E2E2E2E2E2E2E2E2E2E2E2E2E2E2E2E2E2E2E2E2E2E2E2E2E2E2E2E2E2E2E2E2E2E2E2E2E2E2E2E2E2E2E2E2E2E2E2E2
310
E2E2E2E2E2E2E2E2E2E2F5E2E2E2E2E2E2E2E2E2E2E2E2E2E2E2E2F5E2E2E2F5F5E2E2E2F5E2E2E2E2E2E2E2E2E2E2E2E2E2E2E2E2F5E2E2E2E2E2E2E2E2E2E2E2E2E2E2E2E2E2E2E2E2E2E2E2E2E2E2E2E2E2E2E2E2E2E2E2E2E2E2E2E2E2E2E2E2E2E2E2E2E2E2E2E2E2E2E2E2E2E2E2E2E2E2E2E2E2E2E2E2E2E2E2E2E2
310
E2E2E2E2E2E2E2E2E2E2E2E2E2E2E2E2E2E2E2E2E2E2E2E2E2E2E2E2E2E2E2E2E2E2E2E2E2E2E2E2E2E2E2E2E2E2E2E2E2E2E2E2E2E2E2E2E2E2E2E2E2E2E2F5E2E2E2E2E2E2E2E2E2E2E2E2E2E2E2E2F5E2E2E2F5F5E2E2E2F5E2E2E2E2E2E2E2E2E2E2E2E2E2E2E2E2F5E2E2E2E2E2E2E2E2E2E2E2E2E2E2E2E2E2E2E2E2
310
E2E2E2E2E2E2E2E2E2E2E2E2E2E2E2E2E2E2E2E2E2E2E2E2E2E2E2E2E2E2E2E2E2E2E2E2E2E2E2E2E2E2E2E2E2E2E2E2E2E2E2E2E2E2E2E2E2E2E2E2E2E2E2E2E2E2E2E2E2E2E2E2E2E2E2E2E2E2E2E2E2E2E2E2E2E2E2E2E2E2E2E2E2E2E2E2E2E2E2E2E2E2E2E2E2E2E2E2E2E2E2E2E2E2E2E2F5E2E2E2E2E2E2E2E2E2E2
310
E2E2E2E2E2E2F5E2E2E2F5F5E2E2E2F5E2E2E2E2E2E2E2E2E2E2E2E2E2E2E2E2F5E2E2E2E2E2E2E2E2E2E2E2E2E2E2E2E2E2E2E2E2E2E2E2E2E2E2E2E2E2E2E2E2E2E2E2E2E2E2E2E2E2E2E2E2E2E2E2E2E2E2E2E2E2E2E2E2E2E2E2E2E2E2E2E2E2E2E2E2E2E2E2E2E2E2E2E2E2E2E2E2E2E2E2E2E2E2E2E2E2E2E2E2E2E2
310
E2E2E2E2E2E2E2E2E2E2E2E2E2E2E2E2E2E2E2E2E2E2E2E2E2E2E2E2E2E2E2E2E2E2E2E2E2E2E2E2E2E2F5E2E2E2E2E2E2E2E2E2E2E2E2E2E2E2E2F5E2E2E2F5F5E2E2E2E2E2E2E2E2E2E2E2E2E2E2E2E2E2E2E2E2F5E2E2E2E2E2E2E2E2E2E2E2E2E2E2E2E2E2E2E2E2E2E2E2E2E2E2E2E2E2E2E2E2E2E2E2E2E2E2E2E2E2
310
E2E2E2E2E2E2E2E2E2E2E2E2E2E2E2E2E2E2E2E2E2E2E2E2E2E2E2E2E2E2E2E2E2E2E2E2E2E2E2E2E2E2E2E2E2E2E2E2E2E2E2E2E2E2E2E2E2E2E2E2E2E2E2E2E2E2E2E2E2E2E2E2E2E2E2E2E2E2E2E2E2E2E2E2E2E2E2E2E2E2E2E2E2E2E2F5E2E2E2E2E2E2E2E2E2E2E2E2E2E2E2E2E2E2E2E2F5F5E2E2E2E2E2E2E2E2E2
310
E2E2E2E2E2E2E2E2E2E2E2F5E2E2E2E2E2E2E2E2E2E2E2E2E2E2E2E2E2E2E2E2E2E2E2E2E2E2E2E2E2E2E2E2E2E2E2E2E2E2E2E2E2E2E2E2E2E2E2E2E2E2E2E2E2E2E2E2E2E2E2E2E2E2E2E2E2E2E2E2E2E2E2E2E2E2E2E2E2E2E2E2E2E2E2E2E2E2E2E2E2E2E2E2E2E2E2E2E2E2E2E2E2E2E2E2E2E2E2E2E2E2E2E2E2E2E2
310
E2E2E2E2E2E2E2E2E2E2E2E2E2E2E2E2E2E2E2E2E2F5E2E2E2E2E2E2E2E2E2E2E2E2E2E2E2E2E2E2E2E2F5F5E2E2E2E2E2E2E2E2E2E2E2E2E2E2E2E2E2E2E2E2F5E2E2E2E2E2E2E2E2E2E2E2E2E2E2E2E2E2E2E2E2E2E2E2E2E2E2E2E2E2E2E2E2E2E2E2E2E2E2E2E2E2E2E2E2E2E2E2E2E2E2E2E2E2E2E2E2E2E2E2E2E2E2
310
E2E2E2E2E2E2E2E2E2E2E2E2E2E2E2E2E2E2E2E2E2E2E2E2E2E2E2E2E2E2E2E2E2E2E2E2E2E2E2E2E2E2E2E2E2E2E2E2E2E2E2E2E2E2E2E2E2E2E2E2E2E2E2E2E2E2E2E2E2E2E2E2E2E2F5E2E2E2E2E2E2E2E2E2E2E2E2E2E2E2E2E2E2E2E2F5F5E2E2E2E2E2E2E2E2E2E2E2E2E2E2E2E2E2E2E2E2F5E2E2E2E2E2E2E2E2E2
310
E2E2E2E2E2E2E2E2E2E2E2E2E2E2E2E2E2E2E2E2E2E2E2E2E2E2E2E2E2E2E2E2E2E2E2E2E2E2E2E2E2E2E2E2E2E2E2E2E2E2E2E2E2E2E2E2E2E2E2E2E2E2E2E2E2E2E2E2E2E2E2E2E2E2E2E2E2E2E2E2E2E2E2E2E2E2E2E2E2E2E2E2E2E2E2E2E2E2E2E2E2E2E2E2E2E2E2E2E2E2E2E2E2E2E2E2E2E2E2E2E2E2E2E2E2E2E2
310
F5E2E2E2E2E2E2E2E2E2E2E2E2E2E2E2E2E2E2E2E2F5F5E2E2E2E2E2E2E2E2E2E2E2E2E2E2E2E2E2E2E2E2F5E2E2E2E2E2E2E2E2E2E2E2E2E2E2E2E2E2E2E2E2E2E2E2E2E2E2E2E2E2E2E2E2E2E2E2E2E2E2E2E2E2E2E2E2E2E2E2E2E2E2E2E2E2E2E2E2E2E2E2E2E2E2E2E2E2E2E2E2E2E2E2E2E2E2E2E2E2E2E2E2E2E2E2
310
E2E2E2E2E2E2E2E2E2E2E2E2E2E2E2E2E2E2E2E2E2E2E2E2E2E2E2E2E2E2E2E2E2E2E2E2E2E2E2E2E2E2E2E2E2E2E2E2E2E2E2E2E2F5E2E2E2E2E2E2E2E2E2E2E2E2E2E2E2E2E2E2E2E2F5F5E2E2E2E2E2E2E2E2E2E2E2E2E2E2E2E2E2E2E2E2F5E2E2E2E2E2E2E2E2E2E2E2E2E2E2E2E2E2E2E2E2E2E2E2E2E2E2E2E2E2E2
310
E2E2E2E2E2E2E2E2E2E2E2E2E2E2E2E2E2E2E2E2E2E2E2E2E2E2E2E2E2E2E2E2E2E2E2E2E2E2E2E2E2E2E2E2E2E2E2E2E2E2E2E2E2E2E2E2E2E2E2E2E2E2E2E2E2E2E2E2E2E2E2E2E2E2E2E2E2E2E2E2E2E2E2E2E2E2E2E2E2E2E2E2E2E2E2E2E2E2E2E2E2E2E2E2E2E2F5E2E2E2E2E2E2E2E2E2E2E2E2E2E2E2E2E2E2E2E2
310
F5F5E2E2E2E2E2E2E2E2E2E2E2E2E2E2E2E2E2E2E2E2F5E2E2E2E2E2E2E2E2E2E2E2E2E2E2E2E2E2E2E2E2E2E2E2E2E2E2E2E2E2E2E2E2E2E2E2E2E2E2E2E2E2E2E2E2E2E2E2E2E2E2E2E2E2E2E2E2E2E2E2E2E2E2E2E2E2E2E2E2E2E2E2E2E2E2E2E2E2E2E2E2E2E2E2E2E2E2E2E2E2E2E2E2E2E2E2E2E2E2E2E2E2E2E2E2
310
E2E2E2E2E2E2E2E2E2E2E2E2E2E2E2E2E2E2E2E2E2E2E2E2E2E2E2E2E2E2E2E2F5E2E2E2E2E2E2E2E2E2E2E2E2E2E2E2E2E2E2E2E2F5F5E2E2E2E2E2E2E2E2E2E2E2E2E2E2E2E2E2E2E2E2F5E2E2E2E2E2E2E2E2E2E2E2E2E2E2E2E2E2E2E2E2E2E2E2E2E2E2E2E2E2E2E2E2E2E2E2E2E2E2E2E2E2E2E2E2E2E2E2E2E2E2E2
310
E2E2E2E2E2E2E2E2E2E2E2E2E2E2E2E2E2E2E2E2E2E2E2E2E2E2E2E2E2E2E2E2E2E2E2E2E2E2E2E2E2E2E2E2E2E2E2E2E2E2E2E2E2E2E2E2E2E2E2E2E2E2E2E2E2E2E2E2E2E2E2E2E2E2E2E2E2E2E2E2E2E2E2E2E2F5E2E2E2E2E2E2E2E2E2E2E2E2E2E2E2E2E2E2E2E2F5F5E2E2E2E2E2E2E2E2E2E2E2E2E2E2E2E2E2E2E2
310
E2F5E2E2E2E2E2E2E2E2E2E2E2E2E2E2E2E2E2E2E2E2E2E2E2E2E2E2E2E2E2E2E2E2E2E2E2E2E2E2E2E2E2E2E2E2E2E2E2E2E2E2E2E2E2E2E2E2E2E2E2E2E2E2E2E2E2E2E2E2E2E2E2E2E2E2E2E2E2E2E2E2E2E2E2E2E2E2E2E2E2E2E2E2E2E2E2E2E2E2E2E2E2E2E2E2E2E2E2E2E2E2E2E2E2E2E2E2E2E2E2E2E2E2E2E2E2
310
E2E2E2E2E2E2E2E2E2E2E2F5E2E2E2E2E2E2E2E2E2E2E2E2E2E2E2E2E2E2E2E2F5F5E2E2E2E2E2E2E2E2E2E2E2E2E2E2E2E2E2E2E2E2F5E2E2E2E2E2E2E2E2E2E2E2E2E2E2E2E2E2E2E2E2E2E2E2E2E2E2E2E2E2E2E2E2E2E2E2E2E2E2E2E2E2E2E2E2E2E2E2E2E2E2E2E2E2E2E2E2E2E2E2E2E2E2E2E2E2E2E2E2E2E2E2E2
310
E2E2E2E2E2E2E2E2E2E2E2E2E2E2E2E2E2E2E2E2E2E2E2E2E2E2E2E2E2E2E2E2E2E2E2E2E2E2E2E2E2E2E2E2E2E2E2E2E2E2E2E2E2E2E2E2E2E2E2E2E2E2E2E2F5E2E2E2E2E2E2E2E2E2E2E2E2E2E2E2E2E2E2E2E2F5F5E2E2E2F5E2E2E2E2E2E2E2E2E2E2E2E2E2E2E2E2F5E2E2E2E2E2E2E2E2E2E2E2E2E2E2E2E2E2E2E2
310
E2E2E2E2E2E2E2E2E2E2E2E2E2E2E2E2E2E2E2E2E2E2E2E2E2E2E2E2E2E2E2E2E2E2E2E2E2E2E2E2E2E2E2E2E2E2E2E2E2E2E2E2E2E2E2E2E2E2E2E2E2E2E2E2E2E2E2E2E2E2E2E2E2E2E2E2E2E2E2E2E2E2E2E2E2E2E2E2E2E2E2E2E2E2E2E2E2E2E2E2E2E2E2E2E2E2E2E2E2E2E2E2E2E2E2E2E2F5E2E2E2E2E2E2E2E2E2
310
E2E2E2E2E2E2E2F5E2E2E2F5F5E2E2E2F5E2E2E2E2E2E2E2E2E2E2E2E2E2E2E2E2F5E2E2E2E2E2E2E2E2E2E2E2E2E2E2E2E2E2E2E2E2E2E2E2E2E2E2E2E2E2E2E2E2E2E2E2E2E2E2E2E2E2E2E2E2E2E2E2E2E2E2E2E2E2E2E2E2E2E2E2E2E2E2E2E2E2E2E2E2E2E2E2E2E2E2E2E2E2E2E2E2E2E2E2E2E2E2E2E2E2E2E2E2E2
310
E2E2E2E2E2E2E2E2E2E2E2E2E2E2E2E2E2E2E2E2E2E2E2E2E2E2E2E2E2E2E2E2E2E2E2E2E2E2E2E2E2E2E2F5E2E2E2E2E2E2E2E2E2E2E2E2E2E2E2E2F5E2E2E2F5F5E2E2E2F5E2E2E2E2E2E2E2E2E2E2E2E2E2E2E2E2F5E2E2E2E2E2E2E2E2E2E2E2E2E2E2E2E2E2E2E2E2E2E2E2E2E2E2E2E2E2E2E2E2E2E2E2E2E2E2E2E2
310
E2E2E2E2E2E2E2E2E2E2E2E2E2E2E2E2E2E2E2E2E2E2E2E2E2E2E2E2E2E2E2E2E2E2E2E2E2E2E2E2E2E2E2E2E2E2E2E2E2E2E2E2E2E2E2E2E2E2E2E2E2E2E2E2E2E2E2E2E2E2E2E2E2E2E2E2E2E2E2E2E2E2E2E2E2E2E2E2E2E2E2E2E2E2E2E2F5E2E2E2E2E2E2E2E2E2E2E2E2E2E2E2E2F5E2E2E2F5F5E2E2E2F5E2E2E2E2
310
E2E2E2E2E2E2E2E2E2E2E2E2F5E2E2E2E2E2E2E2E2E2E2E2E2E2E2E2E2E2E2E2E2E2E2E2E2E2E2E2E2E2E2E2E2E2E2E2E2E2E2E2E2E2E2E2E2E2E2E2E2E2E2E2E2E2E2E2E2E2E2E2E2E2E2E2E2E2E2E2E2E2E2E2E2E2E2E2E2E2E2E2E2E2E2E2E2E2E2E2E2E2E2E2E2E2E2E2E2E2E2E2E2E2E2E2E2E2E2E2E2E2E2E2E2E2E2
310
E2E2E2E2E2E2E2E2E2E2E2E2E2E2E2E2E2E2E2E2E2E2F5E2E2E2E2E2E2E2E2E2E2E2E2E2E2E2E2F5E2E2E2F5F5E2E2E2F5E2E2E2E2E2E2E2E2E2E2E2E2E2E2E2E2F5E2E2E2E2E2E2E2E2E2E2E2E2E2E2E2E2E2E2E2E2E2E2E2E2E2E2E2E2E2E2E2E2E2E2E2E2E2E2E2E2E2E2E2E2E2E2E2E2E2E2E2E2E2E2E2E2E2E2E2E2E2
310
E2E2E2E2E2E2E2E2E2E2E2E2E2E2E2E2E2E2E2E2E2E2E2E2E2E2E2E2E2E2E2E2E2E2E2E2E2E2E2E2E2E2E2E2E2E2E2E2E2E2E2E2E2E2E2E2E2E2E2E2E2E2E2E2E2E2E2E2E2E2E2E2E2E2E2F5E2E2E2E2E2E2E2E2E2E2E2E2E2E2E2E2F5E2E2E2F5F5E2E2E2F5E2E2E2E2E2E2E2E2E2E2E2E2E2E2E2E2F5E2E2E2E2E2E2E2E2
310
E2E2E2E2E2E2E2E2E2E2E2E2E2E2E2E2E2E2E2E2E2E2E2E2E2E2E2E2E2E2E2E2E2E2E2E2E2E2E2E2E2E2E2E2E2E2E2E2E2E2E2E2E2E2E2E2E2E2E2E2E2E2E2E2E2E2E2E2E2E2E2E2E2E2E2E2E2E2E2E2E2E2E2E2E2E2E2E2E2E2E2E2E2E2E2E2E2E2E2E2E2E2E2E2E2E2E2E2E2E2E2E2E2E2E2E2E2E2E2E2E2E2E2E2E2E2E2
310
E2F5E2E2E2E2E2E2E2E2E2E2E2E2E2E2E2E2F5E2E2E2F5F5E2E2E2F5E2E2E2E2E2E2E2E2E2E2E2E2E2E2E2E2F5E2E2E2E2E2E2E2E2E2E2E2E2E2E2E2E2E2E2E2E2E2E2E2E2E2E2E2E2E2E2E2E2E2E2E2E2E2E2E2E2E2E2E2E2E2E2E2E2E2E2E2E2E2E2E2E2E2E2E2E2E2E2E2E2E2E2E2E2E2E2E2E2E2E2E2E2E2E2E2E2E2E2
310
E2E2E2E2E2E2E2E2E2E2E2E2E2E2E2E2E2E2E2E2E2E2E2E2E2E2E2E2E2E2E2E2E2E2E2E2E2E2E2E2E2E2E2E2E2E2E2E2E2E2E2E2E2E2F5E2E2E2E2E2E2E2E2E2E2E2E2E2E2E2E2F5E2E2E2F5F5E2E2E2F5E2E2E2E2E2E2E2E2E2E2E2E2E2E2E2E2F5E2E2E2E2E2E2E2E2E2E2E2E2E2E2E2E2E2E2E2E2E2E2E2E2E2E2E2E2E2
310
E2E2E2E2E2E2E2E2E2E2E2E2E2E2E2E2E2E2E2E2E2E2E2E2E2E2E2E2E2E2E2E2E2E2E2E2E2E2E2E2E2E2E2E2E2E2E2E2E2E2E2E2E2E2E2E2E2E2E2E2E2E2E2E2E2E2E2E2E2E2E2E2E2E2E2E2E2E2E2E2E2E2E2E2E2E2E2E2E2E2E2E2E2E2E2E2E2E2E2E2E2E2E2E2E2E2E2F5E2E2E2E2E2E2E2E2E2E2E2E2E2E2E2E2F5E2E2
310
E2F5F5E2E2E2F5E2E2E2E2E2E2E2E2E2E2E2E2E2E2E2E2F5E2E2E2E2E2E2E2E2E2E2E2E2E2E2E2E2E2E2E2E2E2E2E2E2E2E2E2E2E2E2E2E2E2E2E2E2E2E2E2E2E2E2E2E2E2E2E2E2E2E2E2E2E2E2E2E2E2E2E2E2E2E2E2E2E2E2E2E2E2E2E2E2E2E2E2E2E2E2E2E2E2E2E2E2E2E2E2E2E2E2E2E2E2E2E2E2E2E2E2E2E2E2E2
310
E2E2E2E2E2E2E2E2E2E2E2E2E2E2E2E2E2E2E2E2E2E2E2E2E2E2E2E2E2E2E2E2E2F5E2E2E2E2E2E2E2E2E2E2E2E2E2E2E2E2F5E2E2E2F5F5E2E2E2F5E2E2E2E2E2E2E2E2E2E2E2E2E2E2E2E2F5E2E2E2E2E2E2E2E2E2E2E2E2E2E2E2E2E2E2E2E2E2E2E2E2E2E2E2E2E2E2E2E2E2E2E2E2E2E2E2E2E2E2E2E2E2E2E2E2E2E2
310
E2E2E2E2E2E2E2E2E2E2E2E2E2E2E2E2E2E2E2E2E2E2E2E2E2E2E2E2E2E2E2E2E2E2E2E2E2E2E2E2E2E2E2E2E2E2E2E2E2E2E2E2E2E2E2E2E2E2E2E2E2E2E2E2E2E2E2E2E2E2E2E2E2E2E2E2E2E2E2E2E2E2E2E2E2E2F5E2E2E2E2E2E2E2E2E2E2E2E2E2E2E2E2F5E2E2E2F5F5E2E2E2F5E2E2E2E2E2E2E2E2E2E2E2E2E2E2
310
E2E2F5E2E2E2E2E2E2E2E2E2E2E2E2E2E2E2E2E2E2E2E2E2E2E2E2E2E2E2E2E2E2E2E2E2E2E2E2E2E2E2E2E2E2E2E2E2E2E2E2E2E2E2E2E2E2E2E2E2E2E2E2E2E2E2E2E2E2E2E2E2E2E2E2E2E2E2E2E2E2E2E2E2E2E2E2E2E2E2E2E2E2E2E2E2E2E2E2E2E2E2E2E2E2E2E2E2E2E2E2E2E2E2E2E2E2E2E2E2E2E2E2E2E2E2E2
310
E2E2E2E2E2E2E2E2E2E2E2E2F5E2E2E2E2E2E2E2E2E2E2E2E2E2E2E2E2F5E2E2E2F5F5E2E2E2F5E2E2E2E2E2E2E2E2E2E2E2E2E2E2E2E2F5E2E2E2E2E2E2E2E2E2E2E2E2E2E2E2E2E2E2E2E2E2E2E2E2E2E2E2E2E2E2E2E2E2E2E2E2E2E2E2E2E2E2E2E2E2E2E2E2E2E2E2E2E2E2E2E2E2E2E2E2E2E2E2E2E2E2E2E2E2E2E2
310
E2E2E2E2E2E2E2E2E2E2E2E2E2E2E2E2E2E2E2E2E2E2E2E2E2E2E2E2E2E2E2E2E2E2E2E2E2E2E2E2E2E2E2E2E2E2E2E2E2E2E2E2E2E2E2E2E2E2E2E2E2E2E2E2E2F5E2E2E2E2E2E2E2E2E2E2E2E2E2E2E2E2F5E2E2E2F5F5E2E2E2F5E2E2E2E2E2E2E2E2E2E2E2E2E2E2E2E2F5E2E2E2E2E2E2E2E2E2E2E2E2E2E2E2E2E2E2
310
E2E2E2E2E2E2E2E2E2E2E2E2E2E2E2E2E2E2E2E2E2E2E2E2E2E2E2E2E2E2E2E2E2E2E2E2E2E2E2E2E2E2E2E2E2E2E2E2E2E2E2E2E2E2E2E2E2E2E2E2E2E2E2E2E2E2E2E2E2E2E2E2E2E2E2E2E2E2E2E2E2E2E2E2E2E2E2E2E2E2E2E2E2E2E2E2E2E2E2E2E2E2E2E2E2E2E2E2E2E2E2E2E2E2E2E2E2E2F5E2E2E2E2E2E2E2E2
310
E2E2E2E2E2E2E2E2F5E2E2E2F5F5E2E2E2F5E2E2E2E2E2E2E2E2E2E2E2E2E2E2E2E2F5E2E2E2E2E2E2E2E2E2E2E2E2E2E2E2E2E2E2E2E2E2E2E2E2E2E2E2E2E2E2E2E2E2E2E2E2E2E2E2E2E2E2E2E2E2E2E2E2E2E2E2E2E2E2E2E2E2E2E2E2E2E2E2E2E2E2E2E2E2E2E2E2E2E2E2E2E2E2E2E2E2E2E2E2E2E2E2E2E2E2E2E2
310
E2E2E2E2E2E2E2E2E2E2E2E2E2E2E2E2E2E2E2E2E2E2E2E2E2E2E2E2E2E2E2E2E2E2E2E2E2E2E2E2E2E2E2E2F5E2E2E2E2E2E2E2E2E2E2E2E2E2E2E2E2F5E2E2E2F5F5E2E2E2F5E2E2E2E2E2E2E2E2E2E2E2E2E2E2E2E2F5E2E2E2E2E2E2E2E2E2E2E2E2E2E2E2E2E2E2E2E2E2E2E2E2E2E2E2E2E2E2E2E2E2E2E2E2E2E2E2
310
E2E2E2E2E2E2E2E2E2E2E2E2E2E2E2E2E2E2E2E2E2E2E2E2E2E2E2E2E2E2E2E2E2E2E2E2E2E2E2E2E2E2E2E2E2E2E2E2E2E2E2E2E2E2E2E2E2E2E2E2E2E2E2E2E2E2E2E2E2E2E2E2E2E2E2E2E2E2E2E2E2E2E2E2E2E2E2E2E2E2E2E2E2E2E2E2E2F5E2E2E2E2E2E2E2E2E2E2E2E2E2E2E2E2F5E2E2E2F5F5E2E2E2F5E2E2E2
310
E2E2E2E2E2E2E2E2E2E2E2E2E2F5E2E2E2E2E2E2E2E2E2E2E2E2E2E2E2E2E2E2E2E2E2E2E2E2E2E2E2E2E2E2E2E2E2E2E2E2E2E2E2E2E2E2E2E2E2E2E2E2E2E2E2E2E2E2E2E2E2E2E2E2E2E2E2E2E2E2E2E2E2E2E2E2E2E2E2E2E2E2E2E2E2E2E2E2E2E2E2E2E2E2E2E2E2E2E2E2E2E2E2E2E2E2E2E2E2E2E2E2E2E2E2E2E2
310
E2E2E2E2E2E2E2E2E2E2E2E2E2E2E2E2E2E2E2E2E2E2E2F5E2E2E2E2E2E2E2E2E2E2E2E2E2E2E2E2F5E2E2E2F5F5E2E2E2E2E2E2E2E2E2E2E2E2E2E2E2E2E2E2E2E2F5E2E2E2E2E2E2E2E2E2E2E2E2E2E2E2E2E2E2E2E2E2E2E2E2E2E2E2E2E2E2E2E2E2E2E2E2E2E2E2E2E2E2E2E2E2E2E2E2E2E2E2E2E2E2E2E2E2E2E2E2
310
E2E2E2E2E2E2E2E2E2E2E2E2E2E2E2E2E2E2E2E2E2E2E2E2E2E2E2E2E2E2E2E2E2E2E2E2E2E2E2E2E2E2E2E2E2E2E2E2E2E2E2E2E2E2E2E2E2E2E2E2E2E2E2E2E2E2E2E2E2E2E2E2E2E2E2E2F5E2E2E2E2E2E2E2E2E2E2E2E2E2E2E2E2E2E2E2E2F5F5E2E2E2E2E2E2E2E2E2E2E2E2E2E2E2E2E2E2E2E2F5E2E2E2E2E2E2E2
310
E2E2E2E2E2E2E2E2E2E2E2E2E2E2E2E2E2E2E2E2E2E2E2E2E2E2E2E2E2E2E2E2E2E2E2E2E2E2E2E2E2E2E2E2E2E2E2E2E2E2E2E2E2E2E2E2E2E2E2E2E2E2E2E2E2E2E2E2E2E2E2E2E2E2E2E2E2E2E2E2E2E2E2E2E2E2E2E2E2E2E2E2E2E2E2E2E2E2E2E2E2E2E2E2E2E2E2E2E2E2E2E2E2E2E2E2E2E2E2E2E2E2E2E2E2E2E2
310
E2E2F5E2E2E2E2E2E2E2E2E2E2E2E2E2E2E2E2E2E2E2E2F5F5E2E2E2E2E2E2E2E2E2E2E2E2E2E2E2E2E2E2E2E2F5E2E2E2E2E2E2E2E2E2E2E2E2E2E2E2E2E2E2E2E2E2E2E2E2E2E2E2E2E2E2E2E2E2E2E2E2E2E2E2E2E2E2E2E2E2E2E2E2E2E2E2E2E2E2E2E2E2E2E2E2E2E2E2E2E2E2E2E2E2E2E2E2E2E2E2E2E2E2E2E2E2
310
E2E2E2E2E2E2E2E2E2E2E2E2E2E2E2E2E2E2E2E2E2E2E2E2E2E2E2E2E2E2E2E2E2E2E2E2E2E2E2E2E2E2E2E2E2E2E2E2E2E2E2E2E2E2E2F5E2E2E2E2E2E2E2E2E2E2E2E2E2E2E2E2E2E2E2E2F5F5E2E2E2E2E2E2E2E2E2E2E2E2E2E2E2E2E2E2E2E2F5E2E2E2E2E2E2E2E2E2E2E2E2E2E2E2E2E2E2E2E2E2E2E2E2E2E2E2E2
310
E2E2E2E2E2E2E2E2E2E2E2E2E2E2E2E2E2E2E2E2E2E2E2E2E2E2E2E2E2E2E2E2E2E2E2E2E2E2E2E2E2E2E2E2E2E2E2E2E2E2E2E2E2E2E2E2E2E2E2E2E2E2E2E2E2E2E2E2E2E2E2E2E2E2E2E2E2E2E2E2E2E2E2E2E2E2E2E2E2E2E2E2E2E2E2E2E2E2E2E2E2E2E2E2E2E2E2E2F5E2E2E2E2E2E2E2E2E2E2E2E2E2E2E2E2E2E2
310
E2E2F5F5E2E2E2E2E2E2E2E2E2E2E2E2E2E2E2E2E2E2E2E2F5E2E2E2E2E2E2E2E2E2E2E2E2E2E2E2E2E2E2E2E2E2E2E2E2E2E2E2E2E2E2E2E2E2E2E2E2E2E2E2E2E2E2E2E2E2E2E2E2E2E2E2E2E2E2E2E2E2E2E2E2E2E2E2E2E2E2E2E2E2E2E2E2E2E2E2E2E2E2E2E2E2E2E2E2E2E2E2E2E2E2E2E2E2E2E2E2E2E2E2E2E2E2
310
E2E2E2E2E2E2E2E2E2E2E2E2E2E2E2E2E2E2E2E2E2E2E2E2E2E2E2E2E2E2E2E2E2E2F5E2E2E2E2E2E2E2E2E2E2E2E2E2E2E2E2E2E2E2E2F5F5E2E2E2E2E2E2E2E2E2E2E2E2E2E2E2E2E2E2E2E2F5E2E2E2E2E2E2E2E2E2E2E2E2E2E2E2E2E2E2E2E2E2E2E2E2E2E2E2E2E2E2E2E2E2E2E2E2E2E2E2E2E2E2E2E2E2E2E2E2E2
310
E2E2E2E2E2E2E2E2E2E2E2E2E2E2E2E2E2E2E2E2E2E2E2E2E2E2E2E2E2E2E2E2E2E2E2E2E2E2E2E2E2E2E2E2E2E2E2E2E2E2E2E2E2E2E2E2E2E2E2E2E2E2E2E2E2E2E2E2E2E2E2E2E2E2E2E2E2E2E2E2E2E2E2E2E2E2E2F5E2E2E2E2E2E2E2E2E2E2E2E2E2E2E2E2E2E2E2E2F5F5E2E2E2E2E2E2E2E2E2E2E2E2E2E2E2E2E2
310
E2E2E2F5E2E2E2E2E2E2E2E2E2E2E2E2E2E2E2E2E2E2E2E2E2E2E2E2E2E2E2E2E2E2E2E2E2E2E2E2E2E2E2E2E2E2E2E2E2E2E2E2E2E2E2E2E2E2E2E2E2E2E2E2E2E2E2E2E2E2E2E2E2E2E2E2E2E2E2E2E2E2E2E2E2E2E2E2E2E2E2E2E2E2E2E2E2E2E2E2E2E2E2E2E2E2E2E2E2E2E2E2E2E2E2E2E2E2E2E2E2E2E2E2E2E2E2
310
E2E2E2E2E2E2E2E2E2E2E2E2E2F5E2E2E2E2E2E2E2E2E2E2E2E2E2E2E2E2E2E2E2E2F5F5E2E2E2E2E2E2E2E2E2E2E2E2E2E2E2E2E2E2E2E2F5E2E2E2E2E2E2E2E2E2E2E2E2E2E2E2E2E2E2E2E2E2E2E2E2E2E2E2E2E2E2E2E2E2E2E2E2E2E2E2E2E2E2E2E2E2E2E2E2E2E2E2E2E2E2E2E2E2E2E2E2E2E2E2E2E2E2E2E2E2E2
310
E2E2E2E2E2E2E2E2E2E2E2E2E2E2E2E2E2E2E2E2E2E2E2E2E2E2E2E2E2E2E2E2E2E2E2E2E2E2E2E2E2E2E2E2E2E2E2E2E2E2E2E2E2E2E2E2E2E2E2E2E2E2E2E2E2E2F5E2E2E2E2E2E2E2E2E2E2E2E2E2E2E2E2E2E2E2E2F5F5E2E2E2E2E2E2E2E2E2E2E2E2E2E2E2E2E2E2E2E2F5E2E2E2E2E2E2E2E2E2E2E2E2E2E2E2E2E2
310
E2E2E2E2E2E2E2E2E2E2E2E2E2E2E2E2E2E2E2E2E2E2E2E2E2E2E2E2E2E2E2E2E2E2E2E2E2E2E2E2E2E2E2E2E2E2E2E2E2E2E2E2E2E2E2E2E2E2E2E2E2E2E2E2E2E2E2E2E2E2E2E2E2E2E2E2E2E2E2E2E2E2E2E2E2E2E2E2E2E2E2E2E2E2E2E2E2E2E2E2E2E2E2E2E2E2E2E2E2E2E2E2E2E2E2E2E2E2E2F5E2E2E2E2E2E2E2
310
E2E2E2E2E2E2E2E2E2E2E2E2E2F5F5E2E2E2F5E2E2E2E2E2E2E2E2E2E2E2E2E2E2E2E2F5E2E2E2E2E2E2E2E2E2E2E2E2E2E2E2E2E2E2E2E2E2E2E2E2E2E2E2E2E2E2E2E2E2E2E2E2E2E2E2E2E2E2E2E2E2E2E2E2E2E2E2E2E2E2E2E2E2E2E2E2E2E2E2E2E2E2E2E2E2E2E2E2E2E2E2E2E2E2E2E2E2E2E2E2E2E2E2E2E2E2E2
310
E2E2E2E2E2E2E2E2E2E2E2E2E2E2E2E2E2E2E2E2E2E2E2E2E2E2E2E2E2E2E2E2E2E2E2E2E2E2E2E2E2E2E2E2E2F5E2E2E2E2E2E2E2E2E2E2E2E2E2E2E2E2F5E2E2E2F5F5E2E2E2F5E2E2E2E2E2E2E2E2E2E2E2E2E2E2E2E2F5E2E2E2E2E2E2E2E2E2E2E2E2E2E2E2E2E2E2E2E2E2E2E2E2E2E2E2E2E2E2E2E2E2E2E2E2E2E2
310
E2E2E2E2E2E2E2E2E2E2E2E2E2E2E2E2E2E2E2E2E2E2E2E2E2E2E2E2E2E2E2E2E2E2E2E2E2E2E2E2E2E2E2E2E2E2E2E2E2E2E2E2E2E2E2E2E2E2E2E2E2E2E2E2E2E2E2E2E2E2E2E2E2E2E2E2E2E2E2E2E2E2E2E2E2E2E2E2E2E2E2E2E2E2E2E2E2E2F5E2E2E2E2E2E2E2E2E2E2E2E2E2E2E2E2F5E2E2E2F5F5E2E2E2F5E2E2
310
E2E2E2E2E2E2E2E2E2E2E2E2E2E2F5E2E2E2E2E2E2E2E2E2E2E2E2E2E2E2E2E2E2E2E2E2E2E2E2E2E2E2E2E2E2E2E2E2E2E2E2E2E2E2E2E2E2E2E2E2E2E2E2E2E2E2E2E2E2E2E2E2E2E2E2E2E2E2E2E2E2E2E2E2E2E2E2E2E2E2E2E2E2E2E2E2E2E2E2E2E2E2E2E2E2E2E2E2E2E2E2E2E2E2E2E2E2E2E2E2E2E2E2E2E2E2E2
310
E2E2E2E2E2E2E2E2E2E2E2E2E2E2E2E2E2E2E2E2E2E2E2E2F5E2E2E2E2E2E2E2E2E2E2E2E2E2E2E2E2F5E2E2E2F5F5E2E2E2F5E2E2E2E2E2E2E2E2E2E2E2E2E2E2E2E2F5E2E2E2E2E2E2E2E2E2E2E2E2E2E2E2E2E2E2E2E2E2E2E2E2E2E2E2E2E2E2E2E2E2E2E2E2E2E2E2E2E2E2E2E2E2E2E2E2E2E2E2E2E2E2E2E2E2E2E2
310
E2E2E2E2E2E2E2E2E2E2E2E2E2E2E2E2E2E2E2E2E2E2E2E2E2E2E2E2E2E2E2E2E2E2E2E2E2E2E2E2E2E2E2E2E2E2E2E2E2E2E2E2E2E2E2E2E2E2E2E2E2E2E2E2E2E2E2E2E2E2E2E2E2E2E2E2E2F5E2E2E2E2E2E2E2E2E2E2E2E2E2E2E2E2F5E2E2E2F5F5E2E2E2F5E2E2E2E2E2E2E2E2E2E2E2E2E2E2E2E2F5E2E2E2E2E2E2
310
E2E2E2E2E2E2E2E2E2E2E2E2E2E2E2E2E2E2E2E2E2E2E2E2E2E2E2E2E2E2E2E2E2E2E2E2E2E2E2E2E2E2E2E2E2E2E2E2E2E2E2E2E2E2E2E2E2E2E2E2E2E2E2E2E2E2E2E2E2E2E2E2E2E2E2E2E2E2E2E2E2E2E2E2E2E2E2E2E2E2E2E2E2E2E2E2E2E2E2E2E2E2E2E2E2E2E2E2E2E2E2E2E2E2E2E2E2E2E2E2E2E2E2E2E2E2E2
310
E2E2E2F5E2E2E2E2E2E2E2E2E2E2E2E2E2E2E2E2F5E2E2E2F5F5E2E2E2F5E2E2E2E2E2E2E2E2E2E2E2E2E2E2E2E2F5E2E2E2E2E2E2E2E2E2E2E2E2E2E2E2E2E2E2E2E2E2E2E2E2E2E2E2E2E2E2E2E2E2E2E2E2E2E2E2E2E2E2E2E2E2E2E2E2E2E2E2E2E2E2E2E2E2E2E2E2E2E2E2E2E2E2E2E2E2E2E2E2E2E2E2E2E2E2E2E2
310
E2E2E2E2E2E2E2E2E2E2E2E2E2E2E2E2E2E2E2E2E2E2E2E2E2E2E2E2E2E2E2E2E2E2E2E2E2E2E2E2E2E2E2E2E2E2E2E2E2E2E2E2E2E2E2E2F5E2E2E2E2E2E2E2E2E2E2E2E2E2E2E2E2F5E2E2E2F5F5E2E2E2F5E2E2E2E2E2E2E2E2E2E2E2E2E2E2E2E2F5E2E2E2E2E2E2E2E2E2E2E2E2E2E2E2E2E2E2E2E2E2E2E2E2E2E2E2
310
E2E2E2E2E2E2E2E2E2E2E2E2E2E2E2E2E2E2E2E2E2E2E2E2E2E2E2E2E2E2E2E2E2E2E2E2E2E2E2E2E2E2E2E2E2E2E2E2E2E2E2E2E2E2E2E2E2E2E2E2E2E2E2E2E2E2E2E2E2E2E2E2E2E2E2E2E2E2E2E2E2E2E2E2E2E2E2E2E2E2E2E2E2E2E2E2E2E2E2E2E2E2E2E2E2E2E2E2E2F5E2E2E2E2E2E2E2E2E2E2E2E2E2E2E2E2F5
310
E2E2E2F5F5E2E2E2F5E2E2E2E2E2E2E2E2E2E2E2E2E2E2E2E2F5E2E2E2E2E2E2E2E2E2E2E2E2E2E2E2E2E2E2E2E2E2E2E2E2E2E2E2E2E2E2E2E2E2E2E2E2E2E2E2E2E2E2E2E2E2E2E2E2E2E2E2E2E2E2E2E2E2E2E2E2E2E2E2E2E2E2E2E2E2E2E2E2E2E2E2E2E2E2E2E2E2E2E2E2E2E2E2E2E2E2E2E2E2E2E2E2E2E2E2E2E2
310
E2E2E2E2E2E2E2E2E2E2E2E2E2E2E2E2E2E2E2E2E2E2E2E2E2E2E2E2E2E2E2E2E2E2E2F5E2E2E2E2E2E2E2E2E2E2E2E2E2E2E2E2F5E2E2E2F5F5E2E2E2F5E2E2E2E2E2E2E2E2E2E2E2E2E2E2E2E2F5E2E2E2E2E2E2E2E2E2E2E2E2E2E2E2E2E2E2E2E2E2E2E2E2E2E2E2E2E2E2E2E2E2E2E2E2E2E2E2E2E2E2E2E2E2E2E2E2
310
E2E2E2E2E2E2E2E2E2E2E2E2E2E2E2E2E2E2E2E2E2E2E2E2E2E2E2E2E2E2E2E2E2E2E2E2E2E2E2E2E2E2E2E2E2E2E2E2E2E2E2E2E2E2E2E2E2E2E2E2E2E2E2E2E2E2E2E2E2E2E2E2E2E2E2E2E2E2E2E2E2E2E2E2E2E2E2E2F5E2E2E2E2E2E2E2E2E2E2E2E2E2E2E2E2F5E2E2E2F5F5E2E2E2F5E2E2E2E2E2E2E2E2E2E2E2E2
310
E2E2E2E2F5E2E2E2E2E2E2E2E2E2E2E2E2E2E2E2E2E2E2E2E2E2E2E2E2E2E2E2E2E2E2E2E2E2E2E2E2E2E2E2E2E2E2E2E2E2E2E2E2E2E2E2E2E2E2E2E2E2E2E2E2E2E2E2E2E2E2E2E2E2E2E2E2E2E2E2E2E2E2E2E2E2E2E2E2E2E2E2E2E2E2E2E2E2E2E2E2E2E2E2E2E2E2E2E2E2E2E2E2E2E2E2E2E2E2E2E2E2E2E2E2E2E2
310
E2E2E2E2E2E2E2E2E2E2E2E2E2E2F5E2E2E2E2E2E2E2E2E2E2E2E2E2E2E2E2F5E2E2E2F5F5E2E2E2F5E2E2E2E2E2E2E2E2E2E2E2E2E2E2E2E2F5E2E2E2E2E2E2E2E2E2E2E2E2E2E2E2E2E2E2E2E2E2E2E2E2E2E2E2E2E2E2E2E2E2E2E2E2E2E2E2E2E2E2E2E2E2E2E2E2E2E2E2E2E2E2E2E2E2E2E2E2E2E2E2E2E2E2E2E2E2
310
E2E2E2E2E2E2E2E2E2E2E2E2E2E2E2E2E2E2E2E2E2E2E2E2E2E2E2E2E2E2E2E2E2E2E2E2E2E2E2E2E2E2E2E2E2E2E2E2E2E2E2E2E2E2E2E2E2E2E2E2E2E2E2E2E2E2E2F5E2E2E2E2E2E2E2E2E2E2E2E2E2E2E2E2F5E2E2E2F5F5E2E2E2F5E2E2E2E2E2E2E2E2E2E2E2E2E2E2E2E2F5E2E2E2E2E2E2E2E2E2E2E2E2E2E2E2E2
310
E2E2E2E2E2E2E2E2E2E2E2E2E2E2E2E2E2E2E2E2E2E2E2E2E2E2E2E2E2E2E2E2E2E2E2E2E2E2E2E2E2E2E2E2E2E2E2E2E2E2E2E2E2E2E2E2E2E2E2E2E2E2E2E2E2E2E2E2E2E2E2E2E2E2E2E2E2E2E2E2E2E2E2E2E2E2E2E2E2E2E2E2E2E2E2E2E2E2E2E2E2E2E2E2E2E2E2E2E2E2E2E2E2E2E2E2E2E2E2E2F5E2E2E2E2E2E2
310
E2E2E2E2E2E2E2E2E2E2F5E2E2E2F5F5E2E2E2F5E2E2E2E2E2E2E2E2E2E2E2E2E2E2E2E2F5E2E2E2E2E2E2E2E2E2E2E2E2E2E2E2E2E2E2E2E2E2E2E2E2E2E2E2E2E2E2E2E2E2E2E2E2E2E2E2E2E2E2E2E2E2E2E2E2E2E2E2E2E2E2E2E2E2E2E2E2E2E2E2E2E2E2E2E2E2E2E2E2E2E2E2E2E2E2E2E2E2E2E2E2E2E2E2E2E2E2
310
E2E2E2E2E2E2E2E2E2E2E2E2E2E2E2E2E2E2E2E2E2E2E2E2E2E2E2E2E2E2E2E2E2E2E2E2E2E2E2E2E2E2E2E2E2E2F5E2E2E2E2E2E2E2E2E2E2E2E2E2E2E2E2F5E2E2E2F5F5E2E2E2F5E2E2E2E2E2E2E2E2E2E2E2E2E2E2E2E2F5E2E2E2E2E2E2E2E2E2E2E2E2E2E2E2E2E2E2E2E2E2E2E2E2E2E2E2E2E2E2E2E2E2E2E2E2E2
310
E2E2E2E2E2E2E2E2E2E2E2E2E2E2E2E2E2E2E2E2E2E2E2E2E2E2E2E2E2E2E2E2E2E2E2E2E2E2E2E2E2E2E2E2E2E2E2E2E2E2E2E2E2E2E2E2E2E2E2E2E2E2E2E2E2E2E2E2E2E2E2E2E2E2E2E2E2E2E2E2E2E2E2E2E2E2E2E2E2E2E2E2E2E2E2E2E2E2E2F5E2E2E2E2E2E2E2E2E2E2E2E2E2E2E2E2F5E2E2E2F5F5E2E2E2F5E2
310
E2E2E2E2E2E2E2E2E2E2E2E2E2E2E2F5E2E2E2E2E2E2E2E2E2E2E2E2E2E2E2E2E2E2E2E2E2E2E2E2E2E2E2E2E2E2E2E2E2E2E2E2E2E2E2E2E2E2E2E2E2E2E2E2E2E2E2E2E2E2E2E2E2E2E2E2E2E2E2E2E2E2E2E2E2E2E2E2E2E2E2E2E2E2E2E2E2E2E2E2E2E2E2E2E2E2E2E2E2E2E2E2E2E2E2E2E2E2E2E2E2E2E2E2E2E2E2
310
E2E2E2E2E2E2E2E2E2E2E2E2E2E2E2E2E2E2E2E2E2E2E2E2E2F5E2E2E2E2E2E2E2E2E2E2E2E2E2E2E2E2F5E2E2E2F5F5E2E2E2F5E2E2E2E2E2E2E2E2E2E2E2E2E2E2E2E2F5E2E2E2E2E2E2E2E2E2E2E2E2E2E2E2E2E2E2E2E2E2E2E2E2E2E2E2E2E2E2E2E2E2E2E2E2E2E2E2E2E2E2E2E2E2E2E2E2E2E2E2E2E2E2E2E2E2E2
310
E2E2E2E2E2E2E2E2E2E2E2E2E2E2E2E2E2E2E2E2E2E2E2E2E2E2E2E2E2E2E2E2E2E2E2E2E2E2E2E2E2E2E2E2E2E2E2E2E2E2E2E2E2E2E2E2E2E2E2E2E2E2E2E2E2E2E2E2E2E2E2E2E2E2E2E2E2E2F5E2E2E2E2E2E2E2E2E2E2E2E2E2E2E2E2F5E2E2E2F5F5E2E2E2F5E2E2E2E2E2E2E2E2E2E2E2E2E2E2E2E2F5E2E2E2E2E2
310
E2E2E2E2E2E2E2E2E2E2E2E2E2E2E2E2E2E2E2E2E2E2E2E2E2E2E2E2E2E2E2E2E2E2E2E2E2E2E2E2E2E2E2E2E2E2E2E2E2E2E2E2E2E2E2E2E2E2E2E2E2E2E2E2E2E2E2E2E2E2E2E2E2E2E2E2E2E2E2E2E2E2E2E2E2E2E2E2E2E2E2E2E2E2E2E2E2E2E2E2E2E2E2E2E2E2E2E2E2E2E2E2E2E2E2E2E2E2E2E2E2E2E2E2E2E2E2
310
E2E2E2E2F5E2E2E2E2E2E2E2E2E2E2E2E2E2E2E2E2F5E2E2E2F5F5E2E2E2E2E2E2E2E2E2E2E2E2E2E2E2E2E2E2E2E2F5E2E2E2E2E2E2E2E2E2E2E2E2E2E2E2E2E2E2E2E2E2E2E2E2E2E2E2E2E2E2E2E2E2E2E2E2E2E2E2E2E2E2E2E2E2E2E2E2E2E2E2E2E2E2E2E2E2E2E2E2E2E2E2E2E2E2E2E2E2E2E2E2E2E2E2E2E2E2E2
310
E2E2E2E2E2E2E2E2E2E2E2E2E2E2E2E2E2E2E2E2E2E2E2E2E2E2E2E2E2E2E2E2E2E2E2E2E2E2E2E2E2E2E2E2E2E2E2E2E2E2E2E2E2E2E2E2E2F5E2E2E2E2E2E2E2E2E2E2E2E2E2E2E2E2E2E2E2E2F5F5E2E2E2E2E2E2E2E2E2E2E2E2E2E2E2E2E2E2E2E2F5E2E2E2E2E2E2E2E2E2E2E2E2E2E2E2E2E2E2E2E2E2E2E2E2E2E2
310
E2E2E2E2E2E2E2E2E2E2E2E2E2E2E2E2E2E2E2E2E2E2E2E2E2E2E2E2E2E2E2E2E2E2E2E2E2E2E2E2E2E2E2E2E2E2E2E2E2E2E2E2E2E2E2E2E2E2E2E2E2E2E2E2E2E2E2E2E2E2E2E2E2E2E2E2E2E2E2E2E2E2E2E2E2E2E2E2E2E2E2E2E2E2E2E2E2E2E2E2E2E2E2E2E2E2E2E2E2E2F5E2E2E2E2E2E2E2E2E2E2E2E2E2E2E2E2
310
E2E2E2E2F5F5E2E2E2E2E2E2E2E2E2E2E2E2E2E2E2E2E2E2E2E2F5E2E2E2E2E2E2E2E2E2E2E2E2E2E2E2E2E2E2E2E2E2E2E2E2E2E2E2E2E2E2E2E2E2E2E2E2E2E2E2E2E2E2E2E2E2E2E2E2E2E2E2E2E2E2E2E2E2E2E2E2E2E2E2E2E2E2E2E2E2E2E2E2E2E2E2E2E2E2E2E2E2E2E2E2E2E2E2E2E2E2E2E2E2E2E2E2E2E2E2E2
310
E2E2E2E2E2E2E2E2E2E2E2E2E2E2E2E2E2E2E2E2E2E2E2E2E2E2E2E2E2E2E2E2E2E2E2E2F5E2E2E2E2E2E2E2E2E2E2E2E2E2E2E2E2E2E2E2E2F5F5E2E2E2E2E2E2E2E2E2E2E2E2E2E2E2E2E2E2E2E2F5E2E2E2E2E2E2E2E2E2E2E2E2E2E2E2E2E2E2E2E2E2E2E2E2E2E2E2E2E2E2E2E2E2E2E2E2E2E2E2E2E2E2E2E2E2E2E2
310
E2E2E2E2E2E2E2E2E2E2E2E2E2E2E2E2E2E2E2E2E2E2E2E2E2E2E2E2E2E2E2E2E2E2E2E2E2E2E2E2E2E2E2E2E2E2E2E2E2E2E2E2E2E2E2E2E2E2E2E2E2E2E2E2E2E2E2E2E2E2E2E2E2E2E2E2E2E2E2E2E2E2E2E2E2E2E2E2E2F5E2E2E2E2E2E2E2E2E2E2E2E2E2E2E2E2E2E2E2E2F5F5E2E2E2E2E2E2E2E2E2E2E2E2E2E2E2
310
E2E2E2E2E2F5F5F5F5F5F5F5F5F5F5F5F5F5F5F5F5F5F5F5F5F5F5F5F5F5F5F5F5F5F5F5F5F5F5F5F5F5F5F5F5F5F5F5F5F5F5F5F5F5F5F5F5F5F5F5F5F5F5F5F5F5F5F5F5F5F5F5F5F5F5F5F5F5F5F5F5F5F5F5F5F5F5F5F5F5F5F5F5F5F5F5F5F5F5F5F5F5F5F5F5F5F5F5F5F5F5F5F5F5F5F5F5F5F5F5F5F5F5F5F5F5F5
310
F5F5F5F5F5F5F5F5F5F5F5F5F5F5F5F5E2E2E2E2E2E2E2E2E2E2E2E2E2E2E2E2E2E2E2E2F5F5E2E2E2E2E2E2E2E2E2E2E2E2E2E2E2E2E2E2E2E2E2E2E2E2E2E2E2E2E2E2E2E2E2E2E2E2E2E2E2E2E2E2E2E2E2E2E2E2E2E2E2E2E2E2E2E2E2E2E2E2E2E2E2E2E2E2E2E2E2E2E2E2E2E2E2E2E2E2E2E2E2E2E2E2E2E2E2E2E2
310
E2E2E2E2E2E2E2E2E2E2E2E2E2E2E2E2E2E2E2E2E2E2E2E2E2E2E2E2E2E2E2E2E2E2E2E2E2E2E2E2E2E2E2E2E2E2E2E2E2E2E2E2E2E2E2E2E2E2E2E2E2E2E2E2E2E2E2E2E2E2E2E2E2E2E2E2E2E2E2E2E2E2E2E2E2E2E2E2E2F5F5E2E2E2E2E2E2E2E2E2E2E2E2E2E2E2E2E2E2E2E2E2E2E2E2E2E2E2E2E2E2E2E2E2E2E2E2
310
E2E2E2E2E2E2E2E2E2E2E2E2E2E2E2E2E2E2E2E2E2E2E2E2E2E2E2E2E2E2E2E2E2E2E2E2E2E2E2E2E2E2E2E2E2E2E2E2E2E2E2E2E2E2E2E2E2E2E2E2E2E2E2E2E2E2E2E2E2E2E2E2E2E2E2E2E2E2E2E2E2E2E2E2E2E2E2E2E2E2E2E2E2E2E2E2E2E2E2E2E2E2E2E2E2E2E2E2E2E2E2E2E2E2E2E2E2E2E2E2E2E2E2E2E2E2E2
310
E2E2E2E2E2E2E2E2E2E2E2E2E2E2E2F5F5E2E2E2E2E2E2E2E2E2E2E2E2E2E2E2E2E2E2E2E2E2E2E2E2E2E2E2E2E2E2E2E2E2E2E2E2E2E2E2E2E2E2E2E2E2E2E2E2E2E2E2E2E2E2E2E2E2E2E2E2E2E2E2E2E2E2E2E2E2E2E2E2E2E2E2E2E2E2E2E2E2E2E2E2E2E2E2E2E2E2E2E2E2E2E2E2E2E2E2E2E2E2E2E2E2E2E2E2E2E2
310
E2E2E2E2E2E2E2E2E2E2E2E2E2E2E2E2E2E2E2E2E2E2E2E2E2E2E2E2E2E2E2E2E2E2E2E2E2E2E2E2E2E2E2E2E2E2E2E2E2E2E2E2E2E2E2E2E2E2E2E2E2E2E2E2E2E2E2E2F5F5E2E2E2E2E2E2E2E2E2E2E2E2E2E2E2E2E2E2E2E2E2E2E2E2E2E2E2E2E2E2E2E2E2E2E2E2E2E2E2E2E2E2E2E2E2E2E2E2E2E2E2E2E2E2E2E2E2
310
E2E2E2E2E2E2E2E2E2E2E2E2E2E2E2E2E2E2E2E2E2E2E2E2E2E2E2E2E2E2E2E2E2E2E2E2E2E2E2E2E2E2E2E2E2E2E2E2E2E2E2E2E2E2E2E2E2E2E2E2E2E2E2E2E2E2E2E2E2E2E2E2E2E2E2E2E2E2E2E2E2E2E2E2E2E2E2E2E2E2E2E2E2E2E2E2E2E2E2E2E2E2E2E2E2E2E2E2E2E2E2E2E2E2E2E2E2E2E2E2E2F5F5E2E2E2F5
310
E2E2E2E2E2E2E2E2E2E2E2E2E2E2E2E2E2E2E2E2E2E2E2E2E2E2E2E2E2E2E2E2E2E2E2E2E2E2E2E2E2E2E2E2E2E2E2E2E2E2E2E2E2E2E2E2E2E2E2E2E2E2E2E2E2E2E2E2E2E2E2E2E2E2E2E2E2E2E2E2E2E2E2E2E2E2E2E2E2E2E2E2E2E2E2E2E2E2E2E2E2E2E2E2E2E2E2E2E2E2E2E2E2E2E2E2E2E2E2E2E2E2E2E2E2E2E2
310
E2E2E2E2E2E2E2E2E2E2E2E2E2E2E2E2E2E2E2E2E2E2E2E2E2E2E2E2E2E2E2E2E2E2E2E2E2E2E2E2E2E2E2F5E2E2E2F5F5E2E2E2F5E2E2E2E2E2E2E2E2E2E2E2E2E2E2E2E2E2E2E2E2E2E2E2E2E2E2E2E2E2E2E2E2E2E2E2E2E2E2E2E2E2E2E2E2E2E2E2E2E2E2E2E2E2E2E2E2E2E2E2E2E2E2E2E2E2E2E2E2E2E2E2E2E2E2
310
E2E2E2E2E2E2E2E2E2E2E2E2E2E2E2E2E2E2E2E2E2E2E2E2E2E2E2E2E2E2E2E2E2E2E2E2E2E2E2E2E2E2E2E2E2E2E2E2E2E2E2E2E2E2E2E2E2E2E2E2E2E2E2E2E2E2E2E2E2E2E2E2E2E2E2E2E2E2E2E2E2E2E2E2E2E2E2E2E2E2E2E2E2E2E2E2F5E2E2E2F5F5E2E2E2F5E2E2E2E2E2E2E2E2E2E2E2E2E2E2E2E2E2E2E2E2E2
310
E2E2E2E2E2E2E2E2E2E2E2E2E2E2E2E2E2E2E2E2E2E2E2E2E2E2E2E2E2E2E2E2E2E2E2E2E2E2E2E2E2E2E2E2E2E2E2E2E2E2E2E2E2E2E2E2E2E2E2E2E2E2E2E2E2E2E2E2E2E2E2E2E2E2E2E2E2E2E2E2E2E2E2E2E2E2E2E2E2E2E2E2E2E2E2E2E2E2E2E2E2E2E2E2E2E2E2E2E2E2E2E2E2E2E2E2E2E2E2E2E2E2E2E2E2E2E2
310
E2E2E2E2E2E2E2E2E2E2E2E2E2E2E2E2E2E2E2E2E2E2F5E2E2E2F5F5E2E2E2F5E2E2E2E2E2E2E2E2E2E2E2E2E2E2E2E2E2E2E2E2E2E2E2E2E2E2E2E2E2E2E2E2E2E2E2E2E2E2E2E2E2E2E2E2E2E2E2E2E2E2E2E2E2E2E2E2E2E2E2E2E2E2E2E2E2E2E2E2E2E2E2E2E2E2E2E2E2E2E2E2E2E2E2E2E2E2E2E2E2E2E2E2E2E2E2
310
E2E2E2E2E2E2E2E2E2E2E2E2E2E2E2E2E2E2E2E2E2E2E2E2E2E2E2E2E2E2E2E2E2E2E2E2E2E2E2E2E2E2E2E2E2E2E2E2E2E2E2E2E2E2E2E2E2E2E2E2E2E2E2E2E2E2E2E2E2E2E2E2E2E2E2F5E2E2E2F5F5E2E2E2F5E2E2E2E2E2E2E2E2E2E2E2E2E2E2E2E2E2E2E2E2E2E2E2E2E2E2E2E2E2E2E2E2E2E2E2E2E2E2E2E2E2E2
310
E2E2E2E2E2E2E2E2E2E2E2E2E2E2E2E2E2E2E2E2E2E2E2E2E2E2E2E2E2E2E2E2E2E2E2E2E2E2E2E2E2E2E2E2E2E2E2E2E2E2E2E2E2E2E2E2E2E2E2E2E2E2E2E2E2E2E2E2E2E2E2E2E2E2E2E2E2E2E2E2E2E2E2E2E2E2E2E2E2E2E2E2E2E2E2E2E2E2E2E2E2E2E2E2E2E2E2E2E2E2E2E2E2E2E2E2E2E2E2E2E2E2E2E2E2E2E2
310
E2F5E2E2E2F5F5E2E2E2F5E2E2E2E2E2E2E2E2E2E2E2E2E2E2E2E2E2E2E2E2E2E2E2E2E2E2E2E2E2E2E2E2E2E2E2E2E2E2E2E2E2E2E2E2E2E2E2E2E2E2E2E2E2E2E2E2E2E2E2E2E2E2E2E2E2E2E2E2E2E2E2E2E2E2E2E2E2E2E2E2E2E2E2E2E2E2E2E2E2E2E2E2E2E2E2E2E2E2E2E2E2E2E2E2E2E2E2E2E2E2E2E2E2E2E2E2
310
E2E2E2E2E2E2E2E2E2E2E2E2E2E2E2E2E2E2E2E2E2E2E2E2E2E2E2E2E2E2E2E2E2E2E2E2E2E2E2E2E2E2E2E2E2E2E2E2E2E2E2E2E2E2F5E2E2E2F5F5E2E2E2F5E2E2E2E2E2E2E2E2E2E2E2E2E2E2E2E2E2E2E2E2E2E2E2E2E2E2E2E2E2E2E2E2E2E2E2E2E2E2E2E2E2E2E2E2E2E2E2E2E2E2E2E2E2E2E2E2E2E2E2E2E2E2E2
310
E2E2E2E2E2E2E2E2E2E2E2E2E2E2E2E2E2E2E2E2E2E2E2E2E2E2E2E2E2E2E2E2E2E2E2E2E2E2E2E2E2E2E2E2E2E2E2E2E2E2E2E2E2E2E2E2E2E2E2E2E2E2E2E2E2E2E2E2E2E2E2E2E2E2E2E2E2E2E2E2E2E2E2E2E2E2E2E2E2E2E2E2E2E2E2E2E2E2E2E2E2E2E2E2E2E2E2F5E2E2E2F5F5E2E2E2F5E2E2E2E2E2E2E2E2E2E2
310
E2E2E2E2E2E2E2E2E2E2E2E2E2E2E2E2E2E2E2E2E2E2E2E2E2E2E2E2E2E2E2E2E2E2E2E2E2E2E2E2E2E2E2E2E2E2E2E2E2E2E2E2E2E2E2E2E2E2E2E2E2E2E2E2E2E2E2E2E2E2E2E2E2E2E2E2E2E2E2E2E2E2E2E2E2E2E2E2E2E2E2E2E2E2E2E2E2E2E2E2E2E2E2E2E2E2E2E2E2E2E2E2E2E2E2E2E2E2E2E2E2E2E2E2E2E2E2
310
E2E2E2E2E2E2E2E2E2E2E2E2E2E2E2E2E2E2E2E2E2E2E2E2E2E2E2E2E2E2E2E2E2F5E2E2E2F5F5E2E2E2F5F5F5F5F5F5F5F5E2E2E2E2E2E2E2E2E2F5F5F5F5F5F5F5F5F5F5F5F5F5F5F5F5E2E2E2E2E2E2E2E2E2F5F5F5F5F5F5F5F5F5F5F5F5F5F5F5E2E2E2E2E2E2E2E2E2F5F5F5F5F5F5F5F5F5F5F5F5F5F5F5F5E2E2E2
310
E2E2E2E2E2F5F5F5F5F5F5F5F5F5F5F5F5F5F5F5F5E2E2E2E2E2E2E2E2E2F5F5F5F5F5F5F5F5F5F5F5F5F5F5F5E2E2E2E2E2E2E2E2E2F5F5F5F5F5F5F5F5F5F5F5F5F5F5F5F5E2E2E2E2E2E2E2E2E2F5F5F5F5F5F5F5F5E2E2E2F5F5E2E2E2E2E2E2E2E2E2E2E2E2E2E2E2E2E2E2E2E2E2E2E2E2E2E2E2E2E2E2E2E2E2E2E2
310
E2E2E2E2E2E2E2E2E2E2E2E2E2E2E2E2E2E2E2E2E2E2E2E2E2E2E2E2E2E2E2E2E2E2E2E2E2E2E2E2E2E2E2E2E2E2E2E2E2E2E2E2E2E2E2E2E2E2E2E2E2E2E2E2E2E2E2E2E2E2E2E2E2E2E2E2E2E2E2E2E2E2E2E2E2E2E2E2E2E2E2E2E2E2E2E2E2E2E2E2E2E2E2E2E2E2E2E2E2E2E2E2E2E2E2E2E2E2E2E2E2E2E2E2E2E2E2
310
E2E2E2E2E2E2E2E2E2E2E2E2E2E2E2E2F5F5E2E2E2E2E2E2E2E2E2E2E2E2E2E2E2E2E2E2E2E2E2E2E2E2E2E2E2E2E2E2E2E2E2E2E2E2E2E2E2E2E2E2E2E2E2E2E2E2E2E2E2E2E2E2E2E2E2E2E2E2E2E2E2E2E2E2E2E2E2E2E2E2E2E2E2E2E2E2E2E2E2E2E2E2E2E2E2E2E2E2E2E2E2E2E2E2E2E2E2E2E2E2E2E2E2E2E2E2E2
310
E2E2E2E2E2E2E2E2E2E2E2E2E2E2E2E2E2E2E2E2E2E2E2E2E2E2E2E2E2E2E2E2E2E2E2E2E2E2E2E2E2E2E2E2E2E2E2E2E2E2E2E2E2E2E2E2E2E2E2E2E2E2E2E2E2E2E2E2E2F5F5E2E2E2E2E2E2E2E2E2E2E2E2E2E2E2E2E2E2E2E2E2E2E2E2E2E2E2E2E2E2E2E2E2E2E2E2E2E2E2E2E2E2E2E2E2E2E2E2E2E2E2E2E2E2E2E2
310
E2E2E2E2E2E2E2E2E2E2E2E2E2E2E2E2E2E2E2E2E2E2E2E2E2E2E2E2E2E2E2E2E2E2E2E2E2E2E2E2E2E2E2E2E2E2E2E2E2E2E2E2E2E2E2E2E2E2E2E2E2E2E2E2E2E2E2E2E2E2E2E2E2E2E2E2E2E2E2E2E2E2E2E2E2E2E2E2E2E2E2E2E2E2E2E2E2E2E2E2E2E2E2E2E2E2E2E2E2E2E2E2E2E2E2E2E2E2E2E2E2E2F5F5E2E2E2
310
E2E2E2E2E2E2E2E2E2E2E2E2E2E2E2E2E2E2E2E2E2E2E2E2E2E2E2E2E2E2E2E2E2E2E2E2E2E2E2E2E2E2E2E2E2E2E2E2E2E2E2E2E2E2E2E2E2E2E2E2E2E2E2E2E2E2E2E2E2E2E2E2E2E2E2E2E2E2E2E2E2E2E2E2E2E2E2E2E2E2E2E2E2E2E2E2E2E2E2E2E2E2E2E2E2E2E2E2E2E2E2E2E2E2E2E2E2E2E2E2E2E2E2E2E2E2E2
310
E2E2E2E2E2E2E2E2E2E2E2E2E2E2E2E2E2E2E2E2E2E2E2E2E2E2E2E2E2E2E2E2E2E2E2E2E2E2E2E2E2E2E2E2E2E2E2E2F5
  0
XRECORD
  5
602D6
102
{ACAD_REACTORS
330
602D5
102
}
330
602D5
100
AcDbXrecord
280
     1
102
SHADEPLOT
 70
     0
102
SHADEPLOTRESLEVEL
 70
     2
102
SHADEPLOTCUSTOMDPI
 70
   300
  0
ENDSEC
  0
EOF
