  0
SECTION
  2
HEADER
  9
$ACADVER
  1
AC1015
  9
$ACADMAINTVER
 70
    20
  9
$DWGCODEPAGE
  3
ANSI_936
  9
$INSBASE
 10
0.0
 20
0.0
 30
0.0
  9
$EXTMIN
 10
-160.5548344171053
 20
-178.520744635586
 30
0.0
  9
$EXTMAX
 10
759.7701003417064
 20
276.7277239979331
 30
0.0
  9
$LIMMIN
 10
0.0
 20
0.0
  9
$LIMMAX
 10
420.0
 20
297.0
  9
$ORTHOMODE
 70
     0
  9
$REGENMODE
 70
     1
  9
$FILLMODE
 70
     1
  9
$QTEXTMODE
 70
     0
  9
$MIRRTEXT
 70
     1
  9
$LTSCALE
 40
1.0
  9
$ATTMODE
 70
     1
  9
$TEXTSIZE
 40
3.5
  9
$TRACEWID
 40
1.0
  9
$TEXTSTYLE
  7
simplex
  9
$CLAYER
  8
0
  9
$CELTYPE
  6
ByLayer
  9
$CECOLOR
 62
   256
  9
$CELTSCALE
 40
1.0
  9
$DISPSILH
 70
     0
  9
$DIMSCALE
 40
0.0
  9
$DIMASZ
 40
3.5
  9
$DIMEXO
 40
0.0
  9
$DIMDLI
 40
0.38
  9
$DIMRND
 40
0.0
  9
$DIMDLE
 40
0.0
  9
$DIMEXE
 40
1.5
  9
$DIMTP
 40
0.0
  9
$DIMTM
 40
0.0
  9
$DIMTXT
 40
3.5
  9
$DIMCEN
 40
0.09
  9
$DIMTSZ
 40
0.0
  9
$DIMTOL
 70
     0
  9
$DIMLIM
 70
     0
  9
$DIMTIH
 70
     0
  9
$DIMTOH
 70
     0
  9
$DIMSE1
 70
     0
  9
$DIMSE2
 70
     0
  9
$DIMTAD
 70
     1
  9
$DIMZIN
 70
     8
  9
$DIMBLK
  1

  9
$DIMASO
 70
     1
  9
$DIMSHO
 70
     1
  9
$DIMPOST
  1

  9
$DIMAPOST
  1

  9
$DIMALT
 70
     0
  9
$DIMALTD
 70
     2
  9
$DIMALTF
 40
25.4
  9
$DIMLFAC
 40
1.0
  9
$DIMTOFL
 70
     0
  9
$DIMTVP
 40
0.0
  9
$DIMTIX
 70
     0
  9
$DIMSOXD
 70
     0
  9
$DIMSAH
 70
     0
  9
$DIMBLK1
  1

  9
$DIMBLK2
  1

  9
$DIMSTYLE
  2
\M+18352\M+18373\M+1815B - ISO-25
  9
$DIMCLRD
 70
   256
  9
$DIMCLRE
 70
   256
  9
$DIMCLRT
 70
   256
  9
$DIMTFAC
 40
1.0
  9
$DIMGAP
 40
2.299999999999998
  9
$DIMJUST
 70
     0
  9
$DIMSD1
 70
     0
  9
$DIMSD2
 70
     0
  9
$DIMTOLJ
 70
     1
  9
$DIMTZIN
 70
     8
  9
$DIMALTZ
 70
     0
  9
$DIMALTTZ
 70
     0
  9
$DIMUPT
 70
     0
  9
$DIMDEC
 70
     2
  9
$DIMTDEC
 70
     2
  9
$DIMALTU
 70
     2
  9
$DIMALTTD
 70
     2
  9
$DIMTXSTY
  7
simplex
  9
$DIMAUNIT
 70
     0
  9
$DIMADEC
 70
     0
  9
$DIMALTRND
 40
0.0
  9
$DIMAZIN
 70
     0
  9
$DIMDSEP
 70
    46
  9
$DIMATFIT
 70
     3
  9
$DIMFRAC
 70
     0
  9
$DIMLDRBLK
  1

  9
$DIMLUNIT
 70
     2
  9
$DIMLWD
 70
    -1
  9
$DIMLWE
 70
    -1
  9
$DIMTMOVE
 70
     0
  9
$LUNITS
 70
     2
  9
$LUPREC
 70
     4
  9
$SKETCHINC
 40
1.0
  9
$FILLETRAD
 40
1.5
  9
$AUNITS
 70
     0
  9
$AUPREC
 70
     0
  9
$MENU
  1
.
  9
$ELEVATION
 40
0.0
  9
$PELEVATION
 40
0.0
  9
$THICKNESS
 40
0.0
  9
$LIMCHECK
 70
     0
  9
$CHAMFERA
 40
10.0
  9
$CHAMFERB
 40
10.0
  9
$CHAMFERC
 40
20.0
  9
$CHAMFERD
 40
0.0
  9
$SKPOLY
 70
     0
  9
$TDCREATE
 40
2455489.391063368
  9
$TDUCREATE
 40
2455489.057730035
  9
$TDUPDATE
 40
2458416.581362407
  9
$TDUUPDATE
 40
2458416.248029074
  9
$TDINDWG
 40
1.9421705440
  9
$TDUSRTIMER
 40
1.9421188310
  9
$USRTIMER
 70
     1
  9
$ANGBASE
 50
0.0
  9
$ANGDIR
 70
     0
  9
$PDMODE
 70
     0
  9
$PDSIZE
 40
0.0
  9
$PLINEWID
 40
0.0
  9
$SPLFRAME
 70
     0
  9
$SPLINETYPE
 70
     6
  9
$SPLINESEGS
 70
     8
  9
$HANDSEED
  5
5F999
  9
$SURFTAB1
 70
     6
  9
$SURFTAB2
 70
     6
  9
$SURFTYPE
 70
     6
  9
$SURFU
 70
     6
  9
$SURFV
 70
     6
  9
$UCSBASE
  2

  9
$UCSNAME
  2

  9
$UCSORG
 10
0.0
 20
0.0
 30
0.0
  9
$UCSXDIR
 10
1.0
 20
0.0
 30
0.0
  9
$UCSYDIR
 10
0.0
 20
1.0
 30
0.0
  9
$UCSORTHOREF
  2

  9
$UCSORTHOVIEW
 70
     0
  9
$UCSORGTOP
 10
0.0
 20
0.0
 30
0.0
  9
$UCSORGBOTTOM
 10
0.0
 20
0.0
 30
0.0
  9
$UCSORGLEFT
 10
0.0
 20
0.0
 30
0.0
  9
$UCSORGRIGHT
 10
0.0
 20
0.0
 30
0.0
  9
$UCSORGFRONT
 10
0.0
 20
0.0
 30
0.0
  9
$UCSORGBACK
 10
0.0
 20
0.0
 30
0.0
  9
$PUCSBASE
  2

  9
$PUCSNAME
  2

  9
$PUCSORG
 10
0.0
 20
0.0
 30
0.0
  9
$PUCSXDIR
 10
1.0
 20
0.0
 30
0.0
  9
$PUCSYDIR
 10
0.0
 20
1.0
 30
0.0
  9
$PUCSORTHOREF
  2

  9
$PUCSORTHOVIEW
 70
     0
  9
$PUCSORGTOP
 10
0.0
 20
0.0
 30
0.0
  9
$PUCSORGBOTTOM
 10
0.0
 20
0.0
 30
0.0
  9
$PUCSORGLEFT
 10
0.0
 20
0.0
 30
0.0
  9
$PUCSORGRIGHT
 10
0.0
 20
0.0
 30
0.0
  9
$PUCSORGFRONT
 10
0.0
 20
0.0
 30
0.0
  9
$PUCSORGBACK
 10
0.0
 20
0.0
 30
0.0
  9
$USERI1
 70
     0
  9
$USERI2
 70
     0
  9
$USERI3
 70
     0
  9
$USERI4
 70
     0
  9
$USERI5
 70
     0
  9
$USERR1
 40
0.0
  9
$USERR2
 40
0.0
  9
$USERR3
 40
0.0
  9
$USERR4
 40
0.0
  9
$USERR5
 40
0.0
  9
$WORLDVIEW
 70
     1
  9
$SHADEDGE
 70
     3
  9
$SHADEDIF
 70
    70
  9
$TILEMODE
 70
     1
  9
$MAXACTVP
 70
    64
  9
$PINSBASE
 10
0.0
 20
0.0
 30
0.0
  9
$PLIMCHECK
 70
     0
  9
$PEXTMIN
 10
26.66999878883364
 20
20.31999878883365
 30
0.0
  9
$PEXTMAX
 10
240.0299890995025
 20
182.8799890995025
 30
0.0
  9
$PLIMMIN
 10
-6.350006103515625
 20
-6.349999904632567
  9
$PLIMMAX
 10
273.0499877929688
 20
209.5499939918518
  9
$UNITMODE
 70
     0
  9
$VISRETAIN
 70
     1
  9
$PLINEGEN
 70
     0
  9
$PSLTSCALE
 70
     1
  9
$TREEDEPTH
 70
  3020
  9
$CMLSTYLE
  2
Standard
  9
$CMLJUST
 70
     0
  9
$CMLSCALE
 40
20.0
  9
$PROXYGRAPHICS
 70
     1
  9
$MEASUREMENT
 70
     1
  9
$CELWEIGHT
370
    -1
  9
$ENDCAPS
280
     0
  9
$JOINSTYLE
280
     0
  9
$LWDISPLAY
290
     0
  9
$INSUNITS
 70
     4
  9
$HYPERLINKBASE
  1

  9
$STYLESHEET
  1

  9
$XEDIT
290
     1
  9
$CEPSNTYPE
380
     0
  9
$PSTYLEMODE
290
     1
  9
$FINGERPRINTGUID
  2
{601DDA01-5B13-4A4C-8F56-1333B78D855B}
  9
$VERSIONGUID
  2
{5C043D1A-4EC7-402B-B3C4-5B5A94DC1862}
  9
$EXTNAMES
290
     1
  9
$PSVPSCALE
 40
0.0
  9
$OLESTARTUP
290
     0
  0
ENDSEC
  0
SECTION
  2
CLASSES
  0
CLASS
  1
ACDBDICTIONARYWDFLT
  2
AcDbDictionaryWithDefault
  3
ObjectDBX Classes
 90
        0
280
     0
281
     0
  0
CLASS
  1
ACDBPLACEHOLDER
  2
AcDbPlaceHolder
  3
ObjectDBX Classes
 90
        0
280
     0
281
     0
  0
CLASS
  1
LAYOUT
  2
AcDbLayout
  3
ObjectDBX Classes
 90
        0
280
     0
281
     0
  0
CLASS
  1
DICTIONARYVAR
  2
AcDbDictionaryVar
  3
ObjectDBX Classes
 90
        0
280
     0
281
     0
  0
CLASS
  1
TABLESTYLE
  2
AcDbTableStyle
  3
ObjectDBX Classes
 90
     2047
280
     0
281
     0
  0
CLASS
  1
SORTENTSTABLE
  2
AcDbSortentsTable
  3
ObjectDBX Classes
 90
        0
280
     0
281
     0
  0
CLASS
  1
DIMASSOC
  2
AcDbDimAssoc
  3
"AcDbDimAssoc|Product Desc:     AcDim ARX App For Dimension|Company:          Autodesk, Inc.|WEB Address:      www.autodesk.com"
 90
        0
280
     0
281
     0
  0
CLASS
  1
ACAD_EVALUATION_GRAPH
  2
AcDbEvalGraph
  3
ObjectDBX Classes
 90
    33921
280
     0
281
     0
  0
CLASS
  1
ACAECUSTOBJ
  2
AcAeEditorObj
  3
AcAeEditorObj
 90
    33792
280
     0
281
     0
  0
CLASS
  1
ACDB_DYNAMICBLOCKPURGEPREVENTER_VERSION
  2
AcDbDynamicBlockPurgePreventer
  3
ObjectDBX Classes
 90
    33921
280
     0
281
     0
  0
ENDSEC
  0
SECTION
  2
TABLES
  0
TABLE
  2
VPORT
  5
8
330
0
100
AcDbSymbolTable
 70
    12
  0
VPORT
  5
5F98A
330
8
100
AcDbSymbolTableRecord
100
AcDbViewportTableRecord
  2
*Active
 70
     0
 10
0.0
 20
0.0
 11
1.0
 21
1.0
 12
48.4355761160582
 22
17.37854498433228
 13
0.0
 23
0.0
 14
10.0
 24
10.0
 15
10.0
 25
10.0
 16
0.0
 26
0.0
 36
1.0
 17
0.0
 27
0.0
 37
0.0
 40
426.0888327166087
 41
1.381443298969072
 42
50.0
 43
0.0
 44
0.0
 50
0.0
 51
0.0
 71
     0
 72
  1000
 73
     1
 74
     1
 75
     0
 76
     0
 77
     0
 78
     0
281
     0
 65
     1
110
0.0
120
0.0
130
0.0
111
1.0
121
0.0
131
0.0
112
0.0
122
1.0
132
0.0
 79
     0
146
0.0
  0
ENDTAB
  0
TABLE
  2
LTYPE
  5
5
330
0
100
AcDbSymbolTable
 70
     4
  0
LTYPE
  5
14
330
5
100
AcDbSymbolTableRecord
100
AcDbLinetypeTableRecord
  2
ByBlock
 70
     0
  3

 72
    65
 73
     0
 40
0.0
  0
LTYPE
  5
15
330
5
100
AcDbSymbolTableRecord
100
AcDbLinetypeTableRecord
  2
ByLayer
 70
     0
  3

 72
    65
 73
     0
 40
0.0
  0
LTYPE
  5
16
330
5
100
AcDbSymbolTableRecord
100
AcDbLinetypeTableRecord
  2
Continuous
 70
     0
  3
Solid line
 72
    65
 73
     0
 40
0.0
  0
LTYPE
  5
D7
330
5
100
AcDbSymbolTableRecord
100
AcDbLinetypeTableRecord
  2
HIDDEN
 70
     0
  3
Hidden __ __ __ __ __ __ __ __ __ __ __ __ __ _
 72
    65
 73
     2
 40
9.524999999999996
 49
6.349999999999997
 74
     0
 49
-3.174999999999998
 74
     0
  0
LTYPE
  5
D9
330
5
100
AcDbSymbolTableRecord
100
AcDbLinetypeTableRecord
  2
CENTER
 70
     0
  3
Center ____ _ ____ _ ____ _ ____ _ ____ _ ____
 72
    65
 73
     4
 40
50.8
 49
31.75
 74
     0
 49
-6.349999999999997
 74
     0
 49
6.349999999999997
 74
     0
 49
-6.349999999999997
 74
     0
  0
LTYPE
  5
35815
330
5
100
AcDbSymbolTableRecord
100
AcDbLinetypeTableRecord
  2
PHANTOM
 70
     0
  3
_____ _ _ _____ _ _ _____ _ _ _____
 72
    65
 73
     6
 40
0.8
 49
0.45
 74
     0
 49
-0.05
 74
     0
 49
0.1
 74
     0
 49
-0.05
 74
     0
 49
0.1
 74
     0
 49
-0.05
 74
     0
  0
ENDTAB
  0
TABLE
  2
LAYER
  5
2
102
{ACAD_XDICTIONARY
360
E2
102
}
330
0
100
AcDbSymbolTable
 70
    23
  0
LAYER
  5
10
330
2
100
AcDbSymbolTableRecord
100
AcDbLayerTableRecord
  2
0
 70
     0
 62
     7
  6
Continuous
370
    -3
390
F
  0
LAYER
  5
D1
330
2
100
AcDbSymbolTableRecord
100
AcDbLayerTableRecord
  2
1
 70
     0
 62
     4
  6
Continuous
370
    50
390
F
1001
AcAecLayerStandard
1000

1000

  0
LAYER
  5
D3
330
2
100
AcDbSymbolTableRecord
100
AcDbLayerTableRecord
  2
2
 70
     0
 62
     7
  6
Continuous
370
    25
390
F
1001
AcAecLayerStandard
1000

1000

  0
LAYER
  5
D4
330
2
100
AcDbSymbolTableRecord
100
AcDbLayerTableRecord
  2
3
 70
     0
 62
     1
  6
HIDDEN
370
    35
390
F
1001
AcAecLayerStandard
1000

1000

  0
LAYER
  5
D8
330
2
100
AcDbSymbolTableRecord
100
AcDbLayerTableRecord
  2
4
 70
     0
 62
     2
  6
CENTER
370
    25
390
F
1001
AcAecLayerStandard
1000

1000

  0
LAYER
  5
DA
330
2
100
AcDbSymbolTableRecord
100
AcDbLayerTableRecord
  2
6
 70
     0
 62
     5
  6
Continuous
370
    35
390
F
1001
AcAecLayerStandard
1000

1000

  0
LAYER
  5
DB
330
2
100
AcDbSymbolTableRecord
100
AcDbLayerTableRecord
  2
cut
 70
     0
 62
     1
  6
Continuous
370
    25
390
F
1001
AcAecLayerStandard
1000

1000

  0
LAYER
  5
DC
330
2
100
AcDbSymbolTableRecord
100
AcDbLayerTableRecord
  2
nocut
 70
     0
 62
     7
  6
Continuous
370
    25
390
F
1001
AcAecLayerStandard
1000

1000

  0
LAYER
  5
DD
330
2
100
AcDbSymbolTableRecord
100
AcDbLayerTableRecord
  2
sk1
 70
     0
 62
     4
  6
Continuous
370
    50
390
F
1001
AcAecLayerStandard
1000

1000

  0
LAYER
  5
DE
330
2
100
AcDbSymbolTableRecord
100
AcDbLayerTableRecord
  2
sk2
 70
     0
 62
     7
  6
Continuous
370
    25
390
F
1001
AcAecLayerStandard
1000

1000

  0
LAYER
  5
DF
330
2
100
AcDbSymbolTableRecord
100
AcDbLayerTableRecord
  2
sk3
 70
     0
 62
     1
  6
HIDDEN
370
    35
390
F
1001
AcAecLayerStandard
1000

1000

  0
LAYER
  5
E0
330
2
100
AcDbSymbolTableRecord
100
AcDbLayerTableRecord
  2
sk4
 70
     0
 62
     2
  6
CENTER
370
    25
390
F
1001
AcAecLayerStandard
1000

1000

  0
LAYER
  5
E1
330
2
100
AcDbSymbolTableRecord
100
AcDbLayerTableRecord
  2
sk6
 70
     0
 62
     5
  6
Continuous
370
    35
390
F
1001
AcAecLayerStandard
1000

1000

  0
LAYER
  5
31B6
330
2
100
AcDbSymbolTableRecord
100
AcDbLayerTableRecord
  2
Defpoints
 70
     0
 62
     7
  6
Continuous
290
     0
370
    -3
390
F
  0
ENDTAB
  0
TABLE
  2
STYLE
  5
3
330
0
100
AcDbSymbolTable
 70
    11
  0
STYLE
  5
11
330
3
100
AcDbSymbolTableRecord
100
AcDbTextStyleTableRecord
  2
Standard
 70
     0
 40
0.0
 41
1.0
 50
0.0
 71
     0
 42
2.5
  3
txt.shx
  4
@extfont2.shx
  0
STYLE
  5
D6
330
3
100
AcDbSymbolTableRecord
100
AcDbTextStyleTableRecord
  2

 70
     1
 40
0.0
 41
1.0
 50
0.0
 71
     0
 42
2.5
  3
ltypeshp.shx
  4

  0
STYLE
  5
24A
330
3
100
AcDbSymbolTableRecord
100
AcDbTextStyleTableRecord
  2
simplex
 70
     0
 40
3.5
 41
1.0
 50
0.0
 71
     0
 42
3.5
  3
txt.shx
  4

  0
STYLE
  5
69E
330
3
100
AcDbSymbolTableRecord
100
AcDbTextStyleTableRecord
  2
MX_NOTE_STANDARD
 70
     0
 40
0.0
 41
1.0
 50
0.0
 71
     0
 42
4.2
  3
txt.shx
  4
extfont.shx
  0
STYLE
  5
3524
330
3
100
AcDbSymbolTableRecord
100
AcDbTextStyleTableRecord
  2
TEXTSTYLE_2
 70
     0
 40
0.0
 41
0.775
 50
0.0
 71
     0
 42
0.2
  3
gdt
  4

  0
STYLE
  5
3525
330
3
100
AcDbSymbolTableRecord
100
AcDbTextStyleTableRecord
  2
TEXTSTYLE_3
 70
     0
 40
0.0
 41
0.75
 50
0.0
 71
     0
 42
0.2
  3
txt
  4

  0
STYLE
  5
3526
330
3
100
AcDbSymbolTableRecord
100
AcDbTextStyleTableRecord
  2
TEXTSTYLE_13
 70
     0
 40
0.0
 41
1.0
 50
0.0
 71
     0
 42
0.2
  3
txt
  4

  0
STYLE
  5
519A
330
3
100
AcDbSymbolTableRecord
100
AcDbTextStyleTableRecord
  2
TEXTSTYLE_14
 70
     0
 40
0.0
 41
1.0
 50
0.0
 71
     0
 42
0.2
  3
txt
  4

  0
STYLE
  5
6F72
330
3
100
AcDbSymbolTableRecord
100
AcDbTextStyleTableRecord
  2
TEXTSTYLE_4
 70
     0
 40
0.0
 41
0.75
 50
0.0
 71
     0
 42
0.2
  3
txt
  4

  0
STYLE
  5
6F73
330
3
100
AcDbSymbolTableRecord
100
AcDbTextStyleTableRecord
  2
TEXTSTYLE_17
 70
     0
 40
0.0
 41
1.0
 50
0.0
 71
     0
 42
0.2
  3
txt
  4

  0
STYLE
  5
FE12
330
3
100
AcDbSymbolTableRecord
100
AcDbTextStyleTableRecord
  2
TEXTSTYLE_12
 70
     0
 40
0.0
 41
1.0
 50
0.0
 71
     0
 42
0.2
  3
txt
  4

  0
ENDTAB
  0
TABLE
  2
VIEW
  5
6
330
0
100
AcDbSymbolTable
 70
     0
  0
ENDTAB
  0
TABLE
  2
UCS
  5
7
330
0
100
AcDbSymbolTable
 70
     0
  0
ENDTAB
  0
TABLE
  2
APPID
  5
9
330
0
100
AcDbSymbolTable
 70
    11
  0
APPID
  5
12
330
9
100
AcDbSymbolTableRecord
100
AcDbRegAppTableRecord
  2
ACAD
 70
     0
  0
APPID
  5
D2
330
9
100
AcDbSymbolTableRecord
100
AcDbRegAppTableRecord
  2
AcAecLayerStandard
 70
     0
  0
APPID
  5
E6
330
9
100
AcDbSymbolTableRecord
100
AcDbRegAppTableRecord
  2
ACAD_DSTYLE_DIMTEXT_FILL
 70
     0
  0
APPID
  5
4C84
330
9
100
AcDbSymbolTableRecord
100
AcDbRegAppTableRecord
  2
ACAD_EXEMPT_FROM_CAD_STANDARDS
 70
     0
  0
APPID
  5
3493E
330
9
100
AcDbSymbolTableRecord
100
AcDbRegAppTableRecord
  2
DCO15
 70
     0
  0
APPID
  5
4366A
330
9
100
AcDbSymbolTableRecord
100
AcDbRegAppTableRecord
  2
ACAUTHENVIRON
 70
     0
  0
APPID
  5
4366D
330
9
100
AcDbSymbolTableRecord
100
AcDbRegAppTableRecord
  2
AcDbDynamicBlockTrueName
 70
     0
  0
APPID
  5
4366E
330
9
100
AcDbSymbolTableRecord
100
AcDbRegAppTableRecord
  2
AcDbDynamicBlockGUID
 70
     0
  0
APPID
  5
43670
330
9
100
AcDbSymbolTableRecord
100
AcDbRegAppTableRecord
  2
AcDbBlockRepETag
 70
     0
  0
APPID
  5
45C9F
330
9
100
AcDbSymbolTableRecord
100
AcDbRegAppTableRecord
  2
ACAD_DSTYLE_DIMEXT_ENABLED
 70
     0
  0
APPID
  5
45CA0
330
9
100
AcDbSymbolTableRecord
100
AcDbRegAppTableRecord
  2
ACAD_DSTYLE_DIMEXT_LENGTH
 70
     0
  0
ENDTAB
  0
TABLE
  2
DIMSTYLE
  5
A
330
0
100
AcDbSymbolTable
 70
    10
100
AcDbDimStyleTable
 71
     2
340
1BF
340
27
  0
DIMSTYLE
105
27
330
A
100
AcDbSymbolTableRecord
100
AcDbDimStyleTableRecord
  2
ISO-25
 70
     0
 41
2.5
 42
0.625
 43
3.75
 44
1.25
 73
     0
 74
     0
 77
     1
 78
     8
140
2.5
141
2.5
143
0.03937007874016
147
0.625
171
     3
172
     1
271
     2
272
     2
274
     3
278
    44
283
     0
284
     8
340
11
  0
DIMSTYLE
105
1BF
102
{ACAD_REACTORS
330
5F728
330
5F70E
330
5F6F4
330
5F742
330
5F67A
330
5F662
330
5F6AA
330
5F692
330
5F6C2
330
5F6DA
102
}
330
A
100
AcDbSymbolTableRecord
100
AcDbDimStyleTableRecord
  2
\M+18352\M+18373\M+1815B - ISO-25
 70
     0
 40
0.0
 41
3.5
 42
0.0
 44
1.5
 73
     0
 74
     0
 77
     1
 78
     8
140
3.5
147
2.299999999999998
176
   256
177
   256
178
   256
271
     2
272
     2
284
     8
340
24A
371
    -1
372
    -1
  0
DIMSTYLE
105
69F
330
A
100
AcDbSymbolTableRecord
100
AcDbDimStyleTableRecord
  2
MXDIMSTYLE
 70
     0
 41
2.5
 42
0.5
 43
3.75
 44
1.5
 73
     0
 74
     0
 77
     1
 78
     8
140
4.2
141
2.5
143
0.03937
147
1.0
171
     4
172
     1
173
     1
271
     2
272
     2
274
     4
283
     0
288
     1
340
69E
341
697
343
697
344
697
  0
DIMSTYLE
105
3527
330
A
100
AcDbSymbolTableRecord
100
AcDbDimStyleTableRecord
  2
STANDARD
 70
     0
 41
3.0
 47
0.001
 48
0.001
 71
     1
 73
     0
 74
     0
 77
     1
 78
     8
140
4.0
271
     3
272
     3
284
     8
340
11
341
34B1
342
34B1
343
34B1
344
34B1
  0
DIMSTYLE
105
3528
330
A
100
AcDbSymbolTableRecord
100
AcDbDimStyleTableRecord
  2
DIMSTYLE_1
 70
     0
 41
3.0
 73
     0
 74
     0
 77
     1
 78
     8
140
4.0
271
     3
272
     3
284
     8
340
11
341
34B1
342
34B1
343
34B1
344
34B1
  0
DIMSTYLE
105
3529
330
A
100
AcDbSymbolTableRecord
100
AcDbDimStyleTableRecord
  2
DIMSTYLE_2
 70
     0
 41
3.0
 47
0.001
 48
0.001
 73
     0
 74
     0
 77
     1
 78
     8
140
4.0
271
     3
272
     3
284
     8
340
11
341
34B1
342
34B1
343
34B1
344
34B1
  0
DIMSTYLE
105
352A
330
A
100
AcDbSymbolTableRecord
100
AcDbDimStyleTableRecord
  2
DIMSTYLE_3
 70
     0
 41
3.0
 47
-0.1
 48
0.3
 71
     1
 73
     0
 74
     0
 77
     1
 78
     8
140
4.0
146
0.5
271
     3
272
     3
284
     8
340
11
341
34B1
342
34B1
343
34B1
344
34B1
  0
DIMSTYLE
105
352B
330
A
100
AcDbSymbolTableRecord
100
AcDbDimStyleTableRecord
  2
DIMSTYLE_4
 70
     0
 41
3.0
 47
0.1
 48
0.1
 71
     1
 73
     0
 74
     0
 77
     1
 78
     8
140
4.0
271
     3
272
     3
284
     8
340
11
341
34B1
342
34B1
343
34B1
344
34B1
  0
DIMSTYLE
105
27245
330
A
100
AcDbSymbolTableRecord
100
AcDbDimStyleTableRecord
  2
DIMSTYLE_5
 70
     0
 41
3.0
 47
0.001
 48
0.001
 73
     0
 74
     0
 77
     1
 78
     8
140
4.0
271
     3
272
     3
284
     8
340
11
341
34B1
342
34B1
343
34B1
344
34B1
  0
DIMSTYLE
105
4771C
330
A
100
AcDbSymbolTableRecord
100
AcDbDimStyleTableRecord
  2
\M+18352\M+18373\M+1815B_-_ISO-25
 70
     0
 40
0.0
 41
3.5
 42
0.0
 44
1.5
 73
     0
 74
     0
 77
     1
 78
     8
140
3.5
147
2.299999999999998
176
   256
177
   256
178
   256
279
     2
284
     8
285
     8
286
     8
340
24A
  0
ENDTAB
  0
TABLE
  2
BLOCK_RECORD
  5
1
330
0
100
AcDbSymbolTable
 70
    69
  0
BLOCK_RECORD
  5
1F
102
{ACAD_XDICTIONARY
360
31EE
102
}
330
1
100
AcDbSymbolTableRecord
100
AcDbBlockTableRecord
  2
*Model_Space
340
22
  0
BLOCK_RECORD
  5
50
330
1
100
AcDbSymbolTableRecord
100
AcDbBlockTableRecord
  2
*Paper_Space
340
51
  0
BLOCK_RECORD
  5
55
330
1
100
AcDbSymbolTableRecord
100
AcDbBlockTableRecord
  2
*Paper_Space0
340
56
  0
BLOCK_RECORD
  5
680
102
{ACAD_XDICTIONARY
360
43668
102
}
330
1
100
AcDbSymbolTableRecord
100
AcDbBlockTableRecord
  2
zero block
340
0
102
{BLKREFS
331
68C
102
}
1001
ACAD
1000
DesignCenter Data
1002
{
1070
     1
1070
     4
1002
}
1001
AcDbDynamicBlockGUID
1000
{A89DF4EB-B2CB-439E-AC69-1EAC9F242D1C}
1001
AcDbBlockRepETag
1070
     1
1071
        7
  0
BLOCK_RECORD
  5
697
330
1
100
AcDbSymbolTableRecord
100
AcDbBlockTableRecord
  2
_OPEN30
340
0
  0
BLOCK_RECORD
  5
32F1
330
1
100
AcDbSymbolTableRecord
100
AcDbBlockTableRecord
  2
_None
340
0
102
{BLKREFS
331
5CE0B
331
5F1BF
102
}
  0
BLOCK_RECORD
  5
34B1
330
1
100
AcDbSymbolTableRecord
100
AcDbBlockTableRecord
  2
_OPEN
340
0
102
{BLKREFS
331
5CDDE
331
5CDDF
331
5CDE8
331
5CDE9
331
5CDF2
331
5CDF3
331
5CDFC
331
5CDFD
331
5CE03
331
5CE0C
331
5EDB1
331
5EDB8
331
5EDC0
331
5EDC1
331
5EDC9
331
5EDCA
331
5EDD2
331
5EDD3
331
5EDDB
331
5EDDC
331
5F1B0
331
5F1B1
331
5F1B7
331
5F1C0
331
5F192
331
5F193
331
5F19C
331
5F19D
331
5F1A6
331
5F1A7
331
5F61C
331
5F61D
331
5F625
331
5F626
331
5F62E
331
5F62F
331
5F637
331
5F638
331
5F64F
331
5F657
102
}
  0
BLOCK_RECORD
  5
45AE6
330
1
100
AcDbSymbolTableRecord
100
AcDbBlockTableRecord
  2
*D6
340
0
  0
BLOCK_RECORD
  5
45B07
330
1
100
AcDbSymbolTableRecord
100
AcDbBlockTableRecord
  2
*D7
340
0
  0
BLOCK_RECORD
  5
45B1F
330
1
100
AcDbSymbolTableRecord
100
AcDbBlockTableRecord
  2
*D8
340
0
  0
BLOCK_RECORD
  5
5F663
330
1
100
AcDbSymbolTableRecord
100
AcDbBlockTableRecord
  2
*D59
340
0
  0
BLOCK_RECORD
  5
5F67B
330
1
100
AcDbSymbolTableRecord
100
AcDbBlockTableRecord
  2
*D60
340
0
  0
BLOCK_RECORD
  5
5F693
330
1
100
AcDbSymbolTableRecord
100
AcDbBlockTableRecord
  2
*D61
340
0
  0
BLOCK_RECORD
  5
5F6AB
330
1
100
AcDbSymbolTableRecord
100
AcDbBlockTableRecord
  2
*D62
340
0
  0
BLOCK_RECORD
  5
5F6C3
330
1
100
AcDbSymbolTableRecord
100
AcDbBlockTableRecord
  2
*D63
340
0
  0
BLOCK_RECORD
  5
5F6DB
330
1
100
AcDbSymbolTableRecord
100
AcDbBlockTableRecord
  2
*D64
340
0
  0
BLOCK_RECORD
  5
5F6F5
330
1
100
AcDbSymbolTableRecord
100
AcDbBlockTableRecord
  2
*D65
340
0
  0
BLOCK_RECORD
  5
5F70F
330
1
100
AcDbSymbolTableRecord
100
AcDbBlockTableRecord
  2
*D66
340
0
  0
BLOCK_RECORD
  5
5F729
330
1
100
AcDbSymbolTableRecord
100
AcDbBlockTableRecord
  2
*D67
340
0
  0
BLOCK_RECORD
  5
5F743
330
1
100
AcDbSymbolTableRecord
100
AcDbBlockTableRecord
  2
*D68
340
0
  0
ENDTAB
  0
ENDSEC
  0
SECTION
  2
BLOCKS
  0
BLOCK
  5
20
330
1F
100
AcDbEntity
  8
0
100
AcDbBlockBegin
  2
*Model_Space
 70
     0
 10
0.0
 20
0.0
 30
0.0
  3
*Model_Space
  1

  0
ENDBLK
  5
21
330
1F
100
AcDbEntity
  8
0
100
AcDbBlockEnd
  0
BLOCK
  5
52
330
50
100
AcDbEntity
 67
     1
  8
0
100
AcDbBlockBegin
  2
*Paper_Space
 70
     0
 10
0.0
 20
0.0
 30
0.0
  3
*Paper_Space
  1

  0
ENDBLK
  5
53
330
50
100
AcDbEntity
 67
     1
  8
0
100
AcDbBlockEnd
  0
BLOCK
  5
57
330
55
100
AcDbEntity
 67
     1
  8
0
100
AcDbBlockBegin
  2
*Paper_Space0
 70
     0
 10
0.0
 20
0.0
 30
0.0
  3
*Paper_Space0
  1

  0
VIEWPORT
  5
71
102
{ACAD_XDICTIONARY
360
5F995
102
}
330
55
100
AcDbEntity
 67
     1
  8
0
100
AcDbViewport
 10
150.1652135264906
 20
101.599997546291
 30
0.0
 40
339.1973820494347
 41
164.5360435314421
 68
     0
 69
     0
 12
150.1652135264906
 22
101.599997546291
 13
0.0
 23
0.0
 14
10.0
 24
10.0
 15
10.0
 25
10.0
 16
0.0
 26
0.0
 36
1.0
 17
0.0
 27
0.0
 37
0.0
 42
50.0
 43
0.0
 44
0.0
 45
164.5360435314421
 50
0.0
 51
0.0
 72
  1000
 90
    32864
  1

281
     0
 71
     1
 74
     0
110
0.0
120
0.0
130
0.0
111
1.0
121
0.0
131
0.0
112
0.0
122
1.0
132
0.0
 79
     0
146
0.0
  0
VIEWPORT
  5
73
102
{ACAD_XDICTIONARY
360
5F997
102
}
330
55
100
AcDbEntity
 67
     1
  8
0
100
AcDbViewport
 10
133.3499939441681
 20
101.5999939441681
 30
0.0
 40
213.3599903106689
 41
162.5599903106689
 68
     0
 69
     0
 12
210.0
 22
148.5
 13
0.0
 23
0.0
 14
10.0
 24
10.0
 15
10.0
 25
10.0
 16
0.0
 26
0.0
 36
1.0
 17
0.0
 27
0.0
 37
0.0
 42
50.0
 43
0.0
 44
0.0
 45
324.0677920111345
 50
0.0
 51
0.0
 72
   100
 90
    32864
  1

281
     0
 71
     1
 74
     0
110
0.0
120
0.0
130
0.0
111
1.0
121
0.0
131
0.0
112
0.0
122
1.0
132
0.0
 79
     0
146
0.0
  0
ENDBLK
  5
58
330
55
100
AcDbEntity
 67
     1
  8
0
100
AcDbBlockEnd
  0
BLOCK
  5
68A
330
680
100
AcDbEntity
  8
0
100
AcDbBlockBegin
  2
zero block
 70
     0
 10
0.0
 20
0.0
 30
0.0
  3
zero block
  1

  0
HATCH
  5
43661
330
680
100
AcDbEntity
  8
0
 62
     7
100
AcDbHatch
 10
0.0
 20
0.0
 30
0.0
210
0.0
220
0.0
230
1.0
  2
SOLID
 70
     1
 71
     0
 91
        2
 92
        7
 72
     1
 73
     1
 93
        3
 10
0.0
 20
0.9999999999999875
 42
0.4142135623730915
 10
-1.0
 20
0.0
 42
0.0
 10
0.0
 20
0.0
 42
0.0
 97
        0
 92
        7
 72
     1
 73
     1
 93
        3
 10
1.000000000000007
 20
0.0
 42
0.0
 10
0.0
 20
0.0
 42
0.0
 10
0.0
 20
-1.0
 42
0.4142135623730974
 97
        0
 75
     0
 76
     1
 47
0.0090601366782909
 98
        2
 10
-0.380591363650975
 20
0.4885804701532896
 10
0.4350764810977559
 20
-0.4536738423704725
1001
AcDbBlockRepETag
1070
     1
1071
        0
1005
43661
  0
LINE
  5
43662
330
680
100
AcDbEntity
  8
0
 62
     7
 48
0.2
100
AcDbLine
 10
-1.0
 20
0.0
 30
0.0
 11
1.000000000000007
 21
0.0
 31
0.0
1001
AcDbBlockRepETag
1070
     1
1071
        1
1005
43662
  0
LINE
  5
43663
330
680
100
AcDbEntity
  8
0
 62
     7
 48
0.2
100
AcDbLine
 10
0.0
 20
-1.0
 30
0.0
 11
0.0
 21
0.9999999999999875
 31
0.0
1001
AcDbBlockRepETag
1070
     1
1071
        2
1005
43663
  0
ARC
  5
43664
330
680
100
AcDbEntity
  8
0
 62
     7
 48
0.2
100
AcDbCircle
 10
0.0
 20
0.0
 30
0.0
 40
1.0
100
AcDbArc
 50
270.0
 51
0.0
1001
AcDbBlockRepETag
1070
     1
1071
        3
1005
43664
  0
ARC
  5
43665
330
680
100
AcDbEntity
  8
0
 62
     7
 48
0.2
100
AcDbCircle
 10
0.0
 20
0.0
 30
0.0
 40
1.0
100
AcDbArc
 50
0.0
 51
90.0
1001
AcDbBlockRepETag
1070
     1
1071
        4
1005
43665
  0
ARC
  5
43666
330
680
100
AcDbEntity
  8
0
 62
     7
 48
0.2
100
AcDbCircle
 10
0.0
 20
0.0
 30
0.0
 40
1.0
100
AcDbArc
 50
180.0
 51
270.0
1001
AcDbBlockRepETag
1070
     1
1071
        5
1005
43666
  0
ARC
  5
43667
330
680
100
AcDbEntity
  8
0
 62
     7
 48
0.2
100
AcDbCircle
 10
0.0
 20
0.0
 30
0.0
 40
1.0
100
AcDbArc
 50
90.0
 51
180.0
1001
AcDbBlockRepETag
1070
     1
1071
        6
1005
43667
  0
ENDBLK
  5
68B
330
680
100
AcDbEntity
  8
0
100
AcDbBlockEnd
  0
BLOCK
  5
698
330
697
100
AcDbEntity
  8
0
  6
ByBlock
 62
     0
370
    -2
100
AcDbBlockBegin
  2
_OPEN30
 70
     2
 10
0.0
 20
0.0
 30
0.0
  3
_OPEN30
  1

  0
LINE
  5
699
330
697
100
AcDbEntity
  8
0
  6
ByBlock
 62
     0
370
    -2
100
AcDbLine
 10
-1.0
 20
0.267949
 30
0.0
 11
0.0
 21
0.0
 31
0.0
  0
LINE
  5
69A
330
697
100
AcDbEntity
  8
0
  6
ByBlock
 62
     0
370
    -2
100
AcDbLine
 10
0.0
 20
0.0
 30
0.0
 11
-1.0
 21
-0.267949
 31
0.0
  0
LINE
  5
69B
330
697
100
AcDbEntity
  8
0
  6
ByBlock
 62
     0
370
    -2
100
AcDbLine
 10
0.0
 20
0.0
 30
0.0
 11
-1.0
 21
0.0
 31
0.0
  0
ENDBLK
  5
69C
330
697
100
AcDbEntity
  8
0
  6
ByBlock
 62
     0
370
    -2
100
AcDbBlockEnd
  0
BLOCK
  5
32F2
330
32F1
100
AcDbEntity
  8
0
100
AcDbBlockBegin
  2
_None
 70
     0
 10
0.0
 20
0.0
 30
0.0
  3
_None
  1

  0
ENDBLK
  5
32F3
330
32F1
100
AcDbEntity
  8
0
100
AcDbBlockEnd
  0
BLOCK
  5
34B2
330
34B1
100
AcDbEntity
  8
0
100
AcDbBlockBegin
  2
_OPEN
 70
     0
 10
0.0
 20
0.0
 30
0.0
  3
_OPEN
  1

  0
LINE
  5
34B3
330
34B1
100
AcDbEntity
  8
0
  6
ByBlock
 62
     0
100
AcDbLine
 10
0.0
 20
0.0
 30
0.0
 11
-1.0
 21
0.1766666667
 31
0.0
  0
LINE
  5
34B4
330
34B1
100
AcDbEntity
  8
0
  6
ByBlock
 62
     0
100
AcDbLine
 10
-1.0
 20
-0.1766666667
 30
0.0
 11
0.0
 21
0.0
 31
0.0
  0
LINE
  5
34B5
330
34B1
100
AcDbEntity
  8
0
  6
ByBlock
 62
     0
100
AcDbLine
 10
-1.0
 20
0.0
 30
0.0
 11
0.0
 21
0.0
 31
0.0
  0
ENDBLK
  5
34B6
330
34B1
100
AcDbEntity
  8
0
  6
ByBlock
 62
     0
100
AcDbBlockEnd
  0
BLOCK
  5
45AF0
330
45AE6
100
AcDbEntity
  8
0
100
AcDbBlockBegin
  2
*D6
 70
     1
 10
0.0
 20
0.0
 30
0.0
  3
*D6
  1

  0
LINE
  5
47590
330
45AE6
100
AcDbEntity
  8
sk2
100
AcDbLine
 10
3.999999999999948
 20
-11.11249999999996
 30
0.0
 11
-16.93245261605147
 21
-11.11249999999995
 31
0.0
  0
LINE
  5
47591
330
45AE6
100
AcDbEntity
  8
sk2
100
AcDbLine
 10
3.999999999999948
 20
11.11249999999997
 30
0.0
 11
-16.93245261605146
 21
11.11249999999997
 31
0.0
  0
LINE
  5
47592
330
45AE6
100
AcDbEntity
  8
sk2
100
AcDbLine
 10
-15.43245261605147
 20
-7.612499999999952
 30
0.0
 11
-15.43245261605147
 21
7.612499999999974
 31
0.0
  0
SOLID
  5
47593
330
45AE6
100
AcDbEntity
  8
sk2
100
AcDbTrace
 10
-16.0157859493848
 20
-7.612499999999952
 30
0.0
 11
-14.84911928271814
 21
-7.612499999999952
 31
0.0
 12
-15.43245261605147
 22
-11.11249999999995
 32
0.0
 13
-15.43245261605147
 23
-11.11249999999995
 33
0.0
  0
SOLID
  5
47594
330
45AE6
100
AcDbEntity
  8
sk2
100
AcDbTrace
 10
-16.0157859493848
 20
7.612499999999974
 30
0.0
 11
-14.84911928271813
 21
7.612499999999974
 31
0.0
 12
-15.43245261605147
 22
11.11249999999997
 32
0.0
 13
-15.43245261605147
 23
11.11249999999997
 33
0.0
  0
MTEXT
  5
47595
330
45AE6
100
AcDbEntity
  8
sk2
100
AcDbMText
 10
-19.48245261605147
 20
0.0000000000000094
 30
0.0
 40
3.5
 41
0.0
 71
     5
 72
     1
  1
\A1;%%C22.225
  7
simplex
 11
0.0000000000000001
 21
1.0
 31
0.0
 73
     1
 44
1.0
1001
ACAD
1000
MTEXTBEGIN
1070
    73
1070
     1
1070
    44
1040
1.0
1070
    74
1070
     0
1000
MTEXTEND
  0
POINT
  5
47596
330
45AE6
100
AcDbEntity
  8
Defpoints
 62
     0
100
AcDbPoint
 10
3.999999999999948
 20
-11.11249999999996
 30
0.0
  0
POINT
  5
47597
330
45AE6
100
AcDbEntity
  8
Defpoints
 62
     0
100
AcDbPoint
 10
3.999999999999948
 20
11.11249999999997
 30
0.0
  0
POINT
  5
47598
330
45AE6
100
AcDbEntity
  8
Defpoints
 62
     0
100
AcDbPoint
 10
-15.43245261605147
 20
11.11249999999997
 30
0.0
  0
ENDBLK
  5
45AF1
330
45AE6
100
AcDbEntity
  8
0
100
AcDbBlockEnd
  0
BLOCK
  5
45B11
330
45B07
100
AcDbEntity
  8
0
100
AcDbBlockBegin
  2
*D7
 70
     1
 10
0.0
 20
0.0
 30
0.0
  3
*D7
  1

  0
LINE
  5
5CCE5
330
45B07
100
AcDbEntity
  8
sk2
100
AcDbLine
 10
-0.0000000000000526
 20
-28.49999999999995
 30
0.0
 11
-0.0000000000000538
 21
-48.51991747839992
 31
0.0
  0
LINE
  5
5CCE6
330
45B07
100
AcDbEntity
  8
sk2
100
AcDbLine
 10
30.99999999999995
 20
-8.099999999999972
 30
0.0
 11
30.99999999999994
 21
-48.51991747839992
 31
0.0
  0
LINE
  5
5CCE7
330
45B07
100
AcDbEntity
  8
sk2
100
AcDbLine
 10
3.499999999999946
 20
-47.01991747839993
 30
0.0
 11
27.49999999999995
 21
-47.01991747839993
 31
0.0
  0
SOLID
  5
5CCE8
330
45B07
100
AcDbEntity
  8
sk2
100
AcDbTrace
 10
3.499999999999946
 20
-46.43658414506659
 30
0.0
 11
3.499999999999946
 21
-47.60325081173324
 31
0.0
 12
-0.0000000000000537
 22
-47.01991747839993
 32
0.0
 13
-0.0000000000000537
 23
-47.01991747839993
 33
0.0
  0
SOLID
  5
5CCE9
330
45B07
100
AcDbEntity
  8
sk2
100
AcDbTrace
 10
27.49999999999995
 20
-46.43658414506659
 30
0.0
 11
27.49999999999995
 21
-47.60325081173324
 31
0.0
 12
30.99999999999994
 22
-47.01991747839993
 32
0.0
 13
30.99999999999994
 23
-47.01991747839993
 33
0.0
  0
MTEXT
  5
5CCEA
330
45B07
100
AcDbEntity
  8
sk2
100
AcDbMText
 10
15.49999999999994
 20
-42.96991747839992
 30
0.0
 40
3.5
 41
0.0
 71
     5
 72
     1
  1
\A1;31
  7
simplex
 73
     1
 44
1.0
1001
ACAD
1000
MTEXTBEGIN
1070
    73
1070
     1
1070
    44
1040
1.0
1070
    74
1070
     0
1000
MTEXTEND
  0
POINT
  5
5CCEB
330
45B07
100
AcDbEntity
  8
Defpoints
 62
     0
100
AcDbPoint
 10
-0.0000000000000526
 20
-28.49999999999995
 30
0.0
  0
POINT
  5
5CCEC
330
45B07
100
AcDbEntity
  8
Defpoints
 62
     0
100
AcDbPoint
 10
30.99999999999995
 20
-8.099999999999972
 30
0.0
  0
POINT
  5
5CCED
330
45B07
100
AcDbEntity
  8
Defpoints
 62
     0
100
AcDbPoint
 10
30.99999999999994
 20
-47.01991747839993
 30
0.0
  0
ENDBLK
  5
45B12
330
45B07
100
AcDbEntity
  8
0
100
AcDbBlockEnd
  0
BLOCK
  5
45B29
330
45B1F
100
AcDbEntity
  8
0
100
AcDbBlockBegin
  2
*D8
 70
     1
 10
0.0
 20
0.0
 30
0.0
  3
*D8
  1

  0
LINE
  5
475A2
330
45B1F
100
AcDbEntity
  8
2
100
AcDbLine
 10
46.67862375679994
 20
31.50000000000006
 30
0.0
 11
83.68825656423609
 21
31.50000000000004
 31
0.0
  0
LINE
  5
475A3
330
45B1F
100
AcDbEntity
  8
2
100
AcDbLine
 10
82.18825656423609
 20
-31.49999999999995
 30
0.0
 11
82.18825656423609
 21
28.00000000000004
 31
0.0
  0
SOLID
  5
475A4
330
45B1F
100
AcDbEntity
  8
2
100
AcDbTrace
 10
81.60492323090277
 20
28.00000000000004
 30
0.0
 11
82.77158989756944
 21
28.00000000000004
 31
0.0
 12
82.18825656423609
 22
31.50000000000004
 32
0.0
 13
82.18825656423609
 23
31.50000000000004
 33
0.0
  0
MTEXT
  5
475A5
330
45B1F
100
AcDbEntity
  8
2
100
AcDbMText
 10
78.1382565642361
 20
-1.749999999999953
 30
0.0
 40
3.5
 41
0.0
 71
     5
 72
     1
  1
\A1;%%C63
  7
simplex
 11
0.0000000000000001
 21
1.0
 31
0.0
 73
     1
 44
1.0
1001
ACAD
1000
MTEXTBEGIN
1070
    73
1070
     1
1070
    44
1040
1.0
1070
    74
1070
     0
1000
MTEXTEND
  0
POINT
  5
475A6
330
45B1F
100
AcDbEntity
  8
Defpoints
 62
     0
100
AcDbPoint
 10
82.95119073979995
 20
-31.49999999999995
 30
0.0
  0
POINT
  5
475A7
330
45B1F
100
AcDbEntity
  8
Defpoints
 62
     0
100
AcDbPoint
 10
46.67862375679994
 20
31.50000000000006
 30
0.0
  0
POINT
  5
475A8
330
45B1F
100
AcDbEntity
  8
Defpoints
 62
     0
100
AcDbPoint
 10
82.18825656423609
 20
31.50000000000004
 30
0.0
  0
ENDBLK
  5
45B2A
330
45B1F
100
AcDbEntity
  8
0
100
AcDbBlockEnd
  0
BLOCK
  5
5F66D
330
5F663
100
AcDbEntity
  8
0
100
AcDbBlockBegin
  2
*D59
 70
     1
 10
0.0
 20
0.0
 30
0.0
  3
*D59
  1

  0
LINE
  5
5F924
330
5F663
100
AcDbEntity
  8
2
100
AcDbLine
 10
60.11149880249996
 20
50.80000000000001
 30
0.0
 11
100.3987560066817
 21
50.8
 31
0.0
  0
LINE
  5
5F925
330
5F663
100
AcDbEntity
  8
2
100
AcDbLine
 10
98.89875600668174
 20
47.3
 30
0.0
 11
98.89875600668171
 21
-50.80000000000001
 31
0.0
  0
SOLID
  5
5F926
330
5F663
100
AcDbEntity
  8
2
100
AcDbTrace
 10
98.31542267334841
 20
47.3
 30
0.0
 11
99.48208934001506
 21
47.3
 31
0.0
 12
98.89875600668174
 22
50.8
 32
0.0
 13
98.89875600668174
 23
50.8
 33
0.0
  0
MTEXT
  5
5F927
330
5F663
100
AcDbEntity
  8
2
100
AcDbMText
 10
94.84875600668173
 20
-1.749999999999991
 30
0.0
 40
3.5
 41
0.0
 71
     5
 72
     1
  1
\A1;%%C101.6 [%%C4.000"]
  7
simplex
 11
0.0000000000000001
 21
1.0
 31
0.0
 73
     1
 44
1.0
1001
ACAD
1000
MTEXTBEGIN
1070
    73
1070
     1
1070
    44
1040
1.0
1070
    74
1070
     0
1000
MTEXTEND
  0
POINT
  5
5F928
330
5F663
100
AcDbEntity
  8
Defpoints
 62
     0
100
AcDbPoint
 10
60.11149880249996
 20
50.80000000000001
 30
0.0
  0
POINT
  5
5F929
330
5F663
100
AcDbEntity
  8
Defpoints
 62
     0
100
AcDbPoint
 10
60.11149880249996
 20
-50.80000000000001
 30
0.0
  0
POINT
  5
5F92A
330
5F663
100
AcDbEntity
  8
Defpoints
 62
     0
100
AcDbPoint
 10
98.89875600668171
 20
-50.80000000000001
 30
0.0
  0
ENDBLK
  5
5F66E
330
5F663
100
AcDbEntity
  8
0
100
AcDbBlockEnd
  0
BLOCK
  5
5F685
330
5F67B
100
AcDbEntity
  8
0
100
AcDbBlockBegin
  2
*D60
 70
     1
 10
0.0
 20
0.0
 30
0.0
  3
*D60
  1

  0
LINE
  5
5F92B
330
5F67B
100
AcDbEntity
  8
2
100
AcDbLine
 10
63.31561308721848
 20
43.05500000000001
 30
0.0
 11
87.97930996829686
 21
43.055
 31
0.0
  0
LINE
  5
5F92C
330
5F67B
100
AcDbEntity
  8
2
100
AcDbLine
 10
86.47930996829686
 20
39.555
 30
0.0
 11
86.47930996829684
 21
-43.05500000000001
 31
0.0
  0
SOLID
  5
5F92D
330
5F67B
100
AcDbEntity
  8
2
100
AcDbTrace
 10
85.89597663496354
 20
39.555
 30
0.0
 11
87.06264330163019
 21
39.555
 31
0.0
 12
86.47930996829686
 22
43.055
 32
0.0
 13
86.47930996829686
 23
43.055
 33
0.0
  0
MTEXT
  5
5F92E
330
5F67B
100
AcDbEntity
  8
2
100
AcDbMText
 10
82.42930996829684
 20
-1.74999999999999
 30
0.0
 40
3.5
 41
0.0
 71
     5
 72
     1
  1
\A1;%%C86.11 [%%C3.390"]
  7
simplex
 11
0.0000000000000001
 21
1.0
 31
0.0
 73
     1
 44
1.0
1001
ACAD
1000
MTEXTBEGIN
1070
    73
1070
     1
1070
    44
1040
1.0
1070
    74
1070
     0
1000
MTEXTEND
  0
POINT
  5
5F92F
330
5F67B
100
AcDbEntity
  8
Defpoints
 62
     0
100
AcDbPoint
 10
63.31561308721848
 20
43.05500000000001
 30
0.0
  0
POINT
  5
5F930
330
5F67B
100
AcDbEntity
  8
Defpoints
 62
     0
100
AcDbPoint
 10
63.31561308721848
 20
-43.05500000000001
 30
0.0
  0
POINT
  5
5F931
330
5F67B
100
AcDbEntity
  8
Defpoints
 62
     0
100
AcDbPoint
 10
86.47930996829684
 20
-43.05500000000001
 30
0.0
  0
ENDBLK
  5
5F686
330
5F67B
100
AcDbEntity
  8
0
100
AcDbBlockEnd
  0
BLOCK
  5
5F69D
330
5F693
100
AcDbEntity
  8
0
100
AcDbBlockBegin
  2
*D61
 70
     1
 10
0.0
 20
0.0
 30
0.0
  3
*D61
  1

  0
LINE
  5
5F932
330
5F693
100
AcDbEntity
  8
sk2
100
AcDbLine
 10
8.0
 20
19.05000000000001
 30
0.0
 11
-21.21151154628131
 21
19.05000000000002
 31
0.0
  0
LINE
  5
5F933
330
5F693
100
AcDbEntity
  8
sk2
100
AcDbLine
 10
7.999999999999999
 20
-19.05000000000001
 30
0.0
 11
-21.21151154628132
 21
-19.05
 31
0.0
  0
LINE
  5
5F934
330
5F693
100
AcDbEntity
  8
sk2
100
AcDbLine
 10
-19.71151154628131
 20
15.55000000000001
 30
0.0
 11
-19.71151154628132
 21
-15.55000000000001
 31
0.0
  0
SOLID
  5
5F935
330
5F693
100
AcDbEntity
  8
sk2
100
AcDbTrace
 10
-20.29484487961465
 20
15.55000000000001
 30
0.0
 11
-19.12817821294798
 21
15.55000000000001
 31
0.0
 12
-19.71151154628131
 22
19.05000000000001
 32
0.0
 13
-19.71151154628131
 23
19.05000000000001
 33
0.0
  0
SOLID
  5
5F936
330
5F693
100
AcDbEntity
  8
sk2
100
AcDbTrace
 10
-20.29484487961465
 20
-15.55
 30
0.0
 11
-19.12817821294799
 21
-15.55000000000001
 31
0.0
 12
-19.71151154628132
 22
-19.05000000000001
 32
0.0
 13
-19.71151154628132
 23
-19.05000000000001
 33
0.0
  0
MTEXT
  5
5F937
330
5F693
100
AcDbEntity
  8
sk2
100
AcDbMText
 10
-23.76151154628131
 20
0.0000000000000017
 30
0.0
 40
3.5
 41
0.0
 71
     5
 72
     1
  1
\A1;%%C38.1 [%%c1.500"]
  7
simplex
 11
0.0000000000000001
 21
1.0
 31
0.0
 73
     1
 44
1.0
1001
ACAD
1000
MTEXTBEGIN
1070
    73
1070
     1
1070
    44
1040
1.0
1070
    74
1070
     0
1000
MTEXTEND
  0
POINT
  5
5F938
330
5F693
100
AcDbEntity
  8
Defpoints
 62
     0
100
AcDbPoint
 10
8.0
 20
19.05000000000001
 30
0.0
  0
POINT
  5
5F939
330
5F693
100
AcDbEntity
  8
Defpoints
 62
     0
100
AcDbPoint
 10
7.999999999999999
 20
-19.05000000000001
 30
0.0
  0
POINT
  5
5F93A
330
5F693
100
AcDbEntity
  8
Defpoints
 62
     0
100
AcDbPoint
 10
-19.71151154628132
 20
-19.05000000000001
 30
0.0
  0
ENDBLK
  5
5F69E
330
5F693
100
AcDbEntity
  8
0
100
AcDbBlockEnd
  0
BLOCK
  5
5F6B5
330
5F6AB
100
AcDbEntity
  8
0
100
AcDbBlockBegin
  2
*D62
 70
     1
 10
0.0
 20
0.0
 30
0.0
  3
*D62
  1

  0
LINE
  5
5F93B
330
5F6AB
100
AcDbEntity
  8
sk2
100
AcDbLine
 10
2.0
 20
48.41899999999998
 30
0.0
 11
-33.81604547944076
 21
48.41899999999998
 31
0.0
  0
LINE
  5
5F93C
330
5F6AB
100
AcDbEntity
  8
sk2
100
AcDbLine
 10
2.0
 20
-48.41899999999998
 30
0.0
 11
-33.81604547944079
 21
-48.41899999999998
 31
0.0
  0
LINE
  5
5F93D
330
5F6AB
100
AcDbEntity
  8
sk2
100
AcDbLine
 10
-32.31604547944077
 20
44.91899999999999
 30
0.0
 11
-32.31604547944078
 21
-44.91899999999997
 31
0.0
  0
SOLID
  5
5F93E
330
5F6AB
100
AcDbEntity
  8
sk2
100
AcDbTrace
 10
-32.8993788127741
 20
44.91899999999999
 30
0.0
 11
-31.73271214610743
 21
44.91899999999999
 31
0.0
 12
-32.31604547944076
 22
48.41899999999998
 32
0.0
 13
-32.31604547944076
 23
48.41899999999998
 33
0.0
  0
SOLID
  5
5F93F
330
5F6AB
100
AcDbEntity
  8
sk2
100
AcDbTrace
 10
-32.89937881277412
 20
-44.91899999999997
 30
0.0
 11
-31.73271214610745
 21
-44.91899999999997
 31
0.0
 12
-32.31604547944079
 22
-48.41899999999998
 32
0.0
 13
-32.31604547944079
 23
-48.41899999999998
 33
0.0
  0
MTEXT
  5
5F940
330
5F6AB
100
AcDbEntity
  8
sk2
100
AcDbMText
 10
-36.36604547944077
 20
0.0000000000000025
 30
0.0
 40
3.5
 41
0.0
 71
     5
 72
     1
  1
\A1;%%C96.838 [%%c3.813"]
  7
simplex
 11
0.0000000000000001
 21
1.0
 31
0.0
 73
     1
 44
1.0
1001
ACAD
1000
MTEXTBEGIN
1070
    73
1070
     1
1070
    44
1040
1.0
1070
    74
1070
     0
1000
MTEXTEND
  0
POINT
  5
5F941
330
5F6AB
100
AcDbEntity
  8
Defpoints
 62
     0
100
AcDbPoint
 10
2.0
 20
48.41899999999998
 30
0.0
  0
POINT
  5
5F942
330
5F6AB
100
AcDbEntity
  8
Defpoints
 62
     0
100
AcDbPoint
 10
2.0
 20
-48.41899999999998
 30
0.0
  0
POINT
  5
5F943
330
5F6AB
100
AcDbEntity
  8
Defpoints
 62
     0
100
AcDbPoint
 10
-32.31604547944079
 20
-48.41899999999998
 30
0.0
  0
ENDBLK
  5
5F6B6
330
5F6AB
100
AcDbEntity
  8
0
100
AcDbBlockEnd
  0
BLOCK
  5
5F6CD
330
5F6C3
100
AcDbEntity
  8
0
100
AcDbBlockBegin
  2
*D63
 70
     1
 10
0.0
 20
0.0
 30
0.0
  3
*D63
  1

  0
LINE
  5
5F944
330
5F6C3
100
AcDbEntity
  8
sk2
100
AcDbLine
 10
0.0
 20
-46.41899999999998
 30
0.0
 11
-0.0000000000000016
 21
-73.31330571068452
 31
0.0
  0
LINE
  5
5F945
330
5F6C3
100
AcDbEntity
  8
sk2
100
AcDbLine
 10
29.99999999999995
 20
-18.74999330870003
 30
0.0
 11
29.99999999999994
 21
-73.31330571068452
 31
0.0
  0
LINE
  5
5F946
330
5F6C3
100
AcDbEntity
  8
sk2
100
AcDbLine
 10
3.499999999999998
 20
-71.81330571068452
 30
0.0
 11
26.49999999999994
 21
-71.81330571068452
 31
0.0
  0
SOLID
  5
5F947
330
5F6C3
100
AcDbEntity
  8
sk2
100
AcDbTrace
 10
3.499999999999998
 20
-71.22997237735119
 30
0.0
 11
3.499999999999998
 21
-72.39663904401784
 31
0.0
 12
-0.0000000000000016
 22
-71.81330571068452
 32
0.0
 13
-0.0000000000000016
 23
-71.81330571068452
 33
0.0
  0
SOLID
  5
5F948
330
5F6C3
100
AcDbEntity
  8
sk2
100
AcDbTrace
 10
26.49999999999994
 20
-71.22997237735119
 30
0.0
 11
26.49999999999994
 21
-72.39663904401784
 31
0.0
 12
29.99999999999994
 22
-71.81330571068452
 32
0.0
 13
29.99999999999994
 23
-71.81330571068452
 33
0.0
  0
MTEXT
  5
5F949
330
5F6C3
100
AcDbEntity
  8
sk2
100
AcDbMText
 10
14.99999999999997
 20
-67.76330571068452
 30
0.0
 40
3.5
 41
0.0
 71
     5
 72
     1
  1
\A1;30 [1.181"]
  7
simplex
 73
     1
 44
1.0
1001
ACAD
1000
MTEXTBEGIN
1070
    73
1070
     1
1070
    44
1040
1.0
1070
    74
1070
     0
1000
MTEXTEND
  0
POINT
  5
5F94A
330
5F6C3
100
AcDbEntity
  8
Defpoints
 62
     0
100
AcDbPoint
 10
0.0
 20
-46.41899999999998
 30
0.0
  0
POINT
  5
5F94B
330
5F6C3
100
AcDbEntity
  8
Defpoints
 62
     0
100
AcDbPoint
 10
29.99999999999995
 20
-18.74999330870003
 30
0.0
  0
POINT
  5
5F94C
330
5F6C3
100
AcDbEntity
  8
Defpoints
 62
     0
100
AcDbPoint
 10
29.99999999999994
 20
-71.81330571068452
 30
0.0
  0
ENDBLK
  5
5F6CE
330
5F6C3
100
AcDbEntity
  8
0
100
AcDbBlockEnd
  0
BLOCK
  5
5F6E6
330
5F6DB
100
AcDbEntity
  8
0
100
AcDbBlockBegin
  2
*D64
 70
     1
 10
0.0
 20
0.0
 30
0.0
  3
*D64
  1

  0
LINE
  5
5F94D
330
5F6DB
100
AcDbEntity
  8
2
100
AcDbLine
 10
63.49999999999994
 20
43.15602244547616
 30
0.0
 11
63.49999999999994
 21
-73.31330571068452
 31
0.0
  0
LINE
  5
5F94E
330
5F6DB
100
AcDbEntity
  8
2
100
AcDbLine
 10
61.39999999999992
 20
36.03333605792798
 30
0.0
 11
61.39999999999991
 21
-73.31330571068452
 31
0.0
  0
LINE
  5
5F94F
330
5F6DB
100
AcDbEntity
  8
2
100
AcDbLine
 10
57.89999999999992
 20
-71.81330571068452
 30
0.0
 11
54.39999999999991
 21
-71.81330571068452
 31
0.0
  0
LINE
  5
5F950
330
5F6DB
100
AcDbEntity
  8
2
100
AcDbLine
 10
66.99999999999994
 20
-71.81330571068452
 30
0.0
 11
117.6833333333333
 21
-71.81330571068452
 31
0.0
  0
SOLID
  5
5F951
330
5F6DB
100
AcDbEntity
  8
2
100
AcDbTrace
 10
57.89999999999992
 20
-71.22997237735119
 30
0.0
 11
57.89999999999992
 21
-72.39663904401784
 31
0.0
 12
61.39999999999991
 22
-71.81330571068452
 32
0.0
 13
61.39999999999991
 23
-71.81330571068452
 33
0.0
  0
SOLID
  5
5F952
330
5F6DB
100
AcDbEntity
  8
2
100
AcDbTrace
 10
66.99999999999994
 20
-71.22997237735119
 30
0.0
 11
66.99999999999994
 21
-72.39663904401784
 31
0.0
 12
63.49999999999994
 22
-71.81330571068452
 32
0.0
 13
63.49999999999994
 23
-71.81330571068452
 33
0.0
  0
MTEXT
  5
5F953
330
5F6DB
100
AcDbEntity
  8
2
100
AcDbMText
 10
94.09166666666664
 20
-67.76330571068452
 30
0.0
 40
3.5
 41
0.0
 71
     5
 72
     1
  1
\A1;2.1 [.083"](MAX)
  7
simplex
 73
     1
 44
1.0
1001
ACAD
1000
MTEXTBEGIN
1070
    73
1070
     1
1070
    44
1040
1.0
1070
    74
1070
     0
1000
MTEXTEND
  0
POINT
  5
5F954
330
5F6DB
100
AcDbEntity
  8
Defpoints
 62
     0
100
AcDbPoint
 10
63.49999999999994
 20
43.15602244547616
 30
0.0
  0
POINT
  5
5F955
330
5F6DB
100
AcDbEntity
  8
Defpoints
 62
     0
100
AcDbPoint
 10
61.39999999999992
 20
36.03333605792798
 30
0.0
  0
POINT
  5
5F956
330
5F6DB
100
AcDbEntity
  8
Defpoints
 62
     0
100
AcDbPoint
 10
61.39999999999991
 20
-71.81330571068452
 30
0.0
  0
ENDBLK
  5
5F6E7
330
5F6DB
100
AcDbEntity
  8
0
100
AcDbBlockEnd
  0
BLOCK
  5
5F700
330
5F6F5
100
AcDbEntity
  8
0
100
AcDbBlockBegin
  2
*D65
 70
     1
 10
0.0
 20
0.0
 30
0.0
  3
*D65
  1

  0
LINE
  5
5F957
330
5F6F5
100
AcDbEntity
  8
2
100
AcDbLine
 10
63.49999999999994
 20
43.15602244547616
 30
0.0
 11
63.49999999999994
 21
66.68426129943441
 31
0.0
  0
LINE
  5
5F958
330
5F6F5
100
AcDbEntity
  8
2
100
AcDbLine
 10
61.49999999999995
 20
49.11246714892519
 30
0.0
 11
61.49999999999995
 21
66.68426129943441
 31
0.0
  0
LINE
  5
5F959
330
5F6F5
100
AcDbEntity
  8
2
100
AcDbLine
 10
66.99999999999994
 20
65.18426129943441
 30
0.0
 11
70.49999999999994
 21
65.18426129943441
 31
0.0
  0
LINE
  5
5F95A
330
5F6F5
100
AcDbEntity
  8
2
100
AcDbLine
 10
57.99999999999994
 20
65.18426129943441
 30
0.0
 11
-65.01666666666671
 21
65.18426129943441
 31
0.0
  0
SOLID
  5
5F95B
330
5F6F5
100
AcDbEntity
  8
2
100
AcDbTrace
 10
66.99999999999994
 20
65.76759463276774
 30
0.0
 11
66.99999999999994
 21
64.60092796610108
 31
0.0
 12
63.49999999999994
 22
65.18426129943441
 32
0.0
 13
63.49999999999994
 23
65.18426129943441
 33
0.0
  0
SOLID
  5
5F95C
330
5F6F5
100
AcDbEntity
  8
2
100
AcDbTrace
 10
57.99999999999994
 20
65.76759463276774
 30
0.0
 11
57.99999999999994
 21
64.60092796610108
 31
0.0
 12
61.49999999999995
 22
65.18426129943441
 32
0.0
 13
61.49999999999995
 23
65.18426129943441
 33
0.0
  0
MTEXT
  5
5F95D
330
5F6F5
100
AcDbEntity
  8
2
100
AcDbMText
 10
-5.258333333333382
 20
69.2342612994344
 30
0.0
 40
3.5
 41
0.0
 71
     5
 72
     1
  1
\A1;2 [.079"](APMX AT HIGH FEED PROCESS)
  7
simplex
 73
     1
 44
1.0
1001
ACAD
1000
MTEXTBEGIN
1070
    73
1070
     1
1070
    44
1040
1.0
1070
    74
1070
     0
1000
MTEXTEND
  0
POINT
  5
5F95E
330
5F6F5
100
AcDbEntity
  8
Defpoints
 62
     0
100
AcDbPoint
 10
63.49999999999994
 20
43.15602244547616
 30
0.0
  0
POINT
  5
5F95F
330
5F6F5
100
AcDbEntity
  8
Defpoints
 62
     0
100
AcDbPoint
 10
61.49999999999995
 20
49.11246714892519
 30
0.0
  0
POINT
  5
5F960
330
5F6F5
100
AcDbEntity
  8
Defpoints
 62
     0
100
AcDbPoint
 10
61.49999999999995
 20
65.18426129943441
 30
0.0
  0
ENDBLK
  5
5F701
330
5F6F5
100
AcDbEntity
  8
0
100
AcDbBlockEnd
  0
BLOCK
  5
5F71A
330
5F70F
100
AcDbEntity
  8
0
100
AcDbBlockBegin
  2
*D66
 70
     1
 10
0.0
 20
0.0
 30
0.0
  3
*D66
  1

  0
LINE
  5
5F961
330
5F70F
100
AcDbEntity
  8
2
100
AcDbLine
 10
63.49999999999994
 20
43.15602244547616
 30
0.0
 11
63.49999999999994
 21
77.94602356844325
 31
0.0
  0
LINE
  5
5F962
330
5F70F
100
AcDbEntity
  8
2
100
AcDbLine
 10
60.49999999999994
 20
49.98237812395834
 30
0.0
 11
60.49999999999994
 21
77.94602356844325
 31
0.0
  0
LINE
  5
5F963
330
5F70F
100
AcDbEntity
  8
2
100
AcDbLine
 10
66.99999999999994
 20
76.44602356844325
 30
0.0
 11
70.49999999999994
 21
76.44602356844325
 31
0.0
  0
LINE
  5
5F964
330
5F70F
100
AcDbEntity
  8
2
100
AcDbLine
 10
56.99999999999994
 20
76.44602356844325
 30
0.0
 11
12.73333333333328
 21
76.44602356844325
 31
0.0
  0
SOLID
  5
5F965
330
5F70F
100
AcDbEntity
  8
2
100
AcDbTrace
 10
66.99999999999994
 20
77.02935690177658
 30
0.0
 11
66.99999999999994
 21
75.86269023510992
 31
0.0
 12
63.49999999999994
 22
76.44602356844325
 32
0.0
 13
63.49999999999994
 23
76.44602356844325
 33
0.0
  0
SOLID
  5
5F966
330
5F70F
100
AcDbEntity
  8
2
100
AcDbTrace
 10
56.99999999999994
 20
77.02935690177658
 30
0.0
 11
56.99999999999994
 21
75.86269023510992
 31
0.0
 12
60.49999999999994
 22
76.44602356844325
 32
0.0
 13
60.49999999999994
 23
76.44602356844325
 33
0.0
  0
MTEXT
  5
5F967
330
5F70F
100
AcDbEntity
  8
2
100
AcDbMText
 10
33.11666666666662
 20
80.49602356844324
 30
0.0
 40
3.5
 41
0.0
 71
     5
 72
     1
  1
\A1;APMX3 [.118"]
  7
simplex
 73
     1
 44
1.0
1001
ACAD
1000
MTEXTBEGIN
1070
    73
1070
     1
1070
    44
1040
1.0
1070
    74
1070
     0
1000
MTEXTEND
  0
POINT
  5
5F968
330
5F70F
100
AcDbEntity
  8
Defpoints
 62
     0
100
AcDbPoint
 10
63.49999999999994
 20
43.15602244547616
 30
0.0
  0
POINT
  5
5F969
330
5F70F
100
AcDbEntity
  8
Defpoints
 62
     0
100
AcDbPoint
 10
60.49999999999994
 20
49.98237812395834
 30
0.0
  0
POINT
  5
5F96A
330
5F70F
100
AcDbEntity
  8
Defpoints
 62
     0
100
AcDbPoint
 10
60.49999999999994
 20
76.44602356844325
 30
0.0
  0
ENDBLK
  5
5F71B
330
5F70F
100
AcDbEntity
  8
0
100
AcDbBlockEnd
  0
BLOCK
  5
5F733
330
5F729
100
AcDbEntity
  8
0
100
AcDbBlockBegin
  2
*D67
 70
     1
 10
0.0
 20
0.0
 30
0.0
  3
*D67
  1

  0
LINE
  5
5F96B
330
5F729
100
AcDbEntity
  8
2
100
AcDbLine
 10
63.49999999999994
 20
43.15602244547616
 30
0.0
 11
63.49999999999994
 21
89.45941829194977
 31
0.0
  0
LINE
  5
5F96C
330
5F729
100
AcDbEntity
  8
2
100
AcDbLine
 10
0.0
 20
46.41899999999998
 30
0.0
 11
0.0000000000000026
 21
89.45941829194977
 31
0.0
  0
LINE
  5
5F96D
330
5F729
100
AcDbEntity
  8
2
100
AcDbLine
 10
59.99999999999994
 20
87.95941829194976
 30
0.0
 11
3.500000000000002
 21
87.95941829194976
 31
0.0
  0
SOLID
  5
5F96E
330
5F729
100
AcDbEntity
  8
2
100
AcDbTrace
 10
59.99999999999994
 20
88.54275162528308
 30
0.0
 11
59.99999999999994
 21
87.37608495861643
 31
0.0
 12
63.49999999999994
 22
87.95941829194976
 32
0.0
 13
63.49999999999994
 23
87.95941829194976
 33
0.0
  0
SOLID
  5
5F96F
330
5F729
100
AcDbEntity
  8
2
100
AcDbTrace
 10
3.500000000000002
 20
88.54275162528308
 30
0.0
 11
3.500000000000002
 21
87.37608495861643
 31
0.0
 12
0.0000000000000025
 22
87.95941829194976
 32
0.0
 13
0.0000000000000025
 23
87.95941829194976
 33
0.0
  0
MTEXT
  5
5F970
330
5F729
100
AcDbEntity
  8
2
100
AcDbMText
 10
31.74999999999997
 20
92.00941829194976
 30
0.0
 40
3.5
 41
0.0
 71
     5
 72
     1
  1
\A1;63.5 [2.500"]
  7
simplex
 73
     1
 44
1.0
1001
ACAD
1000
MTEXTBEGIN
1070
    73
1070
     1
1070
    44
1040
1.0
1070
    74
1070
     0
1000
MTEXTEND
  0
POINT
  5
5F971
330
5F729
100
AcDbEntity
  8
Defpoints
 62
     0
100
AcDbPoint
 10
63.49999999999994
 20
43.15602244547616
 30
0.0
  0
POINT
  5
5F972
330
5F729
100
AcDbEntity
  8
Defpoints
 62
     0
100
AcDbPoint
 10
0.0
 20
46.41899999999998
 30
0.0
  0
POINT
  5
5F973
330
5F729
100
AcDbEntity
  8
Defpoints
 62
     0
100
AcDbPoint
 10
0.0000000000000025
 20
87.95941829194976
 30
0.0
  0
ENDBLK
  5
5F734
330
5F729
100
AcDbEntity
  8
0
100
AcDbBlockEnd
  0
BLOCK
  5
5F74B
330
5F743
100
AcDbEntity
  8
0
100
AcDbBlockBegin
  2
*D68
 70
     1
 10
0.0
 20
0.0
 30
0.0
  3
*D68
  1

  0
LINE
  5
5F974
330
5F743
100
AcDbEntity
  8
2
100
AcDbLine
 10
102.403886373373
 20
70.23908955286739
 30
0.0
 11
64.58155760079536
 21
50.81903830001317
 31
0.0
  0
MTEXT
  5
5F975
330
5F743
100
AcDbEntity
  8
2
100
AcDbMText
 10
83.19961029232807
 20
64.93123220291463
 30
0.0
 40
3.5
 41
0.0
 71
     5
 72
     1
  1
\A1;R1.5 [R.059"]
  7
simplex
 11
0.889588289437343
 21
0.4567632595732081
 31
0.0
 73
     1
 44
1.0
1001
ACAD
1000
MTEXTBEGIN
1070
    73
1070
     1
1070
    44
1040
1.0
1070
    74
1070
     0
1000
MTEXTEND
  0
SOLID
  5
5F976
330
5F743
100
AcDbEntity
  8
2
100
AcDbTrace
 10
64.31511236604433
 20
51.33796480218495
 30
0.0
 11
64.8480028355464
 21
50.30011179784138
 31
0.0
 12
61.46799858776468
 22
49.22036689150694
 32
0.0
 13
61.46799858776468
 23
49.22036689150694
 33
0.0
  0
LINE
  5
5F977
330
5F743
100
AcDbEntity
  8
2
100
AcDbLine
 10
60.04361615360862
 20
48.53522200214712
 30
0.0
 11
60.22361615360864
 21
48.53522200214712
 31
0.0
  0
LINE
  5
5F978
330
5F743
100
AcDbEntity
  8
2
100
AcDbLine
 10
60.13361615360864
 20
48.44522200214711
 30
0.0
 11
60.13361615360861
 21
48.62522200214712
 31
0.0
  0
POINT
  5
5F979
330
5F743
100
AcDbEntity
  8
Defpoints
 62
     0
100
AcDbPoint
 10
61.46799858776468
 20
49.22036689150694
 30
0.0
  0
POINT
  5
5F97A
330
5F743
100
AcDbEntity
  8
Defpoints
 62
     0
100
AcDbPoint
 10
60.13361615360862
 20
48.53522200214712
 30
0.0
  0
ENDBLK
  5
5F74C
330
5F743
100
AcDbEntity
  8
0
100
AcDbBlockEnd
  0
ENDSEC
  0
SECTION
  2
ENTITIES
  0
INSERT
  5
68C
330
1F
100
AcDbEntity
  8
0
100
AcDbBlockReference
  2
zero block
 10
0.0000000000000072
 20
0.0
 30
0.0
 50
180.0
  0
MTEXT
  5
5CD11
330
1F
100
AcDbEntity
  8
sk6
100
AcDbMText
 10
-5.094126417013512
 20
112.6319288386146
 30
0.0
 40
5.0
 41
85.25075165579854
 71
     1
 72
     5
  1
WJX14UR4_0007EA
  7
simplex
 73
     1
 44
1.0
1001
ACAD
1000
ACAD_MTEXT_DEFINED_HEIGHT_BEGIN
1070
    46
1040
0.0
1000
ACAD_MTEXT_DEFINED_HEIGHT_END
1000
MTEXTBEGIN
1070
    73
1070
     1
1070
    44
1040
1.0
1070
    74
1070
     0
1000
MTEXTEND
  0
LINE
  5
5F395
330
1F
100
AcDbEntity
  8
nocut
100
AcDbLine
 10
0.0
 20
0.0
 30
0.0
 11
0.0
 21
19.55799999999999
 31
0.0
1001
ACAD
1000
RTMaterial
1005
0
  0
LINE
  5
5F39B
330
1F
100
AcDbEntity
  8
nocut
100
AcDbLine
 10
0.0
 20
0.0
 30
0.0
 11
0.0
 21
46.41899999999998
 31
0.0
1001
ACAD
1000
RTMaterial
1005
0
  0
LINE
  5
5F3AF
330
1F
100
AcDbEntity
  8
nocut
100
AcDbLine
 10
62.19999999999998
 20
43.57495351030002
 30
0.0
 11
62.19999999999998
 21
0.0
 31
0.0
1001
ACAD
1000
RTMaterial
1005
0
  0
LINE
  5
5F3B4
330
1F
100
AcDbEntity
  8
cut
100
AcDbLine
 10
63.43637431679991
 20
43.55527764799996
 30
0.0
 11
61.54595593649998
 21
49.73855755710002
 31
0.0
1001
ACAD
1000
RTMaterial
1005
0
  0
LINE
  5
5F3B5
330
1F
100
AcDbEntity
  8
nocut
100
AcDbLine
 10
60.75161536579997
 20
48.49202243020005
 30
0.0
 11
62.19999999999998
 21
43.57495351030002
 31
0.0
1001
ACAD
1000
RTMaterial
1005
0
  0
LINE
  5
5F3B7
330
1F
100
AcDbEntity
  8
nocut
100
AcDbLine
 10
54.5719838425
 20
48.91680650430004
 30
0.0
 11
59.4957384635
 21
49.34836844340003
 31
0.0
1001
ACAD
1000
RTMaterial
1005
0
  0
LINE
  5
5F3B9
330
1F
100
AcDbEntity
  8
cut
100
AcDbLine
 10
59.97155520639996
 20
50.79345766250003
 30
0.0
 11
56.24838147429994
 21
50.44457979769998
 31
0.0
1001
ACAD
1000
RTMaterial
1005
0
  0
LINE
  5
5F3BA
330
1F
100
AcDbEntity
  8
nocut
100
AcDbLine
 10
53.03696115239995
 20
49.04656254370002
 30
0.0
 11
54.42805067180001
 21
48.91718861790002
 31
0.0
1001
ACAD
1000
RTMaterial
1005
0
  0
LINE
  5
5F3BD
330
1F
100
AcDbEntity
  8
1
100
AcDbLine
 10
53.03696115249994
 20
-49.04656254380006
 30
0.0
 11
54.42805067179989
 21
-48.91718861790002
 31
0.0
1001
ACAD
1000
RTMaterial
1005
0
  0
LINE
  5
5F3BE
330
1F
100
AcDbEntity
  8
1
100
AcDbLine
 10
52.96287934679992
 20
-49.05000000000001
 30
0.0
 11
53.03696115249994
 21
-49.04656254380006
 31
0.0
1001
ACAD
1000
RTMaterial
1005
0
  0
LINE
  5
5F3BF
330
1F
100
AcDbEntity
  8
1
100
AcDbLine
 10
48.99451001349991
 20
-49.05000000000001
 30
0.0
 11
52.96287934679992
 21
-49.05000000000001
 31
0.0
1001
ACAD
1000
RTMaterial
1005
0
  0
LINE
  5
5F3C0
330
1F
100
AcDbEntity
  8
1
100
AcDbLine
 10
11.02809845429988
 20
-48.41899999999998
 30
0.0
 11
2.0
 21
-48.41899999999998
 31
0.0
1001
ACAD
1000
RTMaterial
1005
0
  0
LINE
  5
5F3C1
330
1F
100
AcDbEntity
  8
1
100
AcDbLine
 10
54.57198384259993
 20
-48.91680650429998
 30
0.0
 11
59.49573846359993
 21
-49.34836844340003
 31
0.0
1001
ACAD
1000
RTMaterial
1005
0
  0
LINE
  5
5F3C2
330
1F
100
AcDbEntity
  8
1
100
AcDbLine
 10
33.17563844699993
 20
-44.67060318100005
 30
0.0
 11
46.0707929662999
 21
-48.61304755970002
 31
0.0
1001
ACAD
1000
RTMaterial
1005
0
  0
LINE
  5
5F3C3
330
1F
100
AcDbEntity
  8
1
100
AcDbLine
 10
60.75161536589996
 20
-48.49202243020005
 30
0.0
 11
62.19999999999993
 21
-43.57495351029996
 31
0.0
1001
ACAD
1000
RTMaterial
1005
0
  0
LINE
  5
5F3C4
330
1F
100
AcDbEntity
  8
1
100
AcDbLine
 10
19.83607248419992
 20
-45.25302120890001
 30
0.0
 11
12.90113142140001
 21
-48.05491927290001
 31
0.0
1001
ACAD
1000
RTMaterial
1005
0
  0
LINE
  5
5F3C5
330
1F
100
AcDbEntity
  8
sk3
100
AcDbLine
 10
15.83926112069991
 20
-19.47504622970001
 30
0.0
 11
14.92774653979995
 21
-19.05000000000001
 31
0.0
1001
ACAD
1000
RTMaterial
1005
0
  0
LINE
  5
5F3C6
330
1F
100
AcDbEntity
  8
sk3
100
AcDbLine
 10
1.199999999999931
 20
-19.55000000000001
 30
0.0
 11
8.0
 21
-19.55000000000001
 31
0.0
1001
ACAD
1000
RTMaterial
1005
0
  0
LINE
  5
5F3C7
330
1F
100
AcDbEntity
  8
sk3
100
AcDbLine
 10
29.19999999999993
 20
-19.55000000000001
 30
0.0
 11
16.17735573009997
 21
-19.55000000000001
 31
0.0
1001
ACAD
1000
RTMaterial
1005
0
  0
LINE
  5
5F3C8
102
{ACAD_REACTORS
330
5F6A9
102
}
330
1F
100
AcDbEntity
  8
sk3
100
AcDbLine
 10
14.92774653979995
 20
-19.05000000000001
 30
0.0
 11
8.0
 21
-19.05000000000001
 31
0.0
1001
ACAD
1000
RTMaterial
1005
0
  0
LINE
  5
5F3C9
330
1F
100
AcDbEntity
  8
1
100
AcDbLine
 10
52.13087323140001
 20
47.88643125890001
 30
0.0
 11
52.14999390729992
 21
47.81753138879998
 31
0.0
1001
ACAD
1000
RTMaterial
1005
0
  0
LINE
  5
5F3CA
330
1F
100
AcDbEntity
  8
1
100
AcDbLine
 10
62.19999999999998
 20
37.87794829009994
 30
0.0
 11
62.19999999999993
 21
-43.57495350980002
 31
0.0
1001
ACAD
1000
RTMaterial
1005
0
  0
LINE
  5
5F3CB
330
1F
100
AcDbEntity
  8
sk3
100
AcDbLine
 10
57.99999999999994
 20
-15.0
 30
0.0
 11
38.39999999999992
 21
-15.0
 31
0.0
1001
ACAD
1000
RTMaterial
1005
0
  0
LINE
  5
5F3CC
330
1F
100
AcDbEntity
  8
1
100
AcDbLine
 10
0.0
 20
8.9375
 30
0.0
 11
1.0
 21
7.9375
 31
0.0
1001
ACAD
1000
RTMaterial
1005
0
  0
LINE
  5
5F3CD
330
1F
100
AcDbEntity
  8
sk3
100
AcDbLine
 10
58.99999999999995
 20
31.53794705399997
 30
0.0
 11
58.99999999999995
 21
-31.53794705410002
 31
0.0
1001
ACAD
1000
RTMaterial
1005
0
  0
LINE
  5
5F3CE
330
1F
100
AcDbEntity
  8
sk3
100
AcDbLine
 10
57.99999999999994
 20
15.0
 30
0.0
 11
57.99999999999994
 21
-15.0
 31
0.0
1001
ACAD
1000
RTMaterial
1005
0
  0
LINE
  5
5F3CF
330
1F
100
AcDbEntity
  8
sk3
100
AcDbLine
 10
37.49999999999995
 20
-10.0
 30
0.0
 11
30.39999999999992
 21
-10.0
 31
0.0
1001
ACAD
1000
RTMaterial
1005
0
  0
LINE
  5
5F3D0
330
1F
100
AcDbEntity
  8
1
100
AcDbLine
 10
8.524999999999977
 20
7.9375
 30
0.0
 11
9.524999999999977
 21
6.9375
 31
0.0
1001
ACAD
1000
RTMaterial
1005
0
  0
LINE
  5
5F3D1
330
1F
100
AcDbEntity
  8
1
100
AcDbLine
 10
51.40568790339995
 20
37.85203945069998
 30
0.0
 11
51.3819802484
 21
37.9611410393
 31
0.0
1001
ACAD
1000
RTMaterial
1005
0
  0
LINE
  5
5F3D5
330
1F
100
AcDbEntity
  8
1
100
AcDbLine
 10
8.524999999999977
 20
-7.9375
 30
0.0
 11
1.0
 21
-7.9375
 31
0.0
1001
ACAD
1000
RTMaterial
1005
0
  0
LINE
  5
5F3D6
330
1F
100
AcDbEntity
  8
sk3
100
AcDbLine
 10
1.199999999999931
 20
19.55000000000001
 30
0.0
 11
0.0
 21
20.75
 31
0.0
1001
ACAD
1000
RTMaterial
1005
0
  0
LINE
  5
5F3D7
330
1F
100
AcDbEntity
  8
1
100
AcDbLine
 10
62.87256838219997
 20
39.42873312089995
 30
0.0
 11
61.36426457390001
 21
35.95093855279998
 31
0.0
1001
ACAD
1000
RTMaterial
1005
0
  0
LINE
  5
5F3D8
330
1F
100
AcDbEntity
  8
sk3
100
AcDbLine
 10
37.49999999999995
 20
-10.0
 30
0.0
 11
37.99999999999994
 21
-10.5
 31
0.0
1001
ACAD
1000
RTMaterial
1005
0
  0
LINE
  5
5F3D9
330
1F
100
AcDbEntity
  8
sk3
100
AcDbLine
 10
60.33237928019997
 20
37.71824994790001
 30
0.0
 11
62.19999999999998
 21
41.84845717000001
 31
0.0
1001
ACAD
1000
RTMaterial
1005
0
  0
LINE
  5
5F3DA
330
1F
100
AcDbEntity
  8
sk3
100
AcDbLine
 10
58.99999999999995
 20
16.0
 30
0.0
 11
57.99999999999994
 21
15.0
 31
0.0
1001
ACAD
1000
RTMaterial
1005
0
  0
LINE
  5
5F3DB
330
1F
100
AcDbEntity
  8
4
100
AcDbLine
 10
67.10243534269989
 20
0.0
 30
0.0
 11
-4.217102988800093
 21
0.0
 31
0.0
1001
ACAD
1000
RTMaterial
1005
0
  0
LINE
  5
5F3E2
330
1F
100
AcDbEntity
  8
1
100
AcDbLine
 10
1.0
 20
7.9375
 30
0.0
 11
8.524999999999977
 21
7.9375
 31
0.0
1001
ACAD
1000
RTMaterial
1005
0
  0
LINE
  5
5F3E3
330
1F
100
AcDbEntity
  8
sk3
100
AcDbLine
 10
58.99999999999995
 20
-16.0
 30
0.0
 11
57.99999999999994
 21
-15.0
 31
0.0
1001
ACAD
1000
RTMaterial
1005
0
  0
LINE
  5
5F3E4
330
1F
100
AcDbEntity
  8
sk3
100
AcDbLine
 10
37.99999999999994
 20
14.60000000000002
 30
0.0
 11
37.99999999999994
 21
-14.60000000000002
 31
0.0
1001
ACAD
1000
RTMaterial
1005
0
  0
LINE
  5
5F3E5
330
1F
100
AcDbEntity
  8
sk3
100
AcDbLine
 10
37.49999999999995
 20
10.0
 30
0.0
 11
37.49999999999995
 21
-10.0
 31
0.0
1001
ACAD
1000
RTMaterial
1005
0
  0
LINE
  5
5F3E6
330
1F
100
AcDbEntity
  8
1
100
AcDbLine
 10
52.73613225549997
 20
48.22175353969999
 30
0.0
 11
52.65694086590002
 21
48.00629581790002
 31
0.0
1001
ACAD
1000
RTMaterial
1005
0
  0
LINE
  5
5F3E7
330
1F
100
AcDbEntity
  8
1
100
AcDbLine
 10
51.33252468539996
 20
37.53237685829993
 30
0.0
 11
51.33339096639992
 21
37.53438024589997
 31
0.0
1001
ACAD
1000
RTMaterial
1005
0
  0
LINE
  5
5F3E8
330
1F
100
AcDbEntity
  8
sk3
100
AcDbLine
 10
37.49999999999995
 20
10.0
 30
0.0
 11
37.99999999999994
 21
10.5
 31
0.0
1001
ACAD
1000
RTMaterial
1005
0
  0
LINE
  5
5F3E9
330
1F
100
AcDbEntity
  8
sk3
100
AcDbLine
 10
37.49999999999995
 20
10.0
 30
0.0
 11
30.39999999999992
 21
10.0
 31
0.0
1001
ACAD
1000
RTMaterial
1005
0
  0
LINE
  5
5F3EA
330
1F
100
AcDbEntity
  8
sk3
100
AcDbLine
 10
60.33237928019992
 20
-37.71824994790001
 30
0.0
 11
62.19999999999993
 21
-41.84845717000001
 31
0.0
1001
ACAD
1000
RTMaterial
1005
0
  0
LINE
  5
5F3EB
102
{ACAD_REACTORS
330
5F6D9
102
}
330
1F
100
AcDbEntity
  8
sk3
100
AcDbLine
 10
29.99999999999995
 20
-18.74999330870003
 30
0.0
 11
29.99999999999995
 21
18.74295167100001
 31
0.0
1001
ACAD
1000
RTMaterial
1005
0
  0
LINE
  5
5F3EC
330
1F
100
AcDbEntity
  8
sk3
100
AcDbLine
 10
1.199999999999931
 20
-19.55000000000001
 30
0.0
 11
0.0
 21
-20.75
 31
0.0
1001
ACAD
1000
RTMaterial
1005
0
  0
LINE
  5
5F3ED
330
1F
100
AcDbEntity
  8
sk3
100
AcDbLine
 10
57.99999999999994
 20
15.0
 30
0.0
 11
38.39999999999992
 21
15.0
 31
0.0
1001
ACAD
1000
RTMaterial
1005
0
  0
LINE
  5
5F3EE
330
1F
100
AcDbEntity
  8
1
100
AcDbLine
 10
52.14999390729992
 20
47.81753138879998
 30
0.0
 11
52.2433817639
 21
47.9452030703
 31
0.0
1001
ACAD
1000
RTMaterial
1005
0
  0
LINE
  5
5F3F1
330
1F
100
AcDbEntity
  8
1
100
AcDbLine
 10
9.524999999999977
 20
-6.9375
 30
0.0
 11
8.524999999999977
 21
-7.9375
 31
0.0
1001
ACAD
1000
RTMaterial
1005
0
  0
LINE
  5
5F3F2
102
{ACAD_REACTORS
330
5F6A9
102
}
330
1F
100
AcDbEntity
  8
sk3
100
AcDbLine
 10
14.92774653979995
 20
19.05000000000001
 30
0.0
 11
8.0
 21
19.05000000000001
 31
0.0
1001
ACAD
1000
RTMaterial
1005
0
  0
LINE
  5
5F3F3
330
1F
100
AcDbEntity
  8
sk3
100
AcDbLine
 10
1.199999999999931
 20
19.55000000000001
 30
0.0
 11
8.0
 21
19.55000000000001
 31
0.0
1001
ACAD
1000
RTMaterial
1005
0
  0
LINE
  5
5F3F4
330
1F
100
AcDbEntity
  8
sk3
100
AcDbLine
 10
29.19999999999993
 20
19.55000000000001
 30
0.0
 11
16.17735573009997
 21
19.55000000000001
 31
0.0
1001
ACAD
1000
RTMaterial
1005
0
  0
LINE
  5
5F3F5
330
1F
100
AcDbEntity
  8
1
100
AcDbLine
 10
48.70739137309993
 20
43.59523531649995
 30
0.0
 11
53.23723223529992
 21
48.4352152285
 31
0.0
1001
ACAD
1000
RTMaterial
1005
0
  0
LINE
  5
5F3F7
330
1F
100
AcDbEntity
  8
1
100
AcDbLine
 10
1.0
 20
-7.9375
 30
0.0
 11
0.0
 21
-8.9375
 31
0.0
1001
ACAD
1000
RTMaterial
1005
0
  0
LINE
  5
5F3F8
330
1F
100
AcDbEntity
  8
1
100
AcDbLine
 10
59.60852405459997
 20
35.03100574509995
 30
0.0
 11
59.6951980318999
 21
35.07628171030001
 31
0.0
1001
ACAD
1000
RTMaterial
1005
0
  0
LINE
  5
5F3F9
330
1F
100
AcDbEntity
  8
1
100
AcDbLine
 10
59.54563416069999
 20
34.99815670579994
 30
0.0
 11
59.60852405459997
 21
35.03100574509995
 31
0.0
1001
ACAD
1000
RTMaterial
1005
0
  0
LINE
  5
5F3FA
330
1F
100
AcDbEntity
  8
1
100
AcDbLine
 10
49.06450513620001
 20
44.19464858229997
 30
0.0
 11
52.65694086590002
 21
48.00629581790002
 31
0.0
1001
ACAD
1000
RTMaterial
1005
0
  0
LINE
  5
5F3FB
330
1F
100
AcDbEntity
  8
1
100
AcDbLine
 10
52.14999390729992
 20
47.81753138879998
 30
0.0
 11
48.62206552449999
 21
44.11254619170001
 31
0.0
1001
ACAD
1000
RTMaterial
1005
0
  0
LINE
  5
5F3FC
330
1F
100
AcDbEntity
  8
sk3
100
AcDbLine
 10
15.83926112069991
 20
19.47504622959997
 30
0.0
 11
14.92774653979995
 21
19.05000000000001
 31
0.0
1001
ACAD
1000
RTMaterial
1005
0
  0
LINE
  5
5F3FD
330
1F
100
AcDbEntity
  8
sk3
100
AcDbLine
 10
14.92774653979995
 20
19.05000000000001
 30
0.0
 11
14.92774653979995
 21
-19.05000000000001
 31
0.0
1001
ACAD
1000
RTMaterial
1005
0
  0
LINE
  5
5F3FE
330
1F
100
AcDbEntity
  8
1
100
AcDbLine
 10
59.59645248379996
 20
35.05392504129998
 30
0.0
 11
59.73651331909997
 21
35.08564465579997
 31
0.0
1001
ACAD
1000
RTMaterial
1005
0
  0
LINE
  5
5F3FF
330
1F
100
AcDbEntity
  8
1
100
AcDbLine
 10
59.65154868909991
 20
35.08326485199996
 30
0.0
 11
60.1671515189999
 21
35.09775317949999
 31
0.0
1001
ACAD
1000
RTMaterial
1005
0
  0
LINE
  5
5F400
330
1F
100
AcDbEntity
  8
1
100
AcDbLine
 10
48.29980660219991
 20
42.69793665079993
 30
0.0
 11
48.19711073089997
 21
42.93659423040003
 31
0.0
1001
ACAD
1000
RTMaterial
1005
0
  0
LINE
  5
5F401
330
1F
100
AcDbEntity
  8
1
100
AcDbLine
 10
48.26161378159992
 20
42.49410044009994
 30
0.0
 11
48.26198681129989
 21
42.49301892809995
 31
0.0
1001
ACAD
1000
RTMaterial
1005
0
  0
LINE
  5
5F402
330
1F
100
AcDbEntity
  8
1
100
AcDbLine
 10
48.26198754659998
 20
42.49300034049997
 30
0.0
 11
48.37284547899997
 21
42.17170872069999
 31
0.0
1001
ACAD
1000
RTMaterial
1005
0
  0
LINE
  5
5F403
330
1F
100
AcDbEntity
  8
1
100
AcDbLine
 10
9.524999999999977
 20
6.9375
 30
0.0
 11
9.524999999999977
 21
-6.9375
 31
0.0
1001
ACAD
1000
RTMaterial
1005
0
  0
LINE
  5
5F404
330
1F
100
AcDbEntity
  8
sk3
100
AcDbLine
 10
8.0
 20
-19.54999808700006
 30
0.0
 11
8.0
 21
-7.9375
 31
0.0
1001
ACAD
1000
RTMaterial
1005
0
  0
LINE
  5
5F405
330
1F
100
AcDbEntity
  8
sk3
100
AcDbLine
 10
8.0
 20
7.9375
 30
0.0
 11
8.0
 21
19.54999808699995
 31
0.0
1001
ACAD
1000
RTMaterial
1005
0
  0
LINE
  5
5F406
330
1F
100
AcDbEntity
  8
1
100
AcDbLine
 10
53.81227027529991
 20
48.89690322960001
 30
0.0
 11
53.81630795049995
 21
48.89902348899994
 31
0.0
1001
ACAD
1000
RTMaterial
1005
0
  0
LINE
  5
5F407
330
1F
100
AcDbEntity
  8
1
100
AcDbLine
 10
54.69621888579997
 20
49.3570844299
 30
0.0
 11
53.81631349809999
 21
48.89901073519997
 31
0.0
1001
ACAD
1000
RTMaterial
1005
0
  0
LINE
  5
5F408
330
1F
100
AcDbEntity
  8
1
100
AcDbLine
 10
53.81274123499991
 20
48.89715007619997
 30
0.0
 11
53.80328662629989
 21
48.89224060559996
 31
0.0
1001
ACAD
1000
RTMaterial
1005
0
  0
LINE
  5
5F409
330
1F
100
AcDbEntity
  8
1
100
AcDbLine
 10
53.80328662629989
 20
48.89224060559996
 30
0.0
 11
53.79330108409994
 21
48.88713903209998
 31
0.0
1001
ACAD
1000
RTMaterial
1005
0
  0
LINE
  5
5F40A
330
1F
100
AcDbEntity
  8
1
100
AcDbLine
 10
53.79330108409994
 20
48.88713903209998
 30
0.0
 11
53.78302635099993
 21
48.88199016479996
 31
0.0
1001
ACAD
1000
RTMaterial
1005
0
  0
LINE
  5
5F40B
330
1F
100
AcDbEntity
  8
1
100
AcDbLine
 10
55.18350082449996
 20
35.38968667040001
 30
0.0
 11
41.70411089359999
 21
36.18876802309995
 31
0.0
1001
ACAD
1000
RTMaterial
1005
0
  0
LINE
  5
5F40C
330
1F
100
AcDbEntity
  8
1
100
AcDbLine
 10
62.19999999999998
 20
34.07512792649993
 30
0.0
 11
56.56703362079992
 21
35.21017830509993
 31
0.0
1001
ACAD
1000
RTMaterial
1005
0
  0
LINE
  5
5F40D
330
1F
100
AcDbEntity
  8
1
100
AcDbLine
 10
59.12989448209993
 20
35.22214886939997
 30
0.0
 11
53.65034631899999
 21
36.52066171069999
 31
0.0
1001
ACAD
1000
RTMaterial
1005
0
  0
LINE
  5
5F40E
330
1F
100
AcDbEntity
  8
1
100
AcDbLine
 10
59.78869359489994
 20
35.13729177409999
 30
0.0
 11
53.35518933139991
 21
36.66186782519998
 31
0.0
1001
ACAD
1000
RTMaterial
1005
0
  0
LINE
  5
5F40F
330
1F
100
AcDbEntity
  8
1
100
AcDbLine
 10
19.83607248419992
 20
45.25302120879996
 30
0.0
 11
12.90113142140001
 21
48.05491927280002
 31
0.0
1001
ACAD
1000
RTMaterial
1005
0
  0
LINE
  5
5F410
330
1F
100
AcDbEntity
  8
1
100
AcDbLine
 10
48.15912382729999
 20
42.99546110889997
 30
0.0
 11
48.02245709429991
 21
43.15541229799992
 31
0.0
1001
ACAD
1000
RTMaterial
1005
0
  0
LINE
  5
5F411
330
1F
100
AcDbEntity
  8
1
100
AcDbLine
 10
47.91250562349995
 20
42.52936691769997
 30
0.0
 11
48.10681431369999
 21
42.26473603979997
 31
0.0
1001
ACAD
1000
RTMaterial
1005
0
  0
LINE
  5
5F412
330
1F
100
AcDbEntity
  8
1
100
AcDbLine
 10
51.39795320050001
 20
37.78250227000001
 30
0.0
 11
51.83845721689994
 21
37.18257560449996
 31
0.0
1001
ACAD
1000
RTMaterial
1005
0
  0
LINE
  5
5F413
330
1F
100
AcDbEntity
  8
1
100
AcDbLine
 10
50.81533797679998
 20
38.73723795989997
 30
0.0
 11
48.57413073359992
 21
41.78955970519996
 31
0.0
1001
ACAD
1000
RTMaterial
1005
0
  0
LWPOLYLINE
  5
5F414
330
1F
100
AcDbEntity
  8
1
100
AcDbPolyline
 90
        6
 70
     0
 43
0.0
 10
53.78302635099993
 20
48.88199016479996
 10
53.77258145219997
 20
48.87686186989999
 10
53.76188790399993
 20
48.8717232107
 10
53.75067106559999
 20
48.8664549421
 10
53.73883758699998
 20
48.86103144259994
 10
53.73632639539988
 20
48.85989812009995
1001
ACAD
1000
RTMaterial
1005
0
  0
LINE
  5
5F415
330
1F
100
AcDbEntity
  8
1
100
AcDbLine
 10
49.06450513620001
 20
44.19464858229997
 30
0.0
 11
48.90055166589997
 21
44.19256162890002
 31
0.0
1001
ACAD
1000
RTMaterial
1005
0
  0
LINE
  5
5F416
330
1F
100
AcDbEntity
  8
1
100
AcDbLine
 10
47.43964943419991
 20
42.28086272780001
 30
0.0
 11
41.80403788399991
 21
42.6149514457
 31
0.0
1001
ACAD
1000
RTMaterial
1005
0
  0
LINE
  5
5F417
330
1F
100
AcDbEntity
  8
1
100
AcDbLine
 10
56.92872555169998
 20
41.17772585220001
 30
0.0
 11
57.05688749199993
 21
41.15979100430002
 31
0.0
1001
ACAD
1000
RTMaterial
1005
0
  0
LINE
  5
5F418
330
1F
100
AcDbEntity
  8
1
100
AcDbLine
 10
54.76708734609991
 20
41.69490537069998
 30
0.0
 11
54.8952492864999
 21
41.67697052279999
 31
0.0
1001
ACAD
1000
RTMaterial
1005
0
  0
LINE
  5
5F419
330
1F
100
AcDbEntity
  8
1
100
AcDbLine
 10
48.16975310409993
 20
42.25037561710002
 30
0.0
 11
47.81040724709993
 21
42.33236572769999
 31
0.0
1001
ACAD
1000
RTMaterial
1005
0
  0
LINE
  5
5F41A
330
1F
100
AcDbEntity
  8
1
100
AcDbLine
 10
59.63708794989992
 20
34.94888324659996
 30
0.0
 11
59.12989448209993
 21
35.22214886939997
 31
0.0
1001
ACAD
1000
RTMaterial
1005
0
  0
LINE
  5
5F41B
330
1F
100
AcDbEntity
  8
1
100
AcDbLine
 10
52.22955241329993
 20
37.1955376953
 30
0.0
 11
52.2983853092
 21
37.14869107639998
 31
0.0
1001
ACAD
1000
RTMaterial
1005
0
  0
LINE
  5
5F41C
330
1F
100
AcDbEntity
  8
1
100
AcDbLine
 10
52.29697432659992
 20
37.14964916680003
 30
0.0
 11
52.29833980129996
 21
37.14871582129996
 31
0.0
1001
ACAD
1000
RTMaterial
1005
0
  0
LINE
  5
5F41D
330
1F
100
AcDbEntity
  8
1
100
AcDbLine
 10
51.80815019059997
 20
37.48433074259992
 30
0.0
 11
52.22955241329993
 21
37.1955376953
 31
0.0
1001
ACAD
1000
RTMaterial
1005
0
  0
LINE
  5
5F41E
330
1F
100
AcDbEntity
  8
1
100
AcDbLine
 10
52.29843071349995
 20
37.14865350619994
 30
0.0
 11
52.30014443919998
 21
37.14745290600002
 31
0.0
1001
ACAD
1000
RTMaterial
1005
0
  0
LINE
  5
5F41F
330
1F
100
AcDbEntity
  8
1
100
AcDbLine
 10
52.30014443919998
 20
37.14745290600002
 30
0.0
 11
52.30048519839994
 21
37.1472064752
 31
0.0
1001
ACAD
1000
RTMaterial
1005
0
  0
LINE
  5
5F420
330
1F
100
AcDbEntity
  8
1
100
AcDbLine
 10
47.64245781409994
 20
43.46728057249999
 30
0.0
 11
47.95852006529997
 21
43.21583453879997
 31
0.0
1001
ACAD
1000
RTMaterial
1005
0
  0
LINE
  5
5F421
330
1F
100
AcDbEntity
  8
1
100
AcDbLine
 10
48.16975310409993
 20
42.25037561710002
 30
0.0
 11
48.42376048759996
 21
42.04480764619995
 31
0.0
1001
ACAD
1000
RTMaterial
1005
0
  0
LINE
  5
5F422
330
1F
100
AcDbEntity
  8
1
100
AcDbLine
 10
61.53271046769993
 20
49.0158140236
 30
0.0
 11
63.43637386899996
 21
42.65125806049996
 31
0.0
1001
ACAD
1000
RTMaterial
1005
0
  0
LINE
  5
5F423
330
1F
100
AcDbEntity
  8
sk3
100
AcDbLine
 10
1.199999999999931
 20
19.55000000000001
 30
0.0
 11
1.199999999999931
 21
7.9375
 31
0.0
1001
ACAD
1000
RTMaterial
1005
0
  0
LINE
  5
5F424
330
1F
100
AcDbEntity
  8
sk3
100
AcDbLine
 10
1.199999999999931
 20
-7.9375
 30
0.0
 11
1.199999999999931
 21
-19.55000000000001
 31
0.0
1001
ACAD
1000
RTMaterial
1005
0
  0
LINE
  5
5F425
330
1F
100
AcDbEntity
  8
1
100
AcDbLine
 10
0.0
 20
-46.41899999999998
 30
0.0
 11
0.0
 21
-8.9375
 31
0.0
1001
ACAD
1000
RTMaterial
1005
0
  0
LINE
  5
5F426
330
1F
100
AcDbEntity
  8
1
100
AcDbLine
 10
0.0
 20
8.9375
 30
0.0
 11
0.0
 21
46.41899999999998
 31
0.0
1001
ACAD
1000
RTMaterial
1005
0
  0
LINE
  5
5F427
330
1F
100
AcDbEntity
  8
1
100
AcDbLine
 10
33.17563844699999
 20
44.67060318089994
 30
0.0
 11
46.07079296629996
 21
48.61304755959998
 31
0.0
1001
ACAD
1000
RTMaterial
1005
0
  0
LINE
  5
5F428
330
1F
100
AcDbEntity
  8
1
100
AcDbLine
 10
53.98364217839997
 20
48.98622262309999
 30
0.0
 11
53.22632773359993
 21
48.84009716689996
 31
0.0
1001
ACAD
1000
RTMaterial
1005
0
  0
LINE
  5
5F42C
330
1F
100
AcDbEntity
  8
1
100
AcDbLine
 10
48.99451001349991
 20
47.88617486079994
 30
0.0
 11
52.13087323140001
 21
47.88643125890001
 31
0.0
1001
ACAD
1000
RTMaterial
1005
0
  0
LINE
  5
5F430
330
1F
100
AcDbEntity
  8
1
100
AcDbLine
 10
11.02809845429988
 20
48.41899999999998
 30
0.0
 11
2.0
 21
48.41899999999998
 31
0.0
1001
ACAD
1000
RTMaterial
1005
0
  0
LINE
  5
5F431
330
1F
100
AcDbEntity
  8
1
100
AcDbLine
 10
48.99451001349991
 20
49.05000000000001
 30
0.0
 11
52.96287934679998
 21
49.05000000000001
 31
0.0
1001
ACAD
1000
RTMaterial
1005
0
  0
LINE
  5
5F432
330
1F
100
AcDbEntity
  8
1
100
AcDbLine
 10
52.96287934679998
 20
49.05000000000001
 30
0.0
 11
53.03696115249994
 21
49.04656254369996
 31
0.0
1001
ACAD
1000
RTMaterial
1005
0
  0
LINE
  5
5F433
330
1F
100
AcDbEntity
  8
1
100
AcDbLine
 10
57.5963086514999
 20
43.29797170529997
 30
0.0
 11
57.7244705919
 21
43.28003685739997
 31
0.0
1001
ACAD
1000
RTMaterial
1005
0
  0
LINE
  5
5F434
330
1F
100
AcDbEntity
  8
1
100
AcDbLine
 10
55.43467044589994
 20
43.81515122369996
 30
0.0
 11
55.56283238629993
 21
43.79721637589994
 31
0.0
1001
ACAD
1000
RTMaterial
1005
0
  0
LINE
  5
5F435
330
1F
100
AcDbEntity
  8
1
100
AcDbLine
 10
56.24838147069993
 20
49.58237007560001
 30
0.0
 11
59.99789243809999
 21
50.00784285629999
 31
0.0
1001
ACAD
1000
RTMaterial
1005
0
  0
LINE
  5
5F436
330
1F
100
AcDbEntity
  8
1
100
AcDbLine
 10
53.03696115249994
 20
49.04656254369996
 30
0.0
 11
53.88669627999997
 21
48.96753558829994
 31
0.0
1001
ACAD
1000
RTMaterial
1005
0
  0
LINE
  5
5F446
330
1F
100
AcDbEntity
  8
nocut
100
AcDbLine
 10
19.83607248419997
 20
45.25302120890001
 30
0.0
 11
12.90113142139995
 21
48.05491927280002
 31
0.0
1001
ACAD
1000
RTMaterial
1005
0
  0
LINE
  5
5F448
330
1F
100
AcDbEntity
  8
nocut
100
AcDbLine
 10
46.07079296619997
 20
48.61304755959998
 30
0.0
 11
33.17563844689994
 21
44.67060318090005
 31
0.0
1001
ACAD
1000
RTMaterial
1005
0
  0
LINE
  5
5F44A
330
1F
100
AcDbEntity
  8
nocut
100
AcDbLine
 10
11.02809845429999
 20
48.41899999999998
 30
0.0
 11
2.0
 21
48.41899999999998
 31
0.0
1001
ACAD
1000
RTMaterial
1005
0
  0
LINE
  5
5F44B
330
1F
100
AcDbEntity
  8
nocut
100
AcDbLine
 10
52.96287934679998
 20
49.05000000000001
 30
0.0
 11
48.99451001349996
 21
49.05000000000001
 31
0.0
1001
ACAD
1000
RTMaterial
1005
0
  0
ARC
  5
5F44C
330
1F
100
AcDbEntity
  8
cut
100
AcDbCircle
 10
60.11149880249996
 20
49.30000000000001
 30
0.0
 40
1.5
100
AcDbArc
 50
16.9999999999982
 51
95.35323670390081
1001
ACAD
1000
RTMaterial
1005
0
  0
ARC
  5
5F44D
330
1F
100
AcDbEntity
  8
nocut
100
AcDbCircle
 10
59.60051551119994
 20
48.15295145739998
 30
0.0
 40
1.199999999999999
100
AcDbArc
 50
16.41300196920164
 51
95.00911404089926
1001
ACAD
1000
RTMaterial
1005
0
  0
ARC
  5
5F44E
330
1F
100
AcDbEntity
  8
nocut
100
AcDbCircle
 10
52.96287934679998
 20
48.25
 30
0.0
 40
0.8
100
AcDbArc
 50
84.68666916940145
 51
90.0
1001
ACAD
1000
RTMaterial
1005
0
  0
ARC
  5
5F44F
330
1F
100
AcDbEntity
  8
nocut
100
AcDbCircle
 10
54.50213247739998
 20
49.71375116160004
 30
0.0
 40
0.8
100
AcDbArc
 50
264.6866691694015
 51
275.0091140408993
1001
ACAD
1000
RTMaterial
1005
0
  0
ARC
  5
5F450
330
1F
100
AcDbEntity
  8
1
100
AcDbCircle
 10
27.32820435249994
 20
63.79669830019998
 30
0.0
 40
20.0
100
AcDbArc
 50
247.9999999999987
 51
286.9999999999985
1001
ACAD
1000
RTMaterial
1005
0
  0
ARC
  5
5F451
330
1F
100
AcDbEntity
  8
1
100
AcDbCircle
 10
27.32820435249994
 20
-63.79669830020003
 30
0.0
 40
20.0
100
AcDbArc
 50
72.99999999999809
 51
112.0000000000013
1001
ACAD
1000
RTMaterial
1005
0
  0
ARC
  5
5F452
330
1F
100
AcDbEntity
  8
sk3
100
AcDbCircle
 10
73.99999999999995
 20
31.53794705399997
 30
0.0
 40
15.0
100
AcDbArc
 50
155.6681965097
 51
180.0
1001
ACAD
1000
RTMaterial
1005
0
  0
ARC
  5
5F453
330
1F
100
AcDbEntity
  8
sk3
100
AcDbCircle
 10
73.99999999999995
 20
-31.53794705410002
 30
0.0
 40
15.0
100
AcDbArc
 50
180.0
 51
204.3318034903
1001
ACAD
1000
RTMaterial
1005
0
  0
ARC
  5
5F454
330
1F
100
AcDbEntity
  8
1
100
AcDbCircle
 10
42.47342257019994
 20
49.16598496449996
 30
0.0
 40
13.0
100
AcDbArc
 50
230.4784509914004
 51
266.6073784632992
1001
ACAD
1000
RTMaterial
1005
0
  0
ARC
  5
5F455
330
1F
100
AcDbEntity
  8
1
100
AcDbCircle
 10
54.59172261169993
 20
25.40721210009997
 30
0.0
 40
10.0
100
AcDbArc
 50
78.60737846330099
 51
86.60737846329922
1001
ACAD
1000
RTMaterial
1005
0
  0
ARC
  5
5F456
330
1F
100
AcDbEntity
  8
1
100
AcDbCircle
 10
48.99451001349991
 20
39.05000000000001
 30
0.0
 40
10.0
100
AcDbArc
 50
90.0
 51
106.9999999999985
1001
ACAD
1000
RTMaterial
1005
0
  0
ARC
  5
5F457
330
1F
100
AcDbEntity
  8
1
100
AcDbCircle
 10
48.99451001349991
 20
-39.05000000000001
 30
0.0
 40
10.0
100
AcDbArc
 50
252.9999999999981
 51
270.0
1001
ACAD
1000
RTMaterial
1005
0
  0
ARC
  5
5F458
330
1F
100
AcDbEntity
  8
1
100
AcDbCircle
 10
39.60976484139991
 20
45.69475111869997
 30
0.0
 40
8.5
100
AcDbArc
 50
219.1585461483015
 51
230.4784509914004
1001
ACAD
1000
RTMaterial
1005
0
  0
ARC
  5
5F459
330
1F
100
AcDbEntity
  8
1
100
AcDbCircle
 10
11.02809845429988
 20
43.41899999999998
 30
0.0
 40
5.0
100
AcDbArc
 50
67.99999999999866
 51
90.0
1001
ACAD
1000
RTMaterial
1005
0
  0
ARC
  5
5F45A
330
1F
100
AcDbEntity
  8
1
100
AcDbCircle
 10
11.02809845429988
 20
-43.41899999999998
 30
0.0
 40
5.0
100
AcDbArc
 50
270.0
 51
292.0000000000013
1001
ACAD
1000
RTMaterial
1005
0
  0
ARC
  5
5F45B
102
{ACAD_REACTORS
330
5F6C1
330
5F73F
102
}
330
1F
100
AcDbEntity
  8
1
100
AcDbCircle
 10
2.0
 20
46.41899999999998
 30
0.0
 40
2.0
100
AcDbArc
 50
90.0
 51
180.0
1001
ACAD
1000
RTMaterial
1005
0
  0
ARC
  5
5F45C
102
{ACAD_REACTORS
330
5F6C1
330
5F6D9
102
}
330
1F
100
AcDbEntity
  8
1
100
AcDbCircle
 10
2.0
 20
-46.41899999999998
 30
0.0
 40
2.0
100
AcDbArc
 50
180.0
 51
270.0
1001
ACAD
1000
RTMaterial
1005
0
  0
ARC
  5
5F45D
330
1F
100
AcDbEntity
  8
1
100
AcDbCircle
 10
59.60051551119994
 20
-48.15295145740003
 30
0.0
 40
1.199999999999999
100
AcDbArc
 50
264.9908859591008
 51
343.5869980307983
1001
ACAD
1000
RTMaterial
1005
0
  0
ARC
  5
5F45E
330
1F
100
AcDbEntity
  8
sk3
100
AcDbCircle
 10
29.19999999999993
 20
18.75
 30
0.0
 40
0.8
100
AcDbArc
 50
0.0
 51
90.0
1001
ACAD
1000
RTMaterial
1005
0
  0
ARC
  5
5F45F
330
1F
100
AcDbEntity
  8
sk3
100
AcDbCircle
 10
29.19999999999993
 20
-18.75
 30
0.0
 40
0.8
100
AcDbArc
 50
270.0
 51
0.0
1001
ACAD
1000
RTMaterial
1005
0
  0
ARC
  5
5F460
330
1F
100
AcDbEntity
  8
sk3
100
AcDbCircle
 10
16.17735573009997
 20
-18.75
 30
0.0
 40
0.8
100
AcDbArc
 50
245.0000000000004
 51
270.0
1001
ACAD
1000
RTMaterial
1005
0
  0
ARC
  5
5F461
330
1F
100
AcDbEntity
  8
sk3
100
AcDbCircle
 10
16.17735573009997
 20
18.75
 30
0.0
 40
0.8
100
AcDbArc
 50
90.0
 51
114.9999999999996
1001
ACAD
1000
RTMaterial
1005
0
  0
ARC
  5
5F462
330
1F
100
AcDbEntity
  8
1
100
AcDbCircle
 10
54.50213247749991
 20
-49.71375116160004
 30
0.0
 40
0.8
100
AcDbArc
 50
84.99088595910073
 51
95.31333083059854
1001
ACAD
1000
RTMaterial
1005
0
  0
ARC
  5
5F463
330
1F
100
AcDbEntity
  8
sk3
100
AcDbCircle
 10
38.39999999999992
 20
-14.60000000000002
 30
0.0
 40
0.4
100
AcDbArc
 50
180.0
 51
270.0
1001
ACAD
1000
RTMaterial
1005
0
  0
ARC
  5
5F464
330
1F
100
AcDbEntity
  8
sk3
100
AcDbCircle
 10
38.39999999999992
 20
14.60000000000002
 30
0.0
 40
0.4
100
AcDbArc
 50
90.0
 51
180.0
1001
ACAD
1000
RTMaterial
1005
0
  0
ARC
  5
5F465
330
1F
100
AcDbEntity
  8
sk3
100
AcDbCircle
 10
30.39999999999992
 20
-10.39999999999998
 30
0.0
 40
0.4
100
AcDbArc
 50
90.0
 51
180.0
1001
ACAD
1000
RTMaterial
1005
0
  0
ARC
  5
5F466
330
1F
100
AcDbEntity
  8
sk3
100
AcDbCircle
 10
30.39999999999992
 20
10.39999999999998
 30
0.0
 40
0.4
100
AcDbArc
 50
180.0
 51
270.0
1001
ACAD
1000
RTMaterial
1005
0
  0
ARC
  5
5F467
330
1F
100
AcDbEntity
  8
nocut
100
AcDbCircle
 10
27.3282043525
 20
63.79669830020003
 30
0.0
 40
20.0
100
AcDbArc
 50
247.9999999999987
 51
286.9999999999985
1001
ACAD
1000
RTMaterial
1005
0
  0
ARC
  5
5F469
330
1F
100
AcDbEntity
  8
nocut
100
AcDbCircle
 10
48.99451001349996
 20
39.05000000000001
 30
0.0
 40
10.0
100
AcDbArc
 50
90.0
 51
106.9999999999985
1001
ACAD
1000
RTMaterial
1005
0
  0
ARC
  5
5F46C
330
1F
100
AcDbEntity
  8
nocut
100
AcDbCircle
 10
11.02809845429999
 20
43.41899999999998
 30
0.0
 40
5.0
100
AcDbArc
 50
67.99999999999866
 51
90.0
1001
ACAD
1000
RTMaterial
1005
0
  0
ARC
  5
5F46E
330
1F
100
AcDbEntity
  8
nocut
100
AcDbCircle
 10
2.0
 20
46.41899999999998
 30
0.0
 40
2.0
100
AcDbArc
 50
90.0
 51
180.0
1001
ACAD
1000
RTMaterial
1005
0
  0
SPLINE
  5
5F471
330
1F
100
AcDbEntity
  8
cut
100
AcDbSpline
210
0.0
220
0.0
230
1.0
 70
     8
 71
     3
 72
    22
 73
    18
 74
     0
 42
0.0000000001
 43
0.0000000001
 40
0.0
 40
0.0
 40
0.0
 40
0.0
 40
0.0666666667
 40
0.1333333333
 40
0.2
 40
0.2666666667
 40
0.3333333333
 40
0.4
 40
0.4666666667000001
 40
0.5333333333
 40
0.6
 40
0.6666666667
 40
0.7333333333
 40
0.8
 40
0.8666666667000001
 40
0.9333333333
 40
1.0
 40
1.0
 40
1.0
 40
1.0
 10
63.47384048889995
 20
41.81309149799995
 30
0.0
 10
63.47543832709999
 20
41.84123814209999
 30
0.0
 10
63.4784797826
 20
41.89704376209999
 30
0.0
 10
63.48253908059991
 20
41.97831128159998
 30
0.0
 10
63.48625878059994
 20
42.06006918949998
 30
0.0
 10
63.48969280859996
 20
42.14435173299995
 30
0.0
 10
63.49287163029993
 20
42.23306389189997
 30
0.0
 10
63.49569506839992
 20
42.32484198509996
 30
0.0
 10
63.4980970773999
 20
42.41855380859999
 30
0.0
 10
63.50003834049999
 20
42.51298642069997
 30
0.0
 10
63.50149700509991
 20
42.60702319269995
 30
0.0
 10
63.50245827199995
 20
42.69931408109999
 30
0.0
 10
63.50292848570001
 20
42.78868157030001
 30
0.0
 10
63.50294674439993
 20
42.87364684339997
 30
0.0
 10
63.50256814049993
 20
42.956082825
 30
0.0
 10
63.50181668489989
 20
43.03794161899992
 30
0.0
 10
63.50104381149998
 20
43.09431556589998
 30
0.0
 10
63.50058650509999
 20
43.12277063199997
 30
0.0
1001
ACAD
1000
RTMaterial
1005
0
  0
SPLINE
  5
5F472
330
1F
100
AcDbEntity
  8
cut
100
AcDbSpline
210
0.0
220
0.0
230
1.0
 70
     8
 71
     3
 72
    11
 73
     7
 74
     0
 42
0.0000000001
 43
0.0000000001
 40
0.0
 40
0.0
 40
0.0
 40
0.0
 40
0.25
 40
0.5
 40
0.75
 40
1.0
 40
1.0
 40
1.0
 40
1.0
 10
63.50000023460001
 20
43.15601146259996
 30
0.0
 10
63.49923035709998
 20
43.19205578899993
 30
0.0
 10
63.49529871579995
 20
43.26282324189998
 30
0.0
 10
63.48187254679993
 20
43.36552460649994
 30
0.0
 10
63.46223680579993
 20
43.46324037930003
 30
0.0
 10
63.44552746359994
 20
43.52511594309999
 30
0.0
 10
63.43637431679991
 20
43.55527764799996
 30
0.0
1001
ACAD
1000
RTMaterial
1005
0
  0
LINE
  5
5F473
330
1F
100
AcDbEntity
  8
cut
100
AcDbLine
 10
63.50058650509999
 20
43.12277063199997
 30
0.0
 11
63.50000023460001
 21
43.15601146259996
 31
0.0
1001
ACAD
1000
RTMaterial
1005
0
  0
SPLINE
  5
5F474
330
1F
100
AcDbEntity
  8
cut
100
AcDbSpline
210
0.0
220
0.0
230
1.0
 70
     8
 71
     3
 72
    11
 73
     7
 74
     0
 42
0.0000000001
 43
0.0000000001
 40
0.0
 40
0.0
 40
0.0
 40
0.0
 40
0.25
 40
0.5
 40
0.75
 40
1.0
 40
1.0
 40
1.0
 40
1.0
 10
56.24838147429994
 20
50.44457979769998
 30
0.0
 10
56.16748362959999
 20
50.43712223159997
 30
0.0
 10
55.99524441609998
 20
50.42189255049994
 30
0.0
 10
55.70411425819992
 20
50.39880426629998
 30
0.0
 10
55.38423011809999
 20
50.37666018019996
 30
0.0
 10
55.15043783789991
 20
50.36308691989995
 30
0.0
 10
55.02850851809995
 20
50.35680141249997
 30
0.0
1001
ACAD
1000
RTMaterial
1005
0
  0
SPLINE
  5
5F475
330
1F
100
AcDbEntity
  8
cut
100
AcDbSpline
210
0.0
220
0.0
230
1.0
 70
     8
 71
     3
 72
    10
 73
     6
 74
     0
 42
0.0000000001
 43
0.0000000001
 40
0.0
 40
0.0
 40
0.0
 40
0.0
 40
0.3333333333
 40
0.6666666667
 40
1.0
 40
1.0
 40
1.0
 40
1.0
 10
55.02850851809995
 20
50.35680141249997
 30
0.0
 10
54.9972825667
 20
50.35447354019999
 30
0.0
 10
54.9366053992
 20
50.34736336209999
 30
0.0
 10
54.85031553189998
 20
50.33008420899995
 30
0.0
 10
54.79697499369996
 20
50.31477840109999
 30
0.0
 10
54.77121398489993
 20
50.30628071879999
 30
0.0
1001
ACAD
1000
RTMaterial
1005
0
  0
SPLINE
  5
5F476
330
1F
100
AcDbEntity
  8
cut
100
AcDbSpline
210
0.0
220
0.0
230
1.0
 70
     8
 71
     3
 72
    10
 73
     6
 74
     0
 42
0.0000000001
 43
0.0000000001
 40
0.0
 40
0.0
 40
0.0
 40
0.0
 40
0.3333333333
 40
0.6666666667
 40
1.0
 40
1.0
 40
1.0
 40
1.0
 10
54.77121398489993
 20
50.30628071879999
 30
0.0
 10
54.76218900160001
 20
50.30330368309996
 30
0.0
 10
54.7442936761999
 20
50.29699259889998
 30
0.0
 10
54.71788525099992
 20
50.28642498419998
 30
0.0
 10
54.7006372637
 20
50.27867791970004
 30
0.0
 10
54.69209503629992
 20
50.27463040290001
 30
0.0
1001
ACAD
1000
RTMaterial
1005
0
  0
SPLINE
  5
5F477
330
1F
100
AcDbEntity
  8
cut
100
AcDbSpline
210
0.0
220
0.0
230
1.0
 70
     8
 71
     3
 72
    22
 73
    18
 74
     0
 42
0.0000000001
 43
0.0000000001
 40
0.0
 40
0.0
 40
0.0
 40
0.0
 40
0.0666666667
 40
0.1333333333
 40
0.2
 40
0.2666666667
 40
0.3333333333
 40
0.4
 40
0.4666666667000001
 40
0.5333333333
 40
0.6
 40
0.6666666667
 40
0.7333333333
 40
0.8
 40
0.8666666667000001
 40
0.9333333333
 40
1.0
 40
1.0
 40
1.0
 40
1.0
 10
54.69209503629992
 20
50.27463040290001
 30
0.0
 10
54.66764939579997
 20
50.2630474586
 30
0.0
 10
54.61924140709999
 20
50.23997604710001
 30
0.0
 10
54.54892626089992
 20
50.2060676181
 30
0.0
 10
54.47835194859994
 20
50.17164402329996
 30
0.0
 10
54.40577867709993
 20
50.13581444850001
 30
0.0
 10
54.32958209079998
 20
50.09772542389999
 30
0.0
 10
54.25096040519992
 20
50.05792023649997
 30
0.0
 10
54.17090113659998
 20
50.01686483040003
 30
0.0
 10
54.09044900049997
 20
49.97508601930002
 30
0.0
 10
54.0105562009
 20
49.93307941339998
 30
0.0
 10
53.9323669062
 20
49.89145280559995
 30
0.0
 10
53.85687125609996
 20
49.85075305179998
 30
0.0
 10
53.78529761009992
 20
49.8116935214
 30
0.0
 10
53.71604087959991
 20
49.77345867489998
 30
0.0
 10
53.64744415000001
 20
49.73517052909994
 30
0.0
 10
53.60032111919991
 20
49.7085835638
 30
0.0
 10
53.5765666193999
 20
49.69510609329995
 30
0.0
1001
ACAD
1000
RTMaterial
1005
0
  0
SPLINE
  5
5F478
330
1F
100
AcDbEntity
  8
cut
100
AcDbSpline
210
0.0
220
0.0
230
1.0
 70
     8
 71
     3
 72
    11
 73
     7
 74
     0
 42
0.0000000001
 43
0.0000000001
 40
0.0
 40
0.0
 40
0.0
 40
0.0
 40
0.25
 40
0.5
 40
0.75
 40
1.0
 40
1.0
 40
1.0
 40
1.0
 10
53.54884158429996
 20
49.67931466839996
 30
0.0
 10
53.52126599000001
 20
49.6635500388
 30
0.0
 10
53.46679721029994
 20
49.62981073869997
 30
0.0
 10
53.38661724939999
 20
49.57186340309999
 30
0.0
 10
53.30999948039999
 20
49.50788493639999
 30
0.0
 10
53.26108809679993
 20
49.46107687049994
 30
0.0
 10
53.2372318653999
 20
49.43660575809997
 30
0.0
1001
ACAD
1000
RTMaterial
1005
0
  0
LINE
  5
5F479
330
1F
100
AcDbEntity
  8
cut
100
AcDbLine
 10
53.5765666193999
 20
49.69510609329995
 30
0.0
 11
53.54884158429996
 21
49.67931466839996
 31
0.0
1001
ACAD
1000
RTMaterial
1005
0
  0
SPLINE
  5
5F47A
330
1F
100
AcDbEntity
  8
cut
100
AcDbSpline
210
0.0
220
0.0
230
1.0
 70
     8
 71
     3
 72
    21
 73
    17
 74
     0
 42
0.0000000001
 43
0.0000000001
 40
0.0
 40
0.0
 40
0.0
 40
0.0
 40
0.0714285714
 40
0.1428571429
 40
0.2142857143
 40
0.2857142857
 40
0.3571428571
 40
0.4285714286
 40
0.5
 40
0.5714285714000001
 40
0.6428571429
 40
0.7142857143000001
 40
0.7857142857
 40
0.8571428570999998
 40
0.9285714285999999
 40
1.0
 40
1.0
 40
1.0
 40
1.0
 10
53.2372318653999
 20
49.43660575809997
 30
0.0
 10
53.17831874629991
 20
49.37617418659994
 30
0.0
 10
53.0553251032
 20
49.25003041960002
 30
0.0
 10
52.85610136639997
 20
49.0457850185
 30
0.0
 10
52.63979299649992
 20
48.8241169167
 30
0.0
 10
52.40530315359996
 20
48.58392816019994
 30
0.0
 10
52.15156428719996
 20
48.32415508280002
 30
0.0
 10
51.87759688069997
 20
48.04382882229998
 30
0.0
 10
51.58045454289998
 20
47.73997740879997
 30
0.0
 10
51.25875615299998
 20
47.411239567
 30
0.0
 10
50.91068227
 20
47.05581671869992
 30
0.0
 10
50.53449654959996
 20
46.67200883649996
 30
0.0
 10
50.12845428669999
 20
46.25812222329995
 30
0.0
 10
49.6907511414999
 20
45.81242024299996
 30
0.0
 10
49.21983711559988
 20
45.33344519769997
 30
0.0
 10
48.88209323039991
 20
44.99035415079993
 30
0.0
 10
48.70739137949994
 20
44.8130154561
 30
0.0
1001
ACAD
1000
RTMaterial
1005
0
  0
SPLINE
  5
5F47B
330
1F
100
AcDbEntity
  8
cut
100
AcDbSpline
210
0.0
220
0.0
230
1.0
 70
     8
 71
     3
 72
    16
 73
    12
 74
     0
 42
0.0000000001
 43
0.0000000001
 40
0.0
 40
0.0
 40
0.0
 40
0.0
 40
0.1111111111
 40
0.2222222222
 40
0.3333333333
 40
0.4444444444000001
 40
0.5555555556
 40
0.6666666667
 40
0.7777777778
 40
0.8888888889
 40
1.0
 40
1.0
 40
1.0
 40
1.0
 10
48.70739137949994
 20
44.8130154561
 30
0.0
 10
48.68285524489994
 20
44.78810898789999
 30
0.0
 10
48.6355560135999
 20
44.73631119829997
 30
0.0
 10
48.56940729669992
 20
44.65175511899992
 30
0.0
 10
48.51001333709991
 20
44.56266221309999
 30
0.0
 10
48.45707628019994
 20
44.46901082570002
 30
0.0
 10
48.41107595349996
 20
44.37096184609998
 30
0.0
 10
48.37239292139992
 20
44.26961279159996
 30
0.0
 10
48.34106320059999
 20
44.16518587329995
 30
0.0
 10
48.317307276
 20
44.0579900267
 30
0.0
 10
48.30677991069996
 20
43.98564443559997
 30
0.0
 10
48.30283569269994
 20
43.94916937769994
 30
0.0
1001
ACAD
1000
RTMaterial
1005
0
  0
LINE
  5
5F47C
330
1F
100
AcDbEntity
  8
cut
100
AcDbLine
 10
48.30283569269994
 20
43.94916937769994
 30
0.0
 11
48.29980660149994
 21
43.91816166149993
 31
0.0
1001
ACAD
1000
RTMaterial
1005
0
  0
LINE
  5
5F47D
330
1F
100
AcDbEntity
  8
cut
100
AcDbLine
 10
48.29980660149994
 20
43.91816166149993
 30
0.0
 11
48.29850311489991
 21
43.88663269939996
 31
0.0
1001
ACAD
1000
RTMaterial
1005
0
  0
SPLINE
  5
5F47E
330
1F
100
AcDbEntity
  8
cut
100
AcDbSpline
210
0.0
220
0.0
230
1.0
 70
     8
 71
     3
 72
    10
 73
     6
 74
     0
 42
0.0000000001
 43
0.0000000001
 40
0.0
 40
0.0
 40
0.0
 40
0.0
 40
0.3333333333
 40
0.6666666667
 40
1.0
 40
1.0
 40
1.0
 40
1.0
 10
48.29850311489991
 20
43.88663269939996
 30
0.0
 10
48.29765323800001
 20
43.85907096939996
 30
0.0
 10
48.29749363149989
 20
43.80427687140001
 30
0.0
 10
48.3016672009
 20
43.72279920239998
 30
0.0
 10
48.30733882549992
 20
43.66951987970003
 30
0.0
 10
48.31086566769994
 20
43.6430882706
 30
0.0
1001
ACAD
1000
RTMaterial
1005
0
  0
SPLINE
  5
5F47F
330
1F
100
AcDbEntity
  8
cut
100
AcDbSpline
210
0.0
220
0.0
230
1.0
 70
     8
 71
     3
 72
    15
 73
    11
 74
     0
 42
0.0000000001
 43
0.0000000001
 40
0.0
 40
0.0
 40
0.0
 40
0.0
 40
0.125
 40
0.25
 40
0.375
 40
0.5
 40
0.625
 40
0.75
 40
0.875
 40
1.0
 40
1.0
 40
1.0
 40
1.0
 10
48.31086566769994
 20
43.6430882706
 30
0.0
 10
48.31476417029995
 20
43.61387128489996
 30
0.0
 10
48.32432187929993
 20
43.55570466599999
 30
0.0
 10
48.34426699539989
 20
43.46858964829993
 30
0.0
 10
48.3695174867999
 20
43.38370098140001
 30
0.0
 10
48.40003496129992
 20
43.30018034909994
 30
0.0
 10
48.43574366889999
 20
43.21891639129995
 30
0.0
 10
48.47675034209993
 20
43.13995143619997
 30
0.0
 10
48.5228079048
 20
43.06359284669997
 30
0.0
 10
48.55650096919993
 20
43.01498378709999
 30
0.0
 10
48.57413048159997
 20
42.99121007460001
 30
0.0
1001
ACAD
1000
RTMaterial
1005
0
  0
SPLINE
  5
5F480
330
1F
100
AcDbEntity
  8
cut
100
AcDbSpline
210
0.0
220
0.0
230
1.0
 70
     8
 71
     3
 72
    17
 73
    13
 74
     0
 42
0.0000000001
 43
0.0000000001
 40
0.0
 40
0.0
 40
0.0
 40
0.0
 40
0.1
 40
0.2
 40
0.3
 40
0.4
 40
0.5
 40
0.6
 40
0.7
 40
0.8
 40
0.9
 40
1.0
 40
1.0
 40
1.0
 40
1.0
 10
48.57413048159997
 20
42.99121007460001
 30
0.0
 10
48.6241322248
 20
42.92378183070002
 30
0.0
 10
48.72824087599991
 20
42.78339860409994
 30
0.0
 10
48.8961459619
 20
42.55701895479996
 30
0.0
 10
49.07752116469993
 20
42.31251409790002
 30
0.0
 10
49.27273128579992
 20
42.04940181669996
 30
0.0
 10
49.48259990089997
 20
41.76658149000002
 30
0.0
 10
49.70935566109989
 20
41.46106359459998
 30
0.0
 10
49.95418611679991
 20
41.13126354009994
 30
0.0
 10
50.21858817869992
 20
40.77518372540004
 30
0.0
 10
50.50376289969989
 20
40.39122953349999
 30
0.0
 10
50.70902521009992
 20
40.11494873679999
 30
0.0
 10
50.81533796629997
 20
39.97187696129998
 30
0.0
1001
ACAD
1000
RTMaterial
1005
0
  0
SPLINE
  5
5F481
330
1F
100
AcDbEntity
  8
cut
100
AcDbSpline
210
0.0
220
0.0
230
1.0
 70
     8
 71
     3
 72
    11
 73
     7
 74
     0
 42
0.0000000001
 43
0.0000000001
 40
0.0
 40
0.0
 40
0.0
 40
0.0
 40
0.25
 40
0.5
 40
0.75
 40
1.0
 40
1.0
 40
1.0
 40
1.0
 10
50.81533796629997
 20
39.97187696129998
 30
0.0
 10
50.86442791529993
 20
39.9058135235
 30
0.0
 10
50.96855226519989
 20
39.76602834649992
 30
0.0
 10
51.14358571459996
 20
39.53243344970002
 30
0.0
 10
51.33523521289993
 20
39.27834965259996
 30
0.0
 10
51.47507186419995
 20
39.09433655039999
 30
0.0
 10
51.54799208919991
 20
38.99880558339999
 30
0.0
1001
ACAD
1000
RTMaterial
1005
0
  0
SPLINE
  5
5F482
330
1F
100
AcDbEntity
  8
cut
100
AcDbSpline
210
0.0
220
0.0
230
1.0
 70
     8
 71
     3
 72
    10
 73
     6
 74
     0
 42
0.0000000001
 43
0.0000000001
 40
0.0
 40
0.0
 40
0.0
 40
0.0
 40
0.3333333333
 40
0.6666666667
 40
1.0
 40
1.0
 40
1.0
 40
1.0
 10
51.54799208919991
 20
38.99880558339999
 30
0.0
 10
51.56731258389999
 20
38.97471654750001
 30
0.0
 10
51.60717637059992
 20
38.92896815680001
 30
0.0
 10
51.67051264959997
 20
38.86684955679999
 30
0.0
 10
51.71411851340002
 20
38.8303511213
 30
0.0
 10
51.73627815459991
 20
38.81319129309998
 30
0.0
1001
ACAD
1000
RTMaterial
1005
0
  0
SPLINE
  5
5F483
330
1F
100
AcDbEntity
  8
cut
100
AcDbSpline
210
0.0
220
0.0
230
1.0
 70
     8
 71
     3
 72
    10
 73
     6
 74
     0
 42
0.0000000001
 43
0.0000000001
 40
0.0
 40
0.0
 40
0.0
 40
0.0
 40
0.3333333333
 40
0.6666666667
 40
1.0
 40
1.0
 40
1.0
 40
1.0
 10
51.73627815459991
 20
38.81319129309998
 30
0.0
 10
51.74389934149991
 20
38.80728965169999
 30
0.0
 10
51.75939967819994
 20
38.79575320589998
 30
0.0
 10
51.78346959679998
 20
38.77925369309997
 30
0.0
 10
51.80001092549997
 20
38.76883247929999
 30
0.0
 10
51.80840894269994
 20
38.76376198180003
 30
0.0
1001
ACAD
1000
RTMaterial
1005
0
  0
SPLINE
  5
5F484
330
1F
100
AcDbEntity
  8
cut
100
AcDbSpline
210
0.0
220
0.0
230
1.0
 70
     8
 71
     3
 72
    22
 73
    18
 74
     0
 42
0.0000000001
 43
0.0000000001
 40
0.0
 40
0.0
 40
0.0
 40
0.0
 40
0.0666666667
 40
0.1333333333
 40
0.2
 40
0.2666666667
 40
0.3333333333
 40
0.4
 40
0.4666666667000001
 40
0.5333333333
 40
0.6
 40
0.6666666667
 40
0.7333333333
 40
0.8
 40
0.8666666667000001
 40
0.9333333333
 40
1.0
 40
1.0
 40
1.0
 40
1.0
 10
51.80840894269994
 20
38.76376198180003
 30
0.0
 10
51.83236459589995
 20
38.74929820089994
 30
0.0
 10
51.87991786059996
 20
38.72072861579994
 30
0.0
 10
51.94933668109996
 20
38.67943791390002
 30
0.0
 10
52.01933563389997
 20
38.63820911149992
 30
0.0
 10
52.0916751158
 20
38.59604762499998
 30
0.0
 10
52.16801050149996
 20
38.55204106829996
 30
0.0
 10
52.24719152519998
 20
38.50690899949995
 30
0.0
 10
52.32825556149993
 20
38.46123395780001
 30
0.0
 10
52.41015931719999
 20
38.41561256649993
 30
0.0
 10
52.49193279289994
 20
38.37058369390002
 30
0.0
 10
52.57239725929998
 20
38.32678920140001
 30
0.0
 10
52.65051647439992
 20
38.28477217279999
 30
0.0
 10
52.72497498449997
 20
38.24518864250001
 30
0.0
 10
52.79739172579997
 20
38.20711839199999
 30
0.0
 10
52.86946860569997
 20
38.16963095019998
 30
0.0
 10
52.9192222876
 20
38.14402800189993
 30
0.0
 10
52.94436606729999
 20
38.13116108720004
 30
0.0
1001
ACAD
1000
RTMaterial
1005
0
  0
LINE
  5
5F485
330
1F
100
AcDbEntity
  8
cut
100
AcDbLine
 10
52.94436606729999
 20
38.13116108720004
 30
0.0
 11
52.9738076401
 21
38.11608515929999
 31
0.0
1001
ACAD
1000
RTMaterial
1005
0
  0
SPLINE
  5
5F486
330
1F
100
AcDbEntity
  8
cut
100
AcDbSpline
210
0.0
220
0.0
230
1.0
 70
     8
 71
     3
 72
    10
 73
     6
 74
     0
 42
0.0000000001
 43
0.0000000001
 40
0.0
 40
0.0
 40
0.0
 40
0.0
 40
0.3333333333
 40
0.6666666667
 40
1.0
 40
1.0
 40
1.0
 40
1.0
 10
52.9738076401
 20
38.11608515929999
 30
0.0
 10
53.01418313649998
 20
38.09539388369996
 30
0.0
 10
53.09629283719999
 20
38.05714488949997
 30
0.0
 10
53.22417002779997
 20
38.00883253699999
 30
0.0
 10
53.31114552609989
 20
37.98306168689993
 30
0.0
 10
53.35518923329999
 20
37.97177910419998
 30
0.0
1001
ACAD
1000
RTMaterial
1005
0
  0
SPLINE
  5
5F487
330
1F
100
AcDbEntity
  8
cut
100
AcDbSpline
210
0.0
220
0.0
230
1.0
 70
     8
 71
     3
 72
    21
 73
    17
 74
     0
 42
0.0000000001
 43
0.0000000001
 40
0.0
 40
0.0
 40
0.0
 40
0.0
 40
0.0714285714
 40
0.1428571429
 40
0.2142857143
 40
0.2857142857
 40
0.3571428571
 40
0.4285714286
 40
0.5
 40
0.5714285714000001
 40
0.6428571429
 40
0.7142857143000001
 40
0.7857142857
 40
0.8571428570999998
 40
0.9285714285999999
 40
1.0
 40
1.0
 40
1.0
 40
1.0
 10
53.35518923329999
 20
37.97177910419998
 30
0.0
 10
53.43913716909998
 20
37.95027434009995
 30
0.0
 10
53.61462466599999
 20
37.90532172849998
 30
0.0
 10
53.89962261059991
 20
37.83231876820003
 30
0.0
 10
54.20941025729991
 20
37.75297017470001
 30
0.0
 10
54.5453507716
 20
37.66692730729995
 30
0.0
 10
54.90865107819996
 20
37.57388229299994
 30
0.0
 10
55.30055494819993
 20
37.47351818799996
 30
0.0
 10
55.72497708169994
 20
37.36483352939996
 30
0.0
 10
56.18362533390001
 20
37.24739327129999
 30
0.0
 10
56.67883516139994
 20
37.12060171720003
 30
0.0
 10
57.21280433999999
 20
36.98389856569998
 30
0.0
 10
57.78773748659995
 20
36.83672233890002
 30
0.0
 10
58.40590071849994
 20
36.67849649659996
 30
0.0
 10
59.06921788529991
 20
36.50873268099997
 30
0.0
 10
59.54361916469991
 20
36.3873336936
 30
0.0
 10
59.78869359389995
 20
36.3246237189
 30
0.0
1001
ACAD
1000
RTMaterial
1005
0
  0
SPLINE
  5
5F488
330
1F
100
AcDbEntity
  8
cut
100
AcDbSpline
210
0.0
220
0.0
230
1.0
 70
     8
 71
     3
 72
    15
 73
    11
 74
     0
 42
0.0000000001
 43
0.0000000001
 40
0.0
 40
0.0
 40
0.0
 40
0.0
 40
0.125
 40
0.25
 40
0.375
 40
0.5
 40
0.625
 40
0.75
 40
0.875
 40
1.0
 40
1.0
 40
1.0
 40
1.0
 10
59.78869359389995
 20
36.3246237189
 30
0.0
 10
59.83340758769992
 20
36.31318224189994
 30
0.0
 10
59.9215748169999
 20
36.29408656999999
 30
0.0
 10
60.05069861169994
 20
36.27604025189993
 30
0.0
 10
60.1739906262
 20
36.26798596419997
 30
0.0
 10
60.29290661819999
 20
36.26928431210001
 30
0.0
 10
60.40653598429997
 20
36.27932550839995
 30
0.0
 10
60.51523276889992
 20
36.29741603519994
 30
0.0
 10
60.6192547448
 20
36.32322190389999
 30
0.0
 10
60.68503795549992
 20
36.34522442049996
 30
0.0
 10
60.71710647599997
 20
36.35737304579993
 30
0.0
1001
ACAD
1000
RTMaterial
1005
0
  0
SPLINE
  5
5F489
330
1F
100
AcDbEntity
  8
cut
100
AcDbSpline
210
0.0
220
0.0
230
1.0
 70
     8
 71
     3
 72
    10
 73
     6
 74
     0
 42
0.0000000001
 43
0.0000000001
 40
0.0
 40
0.0
 40
0.0
 40
0.0
 40
0.3333333333
 40
0.6666666667
 40
1.0
 40
1.0
 40
1.0
 40
1.0
 10
60.71710647599997
 20
36.35737304579993
 30
0.0
 10
60.7231597608
 20
36.359666232
 30
0.0
 10
60.73513931949998
 20
36.36439028069998
 30
0.0
 10
60.75273609070001
 20
36.37189287680002
 30
0.0
 10
60.76420468129999
 20
36.37715812019997
 30
0.0
 10
60.76987613169996
 20
36.37985439829993
 30
0.0
1001
ACAD
1000
RTMaterial
1005
0
  0
SPLINE
  5
5F48A
330
1F
100
AcDbEntity
  8
cut
100
AcDbSpline
210
0.0
220
0.0
230
1.0
 70
     8
 71
     3
 72
    10
 73
     6
 74
     0
 42
0.0000000001
 43
0.0000000001
 40
0.0
 40
0.0
 40
0.0
 40
0.0
 40
0.3333333333
 40
0.6666666667
 40
1.0
 40
1.0
 40
1.0
 40
1.0
 10
60.76987613169996
 20
36.37985439829993
 30
0.0
 10
60.7928278030999
 20
36.39076590869996
 30
0.0
 10
60.83735762959992
 20
36.41364583699999
 30
0.0
 10
60.9004317738
 20
36.4509653614
 30
0.0
 10
60.93954579769996
 20
36.4774627361
 30
0.0
 10
60.95844612399997
 20
36.4910933452
 30
0.0
1001
ACAD
1000
RTMaterial
1005
0
  0
SPLINE
  5
5F48B
330
1F
100
AcDbEntity
  8
cut
100
AcDbSpline
210
0.0
220
0.0
230
1.0
 70
     8
 71
     3
 72
    15
 73
    11
 74
     0
 42
0.0000000001
 43
0.0000000001
 40
0.0
 40
0.0
 40
0.0
 40
0.0
 40
0.125
 40
0.25
 40
0.375
 40
0.5
 40
0.625
 40
0.75
 40
0.875
 40
1.0
 40
1.0
 40
1.0
 40
1.0
 10
60.95844612399997
 20
36.4910933452
 30
0.0
 10
60.98045231969996
 20
36.50696385699996
 30
0.0
 10
61.02317320849994
 20
36.54015440809997
 30
0.0
 10
61.08373739059999
 20
36.59450921089996
 30
0.0
 10
61.13989579459991
 20
36.65251753259997
 30
0.0
 10
61.19271108519996
 20
36.71468987459997
 30
0.0
 10
61.24185990179995
 20
36.78094712699999
 30
0.0
 10
61.28704398789995
 20
36.85095616069998
 30
0.0
 10
61.32815035120001
 20
36.92414844489997
 30
0.0
 10
61.35268522639996
 20
36.97457573720004
 30
0.0
 10
61.36426485989995
 20
37.00023064999999
 30
0.0
1001
ACAD
1000
RTMaterial
1005
0
  0
SPLINE
  5
5F48C
330
1F
100
AcDbEntity
  8
cut
100
AcDbSpline
210
0.0
220
0.0
230
1.0
 70
     8
 71
     3
 72
    16
 73
    12
 74
     0
 42
0.0000000001
 43
0.0000000001
 40
0.0
 40
0.0
 40
0.0
 40
0.0
 40
0.1111111111
 40
0.2222222222
 40
0.3333333333
 40
0.4444444444000001
 40
0.5555555556
 40
0.6666666667
 40
0.7777777778
 40
0.8888888889
 40
1.0
 40
1.0
 40
1.0
 40
1.0
 10
61.36426485989995
 20
37.00023064999999
 30
0.0
 10
61.40169419019997
 20
37.08315609009998
 30
0.0
 10
61.48021126609996
 20
37.25716115789999
 30
0.0
 10
61.60887739929996
 20
37.54247692540003
 30
0.0
 10
61.74863355329995
 20
37.85258872790001
 30
0.0
 10
61.8998610964
 20
38.18838729279998
 30
0.0
 10
62.06419639809991
 20
38.55355772129997
 30
0.0
 10
62.24236782199994
 20
38.9497792336
 30
0.0
 10
62.4354166151
 20
39.3794325225
 30
0.0
 10
62.64412657819997
 20
39.84433507709997
 30
0.0
 10
62.79458774429992
 20
40.17978464419996
 30
0.0
 10
62.87256837879994
 20
40.35372322619998
 30
0.0
1001
ACAD
1000
RTMaterial
1005
0
  0
SPLINE
  5
5F48D
330
1F
100
AcDbEntity
  8
cut
100
AcDbSpline
210
0.0
220
0.0
230
1.0
 70
     8
 71
     3
 72
    11
 73
     7
 74
     0
 42
0.0000000001
 43
0.0000000001
 40
0.0
 40
0.0
 40
0.0
 40
0.0
 40
0.25
 40
0.5
 40
0.75
 40
1.0
 40
1.0
 40
1.0
 40
1.0
 10
62.87256837879994
 20
40.35372322619998
 30
0.0
 10
62.90592133439992
 20
40.42811818129997
 30
0.0
 10
62.97715503
 20
40.58624676229993
 30
0.0
 10
63.09848408099998
 20
40.85256339070002
 30
0.0
 10
63.23290720129995
 20
41.14409764079994
 30
0.0
 10
63.3320622265
 20
41.35641324179999
 30
0.0
 10
63.38404129409997
 20
41.46692569009997
 30
0.0
1001
ACAD
1000
RTMaterial
1005
0
  0
SPLINE
  5
5F48E
330
1F
100
AcDbEntity
  8
cut
100
AcDbSpline
210
0.0
220
0.0
230
1.0
 70
     8
 71
     3
 72
    10
 73
     6
 74
     0
 42
0.0000000001
 43
0.0000000001
 40
0.0
 40
0.0
 40
0.0
 40
0.0
 40
0.3333333333
 40
0.6666666667
 40
1.0
 40
1.0
 40
1.0
 40
1.0
 10
63.38404129409997
 20
41.46692569009997
 30
0.0
 10
63.39697467809997
 20
41.49617011309999
 30
0.0
 10
63.41989132279997
 20
41.554396247
 30
0.0
 10
63.44629177399991
 20
41.6411589374
 30
0.0
 10
63.45858605339998
 20
41.6974165217
 30
0.0
 10
63.4635500089999
 20
41.72522370500002
 30
0.0
1001
ACAD
1000
RTMaterial
1005
0
  0
SPLINE
  5
5F48F
330
1F
100
AcDbEntity
  8
cut
100
AcDbSpline
210
0.0
220
0.0
230
1.0
 70
     8
 71
     3
 72
    10
 73
     6
 74
     0
 42
0.0000000001
 43
0.0000000001
 40
0.0
 40
0.0
 40
0.0
 40
0.0
 40
0.3333333333
 40
0.6666666667
 40
1.0
 40
1.0
 40
1.0
 40
1.0
 10
63.4635500089999
 20
41.72522370500002
 30
0.0
 10
63.46467850149991
 20
41.7315453164
 30
0.0
 10
63.46680679359991
 20
41.74412860809996
 30
0.0
 10
63.469599931
 20
41.76269594769997
 30
0.0
 10
63.4712390846999
 20
41.77512171680001
 30
0.0
 10
63.47199999949992
 20
41.78132535329996
 30
0.0
1001
ACAD
1000
RTMaterial
1005
0
  0
LINE
  5
5F490
330
1F
100
AcDbEntity
  8
cut
100
AcDbLine
 10
63.47199999949992
 20
41.78132535329996
 30
0.0
 11
63.47384048889995
 21
41.81309149799995
 31
0.0
1001
ACAD
1000
RTMaterial
1005
0
  0
SPLINE
  5
5F4A1
330
1F
100
AcDbEntity
  8
1
100
AcDbSpline
210
0.0
220
0.0
230
1.0
 70
     8
 71
     3
 72
    15
 73
    11
 74
     0
 42
0.0000000001
 43
0.0000000001
 40
0.0
 40
0.0
 40
0.0
 40
0.0
 40
0.1248035261
 40
0.2496613061
 40
0.3746006319
 40
0.499629273
 40
0.6247274788000001
 40
0.7498557666
 40
0.8749517093000001
 40
1.0
 40
1.0
 40
1.0
 40
1.0
 10
55.17838032409992
 20
43.92289709890002
 30
0.0
 10
55.14783736549992
 20
43.9271715122
 30
0.0
 10
55.08516764019993
 20
43.92704386369996
 30
0.0
 10
54.99520373159993
 20
43.90065601209999
 30
0.0
 10
54.9160356170999
 20
43.85021117019999
 30
0.0
 10
54.85400880549997
 20
43.77969300379999
 30
0.0
 10
54.81398861509996
 20
43.694680876
 30
0.0
 10
54.79915791949991
 20
43.6018684718
 30
0.0
 10
54.81061583059994
 20
43.50865857860003
 30
0.0
 10
54.8353248352999
 20
43.45094074169998
 30
0.0
 10
54.8513478518999
 20
43.42451839720001
 30
0.0
1001
ACAD
1000
RTMaterial
1005
0
  0
SPLINE
  5
5F4A3
330
1F
100
AcDbEntity
  8
1
100
AcDbSpline
210
0.0
220
0.0
230
1.0
 70
     8
 71
     3
 72
    15
 73
    11
 74
     0
 42
0.0000000001
 43
0.0000000001
 40
0.0
 40
0.0
 40
0.0
 40
0.0
 40
0.1249745627
 40
0.2500150505
 40
0.3751191411999999
 40
0.5002276074000001
 40
0.6252937521000001
 40
0.7502820067
 40
0.8751804444999999
 40
1.0
 40
1.0
 40
1.0
 40
1.0
 10
54.58167461649992
 20
42.2949175096
 30
0.0
 10
54.55555894439993
 20
42.27867172019995
 30
0.0
 10
54.50763141399995
 20
42.23857457949998
 30
0.0
 10
54.45539850509994
 20
42.16104867640001
 30
0.0
 10
54.42656800509991
 20
42.07202321229994
 30
0.0
 10
54.42349063079991
 20
41.97850328909999
 30
0.0
 10
54.44637647579992
 20
41.88780364140001
 30
0.0
 10
54.49346557140001
 20
41.80701822009996
 30
0.0
 10
54.56098900879993
 20
41.74251135040004
 30
0.0
 10
54.61633388029992
 20
41.71364985820003
 30
0.0
 10
54.64529149139997
 20
41.70339970399993
 30
0.0
1001
ACAD
1000
RTMaterial
1005
0
  0
SPLINE
  5
5F4A4
330
1F
100
AcDbEntity
  8
1
100
AcDbSpline
210
0.0
220
0.0
230
1.0
 70
     8
 71
     3
 72
     8
 73
     4
 74
     0
 42
0.0000000001
 43
0.0000000001
 40
0.0
 40
0.0
 40
0.0
 40
0.0
 40
1.0
 40
1.0
 40
1.0
 40
1.0
 10
54.64529149139997
 20
41.70339970399993
 30
0.0
 10
54.66601284099994
 20
41.69606494739997
 30
0.0
 10
54.687581889
 20
41.69079399919996
 30
0.0
 10
54.70935145059996
 20
41.68775111049995
 30
0.0
1001
ACAD
1000
RTMaterial
1005
0
  0
SPLINE
  5
5F4A5
330
1F
100
AcDbEntity
  8
1
100
AcDbSpline
210
0.0
220
0.0
230
1.0
 70
     8
 71
     3
 72
    15
 73
    11
 74
     0
 42
0.0000000001
 43
0.0000000001
 40
0.0
 40
0.0
 40
0.0
 40
0.0
 40
0.1251602541
 40
0.2502837245
 40
0.3753592817
 40
0.5003790434000001
 40
0.6253432712000001
 40
0.7502586988
 40
0.8751367873999999
 40
1.0
 40
1.0
 40
1.0
 40
1.0
 10
55.60329743629989
 20
40.88643720159995
 30
0.0
 10
55.60179923509991
 20
40.93446608589994
 30
0.0
 10
55.59038183009994
 20
41.03045814389997
 30
0.0
 10
55.54853007959997
 20
41.16908907939995
 30
0.0
 10
55.48322607949995
 20
41.29832771439993
 30
0.0
 10
55.39646241219992
 20
41.41416794180003
 30
0.0
 10
55.29089286729998
 20
41.5130842538
 30
0.0
 10
55.16972643919991
 20
41.5920503511
 30
0.0
 10
55.03672157119996
 20
41.6486440429
 30
0.0
 10
54.94272535219995
 20
41.67033014719999
 30
0.0
 10
54.89524918949991
 20
41.6769698292
 30
0.0
1001
ACAD
1000
RTMaterial
1005
0
  0
SPLINE
  5
5F4A6
330
1F
100
AcDbEntity
  8
1
100
AcDbSpline
210
0.0
220
0.0
230
1.0
 70
     8
 71
     3
 72
    11
 73
     7
 74
     0
 42
0.0000000001
 43
0.0000000001
 40
0.0
 40
0.0
 40
0.0
 40
0.0
 40
0.2502996486
 40
0.5003874572
 40
0.7502656923000001
 40
1.0
 40
1.0
 40
1.0
 40
1.0
 10
55.60329743629989
 20
40.88643720159995
 30
0.0
 10
55.6044915096
 20
40.8481579589
 30
0.0
 10
55.62045373079996
 20
40.77138887089995
 30
0.0
 10
55.68224356879994
 20
40.6719367252
 30
0.0
 10
55.77424018259995
 20
40.59964090239998
 30
0.0
 10
55.84872234789992
 20
40.57546666320002
 30
0.0
 10
55.88656510419998
 20
40.57017196279997
 30
0.0
1001
ACAD
1000
RTMaterial
1005
0
  0
SPLINE
  5
5F4A7
330
1F
100
AcDbEntity
  8
1
100
AcDbSpline
210
0.0
220
0.0
230
1.0
 70
     8
 71
     3
 72
     9
 73
     5
 74
     0
 42
0.0000000001
 43
0.0000000001
 40
0.0
 40
0.0
 40
0.0
 40
0.0
 40
0.5000427267000001
 40
1.0
 40
1.0
 40
1.0
 40
1.0
 10
57.33148275889999
 20
41.07002338220001
 30
0.0
 10
57.28889307849994
 20
41.0928948989
 30
0.0
 10
57.19949889269997
 20
41.13117416070003
 30
0.0
 10
57.1047554571
 20
41.15309425859999
 30
0.0
 10
57.05688746789991
 20
41.15979083149994
 30
0.0
1001
ACAD
1000
RTMaterial
1005
0
  0
SPLINE
  5
5F4A8
330
1F
100
AcDbEntity
  8
1
100
AcDbSpline
210
0.0
220
0.0
230
1.0
 70
     8
 71
     3
 72
     9
 73
     5
 74
     0
 42
0.0000000001
 43
0.0000000001
 40
0.0
 40
0.0
 40
0.0
 40
0.0
 40
0.7495490479000001
 40
1.0
 40
1.0
 40
1.0
 40
1.0
 10
57.33148275889999
 20
41.07002338220001
 30
0.0
 10
57.3569984117999
 20
41.05632096229993
 30
0.0
 10
57.39374088409994
 20
41.04248300589995
 30
0.0
 10
57.43175567549991
 20
41.03545152199996
 30
0.0
 10
57.44133955419994
 20
41.0341102813
 30
0.0
1001
ACAD
1000
RTMaterial
1005
0
  0
SPLINE
  5
5F4A9
330
1F
100
AcDbEntity
  8
1
100
AcDbSpline
210
0.0
220
0.0
230
1.0
 70
     8
 71
     3
 72
    15
 73
    11
 74
     0
 42
0.0000000001
 43
0.0000000001
 40
0.0
 40
0.0
 40
0.0
 40
0.0
 40
0.1249035286
 40
0.2498597456
 40
0.3748744754
 40
0.4999215358
 40
0.6249805071
 40
0.7500291854000001
 40
0.8750362872
 40
1.0
 40
1.0
 40
1.0
 40
1.0
 10
54.58167461649992
 20
42.2949175096
 30
0.0
 10
54.62712916269999
 20
42.32319344209997
 30
0.0
 10
54.71275478649994
 20
42.38883641220001
 30
0.0
 10
54.81950147219999
 20
42.51021362250003
 30
0.0
 10
54.90079789319992
 20
42.65005954320002
 30
0.0
 10
54.95348079569993
 20
42.80303015739997
 30
0.0
 10
54.97557978059996
 20
42.96331659439994
 30
0.0
 10
54.96623010369996
 20
43.12484584509997
 30
0.0
 10
54.9258405489
 20
43.28142060850001
 30
0.0
 10
54.87911880780001
 20
43.37872341500002
 30
0.0
 10
54.8513478518999
 20
43.42451839720001
 30
0.0
1001
ACAD
1000
RTMaterial
1005
0
  0
SPLINE
  5
5F4AA
330
1F
100
AcDbEntity
  8
1
100
AcDbSpline
210
0.0
220
0.0
230
1.0
 70
     8
 71
     3
 72
    11
 73
     7
 74
     0
 42
0.0000000001
 43
0.0000000001
 40
0.0
 40
0.0
 40
0.0
 40
0.0
 40
0.2497812734
 40
0.4996706779000001
 40
0.7497377359000001
 40
1.0
 40
1.0
 40
1.0
 40
1.0
 10
55.5628324105
 20
43.79721654879995
 30
0.0
 10
55.6446174569
 20
43.78577509199999
 30
0.0
 10
55.8127988498
 20
43.78779682309999
 30
0.0
 10
56.0519096914
 20
43.86596005029997
 30
0.0
 10
56.25713000749994
 20
44.01171151879998
 30
0.0
 10
56.35907260209996
 20
44.14573990009995
 30
0.0
 10
56.39873652629995
 20
44.2183536993
 30
0.0
1001
ACAD
1000
RTMaterial
1005
0
  0
SPLINE
  5
5F4AB
330
1F
100
AcDbEntity
  8
1
100
AcDbSpline
210
0.0
220
0.0
230
1.0
 70
     8
 71
     3
 72
    11
 73
     7
 74
     0
 42
0.0000000001
 43
0.0000000001
 40
0.0
 40
0.0
 40
0.0
 40
0.0
 40
0.2497807494
 40
0.499671638
 40
0.7497263809
 40
1.0
 40
1.0
 40
1.0
 40
1.0
 10
56.7331547741
 20
44.38683541739999
 30
0.0
 10
56.70043538249996
 20
44.39141329169996
 30
0.0
 10
56.63315113739992
 20
44.39060592299995
 30
0.0
 10
56.53749256759994
 20
44.35933438059999
 30
0.0
 10
56.45538945779998
 20
44.30102595540001
 30
0.0
 10
56.41460549099992
 20
44.24740543429999
 30
0.0
 10
56.39873652629995
 20
44.2183536993
 30
0.0
1001
ACAD
1000
RTMaterial
1005
0
  0
SPLINE
  5
5F4AC
330
1F
100
AcDbEntity
  8
1
100
AcDbSpline
210
0.0
220
0.0
230
1.0
 70
     8
 71
     3
 72
     8
 73
     4
 74
     0
 42
0.0000000001
 43
0.0000000001
 40
0.0
 40
0.0
 40
0.0
 40
0.0
 40
1.0
 40
1.0
 40
1.0
 40
1.0
 10
57.72447068879995
 20
43.28003755099996
 30
0.0
 10
57.76837702979998
 20
43.27389711909995
 30
0.0
 10
57.81292691319999
 20
43.27131013009995
 30
0.0
 10
57.85724861349996
 20
43.27233899219999
 30
0.0
1001
ACAD
1000
RTMaterial
1005
0
  0
SPLINE
  5
5F4AD
330
1F
100
AcDbEntity
  8
1
100
AcDbSpline
210
0.0
220
0.0
230
1.0
 70
     8
 71
     3
 72
     8
 73
     4
 74
     0
 42
0.0000000001
 43
0.0000000001
 40
0.0
 40
0.0
 40
0.0
 40
0.0
 40
1.0
 40
1.0
 40
1.0
 40
1.0
 10
57.91036842769989
 20
43.26925626970001
 30
0.0
 10
57.89280279689996
 20
43.27171154460001
 30
0.0
 10
57.87498023309996
 20
43.27275060530001
 30
0.0
 10
57.85724861349996
 20
43.27233899219999
 30
0.0
1001
ACAD
1000
RTMaterial
1005
0
  0
SPLINE
  5
5F4AE
330
1F
100
AcDbEntity
  8
1
100
AcDbSpline
210
0.0
220
0.0
230
1.0
 70
     8
 71
     3
 72
    27
 73
    23
 74
     0
 42
0.0000000001
 43
0.0000000001
 40
0.0
 40
0.0
 40
0.0
 40
0.0
 40
0.0623947125
 40
0.0936232012
 40
0.1248550523
 40
0.1872761331
 40
0.249720486
 40
0.2809806853999999
 40
0.3122477685
 40
0.3747459269
 40
0.4372685048
 40
0.4998100351
 40
0.5623628903000001
 40
0.6249181621000001
 40
0.6874666821
 40
0.7187637134
 40
0.7500560675
 40
0.8125675237000001
 40
0.8750532600999999
 40
0.9063133248999999
 40
0.9375658356999998
 40
1.0
 40
1.0
 40
1.0
 40
1.0
 10
56.75950983139995
 20
45.89919564320001
 30
0.0
 10
56.95193629359988
 20
45.87226463899992
 30
0.0
 10
57.23800140949999
 20
45.80707186349997
 30
0.0
 10
57.60332863379989
 20
45.67302812659995
 30
0.0
 10
57.95614513949994
 20
45.50844029820001
 30
0.0
 10
58.36907798349995
 20
45.24729095309999
 30
0.0
 10
58.73192559789998
 20
44.91996082680003
 30
0.0
 10
58.98575905839999
 20
44.6244246699
 30
0.0
 10
59.21377234729999
 20
44.30834277899992
 30
0.0
 10
59.44736887059997
 20
43.8784858889
 30
0.0
 10
59.63655792029993
 20
43.32299899689997
 30
0.0
 10
59.72953893029995
 20
42.74334911339997
 30
0.0
 10
59.72356925239996
 20
42.15621876269994
 30
0.0
 10
59.61888284569994
 20
41.57851740820001
 30
0.0
 10
59.45167973299994
 20
41.11838145180001
 30
0.0
 10
59.27312204660001
 20
40.77155725549994
 30
0.0
 10
59.06597806759993
 20
40.44113767970003
 30
0.0
 10
58.75576966929992
 20
40.06289697110003
 30
0.0
 10
58.38621714079994
 20
39.74254999559997
 30
0.0
 10
58.06177618949999
 20
39.52670418169999
 30
0.0
 10
57.7204620569999
 20
39.33920003140002
 30
0.0
 10
57.44726564289994
 20
39.23167609629997
 30
0.0
 10
57.26095852049997
 20
39.17608260819998
 30
0.0
1001
ACAD
1000
RTMaterial
1005
0
  0
SPLINE
  5
5F4AF
330
1F
100
AcDbEntity
  8
1
100
AcDbSpline
210
0.0
220
0.0
230
1.0
 70
     8
 71
     3
 72
     9
 73
     5
 74
     0
 42
0.0000000001
 43
0.0000000001
 40
0.0
 40
0.0
 40
0.0
 40
0.0
 40
0.4999358793999999
 40
1.0
 40
1.0
 40
1.0
 40
1.0
 10
55.8032491845999
 20
39.06578278049995
 30
0.0
 10
56.04590717469995
 20
39.03182163360003
 30
0.0
 10
56.54001451639993
 20
39.01598902759997
 30
0.0
 10
57.02610550959997
 20
39.10600317229995
 30
0.0
 10
57.26095852049997
 20
39.17608260819998
 30
0.0
1001
ACAD
1000
RTMaterial
1005
0
  0
SPLINE
  5
5F4B0
330
1F
100
AcDbEntity
  8
1
100
AcDbSpline
210
0.0
220
0.0
230
1.0
 70
     8
 71
     3
 72
     9
 73
     5
 74
     0
 42
0.0000000001
 43
0.0000000001
 40
0.0
 40
0.0
 40
0.0
 40
0.0
 40
0.4999927562
 40
1.0
 40
1.0
 40
1.0
 40
1.0
 10
55.43467041419996
 20
43.81515095649996
 30
0.0
 10
55.38679942869993
 20
43.82185053769996
 30
0.0
 10
55.29205670419997
 20
43.84377155639998
 30
0.0
 10
55.20266179660001
 20
43.88204897389999
 30
0.0
 10
55.16007517899999
 20
43.90491884589994
 30
0.0
1001
ACAD
1000
RTMaterial
1005
0
  0
SPLINE
  5
5F4B1
330
1F
100
AcDbEntity
  8
1
100
AcDbSpline
210
0.0
220
0.0
230
1.0
 70
     8
 71
     3
 72
    27
 73
    23
 74
     0
 42
0.0000000001
 43
0.0000000001
 40
0.0
 40
0.0
 40
0.0
 40
0.0
 40
0.0624341643
 40
0.0936866751
 40
0.1249467399
 40
0.1874324763
 40
0.2499439325
 40
0.2812362866
 40
0.3125333179
 40
0.3750818379
 40
0.4376371097
 40
0.5001899649000001
 40
0.5627314952
 40
0.6252540731
 40
0.6877522315000001
 40
0.7190193145999999
 40
0.750279514
 40
0.8127238669
 40
0.8751449476999999
 40
0.9063767988
 40
0.9376052875
 40
1.0
 40
1.0
 40
1.0
 40
1.0
 10
55.30180049550001
 20
45.78889581549998
 30
0.0
 10
55.11549337299999
 20
45.7333023274
 30
0.0
 10
54.8422969588999
 20
45.62577839229994
 30
0.0
 10
54.50098282639993
 20
45.43827424199998
 30
0.0
 10
54.17654187509999
 20
45.22242842809998
 30
0.0
 10
53.8069893466
 20
44.90208145259993
 30
0.0
 10
53.4967809483
 20
44.52384074399993
 30
0.0
 10
53.28963696929992
 20
44.19342116820001
 30
0.0
 10
53.11107928299993
 20
43.84659697189994
 30
0.0
 10
52.94387617019999
 20
43.38646101549994
 30
0.0
 10
52.8391897635999
 20
42.808759661
 30
0.0
 10
52.83322008559998
 20
42.22162931029998
 30
0.0
 10
52.92620109559999
 20
41.64197942679999
 30
0.0
 10
53.11539014539988
 20
41.08649253479995
 30
0.0
 10
53.34898666859993
 20
40.65663564470002
 30
0.0
 10
53.57699995759998
 20
40.34055375379995
 30
0.0
 10
53.83083341799994
 20
40.04501759689993
 30
0.0
 10
54.19368103250002
 20
39.71768747059997
 30
0.0
 10
54.60661387639999
 20
39.45653812549995
 30
0.0
 10
54.95943038209992
 20
39.29195029710001
 30
0.0
 10
55.32475760639994
 20
39.15790656019999
 30
0.0
 10
55.61082272229993
 20
39.09271378470004
 30
0.0
 10
55.8032491845999
 20
39.06578278049995
 30
0.0
1001
ACAD
1000
RTMaterial
1005
0
  0
SPLINE
  5
5F4B2
330
1F
100
AcDbEntity
  8
1
100
AcDbSpline
210
0.0
220
0.0
230
1.0
 70
     8
 71
     3
 72
     9
 73
     5
 74
     0
 42
0.0000000001
 43
0.0000000001
 40
0.0
 40
0.0
 40
0.0
 40
0.0
 40
0.5000641206000001
 40
1.0
 40
1.0
 40
1.0
 40
1.0
 10
55.30180049550001
 20
45.78889581549998
 30
0.0
 10
55.53665350629995
 20
45.8589752514
 30
0.0
 10
56.02274449959992
 20
45.94898939609999
 30
0.0
 10
56.51685184119997
 20
45.93315679009992
 30
0.0
 10
56.75950983139995
 20
45.89919564320001
 30
0.0
1001
ACAD
1000
RTMaterial
1005
0
  0
SPLINE
  5
5F4B3
330
1F
100
AcDbEntity
  8
1
100
AcDbSpline
210
0.0
220
0.0
230
1.0
 70
     8
 71
     3
 72
    27
 73
    23
 74
     0
 42
0.0000000001
 43
0.0000000001
 40
0.0
 40
0.0
 40
0.0
 40
0.0
 40
0.0624427899
 40
0.0937102059
 40
0.1249873065
 40
0.1874900014
 40
0.2500207912
 40
0.281332068
 40
0.3126473387
 40
0.3752087474
 40
0.4377679573
 40
0.5003130489000001
 40
0.562834304
 40
0.6253256282000001
 40
0.6877854148
 40
0.7190421229
 40
0.7502924867000001
 40
0.8127033279999999
 40
0.8751043047999999
 40
0.9063425463999999
 40
0.9375810863999999
 40
1.0
 40
1.0
 40
1.0
 40
1.0
 10
55.64232396639994
 20
44.73166073049998
 30
0.0
 10
55.49539277939999
 20
44.68781690379995
 30
0.0
 10
55.28060998639995
 20
44.59993904919997
 30
0.0
 10
55.01641399379997
 20
44.44304879329997
 30
0.0
 10
54.76862895769994
 20
44.26092947079996
 30
0.0
 10
54.49416869049997
 20
43.98887119759996
 30
0.0
 10
54.27804740949994
 20
43.66839650129998
 30
0.0
 10
54.14516016179987
 20
43.39079945799994
 30
0.0
 10
54.03998129079997
 20
43.10149308199998
 30
0.0
 10
53.96244809629997
 20
42.72252839919997
 30
0.0
 10
53.9597546062999
 20
42.25881663649994
 30
0.0
 10
54.04731277649995
 20
41.80345958319998
 30
0.0
 10
54.22185035139995
 20
41.37403907250001
 30
0.0
 10
54.47654965750001
 20
40.98708541849998
 30
0.0
 10
54.74784489589996
 20
40.71212622479999
 30
0.0
 10
54.99346524209994
 20
40.52746672009994
 30
0.0
 10
55.25590128239997
 20
40.36782188059999
 30
0.0
 10
55.61144287639996
 20
40.21789134720001
 30
0.0
 10
55.98943248539995
 20
40.14053701860001
 30
0.0
 10
56.29607913319995
 20
40.12387484250001
 30
0.0
 10
56.60282932419995
 20
40.13734282489997
 30
0.0
 10
56.83052090719996
 20
40.18151958769999
 30
0.0
 10
56.97739591199996
 20
40.22534664970004
 30
0.0
1001
ACAD
1000
RTMaterial
1005
0
  0
SPLINE
  5
5F4B4
330
1F
100
AcDbEntity
  8
1
100
AcDbSpline
210
0.0
220
0.0
230
1.0
 70
     8
 71
     3
 72
     8
 73
     4
 74
     0
 42
0.0000000001
 43
0.0000000001
 40
0.0
 40
0.0
 40
0.0
 40
0.0
 40
1.0
 40
1.0
 40
1.0
 40
1.0
 10
55.16007517899999
 20
43.90491884589994
 30
0.0
 10
55.14521713369998
 20
43.9128979157
 30
0.0
 10
55.12969427699994
 20
43.91974271769998
 30
0.0
 10
55.1137878616999
 20
43.92534744919998
 30
0.0
1001
ACAD
1000
RTMaterial
1005
0
  0
SPLINE
  5
5F4B5
330
1F
100
AcDbEntity
  8
1
100
AcDbSpline
210
0.0
220
0.0
230
1.0
 70
     8
 71
     3
 72
    15
 73
    11
 74
     0
 42
0.0000000001
 43
0.0000000001
 40
0.0
 40
0.0
 40
0.0
 40
0.0
 40
0.1249035286
 40
0.2498597456
 40
0.3748744754
 40
0.4999215358
 40
0.6249805071
 40
0.7500291854000001
 40
0.8750362872
 40
1.0
 40
1.0
 40
1.0
 40
1.0
 10
58.03804526179994
 20
42.66208987070001
 30
0.0
 10
57.99259071569991
 20
42.63381393809999
 30
0.0
 10
57.90696509189996
 20
42.56817096799994
 30
0.0
 10
57.80021840609999
 20
42.44679375769999
 30
0.0
 10
57.71892198519998
 20
42.30694783709998
 30
0.0
 10
57.66623908259993
 20
42.15397722279999
 30
0.0
 10
57.6441400976999
 20
41.99369078579997
 30
0.0
 10
57.65348977469995
 20
41.83216153519999
 30
0.0
 10
57.69387932949991
 20
41.67558677170001
 30
0.0
 10
57.74060107049996
 20
41.57828396529999
 30
0.0
 10
57.76837202639995
 20
41.53248898299994
 30
0.0
1001
ACAD
1000
RTMaterial
1005
0
  0
SPLINE
  5
5F4B6
330
1F
100
AcDbEntity
  8
1
100
AcDbSpline
210
0.0
220
0.0
230
1.0
 70
     8
 71
     3
 72
    11
 73
     7
 74
     0
 42
0.0000000001
 43
0.0000000001
 40
0.0
 40
0.0
 40
0.0
 40
0.0
 40
0.2502234889999999
 40
0.500298469
 40
0.7502309122
 40
1.0
 40
1.0
 40
1.0
 40
1.0
 10
56.8882605016999
 20
44.08850502640001
 30
0.0
 10
56.88738193159991
 20
44.11666996220003
 30
0.0
 10
56.87834669279999
 20
44.17302103689997
 30
0.0
 10
56.84383359439999
 20
44.25112204179998
 30
0.0
 10
56.7906911272999
 20
44.31789198559999
 30
0.0
 10
56.74499373169993
 20
44.35197601189997
 30
0.0
 10
56.72047704439996
 20
44.36576318869993
 30
0.0
1001
ACAD
1000
RTMaterial
1005
0
  0
SPLINE
  5
5F4B7
330
1F
100
AcDbEntity
  8
1
100
AcDbSpline
210
0.0
220
0.0
230
1.0
 70
     8
 71
     3
 72
     8
 73
     4
 74
     0
 42
0.0000000001
 43
0.0000000001
 40
0.0
 40
0.0
 40
0.0
 40
0.0
 40
1.0
 40
1.0
 40
1.0
 40
1.0
 10
56.72047704439996
 20
44.36576318869993
 30
0.0
 10
56.70372534579991
 20
44.37518365519998
 30
0.0
 10
56.68607943319995
 20
44.38316532039999
 30
0.0
 10
56.66793886179988
 20
44.3895123089
 30
0.0
1001
ACAD
1000
RTMaterial
1005
0
  0
SPLINE
  5
5F4B8
330
1F
100
AcDbEntity
  8
1
100
AcDbSpline
210
0.0
220
0.0
230
1.0
 70
     8
 71
     3
 72
    15
 73
    11
 74
     0
 42
0.0000000001
 43
0.0000000001
 40
0.0
 40
0.0
 40
0.0
 40
0.0
 40
0.1248757498
 40
0.2497465242
 40
0.3746627943
 40
0.4996245048
 40
0.6246450574
 40
0.7497140269
 40
0.8748478632999999
 40
1.0
 40
1.0
 40
1.0
 40
1.0
 10
57.59630910699996
 20
43.2979749685
 30
0.0
 10
57.54882795939995
 20
43.30461294949998
 30
0.0
 10
57.45482911739992
 20
43.32629882159994
 30
0.0
 10
57.3218260221999
 20
43.3829011272
 30
0.0
 10
57.2006620624
 20
43.46186338309997
 30
0.0
 10
57.09509324339996
 20
43.56078011519997
 30
0.0
 10
57.00833499619995
 20
43.67661937040003
 30
0.0
 10
56.94302363239995
 20
43.80585605179999
 30
0.0
 10
56.90117945909998
 20
43.94448746349996
 30
0.0
 10
56.88975860219994
 20
44.04047936939997
 30
0.0
 10
56.8882605016999
 20
44.08850502640001
 30
0.0
1001
ACAD
1000
RTMaterial
1005
0
  0
SPLINE
  5
5F4B9
330
1F
100
AcDbEntity
  8
1
100
AcDbSpline
210
0.0
220
0.0
230
1.0
 70
     8
 71
     3
 72
    15
 73
    11
 74
     0
 42
0.0000000001
 43
0.0000000001
 40
0.0
 40
0.0
 40
0.0
 40
0.0
 40
0.1249712139
 40
0.2500063639
 40
0.3751077101
 40
0.5002138165
 40
0.6252813567000001
 40
0.7502739849
 40
0.8751788063999999
 40
1.0
 40
1.0
 40
1.0
 40
1.0
 10
57.90988332149999
 20
42.68002471849996
 30
0.0
 10
57.93561795609997
 20
42.6960334757
 30
0.0
 10
57.98290616919991
 20
42.7354300243
 30
0.0
 10
58.03482816359991
 20
42.81147784399997
 30
0.0
 10
58.06412539219997
 20
42.89887465399994
 30
0.0
 10
58.0684817828
 20
42.99094304579995
 30
0.0
 10
58.04759910599995
 20
43.08069108909996
 30
0.0
 10
58.00302708269993
 20
43.16130287329997
 30
0.0
 10
57.93823356149999
 20
43.22660509100001
 30
0.0
 10
57.88462647
 20
43.25671236779998
 30
0.0
 10
57.85643963889999
 20
43.26775094869998
 30
0.0
1001
ACAD
1000
RTMaterial
1005
0
  0
LINE
  5
5F4BA
330
1F
100
AcDbEntity
  8
1
100
AcDbLine
 10
57.85643963889999
 20
43.26775094869998
 30
0.0
 11
57.8429596739
 21
43.27269325529999
 31
0.0
1001
ACAD
1000
RTMaterial
1005
0
  0
SPLINE
  5
5F4BB
330
1F
100
AcDbEntity
  8
1
100
AcDbSpline
210
0.0
220
0.0
230
1.0
 70
     8
 71
     3
 72
    15
 73
    11
 74
     0
 42
0.0000000001
 43
0.0000000001
 40
0.0
 40
0.0
 40
0.0
 40
0.0
 40
0.1249599769
 40
0.2499720737
 40
0.3750190592
 40
0.5000784648
 40
0.6251259588
 40
0.7501389967000001
 40
0.8751002055
 40
1.0
 40
1.0
 40
1.0
 40
1.0
 10
57.64021008599996
 20
41.55042383089994
 30
0.0
 10
57.61243992879991
 20
41.59621749609999
 30
0.0
 10
57.56571936079996
 20
41.69352129519995
 30
0.0
 10
57.52532479969994
 20
41.85009491849996
 30
0.0
 10
57.51597766649997
 20
42.01162618729995
 30
0.0
 10
57.53807423669996
 20
42.17191276509993
 30
0.0
 10
57.59075935739992
 20
42.32488241430002
 30
0.0
 10
57.67205441969991
 20
42.46473128409997
 30
0.0
 10
57.77880505729996
 20
42.58610521360004
 30
0.0
 10
57.86443008249995
 20
42.6517495992
 30
0.0
 10
57.90988332149999
 20
42.68002471849996
 30
0.0
1001
ACAD
1000
RTMaterial
1005
0
  0
SPLINE
  5
5F4BC
330
1F
100
AcDbEntity
  8
1
100
AcDbSpline
210
0.0
220
0.0
230
1.0
 70
     8
 71
     3
 72
    15
 73
    11
 74
     0
 42
0.0000000001
 43
0.0000000001
 40
0.0
 40
0.0
 40
0.0
 40
0.0
 40
0.1249929242
 40
0.2500590293
 40
0.3751822011
 40
0.5002973722000001
 40
0.6253498794
 40
0.7503080916
 40
0.8751765463999999
 40
1.0
 40
1.0
 40
1.0
 40
1.0
 10
58.03804526179994
 20
42.66208987070001
 30
0.0
 10
58.06647647619996
 20
42.67977609059999
 30
0.0
 10
58.11825407459997
 20
42.72420454909997
 30
0.0
 10
58.17203307899996
 20
42.81088691869996
 30
0.0
 10
58.197362091
 20
42.90982001529999
 30
0.0
 10
58.19178386319999
 20
43.0117708367
 30
0.0
 10
58.15585543509991
 20
43.10729991639999
 30
0.0
 10
58.09284854319997
 20
43.18753552499998
 30
0.0
 10
58.00873320319993
 20
43.24500876619993
 30
0.0
 10
57.94348446319992
 20
43.26462740250002
 30
0.0
 10
57.91036842769989
 20
43.26925626970001
 30
0.0
1001
ACAD
1000
RTMaterial
1005
0
  0
SPLINE
  5
5F4BD
330
1F
100
AcDbEntity
  8
1
100
AcDbSpline
210
0.0
220
0.0
230
1.0
 70
     8
 71
     3
 72
    11
 73
     7
 74
     0
 42
0.0000000001
 43
0.0000000001
 40
0.0
 40
0.0
 40
0.0
 40
0.0
 40
0.2502689694
 40
0.5003316144
 40
0.7502220338
 40
1.0
 40
1.0
 40
1.0
 40
1.0
 10
56.09282141159991
 20
40.75658852879996
 30
0.0
 10
56.13248639779993
 20
40.82920427199996
 30
0.0
 10
56.23443080299995
 20
40.96323178349996
 30
0.0
 10
56.43965057939993
 20
41.10898737889999
 30
0.0
 10
56.6787613001
 20
41.18713997799995
 30
0.0
 10
56.84694222859997
 20
41.18917176269997
 30
0.0
 10
56.92872558339996
 20
41.17772611939995
 30
0.0
1001
ACAD
1000
RTMaterial
1005
0
  0
SPLINE
  5
5F4BE
330
1F
100
AcDbEntity
  8
1
100
AcDbSpline
210
0.0
220
0.0
230
1.0
 70
     8
 71
     3
 72
    15
 73
    11
 74
     0
 42
0.0000000001
 43
0.0000000001
 40
0.0
 40
0.0
 40
0.0
 40
0.0
 40
0.1251602541
 40
0.2502837245
 40
0.3753592817
 40
0.5003790434000001
 40
0.6253432712000001
 40
0.7502586988
 40
0.8751367873999999
 40
1.0
 40
1.0
 40
1.0
 40
1.0
 10
57.01642244210001
 20
44.0705701786
 30
0.0
 10
57.01792064329999
 20
44.02254129430002
 30
0.0
 10
57.02933804819991
 20
43.92654923639997
 30
0.0
 10
57.0711897987
 20
43.78791830079996
 30
0.0
 10
57.1364937987999
 20
43.65867966579992
 30
0.0
 10
57.22325746609993
 20
43.54283943839999
 30
0.0
 10
57.32882701099999
 20
43.44392312649995
 30
0.0
 10
57.44999343909995
 20
43.36495702909997
 30
0.0
 10
57.58299830710001
 20
43.30836333729997
 30
0.0
 10
57.67699452609992
 20
43.28667723299997
 30
0.0
 10
57.72447068879995
 20
43.28003755099996
 30
0.0
1001
ACAD
1000
RTMaterial
1005
0
  0
SPLINE
  5
5F4BF
330
1F
100
AcDbEntity
  8
1
100
AcDbSpline
210
0.0
220
0.0
230
1.0
 70
     8
 71
     3
 72
     8
 73
     4
 74
     0
 42
0.0000000001
 43
0.0000000001
 40
0.0
 40
0.0
 40
0.0
 40
0.0
 40
1.0
 40
1.0
 40
1.0
 40
1.0
 10
54.64833787319998
 20
41.70280829479998
 30
0.0
 10
54.6690114269
 20
41.70293298149994
 30
0.0
 10
54.68970434119995
 20
41.70227340439993
 30
0.0
 10
54.71032833999998
 20
41.70083742349999
 30
0.0
1001
ACAD
1000
RTMaterial
1005
0
  0
SPLINE
  5
5F4C0
330
1F
100
AcDbEntity
  8
1
100
AcDbSpline
210
0.0
220
0.0
230
1.0
 70
     8
 71
     3
 72
     8
 73
     4
 74
     0
 42
0.0000000001
 43
0.0000000001
 40
0.0
 40
0.0
 40
0.0
 40
0.0
 40
1.0
 40
1.0
 40
1.0
 40
1.0
 10
54.71032833999998
 20
41.70083742349999
 30
0.0
 10
54.7293050767999
 20
41.699516136
 30
0.0
 10
54.7482474263
 20
41.69753591079995
 30
0.0
 10
54.76708689059996
 20
41.69490210739996
 30
0.0
1001
ACAD
1000
RTMaterial
1005
0
  0
SPLINE
  5
5F4C1
330
1F
100
AcDbEntity
  8
1
100
AcDbSpline
210
0.0
220
0.0
230
1.0
 70
     8
 71
     3
 72
    15
 73
    11
 74
     0
 42
0.0000000001
 43
0.0000000001
 40
0.0
 40
0.0
 40
0.0
 40
0.0
 40
0.1248035261
 40
0.2496613061
 40
0.3746006319
 40
0.499629273
 40
0.6247274788000001
 40
0.7498557666
 40
0.8749517093000001
 40
1.0
 40
1.0
 40
1.0
 40
1.0
 10
57.44133955419994
 20
41.0341102813
 30
0.0
 10
57.47188251279993
 20
41.02983586799996
 30
0.0
 10
57.53455223809993
 20
41.02996351649994
 30
0.0
 10
57.62451614679998
 20
41.05635136809996
 30
0.0
 10
57.70368426129988
 20
41.10679621000002
 30
0.0
 10
57.76571107289993
 20
41.17731437649996
 30
0.0
 10
57.80573126320001
 20
41.26232650419995
 30
0.0
 10
57.82056195889999
 20
41.35513890850001
 30
0.0
 10
57.80910404779996
 20
41.44834880159999
 30
0.0
 10
57.78439504309989
 20
41.50606663849998
 30
0.0
 10
57.76837202639995
 20
41.53248898299994
 30
0.0
1001
ACAD
1000
RTMaterial
1005
0
  0
SPLINE
  5
5F4C2
330
1F
100
AcDbEntity
  8
1
100
AcDbSpline
210
0.0
220
0.0
230
1.0
 70
     8
 71
     3
 72
    15
 73
    11
 74
     0
 42
0.0000000001
 43
0.0000000001
 40
0.0
 40
0.0
 40
0.0
 40
0.0
 40
0.1248198495
 40
0.2497009272
 40
0.3746642443
 40
0.4997044267000001
 40
0.6247961708
 40
0.7499053905
 40
0.8749776184999998
 40
1.0
 40
1.0
 40
1.0
 40
1.0
 10
57.37833385189998
 20
41.04946909799997
 30
0.0
 10
57.40643494079989
 20
41.05115715720001
 30
0.0
 10
57.46248083799997
 20
41.0618481921
 30
0.0
 10
57.53949808409998
 20
41.09874418879996
 30
0.0
 10
57.60468423229991
 20
41.15406663589999
 30
0.0
 10
57.65367881609989
 20
41.2241754707
 30
0.0
 10
57.68328990749996
 20
41.30445209909999
 30
0.0
 10
57.69154956699998
 20
41.3896343243
 30
0.0
 10
57.67796580559997
 20
41.47406351259997
 30
0.0
 10
57.65483118169999
 20
41.52631328820001
 30
0.0
 10
57.64021008599996
 20
41.55042383089994
 30
0.0
1001
ACAD
1000
RTMaterial
1005
0
  0
SPLINE
  5
5F4C3
330
1F
100
AcDbEntity
  8
1
100
AcDbSpline
210
0.0
220
0.0
230
1.0
 70
     8
 71
     3
 72
    11
 73
     7
 74
     0
 42
0.0000000001
 43
0.0000000001
 40
0.0
 40
0.0
 40
0.0
 40
0.0
 40
0.2497812734
 40
0.4996706779000001
 40
0.7497377359000001
 40
1.0
 40
1.0
 40
1.0
 40
1.0
 10
57.05688746789991
 20
41.15979083149994
 30
0.0
 10
56.97510242139998
 20
41.17123228819997
 30
0.0
 10
56.80692102849997
 20
41.16921055720001
 30
0.0
 10
56.56781018689997
 20
41.09104732999997
 30
0.0
 10
56.36258987079992
 20
40.94529586139998
 30
0.0
 10
56.26064727629994
 20
40.81126748009995
 30
0.0
 10
56.2209833519999
 20
40.73865368089997
 30
0.0
1001
ACAD
1000
RTMaterial
1005
0
  0
SPLINE
  5
5F4C4
330
1F
100
AcDbEntity
  8
1
100
AcDbSpline
210
0.0
220
0.0
230
1.0
 70
     8
 71
     3
 72
    11
 73
     7
 74
     0
 42
0.0000000001
 43
0.0000000001
 40
0.0
 40
0.0
 40
0.0
 40
0.0
 40
0.2502996486
 40
0.5003874572
 40
0.7502656923000001
 40
1.0
 40
1.0
 40
1.0
 40
1.0
 10
57.01642244210001
 20
44.0705701786
 30
0.0
 10
57.01522836879991
 20
44.10884942129996
 30
0.0
 10
56.99926614750001
 20
44.18561850930001
 30
0.0
 10
56.93747630959996
 20
44.28507065500002
 30
0.0
 10
56.84547969579995
 20
44.35736647779998
 30
0.0
 10
56.77099753039994
 20
44.38154071699995
 30
0.0
 10
56.7331547741
 20
44.38683541739999
 30
0.0
1001
ACAD
1000
RTMaterial
1005
0
  0
SPLINE
  5
5F4C5
330
1F
100
AcDbEntity
  8
1
100
AcDbSpline
210
0.0
220
0.0
230
1.0
 70
     8
 71
     3
 72
    11
 73
     7
 74
     0
 42
0.0000000001
 43
0.0000000001
 40
0.0
 40
0.0
 40
0.0
 40
0.0
 40
0.2497807494
 40
0.499671638
 40
0.7497263809
 40
1.0
 40
1.0
 40
1.0
 40
1.0
 10
55.88656510419998
 20
40.57017196279997
 30
0.0
 10
55.9192844957999
 20
40.5655940885
 30
0.0
 10
55.98656874089994
 20
40.56640145720002
 30
0.0
 10
56.08222731069992
 20
40.59767299959998
 30
0.0
 10
56.16433042049999
 20
40.65598142479996
 30
0.0
 10
56.20511438729995
 20
40.70960194589997
 30
0.0
 10
56.2209833519999
 20
40.73865368089997
 30
0.0
1001
ACAD
1000
RTMaterial
1005
0
  0
SPLINE
  5
5F4C6
330
1F
100
AcDbEntity
  8
1
100
AcDbSpline
210
0.0
220
0.0
230
1.0
 70
     8
 71
     3
 72
    11
 73
     7
 74
     0
 42
0.0000000001
 43
0.0000000001
 40
0.0
 40
0.0
 40
0.0
 40
0.0
 40
0.2497849674
 40
0.4997030093000001
 40
0.7497650819000001
 40
1.0
 40
1.0
 40
1.0
 40
1.0
 10
55.82350790339996
 20
40.58552441609998
 30
0.0
 10
55.85111596349992
 20
40.58717271589995
 30
0.0
 10
55.90617701379989
 20
40.5975443575
 30
0.0
 10
55.98207024049992
 20
40.63325657989998
 30
0.0
 10
56.04668884999995
 20
40.68680863649996
 30
0.0
 10
56.07953928299997
 20
40.73227258320002
 30
0.0
 10
56.09282141159991
 20
40.75658852879996
 30
0.0
1001
ACAD
1000
RTMaterial
1005
0
  0
SPLINE
  5
5F4C7
330
1F
100
AcDbEntity
  8
1
100
AcDbSpline
210
0.0
220
0.0
230
1.0
 70
     8
 71
     3
 72
     9
 73
     5
 74
     0
 42
0.0000000001
 43
0.0000000001
 40
0.0
 40
0.0
 40
0.0
 40
0.0
 40
0.5000427267000001
 40
1.0
 40
1.0
 40
1.0
 40
1.0
 10
55.28823711939998
 20
43.88698399799994
 30
0.0
 10
55.33082679979992
 20
43.86411248129997
 30
0.0
 10
55.4202209856
 20
43.82583321959998
 30
0.0
 10
55.51496442119997
 20
43.80391312169996
 30
0.0
 10
55.5628324105
 20
43.79721654879995
 30
0.0
1001
ACAD
1000
RTMaterial
1005
0
  0
SPLINE
  5
5F4C8
330
1F
100
AcDbEntity
  8
1
100
AcDbSpline
210
0.0
220
0.0
230
1.0
 70
     8
 71
     3
 72
     9
 73
     5
 74
     0
 42
0.0000000001
 43
0.0000000001
 40
0.0
 40
0.0
 40
0.0
 40
0.0
 40
0.7495490479000001
 40
1.0
 40
1.0
 40
1.0
 40
1.0
 10
55.28823711939998
 20
43.88698399799994
 30
0.0
 10
55.26272146649995
 20
43.90068641790003
 30
0.0
 10
55.22597899419992
 20
43.91452437430001
 30
0.0
 10
55.18796420279994
 20
43.92155585820001
 30
0.0
 10
55.17838032409992
 20
43.92289709890002
 30
0.0
1001
ACAD
1000
RTMaterial
1005
0
  0
SPLINE
  5
5F4C9
330
1F
100
AcDbEntity
  8
1
100
AcDbSpline
210
0.0
220
0.0
230
1.0
 70
     8
 71
     3
 72
     8
 73
     4
 74
     0
 42
0.0000000001
 43
0.0000000001
 40
0.0
 40
0.0
 40
0.0
 40
0.0
 40
1.0
 40
1.0
 40
1.0
 40
1.0
 10
54.89524918949991
 20
41.6769698292
 30
0.0
 10
54.85134284859992
 20
41.68311026110001
 30
0.0
 10
54.80679296509999
 20
41.68569725009996
 30
0.0
 10
54.76247126480001
 20
41.68466838799997
 30
0.0
1001
ACAD
1000
RTMaterial
1005
0
  0
SPLINE
  5
5F4CA
330
1F
100
AcDbEntity
  8
1
100
AcDbSpline
210
0.0
220
0.0
230
1.0
 70
     8
 71
     3
 72
    27
 73
    23
 74
     0
 42
0.0000000001
 43
0.0000000001
 40
0.0
 40
0.0
 40
0.0
 40
0.0
 40
0.0624189136
 40
0.0936574536
 40
0.1248956952
 40
0.187296672
 40
0.2497075133
 40
0.2809578771
 40
0.3122145852
 40
0.3746743718
 40
0.4371656960000001
 40
0.4996869511
 40
0.5622320427
 40
0.6247912526000001
 40
0.6873526613
 40
0.718667932
 40
0.7499792088
 40
0.8125099985999998
 40
0.8750126935
 40
0.9062897940999999
 40
0.9375572100999999
 40
1.0
 40
1.0
 40
1.0
 40
1.0
 10
55.64232396639994
 20
44.73166073049998
 30
0.0
 10
55.78919897109989
 20
44.77548779259996
 30
0.0
 10
56.01689055419996
 20
44.81966455540003
 30
0.0
 10
56.3236407450999
 20
44.83313253769995
 30
0.0
 10
56.6302873928999
 20
44.81647036159995
 30
0.0
 10
57.00827700189989
 20
44.7391160331
 30
0.0
 10
57.3638185959
 20
44.58918549959998
 30
0.0
 10
57.62625463619992
 20
44.42954066009997
 30
0.0
 10
57.8718749823999
 20
44.24488115540003
 30
0.0
 10
58.1431702209
 20
43.96992196169998
 30
0.0
 10
58.39786952689991
 20
43.58296830769996
 30
0.0
 10
58.57240710189995
 20
43.15354779699998
 30
0.0
 10
58.65996527199996
 20
42.69819074369997
 30
0.0
 10
58.65727178209994
 20
42.23447898099999
 30
0.0
 10
58.5797385875
 20
41.85551429819997
 30
0.0
 10
58.47455971649998
 20
41.56620792220002
 30
0.0
 10
58.34167246879991
 20
41.28861087889998
 30
0.0
 10
58.12555118789993
 20
40.96813618269999
 30
0.0
 10
57.85109092059991
 20
40.69607790939994
 30
0.0
 10
57.60330588449988
 20
40.51395858689994
 30
0.0
 10
57.33910989199995
 20
40.35706833099999
 30
0.0
 10
57.12432709889998
 20
40.26919047640001
 30
0.0
 10
56.97739591199996
 20
40.22534664970004
 30
0.0
1001
ACAD
1000
RTMaterial
1005
0
  0
SPLINE
  5
5F4CB
330
1F
100
AcDbEntity
  8
1
100
AcDbSpline
210
0.0
220
0.0
230
1.0
 70
     8
 71
     3
 72
     8
 73
     4
 74
     0
 42
0.0000000001
 43
0.0000000001
 40
0.0
 40
0.0
 40
0.0
 40
0.0
 40
1.0
 40
1.0
 40
1.0
 40
1.0
 10
54.70935145059996
 20
41.68775111049995
 30
0.0
 10
54.72691708140001
 20
41.68529583559996
 30
0.0
 10
54.7447396451999
 20
41.68425677490001
 30
0.0
 10
54.76247126480001
 20
41.68466838799997
 30
0.0
1001
ACAD
1000
RTMaterial
1005
0
  0
SPLINE
  5
5F4CE
330
1F
100
AcDbEntity
  8
1
100
AcDbSpline
210
0.0
220
0.0
230
1.0
 70
     8
 71
     3
 72
     9
 73
     5
 74
     0
 42
0.0000000001
 43
0.0000000001
 40
0.0
 40
0.0
 40
0.0
 40
0.0
 40
0.2479593616
 40
1.0
 40
1.0
 40
1.0
 40
1.0
 10
55.02850853959995
 20
49.4539676507
 30
0.0
 10
55.12941804569999
 20
49.46376424530001
 30
0.0
 10
55.53629739969989
 20
49.50409754139997
 30
0.0
 10
55.94285298619997
 20
49.54770047339997
 30
0.0
 10
56.24838147069993
 20
49.58237007560001
 30
0.0
1001
ACAD
1000
RTMaterial
1005
0
  0
LINE
  5
5F4CF
330
1F
100
AcDbEntity
  8
1
100
AcDbLine
 10
54.6962188841
 20
49.35708421269999
 30
0.0
 11
54.7006953257
 21
49.35939625029999
 31
0.0
1001
ACAD
1000
RTMaterial
1005
0
  0
LINE
  5
5F4D0
330
1F
100
AcDbEntity
  8
1
100
AcDbLine
 10
54.7006953257
 20
49.35939625029999
 30
0.0
 11
54.70934690439998
 21
49.36375284669998
 31
0.0
1001
ACAD
1000
RTMaterial
1005
0
  0
SPLINE
  5
5F4D1
330
1F
100
AcDbEntity
  8
1
100
AcDbSpline
210
0.0
220
0.0
230
1.0
 70
     8
 71
     3
 72
     8
 73
     4
 74
     0
 42
0.0000000001
 43
0.0000000001
 40
0.0
 40
0.0
 40
0.0
 40
0.0
 40
1.0
 40
1.0
 40
1.0
 40
1.0
 10
54.70934690439998
 20
49.36375284669998
 30
0.0
 10
54.72951927939999
 20
49.37374059149994
 30
0.0
 10
54.75018650729992
 20
49.38278638899993
 30
0.0
 10
54.77121407219994
 20
49.39081890239998
 30
0.0
1001
ACAD
1000
RTMaterial
1005
0
  0
SPLINE
  5
5F4D2
330
1F
100
AcDbEntity
  8
1
100
AcDbSpline
210
0.0
220
0.0
230
1.0
 70
     8
 71
     3
 72
     9
 73
     5
 74
     0
 42
0.0000000001
 43
0.0000000001
 40
0.0
 40
0.0
 40
0.0
 40
0.0
 40
0.2498748411
 40
1.0
 40
1.0
 40
1.0
 40
1.0
 10
51.54799209059996
 20
37.73213896259995
 30
0.0
 10
51.48725203449993
 20
37.81606161939993
 30
0.0
 10
51.24388887869992
 20
38.1517167243
 30
0.0
 10
50.99940300079999
 20
38.48655802979994
 30
0.0
 10
50.81533797679998
 20
38.73723795989997
 30
0.0
1001
ACAD
1000
RTMaterial
1005
0
  0
SPLINE
  5
5F4D3
330
1F
100
AcDbEntity
  8
1
100
AcDbSpline
210
0.0
220
0.0
230
1.0
 70
     8
 71
     3
 72
     8
 73
     4
 74
     0
 42
0.0000000001
 43
0.0000000001
 40
0.0
 40
0.0
 40
0.0
 40
0.0
 40
1.0
 40
1.0
 40
1.0
 40
1.0
 10
51.78711045229994
 20
37.49870497169997
 30
0.0
 10
51.76964549429993
 20
37.51061121129999
 30
0.0
 10
51.7526697360999
 20
37.52326905689995
 30
0.0
 10
51.73627825979991
 20
37.53661457299995
 30
0.0
1001
ACAD
1000
RTMaterial
1005
0
  0
SPLINE
  5
5F4D4
330
1F
100
AcDbEntity
  8
1
100
AcDbSpline
210
0.0
220
0.0
230
1.0
 70
     8
 71
     3
 72
     9
 73
     5
 74
     0
 42
0.0000000001
 43
0.0000000001
 40
0.0
 40
0.0
 40
0.0
 40
0.0
 40
0.2496740753
 40
1.0
 40
1.0
 40
1.0
 40
1.0
 10
63.38404129859992
 20
40.56223450089999
 30
0.0
 10
63.34012359089996
 20
40.46851809399993
 30
0.0
 10
63.16555768109998
 20
40.09253970739997
 30
0.0
 10
62.99632321389998
 20
39.71408271640001
 30
0.0
 10
62.87256838219997
 20
39.42873312089995
 30
0.0
1001
ACAD
1000
RTMaterial
1005
0
  0
SPLINE
  5
5F4D5
330
1F
100
AcDbEntity
  8
1
100
AcDbSpline
210
0.0
220
0.0
230
1.0
 70
     8
 71
     3
 72
     9
 73
     5
 74
     0
 42
0.0000000001
 43
0.0000000001
 40
0.0
 40
0.0
 40
0.0
 40
0.0
 40
0.2567257741
 40
1.0
 40
1.0
 40
1.0
 40
1.0
 10
53.22632737269993
 20
48.84009903379996
 30
0.0
 10
53.20254954029991
 20
48.83551035809995
 30
0.0
 10
53.11036415769996
 20
48.81546780259992
 30
0.0
 10
53.02002245249997
 20
48.78685650779999
 30
0.0
 10
52.95491881049992
 20
48.76083349679999
 30
0.0
1001
ACAD
1000
RTMaterial
1005
0
  0
SPLINE
  5
5F4D6
330
1F
100
AcDbEntity
  8
1
100
AcDbSpline
210
0.0
220
0.0
230
1.0
 70
     8
 71
     3
 72
     9
 73
     5
 74
     0
 42
0.0000000001
 43
0.0000000001
 40
0.0
 40
0.0
 40
0.0
 40
0.0
 40
0.501675589
 40
1.0
 40
1.0
 40
1.0
 40
1.0
 10
48.57413047139999
 20
41.78955951479998
 30
0.0
 10
48.53126056909997
 20
41.84794444829992
 30
0.0
 10
48.45407605249994
 20
41.97066327449999
 30
0.0
 10
48.39630752549993
 20
42.10369167999999
 30
0.0
 10
48.3728556769999
 20
42.17171211259994
 30
0.0
1001
ACAD
1000
RTMaterial
1005
0
  0
LINE
  5
5F4D7
330
1F
100
AcDbEntity
  8
1
100
AcDbLine
 10
47.6462249337
 20
43.49794422729996
 30
0.0
 11
47.64245781409994
 21
43.46728057249999
 31
0.0
1001
ACAD
1000
RTMaterial
1005
0
  0
SPLINE
  5
5F4D8
330
1F
100
AcDbEntity
  8
1
100
AcDbSpline
210
0.0
220
0.0
230
1.0
 70
     8
 71
     3
 72
     9
 73
     5
 74
     0
 42
0.0000000001
 43
0.0000000001
 40
0.0
 40
0.0
 40
0.0
 40
0.0
 40
0.2493217228
 40
1.0
 40
1.0
 40
1.0
 40
1.0
 10
47.69825798469997
 20
43.73053582779999
 30
0.0
 10
47.6922699880999
 20
43.71164017949996
 30
0.0
 10
47.66991019659991
 20
43.63533614319999
 30
0.0
 10
47.65418734199994
 20
43.55709161659996
 30
0.0
 10
47.6462247732
 20
43.49794424229997
 30
0.0
1001
ACAD
1000
RTMaterial
1005
0
  0
SPLINE
  5
5F4D9
330
1F
100
AcDbEntity
  8
1
100
AcDbSpline
210
0.0
220
0.0
230
1.0
 70
     8
 71
     3
 72
     9
 73
     5
 74
     0
 42
0.0000000001
 43
0.0000000001
 40
0.0
 40
0.0
 40
0.0
 40
0.0
 40
0.2491659593
 40
1.0
 40
1.0
 40
1.0
 40
1.0
 10
47.72961101480001
 20
43.8197138479
 30
0.0
 10
47.72677711969999
 20
43.81239122619996
 30
0.0
 10
47.71563113090002
 20
43.78291515680001
 30
0.0
 10
47.70540386969997
 20
43.75309157079994
 30
0.0
 10
47.69825614919994
 20
43.73053631119995
 30
0.0
1001
ACAD
1000
RTMaterial
1005
0
  0
SPLINE
  5
5F4DA
330
1F
100
AcDbEntity
  8
1
100
AcDbSpline
210
0.0
220
0.0
230
1.0
 70
     8
 71
     3
 72
    11
 73
     7
 74
     0
 42
0.0000000001
 43
0.0000000001
 40
0.0
 40
0.0
 40
0.0
 40
0.0
 40
0.2482991202
 40
0.4971764117000001
 40
0.7476319500000001
 40
1.0
 40
1.0
 40
1.0
 40
1.0
 10
47.64050718129993
 20
43.43683670820001
 30
0.0
 10
47.63630294569992
 20
43.35706157939995
 30
0.0
 10
47.64135545219988
 20
43.19628470669999
 30
0.0
 10
47.68997944429992
 20
42.95951699930003
 30
0.0
 10
47.7795473907999
 20
42.73359628069999
 30
0.0
 10
47.86445032339992
 20
42.59481389409995
 30
0.0
 10
47.91250562349995
 20
42.52936691769997
 30
0.0
1001
ACAD
1000
RTMaterial
1005
0
  0
LINE
  5
5F4DB
330
1F
100
AcDbEntity
  8
1
100
AcDbLine
 10
47.64245781409994
 20
43.46728057249999
 30
0.0
 11
47.64050718129993
 21
43.43683670820001
 31
0.0
1001
ACAD
1000
RTMaterial
1005
0
  0
SPLINE
  5
5F4DC
330
1F
100
AcDbEntity
  8
1
100
AcDbSpline
210
0.0
220
0.0
230
1.0
 70
     8
 71
     3
 72
     9
 73
     5
 74
     0
 42
0.0000000001
 43
0.0000000001
 40
0.0
 40
0.0
 40
0.0
 40
0.0
 40
0.4973933731000001
 40
1.0
 40
1.0
 40
1.0
 40
1.0
 10
60.71710645109994
 20
35.2303822243
 30
0.0
 10
60.63205807059995
 20
35.18961565269996
 30
0.0
 10
60.45195815029996
 20
35.12543632069998
 30
0.0
 10
60.26241613839994
 20
35.1004291438
 30
0.0
 10
60.16715117370001
 20
35.09775208689996
 30
0.0
1001
ACAD
1000
RTMaterial
1005
0
  0
SPLINE
  5
5F4DD
330
1F
100
AcDbEntity
  8
1
100
AcDbSpline
210
0.0
220
0.0
230
1.0
 70
     8
 71
     3
 72
     9
 73
     5
 74
     0
 42
0.0000000001
 43
0.0000000001
 40
0.0
 40
0.0
 40
0.0
 40
0.0
 40
0.2490451083
 40
1.0
 40
1.0
 40
1.0
 40
1.0
 10
60.9584460275999
 20
35.39258080709999
 30
0.0
 10
60.94383643409997
 20
35.38008291849997
 30
0.0
 10
60.88405202199993
 20
35.33122498259996
 30
0.0
 10
60.81989695559997
 20
35.28772564540003
 30
0.0
 10
60.76987463949996
 20
35.25842366129996
 30
0.0
1001
ACAD
1000
RTMaterial
1005
0
  0
SPLINE
  5
5F4DE
330
1F
100
AcDbEntity
  8
1
100
AcDbSpline
210
0.0
220
0.0
230
1.0
 70
     8
 71
     3
 72
     9
 73
     5
 74
     0
 42
0.0000000001
 43
0.0000000001
 40
0.0
 40
0.0
 40
0.0
 40
0.0
 40
0.5012706207000001
 40
1.0
 40
1.0
 40
1.0
 40
1.0
 10
61.36426486189993
 20
35.95093842390003
 30
0.0
 10
61.31807793399997
 20
35.84444220949996
 30
0.0
 10
61.20380292409999
 20
35.64077335269997
 30
0.0
 10
61.04620827189996
 20
35.46765517389997
 30
0.0
 10
60.95844717839992
 20
35.39257927669996
 30
0.0
1001
ACAD
1000
RTMaterial
1005
0
  0
SPLINE
  5
5F4DF
330
1F
100
AcDbEntity
  8
1
100
AcDbSpline
210
0.0
220
0.0
230
1.0
 70
     8
 71
     3
 72
     9
 73
     5
 74
     0
 42
0.0000000001
 43
0.0000000001
 40
0.0
 40
0.0
 40
0.0
 40
0.0
 40
0.4987360353
 40
1.0
 40
1.0
 40
1.0
 40
1.0
 10
60.96780067929995
 20
49.78964287899993
 30
0.0
 10
61.10100722699991
 20
49.69813046089996
 30
0.0
 10
61.33939949719996
 20
49.46842853070001
 30
0.0
 10
61.48616411109998
 20
49.17143338949995
 30
0.0
 10
61.53271046769993
 20
49.0158140236
 30
0.0
1001
ACAD
1000
RTMaterial
1005
0
  0
SPLINE
  5
5F4E0
330
1F
100
AcDbEntity
  8
1
100
AcDbSpline
210
0.0
220
0.0
230
1.0
 70
     8
 71
     3
 72
     9
 73
     5
 74
     0
 42
0.0000000001
 43
0.0000000001
 40
0.0
 40
0.0
 40
0.0
 40
0.0
 40
0.2492241108
 40
1.0
 40
1.0
 40
1.0
 40
1.0
 10
60.69643344129992
 20
49.92508622709999
 30
0.0
 10
60.71527568589994
 20
49.91816376769998
 30
0.0
 10
60.79027415009995
 20
49.88876587479996
 30
0.0
 10
60.86275393749992
 20
49.85295501309997
 30
0.0
 10
60.9151648173999
 20
49.8227917054
 30
0.0
1001
ACAD
1000
RTMaterial
1005
0
  0
SPLINE
  5
5F4E1
330
1F
100
AcDbEntity
  8
1
100
AcDbSpline
210
0.0
220
0.0
230
1.0
 70
     8
 71
     3
 72
     9
 73
     5
 74
     0
 42
0.0000000001
 43
0.0000000001
 40
0.0
 40
0.0
 40
0.0
 40
0.0
 40
0.4950561726
 40
1.0
 40
1.0
 40
1.0
 40
1.0
 10
59.99789239619992
 20
50.00784317659998
 30
0.0
 10
60.11401482439993
 20
50.02102007659994
 30
0.0
 10
60.35236368609997
 20
50.02119874199997
 30
0.0
 10
60.58454456879991
 20
49.96619517250002
 30
0.0
 10
60.69643414749993
 20
49.92508801559996
 30
0.0
1001
ACAD
1000
RTMaterial
1005
0
  0
SPLINE
  5
5F4E2
330
1F
100
AcDbEntity
  8
1
100
AcDbSpline
210
0.0
220
0.0
230
1.0
 70
     8
 71
     3
 72
     9
 73
     5
 74
     0
 42
0.0000000001
 43
0.0000000001
 40
0.0
 40
0.0
 40
0.0
 40
0.0
 40
0.7496191467000001
 40
1.0
 40
1.0
 40
1.0
 40
1.0
 10
63.46355001009993
 20
40.82090762729996
 30
0.0
 10
63.45165067369993
 20
40.75425307889998
 30
0.0
 10
63.4272576928999
 20
40.66658173309997
 30
0.0
 10
63.39316787789988
 20
40.5829264889
 30
0.0
 10
63.38404129859992
 20
40.56223450089999
 30
0.0
1001
ACAD
1000
RTMaterial
1005
0
  0
SPLINE
  5
5F4E3
330
1F
100
AcDbEntity
  8
1
100
AcDbSpline
210
0.0
220
0.0
230
1.0
 70
     8
 71
     3
 72
     8
 73
     4
 74
     0
 42
0.0000000001
 43
0.0000000001
 40
0.0
 40
0.0
 40
0.0
 40
0.0
 40
1.0
 40
1.0
 40
1.0
 40
1.0
 10
63.47199999999992
 20
40.87700185739999
 30
0.0
 10
63.46969744879999
 20
40.85823353509994
 30
0.0
 10
63.46687315899993
 20
40.83952236189998
 30
0.0
 10
63.46355001009993
 20
40.82090762729996
 30
0.0
1001
ACAD
1000
RTMaterial
1005
0
  0
LINE
  5
5F4E4
330
1F
100
AcDbEntity
  8
1
100
AcDbLine
 10
63.47384042669995
 20
40.90870781229995
 30
0.0
 11
63.47199999999992
 21
40.87700185739999
 31
0.0
1001
ACAD
1000
RTMaterial
1005
0
  0
SPLINE
  5
5F4E5
330
1F
100
AcDbEntity
  8
1
100
AcDbSpline
210
0.0
220
0.0
230
1.0
 70
     8
 71
     3
 72
     9
 73
     5
 74
     0
 42
0.0000000001
 43
0.0000000001
 40
0.0
 40
0.0
 40
0.0
 40
0.0
 40
0.2434504122
 40
1.0
 40
1.0
 40
1.0
 40
1.0
 10
63.50058650459999
 20
42.21576872599996
 30
0.0
 10
63.50229583499999
 20
42.10967902359999
 30
0.0
 10
63.50547568559995
 20
41.67385006159998
 30
0.0
 10
63.49255661039996
 20
41.23790471029997
 30
0.0
 10
63.47384150749991
 20
40.90870777019995
 30
0.0
1001
ACAD
1000
RTMaterial
1005
0
  0
LINE
  5
5F4E6
330
1F
100
AcDbEntity
  8
1
100
AcDbLine
 10
63.49999999999994
 20
42.24895564199999
 30
0.0
 11
63.50058541809989
 21
42.21576869449996
 31
0.0
1001
ACAD
1000
RTMaterial
1005
0
  0
SPLINE
  5
5F4E7
330
1F
100
AcDbEntity
  8
1
100
AcDbSpline
210
0.0
220
0.0
230
1.0
 70
     8
 71
     3
 72
     9
 73
     5
 74
     0
 42
0.0000000001
 43
0.0000000001
 40
0.0
 40
0.0
 40
0.0
 40
0.0
 40
0.2584941647
 40
1.0
 40
1.0
 40
1.0
 40
1.0
 10
63.43637431879989
 20
42.65125819649995
 30
0.0
 10
63.44644869079997
 20
42.61757634500003
 30
0.0
 10
63.48104092609998
 20
42.4860112193
 30
0.0
 10
63.49806803989991
 20
42.34978485319999
 30
0.0
 10
63.50000046889994
 20
42.24895565639997
 30
0.0
1001
ACAD
1000
RTMaterial
1005
0
  0
SPLINE
  5
5F4E8
330
1F
100
AcDbEntity
  8
1
100
AcDbSpline
210
0.0
220
0.0
230
1.0
 70
     8
 71
     3
 72
     9
 73
     5
 74
     0
 42
0.0000000001
 43
0.0000000001
 40
0.0
 40
0.0
 40
0.0
 40
0.0
 40
0.2427615416
 40
1.0
 40
1.0
 40
1.0
 40
1.0
 10
52.92457528839992
 20
48.74866165629999
 30
0.0
 10
52.87821968259987
 20
48.72999878929999
 30
0.0
 10
52.68758704959992
 20
48.65233222829994
 30
0.0
 10
52.49839277809991
 20
48.57113772409997
 30
0.0
 10
52.35597644169996
 20
48.50777844479996
 30
0.0
1001
ACAD
1000
RTMaterial
1005
0
  0
LINE
  5
5F4E9
330
1F
100
AcDbEntity
  8
1
100
AcDbLine
 10
52.95491898159998
 20
48.7608330575
 30
0.0
 11
52.92457568799995
 21
48.74866063609999
 31
0.0
1001
ACAD
1000
RTMaterial
1005
0
  0
SPLINE
  5
5F4EA
330
1F
100
AcDbEntity
  8
1
100
AcDbSpline
210
0.0
220
0.0
230
1.0
 70
     8
 71
     3
 72
     9
 73
     5
 74
     0
 42
0.0000000001
 43
0.0000000001
 40
0.0
 40
0.0
 40
0.0
 40
0.0
 40
0.2504623937
 40
1.0
 40
1.0
 40
1.0
 40
1.0
 10
54.77121399869992
 20
49.39081909110001
 30
0.0
 10
54.79190550999994
 20
49.39872323259994
 30
0.0
 10
54.87552444309989
 20
49.42760495739998
 30
0.0
 10
54.9627039268999
 20
49.44599466669996
 30
0.0
 10
55.02850853959995
 20
49.4539676507
 30
0.0
1001
ACAD
1000
RTMaterial
1005
0
  0
SPLINE
  5
5F4EB
330
1F
100
AcDbEntity
  8
1
100
AcDbSpline
210
0.0
220
0.0
230
1.0
 70
     8
 71
     3
 72
     9
 73
     5
 74
     0
 42
0.0000000001
 43
0.0000000001
 40
0.0
 40
0.0
 40
0.0
 40
0.0
 40
0.2578430942
 40
1.0
 40
1.0
 40
1.0
 40
1.0
 10
51.83845683909993
 20
37.18257532399997
 30
0.0
 10
51.85924828549997
 20
37.15425925350002
 30
0.0
 10
51.94353830459994
 20
37.04717323689994
 30
0.0
 10
52.04208941629992
 20
36.95129191360002
 30
0.0
 10
52.12142139669999
 20
36.88859789629999
 30
0.0
1001
ACAD
1000
RTMaterial
1005
0
  0
SPLINE
  5
5F4EC
330
1F
100
AcDbEntity
  8
1
100
AcDbSpline
210
0.0
220
0.0
230
1.0
 70
     8
 71
     3
 72
    10
 73
     6
 74
     0
 42
0.0000000001
 43
0.0000000001
 40
0.0
 40
0.0
 40
0.0
 40
0.0
 40
0.2421947277
 40
0.622056391
 40
1.0
 40
1.0
 40
1.0
 40
1.0
 10
52.14764154529991
 20
36.86793280209997
 30
0.0
 10
52.22024599939999
 20
36.81086977960001
 30
0.0
 10
52.40781736879995
 20
36.6656924568
 30
0.0
 10
52.71407873159995
 20
36.43851624409996
 30
0.0
 10
52.95006368429989
 20
36.27173853579995
 30
0.0
 10
53.0687669705
 20
36.1900350963
 30
0.0
1001
ACAD
1000
RTMaterial
1005
0
  0
LINE
  5
5F4ED
330
1F
100
AcDbEntity
  8
1
100
AcDbLine
 10
52.12142168919996
 20
36.88859826519996
 30
0.0
 11
52.14764222319996
 21
36.86793366069998
 31
0.0
1001
ACAD
1000
RTMaterial
1005
0
  0
SPLINE
  5
5F4EE
330
1F
100
AcDbEntity
  8
1
100
AcDbSpline
210
0.0
220
0.0
230
1.0
 70
     8
 71
     3
 72
     9
 73
     5
 74
     0
 42
0.0000000001
 43
0.0000000001
 40
0.0
 40
0.0
 40
0.0
 40
0.0
 40
0.2503103162
 40
1.0
 40
1.0
 40
1.0
 40
1.0
 10
51.73627813189995
 20
37.53661441589998
 30
0.0
 10
51.71869121009996
 20
37.55093323239999
 30
0.0
 10
51.65024611090001
 20
37.61034352009995
 30
0.0
 10
51.58909065039989
 20
37.67805964199999
 30
0.0
 10
51.54799209059996
 20
37.73213896259995
 30
0.0
1001
ACAD
1000
RTMaterial
1005
0
  0
SPLINE
  5
5F4EF
330
1F
100
AcDbEntity
  8
1
100
AcDbSpline
210
0.0
220
0.0
230
1.0
 70
     8
 71
     3
 72
     8
 73
     4
 74
     0
 42
0.0000000001
 43
0.0000000001
 40
0.0
 40
0.0
 40
0.0
 40
0.0
 40
1.0
 40
1.0
 40
1.0
 40
1.0
 10
60.91516606919999
 20
49.82279378930002
 30
0.0
 10
60.93313719399993
 20
49.8124511103
 30
0.0
 10
60.95071064329994
 20
49.80138436229998
 30
0.0
 10
60.96780117589998
 20
49.78964357759998
 30
0.0
1001
ACAD
1000
RTMaterial
1005
0
  0
SPLINE
  5
5F4F0
330
1F
100
AcDbEntity
  8
1
100
AcDbSpline
210
0.0
220
0.0
230
1.0
 70
     8
 71
     3
 72
     8
 73
     4
 74
     0
 42
0.0000000001
 43
0.0000000001
 40
0.0
 40
0.0
 40
0.0
 40
0.0
 40
1.0
 40
1.0
 40
1.0
 40
1.0
 10
60.76987577539995
 20
35.25842151019998
 30
0.0
 10
60.75268869019993
 20
35.24835369619996
 30
0.0
 10
60.73506855169995
 20
35.23899143559999
 30
0.0
 10
60.71710679509994
 20
35.23038143699995
 30
0.0
1001
ACAD
1000
RTMaterial
1005
0
  0
SPLINE
  5
5F4F1
330
1F
100
AcDbEntity
  8
1
100
AcDbSpline
210
0.0
220
0.0
230
1.0
 70
     8
 71
     3
 72
    11
 73
     7
 74
     0
 42
0.0000000001
 43
0.0000000001
 40
0.0
 40
0.0
 40
0.0
 40
0.0
 40
0.2476310057
 40
0.4970906347
 40
0.7482928707
 40
1.0
 40
1.0
 40
1.0
 40
1.0
 10
48.30283568390001
 20
42.72831587649995
 30
0.0
 10
48.31162964009997
 20
42.80808931259997
 30
0.0
 10
48.34276209549995
 20
42.96703618369997
 30
0.0
 10
48.42783437199995
 20
43.1952528374
 30
0.0
 10
48.54928781659992
 20
43.40785258599999
 30
0.0
 10
48.6516470594999
 20
43.53567442549996
 30
0.0
 10
48.70739137309993
 20
43.59523531649995
 30
0.0
1001
ACAD
1000
RTMaterial
1005
0
  0
LINE
  5
5F4F2
330
1F
100
AcDbEntity
  8
1
100
AcDbLine
 10
48.29980660219991
 20
42.69793665079993
 30
0.0
 11
48.30283568390001
 21
42.72831587649995
 31
0.0
1001
ACAD
1000
RTMaterial
1005
0
  0
LINE
  5
5F4F3
330
1F
100
AcDbEntity
  8
1
100
AcDbLine
 10
48.29850311460001
 20
42.66712533430001
 30
0.0
 11
48.29980660219991
 21
42.69793665079993
 31
0.0
1001
ACAD
1000
RTMaterial
1005
0
  0
SPLINE
  5
5F4F4
330
1F
100
AcDbEntity
  8
1
100
AcDbSpline
210
0.0
220
0.0
230
1.0
 70
     8
 71
     3
 72
     9
 73
     5
 74
     0
 42
0.0000000001
 43
0.0000000001
 40
0.0
 40
0.0
 40
0.0
 40
0.0
 40
0.2484673022
 40
1.0
 40
1.0
 40
1.0
 40
1.0
 10
48.31086564909998
 20
42.43067408169998
 30
0.0
 10
48.30817961619999
 20
42.45011273279999
 30
0.0
 10
48.29905462219989
 20
42.52857180529997
 30
0.0
 10
48.29662982019994
 20
42.60780065269995
 30
0.0
 10
48.29850295049999
 20
42.66712533879996
 30
0.0
1001
ACAD
1000
RTMaterial
1005
0
  0
SPLINE
  5
5F4F5
330
1F
100
AcDbEntity
  8
1
100
AcDbSpline
210
0.0
220
0.0
230
1.0
 70
     8
 71
     3
 72
     9
 73
     5
 74
     0
 42
0.0000000001
 43
0.0000000001
 40
0.0
 40
0.0
 40
0.0
 40
0.0
 40
0.2304774491
 40
1.0
 40
1.0
 40
1.0
 40
1.0
 10
48.19711073089997
 20
42.93659423040003
 30
0.0
 10
48.19497854209993
 20
42.94154927869993
 30
0.0
 10
48.1847098936999
 20
42.96261236359998
 30
0.0
 10
48.17082357149996
 20
42.98176803269996
 30
0.0
 10
48.15912382729999
 20
42.99546110889997
 30
0.0
1001
ACAD
1000
RTMaterial
1005
0
  0
SPLINE
  5
5F4F6
330
1F
100
AcDbEntity
  8
1
100
AcDbSpline
210
0.0
220
0.0
230
1.0
 70
     8
 71
     3
 72
     9
 73
     5
 74
     0
 42
0.0000000001
 43
0.0000000001
 40
0.0
 40
0.0
 40
0.0
 40
0.0
 40
0.2714774794
 40
1.0
 40
1.0
 40
1.0
 40
1.0
 10
47.95852006529997
 20
43.21583453879997
 30
0.0
 10
47.96475475969993
 20
43.2108744742
 30
0.0
 10
47.98737015879993
 20
43.19218281529998
 30
0.0
 10
48.00856869039995
 20
43.17166692469998
 30
0.0
 10
48.02245709429991
 20
43.15541229799992
 30
0.0
1001
ACAD
1000
RTMaterial
1005
0
  0
SPLINE
  5
5F4F7
330
1F
100
AcDbEntity
  8
1
100
AcDbSpline
210
0.0
220
0.0
230
1.0
 70
     8
 71
     3
 72
     9
 73
     5
 74
     0
 42
0.0000000001
 43
0.0000000001
 40
0.0
 40
0.0
 40
0.0
 40
0.0
 40
0.248159661
 40
1.0
 40
1.0
 40
1.0
 40
1.0
 10
60.16715117370001
 20
35.09775208689996
 30
0.0
 10
60.13563663859992
 20
35.09686649159994
 30
0.0
 10
60.0085498066
 20
35.09757190110003
 30
0.0
 10
59.88163570579996
 20
35.11526686970001
 30
0.0
 10
59.78869359489994
 20
35.13729177409999
 30
0.0
1001
ACAD
1000
RTMaterial
1005
0
  0
SPLINE
  5
5F4F8
330
1F
100
AcDbEntity
  8
1
100
AcDbSpline
210
0.0
220
0.0
230
1.0
 70
     8
 71
     3
 72
     9
 73
     5
 74
     0
 42
0.0000000001
 43
0.0000000001
 40
0.0
 40
0.0
 40
0.0
 40
0.0
 40
0.2485144324
 40
1.0
 40
1.0
 40
1.0
 40
1.0
 10
48.3728556769999
 20
42.17171211259994
 30
0.0
 10
48.3656595603
 20
42.19258394169997
 30
0.0
 10
48.33869749410002
 20
42.27724420099997
 30
0.0
 10
48.32000185679993
 20
42.36454170169998
 30
0.0
 10
48.31086372099997
 20
42.43067382390001
 30
0.0
1001
ACAD
1000
RTMaterial
1005
0
  0
SPLINE
  5
5F4F9
330
1F
100
AcDbEntity
  8
1
100
AcDbSpline
210
0.0
220
0.0
230
1.0
 70
     8
 71
     3
 72
     9
 73
     5
 74
     0
 42
0.0000000001
 43
0.0000000001
 40
0.0
 40
0.0
 40
0.0
 40
0.0
 40
0.2594039192
 40
1.0
 40
1.0
 40
1.0
 40
1.0
 10
53.23723186859997
 20
48.43521557549997
 30
0.0
 10
53.26118534879999
 20
48.46080904839999
 30
0.0
 10
53.3566434955
 20
48.55649933569998
 30
0.0
 10
53.46415774129997
 20
48.64022170199996
 30
0.0
 10
53.5488413066999
 20
48.69355626899994
 30
0.0
1001
ACAD
1000
RTMaterial
1005
0
  0
SPLINE
  5
5F4FA
330
1F
100
AcDbEntity
  8
1
100
AcDbSpline
210
0.0
220
0.0
230
1.0
 70
     8
 71
     3
 72
     9
 73
     5
 74
     0
 42
0.0000000001
 43
0.0000000001
 40
0.0
 40
0.0
 40
0.0
 40
0.0
 40
0.2436363991
 40
1.0
 40
1.0
 40
1.0
 40
1.0
 10
53.57656657529997
 20
48.71098803059999
 30
0.0
 10
53.6651784975
 20
48.76660106930001
 30
0.0
 10
54.030907184
 20
48.99162395479994
 30
0.0
 10
54.40503022939998
 20
49.20300397019997
 30
0.0
 10
54.69209441639993
 20
49.35492005989999
 30
0.0
1001
ACAD
1000
RTMaterial
1005
0
  0
LINE
  5
5F4FB
330
1F
100
AcDbEntity
  8
1
100
AcDbLine
 10
53.54884157179998
 20
48.69355583869998
 30
0.0
 11
53.57656714839999
 21
48.71098709699999
 31
0.0
1001
ACAD
1000
RTMaterial
1005
0
  0
SPLINE
  5
5F4FC
330
1F
100
AcDbEntity
  8
1
100
AcDbSpline
210
0.0
220
0.0
230
1.0
 70
     8
 71
     3
 72
     9
 73
     5
 74
     0
 42
0.0000000001
 43
0.0000000001
 40
0.0
 40
0.0
 40
0.0
 40
0.0
 40
0.2435088423
 40
1.0
 40
1.0
 40
1.0
 40
1.0
 10
52.94436609569999
 20
36.8215843575
 30
0.0
 10
52.85026151059998
 20
36.87204308599997
 30
0.0
 10
52.46562405419997
 20
37.08262567049997
 30
0.0
 10
52.08868685939996
 20
37.30727178820001
 30
0.0
 10
51.80840824269996
 20
37.48470838959998
 30
0.0
1001
ACAD
1000
RTMaterial
1005
0
  0
LINE
  5
5F4FD
330
1F
100
AcDbEntity
  8
1
100
AcDbLine
 10
52.9738076273
 20
36.80582963360001
 30
0.0
 11
52.9443666142999
 21
36.82158532269995
 31
0.0
1001
ACAD
1000
RTMaterial
1005
0
  0
SPLINE
  5
5F4FE
330
1F
100
AcDbEntity
  8
1
100
AcDbSpline
210
0.0
220
0.0
230
1.0
 70
     8
 71
     3
 72
     9
 73
     5
 74
     0
 42
0.0000000001
 43
0.0000000001
 40
0.0
 40
0.0
 40
0.0
 40
0.0
 40
0.2574460055999999
 40
1.0
 40
1.0
 40
1.0
 40
1.0
 10
53.35518922359989
 20
36.66186736559996
 30
0.0
 10
53.3210956835
 20
36.6699466636
 30
0.0
 10
53.1897242451999
 20
36.7056436968
 30
0.0
 10
53.06294843289999
 20
36.75821672809997
 30
0.0
 10
52.97380740499995
 20
36.80582921780001
 30
0.0
1001
ACAD
1000
RTMaterial
1005
0
  0
SPLINE
  5
5F4FF
330
1F
100
AcDbEntity
  8
1
100
AcDbSpline
210
0.0
220
0.0
230
1.0
 70
     8
 71
     3
 72
     8
 73
     4
 74
     0
 42
0.0000000001
 43
0.0000000001
 40
0.0
 40
0.0
 40
0.0
 40
0.0
 40
1.0
 40
1.0
 40
1.0
 40
1.0
 10
51.80840893859993
 20
37.48470948879998
 30
0.0
 10
51.80123127689995
 20
37.48925346670001
 30
0.0
 10
51.79412964369993
 20
37.49391983710001
 30
0.0
 10
51.78711045229994
 20
37.49870497169997
 30
0.0
1001
ACAD
1000
RTMaterial
1005
0
  0
SPLINE
  5
5F500
330
1F
100
AcDbEntity
  8
1
100
AcDbSpline
210
0.0
220
0.0
230
1.0
 70
     8
 71
     3
 72
    19
 73
    15
 74
     0
 42
0.0000000001
 43
0.0000000001
 40
0.0
 40
0.0
 40
0.0
 40
0.0
 40
0.2237701553
 40
0.4186362657
 40
0.5845289783
 40
0.7216466547
 40
0.7795303812000001
 40
0.830373812
 40
0.8742628612
 40
0.9113258424999999
 40
0.9417753781
 40
0.9660061562999999
 40
0.9848303043000001
 40
1.0
 40
1.0
 40
1.0
 40
1.0
 10
51.89600473729996
 20
48.65469378479997
 30
0.0
 10
51.8351824543999
 20
48.6625731153
 30
0.0
 10
51.72156821979996
 20
48.6787181711
 30
0.0
 10
51.56365377829996
 20
48.70588274290003
 30
0.0
 10
51.43002061119995
 20
48.7336355599
 30
0.0
 10
51.33407444769995
 20
48.75789257989999
 30
0.0
 10
51.26960322149995
 20
48.77752263889999
 30
0.0
 10
51.2300720204999
 20
48.79123314439993
 30
0.0
 10
51.19654239859989
 20
48.80472205329994
 30
0.0
 10
51.16899295059994
 20
48.81794907019997
 30
0.0
 10
51.14736298579993
 20
48.83087394229995
 30
0.0
 10
51.1315909843999
 20
48.84354861739996
 30
0.0
 10
51.12144983079992
 20
48.85613376239996
 30
0.0
 10
51.11871467779991
 20
48.86545908670001
 30
0.0
 10
51.1187097417
 20
48.8696167672
 30
0.0
1001
ACAD
1000
RTMaterial
1005
0
  0
SPLINE
  5
5F501
330
1F
100
AcDbEntity
  8
1
100
AcDbSpline
210
0.0
220
0.0
230
1.0
 70
     8
 71
     3
 72
     9
 73
     5
 74
     0
 42
0.0000000001
 43
0.0000000001
 40
0.0
 40
0.0
 40
0.0
 40
0.0
 40
0.2324870687
 40
1.0
 40
1.0
 40
1.0
 40
1.0
 10
52.27161912219997
 20
48.00673728159996
 30
0.0
 10
52.27293958469994
 20
48.00966210249999
 30
0.0
 10
52.27927874079995
 20
48.02194657369994
 30
0.0
 10
52.28794062189996
 20
48.03292595919998
 30
0.0
 10
52.29520687579991
 20
48.04063558280001
 30
0.0
1001
ACAD
1000
RTMaterial
1005
0
  0
SPLINE
  5
5F502
330
1F
100
AcDbEntity
  8
1
100
AcDbSpline
210
0.0
220
0.0
230
1.0
 70
     8
 71
     3
 72
    13
 73
     9
 74
     0
 42
0.0000000001
 43
0.0000000001
 40
0.0
 40
0.0
 40
0.0
 40
0.0
 40
0.3032022509
 40
0.442129718
 40
0.5720442624000001
 40
0.6926955506999999
 40
0.8040663263999999
 40
1.0
 40
1.0
 40
1.0
 40
1.0
 10
33.01885155629998
 20
40.32726920739998
 30
0.0
 10
32.8693581924
 20
40.34746812970001
 30
0.0
 10
32.65252112339999
 20
40.38891011790002
 30
0.0
 10
32.37991432879994
 20
40.47140581989999
 30
0.0
 10
32.19905640449997
 20
40.54153372000001
 30
0.0
 10
32.03710610209999
 20
40.6210350842
 30
0.0
 10
31.8561498718999
 20
40.73331642839997
 30
0.0
 10
31.73942902189992
 20
40.83600412729999
 30
0.0
 10
31.67843927209992
 20
40.91205088049997
 30
0.0
1001
ACAD
1000
RTMaterial
1005
0
  0
LINE
  5
5F503
330
1F
100
AcDbEntity
  8
1
100
AcDbLine
 10
51.2362345379999
 20
37.01585856769998
 30
0.0
 11
51.23491284779999
 21
37.01893887159997
 31
0.0
1001
ACAD
1000
RTMaterial
1005
0
  0
SPLINE
  5
5F504
330
1F
100
AcDbEntity
  8
1
100
AcDbSpline
210
0.0
220
0.0
230
1.0
 70
     8
 71
     3
 72
     9
 73
     5
 74
     0
 42
0.0000000001
 43
0.0000000001
 40
0.0
 40
0.0
 40
0.0
 40
0.0
 40
0.4693397162000001
 40
1.0
 40
1.0
 40
1.0
 40
1.0
 10
53.08254010009995
 20
36.18665904599999
 30
0.0
 10
53.12159407759992
 20
36.1969104392
 30
0.0
 10
53.20355145899992
 20
36.22369107040004
 30
0.0
 10
53.28201544229995
 20
36.25954958149993
 30
0.0
 10
53.32228708919996
 20
36.28105158139999
 30
0.0
1001
ACAD
1000
RTMaterial
1005
0
  0
SPLINE
  5
5F505
330
1F
100
AcDbEntity
  8
1
100
AcDbSpline
210
0.0
220
0.0
230
1.0
 70
     8
 71
     3
 72
     9
 73
     5
 74
     0
 42
0.0000000001
 43
0.0000000001
 40
0.0
 40
0.0
 40
0.0
 40
0.0
 40
0.2569740705
 40
1.0
 40
1.0
 40
1.0
 40
1.0
 10
59.59307526959998
 20
34.79495416269998
 30
0.0
 10
59.59133587139996
 20
34.78875280430003
 30
0.0
 10
59.58465558009999
 20
34.76459590569999
 30
0.0
 10
59.57831399589991
 20
34.74034483759993
 30
0.0
 10
59.57382704239996
 20
34.72227059839998
 30
0.0
1001
ACAD
1000
RTMaterial
1005
0
  0
SPLINE
  5
5F506
330
1F
100
AcDbEntity
  8
1
100
AcDbSpline
210
0.0
220
0.0
230
1.0
 70
     8
 71
     3
 72
     8
 73
     4
 74
     0
 42
0.0000000001
 43
0.0000000001
 40
0.0
 40
0.0
 40
0.0
 40
0.0
 40
1.0
 40
1.0
 40
1.0
 40
1.0
 10
59.63708794989992
 20
34.94888324659996
 30
0.0
 10
59.62215872049995
 20
34.89764812210001
 30
0.0
 10
59.6074875008
 20
34.84633711189997
 30
0.0
 10
59.59307526959998
 20
34.79495416269998
 30
0.0
1001
ACAD
1000
RTMaterial
1005
0
  0
SPLINE
  5
5F507
330
1F
100
AcDbEntity
  8
1
100
AcDbSpline
210
0.0
220
0.0
230
1.0
 70
     8
 71
     3
 72
     9
 73
     5
 74
     0
 42
0.0000000001
 43
0.0000000001
 40
0.0
 40
0.0
 40
0.0
 40
0.0
 40
0.2656694258
 40
1.0
 40
1.0
 40
1.0
 40
1.0
 10
60.05521097319996
 20
34.60960887689993
 30
0.0
 10
60.05524340789992
 20
34.60044984089996
 30
0.0
 10
60.05568786739996
 20
34.56597825559999
 30
0.0
 10
60.05747087279991
 20
34.53151016799996
 30
0.0
 10
60.05983375339991
 20
34.50630424389999
 30
0.0
1001
ACAD
1000
RTMaterial
1005
0
  0
SPLINE
  5
5F508
330
1F
100
AcDbEntity
  8
1
100
AcDbSpline
210
0.0
220
0.0
230
1.0
 70
     8
 71
     3
 72
    11
 73
     7
 74
     0
 42
0.0000000001
 43
0.0000000001
 40
0.0
 40
0.0
 40
0.0
 40
0.0
 40
0.2625066724
 40
0.5093975352000001
 40
0.7511047917
 40
1.0
 40
1.0
 40
1.0
 40
1.0
 10
51.39189174199993
 20
37.01413379960002
 30
0.0
 10
51.37162820959992
 20
37.04172863129997
 30
0.0
 10
51.33543800069998
 20
37.09777324959998
 30
0.0
 10
51.29713937549997
 20
37.18861157579994
 30
0.0
 10
51.27934703809995
 20
37.28393208169996
 30
0.0
 10
51.28215669729996
 20
37.34846744129999
 30
0.0
 10
51.28687096969992
 20
37.38058383489999
 30
0.0
1001
ACAD
1000
RTMaterial
1005
0
  0
SPLINE
  5
5F509
330
1F
100
AcDbEntity
  8
1
100
AcDbSpline
210
0.0
220
0.0
230
1.0
 70
     8
 71
     3
 72
     8
 73
     4
 74
     0
 42
0.0000000001
 43
0.0000000001
 40
0.0
 40
0.0
 40
0.0
 40
0.0
 40
1.0
 40
1.0
 40
1.0
 40
1.0
 10
51.28687096969992
 20
37.38058383489999
 30
0.0
 10
51.28787180549995
 20
37.38740211619995
 30
0.0
 10
51.2890190903999
 20
37.39420037180003
 30
0.0
 10
51.29030535649992
 20
37.40097061189994
 30
0.0
1001
ACAD
1000
RTMaterial
1005
0
  0
SPLINE
  5
5F50A
330
1F
100
AcDbEntity
  8
1
100
AcDbSpline
210
0.0
220
0.0
230
1.0
 70
     8
 71
     3
 72
     9
 73
     5
 74
     0
 42
0.0000000001
 43
0.0000000001
 40
0.0
 40
0.0
 40
0.0
 40
0.0
 40
0.2398297635
 40
1.0
 40
1.0
 40
1.0
 40
1.0
 10
51.29030535649992
 20
37.40097061189994
 30
0.0
 10
51.29220654939996
 20
37.4109775096
 30
0.0
 10
51.30140019480001
 20
37.45245955009995
 30
0.0
 10
51.31549307789993
 20
37.49279188299994
 30
0.0
 10
51.32824619909996
 20
37.52245178199996
 30
0.0
1001
ACAD
1000
RTMaterial
1005
0
  0
SPLINE
  5
5F50B
330
1F
100
AcDbEntity
  8
1
100
AcDbSpline
210
0.0
220
0.0
230
1.0
 70
     8
 71
     3
 72
    10
 73
     6
 74
     0
 42
0.0000000001
 43
0.0000000001
 40
0.0
 40
0.0
 40
0.0
 40
0.0
 40
0.5397456225
 40
0.7862826691000001
 40
1.0
 40
1.0
 40
1.0
 40
1.0
 10
51.31929906649992
 20
36.88371729199997
 30
0.0
 10
51.2955604915
 20
36.97287185559998
 30
0.0
 10
51.27393697449992
 20
37.1068416732
 30
0.0
 10
51.27339535219999
 20
37.27795528369995
 30
0.0
 10
51.2809579705999
 20
37.35644354699997
 30
0.0
 10
51.2865867671
 20
37.39253882769998
 30
0.0
1001
ACAD
1000
RTMaterial
1005
0
  0
SPLINE
  5
5F50C
330
1F
100
AcDbEntity
  8
1
100
AcDbSpline
210
0.0
220
0.0
230
1.0
 70
     8
 71
     3
 72
     9
 73
     5
 74
     0
 42
0.0000000001
 43
0.0000000001
 40
0.0
 40
0.0
 40
0.0
 40
0.0
 40
0.2520068927
 40
1.0
 40
1.0
 40
1.0
 40
1.0
 10
47.59309219899996
 20
42.05201164459999
 30
0.0
 10
47.57803769039997
 20
42.06963108589997
 30
0.0
 10
47.52032390149992
 20
42.14125172540002
 30
0.0
 10
47.4709876071999
 20
42.21962908419999
 30
0.0
 10
47.43964943419991
 20
42.28086272780001
 30
0.0
1001
ACAD
1000
RTMaterial
1005
0
  0
SPLINE
  5
5F50D
330
1F
100
AcDbEntity
  8
1
100
AcDbSpline
210
0.0
220
0.0
230
1.0
 70
     8
 71
     3
 72
    20
 73
    16
 74
     0
 42
0.0000000001
 43
0.0000000001
 40
0.0
 40
0.0
 40
0.0
 40
0.0
 40
0.1746603635
 40
0.2537977864
 40
0.3265152814999999
 40
0.3923883438
 40
0.4514786133000001
 40
0.5045704138
 40
0.5532945687
 40
0.5999500707
 40
0.6469590479999999
 40
0.6962620059
 40
0.7490524041
 40
0.8666450809
 40
1.0
 40
1.0
 40
1.0
 40
1.0
 10
52.05239435329992
 20
35.57526830809996
 30
0.0
 10
51.99500232709993
 20
35.58905545490001
 30
0.0
 10
51.91213693599997
 20
35.61185863049997
 30
0.0
 10
51.80873561070001
 20
35.65059141729995
 30
0.0
 10
51.74194231759992
 20
35.68168185259992
 30
0.0
 10
51.68441547239996
 20
35.71593672129996
 30
0.0
 10
51.63711488159998
 20
35.75350710939995
 30
0.0
 10
51.60084347689991
 20
35.79448759860003
 30
0.0
 10
51.57627714759991
 20
35.83876616999999
 30
0.0
 10
51.56374501539989
 20
35.88573372880001
 30
0.0
 10
51.56276379119998
 20
35.93444818259996
 30
0.0
 10
51.5721479753999
 20
35.98424599319998
 30
0.0
 10
51.59774968439996
 20
36.05420164119994
 30
0.0
 10
51.65116604719997
 20
36.14275242640002
 30
0.0
 10
51.70501897489993
 20
36.20843606699998
 30
0.0
 10
51.73506853199995
 20
36.24202136240001
 30
0.0
1001
ACAD
1000
RTMaterial
1005
0
  0
SPLINE
  5
5F50E
330
1F
100
AcDbEntity
  8
1
100
AcDbSpline
210
0.0
220
0.0
230
1.0
 70
     8
 71
     3
 72
     9
 73
     5
 74
     0
 42
0.0000000001
 43
0.0000000001
 40
0.0
 40
0.0
 40
0.0
 40
0.0
 40
0.2414353044
 40
1.0
 40
1.0
 40
1.0
 40
1.0
 10
55.10271110909997
 20
35.509677931
 30
0.0
 10
55.06034486219999
 20
35.50131959509997
 30
0.0
 10
54.88426144239991
 20
35.46977507839995
 30
0.0
 10
54.70628563439999
 20
35.44945099339998
 30
0.0
 10
54.5710575757999
 20
35.43843371839995
 30
0.0
1001
ACAD
1000
RTMaterial
1005
0
  0
SPLINE
  5
5F50F
330
1F
100
AcDbEntity
  8
1
100
AcDbSpline
210
0.0
220
0.0
230
1.0
 70
     8
 71
     3
 72
     9
 73
     5
 74
     0
 42
0.0000000001
 43
0.0000000001
 40
0.0
 40
0.0
 40
0.0
 40
0.0
 40
0.2487439651
 40
1.0
 40
1.0
 40
1.0
 40
1.0
 10
54.5710575757999
 20
35.43843371839995
 30
0.0
 10
54.56329620109994
 20
35.43780138519998
 30
0.0
 10
54.53208914819999
 20
35.43531832269997
 30
0.0
 10
54.50086368399997
 20
35.43306739180002
 30
0.0
 10
54.47739746619999
 20
35.43149923579995
 30
0.0
1001
ACAD
1000
RTMaterial
1005
0
  0
SPLINE
  5
5F510
330
1F
100
AcDbEntity
  8
1
100
AcDbSpline
210
0.0
220
0.0
230
1.0
 70
     8
 71
     3
 72
    11
 73
     7
 74
     0
 42
0.0000000001
 43
0.0000000001
 40
0.0
 40
0.0
 40
0.0
 40
0.0
 40
0.2405827343
 40
0.4909971266
 40
0.745859911
 40
1.0
 40
1.0
 40
1.0
 40
1.0
 10
50.99815456009998
 20
37.90258788079996
 30
0.0
 10
50.75968176699991
 20
38.1999806572
 30
0.0
 10
50.27782484439995
 20
38.81080439210001
 30
0.0
 10
49.55792646689991
 20
39.74806481049995
 30
0.0
 10
48.83640173599991
 20
40.71105360709998
 30
0.0
 10
48.36053127789995
 20
41.36223295540003
 30
0.0
 10
48.12507902499993
 20
41.6889020204
 30
0.0
1001
ACAD
1000
RTMaterial
1005
0
  0
SPLINE
  5
5F511
330
1F
100
AcDbEntity
  8
1
100
AcDbSpline
210
0.0
220
0.0
230
1.0
 70
     8
 71
     3
 72
    11
 73
     7
 74
     0
 42
0.0000000001
 43
0.0000000001
 40
0.0
 40
0.0
 40
0.0
 40
0.0
 40
0.2708219198
 40
0.5239029932000001
 40
0.7648092970000001
 40
1.0
 40
1.0
 40
1.0
 40
1.0
 10
51.96728123609995
 20
36.4644389
 30
0.0
 10
51.87382976989994
 20
36.49413306989999
 30
0.0
 10
51.69796620569997
 20
36.56899792149995
 30
0.0
 10
51.46785547589996
 20
36.72608017369999
 30
0.0
 10
51.28161354469995
 20
36.91545618159995
 30
0.0
 10
51.1860392536999
 20
37.06042608829995
 30
0.0
 10
51.14624667149991
 20
37.13571149180001
 30
0.0
1001
ACAD
1000
RTMaterial
1005
0
  0
SPLINE
  5
5F512
330
1F
100
AcDbEntity
  8
1
100
AcDbSpline
210
0.0
220
0.0
230
1.0
 70
     8
 71
     3
 72
     9
 73
     5
 74
     0
 42
0.0000000001
 43
0.0000000001
 40
0.0
 40
0.0
 40
0.0
 40
0.0
 40
0.4793337618
 40
1.0
 40
1.0
 40
1.0
 40
1.0
 10
55.63354471449992
 20
35.64508537470004
 30
0.0
 10
55.55080519129996
 20
35.61636317739999
 30
0.0
 10
55.37478462069993
 20
35.5662544274
 30
0.0
 10
55.1960472806
 20
35.52809200169998
 30
0.0
 10
55.10271110909997
 20
35.509677931
 30
0.0
1001
ACAD
1000
RTMaterial
1005
0
  0
LINE
  5
5F513
330
1F
100
AcDbEntity
  8
1
100
AcDbLine
 10
55.89358960909994
 20
35.58449988040002
 30
0.0
 11
55.63354471449992
 21
35.64508537470004
 31
0.0
1001
ACAD
1000
RTMaterial
1005
0
  0
SPLINE
  5
5F514
330
1F
100
AcDbEntity
  8
1
100
AcDbSpline
210
0.0
220
0.0
230
1.0
 70
     8
 71
     3
 72
     8
 73
     4
 74
     0
 42
0.0000000001
 43
0.0000000001
 40
0.0
 40
0.0
 40
0.0
 40
0.0
 40
1.0
 40
1.0
 40
1.0
 40
1.0
 10
60.05521097319996
 20
34.60960887689993
 30
0.0
 10
58.66793071579997
 20
34.93426018269997
 30
0.0
 10
57.28073524320001
 20
35.25927384710002
 30
0.0
 10
55.89358960909994
 20
35.58449988040002
 30
0.0
1001
ACAD
1000
RTMaterial
1005
0
  0
SPLINE
  5
5F515
330
1F
100
AcDbEntity
  8
1
100
AcDbSpline
210
0.0
220
0.0
230
1.0
 70
     8
 71
     3
 72
    15
 73
    11
 74
     0
 42
0.0000000001
 43
0.0000000001
 40
0.0
 40
0.0
 40
0.0
 40
0.0
 40
0.1250137137
 40
0.250021726
 40
0.3750230828
 40
0.5000188203000001
 40
0.6250109944
 40
0.7500029216
 40
0.8749984933
 40
1.0
 40
1.0
 40
1.0
 40
1.0
 10
47.43964943419991
 20
42.28086272780001
 30
0.0
 10
47.38843097859995
 20
42.37852638769999
 30
0.0
 10
47.3110649999
 20
42.58820945640002
 30
0.0
 10
47.280285795
 20
42.92124863970002
 30
0.0
 10
47.33717229919995
 20
43.2511043778
 30
0.0
 10
47.47873523999993
 20
43.55443251669998
 30
0.0
 10
47.69551486439996
 20
43.8095417975
 30
0.0
 10
47.97231658959998
 20
43.9979302049
 30
0.0
 10
48.28889882079995
 20
44.10623059779999
 30
0.0
 10
48.51206125649998
 20
44.1201755271
 30
0.0
 10
48.62206552449999
 20
44.11254619170001
 30
0.0
1001
ACAD
1000
RTMaterial
1005
0
  0
SPLINE
  5
5F516
330
1F
100
AcDbEntity
  8
1
100
AcDbSpline
210
0.0
220
0.0
230
1.0
 70
     8
 71
     3
 72
     9
 73
     5
 74
     0
 42
0.0000000001
 43
0.0000000001
 40
0.0
 40
0.0
 40
0.0
 40
0.0
 40
0.2671771687
 40
1.0
 40
1.0
 40
1.0
 40
1.0
 10
47.73724931359999
 20
42.34945517290003
 30
0.0
 10
47.71602301050001
 20
42.35453817489997
 30
0.0
 10
47.63706132699991
 20
42.37553848649992
 30
0.0
 10
47.56001930029998
 20
42.40372209750001
 30
0.0
 10
47.50536411319996
 20
42.42815121709997
 30
0.0
1001
ACAD
1000
RTMaterial
1005
0
  0
SPLINE
  5
5F517
330
1F
100
AcDbEntity
  8
1
100
AcDbSpline
210
0.0
220
0.0
230
1.0
 70
     8
 71
     3
 72
    10
 73
     6
 74
     0
 42
0.0000000001
 43
0.0000000001
 40
0.0
 40
0.0
 40
0.0
 40
0.0
 40
0.4454345943
 40
0.6992788158
 40
1.0
 40
1.0
 40
1.0
 40
1.0
 10
48.12507902499993
 20
41.6889020204
 30
0.0
 10
48.02528863549998
 20
41.76017314239999
 30
0.0
 10
47.87064168889997
 20
41.8749748893
 30
0.0
 10
47.65648879429995
 20
42.04801785199999
 30
0.0
 10
47.54180755679993
 20
42.14896352089994
 30
0.0
 10
47.48164857739999
 20
42.20583930599997
 30
0.0
1001
ACAD
1000
RTMaterial
1005
0
  0
SPLINE
  5
5F518
330
1F
100
AcDbEntity
  8
1
100
AcDbSpline
210
0.0
220
0.0
230
1.0
 70
     8
 71
     3
 72
     9
 73
     5
 74
     0
 42
0.0000000001
 43
0.0000000001
 40
0.0
 40
0.0
 40
0.0
 40
0.0
 40
0.2547779435
 40
1.0
 40
1.0
 40
1.0
 40
1.0
 10
47.81040724709993
 20
42.33236572769999
 30
0.0
 10
47.80418681989994
 20
42.33378501089998
 30
0.0
 10
47.77977856449996
 20
42.33938556610001
 30
0.0
 10
47.75539844809992
 20
42.34510905169997
 30
0.0
 10
47.73724931359999
 20
42.34945517290003
 30
0.0
1001
ACAD
1000
RTMaterial
1005
0
  0
SPLINE
  5
5F519
330
1F
100
AcDbEntity
  8
1
100
AcDbSpline
210
0.0
220
0.0
230
1.0
 70
     8
 71
     3
 72
     8
 73
     4
 74
     0
 42
0.0000000001
 43
0.0000000001
 40
0.0
 40
0.0
 40
0.0
 40
0.0
 40
1.0
 40
1.0
 40
1.0
 40
1.0
 10
47.42598014059995
 20
42.47257210669999
 30
0.0
 10
47.41922006210001
 20
42.47719173000001
 30
0.0
 10
47.41258373249997
 20
42.48199841309997
 30
0.0
 10
47.40609323659993
 20
42.4869897099
 30
0.0
1001
ACAD
1000
RTMaterial
1005
0
  0
SPLINE
  5
5F51A
330
1F
100
AcDbEntity
  8
1
100
AcDbSpline
210
0.0
220
0.0
230
1.0
 70
     8
 71
     3
 72
     9
 73
     5
 74
     0
 42
0.0000000001
 43
0.0000000001
 40
0.0
 40
0.0
 40
0.0
 40
0.0
 40
0.2554893474
 40
1.0
 40
1.0
 40
1.0
 40
1.0
 10
47.40609323659993
 20
42.4869897099
 30
0.0
 10
47.39908860159999
 20
42.49237638799996
 30
0.0
 10
47.3723304909999
 20
42.51429682799994
 30
0.0
 10
47.34838116299994
 20
42.53969159519999
 30
0.0
 10
47.33279802149996
 20
42.56019062849998
 30
0.0
1001
ACAD
1000
RTMaterial
1005
0
  0
SPLINE
  5
5F51B
330
1F
100
AcDbEntity
  8
1
100
AcDbSpline
210
0.0
220
0.0
230
1.0
 70
     8
 71
     3
 72
     8
 73
     4
 74
     0
 42
0.0000000001
 43
0.0000000001
 40
0.0
 40
0.0
 40
0.0
 40
0.0
 40
1.0
 40
1.0
 40
1.0
 40
1.0
 10
47.50536006879992
 20
42.42813937290003
 30
0.0
 10
47.47767735479993
 20
42.44051518679998
 30
0.0
 10
47.45101717319999
 20
42.45546537040001
 30
0.0
 10
47.42598014059995
 20
42.47257210669999
 30
0.0
1001
ACAD
1000
RTMaterial
1005
0
  0
SPLINE
  5
5F51C
330
1F
100
AcDbEntity
  8
1
100
AcDbSpline
210
0.0
220
0.0
230
1.0
 70
     8
 71
     3
 72
    14
 73
    10
 74
     0
 42
0.0000000001
 43
0.0000000001
 40
0.0
 40
0.0
 40
0.0
 40
0.0
 40
0.0513041286
 40
0.1250692175
 40
0.2210025153
 40
0.338487982
 40
0.4766227053
 40
0.6341576074000001
 40
1.0
 40
1.0
 40
1.0
 40
1.0
 10
51.96728123609995
 20
36.4644389
 30
0.0
 10
51.97610572359991
 20
36.45693347829996
 30
0.0
 10
51.99976570299992
 20
36.44126415139999
 30
0.0
 10
52.04373599549995
 20
36.41764793070001
 30
0.0
 10
52.10309604319997
 20
36.39135788030001
 30
0.0
 10
52.17778421499992
 20
36.36430264009994
 30
0.0
 10
52.26765186289998
 20
36.33889759379997
 30
0.0
 10
52.41418200799995
 20
36.30940379610001
 30
0.0
 10
52.53296885269998
 20
36.30144958229994
 30
0.0
 10
52.61555572519995
 20
36.30332291399992
 30
0.0
1001
ACAD
1000
RTMaterial
1005
0
  0
SPLINE
  5
5F51D
330
1F
100
AcDbEntity
  8
1
100
AcDbSpline
210
0.0
220
0.0
230
1.0
 70
     8
 71
     3
 72
    10
 73
     6
 74
     0
 42
0.0000000001
 43
0.0000000001
 40
0.0
 40
0.0
 40
0.0
 40
0.0
 40
0.2957307909
 40
0.5510741525000001
 40
1.0
 40
1.0
 40
1.0
 40
1.0
 10
51.23491284779999
 20
37.01893887159997
 30
0.0
 10
51.20306090679997
 20
37.10341476899993
 30
0.0
 10
51.14959051369993
 20
37.26308693939996
 30
0.0
 10
51.06831024949991
 20
37.55742146919999
 30
0.0
 10
51.02306294489989
 20
37.76782132570003
 30
0.0
 10
50.99815456009998
 20
37.90258788079996
 30
0.0
1001
ACAD
1000
RTMaterial
1005
0
  0
SPLINE
  5
5F51E
330
1F
100
AcDbEntity
  8
1
100
AcDbSpline
210
0.0
220
0.0
230
1.0
 70
     8
 71
     3
 72
     8
 73
     4
 74
     0
 42
0.0000000001
 43
0.0000000001
 40
0.0
 40
0.0
 40
0.0
 40
0.0
 40
1.0
 40
1.0
 40
1.0
 40
1.0
 10
53.46146478489998
 20
36.36587642540002
 30
0.0
 10
53.5284621225
 20
36.41210884459997
 30
0.0
 10
53.59186238929993
 20
36.4640427228
 30
0.0
 10
53.65034631899999
 20
36.52066171069999
 30
0.0
1001
ACAD
1000
RTMaterial
1005
0
  0
SPLINE
  5
5F51F
330
1F
100
AcDbEntity
  8
1
100
AcDbSpline
210
0.0
220
0.0
230
1.0
 70
     8
 71
     3
 72
     9
 73
     5
 74
     0
 42
0.0000000001
 43
0.0000000001
 40
0.0
 40
0.0
 40
0.0
 40
0.0
 40
0.249520802
 40
1.0
 40
1.0
 40
1.0
 40
1.0
 10
53.32228708919996
 20
36.28105158139999
 30
0.0
 10
53.33424935039994
 20
36.28743852000003
 30
0.0
 10
53.38182258759997
 20
36.3137184039
 30
0.0
 10
53.42789576920001
 20
36.34271167189996
 30
0.0
 10
53.46146478489998
 20
36.36587642540002
 30
0.0
1001
ACAD
1000
RTMaterial
1005
0
  0
LINE
  5
5F520
330
1F
100
AcDbEntity
  8
1
100
AcDbLine
 10
51.32824619909996
 20
37.52245178199996
 30
0.0
 11
51.33252468069992
 21
37.53237684990001
 31
0.0
1001
ACAD
1000
RTMaterial
1005
0
  0
SPLINE
  5
5F521
330
1F
100
AcDbEntity
  8
1
100
AcDbSpline
210
0.0
220
0.0
230
1.0
 70
     8
 71
     3
 72
     9
 73
     5
 74
     0
 42
0.0000000001
 43
0.0000000001
 40
0.0
 40
0.0
 40
0.0
 40
0.0
 40
0.2958628406
 40
1.0
 40
1.0
 40
1.0
 40
1.0
 10
51.41103823309999
 20
37.83603816059997
 30
0.0
 10
51.41040866709994
 20
37.83757940059996
 30
0.0
 10
51.40835272539999
 20
37.84281388779999
 30
0.0
 10
51.40653727389992
 20
37.84816927309999
 30
0.0
 10
51.40568790339995
 20
37.85203945069998
 30
0.0
1001
ACAD
1000
RTMaterial
1005
0
  0
SPLINE
  5
5F522
330
1F
100
AcDbEntity
  8
1
100
AcDbSpline
210
0.0
220
0.0
230
1.0
 70
     8
 71
     3
 72
     9
 73
     5
 74
     0
 42
0.0000000001
 43
0.0000000001
 40
0.0
 40
0.0
 40
0.0
 40
0.0
 40
0.2570774527
 40
1.0
 40
1.0
 40
1.0
 40
1.0
 10
51.37784584799994
 20
37.63637637970004
 30
0.0
 10
51.37898244019999
 20
37.65370039059997
 30
0.0
 10
51.38499443359996
 20
37.7209675803
 30
0.0
 10
51.39758515049999
 20
37.78770353879997
 30
0.0
 10
51.41103823309999
 20
37.83603816059997
 30
0.0
1001
ACAD
1000
RTMaterial
1005
0
  0
SPLINE
  5
5F523
330
1F
100
AcDbEntity
  8
1
100
AcDbSpline
210
0.0
220
0.0
230
1.0
 70
     8
 71
     3
 72
     9
 73
     5
 74
     0
 42
0.0000000001
 43
0.0000000001
 40
0.0
 40
0.0
 40
0.0
 40
0.0
 40
0.2431942643
 40
1.0
 40
1.0
 40
1.0
 40
1.0
 10
51.2865867671
 20
37.39253882769998
 30
0.0
 10
51.28839769899997
 20
37.40414636449998
 30
0.0
 10
51.29729530849994
 20
37.45164307089999
 30
0.0
 10
51.31184707199992
 20
37.49803967060001
 30
0.0
 10
51.32551113659991
 20
37.53194907059998
 30
0.0
1001
ACAD
1000
RTMaterial
1005
0
  0
SPLINE
  5
5F524
330
1F
100
AcDbEntity
  8
1
100
AcDbSpline
210
0.0
220
0.0
230
1.0
 70
     8
 71
     3
 72
     9
 73
     5
 74
     0
 42
0.0000000001
 43
0.0000000001
 40
0.0
 40
0.0
 40
0.0
 40
0.0
 40
0.2034031138
 40
1.0
 40
1.0
 40
1.0
 40
1.0
 10
47.46184703549994
 20
42.23974757820002
 30
0.0
 10
47.47827388969989
 20
42.22772694959997
 30
0.0
 10
47.56085585519992
 20
42.17114331369993
 30
0.0
 10
47.65140863199991
 20
42.12636341820001
 30
0.0
 10
47.72567226399991
 20
42.09738210720002
 30
0.0
1001
ACAD
1000
RTMaterial
1005
0
  0
SPLINE
  5
5F525
330
1F
100
AcDbEntity
  8
1
100
AcDbSpline
210
0.0
220
0.0
230
1.0
 70
     8
 71
     3
 72
    11
 73
     7
 74
     0
 42
0.0000000001
 43
0.0000000001
 40
0.0
 40
0.0
 40
0.0
 40
0.0
 40
0.243686699
 40
0.4901616883
 40
0.7416930485
 40
1.0
 40
1.0
 40
1.0
 40
1.0
 10
51.14624667149991
 20
37.13571149180001
 30
0.0
 10
51.11619882409996
 20
37.19256038649997
 30
0.0
 10
51.06401165099993
 20
37.31149306199995
 30
0.0
 10
51.01218584539998
 20
37.50091264420002
 30
0.0
 10
50.98797283499999
 20
37.69969914879999
 30
0.0
 10
50.99147197500002
 20
37.8347570318
 30
0.0
 10
50.99815456009998
 20
37.90258788079996
 30
0.0
1001
ACAD
1000
RTMaterial
1005
0
  0
SPLINE
  5
5F526
330
1F
100
AcDbEntity
  8
1
100
AcDbSpline
210
0.0
220
0.0
230
1.0
 70
     8
 71
     3
 72
    14
 73
    10
 74
     0
 42
0.0000000001
 43
0.0000000001
 40
0.0
 40
0.0
 40
0.0
 40
0.0
 40
0.1273310334
 40
0.2543534667
 40
0.3808058354
 40
0.5064975061000001
 40
0.6313149067000001
 40
0.7552016767000001
 40
1.0
 40
1.0
 40
1.0
 40
1.0
 10
40.70416437429997
 20
42.63648006459999
 30
0.0
 10
40.50750089739989
 20
42.63137392689992
 30
0.0
 10
40.11386914719998
 20
42.63928295470003
 30
0.0
 10
39.52886954799993
 20
42.71131897939994
 30
0.0
 10
38.95734007619996
 20
42.84497830679998
 30
0.0
 10
38.40612094869999
 20
43.0359627181
 30
0.0
 10
37.87898428109992
 20
43.2759959649
 30
0.0
 10
37.21249524199999
 20
43.64757475319999
 30
0.0
 10
36.74473189749995
 20
43.97586732740001
 30
0.0
 10
36.44681851299993
 20
44.208886226
 30
0.0
1001
ACAD
1000
RTMaterial
1005
0
  0
SPLINE
  5
5F527
330
1F
100
AcDbEntity
  8
1
100
AcDbSpline
210
0.0
220
0.0
230
1.0
 70
     8
 71
     3
 72
     9
 73
     5
 74
     0
 42
0.0000000001
 43
0.0000000001
 40
0.0
 40
0.0
 40
0.0
 40
0.0
 40
0.5000064113000001
 40
1.0
 40
1.0
 40
1.0
 40
1.0
 10
41.80403788399991
 20
42.6149514457
 30
0.0
 10
41.62096955819999
 20
42.62580405
 30
0.0
 10
41.25441873849996
 20
42.64088795119994
 30
0.0
 10
40.8874876147999
 20
42.64123983849998
 30
0.0
 10
40.70416437429997
 20
42.63648006459999
 30
0.0
1001
ACAD
1000
RTMaterial
1005
0
  0
SPLINE
  5
5F528
330
1F
100
AcDbEntity
  8
1
100
AcDbSpline
210
0.0
220
0.0
230
1.0
 70
     8
 71
     3
 72
     9
 73
     5
 74
     0
 42
0.0000000001
 43
0.0000000001
 40
0.0
 40
0.0
 40
0.0
 40
0.0
 40
0.5023630547
 40
1.0
 40
1.0
 40
1.0
 40
1.0
 10
48.12507902499993
 20
41.6889020204
 30
0.0
 10
48.02246781909997
 20
41.72504445589999
 30
0.0
 10
47.82664505679991
 20
41.82378565649992
 30
0.0
 10
47.6630975292
 20
41.97007905909998
 30
0.0
 10
47.59309219899996
 20
42.05201164459999
 30
0.0
1001
ACAD
1000
RTMaterial
1005
0
  0
SPLINE
  5
5F529
330
1F
100
AcDbEntity
  8
1
100
AcDbSpline
210
0.0
220
0.0
230
1.0
 70
     8
 71
     3
 72
     9
 73
     5
 74
     0
 42
0.0000000001
 43
0.0000000001
 40
0.0
 40
0.0
 40
0.0
 40
0.0
 40
0.5000009673
 40
1.0
 40
1.0
 40
1.0
 40
1.0
 10
46.07079296629996
 20
47.43763906169999
 30
0.0
 10
46.54252481429995
 20
47.58568028709999
 30
0.0
 10
47.50983121339999
 20
47.81059532849996
 30
0.0
 10
48.50009596870001
 20
47.88613443999998
 30
0.0
 10
48.99451001349991
 20
47.88617486079994
 30
0.0
1001
ACAD
1000
RTMaterial
1005
0
  0
SPLINE
  5
5F52A
330
1F
100
AcDbEntity
  8
1
100
AcDbSpline
210
0.0
220
0.0
230
1.0
 70
     8
 71
     3
 72
    21
 73
    17
 74
     0
 42
0.0000000001
 43
0.0000000001
 40
0.0
 40
0.0
 40
0.0
 40
0.0
 40
0.046230867
 40
0.089785245
 40
0.1319900575
 40
0.1743758629
 40
0.2184711839
 40
0.2655914025
 40
0.3167241855
 40
0.3725419411
 40
0.4334183499
 40
0.4995155779
 40
0.5708480742000001
 40
0.6473011537
 40
0.8147781100999999
 40
1.0
 40
1.0
 40
1.0
 40
1.0
 10
31.67843927209992
 20
40.91205088049997
 30
0.0
 10
31.65174593019993
 20
40.94533421070003
 30
0.0
 10
31.60477212719991
 20
41.01417897170001
 30
0.0
 10
31.55567016579994
 20
41.12649428279996
 30
0.0
 10
31.53134988629995
 20
41.24313319139997
 30
0.0
 10
31.53210924719997
 20
41.36274981970001
 30
0.0
 10
31.55765805639999
 20
41.48412790329996
 30
0.0
 10
31.6070788543999
 20
41.60646131579994
 30
0.0
 10
31.67931422250001
 20
41.72941792839998
 30
0.0
 10
31.77341268049997
 20
41.85281340540001
 30
0.0
 10
31.88828906799995
 20
41.97663026519996
 30
0.0
 10
32.02286987139996
 20
42.10086504189996
 30
0.0
 10
32.17603139089999
 20
42.22553670000002
 30
0.0
 10
32.41064619909991
 20
42.3977601725
 30
0.0
 10
32.74392671009991
 20
42.61232379229994
 30
0.0
 10
33.02616874259991
 20
42.77460168659996
 30
0.0
 10
33.17563844699999
 20
42.85753490040002
 30
0.0
1001
ACAD
1000
RTMaterial
1005
0
  0
SPLINE
  5
5F52B
330
1F
100
AcDbEntity
  8
1
100
AcDbSpline
210
0.0
220
0.0
230
1.0
 70
     8
 71
     3
 72
     8
 73
     4
 74
     0
 42
0.0000000001
 43
0.0000000001
 40
0.0
 40
0.0
 40
0.0
 40
0.0
 40
1.0
 40
1.0
 40
1.0
 40
1.0
 10
46.07079296629996
 20
47.43763906169999
 30
0.0
 10
44.34450781639992
 20
46.89588770429998
 30
0.0
 10
42.61835776519996
 20
46.35370562519995
 30
0.0
 10
40.89235805999993
 20
45.81104553829994
 30
0.0
1001
ACAD
1000
RTMaterial
1005
0
  0
SPLINE
  5
5F52C
330
1F
100
AcDbEntity
  8
1
100
AcDbSpline
210
0.0
220
0.0
230
1.0
 70
     8
 71
     3
 72
    11
 73
     7
 74
     0
 42
0.0000000001
 43
0.0000000001
 40
0.0
 40
0.0
 40
0.0
 40
0.0
 40
0.2436760896
 40
0.4926712429000001
 40
0.7453666522
 40
1.0
 40
1.0
 40
1.0
 40
1.0
 10
36.44681851299993
 20
44.208886226
 30
0.0
 10
36.80148138979996
 20
44.35593587519997
 30
0.0
 10
37.52263374249998
 20
44.64346340639997
 30
0.0
 10
38.62361307839996
 20
45.05248381299998
 30
0.0
 10
39.74938447599999
 20
45.44353485909994
 30
0.0
 10
40.50962516869998
 20
45.69071303559996
 30
0.0
 10
40.89235805999993
 20
45.81104553829994
 30
0.0
1001
ACAD
1000
RTMaterial
1005
0
  0
SPLINE
  5
5F52D
330
1F
100
AcDbEntity
  8
1
100
AcDbSpline
210
0.0
220
0.0
230
1.0
 70
     8
 71
     3
 72
    11
 73
     7
 74
     0
 42
0.0000000001
 43
0.0000000001
 40
0.0
 40
0.0
 40
0.0
 40
0.0
 40
0.2290135261
 40
0.4760906721
 40
0.7350150543999999
 40
1.0
 40
1.0
 40
1.0
 40
1.0
 10
33.17563844699999
 20
42.85753490040002
 30
0.0
 10
33.41221360349994
 20
42.98879854429998
 30
0.0
 10
33.91515764370002
 20
43.24172120029999
 30
0.0
 10
34.7119602798
 20
43.58758281000001
 30
0.0
 10
35.56293507929991
 20
43.91300493879998
 30
0.0
 10
36.14891377969991
 20
44.11270315109999
 30
0.0
 10
36.44681851299993
 20
44.208886226
 30
0.0
1001
ACAD
1000
RTMaterial
1005
0
  0
SPLINE
  5
5F52E
330
1F
100
AcDbEntity
  8
1
100
AcDbSpline
210
0.0
220
0.0
230
1.0
 70
     8
 71
     3
 72
    22
 73
    18
 74
     0
 42
0.0000000001
 43
0.0000000001
 40
0.0
 40
0.0
 40
0.0
 40
0.0
 40
0.0048739718
 40
0.0103387439
 40
0.0169262553
 40
0.0249565854
 40
0.0459938904
 40
0.0742788571
 40
0.1101819004
 40
0.1539215028
 40
0.2056302478
 40
0.2653668421
 40
0.3331065438
 40
0.4087197961
 40
0.5823492092000001
 40
0.7819973035
 40
1.0
 40
1.0
 40
1.0
 40
1.0
 10
51.1187097417
 20
48.8696167672
 30
0.0
 10
51.11870613169998
 20
48.87265749269994
 30
0.0
 10
51.12006926319992
 20
48.87916376430002
 30
0.0
 10
51.12594133519991
 20
48.88813948129996
 30
0.0
 10
51.13529394699998
 20
48.89660803879997
 30
0.0
 10
51.15416531049999
 20
48.90851912989996
 30
0.0
 10
51.1875904721
 20
48.92187854000003
 30
0.0
 10
51.23889816410002
 20
48.9359136741
 30
0.0
 10
51.30501642579992
 20
48.94892965019995
 30
0.0
 10
51.38609963549999
 20
48.96089365439997
 30
0.0
 10
51.48232112989996
 20
48.97174239180003
 30
0.0
 10
51.59369451769993
 20
48.98145768439997
 30
0.0
 10
51.72011165729992
 20
48.9900363264
 30
0.0
 10
51.91759882499997
 20
49.00045044229995
 30
0.0
 10
52.1975029443999
 20
49.01009143559997
 30
0.0
 10
52.56632146019995
 20
49.01730682639999
 30
0.0
 10
52.82687558549998
 20
49.01966701479995
 30
0.0
 10
52.96287934679998
 20
49.02034882039998
 30
0.0
1001
ACAD
1000
RTMaterial
1005
0
  0
SPLINE
  5
5F52F
330
1F
100
AcDbEntity
  8
1
100
AcDbSpline
210
0.0
220
0.0
230
1.0
 70
     8
 71
     3
 72
     9
 73
     5
 74
     0
 42
0.0000000001
 43
0.0000000001
 40
0.0
 40
0.0
 40
0.0
 40
0.0
 40
0.2430575989
 40
1.0
 40
1.0
 40
1.0
 40
1.0
 10
47.72567226399991
 20
42.09738210720002
 30
0.0
 10
47.74825050959992
 20
42.08857096860003
 30
0.0
 10
47.8422433030999
 20
42.05519956909995
 30
0.0
 10
47.94038465459999
 20
42.03355761220001
 30
0.0
 10
48.01526521279999
 20
42.02407259649993
 30
0.0
1001
ACAD
1000
RTMaterial
1005
0
  0
SPLINE
  5
5F530
330
1F
100
AcDbEntity
  8
1
100
AcDbSpline
210
0.0
220
0.0
230
1.0
 70
     8
 71
     3
 72
     9
 73
     5
 74
     0
 42
0.0000000001
 43
0.0000000001
 40
0.0
 40
0.0
 40
0.0
 40
0.0
 40
0.2381799964
 40
1.0
 40
1.0
 40
1.0
 40
1.0
 10
47.29994187019991
 20
42.99322282500003
 30
0.0
 10
47.30596035309992
 20
43.00848944589995
 30
0.0
 10
47.33345588469996
 20
43.07170397729999
 30
0.0
 10
47.36918726969991
 20
43.13118377659998
 30
0.0
 10
47.39950826899991
 20
43.1740277989
 30
0.0
1001
ACAD
1000
RTMaterial
1005
0
  0
SPLINE
  5
5F531
330
1F
100
AcDbEntity
  8
1
100
AcDbSpline
210
0.0
220
0.0
230
1.0
 70
     8
 71
     3
 72
     9
 73
     5
 74
     0
 42
0.0000000001
 43
0.0000000001
 40
0.0
 40
0.0
 40
0.0
 40
0.0
 40
0.4814981573
 40
1.0
 40
1.0
 40
1.0
 40
1.0
 10
51.73506853199995
 20
36.24202136240001
 30
0.0
 10
51.76949846709994
 20
36.28050244669998
 30
0.0
 10
51.84499888189993
 20
36.35685190369998
 30
0.0
 10
51.92503128749996
 20
36.4282905074
 30
0.0
 10
51.96728123609995
 20
36.4644389
 30
0.0
1001
ACAD
1000
RTMaterial
1005
0
  0
SPLINE
  5
5F532
330
1F
100
AcDbEntity
  8
1
100
AcDbSpline
210
0.0
220
0.0
230
1.0
 70
     8
 71
     3
 72
     9
 73
     5
 74
     0
 42
0.0000000001
 43
0.0000000001
 40
0.0
 40
0.0
 40
0.0
 40
0.0
 40
0.4842886493
 40
1.0
 40
1.0
 40
1.0
 40
1.0
 10
47.39950826899991
 20
43.1740277989
 30
0.0
 10
47.43210469089996
 20
43.22008702729994
 30
0.0
 10
47.5071663221999
 20
43.3098219263
 30
0.0
 10
47.5934496879999
 20
43.38862081019999
 30
0.0
 10
47.64013738659997
 20
43.42644702640001
 30
0.0
1001
ACAD
1000
RTMaterial
1005
0
  0
SPLINE
  5
5F533
330
1F
100
AcDbEntity
  8
1
100
AcDbSpline
210
0.0
220
0.0
230
1.0
 70
     8
 71
     3
 72
    10
 73
     6
 74
     0
 42
0.0000000001
 43
0.0000000001
 40
0.0
 40
0.0
 40
0.0
 40
0.0
 40
0.570583778
 40
0.8100797881
 40
1.0
 40
1.0
 40
1.0
 40
1.0
 10
51.18035190509994
 20
37.37872616089999
 30
0.0
 10
51.18274535069992
 20
37.31330653779997
 30
0.0
 10
51.19173150529997
 20
37.22047034299993
 30
0.0
 10
51.21336051769998
 20
37.10775527049998
 30
0.0
 10
51.22509005909996
 20
37.05988763479997
 30
0.0
 10
51.2306068085
 20
37.03880792040002
 30
0.0
1001
ACAD
1000
RTMaterial
1005
0
  0
SPLINE
  5
5F534
330
1F
100
AcDbEntity
  8
1
100
AcDbSpline
210
0.0
220
0.0
230
1.0
 70
     8
 71
     3
 72
    11
 73
     7
 74
     0
 42
0.0000000001
 43
0.0000000001
 40
0.0
 40
0.0
 40
0.0
 40
0.0
 40
0.4011814744
 40
0.7236888487000001
 40
0.9382159868999998
 40
1.0
 40
1.0
 40
1.0
 40
1.0
 10
51.2306068085
 20
37.03880792040002
 30
0.0
 10
51.2314076264999
 20
37.03574796359999
 30
0.0
 10
51.23277585289992
 20
37.03059681949998
 30
0.0
 10
51.23494465909999
 20
37.02220413059996
 30
0.0
 10
51.23554615839992
 20
37.01997131549996
 30
0.0
 10
51.23654293809995
 20
37.0154815061
 30
0.0
 10
51.2362345379999
 20
37.01585856769998
 30
0.0
1001
ACAD
1000
RTMaterial
1005
0
  0
SPLINE
  5
5F535
330
1F
100
AcDbEntity
  8
1
100
AcDbSpline
210
0.0
220
0.0
230
1.0
 70
     8
 71
     3
 72
     9
 73
     5
 74
     0
 42
0.0000000001
 43
0.0000000001
 40
0.0
 40
0.0
 40
0.0
 40
0.0
 40
0.5032959675000001
 40
1.0
 40
1.0
 40
1.0
 40
1.0
 10
51.31349448119994
 20
38.05532094349997
 30
0.0
 10
51.26552149549997
 20
37.94920489149996
 30
0.0
 10
51.1945131173
 20
37.72652632579997
 30
0.0
 10
51.17614985189999
 20
37.49358013339997
 30
0.0
 10
51.18035190509994
 20
37.37872616089999
 30
0.0
1001
ACAD
1000
RTMaterial
1005
0
  0
SPLINE
  5
5F536
330
1F
100
AcDbEntity
  8
1
100
AcDbSpline
210
0.0
220
0.0
230
1.0
 70
     8
 71
     3
 72
    12
 73
     8
 74
     0
 42
0.0000000001
 43
0.0000000001
 40
0.0
 40
0.0
 40
0.0
 40
0.0
 40
0.2721408939
 40
0.5299190266
 40
0.7714932867000001
 40
0.8871217599999999
 40
1.0
 40
1.0
 40
1.0
 40
1.0
 10
52.39826227809993
 20
36.67450717229997
 30
0.0
 10
52.31950754629991
 20
36.65246338169999
 30
0.0
 10
52.16111606449993
 20
36.62513623509994
 30
0.0
 10
51.92755920209998
 20
36.63828507970004
 30
0.0
 10
51.7493035144999
 20
36.696380331
 30
0.0
 10
51.62772437629991
 20
36.7692237686
 30
0.0
 10
51.57475841499996
 20
36.81348198969999
 30
0.0
 10
51.55059647439992
 20
36.83729068280002
 30
0.0
1001
ACAD
1000
RTMaterial
1005
0
  0
SPLINE
  5
5F537
330
1F
100
AcDbEntity
  8
1
100
AcDbSpline
210
0.0
220
0.0
230
1.0
 70
     8
 71
     3
 72
     9
 73
     5
 74
     0
 42
0.0000000001
 43
0.0000000001
 40
0.0
 40
0.0
 40
0.0
 40
0.0
 40
0.5229015426000001
 40
1.0
 40
1.0
 40
1.0
 40
1.0
 10
51.55059647439992
 20
36.83729068280002
 30
0.0
 10
51.52107567829995
 20
36.86638549689997
 30
0.0
 10
51.46544641959991
 20
36.92288525279997
 30
0.0
 10
51.41427551859994
 20
36.98365162430003
 30
0.0
 10
51.39189174199993
 20
37.01413379960002
 30
0.0
1001
ACAD
1000
RTMaterial
1005
0
  0
SPLINE
  5
5F538
330
1F
100
AcDbEntity
  8
1
100
AcDbSpline
210
0.0
220
0.0
230
1.0
 70
     8
 71
     3
 72
     9
 73
     5
 74
     0
 42
0.0000000001
 43
0.0000000001
 40
0.0
 40
0.0
 40
0.0
 40
0.0
 40
0.2548433536
 40
1.0
 40
1.0
 40
1.0
 40
1.0
 10
53.03696115249994
 20
49.01715448319999
 30
0.0
 10
53.0991824507999
 20
49.01146461799993
 30
0.0
 10
53.34329583749997
 20
48.98868713680002
 30
0.0
 10
53.58725549749994
 20
48.9642388542
 30
0.0
 10
53.76891035099998
 20
48.94479136339999
 30
0.0
1001
ACAD
1000
RTMaterial
1005
0
  0
SPLINE
  5
5F539
330
1F
100
AcDbEntity
  8
1
100
AcDbSpline
210
0.0
220
0.0
230
1.0
 70
     8
 71
     3
 72
     9
 73
     5
 74
     0
 42
0.0000000001
 43
0.0000000001
 40
0.0
 40
0.0
 40
0.0
 40
0.0
 40
0.245589478
 40
1.0
 40
1.0
 40
1.0
 40
1.0
 10
51.32551113659991
 20
37.53194907059998
 30
0.0
 10
51.32908722449991
 20
37.54082366250003
 30
0.0
 10
51.34439747480001
 20
37.57665455610004
 30
0.0
 10
51.36265593069999
 20
37.6112145463
 30
0.0
 10
51.37784584799994
 20
37.63637637970004
 30
0.0
1001
ACAD
1000
RTMaterial
1005
0
  0
SPLINE
  5
5F53A
330
1F
100
AcDbEntity
  8
1
100
AcDbSpline
210
0.0
220
0.0
230
1.0
 70
     8
 71
     3
 72
     9
 73
     5
 74
     0
 42
0.0000000001
 43
0.0000000001
 40
0.0
 40
0.0
 40
0.0
 40
0.0
 40
0.2490983899
 40
1.0
 40
1.0
 40
1.0
 40
1.0
 10
52.96287934679998
 20
49.02034882039998
 30
0.0
 10
52.96903753719999
 20
49.02037969229997
 30
0.0
 10
52.99376004829998
 20
49.02020756349998
 30
0.0
 10
53.018474325
 20
49.01884502259997
 30
0.0
 10
53.03696115249994
 20
49.01715448319999
 30
0.0
1001
ACAD
1000
RTMaterial
1005
0
  0
SPLINE
  5
5F53B
330
1F
100
AcDbEntity
  8
1
100
AcDbSpline
210
0.0
220
0.0
230
1.0
 70
     8
 71
     3
 72
    12
 73
     8
 74
     0
 42
0.0000000001
 43
0.0000000001
 40
0.0
 40
0.0
 40
0.0
 40
0.0
 40
0.0822697657
 40
0.1771332878
 40
0.4049243741
 40
0.6809223631999999
 40
1.0
 40
1.0
 40
1.0
 40
1.0
 10
52.29520687579991
 20
48.04063558280001
 30
0.0
 10
52.30328684339991
 20
48.04920857109999
 30
0.0
 10
52.32249271069992
 20
48.06596914229993
 30
0.0
 10
52.37080800119992
 20
48.09819532339997
 30
0.0
 10
52.44852366439994
 20
48.13521900469999
 30
0.0
 10
52.55960266019991
 20
48.17474913409995
 30
0.0
 10
52.6417333478999
 20
48.19771164919996
 30
0.0
 10
52.68600574659996
 20
48.20900525329995
 30
0.0
1001
ACAD
1000
RTMaterial
1005
0
  0
ELLIPSE
  5
5F54A
330
1F
100
AcDbEntity
  8
1
100
AcDbEllipse
 10
15.20830667819996
 20
0.0
 30
0.0
 11
-56.67765703059999
 21
-37.7565958538
 31
0.0
210
0.0
220
0.0
230
1.0
 40
0.5524295597
 41
-2.5822785153
 42
-2.5763012697
1001
ACAD
1000
RTMaterial
1005
0
  0
ELLIPSE
  5
5F54B
330
1F
100
AcDbEntity
  8
1
100
AcDbEllipse
 10
43.64842874679988
 20
0.0
 30
0.0
 11
7.427263174900002
 21
49.01710242350001
 31
0.0
210
0.0
220
0.0
230
1.0
 40
0.2418325815
 41
-0.1474028316
 42
-0.0963942903
1001
ACAD
1000
RTMaterial
1005
0
  0
ELLIPSE
  5
5F54C
330
1F
100
AcDbEntity
  8
1
100
AcDbEllipse
 10
5.468348859499883
 20
0.0
 30
0.0
 11
46.94618320039999
 21
48.9821562858
 31
0.0
210
0.0
220
0.0
230
1.0
 40
0.054933693
 41
-0.1600432774
 42
-0.1540147851
1001
ACAD
1000
RTMaterial
1005
0
  0
ELLIPSE
  5
5F54D
330
1F
100
AcDbEntity
  8
1
100
AcDbEllipse
 10
51.14691301219995
 20
43.76047232040003
 30
0.0
 11
-2.522367721899999
 21
0.3806746899000002
 31
0.0
210
0.0
220
0.0
230
1.0
 40
0.0812499867
 41
-0.46007086
 42
-0.1994716665
1001
ACAD
1000
RTMaterial
1005
0
  0
ELLIPSE
  5
5F54E
330
1F
100
AcDbEntity
  8
1
100
AcDbEllipse
 10
53.89737437000002
 20
36.03423443790001
 30
0.0
 11
-1.939614604799999
 21
0.4565062913000001
 31
0.0
210
0.0
220
0.0
230
1.0
 40
0.0211265774
 41
7.136997350299999
 42
8.888641536199999
1001
ACAD
1000
RTMaterial
1005
0
  0
ELLIPSE
  5
5F54F
330
1F
100
AcDbEntity
  8
1
100
AcDbEllipse
 10
53.12510458809999
 20
37.98458128799996
 30
0.0
 11
2.5101397666
 21
5.0077258413
 31
0.0
210
0.0
220
0.0
230
1.0
 40
0.2559254971
 41
1.7674061774
 42
1.787672183399999
1001
ACAD
1000
RTMaterial
1005
0
  0
ELLIPSE
  5
5F550
330
1F
100
AcDbEntity
  8
1
100
AcDbEllipse
 10
15.11542909619993
 20
0.0
 30
0.0
 11
-49.80168690960002
 21
-46.8286827766
 31
0.0
210
0.0
220
0.0
230
1.0
 40
0.2930368706
 41
-2.6554608271
 42
-2.6540459091
1001
ACAD
1000
RTMaterial
1005
0
  0
ELLIPSE
  5
5F551
330
1F
100
AcDbEntity
  8
1
100
AcDbEllipse
 10
70.66159067279994
 20
0.0
 30
0.0
 11
-17.20301225609999
 21
48.4709143176
 31
0.0
210
0.0
220
0.0
230
1.0
 40
0.43683336
 41
0.0588313175
 42
0.0644360435
1001
ACAD
1000
RTMaterial
1005
0
  0
ELLIPSE
  5
5F552
330
1F
100
AcDbEntity
  8
1
100
AcDbEllipse
 10
48.69192175399991
 20
41.76134576309999
 30
0.0
 11
-2.3701875655
 21
0.3525254196000001
 31
0.0
210
0.0
220
0.0
230
0.9999999999999998
 40
0.0700311318
 41
-1.464172001699999
 42
-1.270882900699999
1001
ACAD
1000
RTMaterial
1005
0
  0
LINE
  5
5F5CB
330
1F
100
AcDbEntity
  8
nocut
100
AcDbLine
 10
0.0
 20
0.0
 30
0.0
 11
62.19999999999998
 21
0.0
 31
0.0
  0
DIMENSION
  5
5F662
330
1F
100
AcDbEntity
  8
2
100
AcDbDimension
  2
*D59
 10
98.89875600668171
 20
-50.80000000000001
 30
0.0
 11
94.84875600668173
 21
-1.749999999999991
 31
0.0
 70
    32
  1
%%C<>
 71
     5
 42
101.6
  3
\M+18352\M+18373\M+1815B - ISO-25
100
AcDbAlignedDimension
 13
60.11149880249996
 23
50.80000000000001
 33
0.0
 14
60.11149880249996
 24
-50.80000000000001
 34
0.0
 50
90.0
100
AcDbRotatedDimension
1001
ACAD
1000
DSTYLE
1002
{
1070
     4
1000
%%C[]"
1070
    40
1040
1.0
1070
    76
1070
     1
1070
   143
1040
0.0393700787401575
1070
   170
1070
     1
1070
   171
1070
     3
1070
   173
1070
     1
1070
   271
1070
     8
1070
   285
1070
     4
1070
   344
1005
32F1
1002
}
  0
DIMENSION
  5
5F67A
330
1F
100
AcDbEntity
  8
2
100
AcDbDimension
  2
*D60
 10
86.47930996829684
 20
-43.05500000000001
 30
0.0
 11
82.42930996829684
 21
-1.74999999999999
 31
0.0
 70
    32
  1
%%C<>
 71
     5
 42
86.11000000000002
  3
\M+18352\M+18373\M+1815B - ISO-25
100
AcDbAlignedDimension
 13
63.31561308721848
 23
43.05500000000001
 33
0.0
 14
63.31561308721848
 24
-43.05500000000001
 34
0.0
 50
90.0
100
AcDbRotatedDimension
1001
ACAD
1000
DSTYLE
1002
{
1070
     4
1000
%%C[]"
1070
    40
1040
1.0
1070
    76
1070
     1
1070
   143
1040
0.0393700787401575
1070
   170
1070
     1
1070
   171
1070
     3
1070
   173
1070
     1
1070
   271
1070
     8
1070
   285
1070
     4
1070
   344
1005
32F1
1002
}
  0
DIMENSION
  5
5F692
102
{ACAD_XDICTIONARY
360
5F69F
102
}
102
{ACAD_REACTORS
330
5F6A9
102
}
330
1F
100
AcDbEntity
  8
sk2
100
AcDbDimension
  2
*D61
 10
-19.71151154628132
 20
-19.05000000000001
 30
0.0
 11
-19.71151154628131
 21
0.0000000000000012
 31
0.0
 70
   160
  1
%%C<>
 71
     5
 42
38.10000000000002
  3
\M+18352\M+18373\M+1815B - ISO-25
100
AcDbAlignedDimension
 13
8.0
 23
19.05000000000001
 33
0.0
 14
8.0
 24
-19.05000000000001
 34
0.0
 50
90.0
100
AcDbRotatedDimension
1001
ACAD
1000
DSTYLE
1002
{
1070
     4
1000
%%c[]"
1070
    40
1040
1.0
1070
   143
1040
0.0393700787401575
1070
   170
1070
     1
1070
   171
1070
     3
1070
   271
1070
     8
1070
   285
1070
     4
1002
}
  0
DIMENSION
  5
5F6AA
102
{ACAD_XDICTIONARY
360
5F6B7
102
}
102
{ACAD_REACTORS
330
5F6C1
102
}
330
1F
100
AcDbEntity
  8
sk2
100
AcDbDimension
  2
*D62
 10
-32.31604547944079
 20
-48.41899999999998
 30
0.0
 11
-36.36604547944077
 21
0.0000000000000025
 31
0.0
 70
    32
  1
%%C<>
 71
     5
 42
96.83799999999997
  3
\M+18352\M+18373\M+1815B - ISO-25
100
AcDbAlignedDimension
 13
2.0
 23
48.41899999999998
 33
0.0
 14
2.0
 24
-48.41899999999998
 34
0.0
 50
90.0
100
AcDbRotatedDimension
1001
ACAD
1000
DSTYLE
1002
{
1070
     4
1000
%%c[]"
1070
    40
1040
1.0
1070
   143
1040
0.0393700787401575
1070
   170
1070
     1
1070
   171
1070
     3
1070
   271
1070
     8
1070
   285
1070
     4
1002
}
  0
DIMENSION
  5
5F6C2
102
{ACAD_XDICTIONARY
360
5F6CF
102
}
102
{ACAD_REACTORS
330
5F6D9
102
}
330
1F
100
AcDbEntity
  8
sk2
100
AcDbDimension
  2
*D63
 10
29.99999999999994
 20
-71.81330571068452
 30
0.0
 11
14.99999999999997
 21
-71.81330571068452
 31
0.0
 70
   160
 71
     5
 42
29.99999999999995
  3
\M+18352\M+18373\M+1815B - ISO-25
100
AcDbAlignedDimension
 13
0.0
 23
-46.41899999999998
 33
0.0
 14
29.99999999999995
 24
-18.74999330870003
 34
0.0
100
AcDbRotatedDimension
1001
ACAD
1000
DSTYLE
1002
{
1070
     4
1000
[]"
1070
    40
1040
1.0
1070
   143
1040
0.0393700787401575
1070
   170
1070
     1
1070
   171
1070
     3
1070
   271
1070
     8
1070
   285
1070
     4
1002
}
  0
DIMENSION
  5
5F6DA
330
1F
100
AcDbEntity
  8
2
100
AcDbDimension
  2
*D64
 10
61.39999999999991
 20
-71.81330571068452
 30
0.0
 11
94.09166666666664
 21
-71.81330571068452
 31
0.0
 70
   160
  1
<>(MAX)
 71
     5
 42
2.100000000000022
  3
\M+18352\M+18373\M+1815B - ISO-25
100
AcDbAlignedDimension
 13
63.49999999999994
 23
43.15602244547616
 33
0.0
 14
61.39999999999992
 24
36.03333605792798
 34
0.0
100
AcDbRotatedDimension
1001
ACAD
1000
DSTYLE
1002
{
1070
     4
1000
"
1070
    40
1040
1.0
1070
   143
1040
0.0393700787401575
1070
   170
1070
     1
1070
   171
1070
     3
1070
   271
1070
     8
1070
   285
1070
     4
1002
}
  0
DIMENSION
  5
5F6F4
330
1F
100
AcDbEntity
  8
2
100
AcDbDimension
  2
*D65
 10
61.49999999999995
 20
65.18426129943441
 30
0.0
 11
-5.258333333333382
 21
69.2342612994344
 31
0.0
 70
    32
  1
<>(APMX AT HIGH FEED PROCESS)
 71
     5
 42
2.0
  3
\M+18352\M+18373\M+1815B - ISO-25
100
AcDbAlignedDimension
 13
63.49999999999994
 23
43.15602244547616
 33
0.0
 14
61.49999999999995
 24
49.11246714892519
 34
0.0
100
AcDbRotatedDimension
1001
ACAD
1000
DSTYLE
1002
{
1070
     4
1000
"
1070
    40
1040
1.0
1070
   143
1040
0.0393700787401575
1070
   170
1070
     1
1070
   171
1070
     3
1070
   271
1070
     8
1070
   285
1070
     4
1002
}
  0
DIMENSION
  5
5F70E
330
1F
100
AcDbEntity
  8
2
100
AcDbDimension
  2
*D66
 10
60.49999999999994
 20
76.44602356844325
 30
0.0
 11
33.11666666666662
 21
80.49602356844324
 31
0.0
 70
    32
  1
APMX<>
 71
     5
 42
3.0
  3
\M+18352\M+18373\M+1815B - ISO-25
100
AcDbAlignedDimension
 13
63.49999999999994
 23
43.15602244547616
 33
0.0
 14
60.49999999999994
 24
49.98237812395834
 34
0.0
100
AcDbRotatedDimension
1001
ACAD
1000
DSTYLE
1002
{
1070
     4
1000
"
1070
    40
1040
1.0
1070
   143
1040
0.0393700787401575
1070
   170
1070
     1
1070
   171
1070
     3
1070
   271
1070
     8
1070
   285
1070
     4
1002
}
  0
DIMENSION
  5
5F728
102
{ACAD_XDICTIONARY
360
5F735
102
}
102
{ACAD_REACTORS
330
5F73F
102
}
330
1F
100
AcDbEntity
  8
2
100
AcDbDimension
  2
*D67
 10
0.0000000000000025
 20
87.95941829194976
 30
0.0
 11
31.74999999999997
 21
92.00941829194976
 31
0.0
 70
    32
 71
     5
 42
63.49999999999994
  3
\M+18352\M+18373\M+1815B - ISO-25
100
AcDbAlignedDimension
 13
63.49999999999994
 23
43.15602244547616
 33
0.0
 14
0.0
 24
46.41899999999998
 34
0.0
100
AcDbRotatedDimension
1001
ACAD
1000
DSTYLE
1002
{
1070
     4
1000
"
1070
    40
1040
1.0
1070
   143
1040
0.0393700787401575
1070
   170
1070
     1
1070
   171
1070
     3
1070
   271
1070
     8
1070
   285
1070
     4
1002
}
  0
DIMENSION
  5
5F742
330
1F
100
AcDbEntity
  8
2
100
AcDbDimension
  2
*D68
 10
60.13361615360862
 20
48.53522200214712
 30
0.0
 11
83.19961029232807
 21
64.93123220291463
 31
0.0
 70
    36
 71
     5
 42
1.500000000000042
  3
\M+18352\M+18373\M+1815B - ISO-25
100
AcDbRadialDimension
 15
61.46799858776468
 25
49.22036689150694
 35
0.0
 40
0.0
1001
ACAD
1000
DSTYLE
1002
{
1070
     4
1000
"
1070
    40
1040
1.0
1070
   143
1040
0.0393700787401575
1070
   170
1070
     1
1070
   171
1070
     3
1070
   271
1070
     8
1070
   285
1070
     4
1002
}
  0
VIEWPORT
  5
6B
102
{ACAD_XDICTIONARY
360
5F991
102
}
330
50
100
AcDbEntity
 67
     1
  8
0
100
AcDbViewport
 10
155.3592437148233
 20
160.4455827878762
 30
0.0
 40
349.5854424261001
 41
282.2272140146125
 68
     1
 69
     1
 12
155.3592437148233
 22
160.4455827878762
 13
0.0
 23
0.0
 14
10.0
 24
10.0
 15
10.0
 25
10.0
 16
0.0
 26
0.0
 36
1.0
 17
0.0
 27
0.0
 37
0.0
 42
50.0
 43
0.0
 44
0.0
 45
282.2272140146125
 50
0.0
 51
0.0
 72
  1000
 90
    32864
  1

281
     0
 71
     1
 74
     0
110
0.0
120
0.0
130
0.0
111
1.0
121
0.0
131
0.0
112
0.0
122
1.0
132
0.0
 79
     0
146
0.0
  0
VIEWPORT
  5
6D
102
{ACAD_XDICTIONARY
360
5F993
102
}
330
50
100
AcDbEntity
 67
     1
  8
0
100
AcDbViewport
 10
133.3499939441681
 20
101.5999939441681
 30
0.0
 40
213.3599903106689
 41
162.5599903106689
 68
     2
 69
     2
 12
210.0
 22
148.5
 13
0.0
 23
0.0
 14
10.0
 24
10.0
 15
10.0
 25
10.0
 16
0.0
 26
0.0
 36
1.0
 17
0.0
 27
0.0
 37
0.0
 42
50.0
 43
0.0
 44
0.0
 45
324.0677920111345
 50
0.0
 51
0.0
 72
   100
 90
    32864
  1

281
     0
 71
     1
 74
     0
110
0.0
120
0.0
130
0.0
111
1.0
121
0.0
131
0.0
112
0.0
122
1.0
132
0.0
 79
     0
146
0.0
  0
ENDSEC
  0
SECTION
  2
OBJECTS
  0
DICTIONARY
  5
C
330
0
100
AcDbDictionary
281
     1
  3
ACAD_COLOR
350
85
  3
ACAD_GROUP
350
D
  3
ACAD_LAYOUT
350
1A
  3
ACAD_MATERIAL
350
84
  3
ACAD_MLINESTYLE
350
17
  3
ACAD_PLOTSETTINGS
350
19
  3
ACAD_PLOTSTYLENAME
350
E
  3
ACAD_TABLESTYLE
350
A1
  3
ACDBHEADERROUNDTRIPXREC
350
5F98C
  3
AcDbVariableDictionary
350
5E
  3
ASE_INDEX_DICTIONARY
350
349E9
  3
DWGPROPS
350
5F98B
  0
DICTIONARY
  5
E2
330
2
100
AcDbDictionary
280
     1
281
     1
  3
ACAD_LAYERFILTERS
360
5F923
  3
ACAD_LAYERSTATES
360
3759A
  3
ACLYDICTIONARY
360
5F922
  0
DICTIONARY
  5
31EE
330
1F
100
AcDbDictionary
280
     1
281
     1
  3
ACAD_SORTENTS
360
31EF
  0
DICTIONARY
  5
43668
330
680
100
AcDbDictionary
280
     1
281
     1
  3
ACAD_SORTENTS
360
43669
  0
DICTIONARY
  5
5F995
330
71
100
AcDbDictionary
280
     1
281
     1
  3
ACAD_XREC_ROUNDTRIP
360
5F996
  0
DICTIONARY
  5
5F997
330
73
100
AcDbDictionary
280
     1
281
     1
  3
ACAD_XREC_ROUNDTRIP
360
5F998
  0
DICTIONARY
  5
5F69F
330
5F692
100
AcDbDictionary
280
     1
281
     1
  3
ACAD_DIMASSOC
360
5F6A9
  0
DICTIONARY
  5
5F6B7
330
5F6AA
100
AcDbDictionary
280
     1
281
     1
  3
ACAD_DIMASSOC
360
5F6C1
  0
DICTIONARY
  5
5F6CF
330
5F6C2
100
AcDbDictionary
280
     1
281
     1
  3
ACAD_DIMASSOC
360
5F6D9
  0
DICTIONARY
  5
5F735
330
5F728
100
AcDbDictionary
280
     1
281
     1
  3
ACAD_DIMASSOC
360
5F73F
  0
DICTIONARY
  5
5F991
330
6B
100
AcDbDictionary
280
     1
281
     1
  3
ACAD_XREC_ROUNDTRIP
360
5F992
  0
DICTIONARY
  5
5F993
330
6D
100
AcDbDictionary
280
     1
281
     1
  3
ACAD_XREC_ROUNDTRIP
360
5F994
  0
DICTIONARY
  5
85
102
{ACAD_REACTORS
330
C
102
}
330
C
100
AcDbDictionary
281
     1
  0
DICTIONARY
  5
D
102
{ACAD_REACTORS
330
C
102
}
330
C
100
AcDbDictionary
281
     1
  0
DICTIONARY
  5
1A
102
{ACAD_REACTORS
330
C
102
}
330
C
100
AcDbDictionary
281
     1
  3
\M+1838C\M+18343\M+18341\M+18345\M+183671
350
51
  3
\M+1838C\M+18343\M+18341\M+18345\M+183672
350
56
  3
Model
350
22
  0
DICTIONARY
  5
84
102
{ACAD_REACTORS
330
C
102
}
330
C
100
AcDbDictionary
281
     1
  0
DICTIONARY
  5
17
102
{ACAD_REACTORS
330
C
102
}
330
C
100
AcDbDictionary
281
     1
  3
Standard
350
18
  0
DICTIONARY
  5
19
102
{ACAD_REACTORS
330
C
102
}
330
C
100
AcDbDictionary
281
     1
  0
ACDBDICTIONARYWDFLT
  5
E
102
{ACAD_REACTORS
330
C
102
}
330
C
100
AcDbDictionary
281
     1
  3
Normal
350
F
100
AcDbDictionaryWithDefault
340
F
  0
DICTIONARY
  5
A1
102
{ACAD_REACTORS
330
C
102
}
330
C
100
AcDbDictionary
281
     1
  3
Standard
350
A2
  0
DICTIONARY
  5
5F98C
102
{ACAD_REACTORS
330
C
102
}
330
C
100
AcDbDictionary
281
     1
  0
DICTIONARY
  5
5E
102
{ACAD_REACTORS
330
C
102
}
330
C
100
AcDbDictionary
281
     1
  3
CTABLESTYLE
350
B8
  3
DIMASSOC
350
5F
  3
HIDETEXT
350
63
  3
PROJECTNAME
350
31CE
  0
DICTIONARY
  5
349E9
102
{ACAD_REACTORS
330
C
102
}
330
C
100
AcDbDictionary
281
     1
  3
ASEBlockHierarchyIndexRecord
350
349EA
1001
DCO15
1040
1842496176.844
  0
XRECORD
  5
5F98B
102
{ACAD_REACTORS
330
C
102
}
330
C
100
AcDbXrecord
280
     1
  1
DWGPROPS COOKIE
  2

  3

  4

  6

  7

  8

  9

300
=
301
=
302
=
303
=
304
=
305
=
306
=
307
=
308
=
309
=
 40
1.942162777777777
 41
2455489.391063368
 42
2458416.581362407
  1

 90
        0
  0
DICTIONARY
  5
5F923
102
{ACAD_REACTORS
330
E2
102
}
330
E2
100
AcDbDictionary
281
     1
  0
DICTIONARY
  5
3759A
102
{ACAD_REACTORS
330
E2
102
}
330
E2
100
AcDbDictionary
281
     1
  0
DICTIONARY
  5
5F922
102
{ACAD_REACTORS
330
E2
102
}
330
E2
100
AcDbDictionary
281
     1
1001
ACAD
1000
<All
  0
SORTENTSTABLE
  5
31EF
102
{ACAD_REACTORS
330
31EE
102
}
330
31EE
100
AcDbSortentsTable
330
1F
331
5F489
  5
5F48F
331
5F502
  5
5F508
331
5F524
  5
5F52A
331
5F4AB
  5
5F4B1
331
5F4EF
  5
5F4F5
331
5F400
  5
5F402
331
5F41A
  5
5F41C
331
5F45E
  5
5F464
331
5F480
  5
5F486
331
5F513
  5
5F519
331
5F535
  5
5F53B
331
5F4BC
  5
5F4C2
331
5F3CD
  5
5F3CD
331
5F4DE
  5
5F4E4
331
5F44D
  5
5F453
331
5F500
  5
5F506
331
5F522
  5
5F528
331
5F4A9
  5
5F4AF
331
5F3BA
  5
5F3BA
331
5F4CB
  5
5F4D3
331
5F4ED
  5
5F4F3
331
5F3FE
  5
5F400
331
5F418
  5
5F41A
331
5F45C
  5
5F462
331
5F47E
  5
5F484
331
5F511
  5
5F517
331
5F533
  5
5F539
331
5F4BA
  5
5F4C0
331
5F3CB
  5
5F3CB
331
5F4DC
  5
5F4E2
331
5F4FE
  5
5F504
331
5F3ED
  5
5F3F1
331
5F40F
  5
5F411
331
5F44B
  5
5F451
331
5F520
  5
5F526
331
5F4C9
  5
5F4D1
331
5F3DA
  5
5F3DA
331
5F4EB
  5
5F4F1
331
5F3FC
  5
5F3FE
331
5F416
  5
5F418
331
5F45A
  5
5F460
331
5F47C
  5
5F482
331
5F50F
  5
5F515
331
5F531
  5
5F537
331
5F4B8
  5
5F4BE
331
5F3C9
  5
5F3C9
331
5F4DA
  5
5F4E0
331
5F4FC
  5
5F502
331
5F3EB
  5
5F3ED
331
5F40D
  5
5F40F
331
5F427
  5
5F433
331
5F4A7
  5
5F4AD
331
5F3D8
  5
5F3D8
331
5F4E9
  5
5F4EF
331
5F3FA
  5
5F3FC
331
5F414
  5
5F416
331
5F436
  5
5F44D
331
5F458
  5
5F45E
331
5F47A
  5
5F480
331
5F50D
  5
5F513
331
5F52F
  5
5F535
331
5F4B6
  5
5F4BC
331
5F3C7
  5
5F3C7
331
5F551
  5
5F65D
331
5F4D8
  5
5F4DE
331
5F4FA
  5
5F500
331
5F3E9
  5
5F3EB
331
5F40B
  5
5F40D
331
5F425
  5
5F427
331
5F469
  5
5F474
331
5F51E
  5
5F524
331
5F4A5
  5
5F4AB
331
5F4C7
  5
5F4CF
331
5F3F8
  5
5F3FA
331
5F412
  5
5F414
331
5F434
  5
5F44B
331
5F456
  5
5F45C
331
5F478
  5
5F47E
331
5F50B
  5
5F511
331
5F52D
  5
5F533
331
5F4B4
  5
5F4BA
331
5F3C5
  5
5F3C5
331
5F54F
  5
5F600
331
5F4D6
  5
5F4DC
331
5F3E7
  5
5F3E9
331
5F4F8
  5
5F4FE
331
5F409
  5
5F40B
331
5F423
  5
5F425
331
5F467
  5
5F473
331
5F51C
  5
5F522
331
5F4A3
  5
5F4A9
331
5F4C5
  5
5F4CB
331
5F3B4
  5
5F3B4
331
5F3D6
  5
5F3D6
331
5F4E7
  5
5F4ED
331
5F410
  5
5F412
331
5F432
  5
5F448
331
5F454
  5
5F45A
331
5F476
  5
5F47C
331
5F490
  5
5F4A7
331
5F509
  5
5F50F
331
5F52B
  5
5F531
331
5F4B2
  5
5F4B8
331
5F3C3
  5
5F3C3
331
5CD11
  5
5CD11
331
5F54D
  5
5F5CB
331
5F4D4
  5
5F4DA
331
5F3E5
  5
5F3E7
331
5F4F6
  5
5F4FC
331
5F407
  5
5F409
331
5F421
  5
5F423
331
5F465
  5
5F471
331
5F487
  5
5F48D
331
5F51A
  5
5F520
331
5F4A1
  5
5F4A8
331
5F4C3
  5
5F4C9
331
5F4E5
  5
5F4EB
331
5F430
  5
5F436
331
5F452
  5
5F458
331
5F474
  5
5F47A
331
5F48E
  5
5F4A5
331
5F507
  5
5F50D
331
5F529
  5
5F52F
331
5F4B0
  5
5F4B6
331
5F3C1
  5
5F3C1
331
5F54B
  5
5F551
331
5F4D2
  5
5F4D8
331
5F3E3
  5
5F3E5
331
5F4F4
  5
5F4FA
331
5F405
  5
5F407
331
5F41F
  5
5F421
331
5F5CB
  5
5F65F
331
5F463
  5
5F46C
331
5F485
  5
5F48B
331
5F518
  5
5F51E
331
5F53A
  5
5F54E
331
5F4C1
  5
5F4C7
331
5F4E3
  5
5F4E9
331
5F3F4
  5
5F3F7
331
5F450
  5
5F456
331
5F472
  5
5F478
331
5F48C
  5
5F4A3
331
5F505
  5
5F50B
331
5F527
  5
5F52D
331
5F4AE
  5
5F4B4
331
5F3BF
  5
5F3BF
331
5F4D0
  5
5F4D6
331
5F4F2
  5
5F4F8
331
5F403
  5
5F405
331
5F41D
  5
5F41F
331
5F461
  5
5F467
331
5F483
  5
5F489
331
5F516
  5
5F51C
331
5F538
  5
5F54C
331
5F4BF
  5
5F4C5
331
5F3D0
  5
5F3D0
331
5F4E1
  5
5F4E7
331
5F3F2
  5
5F3F4
331
5F48A
  5
5F490
331
5F503
  5
5F509
331
5F525
  5
5F52B
331
5F4AC
  5
5F4B2
331
5F3BD
  5
5F3BD
331
5F39B
  5
5F39B
331
5F4CE
  5
5F4D4
331
5F4F0
  5
5F4F6
331
5F401
  5
5F403
331
5F41B
  5
5F41D
331
5F45F
  5
5F465
331
5F481
  5
5F487
331
5F514
  5
5F51A
331
5F536
  5
5F54A
331
5F4BD
  5
5F4C3
331
5F3CE
  5
5F3CE
331
5F4DF
  5
5F4E5
331
5F42C
  5
5F435
331
5F44E
  5
5F454
331
5F488
  5
5F48E
331
5F501
  5
5F507
331
5F523
  5
5F529
331
5F4AA
  5
5F4B0
331
5F4EE
  5
5F4F4
331
5F3FF
  5
5F401
331
5F419
  5
5F41B
331
5F45D
  5
5F463
331
5F47F
  5
5F485
331
5F512
  5
5F518
331
5F534
  5
5F53A
331
5F4BB
  5
5F4C1
331
5F3CC
  5
5F3CC
331
5F4DD
  5
5F4E3
331
5F4FF
  5
5F505
331
5F3EE
  5
5F3F2
331
5F46E
  5
5F476
331
5F44C
  5
5F452
331
5F521
  5
5F527
331
5F4A8
  5
5F4AE
331
5F3B9
  5
5F3B9
331
5F4CA
  5
5F4D2
331
5F3DB
  5
5F3DB
331
5F4EC
  5
5F4F2
331
5F3FD
  5
5F3FF
331
5F417
  5
5F419
331
5F45B
  5
5F461
331
5F47D
  5
5F483
331
5F510
  5
5F516
331
5F532
  5
5F538
331
5F4B9
  5
5F4BF
331
5F3CA
  5
5F3CA
331
5F4DB
  5
5F4E1
331
5F4FD
  5
5F503
331
5F3EC
  5
5F3EE
331
5F40E
  5
5F410
331
5F428
  5
5F434
331
5F46C
  5
5F475
331
5F44A
  5
5F450
331
5F4C8
  5
5F4D0
331
5F3D9
  5
5F3D9
331
5F4EA
  5
5F4F0
331
5F3FB
  5
5F3FD
331
5F415
  5
5F417
331
5F459
  5
5F45F
331
5F47B
  5
5F481
331
5F50E
  5
5F514
331
5F530
  5
5F536
331
5F4B7
  5
5F4BD
331
5F552
  5
5F65E
331
5F4D9
  5
5F4DF
331
5F3C8
  5
5F3C8
331
5F4FB
  5
5F501
331
5F3EA
  5
5F3EC
331
5F40C
  5
5F40E
331
5F426
  5
5F428
331
5F448
  5
5F44F
331
5F51F
  5
5F525
331
5F4A6
  5
5F4AC
331
5F3B7
  5
5F3B7
331
5F4E8
  5
5F4EE
331
5F3F9
  5
5F3FB
331
5F413
  5
5F415
331
5F435
  5
5F44C
331
5F457
  5
5F45D
331
5F479
  5
5F47F
331
5F50C
  5
5F512
331
5F52E
  5
5F534
331
5F4B5
  5
5F4BB
331
5F3C6
  5
5F3C6
331
5F550
  5
5F65C
331
5F4D7
  5
5F4DD
331
5F3E8
  5
5F3EA
331
5F4F9
  5
5F4FF
331
5F40A
  5
5F40C
331
5F424
  5
5F426
331
5F446
  5
5F44E
331
5F4A4
  5
5F4AA
331
5F51D
  5
5F523
331
5F4C6
  5
5F4CE
331
5F3B5
  5
5F3B5
331
5F3D7
  5
5F3D7
331
68C
  5
435D5
331
5F411
  5
5F413
331
5F433
  5
5F44A
331
5F455
  5
5F45B
331
5F477
  5
5F47D
331
5F50A
  5
5F510
331
5F52C
  5
5F532
331
5F4B3
  5
5F4B9
331
5F3C4
  5
5F3C4
331
5F54E
  5
5F5FF
331
5F4D5
  5
5F4DB
331
5F3E6
  5
5F3E8
331
5F4F7
  5
5F4FD
331
5F408
  5
5F40A
331
5F422
  5
5F424
331
5F466
  5
5F472
331
5F51B
  5
5F521
331
5F4C4
  5
5F4CA
331
5F3D5
  5
5F3D5
331
5F4E6
  5
5F4EC
331
5F3F7
  5
5F3F9
331
5F431
  5
5F446
331
5F453
  5
5F459
331
5F475
  5
5F47B
331
5F48F
  5
5F4A6
331
5F508
  5
5F50E
331
5F52A
  5
5F530
331
5F4B1
  5
5F4B7
331
5F3C2
  5
5F3C2
331
5F54C
  5
5F552
331
5F4D3
  5
5F4D9
331
5F3E4
  5
5F3E6
331
5F4F5
  5
5F4FB
331
5F406
  5
5F408
331
5F420
  5
5F422
331
5F464
  5
5F46E
331
5F486
  5
5F48C
331
5F519
  5
5F51F
331
5F53B
  5
5F54F
331
5F4C2
  5
5F4C8
331
5F4E4
  5
5F4EA
331
5F3F5
  5
5F3F8
331
5F451
  5
5F457
331
5F473
  5
5F479
331
5F48D
  5
5F4A4
331
5F506
  5
5F50C
331
5F528
  5
5F52E
331
5F4AF
  5
5F4B5
331
5F3C0
  5
5F3C0
331
5F54A
  5
5F550
331
5F4D1
  5
5F4D7
331
5F3E2
  5
5F3E4
331
5F4F3
  5
5F4F9
331
5F404
  5
5F406
331
5F41E
  5
5F420
331
5F462
  5
5F469
331
5F484
  5
5F48A
331
5F517
  5
5F51D
331
5F539
  5
5F54D
331
5F4C0
  5
5F4C6
331
5F3AF
  5
5F3AF
331
5F395
  5
5F395
331
5F3D1
  5
5F3D1
331
5F4E2
  5
5F4E8
331
5F3F3
  5
5F3F5
331
5F471
  5
5F477
331
5F48B
  5
5F4A1
331
5F504
  5
5F50A
331
5F526
  5
5F52C
331
5F4AD
  5
5F4B3
331
5F3BE
  5
5F3BE
331
5F4CF
  5
5F4D5
331
5F4F1
  5
5F4F7
331
5F402
  5
5F404
331
5F41C
  5
5F41E
331
5F460
  5
5F466
331
5F482
  5
5F488
331
5F515
  5
5F51B
331
5F537
  5
5F54B
331
5F4BE
  5
5F4C4
331
5F3CF
  5
5F3CF
331
5F4E0
  5
5F4E6
331
5F3F1
  5
5F3F3
331
5F44F
  5
5F455
  0
SORTENTSTABLE
  5
43669
102
{ACAD_REACTORS
330
43668
102
}
330
43668
100
AcDbSortentsTable
330
680
  0
XRECORD
  5
5F996
102
{ACAD_REACTORS
330
5F995
102
}
330
5F995
100
AcDbXrecord
280
     1
102
SHADEPLOT
 70
     0
  0
XRECORD
  5
5F998
102
{ACAD_REACTORS
330
5F997
102
}
330
5F997
100
AcDbXrecord
280
     1
102
SHADEPLOT
 70
     0
  0
DIMASSOC
  5
5F6A9
102
{ACAD_REACTORS
330
5F69F
102
}
330
5F69F
100
AcDbDimAssoc
330
5F692
 90
        3
 70
     0
 71
     0
  1
AcDbOsnapPointRef
 72
     1
331
5F3F2
 73
     2
 91
        0
 40
0.9999999999999998
 10
0.0
 20
0.0
 30
2.000000000000000E+50
 75
     0
  1
AcDbOsnapPointRef
 72
     1
331
5F3C8
 73
     2
 91
        0
 40
0.9999999999999998
 10
0.0
 20
0.0
 30
2.000000000000000E+50
 75
     0
  0
DIMASSOC
  5
5F6C1
102
{ACAD_REACTORS
330
5F6B7
102
}
330
5F6B7
100
AcDbDimAssoc
330
5F6AA
 90
        3
 70
     0
 71
     0
  1
AcDbOsnapPointRef
 72
    13
331
5F45B
 73
     2
 91
        0
 40
1.570796326794896
 10
0.0
 20
0.0
 30
2.000000000000000E+50
 75
     0
  1
AcDbOsnapPointRef
 72
     1
331
5F45C
 73
     2
 91
        0
 40
4.712388980384689
 10
0.0
 20
0.0
 30
2.000000000000000E+50
 75
     0
  0
DIMASSOC
  5
5F6D9
102
{ACAD_REACTORS
330
5F6CF
102
}
330
5F6CF
100
AcDbDimAssoc
330
5F6C2
 90
        3
 70
     0
 71
     0
  1
AcDbOsnapPointRef
 72
    13
331
5F45C
 73
     2
 91
        0
 40
3.141592653589793
 10
0.0
 20
0.0
 30
2.000000000000000E+50
 75
     0
  1
AcDbOsnapPointRef
 72
    13
331
5F3EB
 73
     2
 91
        0
 40
0.0
 10
0.0
 20
0.0
 30
2.000000000000000E+50
 75
     0
  0
DIMASSOC
  5
5F73F
102
{ACAD_REACTORS
330
5F735
102
}
330
5F735
100
AcDbDimAssoc
330
5F728
 90
        2
 70
     0
 71
     0
  1
AcDbOsnapPointRef
 72
     1
331
5F45B
 73
     2
 91
        0
 40
3.141592653589793
 10
0.0
 20
0.0
 30
2.000000000000000E+50
 75
     0
  0
XRECORD
  5
5F992
102
{ACAD_REACTORS
330
5F991
102
}
330
5F991
100
AcDbXrecord
280
     1
102
SHADEPLOT
 70
     0
  0
XRECORD
  5
5F994
102
{ACAD_REACTORS
330
5F993
102
}
330
5F993
100
AcDbXrecord
280
     1
102
SHADEPLOT
 70
     0
  0
LAYOUT
  5
51
102
{ACAD_XDICTIONARY
360
B2
102
}
102
{ACAD_REACTORS
330
1A
102
}
330
1A
100
AcDbPlotSettings
  1

  2
none_device
  4
Letter_(8.50_x_11.00_Inches)
  6

 40
6.349999904632567
 41
6.349999904632567
 42
6.350006103515625
 43
6.350006103515625
 44
215.8999938964844
 45
279.3999938964844
 46
0.0
 47
0.0
 48
0.0
 49
0.0
140
0.0
141
0.0
142
1.0
143
1.0
 70
   688
 72
     1
 73
     1
 74
     5
  7

 75
    16
147
1.0
148
0.0
149
0.0
100
AcDbLayout
  1
\M+1838C\M+18343\M+18341\M+18345\M+183671
 70
     1
 71
     1
 10
-6.350006103515625
 20
-6.349999904632567
 11
273.0499877929688
 21
209.5499939918518
 12
0.0
 22
0.0
 32
0.0
 14
26.66999878883364
 24
20.31999878883365
 34
0.0
 15
240.0299890995025
 25
182.8799890995025
 35
0.0
146
0.0
 13
0.0
 23
0.0
 33
0.0
 16
1.0
 26
0.0
 36
0.0
 17
0.0
 27
1.0
 37
0.0
 76
     0
330
50
331
6B
  0
LAYOUT
  5
56
102
{ACAD_XDICTIONARY
360
B5
102
}
102
{ACAD_REACTORS
330
1A
102
}
330
1A
100
AcDbPlotSettings
  1

  2
none_device
  4
Letter_(8.50_x_11.00_Inches)
  6

 40
6.349999904632567
 41
6.349999904632567
 42
6.350006103515625
 43
6.350006103515625
 44
215.8999938964844
 45
279.3999938964844
 46
0.0
 47
0.0
 48
0.0
 49
0.0
140
0.0
141
0.0
142
1.0
143
1.0
 70
   688
 72
     1
 73
     1
 74
     5
  7

 75
    16
147
1.0
148
0.0
149
0.0
100
AcDbLayout
  1
\M+1838C\M+18343\M+18341\M+18345\M+183672
 70
     1
 71
     2
 10
-6.350006103515625
 20
-6.349999904632567
 11
273.0499877929688
 21
209.5499939918518
 12
0.0
 22
0.0
 32
0.0
 14
26.66999878883363
 24
20.31999878883363
 34
0.0
 15
240.0299890995026
 25
182.8799890995025
 35
0.0
146
0.0
 13
0.0
 23
0.0
 33
0.0
 16
1.0
 26
0.0
 36
0.0
 17
0.0
 27
1.0
 37
0.0
 76
     0
330
55
331
71
  0
LAYOUT
  5
22
102
{ACAD_XDICTIONARY
360
5F98D
102
}
102
{ACAD_REACTORS
330
1A
102
}
330
1A
100
AcDbPlotSettings
  1

  2
none_device
  4
ANSI_A_(8.50_x_11.00_Inches)
  6

 40
6.349999904632567
 41
19.04999923706055
 42
6.350006103515625
 43
19.04998779296875
 44
215.8999938964844
 45
279.3999938964844
 46
0.0
 47
0.0
 48
0.0
 49
0.0
140
0.0
141
0.0
142
1.0
143
78.436453180766
 70
 11952
 72
     0
 73
     1
 74
     0
  7

 75
     0
147
0.0127491741332998
148
0.0
149
0.0
100
AcDbLayout
  1
Model
 70
     1
 71
     0
 10
0.0
 20
0.0
 11
12.0
 21
9.0
 12
0.0
 22
0.0
 32
0.0
 14
0.0
 24
0.0
 34
0.0
 15
0.0
 25
0.0
 35
0.0
146
0.0
 13
0.0
 23
0.0
 33
0.0
 16
1.0
 26
0.0
 36
0.0
 17
0.0
 27
1.0
 37
0.0
 76
     0
330
1F
  0
MLINESTYLE
  5
18
102
{ACAD_REACTORS
330
17
102
}
330
17
100
AcDbMlineStyle
  2
STANDARD
 70
     0
  3

 62
   256
 51
90.0
 52
90.0
 71
     2
 49
0.5
 62
   256
  6
BYLAYER
 49
-0.5
 62
   256
  6
BYLAYER
  0
ACDBPLACEHOLDER
  5
F
102
{ACAD_REACTORS
330
E
102
}
330
E
  0
TABLESTYLE
  5
A2
102
{ACAD_REACTORS
330
A1
102
}
330
A1
100
AcDbTableStyle
  3
Standard
 70
     0
 71
     0
 40
1.5
 41
1.5
280
     0
281
     0
  7
Standard
140
4.5
170
     2
 62
     0
 63
     7
283
     0
274
    -2
284
     1
 64
     0
275
    -2
285
     1
 65
     0
276
    -2
286
     1
 66
     0
277
    -2
287
     1
 67
     0
278
    -2
288
     1
 68
     0
279
    -2
289
     1
 69
     0
  7
Standard
140
6.0
170
     5
 62
     0
 63
     7
283
     0
274
    -2
284
     1
 64
     0
275
    -2
285
     1
 65
     0
276
    -2
286
     1
 66
     0
277
    -2
287
     1
 67
     0
278
    -2
288
     1
 68
     0
279
    -2
289
     1
 69
     0
  7
Standard
140
4.5
170
     5
 62
     0
 63
     7
283
     0
274
    -2
284
     1
 64
     0
275
    -2
285
     1
 65
     0
276
    -2
286
     1
 66
     0
277
    -2
287
     1
 67
     0
278
    -2
288
     1
 68
     0
279
    -2
289
     1
 69
     0
  0
DICTIONARYVAR
  5
B8
102
{ACAD_REACTORS
330
5E
102
}
330
5E
100
DictionaryVariables
280
     0
  1
STANDARD
  0
DICTIONARYVAR
  5
5F
102
{ACAD_REACTORS
330
5E
102
}
330
5E
100
DictionaryVariables
280
     0
  1
2
  0
DICTIONARYVAR
  5
63
102
{ACAD_REACTORS
330
5E
102
}
330
5E
100
DictionaryVariables
280
     0
  1
1
  0
DICTIONARYVAR
  5
31CE
102
{ACAD_REACTORS
330
5E
102
}
330
5E
100
DictionaryVariables
280
     0
  1

  0
XRECORD
  5
349EA
102
{ACAD_REACTORS
330
349E9
102
}
330
349E9
100
AcDbXrecord
280
     1
330
68C
330
431D
330
431E
330
4329
330
4334
330
4335
330
4B09
330
4B0A
330
5153
330
5154
330
515D
330
515E
330
516A
330
516B
330
5177
330
5178
330
85B4
330
85B5
330
8620
330
8621
330
862A
330
862B
330
8637
330
8638
330
8644
330
8645
330
9773
330
9774
330
977D
330
977E
330
978A
330
978B
330
9797
330
9798
330
BD86
330
BD87
330
BD8F
330
BD90
330
BD98
330
BDA0
330
BDA1
330
BDDD
330
BDDE
330
BDE7
330
BDE8
330
BDF4
330
BDF5
330
BE01
330
BE02
330
E473
330
E474
330
E48D
330
E48E
330
E485
330
E47C
330
E47D
330
E4CC
330
E4CD
330
E4D7
330
E4D8
330
1C63B
330
1C63C
330
1C705
330
1C706
330
1C719
330
1C71A
330
1C72E
330
1C72F
330
1C738
330
1C739
330
27043
330
27044
330
2703A
330
2703B
330
2CF2C
330
2CF2D
330
2CF38
330
2CF39
330
2CF42
330
2CF43
330
2CF4F
330
2CF50
330
2CF59
330
2CF5A
330
2FA31
330
2FA32
330
2FA3D
330
2FA3E
330
2FA4A
330
2FA4B
330
2FA54
330
2FA55
330
329D8
330
329D9
330
329E1
330
329E2
330
329EA
330
329EB
330
329F3
330
329F4
330
32E63
330
32E64
330
32E6F
330
32E70
330
32E79
330
32E7A
330
32E88
330
32E89
330
32E92
330
32E93
  0
DICTIONARY
  5
B2
330
51
100
AcDbDictionary
280
     1
281
     1
  3
ACAD_XREC_ROUNDTRIP
360
5F98F
  3
ADSK_XREC_LAYOUTTHUMBNAIL
360
B3
  0
DICTIONARY
  5
B5
330
56
100
AcDbDictionary
280
     1
281
     1
  3
ACAD_XREC_ROUNDTRIP
360
5F990
  3
ADSK_XREC_LAYOUTTHUMBNAIL
360
B6
  0
DICTIONARY
  5
5F98D
330
22
100
AcDbDictionary
280
     1
281
     1
  3
ACAD_XREC_ROUNDTRIP
360
5F98E
  0
XRECORD
  5
5F98F
102
{ACAD_REACTORS
330
B2
102
}
330
B2
100
AcDbXrecord
280
     1
102
SHADEPLOT
 70
     0
102
SHADEPLOTRESLEVEL
 70
     2
102
SHADEPLOTCUSTOMDPI
 70
   300
  0
XRECORD
  5
B3
102
{ACAD_REACTORS
330
B2
102
}
330
B2
100
AcDbXrecord
280
     1
310
28000000B40000008B0000000100080000000000BC61000000000000000000000001000000000000FFFFFF0000000000FFFFFF000000000000000000000000000000000000000000000000000000000000000000330000006600000099000000CC000000FF00000000330000333300006633000099330000CC330000FF3300
310
0000660000336600006666000099660000CC660000FF66000000990000339900006699000099990000CC990000FF99000000CC000033CC000066CC000099CC0000CCCC0000FFCC000000FF000033FF000066FF000099FF0000CCFF0000FFFF000000003300330033006600330099003300CC003300FF003300003333003333
310
33006633330099333300CC333300FF33330000663300336633006666330099663300CC663300FF66330000993300339933006699330099993300CC993300FF99330000CC330033CC330066CC330099CC3300CCCC3300FFCC330000FF330033FF330066FF330099FF3300CCFF3300FFFF330000006600330066006600660099
310
006600CC006600FF00660000336600333366006633660099336600CC336600FF33660000666600336666006666660099666600CC666600FF66660000996600339966006699660099996600CC996600FF99660000CC660033CC660066CC660099CC6600CCCC6600FFCC660000FF660033FF660066FF660099FF6600CCFF6600
310
FFFF660000009900330099006600990099009900CC009900FF00990000339900333399006633990099339900CC339900FF33990000669900336699006666990099669900CC669900FF66990000999900339999006699990099999900CC999900FF99990000CC990033CC990066CC990099CC9900CCCC9900FFCC990000FF99
310
0033FF990066FF990099FF9900CCFF9900FFFF99000000CC003300CC006600CC009900CC00CC00CC00FF00CC000033CC003333CC006633CC009933CC00CC33CC00FF33CC000066CC003366CC006666CC009966CC00CC66CC00FF66CC000099CC003399CC006699CC009999CC00CC99CC00FF99CC0000CCCC0033CCCC0066CC
310
CC0099CCCC00CCCCCC00FFCCCC0000FFCC0033FFCC0066FFCC0099FFCC00CCFFCC00FFFFCC000000FF003300FF006600FF009900FF00CC00FF00FF00FF000033FF003333FF006633FF009933FF00CC33FF00FF33FF000066FF003366FF006666FF009966FF00CC66FF00FF66FF000099FF003399FF006699FF009999FF00CC
310
99FF00FF99FF0000CCFF0033CCFF0066CCFF0099CCFF00CCCCFF00FFCCFF0000FFFF0033FFFF0066FFFF0099FFFF00CCFFFF00FFFFFF00000000000D0D0D001A1A1A00282828003535350043434300505050005D5D5D006B6B6B00787878008686860093939300A1A1A100AEAEAE00BBBBBB00C9C9C900D6D6D600E4E4E400
310
F1F1F100FFFFFF0000000000000000000000000000000000000000000000000000000000000000000000000000000000EFEFEFE2E2E2E2E2E2E2E2E2E2E2E2E2E2E2E2E2E2E2E2E2E2E2E2E2E2E2E2E2E2E2E2E2E2E2E2E2E2E2E2E2E2E2E2E2E2E2E2E2E2E2E2E2E2E2E2E2E2E2E2E2E2E2E2E2E2E2E2E2E2E2E2E2E2E2E2
310
E2E2E2E2E2E2E2E2E2E2E2E2E2E2E2E2E2E2E2E2E2E2E2E2E2E2E2E2E2E2E2E2E2E2E2E2E2E2E2E2E2E2E2E2E2E2E2E2E2E2E2E2E2E2E2E2E2E2E2E2E2E2E2E2E2E2E2E2E2E2E2E2E2E2E2E2E2E2E2E2E2E2E2E2E2E2E2E2E2E2E2E2E2E2E2E2E2E2E2E2E2E2E2E2E2E2E2E2E2E2E2E2E2E2E2E2E2E2E2E2E2E2E2E2E2E2E2
310
E2E2E2E2E2E2E2E2E2E2E2E2E2E2E2E2E2E2E2E2E2E2E2E2E2E2E2E2E2E2E2E2E2E2E2E2E2E2E2E2E2E2E2E2E2E2E2E2E2E2E2E2E2E2E2E2E2E2E2E2E2E2E2E2E2E2E2E2E2E2E2E2E2E2E2E2E2E2E2E2E2E2E2E2E2E2E2E2E2E2E2E2E2E2E2E2E2E2E2E2E2E2E2E2E2E2E2E2E2E2E2E2E2E2E2E2E2E2E2E2E2E2E2E2E2E2E2
310
E2E2E2E2E2E2E2E2E2E2E2E2E2E2E2E2E2E2E2E2E2E2E2E2E2E2E2E2F5F5F5F5F5F5F5F5F5F5F5F5F5F5F5F5F5F5F5F5F5F5F5F5F5F5F5F5F5F5F5F5F5F5F5F5F5F5F5F5F5F5F5F5F5F5F5F5F5F5F5F5F5F5F5F5F5F5F5F5F5F5F5F5F5F5F5F5F5F5F5F5F5F5F5F5F5F5F5F5F5F5F5F5F5F5F5F5F5F5F5F5F5F5F5F5F5F5F5
310
F5F5F5F5F5F5F5F5F5F5F5F5F5F5F5F5F5F5F5F5F5F5F5F5F5F5F5F5F5F5F5F5F5F5F5F5F5F5F5F5F5F5F5F5F5F5F5F5F5F5F5F5F5F5F5F5F5F5F5F5F5F5F5F5F5F5F5F5F5F5F5F5F5F5F5F5F5F5F5E2E2F5F5F5F5F5F5F5F5F5F5F5F5F5F5F5F5F5F5F5F5F5F5F5F5F5F5F5F5F5F5F5F5F5F5F5F5F5F5F5F5F5F5F5F5F5F5
310
F5F5F5F5F5F5F5F5F5F5F5F5F5F5F5F5F5F5F5F5F5F5F5F5F5F5F5F5F5F5F5F5F5F5F5F5F5F5F5F5F5F5F5F5F5F5F5F5F5F5F5F5F5F5F5F5F5F5F5F5F5F5F5F5F5F5F5F5F5F5F5F5F5F5F5F5F5F5F5F5F5F5F5F5F5F5F5F5F5F5F5F5F5F5F5F5F5F5F5F5F5F5F5F5F5F5F5F5F5F5F5F5F5F5F5F5F5F5F5F5F5F5F5F5F5F5F5
310
F5F5F5F5F5E2E2F5F5F5F5F5F5F5F5F5F5F5F5F5F5F5F5F5F5F5F5F5F5F5F5F5F5F5F5F5F5F5F5F5F5F5F5F5F5F5F5F5F5F5F5F5F5F5F5F5F5F5F5F5F5F5F5F5F5F5F5F5F5F5F5F5F5F5F5F5F5F5F5F5F5F5F5F5F5F5F5F5F5F5F5F5F5F5F5F5F5F5F5F5F5F5F5F5F5F5F5F5F5F5F5F5F5F5F5F5F5F5F5F5F5F5F5F5F5F5F5
310
F5F5F5F5F5F5F5F5F5F5F5F5F5F5F5F5F5F5F5F5F5F5F5F5F5F5F5F5F5F5F5F5F5F5F5F5F5F5F5F5F5F5F5F5F5F5F5F5F5F5F5F5F5F5F5F5F5F5E2E2F5F5F5F5E2E2E2E2E2E2E2E2F5F5F5F5F5F5F5F5F5E2E2E2E2E2E2E2E2E2E2E2E2E2E2E2F5F5F5F5F5F5F5F5F5E2E2E2E2E2E2E2E2E2E2E2E2E2E2E2E2F5F5F5F5F5F5
310
F5F5E2E2E2E2E2E2E2E2E2E2E2E2E2E2E2E2F5F5F5F5F5F5F5F5E2E2E2E2E2E2E2E2E2E2E2E2E2E2E2E2F5F5F5F5F5F5F5F5E2E2E2E2E2E2E2E2E2E2E2E2E2E2E2E2F5F5F5F5F5F5F5F5F5E2E2E2E2E2E2E2E2E2E2E2E2E2E2E2F5F5F5F5F5F5F5F5F5E2E2E2E2E2E2E2E2F5F5F5F5E2E2F5F5F5F5E2F5F5F5F5F5F5F5F5F5
310
F5F5F5F5F5F5F5F5F5F5F5F5F5F5F5F5F5F5F5F5F5F5F5F5F5F5F5F5F5F5F5F5F5F5F5F5F5F5F5F5F5F5F5F5F5F5F5F5F5F5F5F5F5F5F5F5F5F5F5F5F5F5F5F5F5F5F5F5F5F5F5F5F5F5F5F5F5F5F5F5F5F5F5F5F5F5F5F5F5F5F5F5F5F5F5F5F5F5F5F5F5F5F5F5F5F5F5F5F5F5F5F5F5F5F5F5F5F5F5F5F5F5F5F5F5F5F5
310
F5F5F5F5F5F5F5F5F5F5F5F5F5F5F5F5F5F5F5F5F5F5F5F5F5F5F5F5F5F5F5F5E2F5F5F5F5E2E2F5F5F5F5E2F5F5F5F5F5F5F5F5F5F5F5F5F5F5F5F5F5F5F5F5F5F5F5F5F5F5F5F5F5F5F5F5F5F5F5F5F5F5F5F5F5F5F5F5F5F5F5F5F5F5F5F5F5F5F5F5F5F5F5F5F5F5F5F5F5F5F5F5F5F5F5F5F5F5F5F5F5F5F5F5F5F5F5
310
F5F5F5F5F5F5F5F5F5F5F5F5F5F5F5F5F5F5F5F5F5F5F5F5F5F5F5F5F5F5F5F5F5F5F5F5F5F5F5F5F5F5F5F5F5F5F5F5F5F5F5F5F5F5F5F5F5F5F5F5F5F5F5F5F5F5F5F5F5F5F5F5F5F5F5F5F5F5F5F5F5F5F5F5F5E2F5F5F5F5E2E2F5F5F5F5E2F5F5F5F5F5F5F5F5F5F5F5F5F5F5F5F5F5F5F5F5F5F5F5F5F5F5F5F5F5F5
310
F5F5F5F5F5F5F5F5F5F5F5F5F5F5F5F5F5F5F5F5F5F5F5F5F5F5F5F5F5F5F5F5F5F5F5F5F5F5F5F5F5F5F5F5F5F5F5F5F5F5F5F5F5F5F5F5F5F5F5F5F5F5F5F5F5F5F5F5F5F5F5F5F5F5F5F5F5F5F5F5F5F5F5F5F5F5F5F5F5F5F5F5F5F5F5F5F5F5F5F5F5F5F5F5F5F5F5F5F5F5F5F5F5F5F5F5F5F5F5F5F5F5F5F5F5F5F5
310
F5F5F5F5F5F5F5F5F5F5F5E2F5F5F5F5E2E2F5F5F5F5E2F5F5F5F5F5F5F5F5F5F5F5F5F5F5F5F5F5F5F5F5F5F5F5F5F5F5F5F5F5F5F5F5F5F5F5F5F5F5F5F5F5F5F5F5F5F5F5F5F5F5F5F5F5F5F5F5F5F5F5F5F5F5F5F5F5F5F5F5F5F5F5F5F5F5F5F5F5F5F5F5F5F5F5F5F5F5F5F5F5F5F5F5F5F5F5F5F5F5F5F5F5F5F5F5
310
F5F5F5F5F5F5F5F5F5F5F5F5F5F5F5F5F5F5F5F5F5F5F5F5F5F5F5F5F5F5F5F5F5F5F5F5F5F5F5F5F5F5F5F5F5F5F5F5F5F5F5F5F5F5F5F5F5F5F5F5F5F5F5F5E2F5F5F5F5E2E2F5F5F5F5E2F5F5F5F5F5F5F5F5F5F5F5F5F5F5F5F5F5F5F5F5F5F5F5F5F5F5F5F5F5F5F5F5F5F5F5F5F5F5F5F5F5F5F5F5F5F5F5F5F5F5F5
310
F5F5F5F5F5F5F5F5F5F5F5F5F5F5F5F5F5F5F5F5F5F5F5F5F5F5F5F5F5F5F5F5F5F5F5F5F5F5F5F5F5F5F5F5F5F5F5F5F5F5F5F5F5F5F5F5F5F5F5F5F5F5F5F5F5F5F5F5F5F5F5F5F5F5F5F5F5F5F5F5F5F5F5F5F5F5F5F5F5F5F5F5F5F5F5F5F5F5F5F5F5F5F5F5F5F5F5F5F5F5F5F5F5F5F5F5F5E2F5F5F5F5E2E2F5F5F5
310
F5E2F5F5F5F5F5F5F5F5F5F5F5F5F5F5F5F5F5F5F5F5F5F5F5F5F5F5F5F5F5F5F5F5F5F5F5F5F5F5F5F5F5F5F5F5F5F5F5F5F5F5F5F5F5F5F5F5F5F5F5F5F5F5F5F5F5F5F5F5F5F5F5F5F5F5F5F5F5F5F5F5F5F5F5F5F5F5F5F5F5F5F5F5F5F5F5F5F5F5F5F5F5F5F5F5F5F5F5F5F5F5F5F5F5F5F5F5F5F5F5F5F5F5F5F5F5
310
F5F5F5F5F5F5F5F5F5F5F5F5F5F5F5F5F5F5F5F5F5F5F5F5F5F5F5F5F5F5F5F5F5F5F5F5F5F5F5F5F5F5F5E2F5F5F5F5E2E2F5F5F5F5E2F5F5F5F5F5F5F5F5F5F5F5F5F5F5F5F5F5F5F5F5F5F5F5F5F5F5F5F5F5F5F5F5F5F5F5F5F5F5F5F5F5F5F5F5F5F5F5F5F5F5F5F5F5F5F5F5F5F5F5F5F5F5F5F5F5F5F5F5F5F5F5F5
310
F5F5F5F5F5F5F5F5F5F5F5F5F5F5F5F5F5F5F5F5F5F5F5F5F5F5F5F5F5F5F5F5F5F5F5F5F5F5F5F5F5F5F5F5F5F5F5F5F5F5F5F5F5F5F5F5F5F5F5F5F5F5F5F5F5F5F5F5F5F5F5F5F5F5F5F5F5F5F5F5F5F5F5F5F5F5F5F5F5F5F5F5F5F5F5F5E2F5F5F5F5E2E2F5F5F5F5E2F5F5F5F5F5F5F5F5F5F5F5F5F5F5F5F5F5F5F5
310
F5F5F5F5F5F5F5F5F5F5F5F5F5F5F5F5F5F5F5F5F5F5F5F5F5F5F5F5F5F5F5F5F5F5F5F5F5F5F5F5F5F5F5F5F5F5F5F5F5F5F5F5F5F5F5F5F5F5F5F5F5F5F5F5F5F5F5F5F5F5F5F5F5F5F5F5F5F5F5F5F5F5F5F5F5F5F5F5F5F5F5F5F5F5F5F5F5F5F5F5F5F5F5F5F5F5F5F5F5F5F5F5F5F5F5F5F5F5F5F5F5F5F5F5F5F5F5
310
F5F5F5F5F5F5F5F5F5F5F5F5F5F5F5F5F5F5F5F5F5F5E2F5F5F5F5E2E2F5F5F5F5F5F5F5F5F5F5F5F5F5F5F5F5F5F5F5F5F5F5F5F5F5F5F5F5F5F5F5F5F5F5F5F5F5F5F5F5F5F5F5F5F5F5F5F5F5F5F5F5F5F5F5F5F5F5F5F5F5F5F5F5F5F5F5F5F5F5F5F5F5F5F5F5F5F5F5F5F5F5F5F5F5F5F5F5F5F5F5F5F5F5F5F5F5F5
310
F5F5F5F5F5F5F5F5F5F5F5F5F5F5F5F5F5F5F5F5F5F5F5F5F5F5F5F5F5F5F5F5F5F5F5F5F5F5F5F5F5F5F5F5F5F5F5F5F5F5F5F5F5F5F5F5F5F5F5F5F5F5F5F5F5F5F5F5F5F5F5F5F5F5F5F5F5F5F5F5E2E2F5F5F5F5F5F5F5F5F5F5F5F5F5F5F5F5F5F5F5F5F5F5F5F5F5F5F5F5F5F5F5F5F5F5F5F5F5F5F5F5F5F5F5F5F5
310
F5F5F5F5F5F5F5F5F5F5F5F5F5F5F5F5F5F5F5F5F5F5F5F5F5F5F5F5F5F5F5F5F5F5F5F5F5F5F5F5F5F5F5F5F5F5F5F5F5F5F5F5F5F5F5F5F5F5F5F5F5F5F5F5F5F5F5F5F5F5F5F5F5F5F5F5F5F5F5F5F5F5F5F5F5F5F5F5F5F5F5F5F5F5F5F5F5F5F5F5F5F5F5F5F5F5F5F5F5F5F5F5F5F5F5F5F5F5F5F5F5F5F5F5F5F5F5
310
F5F5F5F5F5F5E2E2F5F5F5F5F5F5F5F5F5F5F5F5F5F5F5F5F5F5F5F5F5F5F5F5F5F5F5F5F5F5F5F5F5F5F5F5F5F5F5F5F5F5F5F5F5F5F5F5F5F5F5F5F5F5F5F5F5F5F5F5F5F5F5F5F5F5F5F5F5F5F5F5F5F5F5F5F5F5F5F5F5F5F5F5F5F5F5F5F5F5F5F5F5F5F5F5F5F5F5F5F5F5F5F5F5F5F5F5F5F5F5F5F5F5F5F5F5F5F5
310
F5F5F5F5F5F5F5F5F5F5F5F5F5F5F5F5F5F5F5F5F5F5F5F5F5F5F5F5F5F5F5F5F5F5F5F5F5F5F5F5F5F5F5F5F5F5F5F5F5F5F5F5F5F5F5F5F5F5F5E2E2F5F5F5F5F5F5F5F5F5F5F5F5F5F5F5F5F5F5F5F5F5F5F5F5F5F5F5F5F5F5F5F5F5F5F5F5F5F5F5F5F5F5F5F5F5F5F5F5F5F5F5F5F5F5F5F5F5F5F5F5F5F5F5F5F5F5
310
F5F5F5F5F5F5F5F5F5F5F5F5F5F5F5F5F5F5F5F5F5F5F5F5F5F5F5F5F5F5F5F5F5F5F5F5F5F5F5F5F5F5F5F5F5F5F5F5F5F5F5F5F5F5F5F5F5F5F5F5F5F5F5F5F5F5F5F5F5F5F5F5F5F5F5F5F5F5F5F5F5F5F5F5F5F5F5F5F5F5F5F5F5F5F5F5F5F5F5F5F5F5F5F5F5F5F5F5F5F5F5F5E2E2F5F5F5F5F5F5F5F5F5F5F5F5F5
310
F5F5F5F5F5F5F5F5E2E2E2E2E2E2E2E2E2E2E2E2E2E2E2E2E2E2E2E2E2E2E2E2E2E2E2E2E2E2E2E2E2E2E2E2E2E2E2E2E2E2E2E2E2E2E2E2E2E2E2E2E2E2E2E2E2E2E2E2E2E2E2E2E2E2E2E2E2E2E2E2E2E2E2E2E2E2E2E2E2E2E2E2E2E2E2E2E2E2E2E2E2E2E2E2E2E2E2E2E2E2E2E2E2E2E2E2E2E2E2E2E2E2E2E2E2E2E2
310
E2E2E2E2E2E2E2E2E2E2E2E2E2E2E2E2E2F5F5F5F5F5F5F5F5F5F5F5F5F5F5F5F5F5F5F5F5F5E2E2F5F5F5F5F5F5F5F5F5F5F5F5F5F5F5F5F5F5F5F5F5E22D2D2D2DF5F5F5F5E2F5F5F5F5F5F5F52DF5F5F5F5F5F5F5F5F5F5F5F5F5F5F5F5F5F5E2F5F5F5F5F5F5F5F5F5F5F5F5F5F5F5F5F5F5F5F5F5F5F5F5F5F5F5F5F5
310
F5F5F5F5F5F5F5F5F5F5F5F5F5F5F5F5F5F5F5F5F5F5F5F5F5F5F5F5F5F5F5F5F5F5F5F5F5F5F5F5F5F5F5F5F5F5F5F5F5F5F5F5F5F5F5F5F5F5F5F5F5F5F5F5F5F5F5F5F5E2F5F5F5F5F5F5F5F5F5F5F5F5F5F5F5F5F5F5F5F5F5E2E2F5F5F5F5F5F5F5F5F5F5F5F5F5F5F5F5F5F5F5F5F5E2DCF5F52DF5F5F5F5E2F5F5F5
310
F5F5F5F52DF5F5F5F5F5F5F5F5F5F5F5F5F5F5F5F5F5F5E2F5F5F5F5F5F5F5F5F5F5F5F5F5F5F5F5F5F5F5F5F5F5F5F5F5F5F5F5F5F5F5F5F5F5F5F5F5F5F5F5F5F5F5F5F5F5F5F5F5F5F5F5F5F5F5F5F5F5F5F5F5F5F5F5F5F5F5F5F5F5F5F5F5F5F5F5F5F5F5F5F5F5F5F5F5F5F5F5F5F5F5F5F5F5F5F5F5F5E2F5F5F5F5
310
F5F5F5F5F5F5F5F5F5F5F5F5F5F5F5F5F5E2E2F5F5F5F5F5F5F5F5F5F5F5F5F5F5F5F5F5F5F5F5F5E2DCF5F52DF5F5F5F5E2F5F5F5F5F5F5F52DF5F5F5F5F5F5F5F5F5F5F5F5F5F5F5F5F5F5E2E2F5F5F5F5F5F5F5F5F5F5F5F5F5F5F5F5F5F5F5F5F5F5F5F5F5F5F5F5F5F5F5F5F5F5F5F5F5F5F5F5F5F5F5F5F5F5F5F5F5
310
F5F5F5F5F5F5F5F5F5F5F5F5F5F5F5F5F5F5F5F5F5F5F5F5F5F5F5F5F5F5F5F5F5F5F5F5F5F5F5F5F5F5F5F5F5F5F5F5E2F5F5F5F5F5F5F5F5F5F5F5F5F5F5F5F5F5F5F5F5F5E2E2F5F5F5F5F5F5F5F5F5F5F5F5F5F5F5F5F5F5F5F5F5E2BEF5F52D2D2D2D2D2D2D2D2D2D2D2D2D2DE2E2E2E2E2E2E2E2E2E2E2E2E2E2E2E2
310
E2E2E2E2F5F5F5F5F5F5F5F5F5F5F5F5F5F5F5F5F5F5F5F5F5F5F5F5F5F5F5F5F5F5F5F5F5F5F5F5F5F5F5F5F5F5F5F5F5F5F5F5F5F5F5F5F5F5F5F5F5F5F5F5F5F5F5F5F5F5F5F5F5F5F5F5F5F5F5F5F5F5F5F5F5F5F5F5F5F5F5F5F5F5F5F5F5F5F5F5F5E2F5F5F5F5F5F5F5F5F5F5F5F5F5F5F5F5F5F5F5F5F5E2E2F5F5
310
F5F5E2F5F5F5F5F5F5F5F5F5F5F5F5F5F5F5F5E2DCF5F5F5F5F5F5F5E2F5F5F5F5F5F5F5E2F5F5F5F5F5F5F5F5F5F5F5F5F5F5F5F5F5F5F5F5F5F5F5F5F5F5F5F5F5F5F5F5F5F5F5F5F5F5F5F5F5F5F5F5F5F5F5F5F5F5F5F5F5F5F5F5F5F5F5F5F5F5F5F5F5F5F5F5F5F5F5F5F5F5F5F5F5F5F5F5F5F5F5F5F5F5F5F5F5F5
310
F5F5F5F5F5F5F5F5F5F5F5F5F5F5F5F5F5F5F5F5F5F5F5F5F5F5F5E2F5F5F5F5F5F5F5F5F5F5F5F5F5F5F5F5E2F5F5F5F5E2E2F5F5F5F5E2F5F5F5F5F5F5F5F5F5F5F5F5F5F5F5F5E2F5F5F5F5F5F5F5F5E2F5F5F5F5F5F5F5E2F5F5F5F5F5F5F5F5F5F5F5F5F5F5F5F5F5F5F5F5F5F5F5F5F5F5F5F5F5F5F5F5F5F5F5F5F5
310
F5F5F5F5F5F5F5F5F5F5F5F5F5F5F5F5F5F5F5F5F5F5F5F5F5F5F5F5F5F5F5F5F5F5F5F5F5F5F5F5F5F5F5F5F5F5F5F5F5F5F5F5F5F5F5F5F5F5F5F5F5F5F5F5F5F5F5F5F5F5F5F5F5F5F5F5F5F5F5F5E2F5F5F5F5F5F5F5F5F5F5F5F5F5F5F5F5E2F5F5F5F5E2E2F5F5F5F5E2F5F5F5F5F5F5F5F5F5F5F5F5F5F5F5F5E2E2
310
E2E2E2E2E2E2E2E2F5F5F5F5F5F5F5E2F5F5F5F5F5F5F5F5F5F5F5F5F5F5F5F5F5F5F5F5F5F5F5F5F5F5F5F5F5F5F5F5F5F5F5F5F5F5F5F5F5F5F5F5F5F5F5F5F5F5F5F5F5F5F5F5F5F5F5F5F5F5F5F5F5F5F5F5F5F5F5F5F5F5F5F5F5F5F5F5F5F5F5F5F5F5F5F5F5F5F5F5F5F5F5F5F5F5F5F5F5F5F5F5F5F5F5F5F5F5F5
310
F5F5F5F5F5F5E2F5F5F5F5F5F5F5F5F5F5F5F5F5F5F5F5E2F5F5F5F5E2E2F5F5F5F5E2F5F5F5F5F5F5F5F5F5F5F5F5F5F5F5F5E2E2E2E2F5F5F5F5F5F5F5F5F5F5F5F5F5E2F5F5F5F5F5F5F5F5F5F5F5F5F5F5F5F5F5F5F5F5F5F5F5F5F5F5F5F5F5F5F5F5F5F5F5F5F5F5F5F5F5F5F5F5F5F5F5F5F5F5F5F5F5F5F5F5F5F5
310
F5F5F5F5F5F5F5F5F5F5F5F5F5F5F5F5F5F5F5F5F5F5F5F5F5F5F5F5F5F5F5F5F5F5F5F5F5F5F5F5F5F5F5F5F5F5F5F5F5F5F5F5F5F5F5F5F5F5F5E2F5F5F5F5F5F5F5F5F5F5F5F5F5F5F5F5E2F5F5F5F5E2E2F5F5F5F5E2F5F5F5F5F5F5F5F5F5F5F5F5F5F5F5F5E2E2E2E2F5F5F5F5F5F5F5F5F5F5F5F5F5E2F5F5F5F5F5
310
F5F5F5F5F5F5F5F5F5F5F5F5F5F5F5F5F5F5F5F5F5F5F5F5F5F5F5F5F5F5F5F5F5F5F5F5F5F5F5F5F5F5F5F5F5F5F5F5F5F5F5F5F5F5F5F5F5F5F5F5F5F5F5F5F5F5F5F5F5F5F5F5F5F5F5F5F5F5F5F5F5F5F5F5F5F5F5F5F5F5F5F5F5F5F5F5F5F5F5F5F5F5F5F5F5F5F5F5F5F5F5F5E2F5F5F5F5F5F5F5F5F5F5F5F5F5F5
310
F5F5E2F5F5F5F5E2E2F5F5F5F5E2F5F5F5F5F5F5F5F5F5F5F5F5F5F5F5F5E2F5F5F5F5F5F5F5F5F5F5F5F5F5F5F5F5E2F5F5F5F5F5F5F5F5F5F5F5F5F5F5F5F5F5F5F5F5F5F5F5F5F5F5F5F5F5F5F5F5F5F5F5F5F5F5F5F5F5F5F5F5F5F5F5F5F5F5F5F5F5F5F5F5F5F5F5F5F5F5F5F5F5F5F5F5F5F5F5F5F5F5F5F5F5F5F5
310
F5F5F5F5F5F5F5F5F5F5F5F5F5F5F5F5F5F5F5F5F5F5F5F5F5F5F5F5F5F5F5F5F5F5F5F5F5F5E2F5F5F5F5F5F5F5F5F5F5F5F5F5F5F5F5E2F5F5F5F5E2E2F5F5F5F5E2F5F5F5F5F5F5F5F5F5F5F5F5F5F5F5F5E2E2E2E2E2E2E2E2E2E2E2E2E2E2E2E2E2E2F5F5F5F5F5F5F5F5F5F5F5F5F5F5F5F5F5F5F5F5F5F5F5F5F5F5
310
F5F5F5F5F5F5F5F5F5F5F5F5F5F5F5F5F5F5F5F5F5F5F5F5F5F5F5F5F5F5F5F5F5F5F5F5F5F5F5F5F5F5F5F5F5F5F5F5F5F5F5F5F5F5F5F5F5F5F5F5F5F5F5F5F5F5F5F5F5F5F5F5F5F5F5F5F5F5F5F5F5F5F5F5F5F5F5F5F5F5F5E2F5F5F5F5F5F5F5F5F5F5F5F5F5F5F5F5E2F5F5F5F5E2E2F5F5F5F5E2F5F5F5F5F5F5F5
310
F5F5F5F5F5F5F5F5F5E2E2E2F5F5F5F5F5F5F5F5F5F5F5F5F5F5F5F5F5F5F5F5F5F5F5F5F5F5F5F5F5F5F5F5F5F5F5F5F5F5F5F5F5F5F5F5F5F5F5F5F5F5F5F5F5F5F5F5F5F5F5F5F5F5F5F5F5F5F5F5F5F5F5F5F5F5F5F5F5F5F5F5F5F5F5F5F5F5F5F5F5F5F5F5F5F5F5F5F5F5F5F5F5F5F5F5F5F5F5F5F5F5F5F5F5F5F5
310
F5F5F5F5F5F5F5F5F5F5F5F5F5F5F5F5F5E2F5F5F5F5F5F5F5F5F5F5F5F5F5F5F5F5E2F5F5F5F5E2E2F5F5F5F5E2F5F5F5F5F5F5F5F5F5F5F5F5F5F5F5F5E2E2E2F5F5F5F5F5F5F5F5F5F5F5F5F5F5F5F5F5F5F5F5F5F5F5F5F5F5F5F5F5F5F5F5F5F5F5F5F5F5F5F5F5F5F5F5F5F5F5F5F5F5F5F5F5F5F5F5F5F5F5F5F5F5
310
F5F5F5F5F5F5F5F5F5F5F5F5F5F5F5F5F5F5F5F5F5F5F5F5F5F5F5F5F5F5F5F5F5F5F5F5F5F5F5F5F5F5F5F5F5F5F5F5F5F5F5F5F5F5F5F5F5F5F5F5F5F5F5F5F5F5F5F5F5F5E2F5F5F5F5F5F5F5F5F5F5F5F5F5F5F5F5E2F5F5F5F5E2E2F5F5F5F5E2F5F5F5F5F5F5F5F5F5F5F5F5F5F5F5F5E2F5F5F5F5F5F5F5F5F5F5F5
310
F5F5F5F5F5F5F5F5F5F5F5F5F5F5F5F5F5F5F5F5F5F5F5F5F5F5F5F5F5F5F5F5F5F5F5F5F5F5F5F5F5F5F5F5F5F5F5F5F5F5F5F5F5F5F5F5F5F5F5F5F5F5F5F5F5F5F5F5F5F5F5F5F5F5F5F5F5F5F5F5F5F5F5F5F5F5F5F5F5F5F5F5F5F5F5F5F5F5F5F5F5F5F5F5F5F5F5F5F5F5F5F5F5F5F5F5F5F5F5F5F5F5F5E2F5F5F5
310
F5F5F5F5F5F5F5F5F5F5F5F5F5E2F5F5F5F5E2E2F5F5F5F5E2F5F5F5F5F5F5F5F5F5F5F5F5F5F5F5F5E20F0F0F0F0F0F0F0F0F0F0FF5F5F5F5F5F5F5F5F5F5F5F5F5F5F5F5F5F5F5F5F5F5F5F5F5F5F5F5F5F5F5F5F5F5F5F5F5F5F5F5F5F5F5F5F5F5F5F5F5F5F5F5F5F5F5F5F5F5F5F5F5F5F5F5F5F5F5F5F5F5F5F5F5F5
310
F5F5F5F5F5F5F5F5F5F5F5F5F5F5F5F5F5F5F5F5F5F5F5F5F5F5F5F5F5F5F5F5F5F5F5F5F5F5F5F5F5F5F5F5F5F5F5F5F5E2F5F5F5F5F5F5F5F5F5F5F5F5F5F5F5F5E2F5F5F5F5E2E2F5F5F5F5E2F5F5F5F5F5F5F5F5F5F5F5F5F5F5F5F5E20F0F0F0F0F0F0F0F0F0FF5F5F5F5F5F5F5F5F5F5F5F5F5F5F5F5F5F5F5F5F5F5
310
F5F5F5F5F5F5F5F5F5F5F5F5F5F5F5F5F5F5F5F5F5F5F5F5F5F5F5F5F5F5F5F5F5F5F5F5F5F5F5F5F5F5F5F5F5F5F5F5F5F5F5F5F5F5F5F5F5F5F5F5F5F5F5F5F5F5F5F5F5F5F5F5F5F5F5F5F5F5F5F5F5F5F5F5F5F5F5F5F5F5F5F5F5F5F5F5F5F5F5F5F5F5E2F5F5F5F5F5F5F5F5F5F5F5F5F5F5F5F5E2F5F5F5F5E2E2F5
310
F5F5F5E2F5F5F5F5F5F5F5F5F5F5F5F5F5F5F5F5E2F5F5F5F5F5F5F5F5F5F5F5F5F5F5F5F5F5F5F5F5F5F5F5F5F5F5F5F5F5F5F5F5F5F5F5F5F5F5F5F5F5F5F5F5F5F5F5F5F5F5F5F5F5F5F5F5F5F5F5F5F5F5F5F5F5F5F5F5F5F5F5F5F5F5F5F5F5F5F5F5F5F5F5F5F5F5F5F5F5F5F5F5F5F5F5F5F5F5F5F5F5F5F5F5F5F5
310
F5F5F5F5F5F5F5F5F5F5F5F5F5F5F5F5F5F5F5F5F5F5F5F5F5F5F5F5E2F5F5F5F5F5F5F5F5F5F5F5F5F5F5F5F5E2F5F5F5F5E2E2F5F5F5F5E2F5F5F5F5F5F5F5F5F5F5F5F5F5F5F5F5E2F5F5F5F5F5F5F5F5F5F5F5F5F5F5F5F5F5F5F5F5F5F5F5F5F5F5F5F5F5F5F5F5F5F5F5F5F5F5F5F5F5F5F5F5F5F5F5F5F5F5F5F5F5
310
F5F5F5F5F5F5F5F5F5F5F5F5F5F5F5F5F5F5F5F5F5F5F5F5F5F5F5F5F5F5F5F5F5F5F5F5F5F5F5F5F5F5F5F5F5F5F5F5F5F5F5F5F5F5F5F5F5F5F5F5F5F5F5F5F5F5F5F5F5F5F5F5F5F5F5F5F5F5F5F5F5E2F5F5F5F5F5F5F5F5F5F5F5F5F5F5F5F5E2F5F5F5F5E2E2F5F5F5F5E2F5F5F5F5F5F5F5F5F5F5F5F5F5F5F5F5E2
310
F5F5F5F5F5F5F5F5F5F5F5F5F5F5F5F5F5F5F5F5F5F5F5F5F5F5F5F5F5F5F5F5F5F5F5F5F5F5F5F5F5F5F5F5F5F5F5F5F5F5F5F5F5F5F5F5F5F5F5F5F5F5F5F5F5F5F5F5F5F5F5F5F5F5F5F5F5F5F5F5F5F5F5F5F5F5F5F5F5F5F5F5F5F5F5F5F5F5F5F5F5F5F5F5F5F5F5F5F5F5F5F5F5F5F5F5F5F5F5F5F5F5F5F5F5F5F5
310
F5F5F5F5F5F5F5E2F5F5F5F5F5F5F5F5F5F5F5F5F5F5F5F5E2F5F5F5F5E2E2F5F5F5F5E2F5F5F5F5F5F5F5F5F5F5F5F5F5F5F5F5E2F5F5F5F5F5F5F5F5F5F5F5F5F5F5F5F5F5F5F5F5F5F5F5F5F5F5F5F5F5F5F5F5F5F5F5F5F5F5F5F5F5F5F5F5F5F5F5F5F5F5F5F5F5F5F5F5F5F5F5F5F5F5F5F5F5F5F5F5F5F5F5F5F5F5
310
F5F5F5F5F5F5F5F5F5F5F5F5F5F5F5F5F5F5F5F5F5F5F5F5F5F5F5F5F5F5F5F5F5F5F5F5F5F5F5F5F5F5F5F5F5F5F5F5F5F5F5F5F5F5F5F5F5F5F5F5E2F5F5F5F5F5F5F5F5F5F5F5F5F5F5F5F5E2F5F5F5F5E2E2F5F5F5F5F5F5F5F5F5F5F5F5F5F5F5F5F5F5F5F5F5E2F5F5F5F5F5F5F5F5F5F5F5F5F5F5F5F5F5F5F5F5F5
310
F5F5F5F5F5F5F5F5F5F5F5F5F5F5F5F5F5F5F5F5F5F5F5F5F5F5F5F5F5F5F5F5F5F5F5F5F5F5F5F5F5F5F5F5F5F5F5F5F5F5F5F5F5F5F5F5F5F5F5F5F5F5F5F5F5F5F5F5F5F5F5F5F5F5F5F5F5F5F5F5F5F5F5F5F5F5F5F5F5F5F5F5F5F5F5F5F5F5F5F5F5F5F5F5F5F5F5F5F5F5F5F5F5E2F5F5F5F5F5F5F5F5F5F5F5F5F5
310
F5F5F5F5F5F5F5F5E2E2F5F5F5F5F5F5F5F5F5F5F5F5F5F5F5F5F5F5F5F5F5E2F5F5F5F5F5F5F5F5F5F5F5F5F5F5F5F5F5F5F5F5F5F5F5F5F5F5F5F5F5F5F5F5F5F5F5F5F5F5F5F5F5F5F5F5F5F5F5F5F5F5F5F5F5F5F5F5F5F5F5F5F5F5F5F5F5F5F5F5F5F5F5F5F5F5F5F5F5F5F5F5F5F5F5F5F5F5F5F5F5F5F5F5F5F5F5
310
F5F5F5F5F5F5F5F5F5F5F5F5F5F5F5F5F5F5F5F5F5F5F5F5F5F5F5F5F5F5F5F5F5F5F5F5F5F5F5E2F5F5F5F5F5F5F5F5F5F5F5F5F5F5F5F5F5F5F5F5F5E2E2F5F5F5F5F5F5F5F5F5F5F5F5F5F5F5F5F5F5F5F5F5E2F5F5F5F5F5F5F5F5F5F5F5F5F5F5F5F5F5F5F5F5F5F5F5F5F5F5F5F5F5F5F5F5F5F5F5F5F5F5F5F5F5F5
310
F5F5F5F5F5F5F5F5F5F5F5F5F5F5F5F5F5F5F5F5F5F5F5F5F5F5F5F5F5F5F5F5F5F5F5F5F5F5F5F5F5F5F5F5F5F5F5F5F5F5F5F5F5F5F5F5F5F5F5F5F5F5F5F5F5F5F5F5F5F5F5F5F5F5F5F5F5F5F5F5F5F5F5F5F5F5F5F5F5F5F5F5E2F5F5F5F5F5F5F5F5F5F5F5F5F5F5F5F5F5F5F5F5F5E2E2F5F5F5F5F5F5F5F5F5F5F5
310
F5F5F5F5F5F5F5F5F5F5E2F5F5F5F5F5F5F5F5F5F5F5F5F5F5F5F5F5F5F5F5F5F5F5F5F5F5F5F5F5F5F5F5F5F5F5F5F5F5F5F5F5F5F5F5F5F5F5F5F5F5F5F5F5F5F5F5F5F5F5F5F5F5F5F5F5F5F5F5F5F5F5F5F5F5F5F5F5F5F5F5F5F5F5F5F5F5F5F5F5F5F5F5F5F5F5F5F5F5F5F5F5F5F5F5F5F5F5F5F5F5F5F5F5F5F5F5
310
F5F5F5F5F5F5F5F5F5F5F5F5F5F5F5F5F5F5E2F5F5F5F5F5F5F5F5F5F5F5F5F5F5F5F5F5F5F5F5F5E2E2F5F5F5F5F5F5F5F5F5F5F5F5F5F5F5F5F5F5F5F5F5E2F5F5F5F5F5F5F5F5F5F5F5F5F5F5F5F5F5F5F5F5F5F5F5F5F5F5F5F5F5F5F5F5F5F5F5F5F5F5F5F5F5F5F5F5F5F5F5F5F5F5F5F5F5F5F5F5F5F5F5F5F5F5F5
310
F5F5F5F5F5F5F5F5F5F5F5F5F5F5F5F5F5F5F5F5F5F5F5F5F5F5F5F5F5F5F5F5F5F5F5F5F5F5F5F5F5F5F5F5F5F5F5F5F5F5F5F5F5F5F5F5F5F5F5F5F5F5F5F5F5F5F5F5F5F5F5E2F5F5F5F5F5F5F5F5F5F5F5F5F5F5F5F5F5F5F5F5F5E2E2F5F5F5F5F5F5F5F5F5F5F5F5F5F5F5F5F5F5F5F5F5E2F5F5F5F5F5F5F5F5F5F5
310
F5F5F5F5F5F5F5F5F5F5F5F5F5F5F5F5F5F5F5F5F5F5F5F5F5F5F5F5F5F5F5F5F5F5F5F5F5F5F5F5F5F5F5F5F5F5F5F5F5F5F5F5F5F5F5F5F5F5F5F5F5F5F5F5F5F5F5F5F5F5F5F5F5F5F5F5F5F5F5F5F5F5F5F5F5F5F5F5F5F5F5F5F5F5F5F5F5F5F5F5F5F5F5F5F5F5F5F5F5F5F5F5F5F5F5F5F5F5F5F5F5F5F5F5E2F5F5
310
F5F5F5F5F5F5F5F5F5F5F5F5F5F5F5F5F5F5F5E2E2F5F5F5F5F5F5F5F5F5F5F5F5F5F5F5F5F5F5F5F5F5E2F5F5F5F5F5F5F5F5F5F5F5F5F5F5F5F5F5F5F5F5F5F5F5F5F5F5F5F5F5F5F5F5F5F5F5F5F5F5F5F5F5F5F5F5F5F5F5F5F5F5F5F5F5F5F5F5F5F5F5F5F5F5F5F5F5F5F5F5F5F5F5F5F5F5F5F5F5F5F5F5F5F5F5F5
310
F5F5F5F5F5F5F5F5F5F5F5F5F5F5F5F5F5F5F5F5F5F5F5F5F5F5F5F5F5F5F5F5F5F5F5F5F5F5F5F5F5F5F5F5F5F5F5F5F5F5E2F5F5F5F5F5F5F5F5F5F5F5F5F5F5F5F5F5F5F5F5F5E2E2F5F5F5F5F5F5F5F5F5F5F5F5F5F5F5F5F5F5F5F5F5E2F5F5F5F5F5F5F5F5F5F5F5F5F5F5F5F5F5F5F5F5F5F5F5F5F5F5F5F5F5F5F5
310
F5F5F5F5F5F5F5F5F5F5F5F5F5F5F5F5F5F5F5F5F5F5F5F5F5F5F5F5F5F5F5F5F5F5F5F5F5F5F5F5F5F5F5F5F5F5F5F5F5F5F5F5F5F5F5F5F5F5F5F5F5F5F5F5F5F5F5F5F5F5F5F5F5F5F5F5F5F5F5F5F5F5F5F5F5F5F5F5F5F5F5F5F5F5F5F5F5F5F5F5F5F5F5E2F5F5F5F5F5F5F5F5F5F5F5F5F5F5F5F5F5F5F5F5F5E2E2
310
F5F5F5F5F5F5F5F5F5F5F5F5F5F5F5F5F5F5F5F5F5E2F5F5F5F5F5F5F5F5F5F5F5F5F5F5F5F5F5F5F5F5F5F5F5F5F5F5F5F5F5F5F5F5F5F5F5F5F5F5F5F5F5F5F5F5F5F5F5F5F5F5F5F5F5F5F5F5F5F5F5F5F5F5F5F5F5F5F5F5F5F5F5F5F5F5F5F5F5F5F5F5F5F5F5F5F5F5F5F5F5F5F5F5F5F5F5F5F5F5F5F5F5F5F5F5F5
310
F5F5F5F5F5F5F5F5F5F5F5F5F5F5F5F5F5F5F5F5F5F5F5F5F5F5F5F5F5E2F5F5F5F5F5F5F5F5F5F5F5F5F5F5F5F5F5F5F5F5F5E2E2F5F5F5F5F5F5F5F5F5F5F5F5F5F5F5F5F5F5F5F5F5E2F5F5F5F5F5F5F5F5F5F5F5F5F5F5F5F5F5F5F5F5F5F5F5F5F5F5F5F5F5F5F5F5F5F5F5F5F5F5F5F5F5F5F5F5F5F5F5F5F5F5F5F5
310
F5F5F5F5F5F5F5F5F5F5F5F5F5F5F5F5F5F5F5F5F5F5F5F5F5F5F5F5F5F5F5F5F5F5F5F5F5F5F5F5F5F5F5F5F5F5F5F5F5F5F5F5F5F5F5F5F5F5F5F5F5F5F5F5F5F5F5F5F5F5F5F5F5F5F5F5F5F5F5F5F5F5E2F5F5F5F5F5F5F5F5F5F5F5F5F5F5F5F5F5F5F5F5F5E2E2F5F5F5F5E2F5F5F5F5F5F5F5F5F5F5F5F5F5F5F5F5
310
E2F5F5F5F5F5F5F5F5F5F5F5F5F5F5F5F5F5F5F5F5F5F5F5F5F5F5F5F5F5F5F5F5F5F5F5F5F5F5F5F5F5F5F5F5F5F5F5F5F5F5F5F5F5F5F5F5F5F5F5F5F5F5F5F5F5F5F5F5F5F5F5F5F5F5F5F5F5F5F5F5F5F5F5F5F5F5F5F5F5F5F5F5F5F5F5F5F5F5F5F5F5F5F5F5F5F5F5F5F5F5F5F5F5F5F5F5F5F5F5F5F5F5F5F5F5F5
310
F5F5F5F5F5F5F5F5E2F5F5F5F5F5F5F5F5F5F5F5F5F5F5F5F5E2F5F5F5F5E2E2F5F5F5F5E2F5F5F5F5F5F5F5F5F5F5F5F5F5F5F5F5E2F5F5F5F5F5F5F5F5F5F5F5F5F5F5F5F5F5F5F5F5F5F5F5F5F5F5F5F5F5F5F5F5F5F5F5F5F5F5F5F5F5F5F5F5F5F5F5F5F5F5F5F5F5F5F5F5F5F5F5F5F5F5F5F5F5F5F5F5F5F5F5F5F5
310
F5F5F5F5F5F5F5F5F5F5F5F5F5F5F5F5F5F5F5F5F5F5F5F5F5F5F5F5F5F5F5F5F5F5F5F5F5F5F5F5F5F5F5F5F5F5F5F5F5F5F5F5F5F5F5F5F5F5F5F5F5E2F5F5F5F5F5F5F5F5F5F5F5F5F5F5F5F5E2F5F5F5F5E2E2F5F5F5F5E2F5F5F5F5F5F5F5F5F5F5F5F5F5F5F5F5E2F5F5F5F5F5F5F5F5F5F5F5F5F5F5F5F5F5F5F5F5
310
F5F5F5F5F5F5F5F5F5F5F5F5F5F5F5F5F5F5F5F5F5F5F5F5F5F5F5F5F5F5F5F5F5F5F5F5F5F5F5F5F5F5F5F5F5F5F5F5F5F5F5F5F5F5F5F5F5F5F5F5F5F5F5F5F5F5F5F5F5F5F5F5F5F5F5F5F5F5F5F5F5F5F5F5F5F5F5F5F5F5F5F5F5F5F5F5F5F5F5F5F5F5F5F5F5F5F5F5F5F5F5F5F5F5E2F5F5F5F5F5F5F5F5F5F5F5F5
310
F5F5F5F5E2F5F5F5F5E2E2F5F5F5F5E2F5F5F5F5F5F5F5F5F5F5F5F5F5F5F5F5E2F5F5F5F5F5F5F5F5F5F5F5F5F5F5F5F5F5F5F5F5F5F5F5F5F5F5F5F5F5F5F5F5F5F5F5F5F5F5F5F5F5F5F5F5F5F5F5F5F5F5F5F5F5F5F5F5F5F5F5F5F5F5F5F5F5F5F5F5F5F5F5F5F5F5F5F5F5F5F5F5F5F5F5F5F5F5F5F5F5F5F5F5F5F5
310
F5F5F5F5F5F5F5F5F5F5F5F5F5F5F5F5F5F5F5F5F5F5F5F5F5F5F5F5F5F5F5F5F5F5F5F5F5F5F5F5E2F5F5F5F5F5F5F5F5F5F5F5F5F5F5F5F5E2F5F5F5F5E2E2F5F5F5F5E2F5F5F5F5F5F5F5F5F5F5F5F5F5F5F5F5E2F5F5F5F5F5F5F5F5F5F5F5F5F5F5F5F5F5F5F5F5F5F5F5F5F5F5F5F5F5F5F5F5F5F5F5F5F5F5F5F5F5
310
F5F5F5F5F5F5F5F5F5F5F5F5F5F5F5F5F5F5F5F5F5F5F5F5F5F5F5F5F5F5F5F5F5F5F5F5F5F5F5F5F5F5F5F5F5F5F5F5F5F5F5F5F5F5F5F5F5F5F5F5F5F5F5F5F5F5F5F5F5F5F5F5F5F5F5F5F5F5F5F5F5F5F5F5F5F5F5F5F5F5F5F5F5E2F5F5F5F5F5F5F5F5F5F5F5F5F5F5F5F5E2F5F5F5F5E2E2F5F5F5F5E2F5F5F5F5F5
310
F5F5F5F5F5F5F5F5F5F5F5E2F5F5F5F5F5F5F5F5F5F5F5F5F5F5F5F5F5F5F5F5F5F5F5F5F5F5F5F5F5F5F5F5F5F5F5F5F5F5F5F5F5F5F5F5F5F5F5F5F5F5F5F5F5F5F5F5F5F5F5F5F5F5F5F5F5F5F5F5F5F5F5F5F5F5F5F5F5F5F5F5F5F5F5F5F5F5F5F5F5F5F5F5F5F5F5F5F5F5F5F5F5F5F5F5F5F5F5F5F5F5F5F5F5F5F5
310
F5F5F5F5F5F5F5F5F5F5F5F5F5F5F5F5F5F5F5E2F5F5F5F5F5F5F5F5F5F5F5F5F5F5F5F5E2F5F5F5F5E2E2F5F5F5F5E2F5F5F5F5F5F5F5F5F5F5F5F5F5F5F5F5E2F5F5F5F5F5F5F5F5F5F5F5F5F5F5F5F5F5F5F5F5F5F5F5F5F5F5F5F5F5F5F5F5F5F5F5F5F5F5F5F5F5F5F5F5F5F5F5F5F5F5F5F5F5F5F5F5F5F5F5F5F5F5
310
F5F5F5F5F5F5F5F5F5F5F5F5F5F5F5F5F5F5F5F5F5F5F5F5F5F5F5F5F5F5F5F5F5F5F5F5F5F5F5F5F5F5F5F5F5F5F5F5F5F5F5F5F5F5F5F5F5F5F5F5F5F5F5F5F5F5F5F5F5F5F5F5E2F5F5F5F5F5F5F5F5F5F5F5F5F5F5F5F5E2F5F5F5F5E2E2F5F5F5F5E2F5F5F5F5F5F5F5F5F5F5F5F5F5F5F5F5E2F5F5F5F5F5F5F5F5F5
310
F5F5F5F5F5F5F5F5F5F5F5F5F5F5F5F5F5F5F5F5F5F5F5F5F5F5F5F5F5F5F5F5F5F5F5F5F5F5F5F5F5F5F5F5F5F5F5F5F5F5F5F5F5F5F5F5F5F5F5F5F5F5F5F5F5F5F5F5F5F5F5F5F5F5F5F5F5F5F5F5F5F5F5F5F5F5F5F5F5F5F5F5F5F5F5F5F5F5F5F5F5F5F5F5F5F5F5F5F5F5F5F5F5F5F5F5F5F5F5F5F5F5F5F5F5E2F5
310
F5F5F5F5F5F5F5F5F5F5F5F5F5F5F5E2F5F5F5F5E2E2F5F5F5F5E2F5F5F5F5F5F5F5F5F5F5F5F5F5F5F5F5E2F5F5F5F5F5F5F5F5F5F5F5F5F5F5F5F5F5F5F5F5F5F5F5F5F5F5F5F5F5F5F5F5F5F5F5F5F5F5F5F5F5F5F5F5F5F5F5F5F5F5F5F5F5F5F5F5F5F5F5F5F5F5F5F5F5F5F5F5F5F5F5F5F5F5F5F5F5F5F5F5F5F5F5
310
F5F5F5F5F5F5F5F5F5F5F5F5F5F5F5F5F5F5F5F5F5F5F5F5F5F5F5F5F5F5F5F5F5F5F5F5F5F5F5F5F5F5F5F5F5F5F5F5F5F5F5E2F5F5F5F5F5F5F5F5F5F5F5F5F5F5F5F5E2F5F5F5F5E2E2F5F5F5F5E2F5F5F5F5F5F5F5F5F5F5F5F5F5F5F5F5E2F5F5F5F5F5F5F5F5F5F5F5F5F5F5F5F5F5F5F5F5F5F5F5F5F5F5F5F5F5F5
310
F5F5F5F5F5F5F5F5F5F5F5F5F5F5F5F5F5F5F5F5F5F5F5F5F5F5F5F5F5F5F5F5F5F5F5F5F5F5F5F5F5F5F5F5F5F5F5F5F5F5F5F5F5F5F5F5F5F5F5F5F5F5F5F5F5F5F5F5F5F5F5F5F5F5F5F5F5F5F5F5F5F5F5F5F5F5F5F5F5F5F5F5F5F5F5F5F5F5F5F5F5F5F5F5E2F5F5F5F5F5F5F5F5F5F5F5F5F5F5F5F5E2F5F5F5F5E2
310
E2F5F5F5F5E2F5F5F5F5F5F5F5F5F5F5F5F5F5F5F5F5E2F5F5F5F5F5F5F5F5F5F5F5F5F5F5F5F5F5F5F5F5F5F5F5F5F5F5F5F5F5F5F5F5F5F5F5F5F5F5F5F5F5F5F5F5F5F5F5F5F5F5F5F5F5F5F5F5F5F5F5F5F5F5F5F5F5F5F5F5F5F5F5F5F5F5F5F5F5F5F5F5F5F5F5F5F5F5F5F5F5F5F5F5F5F5F5F5F5F5F5F5F5F5F5F5
310
F5F5F5F5F5F5F5F5F5F5F5F5F5F5F5F5F5F5F5F5F5F5F5F5F5F5F5F5F5F5E2F5F5F5F5F5F5F5F5F5F5F5F5F5F5F5F5E2F5F5F5F5E2E2F5F5F5F5E2F5F5F5F5F5F5F5F5F5F5F5F5F5F5F5F5E2F5F5F5F5F5F5F5F5F5F5F5F5F5F5F5F5F5F5F5F5F5F5F5F5F5F5F5F5F5F5F5F5F5F5F5F5F5F5F5F5F5F5F5F5F5F5F5F5F5F5F5
310
F5F5F5F5F5F5F5F5F5F5F5F5F5F5F5F5F5F5F5F5F5F5F5F5F5F5F5F5F5F5F5F5F5F5F5F5F5F5F5F5F5F5F5F5F5F5F5F5F5F5F5F5F5F5F5F5F5F5F5F5F5F5F5F5F5F5F5F5F5F5F5F5F5F5F5F5F5F5F5F5F5F5F5E2F5F5F5F5F5F5F5F5F5F5F5F5F5F5F5F5E2F5F5F5F5E2E2F5F5F5F5E2F5F5F5F5F5F5F5F5F5F5F5F5F5F5F5
310
F5E2F5F5F5F5F5F5F5F5F5F5F5F5F5F5F5F5F5F5F5F5F5F5F5F5F5F5F5F5F5F5F5F5F5F5F5F5F5F5F5F5F5F5F5F5F5F5F5F5F5F5F5F5F5F5F5F5F5F5F5F5F5F5F5F5F5F5F5F5F5F5F5F5F5F5F5F5F5F5F5F5F5F5F5F5F5F5F5F5F5F5F5F5F5F5F5F5F5F5F5F5F5F5F5F5F5F5F5F5F5F5F5F5F5F5F5F5F5F5F5F5F5F5F5F5F5
310
F5F5F5F5F5F5F5F5F5E2F5F5F5F5F5F5F5F5F5F5F5F5F5F5F5F5E2F5F5F5F5E2E2F5F5F5F5E2F5F5F5F5F5F5F5F5F5F5F5F5F5F5F5F5E2F5F5F5F5F5F5F5F5F5F5F5F5F5F5F5F5F5F5F5F5F5F5F5F5F5F5F5F5F5F5F5F5F5F5F5F5F5F5F5F5F5F5F5F5F5F5F5F5F5F5F5F5F5F5F5F5F5F5F5F5F5F5F5F5F5F5F5F5F5F5F5F5
310
F5F5F5F5F5F5F5F5F5F5F5F5F5F5F5F5F5F5F5F5F5F5F5F5F5F5F5F5F5F5F5F5F5F5F5F5F5F5F5F5F5F5F5F5F5F5F5F5F5F5F5F5F5F5F5F5F5F5F5F5F5F5E2F5F5F5F5F5F5F5F5F5F5F5F5F5F5F5F5E2F5F5F5F5E2E2F5F5F5F5E2F5F5F5F5F5F5F5F5F5F5F5F5F5F5F5F5E2F5F5F5F5F5F5F5F5F5F5F5F5F5F5F5F5F5F5F5
310
F5F5F5F5F5F5F5F5F5F5F5F5F5F5F5F5F5F5F5F5F5F5F5F5F5F5F5F5F5F5F5F5F5F5F5F5F5F5F5F5F5F5F5F5F5F5F5F5F5F5F5F5F5F5F5F5F5F5F5F5F5F5F5F5F5F5F5F5F5F5F5F5F5F5F5F5F5F5F5F5F5F5F5F5F5F5F5F5F5F5F5F5F5F5F5F5F5F5F5F5F5F5F5F5F5F5F5F5F5F5F5F5F5F5F5E2F5F5F5F5F5F5F5F5F5F5F5
310
F5F5F5F5F5E2F5F5F5F5E2E2F5F5F5F5E2F5F5F5F5F5F5F5F5F5F5F5F5F5F5F5F5E2F5F5F5F5F5F5F5F5F5F5F5F5F5F5F5F5F5F5F5F5F5F5F5F5F5F5F5F5F5F5F5F5F5F5F5F5F5F5F5F5F5F5F5F5F5F5F5F5F5F5F5F5F5F5F5F5F5F5F5F5F5F5F5F5F5F5F5F5F5F5F5F5F5F5F5F5F5F5F5F5F5F5F5F5F5F5F5F5F5F5F5F5F5
310
F5F5F5F5F5F5F5F5F5F5F5F5F5F5F5F5F5F5F5F5F5F5F5F5F5F5F5F5F5F5F5F5F5F5F5F5F5F5F5F5F5E2F5F5F5F5F5F5F5F5F5F5F5F5F5F5F5F5E2F5F5F5F5E2E2F5F5F5F5F5F5F5F5F5F5F5F5F5F5F5F5F5F5F5F5F5E2F5F5F5F5F5F5F5F5F5F5F5F5F5F5F5F5F5F5F5F5F5F5F5F5F5F5F5F5F5F5F5F5F5F5F5F5F5F5F5F5
310
F5F5F5F5F5F5F5F5F5F5F5F5F5F5F5F5F5F5F5F5F5F5F5F5F5F5F5F5F5F5F5F5F5F5F5F5F5F5F5F5F5F5F5F5F5F5F5F5F5F5F5F5F5F5F5F5F5F5F5F5F5F5F5F5F5F5F5F5F5F5F5F5F5F5F5F5F5F5F5F5F5F5F5F5F5F5F5F5F5F5F5F5F5F5E2F5F5F5F5F5F5F5F5F5F5F5F5F5F5F5F5F5F5F5F5F5E2E2F5F5F5F5F5F5F5F5F5
310
F5F5F5F5F5F5F5F5F5F5F5F5E2F5F5F5F5F5F5F5F5F5F5F5F5F5F5F5F5F5F5F5F5F5F5F5F5F5F5F5F5F5F5F5F5F5F5F5F5F5F5F5F5F5F5F5F5F5F5F5F5F5F5F5F5F5F5F5F5F5F5F5F5F5F5F5F5F5F5F5F5F5F5F5F5F5F5F5F5F5F5F5F5F5F5F5F5F5F5F5F5F5F5F5F5F5F5F5F5F5F5F5F5F5F5F5F5F5F5F5F5F5F5F5F5F5F5
310
F5F5F5F5F5F5F5F5F5F5F5F5F5F5F5F5F5F5F5F5E2F5F5F5F5F5F5F5F5F5F5F5F5F5F5F5F5F5F5F5F5F5E2E2F5F5F5F5F5F5F5F5F5F5F5F5F5F5F5F5F5F5F5F5F5E2F5F5F5F5F5F5F5F5F5F5F5F5F5F5F5F5F5F5F5F5F5F5F5F5F5F5F5F5F5F5F5F5F5F5F5F5F5F5F5F5F5F5F5F5F5F5F5F5F5F5F5F5F5F5F5F5F5F5F5F5F5
310
F5F5F5F5F5F5F5F5F5F5F5F5F5F5F5F5F5F5F5F5F5F5F5F5F5F5F5F5F5F5F5F5F5F5F5F5F5F5F5F5F5F5F5F5F5F5F5F5F5F5F5F5F5F5F5F5F5F5F5F5F5F5F5F5F5F5F5F5F5F5F5F5F5E2F5F5F5F5F5F5F5F5F5F5F5F5F5F5F5F5F5F5F5F5F5E2E2F5F5F5F5F5F5F5F5F5F5F5F5F5F5F5F5F5F5F5F5F5E2F5F5F5F5F5F5F5F5
310
F5F5F5F5F5F5F5F5F5F5F5F5F5F5F5F5F5F5F5F5F5F5F5F5F5F5F5F5F5F5F5F5F5F5F5F5F5F5F5F5F5F5F5F5F5F5F5F5F5F5F5F5F5F5F5F5F5F5F5F5F5F5F5F5F5F5F5F5F5F5F5F5F5F5F5F5F5F5F5F5F5F5F5F5F5F5F5F5F5F5F5F5F5F5F5F5F5F5DCF5F5F5F5F5F5F5F5F5F5F5F5F5F5F5F5F5F5F5F5F5F5F5F5F5F5F5E2
310
F5F5F5F5F5F5F5F5F5F5F5F5F5F5F5F5F5F5F5F5F5E2E2F5F5F5F5F5F5F5F5F5F5F5F5F5F5F5F5F5F5F5F5F5E2F5F5F5F5F5F5F5F5F5F5F5F5F5F5F5F5F5F5F5F5F5F5F5F5F5F5F5F5F5F5F5F5F5F5F5F5F5F5F5F5F5F5F5F5F5F5F5F5F5F5F5F5F5F5F5F5F5F5F5F5F5F5F5F5F5F5F5F5F5F5F5F5F5F5F5F5F5F5F5F5F5E2
310
ECE2E2E2E2E2E2E2E2E2E2E2E2E2E2E2E2E2E2E2E2E2E2E2DCE2E2E2E2E2E2E2E2E2E2E2E2E2E2E2E2E2E2E2E2E2E2E2ECE2F5F5E2F5F5F5F5F5F5F5F5F5F5F5F5F5F5F5F5F5F5F5F5F5E2E2F5F5F5F5F5F5F5F5F5F5F5F5F5F5F5F5F5F5F5F5F5E2F5F5F5F5F5F5F5F5F5F5F5F5F5F5F5F5F5F5F5F5F5F5F5F5F5F5F5F5F5
310
F5F5F5F5F5F5F5F5F5F5F5F5F5F5F5F5F5F5F5F5F5F5F5F5F5F5F5F5F5F5F5F5F5F5F5F5F5F5F5F5F5F5F5F5F5F5F5F5F5F5F5E2F5F5ECF5F5F5F5F5F5F5F5F5F5F5F5F5F5F5F5F5F5F5F5F5F5DCF5F5F5F5F5F5F5F5F5F5F5F5F5F5F5F5F5F5F5F5F5F5ECF5F5E2F5E2F5F5F5F5F5F5F5F5F5F5F5F5F5F5F5F5F5F5F5F5F5
310
E2E2F5F5F5F5F5F5F5F5F5F5F5F5F5F5F5F5F5F5F5F5F5E2F5F5F5F5F5F5F5F5F5F5F5F5F5F5F5F5F5F5F5F5F5F5F5F5F5F5F5F5F5F5F5F5F5F5F5F5F5F5F5F5F5F5F5F5F5F5F5F5F5F5F5F5F5F5F5F5F5F5F5F5F5F5F5F5F5F5F5F5F5F5F5F5F5F5F5F5F5F5F5E2F5F5F5F5ECF5F5F5F5F5F5F5F5F5F5F5F5F5F5F5F5F5F5
310
F5F5F5DCF5F5F5F5F5F5F5F5F5F5F5F5F5F5F5F5F5F5F5F5F5ECF5F5F5F5E2E2F5F5F5F5F5F5F5F5F5F5F5F5F5F5F5F5F5F5F5F5F5E2E2F5F5F5F5F5F5F5F5F5F5F5F5F5F5F5F5F5F5F5F5F5E2F5F5F5F5F5F5F5F5F5F5F5F5F5F5F5F5F5F5F5F5F5F5F5F5F5F5F5F5F5F5F5F5F5F5F5F5F5F5F5F5F5F5F5F5F5F5F5F5F5F5
310
F5F5F5F5F5F5F5F5F5F5F5F5F5F5F5F5F5F5F5F5F5F5F5F5F5F5F5F5E2E2E2E2E2E2ECE2E2E2E2E2E2E2E2E2ECECECECECECE2ECECECECECDCECECECECECE2ECECECECECECE2E2E2E2E2E2E2E2ECE2E2E2E2E2E2E2F5F5F5F5F5F5F5F5F5F5F5F5F5F5F5F5F5F5F5F5F5E2E2F5F5F5F5F5F5F5F5F5F5F5F5F5F5F5F5F5F5F5
310
F5F5E2F5F5F5F5F5F5F5F5F5F5F5F5F5F5F5F5F5F5F5F5F5F5F5F5F5F5F5F5F5F5F5F5F5F5F5F5F5F5F5F5F5F5F5F5F5F5F5F5F5F5F5F5F5F5F5F5F5F5F5F5F5F5F5F5F5F5F5F5F5F5F5F5F5F5F5F5F5F5E2F5F5F5F5F5F5F5F5F5F5F5F5F5F5F5ECF5F5F5F5F5F5F5F5F5F5F5DCF5F5F5F5F5F5F5F5F5F5ECF5F5F5F5F5F5
310
F5F5F5F5F5F5F5F5F5E2E2F5F5F5F5F5F5F5F5F5F5F5F5F5F5F5F5F5F5F5F5F5E2E2F5F5F5F5E2F5F5F5F5F5F5F5F5F5F5F5F5F5F5F5F5E2F5F5F5F5F5F5F5F5F5F5F5F5F5F5F5F5F5F5F5F5F5F5F5F5F5F5F5F5F5F5F5F5F5F5F5F5F5F5F5F5F5F5F5F5F5F5F5F5F5F5F5F5F5F5F5F5F5F5F5F5F5F5F5F5F5F5F5F5F5F5F5
310
F5F5F5F5F5F5F5E2F5F5F5F5F5F5F5F5F5F5F5F5F5F5F5ECECECECECECECECECECECECECECECECECECECECECECECECF5F5F5F5F5F5F5F5F5F5F5F5F5F5F5E2E2F5F5F5F5F5F5F5F5F5F5F5F5F5F5F5F5E2F5F5F5F5E2E2F5F5F5F5E2F5F5F5F5F5F5F5F5F5F5F5F5F5F5F5F5E2F5F5F5F5F5F5F5F5F5F5F5F5F5F5F5F5F5F5
310
F5F5F5F5F5F5F5F5F5F5F5F5F5F5F5F5F5F5F5F5F5F5F5F5F5F5F5F5F5F5F5F5F5F5F5F5F5F5F5F5F5F5F5F5F5F5F5F5F5F5F5F5F5F5F5F5F5F5F5F5F5E2F5F5F5F5F5F5F5F5F5F5F5F5F5F5F5F5F5F5F5ECF5F5F5F5F5F5DCF5F5F5F5F5ECF5F5F5F5F5F5F5F5F5F5F5F5F5F5F5F5F5F5F5F5E2E2F5F5F5F5F5F5F5F5F5F5
310
F5F5F5F5F5F5E2F5F5F5F5E2E2F5F5F5F5E2F5F5F5F5F5F5F5F5F5F5F5F5F5F5F5F5E2F5F5F5F5F5F5F5F5F5F5F5F5F5F5F5F5F5F5F5F5F5F5F5F5F5F5F5F5F5F5F5F5F5F5F5F5F5F5F5F5F5F5F5F5F5F5F5F5F5F5F5F5F5F5F5F5F5F5F5F5F5F5F5F5F5F5F5F5F5F5F5F5F5F5F5F5F5F5F5F5E2F5F5F5F5F5F5F5F5F5F5F5
310
F5F5F5F5F5ECECECECECECF5ECECECECECF5ECECECECECF5F5F5F5F5F5F5F5F5F5F5F5F5F5F5F5F5E2F5E2F5F5F5F5F5F5F5F5F5F5F5F5F5F5F5F5E2F5F5F5F5E2E2F5F5F5F5E2F5F5F5F5F5F5F5F5F5F5F5F5F5F5F5F5E2F5F5F5F5F5F5F5F5F5F5F5F5F5F5F5F5F5F5F5F5F5F5F5F5F5F5F5F5F5F5F5F5F5F5F5F5F5F5F5
310
F5F5F5F5F5F5F5F5F5F5F5F5F5F5F5F5F5F5F5F5F5F5F5F5F5F5F5F5F5F5F5F5F5F5F5F5F5F5F5F5F5F5E2E2F5F5F5F5F5F5F5F5F5F5F5F5F5F5ECF5F5F5F5F5F5F5F5DCF5F5F5F5F5F5F5ECF5F5F5F5F5F5F5F5F5F5F5F5F5F5F5E2E2F5F5E2F5F5F5F5F5F5F5F5F5F5F5F5F5F5F5F5E2F5F5F5F5E2E2F5F5F5F5E2F5F5F5
310
F5F5F5F5F5F5F5F5F5F5F5F5F5E2F5F5F5F5F5F5F5F5F5F5F5F5F5F5F5F5F5F5F5F5F5F5F5F5F5F5F5F5F5F5F5F5F5F5F5F5F5F5F5F5F5F5F5F5F5F5F5F5F5F5F5F5F5F5F5F5F5F5F5F5F5F5F5F5F5F5F5F5F5F5F5F5F5F5F5F5F5F5F5F5F5F5F5E2F5F5F5F5F5F5F5F5F5F5F5F5F5ECF5F5F5F5F5F5F5F5DCF5F5F5F5F5F5
310
F5ECF5F5F5F5F5F5F5F5F5F5F5F5F5E2E2F5F5F5F5E2F5F5F5F5F5F5F5F5F5F5F5F5F5F5F5F5E2F5F5F5F5E2E2F5F5F5F5E2F5F5F5F5F5F5F5F5F5F5F5F5F5F5F5F5E2F5F5F5F5F5F5F5F5F5F5F5F5F5F5F5F5F5F5F5F5F5F5F5F5F5F5F5F5F5F5F5F5F5F5F5F5F5F5F5F5F5F5F5F5F5F5F5F5F5F5F5F5F5F5F5F5F5F5F5F5
310
F5F5F5F5F5F5F5F5F5F5F5F5F5F5F5F5F5F5F5F5F5F5F5F5E2E2F5F5F5F5F5F5F5F5F5F5F5ECF5F5F5F5F5F5F5F5DCF5F5F5F5F5F5F5ECF5F5F5F5F5F5F5F5F5F5F5F5E2F5F5F5F5F5F5E2F5F5F5F5F5F5F5F5F5F5F5F5F5F5F5F5E2F5F5F5F5E2E2F5F5F5F5E2F5F5F5F5F5F5F5F5F5F5F5F5F5F5F5F5E2F5F5F5F5F5F5F5
310
F5F5F5F5F5F5F5F5F5F5F5F5F5F5F5F5F5F5F5F5F5F5F5F5F5F5F5F5F5F5F5F5F5F5F5F5F5F5F5F5F5F5F5F5F5F5F5F5F5F5F5F5F5F5F5F5F5F5F5F5F5F5F5F5F5F5F5F5F5F5F5F5F5F5F5F5F5F5F5E2F5F5F5F5F5F5F5F5F5F5ECF5F5F5F5F5F5F5F5DCF5F5F5F5F5F5F5ECF5F5F5F5F5F5F5F5F5F5E2E2F5F5F5F5F5F5F5
310
E2F5F5F5F5F5F5F5F5F5F5F5F5F5F5F5F5E2F5F5F5F5E2E2F5F5F5F5E2F5F5F5F5F5F5F5F5F5F5F5F5F5F5F5F5E2F5F5F5F5F5F5F5F5F5F5F5F5F5F5F5F5F5F5F5F5F5F5F5F5F5F5F5F5F5F5F5F5F5F5F5F5F5F5F5F5F5F5F5F5F5F5F5F5F5F5F5F5F5F5F5F5F5F5F5F5F5F5F5F5F5F5F5F5F5F5F5F5F5F5F5F5F5F5F5F5F5
310
F5F5F5F5F5F5E2E2F5F5F5F5F5F5F5F5F5ECECECECECF5ECECECECECF5ECECECECECF5F5F5F5F5F5F5F5E2E2F5F5F5F5F5F5F5F5F5E2F5F5F5F5F5F5F5F5F5F5F5F5F5F5F5F5E2F5F5F5F5E2E2F5F5F5F5E2F5F5F5F5F5F5F5F5F5F5F5F5F5F5F5F5E2F5F5F5F5F5F5F5F5F5F5F5F5F5F5F5F5F5F5F5F5F5F5F5F5F5F5F5F5
310
F5F5F5F5F5F5F5F5F5F5F5F5F5F5F5F5F5F5F5F5F5F5F5F5F5F5F5F5F5F5F5F5F5F5F5F5F5F5F5F5F5F5F5F5F5F5F5F5F5F5F5F5F5F5F5F5F5F5F5F5F5E2E2F5F5F5F5F5F5F5ECF5F5F5F5F5F5F5DCF5F5F5F5F5F5F5ECF5F5F5F5F5F5F5E2F5F5F5F5F5F5F5F5F5F5F5E2F5F5F5F5F5F5F5F5F5F5F5F5F5F5F5F5E2F5F5F5
310
F5E2E2F5F5F5F5E2F5F5F5F5F5F5F5F5F5F5F5F5F5F5F5F5E2F5F5F5F5F5F5F5F5F5F5F5F5F5F5F5F5F5F5F5F5F5F5F5F5F5F5F5F5F5F5F5F5F5F5F5F5F5F5F5F5F5F5F5F5F5F5F5F5F5F5F5F5F5F5F5F5F5F5F5F5F5F5F5F5F5F5F5F5F5F5F5F5F5F5F5F5F5F5F5F5F5F5F5F5F5F5F5F5F5F5E2F5F5F5F5F5F5F5ECF5F5F5
310
F5F5F5F5DCF5F5F5F5F5F5F5ECF5F5F5F5F5F5F5E2F5F5F5F5F5F5F5F5F5F5F5E2F5F5F5F5F5F5F5F5F5F5F5F5F5F5F5F5E2F5F5F5F5E2E2F5F5F5F5E2F5F5F5F5F5F5F5F5F5F5F5F5F5F5F5F5E2F5F5F5F5F5F5F5F5F5F5F5F5F5F5F5F5F5F5F5F5F5F5F5F5F5F5F5F5F5F5F5F5F5F5F5F5F5F5F5F5F5F5F5F5F5F5F5F5F5
310
F5F5F5F5F5F5F5F5F5F5F5F5F5F5F5F5F5F5F5F5F5F5F5F5F5F5F5F5F5F5F5F5F5F5F5F5F5F5F5F5F5E2F5F5F5F5F5F5F5ECF5F5F5F5F5F5F5DCF5F5F5F5F5F5F5ECF5F5F5F5F5F5F5E2F5F5F5F5F5F5F5F5F5F5F5E2F5F5F5F5F5F5F5F5F5F5F5F5F5F5F5F5E2F5F5F5F5E2E2F5F5F5F5E2F5F5F5F5F5F5F5F5F5F5F5F5F5
310
F5F5F5E2F5F5F5F5F5F5F5F5F5F5F5F5F5F5F5F5F5F5F5F5F5F5F5F5F5F5F5F5F5F5F5F5F5F5F5F5F5F5F5F5F5F5F5F5F5F5F5F5F5F5F5F5F5F5F5F5F5F5F5F5F5F5F5F5F5F5F5F5F5F5F5F5F5F5F5F5F5F5F5F5F5F5F5F5F5F5F5F5F5F5E2F5F5F5F5F5F5F5ECF5F5F5F5E2E2E2E2E2E2E2F5F5F5F5ECF5F5F5F5F5F5F5E2
310
F5F5F5F5F5F5F5F5F5F5F5E2F5F5F5F5F5F5F5F5F5F5F5F5F5F5F5F5E2F5F5F5F5E2E2F5F5F5F5E2F5F5F5F5F5F5F5F5F5F5F5F5F5F5F5F5E2F5F5F5F5F5F5F5F5F5F5F5F5F5F5F5F5F5F5F5F5F5F5F5F5F5F5F5F5F5F5F5F5F5F5F5F5F5F5F5F5F5F5F5F5F5F5F5F5F5F5F5F5F5F5F5F5F5F5F5F5F5F5F5F5F5F5F5F5F5F5
310
F5F5F5F5F5F5F5F5F5F5F5F5F5F5F5F5F5F5F5F5E2F5F5F5F5F5F5F5ECECECECECECF5F5DCF5F5ECECECECECECF5F5F5F5F5F5F5E2F5F5F5F5F5F5F5F5F5F5F5E2F5F5F5F5F5F5F5F5F5F5F5F5F5F5F5F5E2F5F5F5F5E2E2F5F5F5F5E2F5F5F5F5F5F5F5F5F5F5F5F5F5F5F5F5E2F5F5F5F5F5F5F5F5F5F5F5F5F5F5F5F5F5
310
F5F5F5F5F5F5F5F5F5F5F5F5F5F5F5F5F5F5F5F5F5F5F5F5F5F5F5F5F5F5F5F5F5F5F5F5F5F5F5F5F5F5F5F5F5F5F5F5F5F5F5F5F5F5F5F5F5F5F5F5F5F5F5F5F5F5F5F5F5F5F5F5F5E2F5F5F5F5F5F5F5ECF5F5F5F5E2F5F5DCF5F5E2F5F5F5F5ECF5F5F5F5F5F5F5E2F5F5F5F5F5F5F5F5F5F5F5E2F5F5F5F5F5F5F5F5F5
310
F5F5F5F5F5F5F5E2F5F5F5F5E2E2F5F5F5F5E2F5F5F5F5F5F5F5F5F5F5F5F5F5F5F5F5E2F5F5F5F5F5F5F5F5F5F5F5F5F5F5F5F5F5F5F5F5F5F5F5F5F5F5F5F5F5F5F5F5F5F5F5F5F5F5F5F5F5F5F5F5F5F5F5F5F5F5F5F5F5F5F5F5F5F5F5F5F5F5F5F5F5F5F5F5F5F5F5F5F5F5F5F5F5F5F5F5F5F5F5F5F5F5F5F5F5F5E2
310
E2E2E2E2E2E2E2E2E2E2E2E2ECF5F5DCF5F5E2E2E2E2E2E2E2E2E2E2E2E2E2E2F5F5F5F5F5F5F5F5F5F5F5E2F5F5F5F5F5F5F5F5F5F5F5F5F5F5F5F5E2F5F5F5F5E2E2F5F5F5F5E2F5F5F5F5F5F5F5F5F5F5F5F5F5F5F5F5E2F5F5F5F5F5F5F5F5F5F5F5F5F5F5F5F5F5F5F5F5F5F5F5F5F5F5F5F5F5F5F5F5F5F5F5F5F5F5
310
F5F5F5F5F5F5F5F5F5F5F5F5F5F5F5F5F5F5F5F5F5F5F5F5F5F5F5F5F5F5F5F5F5F5F5F5F5F5F5F5F5F5F5F5F5F5F5F5F5F5F5F5F5F5F5F5F5F5F5F5F5F5F5F5F5F5F5F5DCF5F5F5F5F5F5F5F5F5F5F5F5F5F5F5F5F5F5F5F5F5F5F5F5F5F5F5E2F5F5F5F5F5F5F5F5F5F5F5F5F5F5F5F5E2F5F5F5F5E2E2F5F5F5F5F5F5F5
310
F5F5F5F5F5F5F5F5F5F5F5F5F5F5E2F5F5F5F5F5F5F5F5F5F5F5F5F5F5F5F5F5F5F5F5F5F5F5F5F5F5F5F5F5F5F5F5F5F5F5F5F5F5F5F5F5F5F5F5F5F5F5F5F5F5F5F5F5F5F5F5F5F5F5F5F5F5F5F5F5F5F5F5F5F5F5F5F5F5F5F5F5F5F5F5F5F5F5F5F5F5F5F5F5F5F5F5F5F5F5F5F5F5F5F5F5F5F5F5F5F5F5F5F5F5F5F5
310
F5F5F5F5F5F5F5F5F5F5F5F5F5F5F5F5F5F5F5F5F5F5E2F5F5F5F5F5F5F5F5F5F5F5F5F5F5F5F5F5F5F5F5F5E2E2F5F5F5F5F5F5F5F5F5F5F5F5F5F5F5F5F5F5F5F5F5E2F5F5F5F5F5F5F5F5F5F5F5F5F5F5F5F5F5F5F5F5F5F5F5F5F5F5F5F5F5F5F5F5F5F5F5F5F5F5F5F5F5F5F5F5F5F5F5F5F5F5F5F5F5F5F5F5F5F5F5
310
F5F5F5F5F5F5F5F5F5F5F5F5F5F5F5F5F5F5F5F5F5F5F5F5F5F5F5F5F5F5F5F5F5F5F5F5F5F5F5F5F5F5F5F5F5F5F5F5F5F5F5F5F5F5F5F5F5F5F5F5F5F5F5F5F5F5F5F5F5F5F5F5F5F5F5E2F5F5F5F5F5F5F5F5F5F5F5F5F5F5F5F5F5F5F5F5F5E2E2F5F5F5F5F5F5F5F5F5F5F5F5F5F5F5F5F5F5F5F5F5E2F5F5F5F5F5F5
310
F5F5F5F5F5F5F5F5F5F5F5F5F5F5F5F5F5F5F5F5F5F5F5F5F5F5F5F5F5F5F5F5F5F5F5F5F5F5F5F5F5F5F5F5F5F5F5F5F5F5F5F5F5F5F5F5F5F5F5F5F5F5F5F5F5F5F5F5F5F5F5F5F5F5F5F5F5F5F5F5F5F5F5F5F5F5F5F5F5F5F5F5F5F5F5F5F5F5F5F5F5F5F5F5F5F5F5F5F5F5F5F5F5F5F5F5F5F5F5F5F5F5F5F5F5F5F5
310
F5E2F5F5F5F5F5F5F5F5F5F5F5F5F5F5F5F5F5F5F5F5F5E2E2F5F5F5F5F5F5F5F5F5F5F5F5F5F5F5F5F5F5F5F5F5E2F5F5F5F5F5F5F5F5F5F5F5F5F5F5F5F5F5F5F5F5F5F5F5F5F5F5F5F5F5F5F5F5F5F5F5F5F5F5F5F5F5F5F5F5F5F5F5F5F5F5F5F5F5F5F5F5F5F5F5F5F5F5F5F5F5F5F5F5F5F5F5F5F5F5F5F5F5F5F5F5
310
F5F5F5F5F5F5F5F5F5F5F5F5F5F5F5F5F5F5F5F5F5F5F5F5F5F5F5F5F5F5F5F5F5F5F5F5F5F5F5F5F5F5F5F5F5F5F5F5F5F5F5F5F5F5E2F5F5F5F5F5F5F5F5F5F5F5F5F5F5F5F5F5F5F5F5F5E2E2F5F5F5F5F5F5F5F5F5F5F5F5F5F5F5F5F5F5F5F5F5E2F5F5F5F5F5F5F5F5F5F5F5F5F5F5F5F5F5F5F5F5F5F5F5F5F5F5F5
310
F5F5F5F5F5F5F5F5F5F5F5F5F5F5F5F5F5F5F5F5F5F5F5F5F5F5F5F5F5F5F5F5F5F5F5F5F5F5F5F5F5F5F5F5F5F5F5F5F5F5F5F5F5F5F5F5F5F5F5F5F5F5F5F5F5F5F5F5F5F5F5F5F5F5F5F5F5F5F5F5F5F5F5F5F5F5F5F5F5F5F5F5F5F5F5F5F5F5F5F5F5F5F5F5F5F5F5E2F5F5F5F5F5F5F5F5F5F5F5F5F5F5F5F5F5F5F5
310
F5F5E2E2F5F5F5F5F5F5F5F5F5F5F5F5F5F5F5F5F5F5F5F5F5E2F5F5F5F5F5F5F5F5F5F5F5F5F5F5F5F5F5F5F5F5F5F5F5F5F5F5F5F5F5F5F5F5F5F5F5F5F5F5F5F5F5F5F5F5F5F5F5F5F5F5F5F5F5F5F5F5F5F5F5F5F5F5F5F5F5F5F5F5F5F5F5F5F5F5F5F5F5F5F5F5F5F5F5F5F5F5F5F5F5F5F5F5F5F5F5F5F5F5F5F5F5
310
F5F5F5F5F5F5F5F5F5F5F5F5F5F5F5F5F5F5F5F5F5F5F5F5F5F5F5F5F5F5F5F5F5E2F5F5F5F5F5F5F5F5F5F5F5F5F5F5F5F5F5F5F5F5F5E2E2F5F5F5F5F5F5F5F5F5F5F5F5F5F5F5F5F5F5F5F5F5E2F5F5F5F5F5F5F5F5F5F5F5F5F5F5F5F5F5F5F5F5F5F5F5F5F5F5F5F5F5F5F5F5F5F5F5F5F5F5F5F5F5F5F5F5F5F5F5F5
310
F5F5F5F5F5F5F5F5F5F5F5F5F5F5F5F5F5F5F5F5F5F5F5F5F5F5F5F5F5F5F5F5F5F5F5F5F5F5F5F5F5F5F5F5F5F5F5F5F5F5F5F5F5F5F5F5F5F5F5F5F5F5F5F5F5F5F5F5F5F5F5F5F5F5F5F5F5F5F5F5F5F5F5F5F5F5E2F5F5F5F5F5F5F5F5F5F5F5F5F5F5F5F5F5F5F5F5F5E2E2F5F5F5F5F5F5F5F5F5F5F5F5F5F5F5F5F5
310
F5F5F5F5E2F5F5F5F5F5F5F5F5F5F5F5F5F5F5F5F5F5F5F5F5F5F5F5F5F5F5F5F5F5F5F5F5F5F5F5F5F5F5F5F5F5F5F5F5F5F5F5F5F5F5F5F5F5F5F5F5F5F5F5F5F5F5F5F5F5F5F5F5F5F5F5F5F5F5F5F5F5F5F5F5F5F5F5F5F5F5F5F5F5F5F5F5F5F5F5F5F5F5F5F5F5F5F5F5F5F5F5F5F5F5F5F5F5F5F5F5F5F5F5F5F5F5
310
F5F5F5F5F5F5F5F5F5F5F5F5E2F5F5F5F5F5F5F5F5F5F5F5F5F5F5F5F5F5F5F5F5F5E2E2F5F5F5F5F5F5F5F5F5F5F5F5F5F5F5F5F5F5F5F5F5E2F5F5F5F5F5F5F5F5F5F5F5F5F5F5F5F5F5F5F5F5F5F5F5F5F5F5F5F5F5F5F5F5F5F5F5F5F5F5F5F5F5F5F5F5F5F5F5F5F5F5F5F5F5F5F5F5F5F5F5F5F5F5F5F5F5F5F5F5F5
310
F5F5F5F5F5F5F5F5F5F5F5F5F5F5F5F5F5F5F5F5F5F5F5F5F5F5F5F5F5F5F5F5F5F5F5F5F5F5F5F5F5F5F5F5F5F5F5F5F5F5F5F5F5F5F5F5F5F5F5F5F5F5F5F5F5E2F5F5F5F5F5F5F5F5F5F5F5F5F5F5F5F5F5F5F5F5F5E2E2F5F5F5F5F5F5F5F5F5F5F5F5F5F5F5F5F5F5F5F5F5E2F5F5F5F5F5F5F5F5F5F5F5F5F5F5F5F5
310
F5F5F5F5F5F5F5F5F5F5F5F5F5F5F5F5F5F5F5F5F5F5F5F5F5F5F5F5F5F5F5F5F5F5F5F5F5F5F5F5F5F5F5F5F5F5F5F5F5F5F5F5F5F5F5F5F5F5F5F5F5F5F5F5F5F5F5F5F5F5F5F5F5F5F5F5F5F5F5F5F5F5F5F5F5F5F5F5F5F5F5F5F5F5F5F5F5F5F5F5F5F5F5F5F5F5F5F5F5F5F5F5F5F5F5F5F5F5E2F5F5F5F5F5F5F5F5
310
F5F5F5F5F5F5F5F5F5F5F5F5F5E2E2F5F5F5F5E2F5F5F5F5F5F5F5F5F5F5F5F5F5F5F5F5E2F5F5F5F5F5F5F5F5F5F5F5F5F5F5F5F5F5F5F5F5F5F5F5F5F5F5F5F5F5F5F5F5F5F5F5F5F5F5F5F5F5F5F5F5F5F5F5F5F5F5F5F5F5F5F5F5F5F5F5F5F5F5F5F5F5F5F5F5F5F5F5F5F5F5F5F5F5F5F5F5F5F5F5F5F5F5F5F5F5F5
310
F5F5F5F5F5F5F5F5F5F5F5F5F5F5F5F5F5F5F5F5F5F5F5F5F5F5F5F5F5F5F5F5F5F5F5F5F5F5F5F5F5F5F5F5E2F5F5F5F5F5F5F5F5F5F5F5F5F5F5F5F5E2F5F5F5F5E2E2F5F5F5F5E2F5F5F5F5F5F5F5F5F5F5F5F5F5F5F5F5E2F5F5F5F5F5F5F5F5F5F5F5F5F5F5F5F5F5F5F5F5F5F5F5F5F5F5F5F5F5F5F5F5F5F5F5F5F5
310
F5F5F5F5F5F5F5F5F5F5F5F5F5F5F5F5F5F5F5F5F5F5F5F5F5F5F5F5F5F5F5F5F5F5F5F5F5F5F5F5F5F5F5F5F5F5F5F5F5F5F5F5F5F5F5F5F5F5F5F5F5F5F5F5F5F5F5F5F5F5F5F5F5F5F5F5F5F5F5F5F5F5F5F5F5F5F5F5F5F5F5F5F5F5F5F5F5E2F5F5F5F5F5F5F5F5F5F5F5F5F5F5F5F5E2F5F5F5F5E2E2F5F5F5F5E2F5
310
F5F5F5F5F5F5F5F5F5F5F5F5F5F5F5E2F5F5F5F5F5F5F5F5F5F5F5F5F5F5F5F5F5F5F5F5F5F5F5F5F5F5F5F5F5F5F5F5F5F5F5F5F5F5F5F5F5F5F5F5F5F5F5F5F5F5F5F5F5F5F5F5F5F5F5F5F5F5F5F5F5F5F5F5F5F5F5F5F5F5F5F5F5F5F5F5F5F5F5F5F5F5F5F5F5F5F5F5F5F5F5F5F5F5F5F5F5F5F5F5F5F5F5F5F5F5F5
310
F5F5F5F5F5F5F5F5F5F5F5F5F5F5F5F5F5F5F5F5F5F5F5E2F5F5F5F5F5F5F5F5F5F5F5F5F5F5F5F5E2F5F5F5F5E2E2F5F5F5F5E2F5F5F5F5F5F5F5F5F5F5F5F5F5F5F5F5E2F5F5F5F5F5F5F5F5F5F5F5F5F5F5F5F5F5F5F5F5F5F5F5F5F5F5F5F5F5F5F5F5F5F5F5F5F5F5F5F5F5F5F5F5F5F5F5F5F5F5F5F5F5F5F5F5F5F5
310
F5F5F5F5F5F5F5F5F5F5F5F5F5F5F5F5F5F5F5F5F5F5F5F5F5F5F5F5F5F5F5F5F5F5F5F5F5F5F5F5F5F5F5F5F5F5F5F5F5F5F5F5F5F5F5F5F5F5F5F5F5F5F5F5F5F5F5F5F5F5F5F5F5F5F5F5E2F5F5F5F5F5F5F5F5F5F5F5F5F5F5F5F5E2F5F5F5F5E2E2F5F5F5F5E2F5F5F5F5F5F5F5F5F5F5F5F5F5F5F5F5E2F5F5F5F5F5
310
F5F5F5F5F5F5F5F5F5F5F5F5F5F5F5F5F5F5F5F5F5F5F5F5F5F5F5F5F5F5F5F5F5F5F5F5F5F5F5F5F5F5F5F5F5F5F5F5F5F5F5F5F5F5F5F5F5F5F5F5F5F5F5F5F5F5F5F5F5F5F5F5F5F5F5F5F5F5F5F5F5F5F5F5F5F5F5F5F5F5F5F5F5F5F5F5F5F5F5F5F5F5F5F5F5F5F5F5F5F5F5F5F5F5F5F5F5F5F5F5F5F5F5F5F5F5F5
310
F5F5E2F5F5F5F5F5F5F5F5F5F5F5F5F5F5F5F5E2F5F5F5F5E2E2F5F5F5F5E2F5F5F5F5F5F5F5F5F5F5F5F5F5F5F5F5E2F5F5F5F5F5F5F5F5F5F5F5F5F5F5F5F5F5F5F5F5F5F5F5F5F5F5F5F5F5F5F5F5F5F5F5F5F5F5F5F5F5F5F5F5F5F5F5F5F5F5F5F5F5F5F5F5F5F5F5F5F5F5F5F5F5F5F5F5F5F5F5F5F5F5F5F5F5F5F5
310
F5F5F5F5F5F5F5F5F5F5F5F5F5F5F5F5F5F5F5F5F5F5F5F5F5F5F5F5F5F5F5F5F5F5F5F5F5F5F5F5F5F5F5F5F5F5F5F5F5F5F5F5F5F5F5E2F5F5F5F5F5F5F5F5F5F5F5F5F5F5F5F5E2F5F5F5F5E2E2F5F5F5F5E2F5F5F5F5F5F5F5F5F5F5F5F5F5F5F5F5E2F5F5F5F5F5F5F5F5F5F5F5F5F5F5F5F5F5F5F5F5F5F5F5F5F5F5
310
F5F5F5F5F5F5F5F5F5F5F5F5F5F5F5F5F5F5F5F5F5F5F5F5F5F5F5F5F5F5F5F5F5F5F5F5F5F5F5F5F5F5F5F5F5F5F5F5F5F5F5F5F5F5F5F5F5F5F5F5F5F5F5F5F5F5F5F5F5F5F5F5F5F5F5F5F5F5F5F5F5F5F5F5F5F5F5F5F5F5F5F5F5F5F5F5F5F5F5F5F5F5F5F5F5F5F5F5E2F5F5F5F5F5F5F5F5F5F5F5F5F5F5F5F5E2F5
310
F5F5F5E2E2F5F5F5F5E2F5F5F5F5F5F5F5F5F5F5F5F5F5F5F5F5E2F5F5F5F5F5F5F5F5F5F5F5F5F5F5F5F5F5F5F5F5F5F5F5F5F5F5F5F5F5F5F5F5F5F5F5F5F5F5F5F5F5F5F5F5F5F5F5F5F5F5F5F5F5F5F5F5F5F5F5F5F5F5F5F5F5F5F5F5F5F5F5F5F5F5F5F5F5F5F5F5F5F5F5F5F5F5F5F5F5F5F5F5F5F5F5F5F5F5F5F5
310
F5F5F5F5F5F5F5F5F5F5F5F5F5F5F5F5F5F5F5F5F5F5F5F5F5F5F5F5F5F5F5F5F5F5E2F5F5F5F5F5F5F5F5F5F5F5F5F5F5F5F5E2F5F5F5F5E2E2F5F5F5F5E2F5F5F5F5F5F5F5F5F5F5F5F5F5F5F5F5E2F5F5F5F5F5F5F5F5F5F5F5F5F5F5F5F5F5F5F5F5F5F5F5F5F5F5F5F5F5F5F5F5F5F5F5F5F5F5F5F5F5F5F5F5F5F5F5
310
F5F5F5F5F5F5F5F5F5F5F5F5F5F5F5F5F5F5F5F5F5F5F5F5F5F5F5F5F5F5F5F5F5F5F5F5F5F5F5F5F5F5F5F5F5F5F5F5F5F5F5F5F5F5F5F5F5F5F5F5F5F5F5F5F5F5F5F5F5F5F5F5F5F5F5F5F5F5F5F5F5F5F5F5F5F5F5E2F5F5F5F5F5F5F5F5F5F5F5F5F5F5F5F5E2F5F5F5F5E2E2F5F5F5F5E2F5F5F5F5F5F5F5F5F5F5F5
310
F5F5F5F5F5E2F5F5F5F5F5F5F5F5F5F5F5F5F5F5F5F5F5F5F5F5F5F5F5F5F5F5F5F5F5F5F5F5F5F5F5F5F5F5F5F5F5F5F5F5F5F5F5F5F5F5F5F5F5F5F5F5F5F5F5F5F5F5F5F5F5F5F5F5F5F5F5F5F5F5F5F5F5F5F5F5F5F5F5F5F5F5F5F5F5F5F5F5F5F5F5F5F5F5F5F5F5F5F5F5F5F5F5F5F5F5F5F5F5F5F5F5F5F5F5F5F5
310
F5F5F5F5F5F5F5F5F5F5F5F5F5E2F5F5F5F5F5F5F5F5F5F5F5F5F5F5F5F5E2F5F5F5F5E2E2F5F5F5F5E2F5F5F5F5F5F5F5F5F5F5F5F5F5F5F5F5E2F5F5F5F5F5F5F5F5F5F5F5F5F5F5F5F5F5F5F5F5F5F5F5F5F5F5F5F5F5F5F5F5F5F5F5F5F5F5F5F5F5F5F5F5F5F5F5F5F5F5F5F5F5F5F5F5F5F5F5F5F5F5F5F5F5F5F5F5
310
F5F5F5F5F5F5F5F5F5F5F5F5F5F5F5F5F5F5F5F5F5F5F5F5F5F5F5F5F5F5F5F5F5F5F5F5F5F5F5F5F5F5F5F5F5F5F5F5F5F5F5F5F5F5F5F5F5F5F5F5F5F5F5F5F5F5E2F5F5F5F5F5F5F5F5F5F5F5F5F5F5F5F5E2F5F5F5F5E2E2F5F5F5F5E2F5F5F5F5F5F5F5F5F5F5F5F5F5F5F5F5E2F5F5F5F5F5F5F5F5F5F5F5F5F5F5F5
310
F5F5F5F5F5F5F5F5F5F5F5F5F5F5F5F5F5F5F5F5F5F5F5F5F5F5F5F5F5F5F5F5F5F5F5F5F5F5F5F5F5F5F5F5F5F5F5F5F5F5F5F5F5F5F5F5F5F5F5F5F5F5F5F5F5F5F5F5F5F5F5F5F5F5F5F5F5F5F5F5F5F5F5F5F5F5F5F5F5F5F5F5F5F5F5F5F5F5F5F5F5F5F5F5F5F5F5F5F5F5F5F5F5F5F5F5F5F5F5E2F5F5F5F5F5F5F5
310
F5F5F5F5F5F5F5F5F5E2F5F5F5F5E2E2F5F5F5F5E2F5F5F5F5F5F5F5F5F5F5F5F5F5F5F5F5E2F5F5F5F5F5F5F5F5F5F5F5F5F5F5F5F5F5F5F5F5F5F5F5F5F5F5F5F5F5F5F5F5F5F5F5F5F5F5F5F5F5F5F5F5F5F5F5F5F5F5F5F5F5F5F5F5F5F5F5F5F5F5F5F5F5F5F5F5F5F5F5F5F5F5F5F5F5F5F5F5F5F5F5F5F5F5F5F5F5
310
F5F5F5F5F5F5F5F5F5F5F5F5F5F5F5F5F5F5F5F5F5F5F5F5F5F5F5F5F5F5F5F5F5F5F5F5F5F5F5F5F5F5F5F5F5E2F5F5F5F5F5F5F5F5F5F5F5F5F5F5F5F5E2F5F5F5F5E2E2F5F5F5F5E2F5F5F5F5F5F5F5F5F5F5F5F5F5F5F5F5E2F5F5F5F5F5F5F5F5F5F5F5F5F5F5F5F5F5F5F5F5F5F5F5F5F5F5F5F5F5F5F5F5F5F5F5F5
310
F5F5F5F5F5F5F5F5F5F5F5F5F5F5F5F5F5F5F5F5F5F5F5F5F5F5F5F5F5F5F5F5F5F5F5F5F5F5F5F5F5F5F5F5F5F5F5F5F5F5F5F5F5F5F5F5F5F5F5F5F5F5F5F5F5F5F5F5F5F5F5F5F5F5F5F5F5F5F5F5F5F5F5F5F5F5F5F5F5F5F5F5F5F5F5F5F5F5E2F5F5F5F5F5F5F5F5F5F5F5F5F5F5F5F5E2F5F5F5F5E2E2F5F5F5F5E2
310
F5F5F5F5F5F5F5F5F5F5F5F5F5F5F5F5E2F5F5F5F5F5F5F5F5F5F5F5F5F5F5F5F5F5F5F5F5F5F5F5F5F5F5F5F5F5F5F5F5F5F5F5F5F5F5F5F5F5F5F5F5F5F5F5F5F5F5F5F5F5F5F5F5F5F5F5F5F5F5F5F5F5F5F5F5F5F5F5F5F5F5F5F5F5F5F5F5F5F5F5F5F5F5F5F5F5F5F5F5F5F5F5F5F5F5F5F5F5F5F5F5F5F5F5F5F5F5
310
F5F5F5F5F5F5F5F5F5F5F5F5F5F5F5F5F5F5F5F5F5F5F5F5E2F5F5F5F5F5F5F5F5F5F5F5F5F5F5F5F5E2F5F5F5F5E2E2F5F5F5F5E2F5F5F5F5F5F5F5F5F5F5F5F5F5F5F5F5E2F5F5F5F5F5F5F5F5F5F5F5F5F5F5F5F5F5F5F5F5F5F5F5F5F5F5F5F5F5F5F5F5F5F5F5F5F5F5F5F5F5F5F5F5F5F5F5F5F5F5F5F5F5F5F5F5F5
310
F5F5F5F5F5F5F5F5F5F5F5F5F5F5F5F5F5F5F5F5F5F5F5F5F5F5F5F5F5F5F5F5F5F5F5F5F5F5F5F5F5F5F5F5F5F5F5F5F5F5F5F5F5F5F5F5F5F5F5F5F5F5F5F5F5F5F5F5F5F5F5F5F5F5F5F5F5E2F5F5F5F5F5F5F5F5F5F5F5F5F5F5F5F5E2F5F5F5F5E2E2F5F5F5F5F5F5F5F5F5F5F5F5F5F5F5F5F5F5F5F5F5E2F5F5F5F5
310
F5F5F5F5F5F5F5F5F5F5F5F5F5F5F5F5F5F5F5F5F5F5F5F5F5F5F5F5F5F5F5F5F5F5F5F5F5F5F5F5F5F5F5F5F5F5F5F5F5F5F5F5F5F5F5F5F5F5F5F5F5F5F5F5F5F5F5F5F5F5F5F5F5F5F5F5F5F5F5F5F5F5F5F5F5F5F5F5F5F5F5F5F5F5F5F5F5F5F5F5F5F5F5F5F5F5F5F5F5F5F5F5F5F5F5F5F5F5F5F5F5F5F5F5F5F5F5
310
F5F5F5E2F5F5F5F5F5F5F5F5F5F5F5F5F5F5F5F5F5F5F5F5F5E2E2F5F5F5F5F5F5F5F5F5F5F5F5F5F5F5F5F5F5F5F5F5E2F5F5F5F5F5F5F5F5F5F5F5F5F5F5F5F5F5F5F5F5F5F5F5F5F5F5F5F5F5F5F5F5F5F5F5F5F5F5F5F5F5F5F5F5F5F5F5F5F5F5F5F5F5F5F5F5F5F5F5F5F5F5F5F5F5F5F5F5F5F5F5F5F5F5F5F5F5F5
310
F5F5F5F5F5F5F5F5F5F5F5F5F5F5F5F5F5F5F5F5F5F5F5F5F5F5F5F5F5F5F5F5F5F5F5F5F5F5F5F5F5F5F5F5F5F5F5F5F5F5F5F5F5F5F5F5E2F5F5F5F5F5F5F5F5F5F5F5F5F5F5F5F5F5F5F5F5F5E2E2F5F5F5F5F5F5F5F5F5F5F5F5F5F5F5F5F5F5F5F5F5E2F5F5F5F5F5F5F5F5F5F5F5F5F5F5F5F5F5F5F5F5F5F5F5F5F5
310
F5F5F5F5F5F5F5F5F5F5F5F5F5F5F5F5F5F5F5F5F5F5F5F5F5F5F5F5F5F5F5F5F5F5F5F5F5F5F5F5F5F5F5F5F5F5F5F5F5F5F5F5F5F5F5F5F5F5F5F5F5F5F5F5F5F5F5F5F5F5F5F5F5F5F5F5F5F5F5F5F5F5F5F5F5F5F5F5F5F5F5F5F5F5F5F5F5F5F5F5F5F5F5F5F5F5F5F5F5E2F5F5F5F5F5F5F5F5F5F5F5F5F5F5F5F5F5
310
F5F5F5F5E2E2F5F5F5F5F5F5F5F5F5F5F5F5F5F5F5F5F5F5F5F5F5E2F5F5F5F5F5F5F5F5F5F5F5F5F5F5F5F5F5F5F5F5F5F5F5F5F5F5F5F5F5F5F5F5F5F5F5F5F5F5F5F5F5F5F5F5F5F5F5F5F5F5F5F5F5F5F5F5F5F5F5F5F5F5F5F5F5F5F5F5F5F5F5F5F5F5F5F5F5F5F5F5F5F5F5F5F5F5F5F5F5F5F5F5F5F5F5F5F5F5F5
310
F5F5F5F5F5F5F5F5F5F5F5F5F5F5F5F5F5F5F5F5F5F5F5F5F5F5F5F5F5F5F5F5F5F5F5E2F5F5F5F5F5F5F5F5F5F5F5F5F5F5F5F5F5F5F5F5F5E2E2F5F5F5F5F5F5F5F5F5F5F5F5F5F5F5F5F5F5F5F5F5E2E2E2E2E2E2E2E2E2E2E2E2E2E2E2E2E2E2E2E2E2E2E2E2E2E2E2E2E2E2E2E2E2E2E2E2E2E2E2E2E2E2E2E2E2E2E2
310
E2E2E2E2E2E2E2E2E2E2E2E2E2E2E2E2E2E2E2E2E2E2E2E2E2E2E2E2E2E2E2E2E2E2E2E2E2E2E2E2E2E2E2E2E2E2E2E2E2E2E2E2E2E2E2E2E2E2E2E2E2E2E2E2E2E2E2E2E2E2E2E2E2E2E2E2E2E2E2E2E2E2E2E2E2E2E2E2E2F5F5F5F5F5F5F5F5F5F5F5F5F5F5F5F5F5F5F5F5F5E2E2F5F5F5F5F5F5F5F5F5F5F5F5F5F5F5
310
F5F5F5F5F5F5F5F5F5F5F5F5F5F5F5F5F5F5F5F5F5F5F5F5F5F5F5F5F5F5F5F5F5F5F5F5F5F5F5F5F5F5F5F5F5F5F5F5F5F5F5F5F5F5F5F5F5F5F5F5F5F5F5F5F5F5F5F5F5F5F5F5F5F5F5F5F5F5F5F5F5F5F5F5F5F5F5F5F5F5F5F5F5F5F5F5F5F5F5F5F5F5F5F5F5F5F5F5F5F5F5F5F5F5F5F5F5F5F5F5F5F5F5F5F5F5F5
310
F5F5F5F5F5F5F5F5F5F5F5F5F5F5F5F5F5F5F5F5F5F5F5F5F5F5F5F5F5F5F5F5F5F5F5F5E2E2F5F5F5F5F5F5F5F5F5F5F5F5F5F5F5F5F5F5F5F5F5F5F5F5F5F5F5F5F5F5F5F5F5F5F5F5F5F5F5F5F5F5F5F5F5F5F5F5F5F5F5F5F5F5F5F5F5F5F5F5F5F5F5F5F5F5F5F5F5F5F5F5F5F5F5F5F5F5F5F5F5F5F5F5F5F5F5F5F5
310
F5F5F5F5F5F5F5F5F5F5F5F5F5F5F5F5F5F5F5F5F5F5F5F5F5F5F5F5F5F5F5F5F5F5F5F5F5F5F5F5F5F5F5F5F5F5F5F5F5F5F5F5F5F5F5F5F5F5F5F5F5F5F5F5F5F5F5F5F5F5F5F5F5F5F5F5F5F5F5F5F5F5F5F5F5F5F5F5F5E2E2F5F5F5F5F5F5F5F5F5F5F5F5F5F5F5F5F5F5F5F5F5F5F5F5F5F5F5F5F5F5F5F5F5F5F5F5
310
F5F5F5F5F5F5F5F5F5F5F5F5F5F5F5F5F5F5F5F5F5F5F5F5F5F5F5F5F5F5F5F5F5F5F5F5F5F5F5F5F5F5F5F5F5F5F5F5F5F5F5F5F5F5F5F5F5F5F5F5F5F5F5F5F5F5F5F5F5F5F5F5F5F5F5F5F5F5F5F5F5F5F5F5F5F5F5F5F5F5F5F5F5F5F5F5F5F5F5F5F5F5F5F5F5F5F5F5F5F5F5F5F5F5F5F5F5F5F5F5F5F5F5F5F5F5F5
310
F5F5F5F5F5F5F5F5F5F5F5F5F5F5F5E2E2F5F5F5F5F5F5F5F5F5F5F5F5F5F5F5F5F5F5F5F5F5F5F5F5F5F5F5F5F5F5F5F5F5F5F5F5F5F5F5F5F5F5F5F5F5F5F5F5F5F5F5F5F5F5F5F5F5F5F5F5F5F5F5F5F5F5F5F5F5F5F5F5F5F5F5F5F5F5F5F5F5F5F5F5F5F5F5F5F5F5F5F5F5F5F5F5F5F5F5F5F5F5F5F5F5F5F5F5F5F5
310
F5F5F5F5F5F5F5F5F5F5F5F5F5F5F5F5F5F5F5F5F5F5F5F5F5F5F5F5F5F5F5F5F5F5F5F5F5F5F5F5F5F5F5F5F5F5F5F5F5F5F5F5F5F5F5F5F5F5F5F5F5F5F5F5F5F5F5F5E2E2F5F5F5F5E2F5F5F5F5F5F5F5F5F5F5F5F5F5F5F5F5F5F5F5F5F5F5F5F5F5F5F5F5F5F5F5F5F5F5F5F5F5F5F5F5F5F5F5F5F5F5F5F5F5F5F5F5
310
F5F5F5F5F5F5F5F5F5F5F5F5F5F5F5F5F5F5F5F5F5F5F5F5F5F5F5F5F5F5F5F5F5F5F5F5F5F5F5F5F5F5F5F5F5F5F5F5F5F5F5F5F5F5F5F5F5F5F5F5F5F5F5F5F5F5F5F5F5F5F5F5F5F5F5F5F5F5F5F5F5F5F5F5F5F5F5F5F5F5F5F5F5F5F5F5F5F5F5F5F5F5F5F5F5F5F5F5F5F5F5F5F5F5F5F5E2F5F5F5F5E2E2F5F5F5F5
310
E2F5F5F5F5F5F5F5F5F5F5F5F5F5F5F5F5F5F5F5F5F5F5F5F5F5F5F5F5F5F5F5F5F5F5F5F5F5F5F5F5F5F5F5F5F5F5F5F5F5F5F5F5F5F5F5F5F5F5F5F5F5F5F5F5F5F5F5F5F5F5F5F5F5F5F5F5F5F5F5F5F5F5F5F5F5F5F5F5F5F5F5F5F5F5F5F5F5F5F5F5F5F5F5F5F5F5F5F5F5F5F5F5F5F5F5F5F5F5F5F5F5F5F5F5F5F5
310
F5F5F5F5F5F5F5F5F5F5F5F5F5F5F5F5F5F5F5F5F5F5F5F5F5F5F5F5F5F5F5F5F5F5F5F5F5F5F5F5F5F5E2F5F5F5F5E2E2F5F5F5F5E2F5F5F5F5F5F5F5F5F5F5F5F5F5F5F5F5F5F5F5F5F5F5F5F5F5F5F5F5F5F5F5F5F5F5F5F5F5F5F5F5F5F5F5F5F5F5F5F5F5F5F5F5F5F5F5F5F5F5F5F5F5F5F5F5F5F5F5F5F5F5F5F5F5
310
F5F5F5F5F5F5F5F5F5F5F5F5F5F5F5F5F5F5F5F5F5F5F5F5F5F5F5F5F5F5F5F5F5F5F5F5F5F5F5F5F5F5F5F5F5F5F5F5F5F5F5F5F5F5F5F5F5F5F5F5F5F5F5F5F5F5F5F5F5F5F5F5F5F5F5F5F5F5F5F5F5F5F5F5F5F5F5F5F5F5F5F5F5F5F5E2F5F5F5F5E2E2F5F5F5F5E2F5F5F5F5F5F5F5F5F5F5F5F5F5F5F5F5F5F5F5F5
310
F5F5F5F5F5F5F5F5F5F5F5F5F5F5F5F5F5F5F5F5F5F5F5F5F5F5F5F5F5F5F5F5F5F5F5F5F5F5F5F5F5F5F5F5F5F5F5F5F5F5F5F5F5F5F5F5F5F5F5F5F5F5F5F5F5F5F5F5F5F5F5F5F5F5F5F5F5F5F5F5F5F5F5F5F5F5F5F5F5F5F5F5F5F5F5F5F5F5F5F5F5F5F5F5F5F5F5F5F5F5F5F5F5F5F5F5F5F5F5F5F5F5F5F5F5F5F5
310
F5F5F5F5F5F5F5F5F5F5F5F5F5F5F5F5F5F5F5F5F5E2F5F5F5F5E2E2F5F5F5F5E2F5F5F5F5F5F5F5F5F5F5F5F5F5F5F5F5F5F5F5F5F5F5F5F5F5F5F5F5F5F5F5F5F5F5F5F5F5F5F5F5F5F5F5F5F5F5F5F5F5F5F5F5F5F5F5F5F5F5F5F5F5F5F5F5F5F5F5F5F5F5F5F5F5F5F5F5F5F5F5F5F5F5F5F5F5F5F5F5F5F5F5F5F5F5
310
F5F5F5F5F5F5F5F5F5F5F5F5F5F5F5F5F5F5F5F5F5F5F5F5F5F5F5F5F5F5F5F5F5F5F5F5F5F5F5F5F5F5F5F5F5F5F5F5F5F5F5F5F5F5F5F5F5F5F5F5F5F5F5F5F5F5F5F5F5F5F5F5F5F5E2F5F5F5F5E2E2F5F5F5F5E2F5F5F5F5F5F5F5F5F5F5F5F5F5F5F5F5F5F5F5F5F5F5F5F5F5F5F5F5F5F5F5F5F5F5F5F5F5F5F5F5F5
310
F5F5F5F5F5F5F5F5F5F5F5F5F5F5F5F5F5F5F5F5F5F5F5F5F5F5F5F5F5F5F5F5F5F5F5F5F5F5F5F5F5F5F5F5F5F5F5F5F5F5F5F5F5F5F5F5F5F5F5F5F5F5F5F5F5F5F5F5F5F5F5F5F5F5F5F5F5F5F5F5F5F5F5F5F5F5F5F5F5F5F5F5F5F5F5F5F5F5F5F5F5F5F5F5F5F5F5F5F5F5F5F5F5F5F5F5F5F5F5F5F5F5F5F5F5F5F5
310
E2F5F5F5F5E2E2F5F5F5F5E2F5F5F5F5F5F5F5F5F5F5F5F5F5F5F5F5F5F5F5F5F5F5F5F5F5F5F5F5F5F5F5F5F5F5F5F5F5F5F5F5F5F5F5F5F5F5F5F5F5F5F5F5F5F5F5F5F5F5F5F5F5F5F5F5F5F5F5F5F5F5F5F5F5F5F5F5F5F5F5F5F5F5F5F5F5F5F5F5F5F5F5F5F5F5F5F5F5F5F5F5F5F5F5F5F5F5F5F5F5F5F5F5F5F5F5
310
F5F5F5F5F5F5F5F5F5F5F5F5F5F5F5F5F5F5F5F5F5F5F5F5F5F5F5F5F5F5F5F5F5F5F5F5F5F5F5F5F5F5F5F5F5F5F5F5F5F5F5F5F5E2F5F5F5F5E2E2F5F5F5F5E2F5F5F5F5F5F5F5F5F5F5F5F5F5F5F5F5F5F5F5F5F5F5F5F5F5F5F5F5F5F5F5F5F5F5F5F5F5F5F5F5F5F5F5F5F5F5F5F5F5F5F5F5F5F5F5F5F5F5F5F5F5F5
310
F5F5F5F5F5F5F5F5F5F5F5F5F5F5F5F5F5F5F5F5F5F5F5F5F5F5F5F5F5F5F5F5F5F5F5F5F5F5F5F5F5F5F5F5F5F5F5F5F5F5F5F5F5F5F5F5F5F5F5F5F5F5F5F5F5F5F5F5F5F5F5F5F5F5F5F5F5F5F5F5F5F5F5F5F5F5F5F5F5F5F5F5F5F5F5F5F5F5F5F5F5F5F5F5F5F5E2F5F5F5F5E2E2F5F5F5F5E2E2E2E2E2E2E2E2F5F5
310
F5F5F5F5F5F5F5E2E2E2E2E2E2E2E2E2E2E2E2E2E2E2F5F5F5F5F5F5F5F5F5E2E2E2E2E2E2E2E2E2E2E2E2E2E2E2E2F5F5F5F5F5F5F5F5E2E2E2E2E2E2E2E2E2E2E2E2E2E2E2E2F5F5F5F5F5F5F5F5E2E2E2E2E2E2E2E2E2E2E2E2E2E2E2E2F5F5F5F5F5F5F5F5E2E2E2E2E2E2E2E2E2E2E2E2E2E2E2E2F5F5F5F5F5F5F5F5
310
F5E2E2E2E2E2E2E2E2E2E2E2E2E2E2E2F5F5F5F5F5F5F5F5F5E2E2E2E2E2E2E2E2F5F5F5F5E2E2F5F5F5F5F5F5F5F5F5F5F5F5F5F5F5F5F5F5F5F5F5F5F5F5F5F5F5F5F5F5F5F5F5F5F5F5F5F5F5F5F5F5F5F5F5F5F5F5F5F5F5F5F5F5F5F5F5F5F5F5F5F5F5F5F5F5F5F5F5F5F5F5F5F5F5F5F5F5F5F5F5F5F5F5F5F5F5F5
310
F5F5F5F5F5F5F5F5F5F5F5F5F5F5F5F5F5F5F5F5F5F5F5F5F5F5F5F5F5F5F5F5F5F5F5F5F5F5F5F5F5F5F5F5F5F5F5F5F5F5F5F5F5F5F5F5F5F5F5F5F5F5F5F5F5F5F5F5F5F5F5F5F5F5F5F5F5F5F5F5F5F5F5F5F5F5F5F5F5F5E2E2F5F5F5F5F5F5F5F5F5F5F5F5F5F5F5F5F5F5F5F5F5F5F5F5F5F5F5F5F5F5F5F5F5F5F5
310
F5F5F5F5F5F5F5F5F5F5F5F5F5F5F5F5F5F5F5F5F5F5F5F5F5F5F5F5F5F5F5F5F5F5F5F5F5F5F5F5F5F5F5F5F5F5F5F5F5F5F5F5F5F5F5F5F5F5F5F5F5F5F5F5F5F5F5F5F5F5F5F5F5F5F5F5F5F5F5F5F5F5F5F5F5F5F5F5F5F5F5F5F5F5F5F5F5F5F5F5F5F5F5F5F5F5F5F5F5F5F5F5F5F5F5F5F5F5F5F5F5F5F5F5F5F5F5
310
F5F5F5F5F5F5F5F5F5F5F5F5F5F5F5F5E2E2F5F5F5F5F5F5F5F5F5F5F5F5F5F5F5F5F5F5F5F5F5F5F5F5F5F5F5F5F5F5F5F5F5F5F5F5F5F5F5F5F5F5F5F5F5F5F5F5F5F5F5F5F5F5F5F5F5F5F5F5F5F5F5F5F5F5F5F5F5F5F5F5F5F5F5F5F5F5F5F5F5F5F5F5F5F5F5F5F5F5F5F5F5F5F5F5F5F5F5F5F5F5F5F5F5F5F5F5F5
310
F5F5F5F5F5F5F5F5F5F5F5F5F5F5F5F5F5F5F5F5F5F5F5F5F5F5F5F5F5F5F5F5F5F5F5F5F5F5F5F5F5F5F5F5F5F5F5F5F5F5F5F5F5F5F5F5F5F5F5F5F5F5F5F5F5F5F5F5F5E2E2E2E2E2E2E2E2E2E2E2E2E2E2E2E2E2E2E2E2E2E2E2E2E2E2E2E2E2E2E2E2E2E2E2E2E2E2E2E2E2E2E2E2E2E2E2E2E2E2E2E2E2E2E2E2E2E2
310
E2E2E2E2E2E2E2E2E2E2E2E2E2E2E2E2E2E2E2E2E2E2E2E2E2E2E2E2E2E2E2E2E2E2E2E2E2E2E2E2E2E2E2E2E2E2E2E2E2E2E2E2E2E2E2E2E2E2E2E2E2E2E2E2E2E2E2E2E2E2E2E2E2E2E2E2E2E2E2E2E2E2E2E2E2E2E2E2E2E2E2E2E2E2E2E2E2E2E2E2E2E2E2E2E2E2E2E2E2E2E2E2E2E2E2E2E2E2E2E2E2E2E2EFEFEFEF
310
EFEFEFEFEFEFEFEFEFEFEFEFEFEFEFEFEFEFEFEFEFEFEFEFEFEFEFEFEFEFEFEFEFEFEFEFEFEFEFEFEFEFEFEFEFEFEFEFEFEFEFEFEFEFEFEFEFEFEFEFEFEFEFEFEFEFEFEFEFEFEFEFEFEFEFEFEFEFEFEFEFEFEFEFEFEFEFEFEFEFEFEFEFEFEFEFEFEFEFEFEFEFEFEFEFEFEFEFEFEFEFEFEFEFEFEFEFEFEFEFEFEFEFEFEFEFEF
310
EFEFEFEFEFEFEFEFEFEFEFEFEFEFEFEFEFEFEFEFEFEFEFEFEFEFEFEFEFEFEFEFEFEFEFEFEFEFEFEFEFEFEFEFEFEFEFEFEF
  0
XRECORD
  5
5F990
102
{ACAD_REACTORS
330
B5
102
}
330
B5
100
AcDbXrecord
280
     1
102
SHADEPLOT
 70
     0
102
SHADEPLOTRESLEVEL
 70
     2
102
SHADEPLOTCUSTOMDPI
 70
   300
  0
XRECORD
  5
B6
102
{ACAD_REACTORS
330
B5
102
}
330
B5
100
AcDbXrecord
280
     1
310
28000000B40000008B0000000100080000000000BC610000000000000000000000010000000000000000000000000000FFFFFF000000000000000000000000000000000000000000000000000000000000000000330000006600000099000000CC000000FF00000000330000333300006633000099330000CC330000FF3300
310
0000660000336600006666000099660000CC660000FF66000000990000339900006699000099990000CC990000FF99000000CC000033CC000066CC000099CC0000CCCC0000FFCC000000FF000033FF000066FF000099FF0000CCFF0000FFFF000000003300330033006600330099003300CC003300FF003300003333003333
310
33006633330099333300CC333300FF33330000663300336633006666330099663300CC663300FF66330000993300339933006699330099993300CC993300FF99330000CC330033CC330066CC330099CC3300CCCC3300FFCC330000FF330033FF330066FF330099FF3300CCFF3300FFFF330000006600330066006600660099
310
006600CC006600FF00660000336600333366006633660099336600CC336600FF33660000666600336666006666660099666600CC666600FF66660000996600339966006699660099996600CC996600FF99660000CC660033CC660066CC660099CC6600CCCC6600FFCC660000FF660033FF660066FF660099FF6600CCFF6600
310
FFFF660000009900330099006600990099009900CC009900FF00990000339900333399006633990099339900CC339900FF33990000669900336699006666990099669900CC669900FF66990000999900339999006699990099999900CC999900FF99990000CC990033CC990066CC990099CC9900CCCC9900FFCC990000FF99
310
0033FF990066FF990099FF9900CCFF9900FFFF99000000CC003300CC006600CC009900CC00CC00CC00FF00CC000033CC003333CC006633CC009933CC00CC33CC00FF33CC000066CC003366CC006666CC009966CC00CC66CC00FF66CC000099CC003399CC006699CC009999CC00CC99CC00FF99CC0000CCCC0033CCCC0066CC
310
CC0099CCCC00CCCCCC00FFCCCC0000FFCC0033FFCC0066FFCC0099FFCC00CCFFCC00FFFFCC000000FF003300FF006600FF009900FF00CC00FF00FF00FF000033FF003333FF006633FF009933FF00CC33FF00FF33FF000066FF003366FF006666FF009966FF00CC66FF00FF66FF000099FF003399FF006699FF009999FF00CC
310
99FF00FF99FF0000CCFF0033CCFF0066CCFF0099CCFF00CCCCFF00FFCCFF0000FFFF0033FFFF0066FFFF0099FFFF00CCFFFF00FFFFFF00000000000D0D0D001A1A1A00282828003535350043434300505050005D5D5D006B6B6B00787878008686860093939300A1A1A100AEAEAE00BBBBBB00C9C9C900D6D6D600E4E4E400
310
F1F1F100FFFFFF0000000000000000000000000000000000000000000000000000000000000000000000000000000000F5F5F5F5F5F5F5F5F5F5F5F5F5F5F5F5F5F5F5F5F5F5F5F5F5F5F5F5F5F5F5F5F5F5F5F5F5F5F5F5F5F5F5F5F5F5F5F5F5F5F5F5F5F5F5F5F5F5F5F5F5F5F5F5F5F5F5F5F5F5F5F5F5F5F5F5F5F5F5
310
F5F5F5F5F5F5F5F5F5F5F5F5F5F5F5F5F5F5F5F5F5F5F5F5F5F5F5F5F5F5F5F5F5F5F5F5F5F5F5F5F5F5F5F5F5F5F5F5F5F5F5F5F5F5F5F5F5F5F5F5F5F5F5F5F5F5F5F5F5F5F5F5F5F5F5F5F5F5F5F5F5F5F5F5F5F5F5F5F5F5F5F5F5F5F5F5F5F5F5F5F5F5E2E2E2E2E2E2E2E2E2E2E2E2E2E2E2E2E2E2E2E2E2E2E2E2E2
310
E2E2E2E2E2E2E2E2E2E2E2E2E2E2E2E2E2E2E2E2E2E2E2E2E2E2E2E2E2E2E2E2E2E2E2E2E2E2E2E2E2E2E2E2E2E2E2E2E2E2E2E2E2E2E2E2E2E2E2E2E2E2E2E2E2E2E2E2E2E2E2E2E2E2E2E2E2E2E2E2E2E2E2E2E2E2E2E2E2E2E2E2E2E2E2E2E2E2E2E2E2E2E2E2E2E2E2E2E2E2E2E2E2E2E2E2E2E2E2E2E2E2E2E2E2E2E2
310
E2E2E2E2E2E2E2E2E2E2E2E2E2E2E2E2E2E2E2E2E2E2E2E2E2E2F5F5E2E2E2E2E2E2E2E2E2E2E2E2E2E2E2E2E2E2E2E2E2E2E2E2E2E2E2E2E2E2E2E2E2E2E2E2E2E2E2E2E2E2E2E2E2E2E2E2E2E2E2E2E2E2E2E2E2E2E2E2E2E2E2E2E2E2E2E2E2E2E2E2E2E2E2E2E2E2E2E2E2E2E2E2E2E2E2E2E2E2E2E2E2E2E2E2E2E2E2
310
E2E2E2E2E2E2E2E2E2E2E2E2E2E2E2E2E2E2E2E2E2E2E2E2E2E2E2E2E2E2E2E2E2E2E2E2E2E2E2E2E2E2E2E2E2E2E2E2E2E2E2E2E2E2E2E2E2E2E2E2E2E2E2E2E2E2E2E2E2E2E2E2E2E2E2E2E2E2E2F5F5E2E2E2E2E2E2E2E2E2E2E2E2E2E2E2E2E2E2E2E2E2E2E2E2E2E2E2E2E2E2E2E2E2E2E2E2E2E2E2E2E2E2E2E2E2E2
310
E2E2E2E2E2E2E2E2E2E2E2E2E2E2E2E2E2E2E2E2E2E2E2E2E2E2E2E2E2E2E2E2E2E2E2E2E2E2E2E2E2E2E2E2E2E2E2E2E2E2E2E2E2E2E2E2E2E2E2E2E2E2E2E2E2E2E2E2E2E2E2E2E2E2E2E2E2E2E2E2E2E2E2E2E2E2E2E2E2E2E2E2E2E2E2E2E2E2E2E2E2E2E2E2E2E2E2E2E2E2E2E2E2E2E2E2E2E2E2E2E2E2E2E2E2E2E2
310
E2E2E2E2E2F5F5E2E2E2E2E2E2E2E2E2E2E2E2E2E2E2E2E2E2E2E2E2E2E2E2E2E2E2E2E2E2E2E2E2E2E2E2E2E2E2E2E2E2E2E2E2E2E2E2E2E2E2E2E2E2E2E2E2E2E2E2E2E2E2E2E2E2E2E2E2E2E2E2E2E2E2E2E2E2E2E2E2E2E2E2E2E2E2E2E2E2E2E2E2E2E2E2E2E2E2E2E2E2E2E2E2E2E2E2E2E2E2E2E2E2E2E2E2E2E2E2
310
E2E2E2E2E2E2E2E2E2E2E2E2E2E2E2E2E2E2E2E2E2E2E2E2E2E2E2E2E2E2E2E2E2E2E2E2E2E2E2E2E2E2E2E2E2E2E2E2E2E2E2E2E2E2E2E2E2E2F5F5E2E2E2F5F5F5F5F5F5F5F5E2E2E2E2E2E2E2E2E2F5F5F5F5F5F5F5F5F5F5F5F5F5F5F5F5E2E2E2E2E2E2E2E2E2F5F5F5F5F5F5F5F5F5F5F5F5F5F5F5E2E2E2E2E2E2E2
310
E2E2F5F5F5F5F5F5F5F5F5F5F5F5F5F5F5F5E2E2E2E2E2E2E2E2F5F5F5F5F5F5F5F5F5F5F5F5F5F5F5F5E2E2E2E2E2E2E2E2E2F5F5F5F5F5F5F5F5F5F5F5F5F5F5F5E2E2E2E2E2E2E2E2E2F5F5F5F5F5F5F5F5F5F5F5F5F5F5F5F5E2E2E2E2E2E2E2E2E2F5F5F5F5F5F5F5F5E2E2E2F5F5E2E2E2F5E2E2E2E2E2E2E2E2E2E2
310
E2E2E2E2E2E2E2E2E2E2E2E2E2E2E2E2E2E2E2E2E2E2E2E2E2E2E2E2E2E2E2E2E2E2E2E2E2E2E2E2E2E2E2E2E2E2E2E2E2E2E2E2E2E2E2E2E2E2E2E2E2E2E2E2E2E2E2E2E2E2E2E2E2E2E2E2E2E2E2E2E2E2E2E2E2E2E2E2E2E2E2E2E2E2E2E2E2E2E2E2E2E2E2E2E2E2E2E2E2E2E2E2E2E2E2E2E2E2E2E2E2E2E2E2E2E2E2
310
E2E2E2E2E2E2E2E2E2E2E2E2E2E2E2E2E2E2E2E2E2E2E2E2E2E2E2E2E2E2E2E2E2F5E2E2E2F5F5E2E2E2F5E2E2E2E2E2E2E2E2E2E2E2E2E2E2E2E2E2E2E2E2E2E2E2E2E2E2E2E2E2E2E2E2E2E2E2E2E2E2E2E2E2E2E2E2E2E2E2E2E2E2E2E2E2E2E2E2E2E2E2E2E2E2E2E2E2E2E2E2E2E2E2E2E2E2E2E2E2E2E2E2E2E2E2E2
310
E2E2E2E2E2E2E2E2E2E2E2E2E2E2E2E2E2E2E2E2E2E2E2E2E2E2E2E2E2E2E2E2E2E2E2E2E2E2E2E2E2E2E2E2E2E2E2E2E2E2E2E2E2E2E2E2E2E2E2E2E2E2E2E2E2E2E2E2E2E2E2E2E2E2E2E2E2E2E2E2E2E2E2E2E2E2F5E2E2E2F5F5E2E2E2F5E2E2E2E2E2E2E2E2E2E2E2E2E2E2E2E2E2E2E2E2E2E2E2E2E2E2E2E2E2E2E2
310
E2E2E2E2E2E2E2E2E2E2E2E2E2E2E2E2E2E2E2E2E2E2E2E2E2E2E2E2E2E2E2E2E2E2E2E2E2E2E2E2E2E2E2E2E2E2E2E2E2E2E2E2E2E2E2E2E2E2E2E2E2E2E2E2E2E2E2E2E2E2E2E2E2E2E2E2E2E2E2E2E2E2E2E2E2E2E2E2E2E2E2E2E2E2E2E2E2E2E2E2E2E2E2E2E2E2E2E2E2E2E2E2E2E2E2E2E2E2E2E2E2E2E2E2E2E2E2
310
E2E2E2E2E2E2E2E2E2E2E2E2F5E2E2E2F5F5E2E2E2F5E2E2E2E2E2E2E2E2E2E2E2E2E2E2E2E2E2E2E2E2E2E2E2E2E2E2E2E2E2E2E2E2E2E2E2E2E2E2E2E2E2E2E2E2E2E2E2E2E2E2E2E2E2E2E2E2E2E2E2E2E2E2E2E2E2E2E2E2E2E2E2E2E2E2E2E2E2E2E2E2E2E2E2E2E2E2E2E2E2E2E2E2E2E2E2E2E2E2E2E2E2E2E2E2E2
310
E2E2E2E2E2E2E2E2E2E2E2E2E2E2E2E2E2E2E2E2E2E2E2E2E2E2E2E2E2E2E2E2E2E2E2E2E2E2E2E2E2E2E2E2E2E2E2E2E2E2E2E2E2E2E2E2E2E2E2E2E2E2E2E2E2F5E2E2E2F5F5E2E2E2F5E2E2E2E2E2E2E2E2E2E2E2E2E2E2E2E2E2E2E2E2E2E2E2E2E2E2E2E2E2E2E2E2E2E2E2E2E2E2E2E2E2E2E2E2E2E2E2E2E2E2E2E2
310
E2E2E2E2E2E2E2E2E2E2E2E2E2E2E2E2E2E2E2E2E2E2E2E2E2E2E2E2E2E2E2E2E2E2E2E2E2E2E2E2E2E2E2E2E2E2E2E2E2E2E2E2E2E2E2E2E2E2E2E2E2E2E2E2E2E2E2E2E2E2E2E2E2E2E2E2E2E2E2E2E2E2E2E2E2E2E2E2E2E2E2E2E2E2E2E2E2E2E2E2E2E2E2E2E2E2E2E2E2E2E2E2E2E2E2E2E2E2F5E2E2E2F5F5E2E2E2
310
F5E2E2E2E2E2E2E2E2E2E2E2E2E2E2E2E2E2E2E2E2E2E2E2E2E2E2E2E2E2E2E2E2E2E2E2E2E2E2E2E2E2E2E2E2E2E2E2E2E2E2E2E2E2E2E2E2E2E2E2E2E2E2E2E2E2E2E2E2E2E2E2E2E2E2E2E2E2E2E2E2E2E2E2E2E2E2E2E2E2E2E2E2E2E2E2E2E2E2E2E2E2E2E2E2E2E2E2E2E2E2E2E2E2E2E2E2E2E2E2E2E2E2E2E2E2E2
310
E2E2E2E2E2E2E2E2E2E2E2E2E2E2E2E2E2E2E2E2E2E2E2E2E2E2E2E2E2E2E2E2E2E2E2E2E2E2E2E2E2E2E2E2F5E2E2E2F5F5E2E2E2F5E2E2E2E2E2E2E2E2E2E2E2E2E2E2E2E2E2E2E2E2E2E2E2E2E2E2E2E2E2E2E2E2E2E2E2E2E2E2E2E2E2E2E2E2E2E2E2E2E2E2E2E2E2E2E2E2E2E2E2E2E2E2E2E2E2E2E2E2E2E2E2E2E2
310
E2E2E2E2E2E2E2E2E2E2E2E2E2E2E2E2E2E2E2E2E2E2E2E2E2E2E2E2E2E2E2E2E2E2E2E2E2E2E2E2E2E2E2E2E2E2E2E2E2E2E2E2E2E2E2E2E2E2E2E2E2E2E2E2E2E2E2E2E2E2E2E2E2E2E2E2E2E2E2E2E2E2E2E2E2E2E2E2E2E2E2E2E2E2E2E2E2F5E2E2E2F5F5E2E2E2F5E2E2E2E2E2E2E2E2E2E2E2E2E2E2E2E2E2E2E2E2
310
E2E2E2E2E2E2E2E2E2E2E2E2E2E2E2E2E2E2E2E2E2E2E2E2E2E2E2E2E2E2E2E2E2E2E2E2E2E2E2E2E2E2E2E2E2E2E2E2E2E2E2E2E2E2E2E2E2E2E2E2E2E2E2E2E2E2E2E2E2E2E2E2E2E2E2E2E2E2E2E2E2E2E2E2E2E2E2E2E2E2E2E2E2E2E2E2E2E2E2E2E2E2E2E2E2E2E2E2E2E2E2E2E2E2E2E2E2E2E2E2E2E2E2E2E2E2E2
310
E2E2E2E2E2E2E2E2E2E2E2E2E2E2E2E2E2E2E2E2E2E2E2F5E2E2E2F5F5E2E2E2E2E2E2E2E2E2E2E2E2E2E2E2E2E2E2E2E2E2E2E2E2E2E2E2E2E2E2E2E2E2E2E2E2E2E2E2E2E2E2E2E2E2E2E2E2E2E2E2E2E2E2E2E2E2E2E2E2E2E2E2E2E2E2E2E2E2E2E2E2E2E2E2E2E2E2E2E2E2E2E2E2E2E2E2E2E2E2E2E2E2E2E2E2E2E2
310
E2E2E2E2E2E2E2E2E2E2E2E2E2E2E2E2E2E2E2E2E2E2E2E2E2E2E2E2E2E2E2E2E2E2E2E2E2E2E2E2E2E2E2E2E2E2E2E2E2E2E2E2E2E2E2E2E2E2E2E2E2E2E2E2E2E2E2E2E2E2E2E2E2E2E2E2E2E2E2E2F5F5E2E2E2E2E2E2E2E2E2E2E2E2E2E2E2E2E2E2E2E2E2E2E2E2E2E2E2E2E2E2E2E2E2E2E2E2E2E2E2E2E2E2E2E2E2
310
E2E2E2E2E2E2E2E2E2E2E2E2E2E2E2E2E2E2E2E2E2E2E2E2E2E2E2E2E2E2E2E2E2E2E2E2E2E2E2E2E2E2E2E2E2E2E2E2E2E2E2E2E2E2E2E2E2E2E2E2E2E2E2E2E2E2E2E2E2E2E2E2E2E2E2E2E2E2E2E2E2E2E2E2E2E2E2E2E2E2E2E2E2E2E2E2E2E2E2E2E2E2E2E2E2E2E2E2E2E2E2E2E2E2E2E2E2E2E2E2E2E2E2E2E2E2E2
310
E2E2E2E2E2E2F5F5E2E2E2E2E2E2E2E2E2E2E2E2E2E2E2E2E2E2E2E2E2E2E2E2E2E2E2E2E2E2E2E2E2E2E2E2E2E2E2E2E2E2E2E2E2E2E2E2E2E2E2E2E2E2E2E2E2E2E2E2E2E2E2E2E2E2E2E2E2E2E2E2E2E2E2E2E2E2E2E2E2E2E2E2E2E2E2E2E2E2E2E2E2E2E2E2E2E2E2E2E2E2E2E2E2E2E2E2E2E2E2E2E2E2E2E2E2E2E2
310
E2E2E2E2E2E2E2E2E2E2E2E2E2E2E2E2E2E2E2E2E2E2E2E2E2E2E2E2E2E2E2E2E2E2E2E2E2E2E2E2E2E2E2E2E2E2E2E2E2E2E2E2E2E2E2E2E2E2E2F5F5E2E2E2E2E2E2E2E2E2E2E2E2E2E2E2E2E2E2E2E2E2E2E2E2E2E2E2E2E2E2E2E2E2E2E2E2E2E2E2E2E2E2E2E2E2E2E2E2E2E2E2E2E2E2E2E2E2E2E2E2E2E2E2E2E2E2
310
E2E2E2E2E2E2E2E2E2E2E2E2E2E2E2E2E2E2E2E2E2E2E2E2E2E2E2E2E2E2E2E2E2E2E2E2E2E2E2E2E2E2E2E2E2E2E2E2E2E2E2E2E2E2E2E2E2E2E2E2E2E2E2E2E2E2E2E2E2E2E2E2E2E2E2E2E2E2E2E2E2E2E2E2E2E2E2E2E2E2E2E2E2E2E2E2E2E2E2E2E2E2E2E2E2E2E2E2E2E2E2E2F5F5E2E2E2E2E2E2E2E2E2E2E2E2E2
310
E2E2E2E2E2E2E2F5F5F5F5F5F5F5F5F5F5F5F5F5F5F5F5F5F5F5F5F5F5F5F5F5F5F5F5F5F5F5F5F5F5F5F5F5F5F5F5F5F5F5F5F5F5F5F5F5F5F5F5F5F5F5F5F5F5F5F5F5F5F5F5F5F5F5F5F5F5F5F5F5F5F5F5F5F5F5F5F5F5F5F5F5F5F5F5F5F5F5F5F5F5F5F5F5F5F5F5F5F5F5F5F5F5F5F5F5F5F5F5F5F5F5F5F5F5F5F5
310
F5F5F5F5F5F5F5F5F5F5F5F5F5F5F5F5F5F5E2E2E2E2E2E2E2E2E2E2E2E2E2E2E2E2E2E2E2E2F5F5E2E2E2E2E2E2E2E2E2E2E2E2E2E2E2E2E2E2E2E2F5E2E2E2E2E2E2E2E2E2E2E2E2E2E2E2E2E2E2E2E2E2E2E2E2E2E2E2E2E2E2E2E2E2E2E2E2E2E2E2E2E2E2E2E2E2E2E2E2E2E2E2E2E2E2E2E2E2E2E2E2E2E2E2E2E2E2
310
E2E2E2E2E2E2E2E2E2E2E2E2E2E2E2E2E2E2E2E2E2E2E2E2E2E2E2E2E2E2E2E2E2E2E2E2E2E2E2E2E2E2E2E2E2E2E2E2E2E2E2E2E2E2E2E2E2E2E2E2E2E2E2E2E2E2E2E2E2E2F5E2E2E2E2E2E2E2E2E2E2E2E2E2E2E2E2E2E2E2E2F5F5E2E2E2E2E2E2E2E2E2E2E2E2E2E2E2E2E2E2E2E2F5E2E2E2E2E2E2E2E2E2E2E2E2E2
310
E2E2E2E2E2E2E2E2E2E2E2E2E2E2E2E2E2E2E2E2E2E2E2E2E2E2E2E2E2E2E2E2E2E2E2E2E2E2E2E2E2E2E2E2E2E2E2E2E2E2E2E2E2E2E2E2E2E2E2E2E2E2E2E2E2E2E2E2E2E2E2E2E2E2E2E2E2E2E2E2E2E2E2E2E2E2E2E2E2E2E2E2E2E2E2E2E2E2E2E2E2E2E2E2E2E2E2E2E2E2E2E2E2E2E2E2E2E2E2E2E2E2E2F5E2E2E2
310
E2E2E2E2E2E2E2E2E2E2E2E2E2E2E2E2E2F5F5E2E2E2E2E2E2E2E2E2E2E2E2E2E2E2E2E2E2E2E2F5E2E2E2E2E2E2E2E2E2E2E2E2E2E2E2E2E2E2E2E2E2E2E2E2E2E2E2E2E2E2E2E2E2E2E2E2E2E2E2E2E2E2E2E2E2E2E2E2E2E2E2E2E2E2E2E2E2E2E2E2E2E2E2E2E2E2E2E2E2E2E2E2E2E2E2E2E2E2E2E2E2E2E2E2E2E2E2
310
E2E2E2E2E2E2E2E2E2E2E2E2E2E2E2E2E2E2E2E2E2E2E2E2E2E2E2E2E2E2E2E2E2E2E2E2E2E2E2E2E2E2E2E2E2E2E2E2E2F5E2E2E2E2E2E2E2E2E2E2E2E2E2E2E2E2E2E2E2E2F5F5E2E2E2E2E2E2E2E2E2E2E2E2E2E2E2E2E2E2E2E2F5E2E2E2E2E2E2E2E2E2E2E2E2E2E2E2E2E2E2E2E2E2E2E2E2E2E2E2E2E2E2E2E2E2E2
310
E2E2E2E2E2E2E2E2E2E2E2E2E2E2E2E2E2E2E2E2E2E2E2E2E2E2E2E2E2E2E2E2E2E2E2E2E2E2E2E2E2E2E2E2E2E2E2E2E2E2E2E2E2E2E2E2E2E2E2E2E2E2E2E2E2E2E2E2E2E2E2E2E2E2E2E2E2E2E2E2E2E2E2E2E2E2E2E2E2E2E2E2E2E2E2E2E2E2E2E2E2E2F5E2E2E2E2E2E2E2E2E2E2E2E2E2E2E2E2E2E2E2E2F5F5E2E2
310
E2F5E2E2E2E2E2E2E2E2E2E2E2E2E2E2E2E2F5E2E2E2E2E2E2E2E2E2E2E2E2E2E2E2E2E2E2E2E2E2E2E2E2E2E2E2E2E2E2E2E2E2E2E2E2E2E2E2E2E2E2E2E2E2E2E2E2E2E2E2E2E2E2E2E2E2E2E2E2E2E2E2E2E2E2E2E2E2E2E2E2E2E2E2E2E2E2E2E2E2E2E2E2E2E2E2E2E2E2E2E2E2E2E2E2E2E2E2E2E2E2E2E2E2E2E2E2
310
E2E2E2E2E2E2E2E2E2E2E2E2E2E2E2E2E2E2E2E2E2E2E2E2E2E2E2E2F5E2E2E2E2E2E2E2E2E2E2E2E2E2E2E2E2F5E2E2E2F5F5E2E2E2F5E2E2E2E2E2E2E2E2E2E2E2E2E2E2E2E2F5E2E2E2E2E2E2E2E2E2E2E2E2E2E2E2E2E2E2E2E2E2E2E2E2E2E2E2E2E2E2E2E2E2E2E2E2E2E2E2E2E2E2E2E2E2E2E2E2E2E2E2E2E2E2E2
310
E2E2E2E2E2E2E2E2E2E2E2E2E2E2E2E2E2E2E2E2E2E2E2E2E2E2E2E2E2E2E2E2E2E2E2E2E2E2E2E2E2E2E2E2E2E2E2E2E2E2E2E2E2E2E2E2E2E2E2E2E2E2E2E2E2E2E2E2E2E2E2E2E2E2E2E2E2E2E2E2E2F5E2E2E2E2E2E2E2E2E2E2E2E2E2E2E2E2F5E2E2E2F5F5E2E2E2F5E2E2E2E2E2E2E2E2E2E2E2E2E2E2E2E2F5E2E2
310
E2E2E2E2E2E2E2E2E2E2E2E2E2E2E2E2E2E2E2E2E2E2E2E2E2E2E2E2E2E2E2E2E2E2E2E2E2E2E2E2E2E2E2E2E2E2E2E2E2E2E2E2E2E2E2E2E2E2E2E2E2E2E2E2E2E2E2E2E2E2E2E2E2E2E2E2E2E2E2E2E2E2E2E2E2E2E2E2E2E2E2E2E2E2E2E2E2E2E2E2E2E2E2E2E2E2E2E2E2E2E2E2E2E2E2E2E2E2E2E2E2E2E2E2E2E2E2
310
E2E2E2E2E2E2E2F5E2E2E2E2E2E2E2E2E2E2E2E2E2E2E2E2F5E2E2E2F5F5E2E2E2F5E2E2E2E2E2E2E2E2E2E2E2E2E2E2E2E2F5E2E2E2E2E2E2E2E2E2E2E2E2E2E2E2E2E2E2E2E2E2E2E2E2E2E2E2E2E2E2E2E2E2E2E2E2E2E2E2E2E2E2E2E2E2E2E2E2E2E2E2E2E2E2E2E2E2E2E2E2E2E2E2E2E2E2E2E2E2E2E2E2E2E2E2E2
310
E2E2E2E2E2E2E2E2E2E2E2E2E2E2E2E2E2E2E2E2E2E2E2E2E2E2E2E2E2E2E2E2E2E2E2E2E2E2E2E2E2E2E2E2E2E2E2E2E2E2E2E2E2E2E2E2E2E2E2E2F5E2E2E2E2E2E2E2E2E2E2E2E2E2E2E2E2F5E2E2E2F5F5E2E2E2F5E2E2E2E2E2E2E2E2E2E2E2E2E2E2E2E2F5E2E2E2E2E2E2E2E2E2E2E2E2E2E2E2E2E2E2E2E2E2E2E2
310
E2E2E2E2E2E2E2E2E2E2E2E2E2E2E2E2E2E2E2E2E2E2E2E2E2E2E2E2E2E2E2E2E2E2E2E2E2E2E2E2E2E2E2E2E2E2E2E2E2E2E2E2E2E2E2E2E2E2E2E2E2E2E2E2E2E2E2E2E2E2E2E2E2E2E2E2E2E2E2E2E2E2E2E2E2E2E2E2E2E2E2E2E2E2E2E2E2E2E2E2E2E2E2E2E2E2E2E2E2E2E2E2E2F5E2E2E2E2E2E2E2E2E2E2E2E2E2
310
E2E2E2F5E2E2E2F5F5E2E2E2F5E2E2E2E2E2E2E2E2E2E2E2E2E2E2E2E2F5E2E2E2E2E2E2E2E2E2E2E2E2E2E2E2E2E2E2E2E2E2E2E2E2E2E2E2E2E2E2E2E2E2E2E2E2E2E2E2E2E2E2E2E2E2E2E2E2E2E2E2E2E2E2E2E2E2E2E2E2E2E2E2E2E2E2E2E2E2E2E2E2E2E2E2E2E2E2E2E2E2E2E2E2E2E2E2E2E2E2E2E2E2E2E2E2E2
310
E2E2E2E2E2E2E2E2E2E2E2E2E2E2E2E2E2E2E2E2E2E2E2E2E2E2E2E2E2E2E2E2E2E2E2E2E2E2E2F5E2E2E2E2E2E2E2E2E2E2E2E2E2E2E2E2F5E2E2E2F5F5E2E2E2F5E2E2E2E2E2E2E2E2E2E2E2E2E2E2E2E2F5E2E2E2E2E2E2E2E2E2E2E2E2E2E2E2E2E2E2E2E2E2E2E2E2E2E2E2E2E2E2E2E2E2E2E2E2E2E2E2E2E2E2E2E2
310
E2E2E2E2E2E2E2E2E2E2E2E2E2E2E2E2E2E2E2E2E2E2E2E2E2E2E2E2E2E2E2E2E2E2E2E2E2E2E2E2E2E2E2E2E2E2E2E2E2E2E2E2E2E2E2E2E2E2E2E2E2E2E2E2E2E2E2E2E2E2E2E2E2E2E2E2E2E2E2E2E2E2E2E2E2E2E2E2E2E2E2E2F5E2E2E2E2E2E2E2E2E2E2E2E2E2E2E2E2F5E2E2E2F5F5E2E2E2F5E2E2E2E2E2E2E2E2
310
E2E2E2E2E2E2E2E2F5E2E2E2E2E2E2E2E2E2E2E2E2E2E2E2E2E2E2E2E2E2E2E2E2E2E2E2E2E2E2E2E2E2E2E2E2E2E2E2E2E2E2E2E2E2E2E2E2E2E2E2E2E2E2E2E2E2E2E2E2E2E2E2E2E2E2E2E2E2E2E2E2E2E2E2E2E2E2E2E2E2E2E2E2E2E2E2E2E2E2E2E2E2E2E2E2E2E2E2E2E2E2E2E2E2E2E2E2E2E2E2E2E2E2E2E2E2E2
310
E2E2E2E2E2E2E2E2E2E2E2E2E2E2E2E2E2E2F5E2E2E2E2E2E2E2E2E2E2E2E2E2E2E2E2F5E2E2E2F5F5E2E2E2F5E2E2E2E2E2E2E2E2E2E2E2E2E2E2E2E2F5E2E2E2E2E2E2E2E2E2E2E2E2E2E2E2E2E2E2E2E2E2E2E2E2E2E2E2E2E2E2E2E2E2E2E2E2E2E2E2E2E2E2E2E2E2E2E2E2E2E2E2E2E2E2E2E2E2E2E2E2E2E2E2E2E2
310
E2E2E2E2E2E2E2E2E2E2E2E2E2E2E2E2E2E2E2E2E2E2E2E2E2E2E2E2E2E2E2E2E2E2E2E2E2E2E2E2E2E2E2E2E2E2E2E2E2E2E2E2E2E2E2E2E2E2E2E2E2E2E2E2E2E2E2E2E2E2E2F5E2E2E2E2E2E2E2E2E2E2E2E2E2E2E2E2F5E2E2E2F5F5E2E2E2F5E2E2E2E2E2E2E2E2E2E2E2E2E2E2E2E2F5E2E2E2E2E2E2E2E2E2E2E2E2
310
E2E2E2E2E2E2E2E2E2E2E2E2E2E2E2E2E2E2E2E2E2E2E2E2E2E2E2E2E2E2E2E2E2E2E2E2E2E2E2E2E2E2E2E2E2E2E2E2E2E2E2E2E2E2E2E2E2E2E2E2E2E2E2E2E2E2E2E2E2E2E2E2E2E2E2E2E2E2E2E2E2E2E2E2E2E2E2E2E2E2E2E2E2E2E2E2E2E2E2E2E2E2E2E2E2E2E2E2E2E2E2E2E2E2E2E2E2E2E2E2E2E2E2E2F5E2E2
310
E2E2E2E2E2E2E2E2E2E2E2E2E2E2F5E2E2E2F5F5E2E2E2F5E2E2E2E2E2E2E2E2E2E2E2E2E2E2E2E2F5E2E2E2E2E2E2E2E2E2E2E2E2E2E2E2E2E2E2E2E2E2E2E2E2E2E2E2E2E2E2E2E2E2E2E2E2E2E2E2E2E2E2E2E2E2E2E2E2E2E2E2E2E2E2E2E2E2E2E2E2E2E2E2E2E2E2E2E2E2E2E2E2E2E2E2E2E2E2E2E2E2E2E2E2E2E2
310
E2E2E2E2E2E2E2E2E2E2E2E2E2E2E2E2E2E2E2E2E2E2E2E2E2E2E2E2E2E2E2E2E2E2E2E2E2E2E2E2E2E2E2E2E2E2E2E2E2E2F5E2E2E2E2E2E2E2E2E2E2E2E2E2E2E2E2F5E2E2E2F5F5E2E2E2F5E2E2E2E2E2E2E2E2E2E2E2E2E2E2E2E2F5E2E2E2E2E2E2E2E2E2E2E2E2E2E2E2E2E2E2E2E2E2E2E2E2E2E2E2E2E2E2E2E2E2
310
E2E2E2E2E2E2E2E2E2E2E2E2E2E2E2E2E2E2E2E2E2E2E2E2E2E2E2E2E2E2E2E2E2E2E2E2E2E2E2E2E2E2E2E2E2E2E2E2E2E2E2E2E2E2E2E2E2E2E2E2E2E2E2E2E2E2E2E2E2E2E2E2E2E2E2E2E2E2E2E2E2E2E2E2E2E2E2E2E2E2E2E2E2E2E2E2E2E2E2E2E2E2E2F5E2E2E2E2E2E2E2E2E2E2E2E2E2E2E2E2F5E2E2E2F5F5E2
310
E2E2F5E2E2E2E2E2E2E2E2E2E2E2E2E2E2E2E2F5E2E2E2E2E2E2E2E2E2E2E2E2E2E2E2E2E2E2E2E2E2E2E2E2E2E2E2E2E2E2E2E2E2E2E2E2E2E2E2E2E2E2E2E2E2E2E2E2E2E2E2E2E2E2E2E2E2E2E2E2E2E2E2E2E2E2E2E2E2E2E2E2E2E2E2E2E2E2E2E2E2E2E2E2E2E2E2E2E2E2E2E2E2E2E2E2E2E2E2E2E2E2E2E2E2E2E2
310
E2E2E2E2E2E2E2E2E2E2E2E2E2E2E2E2E2E2E2E2E2E2E2E2E2E2E2E2E2F5E2E2E2E2E2E2E2E2E2E2E2E2E2E2E2E2F5E2E2E2F5F5E2E2E2F5E2E2E2E2E2E2E2E2E2E2E2E2E2E2E2E2F5E2E2E2E2E2E2E2E2E2E2E2E2E2E2E2E2E2E2E2E2E2E2E2E2E2E2E2E2E2E2E2E2E2E2E2E2E2E2E2E2E2E2E2E2E2E2E2E2E2E2E2E2E2E2
310
E2E2E2E2E2E2E2E2E2E2E2E2E2E2E2E2E2E2E2E2E2E2E2E2E2E2E2E2E2E2E2E2E2E2E2E2E2E2E2E2E2E2E2E2E2E2E2E2E2E2E2E2E2E2E2E2E2E2E2E2E2E2E2E2E2E2E2E2E2E2E2E2E2E2E2E2E2E2E2E2E2E2F5E2E2E2E2E2E2E2E2E2E2E2E2E2E2E2E2F5E2E2E2F5F5E2E2E2F5E2E2E2E2E2E2E2E2E2E2E2E2E2E2E2E2F5E2
310
E2E2E2E2E2E2E2E2E2E2E2E2E2E2E2E2E2E2E2E2E2E2E2E2E2E2E2E2E2E2E2E2E2E2E2E2E2E2E2E2E2E2E2E2E2E2E2E2E2E2E2E2E2E2E2E2E2E2E2E2E2E2E2E2E2E2E2E2E2E2E2E2E2E2E2E2E2E2E2E2E2E2E2E2E2E2E2E2E2E2E2E2E2E2E2E2E2E2E2E2E2E2E2E2E2E2E2E2E2E2E2E2E2E2E2E2E2E2E2E2E2E2E2E2E2E2E2
310
E2E2E2E2E2E2E2E2F5E2E2E2E2E2E2E2E2E2E2E2E2E2E2E2E2F5E2E2E2F5F5E2E2E2F5E2E2E2E2E2E2E2E2E2E2E2E2E2E2E2E2F5E2E2E2E2E2E2E2E2E2E2E2E2E2E2E2E2E2E2E2E2E2E2E2E2E2E2E2E2E2E2E2E2E2E2E2E2E2E2E2E2E2E2E2E2E2E2E2E2E2E2E2E2E2E2E2E2E2E2E2E2E2E2E2E2E2E2E2E2E2E2E2E2E2E2E2
310
E2E2E2E2E2E2E2E2E2E2E2E2E2E2E2E2E2E2E2E2E2E2E2E2E2E2E2E2E2E2E2E2E2E2E2E2E2E2E2E2E2E2E2E2E2E2E2E2E2E2E2E2E2E2E2E2E2E2E2E2E2F5E2E2E2E2E2E2E2E2E2E2E2E2E2E2E2E2F5E2E2E2F5F5E2E2E2F5E2E2E2E2E2E2E2E2E2E2E2E2E2E2E2E2F5E2E2E2E2E2E2E2E2E2E2E2E2E2E2E2E2E2E2E2E2E2E2
310
E2E2E2E2E2E2E2E2E2E2E2E2E2E2E2E2E2E2E2E2E2E2E2E2E2E2E2E2E2E2E2E2E2E2E2E2E2E2E2E2E2E2E2E2E2E2E2E2E2E2E2E2E2E2E2E2E2E2E2E2E2E2E2E2E2E2E2E2E2E2E2E2E2E2E2E2E2E2E2E2E2E2E2E2E2E2E2E2E2E2E2E2E2E2E2E2E2E2E2E2E2E2E2E2E2E2E2E2E2E2E2E2E2E2F5E2E2E2E2E2E2E2E2E2E2E2E2
310
E2E2E2E2F5E2E2E2F5F5E2E2E2E2E2E2E2E2E2E2E2E2E2E2E2E2E2E2E2E2F5E2E2E2E2E2E2E2E2E2E2E2E2E2E2E2E2E2E2E2E2E2E2E2E2E2E2E2E2E2E2E2E2E2E2E2E2E2E2E2E2E2E2E2E2E2E2E2E2E2E2E2E2E2E2E2E2E2E2E2E2E2E2E2E2E2E2E2E2E2E2E2E2E2E2E2E2E2E2E2E2E2E2E2E2E2E2E2E2E2E2E2E2E2E2E2E2
310
E2E2E2E2E2E2E2E2E2E2E2E2E2E2E2E2E2E2E2E2E2E2E2E2E2E2E2E2E2E2E2E2E2E2E2E2E2E2E2E2F5E2E2E2E2E2E2E2E2E2E2E2E2E2E2E2E2E2E2E2E2F5F5E2E2E2E2E2E2E2E2E2E2E2E2E2E2E2E2E2E2E2E2F5E2E2E2E2E2E2E2E2E2E2E2E2E2E2E2E2E2E2E2E2E2E2E2E2E2E2E2E2E2E2E2E2E2E2E2E2E2E2E2E2E2E2E2
310
E2E2E2E2E2E2E2E2E2E2E2E2E2E2E2E2E2E2E2E2E2E2E2E2E2E2E2E2E2E2E2E2E2E2E2E2E2E2E2E2E2E2E2E2E2E2E2E2E2E2E2E2E2E2E2E2E2E2E2E2E2E2E2E2E2E2E2E2E2E2E2E2E2E2E2E2E2E2E2E2E2E2E2E2E2E2E2E2E2E2E2E2E2F5E2E2E2E2E2E2E2E2E2E2E2E2E2E2E2E2E2E2E2E2F5F5E2E2E2E2E2E2E2E2E2E2E2
310
E2E2E2E2E2E2E2E2E2F5E2E2E2E2E2E2E2E2E2E2E2E2E2E2E2E2E2E2E2E2E2E2E2E2E2E2E2E2E2E2E2E2E2E2E2E2E2E2E2E2E2E2E2E2E2E2E2E2E2E2E2E2E2E2E2E2E2E2E2E2E2E2E2E2E2E2E2E2E2E2E2E2E2E2E2E2E2E2E2E2E2E2E2E2E2E2E2E2E2E2E2E2E2E2E2E2E2E2E2E2E2E2E2E2E2E2E2E2E2E2E2E2E2E2E2E2E2
310
E2E2E2E2E2E2E2E2E2E2E2E2E2E2E2E2E2E2E2F5E2E2E2E2E2E2E2E2E2E2E2E2E2E2E2E2E2E2E2E2F5F5E2E2E2E2E2E2E2E2E2E2E2E2E2E2E2E2E2E2E2E2F5E2E2E2E2E2E2E2E2E2E2E2E2E2E2E2E2E2E2E2E2E2E2E2E2E2E2E2E2E2E2E2E2E2E2E2E2E2E2E2E2E2E2E2E2E2E2E2E2E2E2E2E2E2E2E2E2E2E2E2E2E2E2E2E2
310
E2E2E2E2E2E2E2E2E2E2E2E2E2E2E2E2E2E2E2E2E2E2E2E2E2E2E2E2E2E2E2E2E2E2E2E2E2E2E2E2E2E2E2E2E2E2E2E2E2E2E2E2E2E2E2E2E2E2E2E2E2E2E2E2E2E2E2E2E2E2E2E2F5E2E2E2E2E2E2E2E2E2E2E2E2E2E2E2E2E2E2E2E2F5F5E2E2E2E2E2E2E2E2E2E2E2E2E2E2E2E2E2E2E2E2F5E2E2E2E2E2E2E2E2E2E2E2
310
E2E2E2E2E2E2E2E2E2E2E2E2E2E2E2E2E2E2E2E2E2E2E2E2E2E2E2E2E2E2E2E2E2E2E2E2E2E2E2E2E2E2E2E2E2E2E2E2E2E2E2E2E2E2E2E2E2E2E2E2E2E2E2E2E2E2E2E2E2E2E2E2E2E2E2E2E2E2E2E2E2E2E2E2E2E2E2E2E2E2E2E2E2E2E2E2E2E2E2E2E2E2E2E2E2E2E2E2E2E2E2E2E2E2E2E2E2E2E2E2E2E2E2E2E2F5E2
310
E2E2E2E2E2E2E2E2E2E2E2E2E2E2E2E2E2E2E2F5F5E2E2E2E2E2E2E2E2E2E2E2E2E2E2E2E2E2E2E2E2F5E2E2E2E2E2E2E2E2E2E2E2E2E2E2E2E2E2E2E2E2E2E2E2E2E2E2E2E2E2E2E2E2E2E2E2E2E2E2E2E2E2E2E2E2E2E2E2E2E2E2E2E2E2E2E2E2E2E2E2E2E2E2E2E2E2E2E2E2E2E2E2E2E2E2E2E2E2E2E2E2E2E2E2E2E2
310
E2E2E2E2E2E2E2E2E2E2E2E2E2E2E2E2E2E2E2E2E2E2E2E2E2E2E2E2E2E2E2E2E2E2E2E2E2E2E2E2E2E2E2E2E2E2E2E2E2E2E2F5E2E2E2E2E2E2E2E2E2E2E2E2E2E2E2E2E2E2E2E2F5F5E2E2E2E2E2E2E2E2E2E2E2E2E2E2E2E2E2E2E2E2F5E2E2E2E2E2E2E2E2E2E2E2E2E2E2E2E2E2E2E2E2E2E2E2E2E2E2E2E2E2E2E2E2
310
E2E2E2E2E2E2E2E2E2E2E2E2E2E2E2E2E2E2E2E2E2E2E2E2E2E2E2E2E2E2E2E2E2E2E2E2E2E2E2E2E2E2E2E2E2E2E2E2E2E2E2E2E2E2E2E2E2E2E2E2E2E2E2E2E2E2E2E2E2E2E2E2E2E2E2E2E2E2E2E2E2E2E2E2E2E2E2E2E2E2E2E2E2E2E2E2E2E2E2E2E2E2E2E2F5E2E2E2E2E2E2E2E2E2E2E2E2E2E2E2E2E2E2E2E2F5F5
310
E2E2E2E2E2E2E2E2E2E2E2E2E2E2E2E2E2E2E2E2F5E2E2E2E2E2E2E2E2E2E2E2E2E2E2E2E2E2E2E2E2E2E2E2E2E2E2E2E2E2E2E2E2E2E2E2E2E2E2E2E2E2E2E2E2E2E2E2E2E2E2E2E2E2E2E2E2E2E2E2E2E2E2E2E2E2E2E2E2E2E2E2E2E2E2E2E2E2E2E2E2E2E2E2E2E2E2E2E2E2E2E2E2E2E2E2E2E2E2E2E2E2E2E2E2E2E2
310
E2E2E2E2E2E2E2E2E2E2E2E2E2E2E2E2E2E2E2E2E2E2E2E2E2E2E2E2E2E2F5E2E2E2E2E2E2E2E2E2E2E2E2E2E2E2E2E2E2E2E2F5F5E2E2E2E2E2E2E2E2E2E2E2E2E2E2E2E2E2E2E2E2F5E2E2E2E2E2E2E2E2E2E2E2E2E2E2E2E2E2E2E2E2E2E2E2E2E2E2E2E2E2E2E2E2E2E2E2E2E2E2E2E2E2E2E2E2E2E2E2E2E2E2E2E2E2
310
E2E2E2E2E2E2E2E2E2E2E2E2E2E2E2E2E2E2E2E2E2E2E2E2E2E2E2E2E2E2E2E2E2E2E2E2E2E2E2E2E2E2E2E2E2E2E2E2E2E2E2E2E2E2E2E2E2E2E2E2E2E2E2E2E2E2E2E2E2E2E2E2E2E2E2E2E2E2E2E2E2E2E2F5E2E2E2E2E2E2E2E2E2E2E2E2E2E2E2E2E2E2E2E2F5F5E2E2E2F5E2E2E2E2E2E2E2E2E2E2E2E2E2E2E2E2F5
310
E2E2E2E2E2E2E2E2E2E2E2E2E2E2E2E2E2E2E2E2E2E2E2E2E2E2E2E2E2E2E2E2E2E2E2E2E2E2E2E2E2E2E2E2E2E2E2E2E2E2E2E2E2E2E2E2E2E2E2E2E2E2E2E2E2E2E2E2E2E2E2E2E2E2E2E2E2E2E2E2E2E2E2E2E2E2E2E2E2E2E2E2E2E2E2E2E2E2E2E2E2E2E2E2E2E2E2E2E2E2E2E2E2E2E2E2E2E2E2E2E2E2E2E2E2E2E2
310
E2E2E2E2E2E2E2E2E2F5E2E2E2E2E2E2E2E2E2E2E2E2E2E2E2E2F5E2E2E2F5F5E2E2E2F5E2E2E2E2E2E2E2E2E2E2E2E2E2E2E2E2F5E2E2E2E2E2E2E2E2E2E2E2E2E2E2E2E2E2E2E2E2E2E2E2E2E2E2E2E2E2E2E2E2E2E2E2E2E2E2E2E2E2E2E2E2E2E2E2E2E2E2E2E2E2E2E2E2E2E2E2E2E2E2E2E2E2E2E2E2E2E2E2E2E2E2
310
E2E2E2E2E2E2E2E2E2E2E2E2E2E2E2E2E2E2E2E2E2E2E2E2E2E2E2E2E2E2E2E2E2E2E2E2E2E2E2E2E2E2E2E2E2E2E2E2E2E2E2E2E2E2E2E2E2E2E2E2E2E2F5E2E2E2E2E2E2E2E2E2E2E2E2E2E2E2E2F5E2E2E2F5F5E2E2E2F5E2E2E2E2E2E2E2E2E2E2E2E2E2E2E2E2F5E2E2E2E2E2E2E2E2E2E2E2E2E2E2E2E2E2E2E2E2E2
310
E2E2E2E2E2E2E2E2E2E2E2E2E2E2E2E2E2E2E2E2E2E2E2E2E2E2E2E2E2E2E2E2E2E2E2E2E2E2E2E2E2E2E2E2E2E2E2E2E2E2E2E2E2E2E2E2E2E2E2E2E2E2E2E2E2E2E2E2E2E2E2E2E2E2E2E2E2E2E2E2E2E2E2E2E2E2E2E2E2E2E2E2E2E2E2E2E2E2E2E2E2E2E2E2E2E2E2E2E2E2E2E2E2E2E2F5E2E2E2E2E2E2E2E2E2E2E2
310
E2E2E2E2E2F5E2E2E2F5F5E2E2E2F5E2E2E2E2E2E2E2E2E2E2E2E2E2E2E2E2F5E2E2E2E2E2E2E2E2E2E2E2E2E2E2E2E2E2E2E2E2E2E2E2E2E2E2E2E2E2E2E2E2E2E2E2E2E2E2E2E2E2E2E2E2E2E2E2E2E2E2E2E2E2E2E2E2E2E2E2E2E2E2E2E2E2E2E2E2E2E2E2E2E2E2E2E2E2E2E2E2E2E2E2E2E2E2E2E2E2E2E2E2E2E2E2
310
E2E2E2E2E2E2E2E2E2E2E2E2E2E2E2E2E2E2E2E2E2E2E2E2E2E2E2E2E2E2E2E2E2E2E2E2E2E2E2E2E2F5E2E2E2E2E2E2E2E2E2E2E2E2E2E2E2E2F5E2E2E2F5F5E2E2E2F5E2E2E2E2E2E2E2E2E2E2E2E2E2E2E2E2F5E2E2E2E2E2E2E2E2E2E2E2E2E2E2E2E2E2E2E2E2E2E2E2E2E2E2E2E2E2E2E2E2E2E2E2E2E2E2E2E2E2E2
310
E2E2E2E2E2E2E2E2E2E2E2E2E2E2E2E2E2E2E2E2E2E2E2E2E2E2E2E2E2E2E2E2E2E2E2E2E2E2E2E2E2E2E2E2E2E2E2E2E2E2E2E2E2E2E2E2E2E2E2E2E2E2E2E2E2E2E2E2E2E2E2E2E2E2E2E2E2E2E2E2E2E2E2E2E2E2E2E2E2E2E2E2E2E2F5E2E2E2E2E2E2E2E2E2E2E2E2E2E2E2E2F5E2E2E2F5F5E2E2E2F5E2E2E2E2E2E2
310
E2E2E2E2E2E2E2E2E2E2F5E2E2E2E2E2E2E2E2E2E2E2E2E2E2E2E2E2E2E2E2E2E2E2E2E2E2E2E2E2E2E2E2E2E2E2E2E2E2E2E2E2E2E2E2E2E2E2E2E2E2E2E2E2E2E2E2E2E2E2E2E2E2E2E2E2E2E2E2E2E2E2E2E2E2E2E2E2E2E2E2E2E2E2E2E2E2E2E2E2E2E2E2E2E2E2E2E2E2E2E2E2E2E2E2E2E2E2E2E2E2E2E2E2E2E2E2
310
E2E2E2E2E2E2E2E2E2E2E2E2E2E2E2E2E2E2E2E2F5E2E2E2E2E2E2E2E2E2E2E2E2E2E2E2E2F5E2E2E2F5F5E2E2E2F5E2E2E2E2E2E2E2E2E2E2E2E2E2E2E2E2F5E2E2E2E2E2E2E2E2E2E2E2E2E2E2E2E2E2E2E2E2E2E2E2E2E2E2E2E2E2E2E2E2E2E2E2E2E2E2E2E2E2E2E2E2E2E2E2E2E2E2E2E2E2E2E2E2E2E2E2E2E2E2E2
310
E2E2E2E2E2E2E2E2E2E2E2E2E2E2E2E2E2E2E2E2E2E2E2E2E2E2E2E2E2E2E2E2E2E2E2E2E2E2E2E2E2E2E2E2E2E2E2E2E2E2E2E2E2E2E2E2E2E2E2E2E2E2E2E2E2E2E2E2E2E2E2E2E2F5E2E2E2E2E2E2E2E2E2E2E2E2E2E2E2E2F5E2E2E2F5F5E2E2E2F5E2E2E2E2E2E2E2E2E2E2E2E2E2E2E2E2F5E2E2E2E2E2E2E2E2E2E2
310
E2E2E2E2E2E2E2E2E2E2E2E2E2E2E2E2E2E2E2E2E2E2E2E2E2E2E2E2E2E2E2E2E2E2E2E2E2E2E2E2E2E2E2E2E2E2E2E2E2E2E2E2E2E2E2E2E2E2E2E2E2E2E2E2E2E2E2E2E2E2E2E2E2E2E2E2E2E2E2E2E2E2E2E2E2E2E2E2E2E2E2E2E2E2E2E2E2E2E2E2E2E2E2E2E2E2E2E2E2E2E2E2E2E2E2E2E2E2E2E2E2E2E2E2E2E2F5
310
E2E2E2E2E2E2E2E2E2E2E2E2E2E2E2E2F5E2E2E2F5F5E2E2E2F5E2E2E2E2E2E2E2E2E2E2E2E2E2E2E2E2F5E2E2E2E2E2E2E2E2E2E2E2E2E2E2E2E2E2E2E2E2E2E2E2E2E2E2E2E2E2E2E2E2E2E2E2E2E2E2E2E2E2E2E2E2E2E2E2E2E2E2E2E2E2E2E2E2E2E2E2E2E2E2E2E2E2E2E2E2E2E2E2E2E2E2E2E2E2E2E2E2E2E2E2E2
310
E2E2E2E2E2E2E2E2E2E2E2E2E2E2E2E2E2E2E2E2E2E2E2E2E2E2E2E2E2E2E2E2E2E2E2E2E2E2E2E2E2E2E2E2E2E2E2E2E2E2E2E2F5E2E2E2E2E2E2E2E2E2E2E2E2E2E2E2E2F5E2E2E2F5F5E2E2E2F5E2E2E2E2E2E2E2E2E2E2E2E2E2E2E2E2F5E2E2E2E2E2E2E2E2E2E2E2E2E2E2E2E2E2E2E2E2E2E2E2E2E2E2E2E2E2E2E2
310
E2E2E2E2E2E2E2E2E2E2E2E2E2E2E2E2E2E2E2E2E2E2E2E2E2E2E2E2E2E2E2E2E2E2E2E2E2E2E2E2E2E2E2E2E2E2E2E2E2E2E2E2E2E2E2E2E2E2E2E2E2E2E2E2E2E2E2E2E2E2E2E2E2E2E2E2E2E2E2E2E2E2E2E2E2E2E2E2E2E2E2E2E2E2E2E2E2E2E2E2E2E2E2E2E2F5E2E2E2E2E2E2E2E2E2E2E2E2E2E2E2E2F5E2E2E2F5
310
F5E2E2E2F5E2E2E2E2E2E2E2E2E2E2E2E2E2E2E2E2F5E2E2E2E2E2E2E2E2E2E2E2E2E2E2E2E2E2E2E2E2E2E2E2E2E2E2E2E2E2E2E2E2E2E2E2E2E2E2E2E2E2E2E2E2E2E2E2E2E2E2E2E2E2E2E2E2E2E2E2E2E2E2E2E2E2E2E2E2E2E2E2E2E2E2E2E2E2E2E2E2E2E2E2E2E2E2E2E2E2E2E2E2E2E2E2E2E2E2E2E2E2E2E2E2E2
310
E2E2E2E2E2E2E2E2E2E2E2E2E2E2E2E2E2E2E2E2E2E2E2E2E2E2E2E2E2E2E2F5E2E2E2E2E2E2E2E2E2E2E2E2E2E2E2E2F5E2E2E2F5F5E2E2E2F5E2E2E2E2E2E2E2E2E2E2E2E2E2E2E2E2F5E2E2E2E2E2E2E2E2E2E2E2E2E2E2E2E2E2E2E2E2E2E2E2E2E2E2E2E2E2E2E2E2E2E2E2E2E2E2E2E2E2E2E2E2E2E2E2E2E2E2E2E2
310
E2E2E2E2E2E2E2E2E2E2E2E2E2E2E2E2E2E2E2E2E2E2E2E2E2E2E2E2E2E2E2E2E2E2E2E2E2E2E2E2E2E2E2E2E2E2E2E2E2E2E2E2E2E2E2E2E2E2E2E2E2E2E2E2E2E2E2E2E2E2E2E2E2E2E2E2E2E2E2E2E2E2E2E2F5E2E2E2E2E2E2E2E2E2E2E2E2E2E2E2E2F5E2E2E2F5F5E2E2E2F5E2E2E2E2E2E2E2E2E2E2E2E2E2E2E2E2
310
F5E2E2E2E2E2E2E2E2E2E2E2E2E2E2E2E2E2E2E2E2E2E2E2E2E2E2E2E2E2E2E2E2E2E2E2E2E2E2E2E2E2E2E2E2E2E2E2E2E2E2E2E2E2E2E2E2E2E2E2E2E2E2E2E2E2E2E2E2E2E2E2E2E2E2E2E2E2E2E2E2E2E2E2E2E2E2E2E2E2E2E2E2E2E2E2E2E2E2E2E2E2E2E2E2E2E2E2E2E2E2E2E2E2E2E2E2E2E2E2E2E2E2E2E2E2E2
310
E2E2E2E2E2E2E2E2E2E2F5E2E2E2E2E2E2E2E2E2E2E2E2E2E2E2E2F5E2E2E2F5F5E2E2E2F5E2E2E2E2E2E2E2E2E2E2E2E2E2E2E2E2F5E2E2E2E2E2E2E2E2E2E2E2E2E2E2E2E2E2E2E2E2E2E2E2E2E2E2E2E2E2E2E2E2E2E2E2E2E2E2E2E2E2E2E2E2E2E2E2E2E2E2E2E2E2E2E2E2E2E2E2E2E2E2E2E2E2E2E2E2E2E2E2E2E2
310
E2E2E2E2E2E2E2E2E2E2E2E2E2E2E2E2E2E2E2E2E2E2E2E2E2E2E2E2E2E2E2E2E2E2E2E2E2E2E2E2E2E2E2E2E2E2E2E2E2E2E2E2E2E2E2E2E2E2E2E2E2E2E2F5E2E2E2E2E2E2E2E2E2E2E2E2E2E2E2E2F5E2E2E2F5F5E2E2E2F5E2E2E2E2E2E2E2E2E2E2E2E2E2E2E2E2F5E2E2E2E2E2E2E2E2E2E2E2E2E2E2E2E2E2E2E2E2
310
E2E2E2E2E2E2E2E2E2E2E2E2E2E2E2E2E2E2E2E2E2E2E2E2E2E2E2E2E2E2E2E2E2E2E2E2E2E2E2E2E2E2E2E2E2E2E2E2E2E2E2E2E2E2E2E2E2E2E2E2E2E2E2E2E2E2E2E2E2E2E2E2E2E2E2E2E2E2E2E2E2E2E2E2E2E2E2E2E2E2E2E2E2E2E2E2E2E2E2E2E2E2E2E2E2E2E2E2E2E2E2E2E2E2E2E2F5E2E2E2E2E2E2E2E2E2E2
310
E2E2E2E2E2E2F5E2E2E2F5F5E2E2E2F5E2E2E2E2E2E2E2E2E2E2E2E2E2E2E2E2F5E2E2E2E2E2E2E2E2E2E2E2E2E2E2E2E2E2E2E2E2E2E2E2E2E2E2E2E2E2E2E2E2E2E2E2E2E2E2E2E2E2E2E2E2E2E2E2E2E2E2E2E2E2E2E2E2E2E2E2E2E2E2E2E2E2E2E2E2E2E2E2E2E2E2E2E2E2E2E2E2E2E2E2E2E2E2E2E2E2E2E2E2E2E2
310
E2E2E2E2E2E2E2E2E2E2E2E2E2E2E2E2E2E2E2E2E2E2E2E2E2E2E2E2E2E2E2E2E2E2E2E2E2E2E2E2E2E2F5E2E2E2E2E2E2E2E2E2E2E2E2E2E2E2E2F5E2E2E2F5F5E2E2E2E2E2E2E2E2E2E2E2E2E2E2E2E2E2E2E2E2F5E2E2E2E2E2E2E2E2E2E2E2E2E2E2E2E2E2E2E2E2E2E2E2E2E2E2E2E2E2E2E2E2E2E2E2E2E2E2E2E2E2
310
E2E2E2E2E2E2E2E2E2E2E2E2E2E2E2E2E2E2E2E2E2E2E2E2E2E2E2E2E2E2E2E2E2E2E2E2E2E2E2E2E2E2E2E2E2E2E2E2E2E2E2E2E2E2E2E2E2E2E2E2E2E2E2E2E2E2E2E2E2E2E2E2E2E2E2E2E2E2E2E2E2E2E2E2E2E2E2E2E2E2E2E2E2E2E2F5E2E2E2E2E2E2E2E2E2E2E2E2E2E2E2E2E2E2E2E2F5F5E2E2E2E2E2E2E2E2E2
310
E2E2E2E2E2E2E2E2E2E2E2F5E2E2E2E2E2E2E2E2E2E2E2E2E2E2E2E2E2E2E2E2E2E2E2E2E2E2E2E2E2E2E2E2E2E2E2E2E2E2E2E2E2E2E2E2E2E2E2E2E2E2E2E2E2E2E2E2E2E2E2E2E2E2E2E2E2E2E2E2E2E2E2E2E2E2E2E2E2E2E2E2E2E2E2E2E2E2E2E2E2E2E2E2E2E2E2E2E2E2E2E2E2E2E2E2E2E2E2E2E2E2E2E2E2E2E2
310
E2E2E2E2E2E2E2E2E2E2E2E2E2E2E2E2E2E2E2E2E2F5E2E2E2E2E2E2E2E2E2E2E2E2E2E2E2E2E2E2E2E2F5F5E2E2E2E2E2E2E2E2E2E2E2E2E2E2E2E2E2E2E2E2F5E2E2E2E2E2E2E2E2E2E2E2E2E2E2E2E2E2E2E2E2E2E2E2E2E2E2E2E2E2E2E2E2E2E2E2E2E2E2E2E2E2E2E2E2E2E2E2E2E2E2E2E2E2E2E2E2E2E2E2E2E2E2
310
E2E2E2E2E2E2E2E2E2E2E2E2E2E2E2E2E2E2E2E2E2E2E2E2E2E2E2E2E2E2E2E2E2E2E2E2E2E2E2E2E2E2E2E2E2E2E2E2E2E2E2E2E2E2E2E2E2E2E2E2E2E2E2E2E2E2E2E2E2E2E2E2E2E2F5E2E2E2E2E2E2E2E2E2E2E2E2E2E2E2E2E2E2E2E2F5F5E2E2E2E2E2E2E2E2E2E2E2E2E2E2E2E2E2E2E2E2F5E2E2E2E2E2E2E2E2E2
310
E2E2E2E2E2E2E2E2E2E2E2E2E2E2E2E2E2E2E2E2E2E2E2E2E2E2E2E2E2E2E2E2E2E2E2E2E2E2E2E2E2E2E2E2E2E2E2E2E2E2E2E2E2E2E2E2E2E2E2E2E2E2E2E2E2E2E2E2E2E2E2E2E2E2E2E2E2E2E2E2E2E2E2E2E2E2E2E2E2E2E2E2E2E2E2E2E2E2E2E2E2E2E2E2E2E2E2E2E2E2E2E2E2E2E2E2E2E2E2E2E2E2E2E2E2E2E2
310
F5E2E2E2E2E2E2E2E2E2E2E2E2E2E2E2E2E2E2E2E2F5F5E2E2E2E2E2E2E2E2E2E2E2E2E2E2E2E2E2E2E2E2F5E2E2E2E2E2E2E2E2E2E2E2E2E2E2E2E2E2E2E2E2E2E2E2E2E2E2E2E2E2E2E2E2E2E2E2E2E2E2E2E2E2E2E2E2E2E2E2E2E2E2E2E2E2E2E2E2E2E2E2E2E2E2E2E2E2E2E2E2E2E2E2E2E2E2E2E2E2E2E2E2E2E2E2
310
E2E2E2E2E2E2E2E2E2E2E2E2E2E2E2E2E2E2E2E2E2E2E2E2E2E2E2E2E2E2E2E2E2E2E2E2E2E2E2E2E2E2E2E2E2E2E2E2E2E2E2E2E2F5E2E2E2E2E2E2E2E2E2E2E2E2E2E2E2E2E2E2E2E2F5F5E2E2E2E2E2E2E2E2E2E2E2E2E2E2E2E2E2E2E2E2F5E2E2E2E2E2E2E2E2E2E2E2E2E2E2E2E2E2E2E2E2E2E2E2E2E2E2E2E2E2E2
310
E2E2E2E2E2E2E2E2E2E2E2E2E2E2E2E2E2E2E2E2E2E2E2E2E2E2E2E2E2E2E2E2E2E2E2E2E2E2E2E2E2E2E2E2E2E2E2E2E2E2E2E2E2E2E2E2E2E2E2E2E2E2E2E2E2E2E2E2E2E2E2E2E2E2E2E2E2E2E2E2E2E2E2E2E2E2E2E2E2E2E2E2E2E2E2E2E2E2E2E2E2E2E2E2E2E2F5E2E2E2E2E2E2E2E2E2E2E2E2E2E2E2E2E2E2E2E2
310
F5F5E2E2E2E2E2E2E2E2E2E2E2E2E2E2E2E2E2E2E2E2F5E2E2E2E2E2E2E2E2E2E2E2E2E2E2E2E2E2E2E2E2E2E2E2E2E2E2E2E2E2E2E2E2E2E2E2E2E2E2E2E2E2E2E2E2E2E2E2E2E2E2E2E2E2E2E2E2E2E2E2E2E2E2E2E2E2E2E2E2E2E2E2E2E2E2E2E2E2E2E2E2E2E2E2E2E2E2E2E2E2E2E2E2E2E2E2E2E2E2E2E2E2E2E2E2
310
E2E2E2E2E2E2E2E2E2E2E2E2E2E2E2E2E2E2E2E2E2E2E2E2E2E2E2E2E2E2E2E2F5E2E2E2E2E2E2E2E2E2E2E2E2E2E2E2E2E2E2E2E2F5F5E2E2E2E2E2E2E2E2E2E2E2E2E2E2E2E2E2E2E2E2F5E2E2E2E2E2E2E2E2E2E2E2E2E2E2E2E2E2E2E2E2E2E2E2E2E2E2E2E2E2E2E2E2E2E2E2E2E2E2E2E2E2E2E2E2E2E2E2E2E2E2E2
310
E2E2E2E2E2E2E2E2E2E2E2E2E2E2E2E2E2E2E2E2E2E2E2E2E2E2E2E2E2E2E2E2E2E2E2E2E2E2E2E2E2E2E2E2E2E2E2E2E2E2E2E2E2E2E2E2E2E2E2E2E2E2E2E2E2E2E2E2E2E2E2E2E2E2E2E2E2E2E2E2E2E2E2E2E2F5E2E2E2E2E2E2E2E2E2E2E2E2E2E2E2E2E2E2E2E2F5F5E2E2E2E2E2E2E2E2E2E2E2E2E2E2E2E2E2E2E2
310
E2F5E2E2E2E2E2E2E2E2E2E2E2E2E2E2E2E2E2E2E2E2E2E2E2E2E2E2E2E2E2E2E2E2E2E2E2E2E2E2E2E2E2E2E2E2E2E2E2E2E2E2E2E2E2E2E2E2E2E2E2E2E2E2E2E2E2E2E2E2E2E2E2E2E2E2E2E2E2E2E2E2E2E2E2E2E2E2E2E2E2E2E2E2E2E2E2E2E2E2E2E2E2E2E2E2E2E2E2E2E2E2E2E2E2E2E2E2E2E2E2E2E2E2E2E2E2
310
E2E2E2E2E2E2E2E2E2E2E2F5E2E2E2E2E2E2E2E2E2E2E2E2E2E2E2E2E2E2E2E2F5F5E2E2E2E2E2E2E2E2E2E2E2E2E2E2E2E2E2E2E2E2F5E2E2E2E2E2E2E2E2E2E2E2E2E2E2E2E2E2E2E2E2E2E2E2E2E2E2E2E2E2E2E2E2E2E2E2E2E2E2E2E2E2E2E2E2E2E2E2E2E2E2E2E2E2E2E2E2E2E2E2E2E2E2E2E2E2E2E2E2E2E2E2E2
310
E2E2E2E2E2E2E2E2E2E2E2E2E2E2E2E2E2E2E2E2E2E2E2E2E2E2E2E2E2E2E2E2E2E2E2E2E2E2E2E2E2E2E2E2E2E2E2E2E2E2E2E2E2E2E2E2E2E2E2E2E2E2E2E2F5E2E2E2E2E2E2E2E2E2E2E2E2E2E2E2E2E2E2E2E2F5F5E2E2E2F5E2E2E2E2E2E2E2E2E2E2E2E2E2E2E2E2F5E2E2E2E2E2E2E2E2E2E2E2E2E2E2E2E2E2E2E2
310
E2E2E2E2E2E2E2E2E2E2E2E2E2E2E2E2E2E2E2E2E2E2E2E2E2E2E2E2E2E2E2E2E2E2E2E2E2E2E2E2E2E2E2E2E2E2E2E2E2E2E2E2E2E2E2E2E2E2E2E2E2E2E2E2E2E2E2E2E2E2E2E2E2E2E2E2E2E2E2E2E2E2E2E2E2E2E2E2E2E2E2E2E2E2E2E2E2E2E2E2E2E2E2E2E2E2E2E2E2E2E2E2E2E2E2E2E2F5E2E2E2E2E2E2E2E2E2
310
E2E2E2E2E2E2E2F5E2E2E2F5F5E2E2E2F5E2E2E2E2E2E2E2E2E2E2E2E2E2E2E2E2F5E2E2E2E2E2E2E2E2E2E2E2E2E2E2E2E2E2E2E2E2E2E2E2E2E2E2E2E2E2E2E2E2E2E2E2E2E2E2E2E2E2E2E2E2E2E2E2E2E2E2E2E2E2E2E2E2E2E2E2E2E2E2E2E2E2E2E2E2E2E2E2E2E2E2E2E2E2E2E2E2E2E2E2E2E2E2E2E2E2E2E2E2E2
310
E2E2E2E2E2E2E2E2E2E2E2E2E2E2E2E2E2E2E2E2E2E2E2E2E2E2E2E2E2E2E2E2E2E2E2E2E2E2E2E2E2E2E2F5E2E2E2E2E2E2E2E2E2E2E2E2E2E2E2E2F5E2E2E2F5F5E2E2E2F5E2E2E2E2E2E2E2E2E2E2E2E2E2E2E2E2F5E2E2E2E2E2E2E2E2E2E2E2E2E2E2E2E2E2E2E2E2E2E2E2E2E2E2E2E2E2E2E2E2E2E2E2E2E2E2E2E2
310
E2E2E2E2E2E2E2E2E2E2E2E2E2E2E2E2E2E2E2E2E2E2E2E2E2E2E2E2E2E2E2E2E2E2E2E2E2E2E2E2E2E2E2E2E2E2E2E2E2E2E2E2E2E2E2E2E2E2E2E2E2E2E2E2E2E2E2E2E2E2E2E2E2E2E2E2E2E2E2E2E2E2E2E2E2E2E2E2E2E2E2E2E2E2E2E2F5E2E2E2E2E2E2E2E2E2E2E2E2E2E2E2E2F5E2E2E2F5F5E2E2E2F5E2E2E2E2
310
E2E2E2E2E2E2E2E2E2E2E2E2F5E2E2E2E2E2E2E2E2E2E2E2E2E2E2E2E2E2E2E2E2E2E2E2E2E2E2E2E2E2E2E2E2E2E2E2E2E2E2E2E2E2E2E2E2E2E2E2E2E2E2E2E2E2E2E2E2E2E2E2E2E2E2E2E2E2E2E2E2E2E2E2E2E2E2E2E2E2E2E2E2E2E2E2E2E2E2E2E2E2E2E2E2E2E2E2E2E2E2E2E2E2E2E2E2E2E2E2E2E2E2E2E2E2E2
310
E2E2E2E2E2E2E2E2E2E2E2E2E2E2E2E2E2E2E2E2E2E2F5E2E2E2E2E2E2E2E2E2E2E2E2E2E2E2E2F5E2E2E2F5F5E2E2E2F5E2E2E2E2E2E2E2E2E2E2E2E2E2E2E2E2F5E2E2E2E2E2E2E2E2E2E2E2E2E2E2E2E2E2E2E2E2E2E2E2E2E2E2E2E2E2E2E2E2E2E2E2E2E2E2E2E2E2E2E2E2E2E2E2E2E2E2E2E2E2E2E2E2E2E2E2E2E2
310
E2E2E2E2E2E2E2E2E2E2E2E2E2E2E2E2E2E2E2E2E2E2E2E2E2E2E2E2E2E2E2E2E2E2E2E2E2E2E2E2E2E2E2E2E2E2E2E2E2E2E2E2E2E2E2E2E2E2E2E2E2E2E2E2E2E2E2E2E2E2E2E2E2E2E2F5E2E2E2E2E2E2E2E2E2E2E2E2E2E2E2E2F5E2E2E2F5F5E2E2E2F5E2E2E2E2E2E2E2E2E2E2E2E2E2E2E2E2F5E2E2E2E2E2E2E2E2
310
E2E2E2E2E2E2E2E2E2E2E2E2E2E2E2E2E2E2E2E2E2E2E2E2E2E2E2E2E2E2E2E2E2E2E2E2E2E2E2E2E2E2E2E2E2E2E2E2E2E2E2E2E2E2E2E2E2E2E2E2E2E2E2E2E2E2E2E2E2E2E2E2E2E2E2E2E2E2E2E2E2E2E2E2E2E2E2E2E2E2E2E2E2E2E2E2E2E2E2E2E2E2E2E2E2E2E2E2E2E2E2E2E2E2E2E2E2E2E2E2E2E2E2E2E2E2E2
310
E2F5E2E2E2E2E2E2E2E2E2E2E2E2E2E2E2E2F5E2E2E2F5F5E2E2E2F5E2E2E2E2E2E2E2E2E2E2E2E2E2E2E2E2F5E2E2E2E2E2E2E2E2E2E2E2E2E2E2E2E2E2E2E2E2E2E2E2E2E2E2E2E2E2E2E2E2E2E2E2E2E2E2E2E2E2E2E2E2E2E2E2E2E2E2E2E2E2E2E2E2E2E2E2E2E2E2E2E2E2E2E2E2E2E2E2E2E2E2E2E2E2E2E2E2E2E2
310
E2E2E2E2E2E2E2E2E2E2E2E2E2E2E2E2E2E2E2E2E2E2E2E2E2E2E2E2E2E2E2E2E2E2E2E2E2E2E2E2E2E2E2E2E2E2E2E2E2E2E2E2E2E2F5E2E2E2E2E2E2E2E2E2E2E2E2E2E2E2E2F5E2E2E2F5F5E2E2E2F5E2E2E2E2E2E2E2E2E2E2E2E2E2E2E2E2F5E2E2E2E2E2E2E2E2E2E2E2E2E2E2E2E2E2E2E2E2E2E2E2E2E2E2E2E2E2
310
E2E2E2E2E2E2E2E2E2E2E2E2E2E2E2E2E2E2E2E2E2E2E2E2E2E2E2E2E2E2E2E2E2E2E2E2E2E2E2E2E2E2E2E2E2E2E2E2E2E2E2E2E2E2E2E2E2E2E2E2E2E2E2E2E2E2E2E2E2E2E2E2E2E2E2E2E2E2E2E2E2E2E2E2E2E2E2E2E2E2E2E2E2E2E2E2E2E2E2E2E2E2E2E2E2E2E2F5E2E2E2E2E2E2E2E2E2E2E2E2E2E2E2E2F5E2E2
310
E2F5F5E2E2E2F5E2E2E2E2E2E2E2E2E2E2E2E2E2E2E2E2F5E2E2E2E2E2E2E2E2E2E2E2E2E2E2E2E2E2E2E2E2E2E2E2E2E2E2E2E2E2E2E2E2E2E2E2E2E2E2E2E2E2E2E2E2E2E2E2E2E2E2E2E2E2E2E2E2E2E2E2E2E2E2E2E2E2E2E2E2E2E2E2E2E2E2E2E2E2E2E2E2E2E2E2E2E2E2E2E2E2E2E2E2E2E2E2E2E2E2E2E2E2E2E2
310
E2E2E2E2E2E2E2E2E2E2E2E2E2E2E2E2E2E2E2E2E2E2E2E2E2E2E2E2E2E2E2E2E2F5E2E2E2E2E2E2E2E2E2E2E2E2E2E2E2E2F5E2E2E2F5F5E2E2E2F5E2E2E2E2E2E2E2E2E2E2E2E2E2E2E2E2F5E2E2E2E2E2E2E2E2E2E2E2E2E2E2E2E2E2E2E2E2E2E2E2E2E2E2E2E2E2E2E2E2E2E2E2E2E2E2E2E2E2E2E2E2E2E2E2E2E2E2
310
E2E2E2E2E2E2E2E2E2E2E2E2E2E2E2E2E2E2E2E2E2E2E2E2E2E2E2E2E2E2E2E2E2E2E2E2E2E2E2E2E2E2E2E2E2E2E2E2E2E2E2E2E2E2E2E2E2E2E2E2E2E2E2E2E2E2E2E2E2E2E2E2E2E2E2E2E2E2E2E2E2E2E2E2E2E2F5E2E2E2E2E2E2E2E2E2E2E2E2E2E2E2E2F5E2E2E2F5F5E2E2E2F5E2E2E2E2E2E2E2E2E2E2E2E2E2E2
310
E2E2F5E2E2E2E2E2E2E2E2E2E2E2E2E2E2E2E2E2E2E2E2E2E2E2E2E2E2E2E2E2E2E2E2E2E2E2E2E2E2E2E2E2E2E2E2E2E2E2E2E2E2E2E2E2E2E2E2E2E2E2E2E2E2E2E2E2E2E2E2E2E2E2E2E2E2E2E2E2E2E2E2E2E2E2E2E2E2E2E2E2E2E2E2E2E2E2E2E2E2E2E2E2E2E2E2E2E2E2E2E2E2E2E2E2E2E2E2E2E2E2E2E2E2E2E2
310
E2E2E2E2E2E2E2E2E2E2E2E2F5E2E2E2E2E2E2E2E2E2E2E2E2E2E2E2E2F5E2E2E2F5F5E2E2E2F5E2E2E2E2E2E2E2E2E2E2E2E2E2E2E2E2F5E2E2E2E2E2E2E2E2E2E2E2E2E2E2E2E2E2E2E2E2E2E2E2E2E2E2E2E2E2E2E2E2E2E2E2E2E2E2E2E2E2E2E2E2E2E2E2E2E2E2E2E2E2E2E2E2E2E2E2E2E2E2E2E2E2E2E2E2E2E2E2
310
E2E2E2E2E2E2E2E2E2E2E2E2E2E2E2E2E2E2E2E2E2E2E2E2E2E2E2E2E2E2E2E2E2E2E2E2E2E2E2E2E2E2E2E2E2E2E2E2E2E2E2E2E2E2E2E2E2E2E2E2E2E2E2E2E2F5E2E2E2E2E2E2E2E2E2E2E2E2E2E2E2E2F5E2E2E2F5F5E2E2E2F5E2E2E2E2E2E2E2E2E2E2E2E2E2E2E2E2F5E2E2E2E2E2E2E2E2E2E2E2E2E2E2E2E2E2E2
310
E2E2E2E2E2E2E2E2E2E2E2E2E2E2E2E2E2E2E2E2E2E2E2E2E2E2E2E2E2E2E2E2E2E2E2E2E2E2E2E2E2E2E2E2E2E2E2E2E2E2E2E2E2E2E2E2E2E2E2E2E2E2E2E2E2E2E2E2E2E2E2E2E2E2E2E2E2E2E2E2E2E2E2E2E2E2E2E2E2E2E2E2E2E2E2E2E2E2E2E2E2E2E2E2E2E2E2E2E2E2E2E2E2E2E2E2E2E2F5E2E2E2E2E2E2E2E2
310
E2E2E2E2E2E2E2E2F5E2E2E2F5F5E2E2E2F5E2E2E2E2E2E2E2E2E2E2E2E2E2E2E2E2F5E2E2E2E2E2E2E2E2E2E2E2E2E2E2E2E2E2E2E2E2E2E2E2E2E2E2E2E2E2E2E2E2E2E2E2E2E2E2E2E2E2E2E2E2E2E2E2E2E2E2E2E2E2E2E2E2E2E2E2E2E2E2E2E2E2E2E2E2E2E2E2E2E2E2E2E2E2E2E2E2E2E2E2E2E2E2E2E2E2E2E2E2
310
E2E2E2E2E2E2E2E2E2E2E2E2E2E2E2E2E2E2E2E2E2E2E2E2E2E2E2E2E2E2E2E2E2E2E2E2E2E2E2E2E2E2E2E2F5E2E2E2E2E2E2E2E2E2E2E2E2E2E2E2E2F5E2E2E2F5F5E2E2E2F5E2E2E2E2E2E2E2E2E2E2E2E2E2E2E2E2F5E2E2E2E2E2E2E2E2E2E2E2E2E2E2E2E2E2E2E2E2E2E2E2E2E2E2E2E2E2E2E2E2E2E2E2E2E2E2E2
310
E2E2E2E2E2E2E2E2E2E2E2E2E2E2E2E2E2E2E2E2E2E2E2E2E2E2E2E2E2E2E2E2E2E2E2E2E2E2E2E2E2E2E2E2E2E2E2E2E2E2E2E2E2E2E2E2E2E2E2E2E2E2E2E2E2E2E2E2E2E2E2E2E2E2E2E2E2E2E2E2E2E2E2E2E2E2E2E2E2E2E2E2E2E2E2E2E2F5E2E2E2E2E2E2E2E2E2E2E2E2E2E2E2E2F5E2E2E2F5F5E2E2E2F5E2E2E2
310
E2E2E2E2E2E2E2E2E2E2E2E2E2F5E2E2E2E2E2E2E2E2E2E2E2E2E2E2E2E2E2E2E2E2E2E2E2E2E2E2E2E2E2E2E2E2E2E2E2E2E2E2E2E2E2E2E2E2E2E2E2E2E2E2E2E2E2E2E2E2E2E2E2E2E2E2E2E2E2E2E2E2E2E2E2E2E2E2E2E2E2E2E2E2E2E2E2E2E2E2E2E2E2E2E2E2E2E2E2E2E2E2E2E2E2E2E2E2E2E2E2E2E2E2E2E2E2
310
E2E2E2E2E2E2E2E2E2E2E2E2E2E2E2E2E2E2E2E2E2E2E2F5E2E2E2E2E2E2E2E2E2E2E2E2E2E2E2E2F5E2E2E2F5F5E2E2E2E2E2E2E2E2E2E2E2E2E2E2E2E2E2E2E2E2F5E2E2E2E2E2E2E2E2E2E2E2E2E2E2E2E2E2E2E2E2E2E2E2E2E2E2E2E2E2E2E2E2E2E2E2E2E2E2E2E2E2E2E2E2E2E2E2E2E2E2E2E2E2E2E2E2E2E2E2E2
310
E2E2E2E2E2E2E2E2E2E2E2E2E2E2E2E2E2E2E2E2E2E2E2E2E2E2E2E2E2E2E2E2E2E2E2E2E2E2E2E2E2E2E2E2E2E2E2E2E2E2E2E2E2E2E2E2E2E2E2E2E2E2E2E2E2E2E2E2E2E2E2E2E2E2E2E2F5E2E2E2E2E2E2E2E2E2E2E2E2E2E2E2E2E2E2E2E2F5F5E2E2E2E2E2E2E2E2E2E2E2E2E2E2E2E2E2E2E2E2F5E2E2E2E2E2E2E2
310
E2E2E2E2E2E2E2E2E2E2E2E2E2E2E2E2E2E2E2E2E2E2E2E2E2E2E2E2E2E2E2E2E2E2E2E2E2E2E2E2E2E2E2E2E2E2E2E2E2E2E2E2E2E2E2E2E2E2E2E2E2E2E2E2E2E2E2E2E2E2E2E2E2E2E2E2E2E2E2E2E2E2E2E2E2E2E2E2E2E2E2E2E2E2E2E2E2E2E2E2E2E2E2E2E2E2E2E2E2E2E2E2E2E2E2E2E2E2E2E2E2E2E2E2E2E2E2
310
E2E2F5E2E2E2E2E2E2E2E2E2E2E2E2E2E2E2E2E2E2E2E2F5F5E2E2E2E2E2E2E2E2E2E2E2E2E2E2E2E2E2E2E2E2F5E2E2E2E2E2E2E2E2E2E2E2E2E2E2E2E2E2E2E2E2E2E2E2E2E2E2E2E2E2E2E2E2E2E2E2E2E2E2E2E2E2E2E2E2E2E2E2E2E2E2E2E2E2E2E2E2E2E2E2E2E2E2E2E2E2E2E2E2E2E2E2E2E2E2E2E2E2E2E2E2E2
310
E2E2E2E2E2E2E2E2E2E2E2E2E2E2E2E2E2E2E2E2E2E2E2E2E2E2E2E2E2E2E2E2E2E2E2E2E2E2E2E2E2E2E2E2E2E2E2E2E2E2E2E2E2E2E2F5E2E2E2E2E2E2E2E2E2E2E2E2E2E2E2E2E2E2E2E2F5F5E2E2E2E2E2E2E2E2E2E2E2E2E2E2E2E2E2E2E2E2F5E2E2E2E2E2E2E2E2E2E2E2E2E2E2E2E2E2E2E2E2E2E2E2E2E2E2E2E2
310
E2E2E2E2E2E2E2E2E2E2E2E2E2E2E2E2E2E2E2E2E2E2E2E2E2E2E2E2E2E2E2E2E2E2E2E2E2E2E2E2E2E2E2E2E2E2E2E2E2E2E2E2E2E2E2E2E2E2E2E2E2E2E2E2E2E2E2E2E2E2E2E2E2E2E2E2E2E2E2E2E2E2E2E2E2E2E2E2E2E2E2E2E2E2E2E2E2E2E2E2E2E2E2E2E2E2E2E2F5E2E2E2E2E2E2E2E2E2E2E2E2E2E2E2E2E2E2
310
E2E2F5F5E2E2E2E2E2E2E2E2E2E2E2E2E2E2E2E2E2E2E2E2F5E2E2E2E2E2E2E2E2E2E2E2E2E2E2E2E2E2E2E2E2E2E2E2E2E2E2E2E2E2E2E2E2E2E2E2E2E2E2E2E2E2E2E2E2E2E2E2E2E2E2E2E2E2E2E2E2E2E2E2E2E2E2E2E2E2E2E2E2E2E2E2E2E2E2E2E2E2E2E2E2E2E2E2E2E2E2E2E2E2E2E2E2E2E2E2E2E2E2E2E2E2E2
310
E2E2E2E2E2E2E2E2E2E2E2E2E2E2E2E2E2E2E2E2E2E2E2E2E2E2E2E2E2E2E2E2E2E2F5E2E2E2E2E2E2E2E2E2E2E2E2E2E2E2E2E2E2E2E2F5F5E2E2E2E2E2E2E2E2E2E2E2E2E2E2E2E2E2E2E2E2F5E2E2E2E2E2E2E2E2E2E2E2E2E2E2E2E2E2E2E2E2E2E2E2E2E2E2E2E2E2E2E2E2E2E2E2E2E2E2E2E2E2E2E2E2E2E2E2E2E2
310
E2E2E2E2E2E2E2E2E2E2E2E2E2E2E2E2E2E2E2E2E2E2E2E2E2E2E2E2E2E2E2E2E2E2E2E2E2E2E2E2E2E2E2E2E2E2E2E2E2E2E2E2E2E2E2E2E2E2E2E2E2E2E2E2E2E2E2E2E2E2E2E2E2E2E2E2E2E2E2E2E2E2E2E2E2E2E2F5E2E2E2E2E2E2E2E2E2E2E2E2E2E2E2E2E2E2E2E2F5F5E2E2E2E2E2E2E2E2E2E2E2E2E2E2E2E2E2
310
E2E2E2F5E2E2E2E2E2E2E2E2E2E2E2E2E2E2E2E2E2E2E2E2E2E2E2E2E2E2E2E2E2E2E2E2E2E2E2E2E2E2E2E2E2E2E2E2E2E2E2E2E2E2E2E2E2E2E2E2E2E2E2E2E2E2E2E2E2E2E2E2E2E2E2E2E2E2E2E2E2E2E2E2E2E2E2E2E2E2E2E2E2E2E2E2E2E2E2E2E2E2E2E2E2E2E2E2E2E2E2E2E2E2E2E2E2E2E2E2E2E2E2E2E2E2E2
310
E2E2E2E2E2E2E2E2E2E2E2E2E2F5E2E2E2E2E2E2E2E2E2E2E2E2E2E2E2E2E2E2E2E2F5F5E2E2E2E2E2E2E2E2E2E2E2E2E2E2E2E2E2E2E2E2F5E2E2E2E2E2E2E2E2E2E2E2E2E2E2E2E2E2E2E2E2E2E2E2E2E2E2E2E2E2E2E2E2E2E2E2E2E2E2E2E2E2E2E2E2E2E2E2E2E2E2E2E2E2E2E2E2E2E2E2E2E2E2E2E2E2E2E2E2E2E2
310
E2E2E2E2E2E2E2E2E2E2E2E2E2E2E2E2E2E2E2E2E2E2E2E2E2E2E2E2E2E2E2E2E2E2E2E2E2E2E2E2E2E2E2E2E2E2E2E2E2E2E2E2E2E2E2E2E2E2E2E2E2E2E2E2E2E2F5E2E2E2E2E2E2E2E2E2E2E2E2E2E2E2E2E2E2E2E2F5F5E2E2E2E2E2E2E2E2E2E2E2E2E2E2E2E2E2E2E2E2F5E2E2E2E2E2E2E2E2E2E2E2E2E2E2E2E2E2
310
E2E2E2E2E2E2E2E2E2E2E2E2E2E2E2E2E2E2E2E2E2E2E2E2E2E2E2E2E2E2E2E2E2E2E2E2E2E2E2E2E2E2E2E2E2E2E2E2E2E2E2E2E2E2E2E2E2E2E2E2E2E2E2E2E2E2E2E2E2E2E2E2E2E2E2E2E2E2E2E2E2E2E2E2E2E2E2E2E2E2E2E2E2E2E2E2E2E2E2E2E2E2E2E2E2E2E2E2E2E2E2E2E2E2E2E2E2E2E2F5E2E2E2E2E2E2E2
310
E2E2E2E2E2E2E2E2E2E2E2E2E2F5F5E2E2E2F5E2E2E2E2E2E2E2E2E2E2E2E2E2E2E2E2F5E2E2E2E2E2E2E2E2E2E2E2E2E2E2E2E2E2E2E2E2E2E2E2E2E2E2E2E2E2E2E2E2E2E2E2E2E2E2E2E2E2E2E2E2E2E2E2E2E2E2E2E2E2E2E2E2E2E2E2E2E2E2E2E2E2E2E2E2E2E2E2E2E2E2E2E2E2E2E2E2E2E2E2E2E2E2E2E2E2E2E2
310
E2E2E2E2E2E2E2E2E2E2E2E2E2E2E2E2E2E2E2E2E2E2E2E2E2E2E2E2E2E2E2E2E2E2E2E2E2E2E2E2E2E2E2E2E2F5E2E2E2E2E2E2E2E2E2E2E2E2E2E2E2E2F5E2E2E2F5F5E2E2E2F5E2E2E2E2E2E2E2E2E2E2E2E2E2E2E2E2F5E2E2E2E2E2E2E2E2E2E2E2E2E2E2E2E2E2E2E2E2E2E2E2E2E2E2E2E2E2E2E2E2E2E2E2E2E2E2
310
E2E2E2E2E2E2E2E2E2E2E2E2E2E2E2E2E2E2E2E2E2E2E2E2E2E2E2E2E2E2E2E2E2E2E2E2E2E2E2E2E2E2E2E2E2E2E2E2E2E2E2E2E2E2E2E2E2E2E2E2E2E2E2E2E2E2E2E2E2E2E2E2E2E2E2E2E2E2E2E2E2E2E2E2E2E2E2E2E2E2E2E2E2E2E2E2E2E2F5E2E2E2E2E2E2E2E2E2E2E2E2E2E2E2E2F5E2E2E2F5F5E2E2E2F5E2E2
310
E2E2E2E2E2E2E2E2E2E2E2E2E2E2F5E2E2E2E2E2E2E2E2E2E2E2E2E2E2E2E2E2E2E2E2E2E2E2E2E2E2E2E2E2E2E2E2E2E2E2E2E2E2E2E2E2E2E2E2E2E2E2E2E2E2E2E2E2E2E2E2E2E2E2E2E2E2E2E2E2E2E2E2E2E2E2E2E2E2E2E2E2E2E2E2E2E2E2E2E2E2E2E2E2E2E2E2E2E2E2E2E2E2E2E2E2E2E2E2E2E2E2E2E2E2E2E2
310
E2E2E2E2E2E2E2E2E2E2E2E2E2E2E2E2E2E2E2E2E2E2E2E2F5E2E2E2E2E2E2E2E2E2E2E2E2E2E2E2E2F5E2E2E2F5F5E2E2E2F5E2E2E2E2E2E2E2E2E2E2E2E2E2E2E2E2F5E2E2E2E2E2E2E2E2E2E2E2E2E2E2E2E2E2E2E2E2E2E2E2E2E2E2E2E2E2E2E2E2E2E2E2E2E2E2E2E2E2E2E2E2E2E2E2E2E2E2E2E2E2E2E2E2E2E2E2
310
E2E2E2E2E2E2E2E2E2E2E2E2E2E2E2E2E2E2E2E2E2E2E2E2E2E2E2E2E2E2E2E2E2E2E2E2E2E2E2E2E2E2E2E2E2E2E2E2E2E2E2E2E2E2E2E2E2E2E2E2E2E2E2E2E2E2E2E2E2E2E2E2E2E2E2E2E2F5E2E2E2E2E2E2E2E2E2E2E2E2E2E2E2E2F5E2E2E2F5F5E2E2E2F5E2E2E2E2E2E2E2E2E2E2E2E2E2E2E2E2F5E2E2E2E2E2E2
310
E2E2E2E2E2E2E2E2E2E2E2E2E2E2E2E2E2E2E2E2E2E2E2E2E2E2E2E2E2E2E2E2E2E2E2E2E2E2E2E2E2E2E2E2E2E2E2E2E2E2E2E2E2E2E2E2E2E2E2E2E2E2E2E2E2E2E2E2E2E2E2E2E2E2E2E2E2E2E2E2E2E2E2E2E2E2E2E2E2E2E2E2E2E2E2E2E2E2E2E2E2E2E2E2E2E2E2E2E2E2E2E2E2E2E2E2E2E2E2E2E2E2E2E2E2E2E2
310
E2E2E2F5E2E2E2E2E2E2E2E2E2E2E2E2E2E2E2E2F5E2E2E2F5F5E2E2E2F5E2E2E2E2E2E2E2E2E2E2E2E2E2E2E2E2F5E2E2E2E2E2E2E2E2E2E2E2E2E2E2E2E2E2E2E2E2E2E2E2E2E2E2E2E2E2E2E2E2E2E2E2E2E2E2E2E2E2E2E2E2E2E2E2E2E2E2E2E2E2E2E2E2E2E2E2E2E2E2E2E2E2E2E2E2E2E2E2E2E2E2E2E2E2E2E2E2
310
E2E2E2E2E2E2E2E2E2E2E2E2E2E2E2E2E2E2E2E2E2E2E2E2E2E2E2E2E2E2E2E2E2E2E2E2E2E2E2E2E2E2E2E2E2E2E2E2E2E2E2E2E2E2E2E2F5E2E2E2E2E2E2E2E2E2E2E2E2E2E2E2E2F5E2E2E2F5F5E2E2E2F5E2E2E2E2E2E2E2E2E2E2E2E2E2E2E2E2F5E2E2E2E2E2E2E2E2E2E2E2E2E2E2E2E2E2E2E2E2E2E2E2E2E2E2E2
310
E2E2E2E2E2E2E2E2E2E2E2E2E2E2E2E2E2E2E2E2E2E2E2E2E2E2E2E2E2E2E2E2E2E2E2E2E2E2E2E2E2E2E2E2E2E2E2E2E2E2E2E2E2E2E2E2E2E2E2E2E2E2E2E2E2E2E2E2E2E2E2E2E2E2E2E2E2E2E2E2E2E2E2E2E2E2E2E2E2E2E2E2E2E2E2E2E2E2E2E2E2E2E2E2E2E2E2E2E2F5E2E2E2E2E2E2E2E2E2E2E2E2E2E2E2E2F5
310
E2E2E2F5F5E2E2E2F5E2E2E2E2E2E2E2E2E2E2E2E2E2E2E2E2F5E2E2E2E2E2E2E2E2E2E2E2E2E2E2E2E2E2E2E2E2E2E2E2E2E2E2E2E2E2E2E2E2E2E2E2E2E2E2E2E2E2E2E2E2E2E2E2E2E2E2E2E2E2E2E2E2E2E2E2E2E2E2E2E2E2E2E2E2E2E2E2E2E2E2E2E2E2E2E2E2E2E2E2E2E2E2E2E2E2E2E2E2E2E2E2E2E2E2E2E2E2
310
E2E2E2E2E2E2E2E2E2E2E2E2E2E2E2E2E2E2E2E2E2E2E2E2E2E2E2E2E2E2E2E2E2E2E2F5E2E2E2E2E2E2E2E2E2E2E2E2E2E2E2E2F5E2E2E2F5F5E2E2E2F5E2E2E2E2E2E2E2E2E2E2E2E2E2E2E2E2F5E2E2E2E2E2E2E2E2E2E2E2E2E2E2E2E2E2E2E2E2E2E2E2E2E2E2E2E2E2E2E2E2E2E2E2E2E2E2E2E2E2E2E2E2E2E2E2E2
310
E2E2E2E2E2E2E2E2E2E2E2E2E2E2E2E2E2E2E2E2E2E2E2E2E2E2E2E2E2E2E2E2E2E2E2E2E2E2E2E2E2E2E2E2E2E2E2E2E2E2E2E2E2E2E2E2E2E2E2E2E2E2E2E2E2E2E2E2E2E2E2E2E2E2E2E2E2E2E2E2E2E2E2E2E2E2E2E2F5E2E2E2E2E2E2E2E2E2E2E2E2E2E2E2E2F5E2E2E2F5F5E2E2E2F5E2E2E2E2E2E2E2E2E2E2E2E2
310
E2E2E2E2F5E2E2E2E2E2E2E2E2E2E2E2E2E2E2E2E2E2E2E2E2E2E2E2E2E2E2E2E2E2E2E2E2E2E2E2E2E2E2E2E2E2E2E2E2E2E2E2E2E2E2E2E2E2E2E2E2E2E2E2E2E2E2E2E2E2E2E2E2E2E2E2E2E2E2E2E2E2E2E2E2E2E2E2E2E2E2E2E2E2E2E2E2E2E2E2E2E2E2E2E2E2E2E2E2E2E2E2E2E2E2E2E2E2E2E2E2E2E2E2E2E2E2
310
E2E2E2E2E2E2E2E2E2E2E2E2E2E2F5E2E2E2E2E2E2E2E2E2E2E2E2E2E2E2E2F5E2E2E2F5F5E2E2E2F5E2E2E2E2E2E2E2E2E2E2E2E2E2E2E2E2F5E2E2E2E2E2E2E2E2E2E2E2E2E2E2E2E2E2E2E2E2E2E2E2E2E2E2E2E2E2E2E2E2E2E2E2E2E2E2E2E2E2E2E2E2E2E2E2E2E2E2E2E2E2E2E2E2E2E2E2E2E2E2E2E2E2E2E2E2E2
310
E2E2E2E2E2E2E2E2E2E2E2E2E2E2E2E2E2E2E2E2E2E2E2E2E2E2E2E2E2E2E2E2E2E2E2E2E2E2E2E2E2E2E2E2E2E2E2E2E2E2E2E2E2E2E2E2E2E2E2E2E2E2E2E2E2E2E2F5E2E2E2E2E2E2E2E2E2E2E2E2E2E2E2E2F5E2E2E2F5F5E2E2E2F5E2E2E2E2E2E2E2E2E2E2E2E2E2E2E2E2F5E2E2E2E2E2E2E2E2E2E2E2E2E2E2E2E2
310
E2E2E2E2E2E2E2E2E2E2E2E2E2E2E2E2E2E2E2E2E2E2E2E2E2E2E2E2E2E2E2E2E2E2E2E2E2E2E2E2E2E2E2E2E2E2E2E2E2E2E2E2E2E2E2E2E2E2E2E2E2E2E2E2E2E2E2E2E2E2E2E2E2E2E2E2E2E2E2E2E2E2E2E2E2E2E2E2E2E2E2E2E2E2E2E2E2E2E2E2E2E2E2E2E2E2E2E2E2E2E2E2E2E2E2E2E2E2E2E2F5E2E2E2E2E2E2
310
E2E2E2E2E2E2E2E2E2E2F5E2E2E2F5F5E2E2E2F5E2E2E2E2E2E2E2E2E2E2E2E2E2E2E2E2F5E2E2E2E2E2E2E2E2E2E2E2E2E2E2E2E2E2E2E2E2E2E2E2E2E2E2E2E2E2E2E2E2E2E2E2E2E2E2E2E2E2E2E2E2E2E2E2E2E2E2E2E2E2E2E2E2E2E2E2E2E2E2E2E2E2E2E2E2E2E2E2E2E2E2E2E2E2E2E2E2E2E2E2E2E2E2E2E2E2E2
310
E2E2E2E2E2E2E2E2E2E2E2E2E2E2E2E2E2E2E2E2E2E2E2E2E2E2E2E2E2E2E2E2E2E2E2E2E2E2E2E2E2E2E2E2E2E2F5E2E2E2E2E2E2E2E2E2E2E2E2E2E2E2E2F5E2E2E2F5F5E2E2E2F5E2E2E2E2E2E2E2E2E2E2E2E2E2E2E2E2F5E2E2E2E2E2E2E2E2E2E2E2E2E2E2E2E2E2E2E2E2E2E2E2E2E2E2E2E2E2E2E2E2E2E2E2E2E2
310
E2E2E2E2E2E2E2E2E2E2E2E2E2E2E2E2E2E2E2E2E2E2E2E2E2E2E2E2E2E2E2E2E2E2E2E2E2E2E2E2E2E2E2E2E2E2E2E2E2E2E2E2E2E2E2E2E2E2E2E2E2E2E2E2E2E2E2E2E2E2E2E2E2E2E2E2E2E2E2E2E2E2E2E2E2E2E2E2E2E2E2E2E2E2E2E2E2E2E2F5E2E2E2E2E2E2E2E2E2E2E2E2E2E2E2E2F5E2E2E2F5F5E2E2E2F5E2
310
E2E2E2E2E2E2E2E2E2E2E2E2E2E2E2F5E2E2E2E2E2E2E2E2E2E2E2E2E2E2E2E2E2E2E2E2E2E2E2E2E2E2E2E2E2E2E2E2E2E2E2E2E2E2E2E2E2E2E2E2E2E2E2E2E2E2E2E2E2E2E2E2E2E2E2E2E2E2E2E2E2E2E2E2E2E2E2E2E2E2E2E2E2E2E2E2E2E2E2E2E2E2E2E2E2E2E2E2E2E2E2E2E2E2E2E2E2E2E2E2E2E2E2E2E2E2E2
310
E2E2E2E2E2E2E2E2E2E2E2E2E2E2E2E2E2E2E2E2E2E2E2E2E2F5E2E2E2E2E2E2E2E2E2E2E2E2E2E2E2E2F5E2E2E2F5F5E2E2E2F5E2E2E2E2E2E2E2E2E2E2E2E2E2E2E2E2F5E2E2E2E2E2E2E2E2E2E2E2E2E2E2E2E2E2E2E2E2E2E2E2E2E2E2E2E2E2E2E2E2E2E2E2E2E2E2E2E2E2E2E2E2E2E2E2E2E2E2E2E2E2E2E2E2E2E2
310
E2E2E2E2E2E2E2E2E2E2E2E2E2E2E2E2E2E2E2E2E2E2E2E2E2E2E2E2E2E2E2E2E2E2E2E2E2E2E2E2E2E2E2E2E2E2E2E2E2E2E2E2E2E2E2E2E2E2E2E2E2E2E2E2E2E2E2E2E2E2E2E2E2E2E2E2E2E2F5E2E2E2E2E2E2E2E2E2E2E2E2E2E2E2E2F5E2E2E2F5F5E2E2E2F5E2E2E2E2E2E2E2E2E2E2E2E2E2E2E2E2F5E2E2E2E2E2
310
E2E2E2E2E2E2E2E2E2E2E2E2E2E2E2E2E2E2E2E2E2E2E2E2E2E2E2E2E2E2E2E2E2E2E2E2E2E2E2E2E2E2E2E2E2E2E2E2E2E2E2E2E2E2E2E2E2E2E2E2E2E2E2E2E2E2E2E2E2E2E2E2E2E2E2E2E2E2E2E2E2E2E2E2E2E2E2E2E2E2E2E2E2E2E2E2E2E2E2E2E2E2E2E2E2E2E2E2E2E2E2E2E2E2E2E2E2E2E2E2E2E2E2E2E2E2E2
310
E2E2E2E2F5E2E2E2E2E2E2E2E2E2E2E2E2E2E2E2E2F5E2E2E2F5F5E2E2E2E2E2E2E2E2E2E2E2E2E2E2E2E2E2E2E2E2F5E2E2E2E2E2E2E2E2E2E2E2E2E2E2E2E2E2E2E2E2E2E2E2E2E2E2E2E2E2E2E2E2E2E2E2E2E2E2E2E2E2E2E2E2E2E2E2E2E2E2E2E2E2E2E2E2E2E2E2E2E2E2E2E2E2E2E2E2E2E2E2E2E2E2E2E2E2E2E2
310
E2E2E2E2E2E2E2E2E2E2E2E2E2E2E2E2E2E2E2E2E2E2E2E2E2E2E2E2E2E2E2E2E2E2E2E2E2E2E2E2E2E2E2E2E2E2E2E2E2E2E2E2E2E2E2E2E2F5E2E2E2E2E2E2E2E2E2E2E2E2E2E2E2E2E2E2E2E2F5F5E2E2E2E2E2E2E2E2E2E2E2E2E2E2E2E2E2E2E2E2F5E2E2E2E2E2E2E2E2E2E2E2E2E2E2E2E2E2E2E2E2E2E2E2E2E2E2
310
E2E2E2E2E2E2E2E2E2E2E2E2E2E2E2E2E2E2E2E2E2E2E2E2E2E2E2E2E2E2E2E2E2E2E2E2E2E2E2E2E2E2E2E2E2E2E2E2E2E2E2E2E2E2E2E2E2E2E2E2E2E2E2E2E2E2E2E2E2E2E2E2E2E2E2E2E2E2E2E2E2E2E2E2E2E2E2E2E2E2E2E2E2E2E2E2E2E2E2E2E2E2E2E2E2E2E2E2E2E2F5E2E2E2E2E2E2E2E2E2E2E2E2E2E2E2E2
310
E2E2E2E2F5F5E2E2E2E2E2E2E2E2E2E2E2E2E2E2E2E2E2E2E2E2F5E2E2E2E2E2E2E2E2E2E2E2E2E2E2E2E2E2E2E2E2E2E2E2E2E2E2E2E2E2E2E2E2E2E2E2E2E2E2E2E2E2E2E2E2E2E2E2E2E2E2E2E2E2E2E2E2E2E2E2E2E2E2E2E2E2E2E2E2E2E2E2E2E2E2E2E2E2E2E2E2E2E2E2E2E2E2E2E2E2E2E2E2E2E2E2E2E2E2E2E2
310
E2E2E2E2E2E2E2E2E2E2E2E2E2E2E2E2E2E2E2E2E2E2E2E2E2E2E2E2E2E2E2E2E2E2E2E2F5E2E2E2E2E2E2E2E2E2E2E2E2E2E2E2E2E2E2E2E2F5F5E2E2E2E2E2E2E2E2E2E2E2E2E2E2E2E2E2E2E2E2F5E2E2E2E2E2E2E2E2E2E2E2E2E2E2E2E2E2E2E2E2E2E2E2E2E2E2E2E2E2E2E2E2E2E2E2E2E2E2E2E2E2E2E2E2E2E2E2
310
E2E2E2E2E2E2E2E2E2E2E2E2E2E2E2E2E2E2E2E2E2E2E2E2E2E2E2E2E2E2E2E2E2E2E2E2E2E2E2E2E2E2E2E2E2E2E2E2E2E2E2E2E2E2E2E2E2E2E2E2E2E2E2E2E2E2E2E2E2E2E2E2E2E2E2E2E2E2E2E2E2E2E2E2E2E2E2E2E2F5E2E2E2E2E2E2E2E2E2E2E2E2E2E2E2E2E2E2E2E2F5F5E2E2E2E2E2E2E2E2E2E2E2E2E2E2E2
310
E2E2E2E2E2F5F5F5F5F5F5F5F5F5F5F5F5F5F5F5F5F5F5F5F5F5F5F5F5F5F5F5F5F5F5F5F5F5F5F5F5F5F5F5F5F5F5F5F5F5F5F5F5F5F5F5F5F5F5F5F5F5F5F5F5F5F5F5F5F5F5F5F5F5F5F5F5F5F5F5F5F5F5F5F5F5F5F5F5F5F5F5F5F5F5F5F5F5F5F5F5F5F5F5F5F5F5F5F5F5F5F5F5F5F5F5F5F5F5F5F5F5F5F5F5F5F5
310
F5F5F5F5F5F5F5F5F5F5F5F5F5F5F5F5E2E2E2E2E2E2E2E2E2E2E2E2E2E2E2E2E2E2E2E2F5F5E2E2E2E2E2E2E2E2E2E2E2E2E2E2E2E2E2E2E2E2E2E2E2E2E2E2E2E2E2E2E2E2E2E2E2E2E2E2E2E2E2E2E2E2E2E2E2E2E2E2E2E2E2E2E2E2E2E2E2E2E2E2E2E2E2E2E2E2E2E2E2E2E2E2E2E2E2E2E2E2E2E2E2E2E2E2E2E2E2
310
E2E2E2E2E2E2E2E2E2E2E2E2E2E2E2E2E2E2E2E2E2E2E2E2E2E2E2E2E2E2E2E2E2E2E2E2E2E2E2E2E2E2E2E2E2E2E2E2E2E2E2E2E2E2E2E2E2E2E2E2E2E2E2E2E2E2E2E2E2E2E2E2E2E2E2E2E2E2E2E2E2E2E2E2E2E2E2E2E2F5F5E2E2E2E2E2E2E2E2E2E2E2E2E2E2E2E2E2E2E2E2E2E2E2E2E2E2E2E2E2E2E2E2E2E2E2E2
310
E2E2E2E2E2E2E2E2E2E2E2E2E2E2E2E2E2E2E2E2E2E2E2E2E2E2E2E2E2E2E2E2E2E2E2E2E2E2E2E2E2E2E2E2E2E2E2E2E2E2E2E2E2E2E2E2E2E2E2E2E2E2E2E2E2E2E2E2E2E2E2E2E2E2E2E2E2E2E2E2E2E2E2E2E2E2E2E2E2E2E2E2E2E2E2E2E2E2E2E2E2E2E2E2E2E2E2E2E2E2E2E2E2E2E2E2E2E2E2E2E2E2E2E2E2E2E2
310
E2E2E2E2E2E2E2E2E2E2E2E2E2E2E2F5F5E2E2E2E2E2E2E2E2E2E2E2E2E2E2E2E2E2E2E2E2E2E2E2E2E2E2E2E2E2E2E2E2E2E2E2E2E2E2E2E2E2E2E2E2E2E2E2E2E2E2E2E2E2E2E2E2E2E2E2E2E2E2E2E2E2E2E2E2E2E2E2E2E2E2E2E2E2E2E2E2E2E2E2E2E2E2E2E2E2E2E2E2E2E2E2E2E2E2E2E2E2E2E2E2E2E2E2E2E2E2
310
E2E2E2E2E2E2E2E2E2E2E2E2E2E2E2E2E2E2E2E2E2E2E2E2E2E2E2E2E2E2E2E2E2E2E2E2E2E2E2E2E2E2E2E2E2E2E2E2E2E2E2E2E2E2E2E2E2E2E2E2E2E2E2E2E2E2E2E2F5F5E2E2E2E2E2E2E2E2E2E2E2E2E2E2E2E2E2E2E2E2E2E2E2E2E2E2E2E2E2E2E2E2E2E2E2E2E2E2E2E2E2E2E2E2E2E2E2E2E2E2E2E2E2E2E2E2E2
310
E2E2E2E2E2E2E2E2E2E2E2E2E2E2E2E2E2E2E2E2E2E2E2E2E2E2E2E2E2E2E2E2E2E2E2E2E2E2E2E2E2E2E2E2E2E2E2E2E2E2E2E2E2E2E2E2E2E2E2E2E2E2E2E2E2E2E2E2E2E2E2E2E2E2E2E2E2E2E2E2E2E2E2E2E2E2E2E2E2E2E2E2E2E2E2E2E2E2E2E2E2E2E2E2E2E2E2E2E2E2E2E2E2E2E2E2E2E2E2E2E2F5F5E2E2E2F5
310
E2E2E2E2E2E2E2E2E2E2E2E2E2E2E2E2E2E2E2E2E2E2E2E2E2E2E2E2E2E2E2E2E2E2E2E2E2E2E2E2E2E2E2E2E2E2E2E2E2E2E2E2E2E2E2E2E2E2E2E2E2E2E2E2E2E2E2E2E2E2E2E2E2E2E2E2E2E2E2E2E2E2E2E2E2E2E2E2E2E2E2E2E2E2E2E2E2E2E2E2E2E2E2E2E2E2E2E2E2E2E2E2E2E2E2E2E2E2E2E2E2E2E2E2E2E2E2
310
E2E2E2E2E2E2E2E2E2E2E2E2E2E2E2E2E2E2E2E2E2E2E2E2E2E2E2E2E2E2E2E2E2E2E2E2E2E2E2E2E2E2E2F5E2E2E2F5F5E2E2E2F5E2E2E2E2E2E2E2E2E2E2E2E2E2E2E2E2E2E2E2E2E2E2E2E2E2E2E2E2E2E2E2E2E2E2E2E2E2E2E2E2E2E2E2E2E2E2E2E2E2E2E2E2E2E2E2E2E2E2E2E2E2E2E2E2E2E2E2E2E2E2E2E2E2E2
310
E2E2E2E2E2E2E2E2E2E2E2E2E2E2E2E2E2E2E2E2E2E2E2E2E2E2E2E2E2E2E2E2E2E2E2E2E2E2E2E2E2E2E2E2E2E2E2E2E2E2E2E2E2E2E2E2E2E2E2E2E2E2E2E2E2E2E2E2E2E2E2E2E2E2E2E2E2E2E2E2E2E2E2E2E2E2E2E2E2E2E2E2E2E2E2E2F5E2E2E2F5F5E2E2E2F5E2E2E2E2E2E2E2E2E2E2E2E2E2E2E2E2E2E2E2E2E2
310
E2E2E2E2E2E2E2E2E2E2E2E2E2E2E2E2E2E2E2E2E2E2E2E2E2E2E2E2E2E2E2E2E2E2E2E2E2E2E2E2E2E2E2E2E2E2E2E2E2E2E2E2E2E2E2E2E2E2E2E2E2E2E2E2E2E2E2E2E2E2E2E2E2E2E2E2E2E2E2E2E2E2E2E2E2E2E2E2E2E2E2E2E2E2E2E2E2E2E2E2E2E2E2E2E2E2E2E2E2E2E2E2E2E2E2E2E2E2E2E2E2E2E2E2E2E2E2
310
E2E2E2E2E2E2E2E2E2E2E2E2E2E2E2E2E2E2E2E2E2E2F5E2E2E2F5F5E2E2E2F5E2E2E2E2E2E2E2E2E2E2E2E2E2E2E2E2E2E2E2E2E2E2E2E2E2E2E2E2E2E2E2E2E2E2E2E2E2E2E2E2E2E2E2E2E2E2E2E2E2E2E2E2E2E2E2E2E2E2E2E2E2E2E2E2E2E2E2E2E2E2E2E2E2E2E2E2E2E2E2E2E2E2E2E2E2E2E2E2E2E2E2E2E2E2E2
310
E2E2E2E2E2E2E2E2E2E2E2E2E2E2E2E2E2E2E2E2E2E2E2E2E2E2E2E2E2E2E2E2E2E2E2E2E2E2E2E2E2E2E2E2E2E2E2E2E2E2E2E2E2E2E2E2E2E2E2E2E2E2E2E2E2E2E2E2E2E2E2E2E2E2E2F5E2E2E2F5F5E2E2E2F5E2E2E2E2E2E2E2E2E2E2E2E2E2E2E2E2E2E2E2E2E2E2E2E2E2E2E2E2E2E2E2E2E2E2E2E2E2E2E2E2E2E2
310
E2E2E2E2E2E2E2E2E2E2E2E2E2E2E2E2E2E2E2E2E2E2E2E2E2E2E2E2E2E2E2E2E2E2E2E2E2E2E2E2E2E2E2E2E2E2E2E2E2E2E2E2E2E2E2E2E2E2E2E2E2E2E2E2E2E2E2E2E2E2E2E2E2E2E2E2E2E2E2E2E2E2E2E2E2E2E2E2E2E2E2E2E2E2E2E2E2E2E2E2E2E2E2E2E2E2E2E2E2E2E2E2E2E2E2E2E2E2E2E2E2E2E2E2E2E2E2
310
E2F5E2E2E2F5F5E2E2E2F5E2E2E2E2E2E2E2E2E2E2E2E2E2E2E2E2E2E2E2E2E2E2E2E2E2E2E2E2E2E2E2E2E2E2E2E2E2E2E2E2E2E2E2E2E2E2E2E2E2E2E2E2E2E2E2E2E2E2E2E2E2E2E2E2E2E2E2E2E2E2E2E2E2E2E2E2E2E2E2E2E2E2E2E2E2E2E2E2E2E2E2E2E2E2E2E2E2E2E2E2E2E2E2E2E2E2E2E2E2E2E2E2E2E2E2E2
310
E2E2E2E2E2E2E2E2E2E2E2E2E2E2E2E2E2E2E2E2E2E2E2E2E2E2E2E2E2E2E2E2E2E2E2E2E2E2E2E2E2E2E2E2E2E2E2E2E2E2E2E2E2E2F5E2E2E2F5F5E2E2E2F5E2E2E2E2E2E2E2E2E2E2E2E2E2E2E2E2E2E2E2E2E2E2E2E2E2E2E2E2E2E2E2E2E2E2E2E2E2E2E2E2E2E2E2E2E2E2E2E2E2E2E2E2E2E2E2E2E2E2E2E2E2E2E2
310
E2E2E2E2E2E2E2E2E2E2E2E2E2E2E2E2E2E2E2E2E2E2E2E2E2E2E2E2E2E2E2E2E2E2E2E2E2E2E2E2E2E2E2E2E2E2E2E2E2E2E2E2E2E2E2E2E2E2E2E2E2E2E2E2E2E2E2E2E2E2E2E2E2E2E2E2E2E2E2E2E2E2E2E2E2E2E2E2E2E2E2E2E2E2E2E2E2E2E2E2E2E2E2E2E2E2E2F5E2E2E2F5F5E2E2E2F5E2E2E2E2E2E2E2E2E2E2
310
E2E2E2E2E2E2E2E2E2E2E2E2E2E2E2E2E2E2E2E2E2E2E2E2E2E2E2E2E2E2E2E2E2E2E2E2E2E2E2E2E2E2E2E2E2E2E2E2E2E2E2E2E2E2E2E2E2E2E2E2E2E2E2E2E2E2E2E2E2E2E2E2E2E2E2E2E2E2E2E2E2E2E2E2E2E2E2E2E2E2E2E2E2E2E2E2E2E2E2E2E2E2E2E2E2E2E2E2E2E2E2E2E2E2E2E2E2E2E2E2E2E2E2E2E2E2E2
310
E2E2E2E2E2E2E2E2E2E2E2E2E2E2E2E2E2E2E2E2E2E2E2E2E2E2E2E2E2E2E2E2E2F5E2E2E2F5F5E2E2E2F5F5F5F5F5F5F5F5E2E2E2E2E2E2E2E2E2F5F5F5F5F5F5F5F5F5F5F5F5F5F5F5F5E2E2E2E2E2E2E2E2E2F5F5F5F5F5F5F5F5F5F5F5F5F5F5F5E2E2E2E2E2E2E2E2E2F5F5F5F5F5F5F5F5F5F5F5F5F5F5F5F5E2E2E2
310
E2E2E2E2E2F5F5F5F5F5F5F5F5F5F5F5F5F5F5F5F5E2E2E2E2E2E2E2E2E2F5F5F5F5F5F5F5F5F5F5F5F5F5F5F5E2E2E2E2E2E2E2E2E2F5F5F5F5F5F5F5F5F5F5F5F5F5F5F5F5E2E2E2E2E2E2E2E2E2F5F5F5F5F5F5F5F5E2E2E2F5F5E2E2E2E2E2E2E2E2E2E2E2E2E2E2E2E2E2E2E2E2E2E2E2E2E2E2E2E2E2E2E2E2E2E2E2
310
E2E2E2E2E2E2E2E2E2E2E2E2E2E2E2E2E2E2E2E2E2E2E2E2E2E2E2E2E2E2E2E2E2E2E2E2E2E2E2E2E2E2E2E2E2E2E2E2E2E2E2E2E2E2E2E2E2E2E2E2E2E2E2E2E2E2E2E2E2E2E2E2E2E2E2E2E2E2E2E2E2E2E2E2E2E2E2E2E2E2E2E2E2E2E2E2E2E2E2E2E2E2E2E2E2E2E2E2E2E2E2E2E2E2E2E2E2E2E2E2E2E2E2E2E2E2E2
310
E2E2E2E2E2E2E2E2E2E2E2E2E2E2E2E2F5F5E2E2E2E2E2E2E2E2E2E2E2E2E2E2E2E2E2E2E2E2E2E2E2E2E2E2E2E2E2E2E2E2E2E2E2E2E2E2E2E2E2E2E2E2E2E2E2E2E2E2E2E2E2E2E2E2E2E2E2E2E2E2E2E2E2E2E2E2E2E2E2E2E2E2E2E2E2E2E2E2E2E2E2E2E2E2E2E2E2E2E2E2E2E2E2E2E2E2E2E2E2E2E2E2E2E2E2E2E2
310
E2E2E2E2E2E2E2E2E2E2E2E2E2E2E2E2E2E2E2E2E2E2E2E2E2E2E2E2E2E2E2E2E2E2E2E2E2E2E2E2E2E2E2E2E2E2E2E2E2E2E2E2E2E2E2E2E2E2E2E2E2E2E2E2E2E2E2E2E2F5F5E2E2E2E2E2E2E2E2E2E2E2E2E2E2E2E2E2E2E2E2E2E2E2E2E2E2E2E2E2E2E2E2E2E2E2E2E2E2E2E2E2E2E2E2E2E2E2E2E2E2E2E2E2E2E2E2
310
E2E2E2E2E2E2E2E2E2E2E2E2E2E2E2E2E2E2E2E2E2E2E2E2E2E2E2E2E2E2E2E2E2E2E2E2E2E2E2E2E2E2E2E2E2E2E2E2E2E2E2E2E2E2E2E2E2E2E2E2E2E2E2E2E2E2E2E2E2E2E2E2E2E2E2E2E2E2E2E2E2E2E2E2E2E2E2E2E2E2E2E2E2E2E2E2E2E2E2E2E2E2E2E2E2E2E2E2E2E2E2E2E2E2E2E2E2E2E2E2E2E2F5F5E2E2E2
310
E2E2E2E2E2E2E2E2E2E2E2E2E2E2E2E2E2E2E2E2E2E2E2E2E2E2E2E2E2E2E2E2E2E2E2E2E2E2E2E2E2E2E2E2E2E2E2E2E2E2E2E2E2E2E2E2E2E2E2E2E2E2E2E2E2E2E2E2E2E2E2E2E2E2E2E2E2E2E2E2E2E2E2E2E2E2E2E2E2E2E2E2E2E2E2E2E2E2E2E2E2E2E2E2E2E2E2E2E2E2E2E2E2E2E2E2E2E2E2E2E2E2E2E2E2E2E2
310
E2E2E2E2E2E2E2E2E2E2E2E2E2E2E2E2E2E2E2E2E2E2E2E2E2E2E2E2E2E2E2E2E2E2E2E2E2E2E2E2E2E2E2E2E2E2E2E2F5
  0
XRECORD
  5
5F98E
102
{ACAD_REACTORS
330
5F98D
102
}
330
5F98D
100
AcDbXrecord
280
     1
102
SHADEPLOT
 70
     0
102
SHADEPLOTRESLEVEL
 70
     2
102
SHADEPLOTCUSTOMDPI
 70
   300
  0
ENDSEC
  0
EOF
