  0
SECTION
  2
HEADER
  9
$ACADVER
  1
AC1015
  9
$ACADMAINTVER
 70
    20
  9
$DWGCODEPAGE
  3
ANSI_936
  9
$INSBASE
 10
0.0
 20
0.0
 30
0.0
  9
$EXTMIN
 10
-65.01666666666671
 20
-73.31330571068452
 30
0.0
  9
$EXTMAX
 10
433.2218809661328
 20
112.6319288386146
 30
0.0
  9
$LIMMIN
 10
0.0
 20
0.0
  9
$LIMMAX
 10
420.0
 20
297.0
  9
$ORTHOMODE
 70
     0
  9
$REGENMODE
 70
     1
  9
$FILLMODE
 70
     1
  9
$QTEXTMODE
 70
     0
  9
$MIRRTEXT
 70
     1
  9
$LTSCALE
 40
1.0
  9
$ATTMODE
 70
     1
  9
$TEXTSIZE
 40
3.5
  9
$TRACEWID
 40
1.0
  9
$TEXTSTYLE
  7
simplex
  9
$CLAYER
  8
0
  9
$CELTYPE
  6
ByLayer
  9
$CECOLOR
 62
   256
  9
$CELTSCALE
 40
1.0
  9
$DISPSILH
 70
     0
  9
$DIMSCALE
 40
0.0
  9
$DIMASZ
 40
3.5
  9
$DIMEXO
 40
0.0
  9
$DIMDLI
 40
0.38
  9
$DIMRND
 40
0.0
  9
$DIMDLE
 40
0.0
  9
$DIMEXE
 40
1.5
  9
$DIMTP
 40
0.0
  9
$DIMTM
 40
0.0
  9
$DIMTXT
 40
3.5
  9
$DIMCEN
 40
0.09
  9
$DIMTSZ
 40
0.0
  9
$DIMTOL
 70
     0
  9
$DIMLIM
 70
     0
  9
$DIMTIH
 70
     0
  9
$DIMTOH
 70
     0
  9
$DIMSE1
 70
     0
  9
$DIMSE2
 70
     0
  9
$DIMTAD
 70
     1
  9
$DIMZIN
 70
     8
  9
$DIMBLK
  1

  9
$DIMASO
 70
     1
  9
$DIMSHO
 70
     1
  9
$DIMPOST
  1

  9
$DIMAPOST
  1

  9
$DIMALT
 70
     0
  9
$DIMALTD
 70
     2
  9
$DIMALTF
 40
25.4
  9
$DIMLFAC
 40
1.0
  9
$DIMTOFL
 70
     0
  9
$DIMTVP
 40
0.0
  9
$DIMTIX
 70
     0
  9
$DIMSOXD
 70
     0
  9
$DIMSAH
 70
     0
  9
$DIMBLK1
  1

  9
$DIMBLK2
  1

  9
$DIMSTYLE
  2
\M+18352\M+18373\M+1815B - ISO-25
  9
$DIMCLRD
 70
   256
  9
$DIMCLRE
 70
   256
  9
$DIMCLRT
 70
   256
  9
$DIMTFAC
 40
1.0
  9
$DIMGAP
 40
2.299999999999998
  9
$DIMJUST
 70
     0
  9
$DIMSD1
 70
     0
  9
$DIMSD2
 70
     0
  9
$DIMTOLJ
 70
     1
  9
$DIMTZIN
 70
     8
  9
$DIMALTZ
 70
     0
  9
$DIMALTTZ
 70
     0
  9
$DIMUPT
 70
     0
  9
$DIMDEC
 70
     2
  9
$DIMTDEC
 70
     2
  9
$DIMALTU
 70
     2
  9
$DIMALTTD
 70
     2
  9
$DIMTXSTY
  7
simplex
  9
$DIMAUNIT
 70
     0
  9
$DIMADEC
 70
     0
  9
$DIMALTRND
 40
0.0
  9
$DIMAZIN
 70
     0
  9
$DIMDSEP
 70
    46
  9
$DIMATFIT
 70
     3
  9
$DIMFRAC
 70
     0
  9
$DIMLDRBLK
  1

  9
$DIMLUNIT
 70
     2
  9
$DIMLWD
 70
    -1
  9
$DIMLWE
 70
    -1
  9
$DIMTMOVE
 70
     0
  9
$LUNITS
 70
     2
  9
$LUPREC
 70
     4
  9
$SKETCHINC
 40
1.0
  9
$FILLETRAD
 40
1.5
  9
$AUNITS
 70
     0
  9
$AUPREC
 70
     0
  9
$MENU
  1
.
  9
$ELEVATION
 40
0.0
  9
$PELEVATION
 40
0.0
  9
$THICKNESS
 40
0.0
  9
$LIMCHECK
 70
     0
  9
$CHAMFERA
 40
10.0
  9
$CHAMFERB
 40
10.0
  9
$CHAMFERC
 40
20.0
  9
$CHAMFERD
 40
0.0
  9
$SKPOLY
 70
     0
  9
$TDCREATE
 40
2455489.391063368
  9
$TDUCREATE
 40
2455489.057730035
  9
$TDUPDATE
 40
2458416.588309294
  9
$TDUUPDATE
 40
2458416.254975961
  9
$TDINDWG
 40
1.9491150926
  9
$TDUSRTIMER
 40
1.9490633796
  9
$USRTIMER
 70
     1
  9
$ANGBASE
 50
0.0
  9
$ANGDIR
 70
     0
  9
$PDMODE
 70
     0
  9
$PDSIZE
 40
0.0
  9
$PLINEWID
 40
0.0
  9
$SPLFRAME
 70
     0
  9
$SPLINETYPE
 70
     6
  9
$SPLINESEGS
 70
     8
  9
$HANDSEED
  5
5FD58
  9
$SURFTAB1
 70
     6
  9
$SURFTAB2
 70
     6
  9
$SURFTYPE
 70
     6
  9
$SURFU
 70
     6
  9
$SURFV
 70
     6
  9
$UCSBASE
  2

  9
$UCSNAME
  2

  9
$UCSORG
 10
0.0
 20
0.0
 30
0.0
  9
$UCSXDIR
 10
1.0
 20
0.0
 30
0.0
  9
$UCSYDIR
 10
0.0
 20
1.0
 30
0.0
  9
$UCSORTHOREF
  2

  9
$UCSORTHOVIEW
 70
     0
  9
$UCSORGTOP
 10
0.0
 20
0.0
 30
0.0
  9
$UCSORGBOTTOM
 10
0.0
 20
0.0
 30
0.0
  9
$UCSORGLEFT
 10
0.0
 20
0.0
 30
0.0
  9
$UCSORGRIGHT
 10
0.0
 20
0.0
 30
0.0
  9
$UCSORGFRONT
 10
0.0
 20
0.0
 30
0.0
  9
$UCSORGBACK
 10
0.0
 20
0.0
 30
0.0
  9
$PUCSBASE
  2

  9
$PUCSNAME
  2

  9
$PUCSORG
 10
0.0
 20
0.0
 30
0.0
  9
$PUCSXDIR
 10
1.0
 20
0.0
 30
0.0
  9
$PUCSYDIR
 10
0.0
 20
1.0
 30
0.0
  9
$PUCSORTHOREF
  2

  9
$PUCSORTHOVIEW
 70
     0
  9
$PUCSORGTOP
 10
0.0
 20
0.0
 30
0.0
  9
$PUCSORGBOTTOM
 10
0.0
 20
0.0
 30
0.0
  9
$PUCSORGLEFT
 10
0.0
 20
0.0
 30
0.0
  9
$PUCSORGRIGHT
 10
0.0
 20
0.0
 30
0.0
  9
$PUCSORGFRONT
 10
0.0
 20
0.0
 30
0.0
  9
$PUCSORGBACK
 10
0.0
 20
0.0
 30
0.0
  9
$USERI1
 70
     0
  9
$USERI2
 70
     0
  9
$USERI3
 70
     0
  9
$USERI4
 70
     0
  9
$USERI5
 70
     0
  9
$USERR1
 40
0.0
  9
$USERR2
 40
0.0
  9
$USERR3
 40
0.0
  9
$USERR4
 40
0.0
  9
$USERR5
 40
0.0
  9
$WORLDVIEW
 70
     1
  9
$SHADEDGE
 70
     3
  9
$SHADEDIF
 70
    70
  9
$TILEMODE
 70
     1
  9
$MAXACTVP
 70
    64
  9
$PINSBASE
 10
0.0
 20
0.0
 30
0.0
  9
$PLIMCHECK
 70
     0
  9
$PEXTMIN
 10
26.66999878883364
 20
20.31999878883365
 30
0.0
  9
$PEXTMAX
 10
240.0299890995025
 20
182.8799890995025
 30
0.0
  9
$PLIMMIN
 10
-6.350006103515625
 20
-6.349999904632567
  9
$PLIMMAX
 10
273.0499877929688
 20
209.5499939918518
  9
$UNITMODE
 70
     0
  9
$VISRETAIN
 70
     1
  9
$PLINEGEN
 70
     0
  9
$PSLTSCALE
 70
     1
  9
$TREEDEPTH
 70
  3020
  9
$CMLSTYLE
  2
Standard
  9
$CMLJUST
 70
     0
  9
$CMLSCALE
 40
20.0
  9
$PROXYGRAPHICS
 70
     1
  9
$MEASUREMENT
 70
     1
  9
$CELWEIGHT
370
    -1
  9
$ENDCAPS
280
     0
  9
$JOINSTYLE
280
     0
  9
$LWDISPLAY
290
     0
  9
$INSUNITS
 70
     4
  9
$HYPERLINKBASE
  1

  9
$STYLESHEET
  1

  9
$XEDIT
290
     1
  9
$CEPSNTYPE
380
     0
  9
$PSTYLEMODE
290
     1
  9
$FINGERPRINTGUID
  2
{601DDA01-5B13-4A4C-8F56-1333B78D855B}
  9
$VERSIONGUID
  2
{5B041F7B-EE87-4247-AB22-FDACEEF7EFFC}
  9
$EXTNAMES
290
     1
  9
$PSVPSCALE
 40
0.0
  9
$OLESTARTUP
290
     0
  0
ENDSEC
  0
SECTION
  2
CLASSES
  0
CLASS
  1
ACDBDICTIONARYWDFLT
  2
AcDbDictionaryWithDefault
  3
ObjectDBX Classes
 90
        0
280
     0
281
     0
  0
CLASS
  1
ACDBPLACEHOLDER
  2
AcDbPlaceHolder
  3
ObjectDBX Classes
 90
        0
280
     0
281
     0
  0
CLASS
  1
LAYOUT
  2
AcDbLayout
  3
ObjectDBX Classes
 90
        0
280
     0
281
     0
  0
CLASS
  1
DICTIONARYVAR
  2
AcDbDictionaryVar
  3
ObjectDBX Classes
 90
        0
280
     0
281
     0
  0
CLASS
  1
TABLESTYLE
  2
AcDbTableStyle
  3
ObjectDBX Classes
 90
     2047
280
     0
281
     0
  0
CLASS
  1
SORTENTSTABLE
  2
AcDbSortentsTable
  3
ObjectDBX Classes
 90
        0
280
     0
281
     0
  0
CLASS
  1
DIMASSOC
  2
AcDbDimAssoc
  3
"AcDbDimAssoc|Product Desc:     AcDim ARX App For Dimension|Company:          Autodesk, Inc.|WEB Address:      www.autodesk.com"
 90
        0
280
     0
281
     0
  0
CLASS
  1
ACAD_EVALUATION_GRAPH
  2
AcDbEvalGraph
  3
ObjectDBX Classes
 90
    33921
280
     0
281
     0
  0
CLASS
  1
ACAECUSTOBJ
  2
AcAeEditorObj
  3
AcAeEditorObj
 90
    33792
280
     0
281
     0
  0
CLASS
  1
ACDB_DYNAMICBLOCKPURGEPREVENTER_VERSION
  2
AcDbDynamicBlockPurgePreventer
  3
ObjectDBX Classes
 90
    33921
280
     0
281
     0
  0
ENDSEC
  0
SECTION
  2
TABLES
  0
TABLE
  2
VPORT
  5
8
330
0
100
AcDbSymbolTable
 70
    15
  0
VPORT
  5
5FD49
330
8
100
AcDbSymbolTableRecord
100
AcDbViewportTableRecord
  2
*Active
 70
     0
 10
0.0
 20
0.0
 11
1.0
 21
1.0
 12
39.10579011584514
 22
10.41714250443181
 13
0.0
 23
0.0
 14
10.0
 24
10.0
 15
10.0
 25
10.0
 16
0.0
 26
0.0
 36
1.0
 17
0.0
 27
0.0
 37
0.0
 40
369.947362829731
 41
1.381443298969072
 42
50.0
 43
0.0
 44
0.0
 50
0.0
 51
0.0
 71
     0
 72
  1000
 73
     1
 74
     1
 75
     0
 76
     0
 77
     0
 78
     0
281
     0
 65
     1
110
0.0
120
0.0
130
0.0
111
1.0
121
0.0
131
0.0
112
0.0
122
1.0
132
0.0
 79
     0
146
0.0
  0
ENDTAB
  0
TABLE
  2
LTYPE
  5
5
330
0
100
AcDbSymbolTable
 70
     4
  0
LTYPE
  5
14
330
5
100
AcDbSymbolTableRecord
100
AcDbLinetypeTableRecord
  2
ByBlock
 70
     0
  3

 72
    65
 73
     0
 40
0.0
  0
LTYPE
  5
15
330
5
100
AcDbSymbolTableRecord
100
AcDbLinetypeTableRecord
  2
ByLayer
 70
     0
  3

 72
    65
 73
     0
 40
0.0
  0
LTYPE
  5
16
330
5
100
AcDbSymbolTableRecord
100
AcDbLinetypeTableRecord
  2
Continuous
 70
     0
  3
Solid line
 72
    65
 73
     0
 40
0.0
  0
LTYPE
  5
D7
330
5
100
AcDbSymbolTableRecord
100
AcDbLinetypeTableRecord
  2
HIDDEN
 70
     0
  3
Hidden __ __ __ __ __ __ __ __ __ __ __ __ __ _
 72
    65
 73
     2
 40
9.524999999999996
 49
6.349999999999997
 74
     0
 49
-3.174999999999998
 74
     0
  0
LTYPE
  5
D9
330
5
100
AcDbSymbolTableRecord
100
AcDbLinetypeTableRecord
  2
CENTER
 70
     0
  3
Center ____ _ ____ _ ____ _ ____ _ ____ _ ____
 72
    65
 73
     4
 40
50.8
 49
31.75
 74
     0
 49
-6.349999999999997
 74
     0
 49
6.349999999999997
 74
     0
 49
-6.349999999999997
 74
     0
  0
LTYPE
  5
35815
330
5
100
AcDbSymbolTableRecord
100
AcDbLinetypeTableRecord
  2
PHANTOM
 70
     0
  3
_____ _ _ _____ _ _ _____ _ _ _____
 72
    65
 73
     6
 40
0.8
 49
0.45
 74
     0
 49
-0.05
 74
     0
 49
0.1
 74
     0
 49
-0.05
 74
     0
 49
0.1
 74
     0
 49
-0.05
 74
     0
  0
ENDTAB
  0
TABLE
  2
LAYER
  5
2
102
{ACAD_XDICTIONARY
360
E2
102
}
330
0
100
AcDbSymbolTable
 70
    27
  0
LAYER
  5
10
330
2
100
AcDbSymbolTableRecord
100
AcDbLayerTableRecord
  2
0
 70
     0
 62
     7
  6
Continuous
370
    -3
390
F
  0
LAYER
  5
D1
330
2
100
AcDbSymbolTableRecord
100
AcDbLayerTableRecord
  2
1
 70
     0
 62
     4
  6
Continuous
370
    50
390
F
1001
AcAecLayerStandard
1000

1000

  0
LAYER
  5
D3
330
2
100
AcDbSymbolTableRecord
100
AcDbLayerTableRecord
  2
2
 70
     0
 62
     7
  6
Continuous
370
    25
390
F
1001
AcAecLayerStandard
1000

1000

  0
LAYER
  5
D4
330
2
100
AcDbSymbolTableRecord
100
AcDbLayerTableRecord
  2
3
 70
     0
 62
     1
  6
HIDDEN
370
    35
390
F
1001
AcAecLayerStandard
1000

1000

  0
LAYER
  5
D8
330
2
100
AcDbSymbolTableRecord
100
AcDbLayerTableRecord
  2
4
 70
     0
 62
     2
  6
CENTER
370
    25
390
F
1001
AcAecLayerStandard
1000

1000

  0
LAYER
  5
DA
330
2
100
AcDbSymbolTableRecord
100
AcDbLayerTableRecord
  2
6
 70
     0
 62
     5
  6
Continuous
370
    35
390
F
1001
AcAecLayerStandard
1000

1000

  0
LAYER
  5
DB
330
2
100
AcDbSymbolTableRecord
100
AcDbLayerTableRecord
  2
cut
 70
     0
 62
     1
  6
Continuous
370
    25
390
F
1001
AcAecLayerStandard
1000

1000

  0
LAYER
  5
DC
330
2
100
AcDbSymbolTableRecord
100
AcDbLayerTableRecord
  2
nocut
 70
     0
 62
     7
  6
Continuous
370
    25
390
F
1001
AcAecLayerStandard
1000

1000

  0
LAYER
  5
DD
330
2
100
AcDbSymbolTableRecord
100
AcDbLayerTableRecord
  2
sk1
 70
     0
 62
     4
  6
Continuous
370
    50
390
F
1001
AcAecLayerStandard
1000

1000

  0
LAYER
  5
DE
330
2
100
AcDbSymbolTableRecord
100
AcDbLayerTableRecord
  2
sk2
 70
     0
 62
     7
  6
Continuous
370
    25
390
F
1001
AcAecLayerStandard
1000

1000

  0
LAYER
  5
DF
330
2
100
AcDbSymbolTableRecord
100
AcDbLayerTableRecord
  2
sk3
 70
     0
 62
     1
  6
HIDDEN
370
    35
390
F
1001
AcAecLayerStandard
1000

1000

  0
LAYER
  5
E0
330
2
100
AcDbSymbolTableRecord
100
AcDbLayerTableRecord
  2
sk4
 70
     0
 62
     2
  6
CENTER
370
    25
390
F
1001
AcAecLayerStandard
1000

1000

  0
LAYER
  5
E1
330
2
100
AcDbSymbolTableRecord
100
AcDbLayerTableRecord
  2
sk6
 70
     0
 62
     5
  6
Continuous
370
    35
390
F
1001
AcAecLayerStandard
1000

1000

  0
LAYER
  5
31B6
330
2
100
AcDbSymbolTableRecord
100
AcDbLayerTableRecord
  2
Defpoints
 70
     0
 62
     7
  6
Continuous
290
     0
370
    -3
390
F
  0
ENDTAB
  0
TABLE
  2
STYLE
  5
3
330
0
100
AcDbSymbolTable
 70
    11
  0
STYLE
  5
11
330
3
100
AcDbSymbolTableRecord
100
AcDbTextStyleTableRecord
  2
Standard
 70
     0
 40
0.0
 41
1.0
 50
0.0
 71
     0
 42
2.5
  3
txt.shx
  4
@extfont2.shx
  0
STYLE
  5
D6
330
3
100
AcDbSymbolTableRecord
100
AcDbTextStyleTableRecord
  2

 70
     1
 40
0.0
 41
1.0
 50
0.0
 71
     0
 42
2.5
  3
ltypeshp.shx
  4

  0
STYLE
  5
24A
330
3
100
AcDbSymbolTableRecord
100
AcDbTextStyleTableRecord
  2
simplex
 70
     0
 40
3.5
 41
1.0
 50
0.0
 71
     0
 42
3.5
  3
txt.shx
  4

  0
STYLE
  5
69E
330
3
100
AcDbSymbolTableRecord
100
AcDbTextStyleTableRecord
  2
MX_NOTE_STANDARD
 70
     0
 40
0.0
 41
1.0
 50
0.0
 71
     0
 42
4.2
  3
txt.shx
  4
extfont.shx
  0
STYLE
  5
3524
330
3
100
AcDbSymbolTableRecord
100
AcDbTextStyleTableRecord
  2
TEXTSTYLE_2
 70
     0
 40
0.0
 41
0.775
 50
0.0
 71
     0
 42
0.2
  3
gdt
  4

  0
STYLE
  5
3525
330
3
100
AcDbSymbolTableRecord
100
AcDbTextStyleTableRecord
  2
TEXTSTYLE_3
 70
     0
 40
0.0
 41
0.75
 50
0.0
 71
     0
 42
0.2
  3
txt
  4

  0
STYLE
  5
3526
330
3
100
AcDbSymbolTableRecord
100
AcDbTextStyleTableRecord
  2
TEXTSTYLE_13
 70
     0
 40
0.0
 41
1.0
 50
0.0
 71
     0
 42
0.2
  3
txt
  4

  0
STYLE
  5
519A
330
3
100
AcDbSymbolTableRecord
100
AcDbTextStyleTableRecord
  2
TEXTSTYLE_14
 70
     0
 40
0.0
 41
1.0
 50
0.0
 71
     0
 42
0.2
  3
txt
  4

  0
STYLE
  5
6F72
330
3
100
AcDbSymbolTableRecord
100
AcDbTextStyleTableRecord
  2
TEXTSTYLE_4
 70
     0
 40
0.0
 41
0.75
 50
0.0
 71
     0
 42
0.2
  3
txt
  4

  0
STYLE
  5
6F73
330
3
100
AcDbSymbolTableRecord
100
AcDbTextStyleTableRecord
  2
TEXTSTYLE_17
 70
     0
 40
0.0
 41
1.0
 50
0.0
 71
     0
 42
0.2
  3
txt
  4

  0
STYLE
  5
FE12
330
3
100
AcDbSymbolTableRecord
100
AcDbTextStyleTableRecord
  2
TEXTSTYLE_12
 70
     0
 40
0.0
 41
1.0
 50
0.0
 71
     0
 42
0.2
  3
txt
  4

  0
ENDTAB
  0
TABLE
  2
VIEW
  5
6
330
0
100
AcDbSymbolTable
 70
     0
  0
ENDTAB
  0
TABLE
  2
UCS
  5
7
330
0
100
AcDbSymbolTable
 70
     0
  0
ENDTAB
  0
TABLE
  2
APPID
  5
9
330
0
100
AcDbSymbolTable
 70
    11
  0
APPID
  5
12
330
9
100
AcDbSymbolTableRecord
100
AcDbRegAppTableRecord
  2
ACAD
 70
     0
  0
APPID
  5
D2
330
9
100
AcDbSymbolTableRecord
100
AcDbRegAppTableRecord
  2
AcAecLayerStandard
 70
     0
  0
APPID
  5
E6
330
9
100
AcDbSymbolTableRecord
100
AcDbRegAppTableRecord
  2
ACAD_DSTYLE_DIMTEXT_FILL
 70
     0
  0
APPID
  5
4C84
330
9
100
AcDbSymbolTableRecord
100
AcDbRegAppTableRecord
  2
ACAD_EXEMPT_FROM_CAD_STANDARDS
 70
     0
  0
APPID
  5
3493E
330
9
100
AcDbSymbolTableRecord
100
AcDbRegAppTableRecord
  2
DCO15
 70
     0
  0
APPID
  5
4366A
330
9
100
AcDbSymbolTableRecord
100
AcDbRegAppTableRecord
  2
ACAUTHENVIRON
 70
     0
  0
APPID
  5
4366D
330
9
100
AcDbSymbolTableRecord
100
AcDbRegAppTableRecord
  2
AcDbDynamicBlockTrueName
 70
     0
  0
APPID
  5
4366E
330
9
100
AcDbSymbolTableRecord
100
AcDbRegAppTableRecord
  2
AcDbDynamicBlockGUID
 70
     0
  0
APPID
  5
43670
330
9
100
AcDbSymbolTableRecord
100
AcDbRegAppTableRecord
  2
AcDbBlockRepETag
 70
     0
  0
APPID
  5
45C9F
330
9
100
AcDbSymbolTableRecord
100
AcDbRegAppTableRecord
  2
ACAD_DSTYLE_DIMEXT_ENABLED
 70
     0
  0
APPID
  5
45CA0
330
9
100
AcDbSymbolTableRecord
100
AcDbRegAppTableRecord
  2
ACAD_DSTYLE_DIMEXT_LENGTH
 70
     0
  0
ENDTAB
  0
TABLE
  2
DIMSTYLE
  5
A
330
0
100
AcDbSymbolTable
 70
    10
100
AcDbDimStyleTable
 71
     2
340
1BF
340
27
  0
DIMSTYLE
105
27
330
A
100
AcDbSymbolTableRecord
100
AcDbDimStyleTableRecord
  2
ISO-25
 70
     0
 41
2.5
 42
0.625
 43
3.75
 44
1.25
 73
     0
 74
     0
 77
     1
 78
     8
140
2.5
141
2.5
143
0.03937007874016
147
0.625
171
     3
172
     1
271
     2
272
     2
274
     3
278
    44
283
     0
284
     8
340
11
  0
DIMSTYLE
105
1BF
102
{ACAD_REACTORS
330
5F728
330
5F70E
330
5F6F4
330
5F742
330
5F67A
330
5F662
330
5F6AA
330
5F692
330
5F6C2
330
5F6DA
102
}
330
A
100
AcDbSymbolTableRecord
100
AcDbDimStyleTableRecord
  2
\M+18352\M+18373\M+1815B - ISO-25
 70
     0
 40
0.0
 41
3.5
 42
0.0
 44
1.5
 73
     0
 74
     0
 77
     1
 78
     8
140
3.5
147
2.299999999999998
176
   256
177
   256
178
   256
271
     2
272
     2
284
     8
340
24A
371
    -1
372
    -1
  0
DIMSTYLE
105
69F
330
A
100
AcDbSymbolTableRecord
100
AcDbDimStyleTableRecord
  2
MXDIMSTYLE
 70
     0
 41
2.5
 42
0.5
 43
3.75
 44
1.5
 73
     0
 74
     0
 77
     1
 78
     8
140
4.2
141
2.5
143
0.03937
147
1.0
171
     4
172
     1
173
     1
271
     2
272
     2
274
     4
283
     0
288
     1
340
69E
341
697
343
697
344
697
  0
DIMSTYLE
105
3527
330
A
100
AcDbSymbolTableRecord
100
AcDbDimStyleTableRecord
  2
STANDARD
 70
     0
 41
3.0
 47
0.001
 48
0.001
 71
     1
 73
     0
 74
     0
 77
     1
 78
     8
140
4.0
271
     3
272
     3
284
     8
340
11
341
34B1
342
34B1
343
34B1
344
34B1
  0
DIMSTYLE
105
3528
330
A
100
AcDbSymbolTableRecord
100
AcDbDimStyleTableRecord
  2
DIMSTYLE_1
 70
     0
 41
3.0
 73
     0
 74
     0
 77
     1
 78
     8
140
4.0
271
     3
272
     3
284
     8
340
11
341
34B1
342
34B1
343
34B1
344
34B1
  0
DIMSTYLE
105
3529
330
A
100
AcDbSymbolTableRecord
100
AcDbDimStyleTableRecord
  2
DIMSTYLE_2
 70
     0
 41
3.0
 47
0.001
 48
0.001
 73
     0
 74
     0
 77
     1
 78
     8
140
4.0
271
     3
272
     3
284
     8
340
11
341
34B1
342
34B1
343
34B1
344
34B1
  0
DIMSTYLE
105
352A
330
A
100
AcDbSymbolTableRecord
100
AcDbDimStyleTableRecord
  2
DIMSTYLE_3
 70
     0
 41
3.0
 47
-0.1
 48
0.3
 71
     1
 73
     0
 74
     0
 77
     1
 78
     8
140
4.0
146
0.5
271
     3
272
     3
284
     8
340
11
341
34B1
342
34B1
343
34B1
344
34B1
  0
DIMSTYLE
105
352B
330
A
100
AcDbSymbolTableRecord
100
AcDbDimStyleTableRecord
  2
DIMSTYLE_4
 70
     0
 41
3.0
 47
0.1
 48
0.1
 71
     1
 73
     0
 74
     0
 77
     1
 78
     8
140
4.0
271
     3
272
     3
284
     8
340
11
341
34B1
342
34B1
343
34B1
344
34B1
  0
DIMSTYLE
105
27245
330
A
100
AcDbSymbolTableRecord
100
AcDbDimStyleTableRecord
  2
DIMSTYLE_5
 70
     0
 41
3.0
 47
0.001
 48
0.001
 73
     0
 74
     0
 77
     1
 78
     8
140
4.0
271
     3
272
     3
284
     8
340
11
341
34B1
342
34B1
343
34B1
344
34B1
  0
DIMSTYLE
105
4771C
330
A
100
AcDbSymbolTableRecord
100
AcDbDimStyleTableRecord
  2
\M+18352\M+18373\M+1815B_-_ISO-25
 70
     0
 40
0.0
 41
3.5
 42
0.0
 44
1.5
 73
     0
 74
     0
 77
     1
 78
     8
140
3.5
147
2.299999999999998
176
   256
177
   256
178
   256
279
     2
284
     8
285
     8
286
     8
340
24A
  0
ENDTAB
  0
TABLE
  2
BLOCK_RECORD
  5
1
330
0
100
AcDbSymbolTable
 70
    70
  0
BLOCK_RECORD
  5
1F
102
{ACAD_XDICTIONARY
360
31EE
102
}
330
1
100
AcDbSymbolTableRecord
100
AcDbBlockTableRecord
  2
*Model_Space
340
22
  0
BLOCK_RECORD
  5
50
330
1
100
AcDbSymbolTableRecord
100
AcDbBlockTableRecord
  2
*Paper_Space
340
51
  0
BLOCK_RECORD
  5
55
330
1
100
AcDbSymbolTableRecord
100
AcDbBlockTableRecord
  2
*Paper_Space0
340
56
  0
BLOCK_RECORD
  5
680
102
{ACAD_XDICTIONARY
360
43668
102
}
330
1
100
AcDbSymbolTableRecord
100
AcDbBlockTableRecord
  2
zero block
340
0
102
{BLKREFS
331
68C
102
}
1001
ACAD
1000
DesignCenter Data
1002
{
1070
     1
1070
     4
1002
}
1001
AcDbDynamicBlockGUID
1000
{A89DF4EB-B2CB-439E-AC69-1EAC9F242D1C}
1001
AcDbBlockRepETag
1070
     1
1071
        7
  0
BLOCK_RECORD
  5
697
330
1
100
AcDbSymbolTableRecord
100
AcDbBlockTableRecord
  2
_OPEN30
340
0
  0
BLOCK_RECORD
  5
32F1
330
1
100
AcDbSymbolTableRecord
100
AcDbBlockTableRecord
  2
_None
340
0
102
{BLKREFS
331
5CE0B
331
5F1BF
102
}
  0
BLOCK_RECORD
  5
34B1
330
1
100
AcDbSymbolTableRecord
100
AcDbBlockTableRecord
  2
_OPEN
340
0
102
{BLKREFS
331
5CDDE
331
5CDDF
331
5CDE8
331
5CDE9
331
5CDF2
331
5CDF3
331
5CDFC
331
5CDFD
331
5CE03
331
5CE0C
331
5EDB1
331
5EDB8
331
5EDC0
331
5EDC1
331
5EDC9
331
5EDCA
331
5EDD2
331
5EDD3
331
5EDDB
331
5EDDC
331
5F1B0
331
5F1B1
331
5F1B7
331
5F1C0
331
5F192
331
5F193
331
5F19C
331
5F19D
331
5F1A6
331
5F1A7
331
5F61C
331
5F61D
331
5F625
331
5F626
331
5F62E
331
5F62F
331
5F637
331
5F638
331
5F64F
331
5F657
102
}
  0
BLOCK_RECORD
  5
45AE6
330
1
100
AcDbSymbolTableRecord
100
AcDbBlockTableRecord
  2
*D6
340
0
  0
BLOCK_RECORD
  5
45B07
330
1
100
AcDbSymbolTableRecord
100
AcDbBlockTableRecord
  2
*D7
340
0
  0
BLOCK_RECORD
  5
45B1F
330
1
100
AcDbSymbolTableRecord
100
AcDbBlockTableRecord
  2
*D8
340
0
  0
BLOCK_RECORD
  5
5F663
330
1
100
AcDbSymbolTableRecord
100
AcDbBlockTableRecord
  2
*D59
340
0
  0
BLOCK_RECORD
  5
5F67B
330
1
100
AcDbSymbolTableRecord
100
AcDbBlockTableRecord
  2
*D60
340
0
  0
BLOCK_RECORD
  5
5F693
330
1
100
AcDbSymbolTableRecord
100
AcDbBlockTableRecord
  2
*D61
340
0
  0
BLOCK_RECORD
  5
5F6AB
330
1
100
AcDbSymbolTableRecord
100
AcDbBlockTableRecord
  2
*D62
340
0
  0
BLOCK_RECORD
  5
5F6C3
330
1
100
AcDbSymbolTableRecord
100
AcDbBlockTableRecord
  2
*D63
340
0
  0
BLOCK_RECORD
  5
5F6DB
330
1
100
AcDbSymbolTableRecord
100
AcDbBlockTableRecord
  2
*D64
340
0
  0
BLOCK_RECORD
  5
5F6F5
330
1
100
AcDbSymbolTableRecord
100
AcDbBlockTableRecord
  2
*D65
340
0
  0
BLOCK_RECORD
  5
5F70F
330
1
100
AcDbSymbolTableRecord
100
AcDbBlockTableRecord
  2
*D66
340
0
  0
BLOCK_RECORD
  5
5F729
330
1
100
AcDbSymbolTableRecord
100
AcDbBlockTableRecord
  2
*D67
340
0
  0
BLOCK_RECORD
  5
5F743
330
1
100
AcDbSymbolTableRecord
100
AcDbBlockTableRecord
  2
*D68
340
0
  0
ENDTAB
  0
ENDSEC
  0
SECTION
  2
BLOCKS
  0
BLOCK
  5
20
330
1F
100
AcDbEntity
  8
0
100
AcDbBlockBegin
  2
*Model_Space
 70
     0
 10
0.0
 20
0.0
 30
0.0
  3
*Model_Space
  1

  0
ENDBLK
  5
21
330
1F
100
AcDbEntity
  8
0
100
AcDbBlockEnd
  0
BLOCK
  5
52
330
50
100
AcDbEntity
 67
     1
  8
0
100
AcDbBlockBegin
  2
*Paper_Space
 70
     0
 10
0.0
 20
0.0
 30
0.0
  3
*Paper_Space
  1

  0
ENDBLK
  5
53
330
50
100
AcDbEntity
 67
     1
  8
0
100
AcDbBlockEnd
  0
BLOCK
  5
57
330
55
100
AcDbEntity
 67
     1
  8
0
100
AcDbBlockBegin
  2
*Paper_Space0
 70
     0
 10
0.0
 20
0.0
 30
0.0
  3
*Paper_Space0
  1

  0
VIEWPORT
  5
71
102
{ACAD_XDICTIONARY
360
5FD54
102
}
330
55
100
AcDbEntity
 67
     1
  8
0
100
AcDbViewport
 10
150.1652135264906
 20
101.599997546291
 30
0.0
 40
339.1973820494347
 41
164.5360435314421
 68
     0
 69
     0
 12
150.1652135264906
 22
101.599997546291
 13
0.0
 23
0.0
 14
10.0
 24
10.0
 15
10.0
 25
10.0
 16
0.0
 26
0.0
 36
1.0
 17
0.0
 27
0.0
 37
0.0
 42
50.0
 43
0.0
 44
0.0
 45
164.5360435314421
 50
0.0
 51
0.0
 72
  1000
 90
    32864
  1

281
     0
 71
     1
 74
     0
110
0.0
120
0.0
130
0.0
111
1.0
121
0.0
131
0.0
112
0.0
122
1.0
132
0.0
 79
     0
146
0.0
  0
VIEWPORT
  5
73
102
{ACAD_XDICTIONARY
360
5FD56
102
}
330
55
100
AcDbEntity
 67
     1
  8
0
100
AcDbViewport
 10
133.3499939441681
 20
101.5999939441681
 30
0.0
 40
213.3599903106689
 41
162.5599903106689
 68
     0
 69
     0
 12
210.0
 22
148.5
 13
0.0
 23
0.0
 14
10.0
 24
10.0
 15
10.0
 25
10.0
 16
0.0
 26
0.0
 36
1.0
 17
0.0
 27
0.0
 37
0.0
 42
50.0
 43
0.0
 44
0.0
 45
324.0677920111345
 50
0.0
 51
0.0
 72
   100
 90
    32864
  1

281
     0
 71
     1
 74
     0
110
0.0
120
0.0
130
0.0
111
1.0
121
0.0
131
0.0
112
0.0
122
1.0
132
0.0
 79
     0
146
0.0
  0
ENDBLK
  5
58
330
55
100
AcDbEntity
 67
     1
  8
0
100
AcDbBlockEnd
  0
BLOCK
  5
68A
330
680
100
AcDbEntity
  8
0
100
AcDbBlockBegin
  2
zero block
 70
     0
 10
0.0
 20
0.0
 30
0.0
  3
zero block
  1

  0
HATCH
  5
43661
330
680
100
AcDbEntity
  8
0
 62
     7
100
AcDbHatch
 10
0.0
 20
0.0
 30
0.0
210
0.0
220
0.0
230
1.0
  2
SOLID
 70
     1
 71
     0
 91
        2
 92
        7
 72
     1
 73
     1
 93
        3
 10
0.0
 20
0.9999999999999875
 42
0.4142135623730915
 10
-1.0
 20
0.0
 42
0.0
 10
0.0
 20
0.0
 42
0.0
 97
        0
 92
        7
 72
     1
 73
     1
 93
        3
 10
1.000000000000007
 20
0.0
 42
0.0
 10
0.0
 20
0.0
 42
0.0
 10
0.0
 20
-1.0
 42
0.4142135623730974
 97
        0
 75
     0
 76
     1
 47
0.0090601366782909
 98
        2
 10
-0.380591363650975
 20
0.4885804701532896
 10
0.4350764810977559
 20
-0.4536738423704725
1001
AcDbBlockRepETag
1070
     1
1071
        0
1005
43661
  0
LINE
  5
43662
330
680
100
AcDbEntity
  8
0
 62
     7
 48
0.2
100
AcDbLine
 10
-1.0
 20
0.0
 30
0.0
 11
1.000000000000007
 21
0.0
 31
0.0
1001
AcDbBlockRepETag
1070
     1
1071
        1
1005
43662
  0
LINE
  5
43663
330
680
100
AcDbEntity
  8
0
 62
     7
 48
0.2
100
AcDbLine
 10
0.0
 20
-1.0
 30
0.0
 11
0.0
 21
0.9999999999999875
 31
0.0
1001
AcDbBlockRepETag
1070
     1
1071
        2
1005
43663
  0
ARC
  5
43664
330
680
100
AcDbEntity
  8
0
 62
     7
 48
0.2
100
AcDbCircle
 10
0.0
 20
0.0
 30
0.0
 40
1.0
100
AcDbArc
 50
270.0
 51
0.0
1001
AcDbBlockRepETag
1070
     1
1071
        3
1005
43664
  0
ARC
  5
43665
330
680
100
AcDbEntity
  8
0
 62
     7
 48
0.2
100
AcDbCircle
 10
0.0
 20
0.0
 30
0.0
 40
1.0
100
AcDbArc
 50
0.0
 51
90.0
1001
AcDbBlockRepETag
1070
     1
1071
        4
1005
43665
  0
ARC
  5
43666
330
680
100
AcDbEntity
  8
0
 62
     7
 48
0.2
100
AcDbCircle
 10
0.0
 20
0.0
 30
0.0
 40
1.0
100
AcDbArc
 50
180.0
 51
270.0
1001
AcDbBlockRepETag
1070
     1
1071
        5
1005
43666
  0
ARC
  5
43667
330
680
100
AcDbEntity
  8
0
 62
     7
 48
0.2
100
AcDbCircle
 10
0.0
 20
0.0
 30
0.0
 40
1.0
100
AcDbArc
 50
90.0
 51
180.0
1001
AcDbBlockRepETag
1070
     1
1071
        6
1005
43667
  0
ENDBLK
  5
68B
330
680
100
AcDbEntity
  8
0
100
AcDbBlockEnd
  0
BLOCK
  5
698
330
697
100
AcDbEntity
  8
0
  6
ByBlock
 62
     0
370
    -2
100
AcDbBlockBegin
  2
_OPEN30
 70
     2
 10
0.0
 20
0.0
 30
0.0
  3
_OPEN30
  1

  0
LINE
  5
699
330
697
100
AcDbEntity
  8
0
  6
ByBlock
 62
     0
370
    -2
100
AcDbLine
 10
-1.0
 20
0.267949
 30
0.0
 11
0.0
 21
0.0
 31
0.0
  0
LINE
  5
69A
330
697
100
AcDbEntity
  8
0
  6
ByBlock
 62
     0
370
    -2
100
AcDbLine
 10
0.0
 20
0.0
 30
0.0
 11
-1.0
 21
-0.267949
 31
0.0
  0
LINE
  5
69B
330
697
100
AcDbEntity
  8
0
  6
ByBlock
 62
     0
370
    -2
100
AcDbLine
 10
0.0
 20
0.0
 30
0.0
 11
-1.0
 21
0.0
 31
0.0
  0
ENDBLK
  5
69C
330
697
100
AcDbEntity
  8
0
  6
ByBlock
 62
     0
370
    -2
100
AcDbBlockEnd
  0
BLOCK
  5
32F2
330
32F1
100
AcDbEntity
  8
0
100
AcDbBlockBegin
  2
_None
 70
     0
 10
0.0
 20
0.0
 30
0.0
  3
_None
  1

  0
ENDBLK
  5
32F3
330
32F1
100
AcDbEntity
  8
0
100
AcDbBlockEnd
  0
BLOCK
  5
34B2
330
34B1
100
AcDbEntity
  8
0
100
AcDbBlockBegin
  2
_OPEN
 70
     0
 10
0.0
 20
0.0
 30
0.0
  3
_OPEN
  1

  0
LINE
  5
34B3
330
34B1
100
AcDbEntity
  8
0
  6
ByBlock
 62
     0
100
AcDbLine
 10
0.0
 20
0.0
 30
0.0
 11
-1.0
 21
0.1766666667
 31
0.0
  0
LINE
  5
34B4
330
34B1
100
AcDbEntity
  8
0
  6
ByBlock
 62
     0
100
AcDbLine
 10
-1.0
 20
-0.1766666667
 30
0.0
 11
0.0
 21
0.0
 31
0.0
  0
LINE
  5
34B5
330
34B1
100
AcDbEntity
  8
0
  6
ByBlock
 62
     0
100
AcDbLine
 10
-1.0
 20
0.0
 30
0.0
 11
0.0
 21
0.0
 31
0.0
  0
ENDBLK
  5
34B6
330
34B1
100
AcDbEntity
  8
0
  6
ByBlock
 62
     0
100
AcDbBlockEnd
  0
BLOCK
  5
45AF0
330
45AE6
100
AcDbEntity
  8
0
100
AcDbBlockBegin
  2
*D6
 70
     1
 10
0.0
 20
0.0
 30
0.0
  3
*D6
  1

  0
LINE
  5
47590
330
45AE6
100
AcDbEntity
  8
sk2
100
AcDbLine
 10
3.999999999999948
 20
-11.11249999999996
 30
0.0
 11
-16.93245261605147
 21
-11.11249999999995
 31
0.0
  0
LINE
  5
47591
330
45AE6
100
AcDbEntity
  8
sk2
100
AcDbLine
 10
3.999999999999948
 20
11.11249999999997
 30
0.0
 11
-16.93245261605146
 21
11.11249999999997
 31
0.0
  0
LINE
  5
47592
330
45AE6
100
AcDbEntity
  8
sk2
100
AcDbLine
 10
-15.43245261605147
 20
-7.612499999999952
 30
0.0
 11
-15.43245261605147
 21
7.612499999999974
 31
0.0
  0
SOLID
  5
47593
330
45AE6
100
AcDbEntity
  8
sk2
100
AcDbTrace
 10
-16.0157859493848
 20
-7.612499999999952
 30
0.0
 11
-14.84911928271814
 21
-7.612499999999952
 31
0.0
 12
-15.43245261605147
 22
-11.11249999999995
 32
0.0
 13
-15.43245261605147
 23
-11.11249999999995
 33
0.0
  0
SOLID
  5
47594
330
45AE6
100
AcDbEntity
  8
sk2
100
AcDbTrace
 10
-16.0157859493848
 20
7.612499999999974
 30
0.0
 11
-14.84911928271813
 21
7.612499999999974
 31
0.0
 12
-15.43245261605147
 22
11.11249999999997
 32
0.0
 13
-15.43245261605147
 23
11.11249999999997
 33
0.0
  0
MTEXT
  5
47595
330
45AE6
100
AcDbEntity
  8
sk2
100
AcDbMText
 10
-19.48245261605147
 20
0.0000000000000094
 30
0.0
 40
3.5
 41
0.0
 71
     5
 72
     1
  1
\A1;%%C22.225
  7
simplex
 11
0.0000000000000001
 21
1.0
 31
0.0
 73
     1
 44
1.0
1001
ACAD
1000
MTEXTBEGIN
1070
    73
1070
     1
1070
    44
1040
1.0
1070
    74
1070
     0
1000
MTEXTEND
  0
POINT
  5
47596
330
45AE6
100
AcDbEntity
  8
Defpoints
 62
     0
100
AcDbPoint
 10
3.999999999999948
 20
-11.11249999999996
 30
0.0
  0
POINT
  5
47597
330
45AE6
100
AcDbEntity
  8
Defpoints
 62
     0
100
AcDbPoint
 10
3.999999999999948
 20
11.11249999999997
 30
0.0
  0
POINT
  5
47598
330
45AE6
100
AcDbEntity
  8
Defpoints
 62
     0
100
AcDbPoint
 10
-15.43245261605147
 20
11.11249999999997
 30
0.0
  0
ENDBLK
  5
45AF1
330
45AE6
100
AcDbEntity
  8
0
100
AcDbBlockEnd
  0
BLOCK
  5
45B11
330
45B07
100
AcDbEntity
  8
0
100
AcDbBlockBegin
  2
*D7
 70
     1
 10
0.0
 20
0.0
 30
0.0
  3
*D7
  1

  0
LINE
  5
5CCE5
330
45B07
100
AcDbEntity
  8
sk2
100
AcDbLine
 10
-0.0000000000000526
 20
-28.49999999999995
 30
0.0
 11
-0.0000000000000538
 21
-48.51991747839992
 31
0.0
  0
LINE
  5
5CCE6
330
45B07
100
AcDbEntity
  8
sk2
100
AcDbLine
 10
30.99999999999995
 20
-8.099999999999972
 30
0.0
 11
30.99999999999994
 21
-48.51991747839992
 31
0.0
  0
LINE
  5
5CCE7
330
45B07
100
AcDbEntity
  8
sk2
100
AcDbLine
 10
3.499999999999946
 20
-47.01991747839993
 30
0.0
 11
27.49999999999995
 21
-47.01991747839993
 31
0.0
  0
SOLID
  5
5CCE8
330
45B07
100
AcDbEntity
  8
sk2
100
AcDbTrace
 10
3.499999999999946
 20
-46.43658414506659
 30
0.0
 11
3.499999999999946
 21
-47.60325081173324
 31
0.0
 12
-0.0000000000000537
 22
-47.01991747839993
 32
0.0
 13
-0.0000000000000537
 23
-47.01991747839993
 33
0.0
  0
SOLID
  5
5CCE9
330
45B07
100
AcDbEntity
  8
sk2
100
AcDbTrace
 10
27.49999999999995
 20
-46.43658414506659
 30
0.0
 11
27.49999999999995
 21
-47.60325081173324
 31
0.0
 12
30.99999999999994
 22
-47.01991747839993
 32
0.0
 13
30.99999999999994
 23
-47.01991747839993
 33
0.0
  0
MTEXT
  5
5CCEA
330
45B07
100
AcDbEntity
  8
sk2
100
AcDbMText
 10
15.49999999999994
 20
-42.96991747839992
 30
0.0
 40
3.5
 41
0.0
 71
     5
 72
     1
  1
\A1;31
  7
simplex
 73
     1
 44
1.0
1001
ACAD
1000
MTEXTBEGIN
1070
    73
1070
     1
1070
    44
1040
1.0
1070
    74
1070
     0
1000
MTEXTEND
  0
POINT
  5
5CCEB
330
45B07
100
AcDbEntity
  8
Defpoints
 62
     0
100
AcDbPoint
 10
-0.0000000000000526
 20
-28.49999999999995
 30
0.0
  0
POINT
  5
5CCEC
330
45B07
100
AcDbEntity
  8
Defpoints
 62
     0
100
AcDbPoint
 10
30.99999999999995
 20
-8.099999999999972
 30
0.0
  0
POINT
  5
5CCED
330
45B07
100
AcDbEntity
  8
Defpoints
 62
     0
100
AcDbPoint
 10
30.99999999999994
 20
-47.01991747839993
 30
0.0
  0
ENDBLK
  5
45B12
330
45B07
100
AcDbEntity
  8
0
100
AcDbBlockEnd
  0
BLOCK
  5
45B29
330
45B1F
100
AcDbEntity
  8
0
100
AcDbBlockBegin
  2
*D8
 70
     1
 10
0.0
 20
0.0
 30
0.0
  3
*D8
  1

  0
LINE
  5
475A2
330
45B1F
100
AcDbEntity
  8
2
100
AcDbLine
 10
46.67862375679994
 20
31.50000000000006
 30
0.0
 11
83.68825656423609
 21
31.50000000000004
 31
0.0
  0
LINE
  5
475A3
330
45B1F
100
AcDbEntity
  8
2
100
AcDbLine
 10
82.18825656423609
 20
-31.49999999999995
 30
0.0
 11
82.18825656423609
 21
28.00000000000004
 31
0.0
  0
SOLID
  5
475A4
330
45B1F
100
AcDbEntity
  8
2
100
AcDbTrace
 10
81.60492323090277
 20
28.00000000000004
 30
0.0
 11
82.77158989756944
 21
28.00000000000004
 31
0.0
 12
82.18825656423609
 22
31.50000000000004
 32
0.0
 13
82.18825656423609
 23
31.50000000000004
 33
0.0
  0
MTEXT
  5
475A5
330
45B1F
100
AcDbEntity
  8
2
100
AcDbMText
 10
78.1382565642361
 20
-1.749999999999953
 30
0.0
 40
3.5
 41
0.0
 71
     5
 72
     1
  1
\A1;%%C63
  7
simplex
 11
0.0000000000000001
 21
1.0
 31
0.0
 73
     1
 44
1.0
1001
ACAD
1000
MTEXTBEGIN
1070
    73
1070
     1
1070
    44
1040
1.0
1070
    74
1070
     0
1000
MTEXTEND
  0
POINT
  5
475A6
330
45B1F
100
AcDbEntity
  8
Defpoints
 62
     0
100
AcDbPoint
 10
82.95119073979995
 20
-31.49999999999995
 30
0.0
  0
POINT
  5
475A7
330
45B1F
100
AcDbEntity
  8
Defpoints
 62
     0
100
AcDbPoint
 10
46.67862375679994
 20
31.50000000000006
 30
0.0
  0
POINT
  5
475A8
330
45B1F
100
AcDbEntity
  8
Defpoints
 62
     0
100
AcDbPoint
 10
82.18825656423609
 20
31.50000000000004
 30
0.0
  0
ENDBLK
  5
45B2A
330
45B1F
100
AcDbEntity
  8
0
100
AcDbBlockEnd
  0
BLOCK
  5
5F66D
330
5F663
100
AcDbEntity
  8
0
100
AcDbBlockBegin
  2
*D59
 70
     1
 10
0.0
 20
0.0
 30
0.0
  3
*D59
  1

  0
LINE
  5
5F924
330
5F663
100
AcDbEntity
  8
2
100
AcDbLine
 10
60.11149880249996
 20
50.80000000000001
 30
0.0
 11
100.3987560066817
 21
50.8
 31
0.0
  0
LINE
  5
5F925
330
5F663
100
AcDbEntity
  8
2
100
AcDbLine
 10
98.89875600668174
 20
47.3
 30
0.0
 11
98.89875600668171
 21
-50.80000000000001
 31
0.0
  0
SOLID
  5
5F926
330
5F663
100
AcDbEntity
  8
2
100
AcDbTrace
 10
98.31542267334841
 20
47.3
 30
0.0
 11
99.48208934001506
 21
47.3
 31
0.0
 12
98.89875600668174
 22
50.8
 32
0.0
 13
98.89875600668174
 23
50.8
 33
0.0
  0
MTEXT
  5
5F927
330
5F663
100
AcDbEntity
  8
2
100
AcDbMText
 10
94.84875600668173
 20
-1.749999999999991
 30
0.0
 40
3.5
 41
0.0
 71
     5
 72
     1
  1
\A1;%%C101.6 [%%C4.000"]
  7
simplex
 11
0.0000000000000001
 21
1.0
 31
0.0
 73
     1
 44
1.0
1001
ACAD
1000
MTEXTBEGIN
1070
    73
1070
     1
1070
    44
1040
1.0
1070
    74
1070
     0
1000
MTEXTEND
  0
POINT
  5
5F928
330
5F663
100
AcDbEntity
  8
Defpoints
 62
     0
100
AcDbPoint
 10
60.11149880249996
 20
50.80000000000001
 30
0.0
  0
POINT
  5
5F929
330
5F663
100
AcDbEntity
  8
Defpoints
 62
     0
100
AcDbPoint
 10
60.11149880249996
 20
-50.80000000000001
 30
0.0
  0
POINT
  5
5F92A
330
5F663
100
AcDbEntity
  8
Defpoints
 62
     0
100
AcDbPoint
 10
98.89875600668171
 20
-50.80000000000001
 30
0.0
  0
ENDBLK
  5
5F66E
330
5F663
100
AcDbEntity
  8
0
100
AcDbBlockEnd
  0
BLOCK
  5
5F685
330
5F67B
100
AcDbEntity
  8
0
100
AcDbBlockBegin
  2
*D60
 70
     1
 10
0.0
 20
0.0
 30
0.0
  3
*D60
  1

  0
LINE
  5
5F92B
330
5F67B
100
AcDbEntity
  8
2
100
AcDbLine
 10
63.31561308721848
 20
43.05500000000001
 30
0.0
 11
87.97930996829686
 21
43.055
 31
0.0
  0
LINE
  5
5F92C
330
5F67B
100
AcDbEntity
  8
2
100
AcDbLine
 10
86.47930996829686
 20
39.555
 30
0.0
 11
86.47930996829684
 21
-43.05500000000001
 31
0.0
  0
SOLID
  5
5F92D
330
5F67B
100
AcDbEntity
  8
2
100
AcDbTrace
 10
85.89597663496354
 20
39.555
 30
0.0
 11
87.06264330163019
 21
39.555
 31
0.0
 12
86.47930996829686
 22
43.055
 32
0.0
 13
86.47930996829686
 23
43.055
 33
0.0
  0
MTEXT
  5
5F92E
330
5F67B
100
AcDbEntity
  8
2
100
AcDbMText
 10
82.42930996829684
 20
-1.74999999999999
 30
0.0
 40
3.5
 41
0.0
 71
     5
 72
     1
  1
\A1;%%C86.11 [%%C3.390"]
  7
simplex
 11
0.0000000000000001
 21
1.0
 31
0.0
 73
     1
 44
1.0
1001
ACAD
1000
MTEXTBEGIN
1070
    73
1070
     1
1070
    44
1040
1.0
1070
    74
1070
     0
1000
MTEXTEND
  0
POINT
  5
5F92F
330
5F67B
100
AcDbEntity
  8
Defpoints
 62
     0
100
AcDbPoint
 10
63.31561308721848
 20
43.05500000000001
 30
0.0
  0
POINT
  5
5F930
330
5F67B
100
AcDbEntity
  8
Defpoints
 62
     0
100
AcDbPoint
 10
63.31561308721848
 20
-43.05500000000001
 30
0.0
  0
POINT
  5
5F931
330
5F67B
100
AcDbEntity
  8
Defpoints
 62
     0
100
AcDbPoint
 10
86.47930996829684
 20
-43.05500000000001
 30
0.0
  0
ENDBLK
  5
5F686
330
5F67B
100
AcDbEntity
  8
0
100
AcDbBlockEnd
  0
BLOCK
  5
5F69D
330
5F693
100
AcDbEntity
  8
0
100
AcDbBlockBegin
  2
*D61
 70
     1
 10
0.0
 20
0.0
 30
0.0
  3
*D61
  1

  0
LINE
  5
5F932
330
5F693
100
AcDbEntity
  8
sk2
100
AcDbLine
 10
8.0
 20
19.05000000000001
 30
0.0
 11
-21.21151154628131
 21
19.05000000000002
 31
0.0
  0
LINE
  5
5F933
330
5F693
100
AcDbEntity
  8
sk2
100
AcDbLine
 10
7.999999999999999
 20
-19.05000000000001
 30
0.0
 11
-21.21151154628132
 21
-19.05
 31
0.0
  0
LINE
  5
5F934
330
5F693
100
AcDbEntity
  8
sk2
100
AcDbLine
 10
-19.71151154628131
 20
15.55000000000001
 30
0.0
 11
-19.71151154628132
 21
-15.55000000000001
 31
0.0
  0
SOLID
  5
5F935
330
5F693
100
AcDbEntity
  8
sk2
100
AcDbTrace
 10
-20.29484487961465
 20
15.55000000000001
 30
0.0
 11
-19.12817821294798
 21
15.55000000000001
 31
0.0
 12
-19.71151154628131
 22
19.05000000000001
 32
0.0
 13
-19.71151154628131
 23
19.05000000000001
 33
0.0
  0
SOLID
  5
5F936
330
5F693
100
AcDbEntity
  8
sk2
100
AcDbTrace
 10
-20.29484487961465
 20
-15.55
 30
0.0
 11
-19.12817821294799
 21
-15.55000000000001
 31
0.0
 12
-19.71151154628132
 22
-19.05000000000001
 32
0.0
 13
-19.71151154628132
 23
-19.05000000000001
 33
0.0
  0
MTEXT
  5
5F937
330
5F693
100
AcDbEntity
  8
sk2
100
AcDbMText
 10
-23.76151154628131
 20
0.0000000000000017
 30
0.0
 40
3.5
 41
0.0
 71
     5
 72
     1
  1
\A1;%%C38.1 [%%c1.500"]
  7
simplex
 11
0.0000000000000001
 21
1.0
 31
0.0
 73
     1
 44
1.0
1001
ACAD
1000
MTEXTBEGIN
1070
    73
1070
     1
1070
    44
1040
1.0
1070
    74
1070
     0
1000
MTEXTEND
  0
POINT
  5
5F938
330
5F693
100
AcDbEntity
  8
Defpoints
 62
     0
100
AcDbPoint
 10
8.0
 20
19.05000000000001
 30
0.0
  0
POINT
  5
5F939
330
5F693
100
AcDbEntity
  8
Defpoints
 62
     0
100
AcDbPoint
 10
7.999999999999999
 20
-19.05000000000001
 30
0.0
  0
POINT
  5
5F93A
330
5F693
100
AcDbEntity
  8
Defpoints
 62
     0
100
AcDbPoint
 10
-19.71151154628132
 20
-19.05000000000001
 30
0.0
  0
ENDBLK
  5
5F69E
330
5F693
100
AcDbEntity
  8
0
100
AcDbBlockEnd
  0
BLOCK
  5
5F6B5
330
5F6AB
100
AcDbEntity
  8
0
100
AcDbBlockBegin
  2
*D62
 70
     1
 10
0.0
 20
0.0
 30
0.0
  3
*D62
  1

  0
LINE
  5
5F93B
330
5F6AB
100
AcDbEntity
  8
sk2
100
AcDbLine
 10
2.0
 20
48.41899999999998
 30
0.0
 11
-33.81604547944076
 21
48.41899999999998
 31
0.0
  0
LINE
  5
5F93C
330
5F6AB
100
AcDbEntity
  8
sk2
100
AcDbLine
 10
2.0
 20
-48.41899999999998
 30
0.0
 11
-33.81604547944079
 21
-48.41899999999998
 31
0.0
  0
LINE
  5
5F93D
330
5F6AB
100
AcDbEntity
  8
sk2
100
AcDbLine
 10
-32.31604547944077
 20
44.91899999999999
 30
0.0
 11
-32.31604547944078
 21
-44.91899999999997
 31
0.0
  0
SOLID
  5
5F93E
330
5F6AB
100
AcDbEntity
  8
sk2
100
AcDbTrace
 10
-32.8993788127741
 20
44.91899999999999
 30
0.0
 11
-31.73271214610743
 21
44.91899999999999
 31
0.0
 12
-32.31604547944076
 22
48.41899999999998
 32
0.0
 13
-32.31604547944076
 23
48.41899999999998
 33
0.0
  0
SOLID
  5
5F93F
330
5F6AB
100
AcDbEntity
  8
sk2
100
AcDbTrace
 10
-32.89937881277412
 20
-44.91899999999997
 30
0.0
 11
-31.73271214610745
 21
-44.91899999999997
 31
0.0
 12
-32.31604547944079
 22
-48.41899999999998
 32
0.0
 13
-32.31604547944079
 23
-48.41899999999998
 33
0.0
  0
MTEXT
  5
5F940
330
5F6AB
100
AcDbEntity
  8
sk2
100
AcDbMText
 10
-36.36604547944077
 20
0.0000000000000025
 30
0.0
 40
3.5
 41
0.0
 71
     5
 72
     1
  1
\A1;%%C96.838 [%%c3.813"]
  7
simplex
 11
0.0000000000000001
 21
1.0
 31
0.0
 73
     1
 44
1.0
1001
ACAD
1000
MTEXTBEGIN
1070
    73
1070
     1
1070
    44
1040
1.0
1070
    74
1070
     0
1000
MTEXTEND
  0
POINT
  5
5F941
330
5F6AB
100
AcDbEntity
  8
Defpoints
 62
     0
100
AcDbPoint
 10
2.0
 20
48.41899999999998
 30
0.0
  0
POINT
  5
5F942
330
5F6AB
100
AcDbEntity
  8
Defpoints
 62
     0
100
AcDbPoint
 10
2.0
 20
-48.41899999999998
 30
0.0
  0
POINT
  5
5F943
330
5F6AB
100
AcDbEntity
  8
Defpoints
 62
     0
100
AcDbPoint
 10
-32.31604547944079
 20
-48.41899999999998
 30
0.0
  0
ENDBLK
  5
5F6B6
330
5F6AB
100
AcDbEntity
  8
0
100
AcDbBlockEnd
  0
BLOCK
  5
5F6CD
330
5F6C3
100
AcDbEntity
  8
0
100
AcDbBlockBegin
  2
*D63
 70
     1
 10
0.0
 20
0.0
 30
0.0
  3
*D63
  1

  0
LINE
  5
5F944
330
5F6C3
100
AcDbEntity
  8
sk2
100
AcDbLine
 10
0.0
 20
-46.41899999999998
 30
0.0
 11
-0.0000000000000016
 21
-73.31330571068452
 31
0.0
  0
LINE
  5
5F945
330
5F6C3
100
AcDbEntity
  8
sk2
100
AcDbLine
 10
29.99999999999995
 20
-18.74999330870003
 30
0.0
 11
29.99999999999994
 21
-73.31330571068452
 31
0.0
  0
LINE
  5
5F946
330
5F6C3
100
AcDbEntity
  8
sk2
100
AcDbLine
 10
3.499999999999998
 20
-71.81330571068452
 30
0.0
 11
26.49999999999994
 21
-71.81330571068452
 31
0.0
  0
SOLID
  5
5F947
330
5F6C3
100
AcDbEntity
  8
sk2
100
AcDbTrace
 10
3.499999999999998
 20
-71.22997237735119
 30
0.0
 11
3.499999999999998
 21
-72.39663904401784
 31
0.0
 12
-0.0000000000000016
 22
-71.81330571068452
 32
0.0
 13
-0.0000000000000016
 23
-71.81330571068452
 33
0.0
  0
SOLID
  5
5F948
330
5F6C3
100
AcDbEntity
  8
sk2
100
AcDbTrace
 10
26.49999999999994
 20
-71.22997237735119
 30
0.0
 11
26.49999999999994
 21
-72.39663904401784
 31
0.0
 12
29.99999999999994
 22
-71.81330571068452
 32
0.0
 13
29.99999999999994
 23
-71.81330571068452
 33
0.0
  0
MTEXT
  5
5F949
330
5F6C3
100
AcDbEntity
  8
sk2
100
AcDbMText
 10
14.99999999999997
 20
-67.76330571068452
 30
0.0
 40
3.5
 41
0.0
 71
     5
 72
     1
  1
\A1;30 [1.181"]
  7
simplex
 73
     1
 44
1.0
1001
ACAD
1000
MTEXTBEGIN
1070
    73
1070
     1
1070
    44
1040
1.0
1070
    74
1070
     0
1000
MTEXTEND
  0
POINT
  5
5F94A
330
5F6C3
100
AcDbEntity
  8
Defpoints
 62
     0
100
AcDbPoint
 10
0.0
 20
-46.41899999999998
 30
0.0
  0
POINT
  5
5F94B
330
5F6C3
100
AcDbEntity
  8
Defpoints
 62
     0
100
AcDbPoint
 10
29.99999999999995
 20
-18.74999330870003
 30
0.0
  0
POINT
  5
5F94C
330
5F6C3
100
AcDbEntity
  8
Defpoints
 62
     0
100
AcDbPoint
 10
29.99999999999994
 20
-71.81330571068452
 30
0.0
  0
ENDBLK
  5
5F6CE
330
5F6C3
100
AcDbEntity
  8
0
100
AcDbBlockEnd
  0
BLOCK
  5
5F6E6
330
5F6DB
100
AcDbEntity
  8
0
100
AcDbBlockBegin
  2
*D64
 70
     1
 10
0.0
 20
0.0
 30
0.0
  3
*D64
  1

  0
LINE
  5
5F94D
330
5F6DB
100
AcDbEntity
  8
2
100
AcDbLine
 10
63.49999999999994
 20
43.15602244547616
 30
0.0
 11
63.49999999999994
 21
-73.31330571068452
 31
0.0
  0
LINE
  5
5F94E
330
5F6DB
100
AcDbEntity
  8
2
100
AcDbLine
 10
61.39999999999992
 20
36.03333605792798
 30
0.0
 11
61.39999999999991
 21
-73.31330571068452
 31
0.0
  0
LINE
  5
5F94F
330
5F6DB
100
AcDbEntity
  8
2
100
AcDbLine
 10
57.89999999999992
 20
-71.81330571068452
 30
0.0
 11
54.39999999999991
 21
-71.81330571068452
 31
0.0
  0
LINE
  5
5F950
330
5F6DB
100
AcDbEntity
  8
2
100
AcDbLine
 10
66.99999999999994
 20
-71.81330571068452
 30
0.0
 11
117.6833333333333
 21
-71.81330571068452
 31
0.0
  0
SOLID
  5
5F951
330
5F6DB
100
AcDbEntity
  8
2
100
AcDbTrace
 10
57.89999999999992
 20
-71.22997237735119
 30
0.0
 11
57.89999999999992
 21
-72.39663904401784
 31
0.0
 12
61.39999999999991
 22
-71.81330571068452
 32
0.0
 13
61.39999999999991
 23
-71.81330571068452
 33
0.0
  0
SOLID
  5
5F952
330
5F6DB
100
AcDbEntity
  8
2
100
AcDbTrace
 10
66.99999999999994
 20
-71.22997237735119
 30
0.0
 11
66.99999999999994
 21
-72.39663904401784
 31
0.0
 12
63.49999999999994
 22
-71.81330571068452
 32
0.0
 13
63.49999999999994
 23
-71.81330571068452
 33
0.0
  0
MTEXT
  5
5F953
330
5F6DB
100
AcDbEntity
  8
2
100
AcDbMText
 10
94.09166666666664
 20
-67.76330571068452
 30
0.0
 40
3.5
 41
0.0
 71
     5
 72
     1
  1
\A1;2.1 [.083"](MAX)
  7
simplex
 73
     1
 44
1.0
1001
ACAD
1000
MTEXTBEGIN
1070
    73
1070
     1
1070
    44
1040
1.0
1070
    74
1070
     0
1000
MTEXTEND
  0
POINT
  5
5F954
330
5F6DB
100
AcDbEntity
  8
Defpoints
 62
     0
100
AcDbPoint
 10
63.49999999999994
 20
43.15602244547616
 30
0.0
  0
POINT
  5
5F955
330
5F6DB
100
AcDbEntity
  8
Defpoints
 62
     0
100
AcDbPoint
 10
61.39999999999992
 20
36.03333605792798
 30
0.0
  0
POINT
  5
5F956
330
5F6DB
100
AcDbEntity
  8
Defpoints
 62
     0
100
AcDbPoint
 10
61.39999999999991
 20
-71.81330571068452
 30
0.0
  0
ENDBLK
  5
5F6E7
330
5F6DB
100
AcDbEntity
  8
0
100
AcDbBlockEnd
  0
BLOCK
  5
5F700
330
5F6F5
100
AcDbEntity
  8
0
100
AcDbBlockBegin
  2
*D65
 70
     1
 10
0.0
 20
0.0
 30
0.0
  3
*D65
  1

  0
LINE
  5
5F957
330
5F6F5
100
AcDbEntity
  8
2
100
AcDbLine
 10
63.49999999999994
 20
43.15602244547616
 30
0.0
 11
63.49999999999994
 21
66.68426129943441
 31
0.0
  0
LINE
  5
5F958
330
5F6F5
100
AcDbEntity
  8
2
100
AcDbLine
 10
61.49999999999995
 20
49.11246714892519
 30
0.0
 11
61.49999999999995
 21
66.68426129943441
 31
0.0
  0
LINE
  5
5F959
330
5F6F5
100
AcDbEntity
  8
2
100
AcDbLine
 10
66.99999999999994
 20
65.18426129943441
 30
0.0
 11
70.49999999999994
 21
65.18426129943441
 31
0.0
  0
LINE
  5
5F95A
330
5F6F5
100
AcDbEntity
  8
2
100
AcDbLine
 10
57.99999999999994
 20
65.18426129943441
 30
0.0
 11
-65.01666666666671
 21
65.18426129943441
 31
0.0
  0
SOLID
  5
5F95B
330
5F6F5
100
AcDbEntity
  8
2
100
AcDbTrace
 10
66.99999999999994
 20
65.76759463276774
 30
0.0
 11
66.99999999999994
 21
64.60092796610108
 31
0.0
 12
63.49999999999994
 22
65.18426129943441
 32
0.0
 13
63.49999999999994
 23
65.18426129943441
 33
0.0
  0
SOLID
  5
5F95C
330
5F6F5
100
AcDbEntity
  8
2
100
AcDbTrace
 10
57.99999999999994
 20
65.76759463276774
 30
0.0
 11
57.99999999999994
 21
64.60092796610108
 31
0.0
 12
61.49999999999995
 22
65.18426129943441
 32
0.0
 13
61.49999999999995
 23
65.18426129943441
 33
0.0
  0
MTEXT
  5
5F95D
330
5F6F5
100
AcDbEntity
  8
2
100
AcDbMText
 10
-5.258333333333382
 20
69.2342612994344
 30
0.0
 40
3.5
 41
0.0
 71
     5
 72
     1
  1
\A1;2 [.079"](APMX AT HIGH FEED PROCESS)
  7
simplex
 73
     1
 44
1.0
1001
ACAD
1000
MTEXTBEGIN
1070
    73
1070
     1
1070
    44
1040
1.0
1070
    74
1070
     0
1000
MTEXTEND
  0
POINT
  5
5F95E
330
5F6F5
100
AcDbEntity
  8
Defpoints
 62
     0
100
AcDbPoint
 10
63.49999999999994
 20
43.15602244547616
 30
0.0
  0
POINT
  5
5F95F
330
5F6F5
100
AcDbEntity
  8
Defpoints
 62
     0
100
AcDbPoint
 10
61.49999999999995
 20
49.11246714892519
 30
0.0
  0
POINT
  5
5F960
330
5F6F5
100
AcDbEntity
  8
Defpoints
 62
     0
100
AcDbPoint
 10
61.49999999999995
 20
65.18426129943441
 30
0.0
  0
ENDBLK
  5
5F701
330
5F6F5
100
AcDbEntity
  8
0
100
AcDbBlockEnd
  0
BLOCK
  5
5F71A
330
5F70F
100
AcDbEntity
  8
0
100
AcDbBlockBegin
  2
*D66
 70
     1
 10
0.0
 20
0.0
 30
0.0
  3
*D66
  1

  0
LINE
  5
5F961
330
5F70F
100
AcDbEntity
  8
2
100
AcDbLine
 10
63.49999999999994
 20
43.15602244547616
 30
0.0
 11
63.49999999999994
 21
77.94602356844325
 31
0.0
  0
LINE
  5
5F962
330
5F70F
100
AcDbEntity
  8
2
100
AcDbLine
 10
60.49999999999994
 20
49.98237812395834
 30
0.0
 11
60.49999999999994
 21
77.94602356844325
 31
0.0
  0
LINE
  5
5F963
330
5F70F
100
AcDbEntity
  8
2
100
AcDbLine
 10
66.99999999999994
 20
76.44602356844325
 30
0.0
 11
70.49999999999994
 21
76.44602356844325
 31
0.0
  0
LINE
  5
5F964
330
5F70F
100
AcDbEntity
  8
2
100
AcDbLine
 10
56.99999999999994
 20
76.44602356844325
 30
0.0
 11
12.73333333333328
 21
76.44602356844325
 31
0.0
  0
SOLID
  5
5F965
330
5F70F
100
AcDbEntity
  8
2
100
AcDbTrace
 10
66.99999999999994
 20
77.02935690177658
 30
0.0
 11
66.99999999999994
 21
75.86269023510992
 31
0.0
 12
63.49999999999994
 22
76.44602356844325
 32
0.0
 13
63.49999999999994
 23
76.44602356844325
 33
0.0
  0
SOLID
  5
5F966
330
5F70F
100
AcDbEntity
  8
2
100
AcDbTrace
 10
56.99999999999994
 20
77.02935690177658
 30
0.0
 11
56.99999999999994
 21
75.86269023510992
 31
0.0
 12
60.49999999999994
 22
76.44602356844325
 32
0.0
 13
60.49999999999994
 23
76.44602356844325
 33
0.0
  0
MTEXT
  5
5F967
330
5F70F
100
AcDbEntity
  8
2
100
AcDbMText
 10
33.11666666666662
 20
80.49602356844324
 30
0.0
 40
3.5
 41
0.0
 71
     5
 72
     1
  1
\A1;APMX3 [.118"]
  7
simplex
 73
     1
 44
1.0
1001
ACAD
1000
MTEXTBEGIN
1070
    73
1070
     1
1070
    44
1040
1.0
1070
    74
1070
     0
1000
MTEXTEND
  0
POINT
  5
5F968
330
5F70F
100
AcDbEntity
  8
Defpoints
 62
     0
100
AcDbPoint
 10
63.49999999999994
 20
43.15602244547616
 30
0.0
  0
POINT
  5
5F969
330
5F70F
100
AcDbEntity
  8
Defpoints
 62
     0
100
AcDbPoint
 10
60.49999999999994
 20
49.98237812395834
 30
0.0
  0
POINT
  5
5F96A
330
5F70F
100
AcDbEntity
  8
Defpoints
 62
     0
100
AcDbPoint
 10
60.49999999999994
 20
76.44602356844325
 30
0.0
  0
ENDBLK
  5
5F71B
330
5F70F
100
AcDbEntity
  8
0
100
AcDbBlockEnd
  0
BLOCK
  5
5F733
330
5F729
100
AcDbEntity
  8
0
100
AcDbBlockBegin
  2
*D67
 70
     1
 10
0.0
 20
0.0
 30
0.0
  3
*D67
  1

  0
LINE
  5
5F96B
330
5F729
100
AcDbEntity
  8
2
100
AcDbLine
 10
63.49999999999994
 20
43.15602244547616
 30
0.0
 11
63.49999999999994
 21
89.45941829194977
 31
0.0
  0
LINE
  5
5F96C
330
5F729
100
AcDbEntity
  8
2
100
AcDbLine
 10
0.0
 20
46.41899999999998
 30
0.0
 11
0.0000000000000026
 21
89.45941829194977
 31
0.0
  0
LINE
  5
5F96D
330
5F729
100
AcDbEntity
  8
2
100
AcDbLine
 10
59.99999999999994
 20
87.95941829194976
 30
0.0
 11
3.500000000000002
 21
87.95941829194976
 31
0.0
  0
SOLID
  5
5F96E
330
5F729
100
AcDbEntity
  8
2
100
AcDbTrace
 10
59.99999999999994
 20
88.54275162528308
 30
0.0
 11
59.99999999999994
 21
87.37608495861643
 31
0.0
 12
63.49999999999994
 22
87.95941829194976
 32
0.0
 13
63.49999999999994
 23
87.95941829194976
 33
0.0
  0
SOLID
  5
5F96F
330
5F729
100
AcDbEntity
  8
2
100
AcDbTrace
 10
3.500000000000002
 20
88.54275162528308
 30
0.0
 11
3.500000000000002
 21
87.37608495861643
 31
0.0
 12
0.0000000000000025
 22
87.95941829194976
 32
0.0
 13
0.0000000000000025
 23
87.95941829194976
 33
0.0
  0
MTEXT
  5
5F970
330
5F729
100
AcDbEntity
  8
2
100
AcDbMText
 10
31.74999999999997
 20
92.00941829194976
 30
0.0
 40
3.5
 41
0.0
 71
     5
 72
     1
  1
\A1;63.5 [2.500"]
  7
simplex
 73
     1
 44
1.0
1001
ACAD
1000
MTEXTBEGIN
1070
    73
1070
     1
1070
    44
1040
1.0
1070
    74
1070
     0
1000
MTEXTEND
  0
POINT
  5
5F971
330
5F729
100
AcDbEntity
  8
Defpoints
 62
     0
100
AcDbPoint
 10
63.49999999999994
 20
43.15602244547616
 30
0.0
  0
POINT
  5
5F972
330
5F729
100
AcDbEntity
  8
Defpoints
 62
     0
100
AcDbPoint
 10
0.0
 20
46.41899999999998
 30
0.0
  0
POINT
  5
5F973
330
5F729
100
AcDbEntity
  8
Defpoints
 62
     0
100
AcDbPoint
 10
0.0000000000000025
 20
87.95941829194976
 30
0.0
  0
ENDBLK
  5
5F734
330
5F729
100
AcDbEntity
  8
0
100
AcDbBlockEnd
  0
BLOCK
  5
5F74B
330
5F743
100
AcDbEntity
  8
0
100
AcDbBlockBegin
  2
*D68
 70
     1
 10
0.0
 20
0.0
 30
0.0
  3
*D68
  1

  0
LINE
  5
5F974
330
5F743
100
AcDbEntity
  8
2
100
AcDbLine
 10
102.403886373373
 20
70.23908955286739
 30
0.0
 11
64.58155760079536
 21
50.81903830001317
 31
0.0
  0
MTEXT
  5
5F975
330
5F743
100
AcDbEntity
  8
2
100
AcDbMText
 10
83.19961029232807
 20
64.93123220291463
 30
0.0
 40
3.5
 41
0.0
 71
     5
 72
     1
  1
\A1;R1.5 [R.059"]
  7
simplex
 11
0.889588289437343
 21
0.4567632595732081
 31
0.0
 73
     1
 44
1.0
1001
ACAD
1000
MTEXTBEGIN
1070
    73
1070
     1
1070
    44
1040
1.0
1070
    74
1070
     0
1000
MTEXTEND
  0
SOLID
  5
5F976
330
5F743
100
AcDbEntity
  8
2
100
AcDbTrace
 10
64.31511236604433
 20
51.33796480218495
 30
0.0
 11
64.8480028355464
 21
50.30011179784138
 31
0.0
 12
61.46799858776468
 22
49.22036689150694
 32
0.0
 13
61.46799858776468
 23
49.22036689150694
 33
0.0
  0
LINE
  5
5F977
330
5F743
100
AcDbEntity
  8
2
100
AcDbLine
 10
60.04361615360862
 20
48.53522200214712
 30
0.0
 11
60.22361615360864
 21
48.53522200214712
 31
0.0
  0
LINE
  5
5F978
330
5F743
100
AcDbEntity
  8
2
100
AcDbLine
 10
60.13361615360864
 20
48.44522200214711
 30
0.0
 11
60.13361615360861
 21
48.62522200214712
 31
0.0
  0
POINT
  5
5F979
330
5F743
100
AcDbEntity
  8
Defpoints
 62
     0
100
AcDbPoint
 10
61.46799858776468
 20
49.22036689150694
 30
0.0
  0
POINT
  5
5F97A
330
5F743
100
AcDbEntity
  8
Defpoints
 62
     0
100
AcDbPoint
 10
60.13361615360862
 20
48.53522200214712
 30
0.0
  0
ENDBLK
  5
5F74C
330
5F743
100
AcDbEntity
  8
0
100
AcDbBlockEnd
  0
ENDSEC
  0
SECTION
  2
ENTITIES
  0
INSERT
  5
68C
330
1F
100
AcDbEntity
  8
0
100
AcDbBlockReference
  2
zero block
 10
0.0000000000000072
 20
0.0
 30
0.0
 50
180.0
  0
MTEXT
  5
5CD11
330
1F
100
AcDbEntity
  8
sk6
100
AcDbMText
 10
-5.094126417013512
 20
112.6319288386146
 30
0.0
 40
5.0
 41
85.25075165579854
 71
     1
 72
     5
  1
WJX14UR4_0006EA
  7
simplex
 73
     1
 44
1.0
1001
ACAD
1000
ACAD_MTEXT_DEFINED_HEIGHT_BEGIN
1070
    46
1040
0.0
1000
ACAD_MTEXT_DEFINED_HEIGHT_END
1000
MTEXTBEGIN
1070
    73
1070
     1
1070
    44
1040
1.0
1070
    74
1070
     0
1000
MTEXTEND
  0
LINE
  5
5F395
330
1F
100
AcDbEntity
  8
nocut
100
AcDbLine
 10
0.0
 20
0.0
 30
0.0
 11
0.0
 21
19.55799999999999
 31
0.0
1001
ACAD
1000
RTMaterial
1005
0
  0
LINE
  5
5F39B
330
1F
100
AcDbEntity
  8
nocut
100
AcDbLine
 10
0.0
 20
0.0
 30
0.0
 11
0.0
 21
46.41899999999998
 31
0.0
1001
ACAD
1000
RTMaterial
1005
0
  0
LINE
  5
5F3AF
330
1F
100
AcDbEntity
  8
nocut
100
AcDbLine
 10
62.19999999999998
 20
43.57495351030002
 30
0.0
 11
62.19999999999998
 21
0.0
 31
0.0
1001
ACAD
1000
RTMaterial
1005
0
  0
LINE
  5
5F3B4
330
1F
100
AcDbEntity
  8
cut
100
AcDbLine
 10
63.43637431679991
 20
43.55527764799996
 30
0.0
 11
61.54595593649998
 21
49.73855755710002
 31
0.0
1001
ACAD
1000
RTMaterial
1005
0
  0
LINE
  5
5F3B5
330
1F
100
AcDbEntity
  8
nocut
100
AcDbLine
 10
60.75161536579997
 20
48.49202243020005
 30
0.0
 11
62.19999999999998
 21
43.57495351030002
 31
0.0
1001
ACAD
1000
RTMaterial
1005
0
  0
LINE
  5
5F3B7
330
1F
100
AcDbEntity
  8
nocut
100
AcDbLine
 10
54.5719838425
 20
48.91680650430004
 30
0.0
 11
59.4957384635
 21
49.34836844340003
 31
0.0
1001
ACAD
1000
RTMaterial
1005
0
  0
LINE
  5
5F3B9
330
1F
100
AcDbEntity
  8
cut
100
AcDbLine
 10
59.97155520639996
 20
50.79345766250003
 30
0.0
 11
56.24838147429994
 21
50.44457979769998
 31
0.0
1001
ACAD
1000
RTMaterial
1005
0
  0
LINE
  5
5F3BA
330
1F
100
AcDbEntity
  8
nocut
100
AcDbLine
 10
53.03696115239995
 20
49.04656254370002
 30
0.0
 11
54.42805067180001
 21
48.91718861790002
 31
0.0
1001
ACAD
1000
RTMaterial
1005
0
  0
LINE
  5
5F3BD
330
1F
100
AcDbEntity
  8
1
100
AcDbLine
 10
53.03696115249994
 20
-49.04656254380006
 30
0.0
 11
54.42805067179989
 21
-48.91718861790002
 31
0.0
1001
ACAD
1000
RTMaterial
1005
0
  0
LINE
  5
5F3BE
330
1F
100
AcDbEntity
  8
1
100
AcDbLine
 10
52.96287934679992
 20
-49.05000000000001
 30
0.0
 11
53.03696115249994
 21
-49.04656254380006
 31
0.0
1001
ACAD
1000
RTMaterial
1005
0
  0
LINE
  5
5F3BF
330
1F
100
AcDbEntity
  8
1
100
AcDbLine
 10
48.99451001349991
 20
-49.05000000000001
 30
0.0
 11
52.96287934679992
 21
-49.05000000000001
 31
0.0
1001
ACAD
1000
RTMaterial
1005
0
  0
LINE
  5
5F3C0
330
1F
100
AcDbEntity
  8
1
100
AcDbLine
 10
11.02809845429988
 20
-48.41899999999998
 30
0.0
 11
2.0
 21
-48.41899999999998
 31
0.0
1001
ACAD
1000
RTMaterial
1005
0
  0
LINE
  5
5F3C1
330
1F
100
AcDbEntity
  8
1
100
AcDbLine
 10
54.57198384259993
 20
-48.91680650429998
 30
0.0
 11
59.49573846359993
 21
-49.34836844340003
 31
0.0
1001
ACAD
1000
RTMaterial
1005
0
  0
LINE
  5
5F3C2
330
1F
100
AcDbEntity
  8
1
100
AcDbLine
 10
33.17563844699993
 20
-44.67060318100005
 30
0.0
 11
46.0707929662999
 21
-48.61304755970002
 31
0.0
1001
ACAD
1000
RTMaterial
1005
0
  0
LINE
  5
5F3C3
330
1F
100
AcDbEntity
  8
1
100
AcDbLine
 10
60.75161536589996
 20
-48.49202243020005
 30
0.0
 11
62.19999999999993
 21
-43.57495351029996
 31
0.0
1001
ACAD
1000
RTMaterial
1005
0
  0
LINE
  5
5F3C4
330
1F
100
AcDbEntity
  8
1
100
AcDbLine
 10
19.83607248419992
 20
-45.25302120890001
 30
0.0
 11
12.90113142140001
 21
-48.05491927290001
 31
0.0
1001
ACAD
1000
RTMaterial
1005
0
  0
LINE
  5
5F3C5
330
1F
100
AcDbEntity
  8
sk3
100
AcDbLine
 10
15.83926112069991
 20
-19.47504622970001
 30
0.0
 11
14.92774653979995
 21
-19.05000000000001
 31
0.0
1001
ACAD
1000
RTMaterial
1005
0
  0
LINE
  5
5F3C6
330
1F
100
AcDbEntity
  8
sk3
100
AcDbLine
 10
1.199999999999931
 20
-19.55000000000001
 30
0.0
 11
8.0
 21
-19.55000000000001
 31
0.0
1001
ACAD
1000
RTMaterial
1005
0
  0
LINE
  5
5F3C7
330
1F
100
AcDbEntity
  8
sk3
100
AcDbLine
 10
29.19999999999993
 20
-19.55000000000001
 30
0.0
 11
16.17735573009997
 21
-19.55000000000001
 31
0.0
1001
ACAD
1000
RTMaterial
1005
0
  0
LINE
  5
5F3C8
102
{ACAD_REACTORS
330
5F6A9
102
}
330
1F
100
AcDbEntity
  8
sk3
100
AcDbLine
 10
14.92774653979995
 20
-19.05000000000001
 30
0.0
 11
8.0
 21
-19.05000000000001
 31
0.0
1001
ACAD
1000
RTMaterial
1005
0
  0
LINE
  5
5F3CB
330
1F
100
AcDbEntity
  8
sk3
100
AcDbLine
 10
57.99999999999994
 20
-15.0
 30
0.0
 11
38.39999999999992
 21
-15.0
 31
0.0
1001
ACAD
1000
RTMaterial
1005
0
  0
LINE
  5
5F3CC
330
1F
100
AcDbEntity
  8
1
100
AcDbLine
 10
0.0
 20
8.9375
 30
0.0
 11
1.0
 21
7.9375
 31
0.0
1001
ACAD
1000
RTMaterial
1005
0
  0
LINE
  5
5F3CD
330
1F
100
AcDbEntity
  8
sk3
100
AcDbLine
 10
58.99999999999995
 20
31.53794705399997
 30
0.0
 11
58.99999999999995
 21
-31.53794705410002
 31
0.0
1001
ACAD
1000
RTMaterial
1005
0
  0
LINE
  5
5F3CE
330
1F
100
AcDbEntity
  8
sk3
100
AcDbLine
 10
57.99999999999994
 20
15.0
 30
0.0
 11
57.99999999999994
 21
-15.0
 31
0.0
1001
ACAD
1000
RTMaterial
1005
0
  0
LINE
  5
5F3CF
330
1F
100
AcDbEntity
  8
sk3
100
AcDbLine
 10
37.49999999999995
 20
-10.0
 30
0.0
 11
30.39999999999992
 21
-10.0
 31
0.0
1001
ACAD
1000
RTMaterial
1005
0
  0
LINE
  5
5F3D0
330
1F
100
AcDbEntity
  8
1
100
AcDbLine
 10
8.524999999999977
 20
7.9375
 30
0.0
 11
9.524999999999977
 21
6.9375
 31
0.0
1001
ACAD
1000
RTMaterial
1005
0
  0
LINE
  5
5F3D5
330
1F
100
AcDbEntity
  8
1
100
AcDbLine
 10
8.524999999999977
 20
-7.9375
 30
0.0
 11
1.0
 21
-7.9375
 31
0.0
1001
ACAD
1000
RTMaterial
1005
0
  0
LINE
  5
5F3D6
330
1F
100
AcDbEntity
  8
sk3
100
AcDbLine
 10
1.199999999999931
 20
19.55000000000001
 30
0.0
 11
0.0
 21
20.75
 31
0.0
1001
ACAD
1000
RTMaterial
1005
0
  0
LINE
  5
5F3D8
330
1F
100
AcDbEntity
  8
sk3
100
AcDbLine
 10
37.49999999999995
 20
-10.0
 30
0.0
 11
37.99999999999994
 21
-10.5
 31
0.0
1001
ACAD
1000
RTMaterial
1005
0
  0
LINE
  5
5F3D9
330
1F
100
AcDbEntity
  8
sk3
100
AcDbLine
 10
60.33237928019997
 20
37.71824994790001
 30
0.0
 11
62.19999999999998
 21
41.84845717000001
 31
0.0
1001
ACAD
1000
RTMaterial
1005
0
  0
LINE
  5
5F3DA
330
1F
100
AcDbEntity
  8
sk3
100
AcDbLine
 10
58.99999999999995
 20
16.0
 30
0.0
 11
57.99999999999994
 21
15.0
 31
0.0
1001
ACAD
1000
RTMaterial
1005
0
  0
LINE
  5
5F3DB
330
1F
100
AcDbEntity
  8
4
100
AcDbLine
 10
67.10243534269989
 20
0.0
 30
0.0
 11
-4.217102988800093
 21
0.0
 31
0.0
1001
ACAD
1000
RTMaterial
1005
0
  0
LINE
  5
5F3E2
330
1F
100
AcDbEntity
  8
1
100
AcDbLine
 10
1.0
 20
7.9375
 30
0.0
 11
8.524999999999977
 21
7.9375
 31
0.0
1001
ACAD
1000
RTMaterial
1005
0
  0
LINE
  5
5F3E3
330
1F
100
AcDbEntity
  8
sk3
100
AcDbLine
 10
58.99999999999995
 20
-16.0
 30
0.0
 11
57.99999999999994
 21
-15.0
 31
0.0
1001
ACAD
1000
RTMaterial
1005
0
  0
LINE
  5
5F3E4
330
1F
100
AcDbEntity
  8
sk3
100
AcDbLine
 10
37.99999999999994
 20
14.60000000000002
 30
0.0
 11
37.99999999999994
 21
-14.60000000000002
 31
0.0
1001
ACAD
1000
RTMaterial
1005
0
  0
LINE
  5
5F3E5
330
1F
100
AcDbEntity
  8
sk3
100
AcDbLine
 10
37.49999999999995
 20
10.0
 30
0.0
 11
37.49999999999995
 21
-10.0
 31
0.0
1001
ACAD
1000
RTMaterial
1005
0
  0
LINE
  5
5F3E8
330
1F
100
AcDbEntity
  8
sk3
100
AcDbLine
 10
37.49999999999995
 20
10.0
 30
0.0
 11
37.99999999999994
 21
10.5
 31
0.0
1001
ACAD
1000
RTMaterial
1005
0
  0
LINE
  5
5F3E9
330
1F
100
AcDbEntity
  8
sk3
100
AcDbLine
 10
37.49999999999995
 20
10.0
 30
0.0
 11
30.39999999999992
 21
10.0
 31
0.0
1001
ACAD
1000
RTMaterial
1005
0
  0
LINE
  5
5F3EA
330
1F
100
AcDbEntity
  8
sk3
100
AcDbLine
 10
60.33237928019992
 20
-37.71824994790001
 30
0.0
 11
62.19999999999993
 21
-41.84845717000001
 31
0.0
1001
ACAD
1000
RTMaterial
1005
0
  0
LINE
  5
5F3EB
102
{ACAD_REACTORS
330
5F6D9
102
}
330
1F
100
AcDbEntity
  8
sk3
100
AcDbLine
 10
29.99999999999995
 20
-18.74999330870003
 30
0.0
 11
29.99999999999995
 21
18.74295167100001
 31
0.0
1001
ACAD
1000
RTMaterial
1005
0
  0
LINE
  5
5F3EC
330
1F
100
AcDbEntity
  8
sk3
100
AcDbLine
 10
1.199999999999931
 20
-19.55000000000001
 30
0.0
 11
0.0
 21
-20.75
 31
0.0
1001
ACAD
1000
RTMaterial
1005
0
  0
LINE
  5
5F3ED
330
1F
100
AcDbEntity
  8
sk3
100
AcDbLine
 10
57.99999999999994
 20
15.0
 30
0.0
 11
38.39999999999992
 21
15.0
 31
0.0
1001
ACAD
1000
RTMaterial
1005
0
  0
LINE
  5
5F3F1
330
1F
100
AcDbEntity
  8
1
100
AcDbLine
 10
9.524999999999977
 20
-6.9375
 30
0.0
 11
8.524999999999977
 21
-7.9375
 31
0.0
1001
ACAD
1000
RTMaterial
1005
0
  0
LINE
  5
5F3F2
102
{ACAD_REACTORS
330
5F6A9
102
}
330
1F
100
AcDbEntity
  8
sk3
100
AcDbLine
 10
14.92774653979995
 20
19.05000000000001
 30
0.0
 11
8.0
 21
19.05000000000001
 31
0.0
1001
ACAD
1000
RTMaterial
1005
0
  0
LINE
  5
5F3F3
330
1F
100
AcDbEntity
  8
sk3
100
AcDbLine
 10
1.199999999999931
 20
19.55000000000001
 30
0.0
 11
8.0
 21
19.55000000000001
 31
0.0
1001
ACAD
1000
RTMaterial
1005
0
  0
LINE
  5
5F3F4
330
1F
100
AcDbEntity
  8
sk3
100
AcDbLine
 10
29.19999999999993
 20
19.55000000000001
 30
0.0
 11
16.17735573009997
 21
19.55000000000001
 31
0.0
1001
ACAD
1000
RTMaterial
1005
0
  0
LINE
  5
5F3F7
330
1F
100
AcDbEntity
  8
1
100
AcDbLine
 10
1.0
 20
-7.9375
 30
0.0
 11
0.0
 21
-8.9375
 31
0.0
1001
ACAD
1000
RTMaterial
1005
0
  0
LINE
  5
5F3FC
330
1F
100
AcDbEntity
  8
sk3
100
AcDbLine
 10
15.83926112069991
 20
19.47504622959997
 30
0.0
 11
14.92774653979995
 21
19.05000000000001
 31
0.0
1001
ACAD
1000
RTMaterial
1005
0
  0
LINE
  5
5F3FD
330
1F
100
AcDbEntity
  8
sk3
100
AcDbLine
 10
14.92774653979995
 20
19.05000000000001
 30
0.0
 11
14.92774653979995
 21
-19.05000000000001
 31
0.0
1001
ACAD
1000
RTMaterial
1005
0
  0
LINE
  5
5F403
330
1F
100
AcDbEntity
  8
1
100
AcDbLine
 10
9.524999999999977
 20
6.9375
 30
0.0
 11
9.524999999999977
 21
-6.9375
 31
0.0
1001
ACAD
1000
RTMaterial
1005
0
  0
LINE
  5
5F404
330
1F
100
AcDbEntity
  8
sk3
100
AcDbLine
 10
8.0
 20
-19.54999808700006
 30
0.0
 11
8.0
 21
-7.9375
 31
0.0
1001
ACAD
1000
RTMaterial
1005
0
  0
LINE
  5
5F405
330
1F
100
AcDbEntity
  8
sk3
100
AcDbLine
 10
8.0
 20
7.9375
 30
0.0
 11
8.0
 21
19.54999808699995
 31
0.0
1001
ACAD
1000
RTMaterial
1005
0
  0
LINE
  5
5F423
330
1F
100
AcDbEntity
  8
sk3
100
AcDbLine
 10
1.199999999999931
 20
19.55000000000001
 30
0.0
 11
1.199999999999931
 21
7.9375
 31
0.0
1001
ACAD
1000
RTMaterial
1005
0
  0
LINE
  5
5F424
330
1F
100
AcDbEntity
  8
sk3
100
AcDbLine
 10
1.199999999999931
 20
-7.9375
 30
0.0
 11
1.199999999999931
 21
-19.55000000000001
 31
0.0
1001
ACAD
1000
RTMaterial
1005
0
  0
LINE
  5
5F425
330
1F
100
AcDbEntity
  8
1
100
AcDbLine
 10
0.0
 20
-46.41899999999998
 30
0.0
 11
0.0
 21
-8.9375
 31
0.0
1001
ACAD
1000
RTMaterial
1005
0
  0
LINE
  5
5F426
330
1F
100
AcDbEntity
  8
1
100
AcDbLine
 10
0.0
 20
8.9375
 30
0.0
 11
0.0
 21
46.41899999999998
 31
0.0
1001
ACAD
1000
RTMaterial
1005
0
  0
LINE
  5
5F430
330
1F
100
AcDbEntity
  8
1
100
AcDbLine
 10
11.02809845429988
 20
48.41899999999998
 30
0.0
 11
2.0
 21
48.41899999999998
 31
0.0
1001
ACAD
1000
RTMaterial
1005
0
  0
LINE
  5
5F446
330
1F
100
AcDbEntity
  8
nocut
100
AcDbLine
 10
19.83607248419997
 20
45.25302120890001
 30
0.0
 11
12.90113142139995
 21
48.05491927280002
 31
0.0
1001
ACAD
1000
RTMaterial
1005
0
  0
LINE
  5
5F448
330
1F
100
AcDbEntity
  8
nocut
100
AcDbLine
 10
46.07079296619997
 20
48.61304755959998
 30
0.0
 11
33.17563844689994
 21
44.67060318090005
 31
0.0
1001
ACAD
1000
RTMaterial
1005
0
  0
LINE
  5
5F44A
330
1F
100
AcDbEntity
  8
nocut
100
AcDbLine
 10
11.02809845429999
 20
48.41899999999998
 30
0.0
 11
2.0
 21
48.41899999999998
 31
0.0
1001
ACAD
1000
RTMaterial
1005
0
  0
LINE
  5
5F44B
330
1F
100
AcDbEntity
  8
nocut
100
AcDbLine
 10
52.96287934679998
 20
49.05000000000001
 30
0.0
 11
48.99451001349996
 21
49.05000000000001
 31
0.0
1001
ACAD
1000
RTMaterial
1005
0
  0
ARC
  5
5F44C
330
1F
100
AcDbEntity
  8
cut
100
AcDbCircle
 10
60.11149880249996
 20
49.30000000000001
 30
0.0
 40
1.5
100
AcDbArc
 50
16.9999999999982
 51
95.35323670390081
1001
ACAD
1000
RTMaterial
1005
0
  0
ARC
  5
5F44D
330
1F
100
AcDbEntity
  8
nocut
100
AcDbCircle
 10
59.60051551119994
 20
48.15295145739998
 30
0.0
 40
1.199999999999999
100
AcDbArc
 50
16.41300196920164
 51
95.00911404089926
1001
ACAD
1000
RTMaterial
1005
0
  0
ARC
  5
5F44E
330
1F
100
AcDbEntity
  8
nocut
100
AcDbCircle
 10
52.96287934679998
 20
48.25
 30
0.0
 40
0.8
100
AcDbArc
 50
84.68666916940145
 51
90.0
1001
ACAD
1000
RTMaterial
1005
0
  0
ARC
  5
5F44F
330
1F
100
AcDbEntity
  8
nocut
100
AcDbCircle
 10
54.50213247739998
 20
49.71375116160004
 30
0.0
 40
0.8
100
AcDbArc
 50
264.6866691694015
 51
275.0091140408993
1001
ACAD
1000
RTMaterial
1005
0
  0
ARC
  5
5F451
330
1F
100
AcDbEntity
  8
1
100
AcDbCircle
 10
27.32820435249994
 20
-63.79669830020003
 30
0.0
 40
20.0
100
AcDbArc
 50
72.99999999999809
 51
112.0000000000013
1001
ACAD
1000
RTMaterial
1005
0
  0
ARC
  5
5F452
330
1F
100
AcDbEntity
  8
sk3
100
AcDbCircle
 10
73.99999999999995
 20
31.53794705399997
 30
0.0
 40
15.0
100
AcDbArc
 50
155.6681965097
 51
180.0
1001
ACAD
1000
RTMaterial
1005
0
  0
ARC
  5
5F453
330
1F
100
AcDbEntity
  8
sk3
100
AcDbCircle
 10
73.99999999999995
 20
-31.53794705410002
 30
0.0
 40
15.0
100
AcDbArc
 50
180.0
 51
204.3318034903
1001
ACAD
1000
RTMaterial
1005
0
  0
ARC
  5
5F457
330
1F
100
AcDbEntity
  8
1
100
AcDbCircle
 10
48.99451001349991
 20
-39.05000000000001
 30
0.0
 40
10.0
100
AcDbArc
 50
252.9999999999981
 51
270.0
1001
ACAD
1000
RTMaterial
1005
0
  0
ARC
  5
5F45A
330
1F
100
AcDbEntity
  8
1
100
AcDbCircle
 10
11.02809845429988
 20
-43.41899999999998
 30
0.0
 40
5.0
100
AcDbArc
 50
270.0
 51
292.0000000000013
1001
ACAD
1000
RTMaterial
1005
0
  0
ARC
  5
5F45B
102
{ACAD_REACTORS
330
5F6C1
330
5F73F
102
}
330
1F
100
AcDbEntity
  8
1
100
AcDbCircle
 10
2.0
 20
46.41899999999998
 30
0.0
 40
2.0
100
AcDbArc
 50
90.0
 51
180.0
1001
ACAD
1000
RTMaterial
1005
0
  0
ARC
  5
5F45C
102
{ACAD_REACTORS
330
5F6C1
330
5F6D9
102
}
330
1F
100
AcDbEntity
  8
1
100
AcDbCircle
 10
2.0
 20
-46.41899999999998
 30
0.0
 40
2.0
100
AcDbArc
 50
180.0
 51
270.0
1001
ACAD
1000
RTMaterial
1005
0
  0
ARC
  5
5F45D
330
1F
100
AcDbEntity
  8
1
100
AcDbCircle
 10
59.60051551119994
 20
-48.15295145740003
 30
0.0
 40
1.199999999999999
100
AcDbArc
 50
264.9908859591008
 51
343.5869980307983
1001
ACAD
1000
RTMaterial
1005
0
  0
ARC
  5
5F45E
330
1F
100
AcDbEntity
  8
sk3
100
AcDbCircle
 10
29.19999999999993
 20
18.75
 30
0.0
 40
0.8
100
AcDbArc
 50
0.0
 51
90.0
1001
ACAD
1000
RTMaterial
1005
0
  0
ARC
  5
5F45F
330
1F
100
AcDbEntity
  8
sk3
100
AcDbCircle
 10
29.19999999999993
 20
-18.75
 30
0.0
 40
0.8
100
AcDbArc
 50
270.0
 51
0.0
1001
ACAD
1000
RTMaterial
1005
0
  0
ARC
  5
5F460
330
1F
100
AcDbEntity
  8
sk3
100
AcDbCircle
 10
16.17735573009997
 20
-18.75
 30
0.0
 40
0.8
100
AcDbArc
 50
245.0000000000004
 51
270.0
1001
ACAD
1000
RTMaterial
1005
0
  0
ARC
  5
5F461
330
1F
100
AcDbEntity
  8
sk3
100
AcDbCircle
 10
16.17735573009997
 20
18.75
 30
0.0
 40
0.8
100
AcDbArc
 50
90.0
 51
114.9999999999996
1001
ACAD
1000
RTMaterial
1005
0
  0
ARC
  5
5F462
330
1F
100
AcDbEntity
  8
1
100
AcDbCircle
 10
54.50213247749991
 20
-49.71375116160004
 30
0.0
 40
0.8
100
AcDbArc
 50
84.99088595910073
 51
95.31333083059854
1001
ACAD
1000
RTMaterial
1005
0
  0
ARC
  5
5F463
330
1F
100
AcDbEntity
  8
sk3
100
AcDbCircle
 10
38.39999999999992
 20
-14.60000000000002
 30
0.0
 40
0.4
100
AcDbArc
 50
180.0
 51
270.0
1001
ACAD
1000
RTMaterial
1005
0
  0
ARC
  5
5F464
330
1F
100
AcDbEntity
  8
sk3
100
AcDbCircle
 10
38.39999999999992
 20
14.60000000000002
 30
0.0
 40
0.4
100
AcDbArc
 50
90.0
 51
180.0
1001
ACAD
1000
RTMaterial
1005
0
  0
ARC
  5
5F465
330
1F
100
AcDbEntity
  8
sk3
100
AcDbCircle
 10
30.39999999999992
 20
-10.39999999999998
 30
0.0
 40
0.4
100
AcDbArc
 50
90.0
 51
180.0
1001
ACAD
1000
RTMaterial
1005
0
  0
ARC
  5
5F466
330
1F
100
AcDbEntity
  8
sk3
100
AcDbCircle
 10
30.39999999999992
 20
10.39999999999998
 30
0.0
 40
0.4
100
AcDbArc
 50
180.0
 51
270.0
1001
ACAD
1000
RTMaterial
1005
0
  0
ARC
  5
5F467
330
1F
100
AcDbEntity
  8
nocut
100
AcDbCircle
 10
27.3282043525
 20
63.79669830020003
 30
0.0
 40
20.0
100
AcDbArc
 50
247.9999999999987
 51
286.9999999999985
1001
ACAD
1000
RTMaterial
1005
0
  0
ARC
  5
5F469
330
1F
100
AcDbEntity
  8
nocut
100
AcDbCircle
 10
48.99451001349996
 20
39.05000000000001
 30
0.0
 40
10.0
100
AcDbArc
 50
90.0
 51
106.9999999999985
1001
ACAD
1000
RTMaterial
1005
0
  0
ARC
  5
5F46C
330
1F
100
AcDbEntity
  8
nocut
100
AcDbCircle
 10
11.02809845429999
 20
43.41899999999998
 30
0.0
 40
5.0
100
AcDbArc
 50
67.99999999999866
 51
90.0
1001
ACAD
1000
RTMaterial
1005
0
  0
ARC
  5
5F46E
330
1F
100
AcDbEntity
  8
nocut
100
AcDbCircle
 10
2.0
 20
46.41899999999998
 30
0.0
 40
2.0
100
AcDbArc
 50
90.0
 51
180.0
1001
ACAD
1000
RTMaterial
1005
0
  0
SPLINE
  5
5F471
330
1F
100
AcDbEntity
  8
cut
100
AcDbSpline
210
0.0
220
0.0
230
1.0
 70
     8
 71
     3
 72
    22
 73
    18
 74
     0
 42
0.0000000001
 43
0.0000000001
 40
0.0
 40
0.0
 40
0.0
 40
0.0
 40
0.0666666667
 40
0.1333333333
 40
0.2
 40
0.2666666667
 40
0.3333333333
 40
0.4
 40
0.4666666667000001
 40
0.5333333333
 40
0.6
 40
0.6666666667
 40
0.7333333333
 40
0.8
 40
0.8666666667000001
 40
0.9333333333
 40
1.0
 40
1.0
 40
1.0
 40
1.0
 10
63.47384048889995
 20
41.81309149799995
 30
0.0
 10
63.47543832709999
 20
41.84123814209999
 30
0.0
 10
63.4784797826
 20
41.89704376209999
 30
0.0
 10
63.48253908059991
 20
41.97831128159998
 30
0.0
 10
63.48625878059994
 20
42.06006918949998
 30
0.0
 10
63.48969280859996
 20
42.14435173299995
 30
0.0
 10
63.49287163029993
 20
42.23306389189997
 30
0.0
 10
63.49569506839992
 20
42.32484198509996
 30
0.0
 10
63.4980970773999
 20
42.41855380859999
 30
0.0
 10
63.50003834049999
 20
42.51298642069997
 30
0.0
 10
63.50149700509991
 20
42.60702319269995
 30
0.0
 10
63.50245827199995
 20
42.69931408109999
 30
0.0
 10
63.50292848570001
 20
42.78868157030001
 30
0.0
 10
63.50294674439993
 20
42.87364684339997
 30
0.0
 10
63.50256814049993
 20
42.956082825
 30
0.0
 10
63.50181668489989
 20
43.03794161899992
 30
0.0
 10
63.50104381149998
 20
43.09431556589998
 30
0.0
 10
63.50058650509999
 20
43.12277063199997
 30
0.0
1001
ACAD
1000
RTMaterial
1005
0
  0
SPLINE
  5
5F472
330
1F
100
AcDbEntity
  8
cut
100
AcDbSpline
210
0.0
220
0.0
230
1.0
 70
     8
 71
     3
 72
    11
 73
     7
 74
     0
 42
0.0000000001
 43
0.0000000001
 40
0.0
 40
0.0
 40
0.0
 40
0.0
 40
0.25
 40
0.5
 40
0.75
 40
1.0
 40
1.0
 40
1.0
 40
1.0
 10
63.50000023460001
 20
43.15601146259996
 30
0.0
 10
63.49923035709998
 20
43.19205578899993
 30
0.0
 10
63.49529871579995
 20
43.26282324189998
 30
0.0
 10
63.48187254679993
 20
43.36552460649994
 30
0.0
 10
63.46223680579993
 20
43.46324037930003
 30
0.0
 10
63.44552746359994
 20
43.52511594309999
 30
0.0
 10
63.43637431679991
 20
43.55527764799996
 30
0.0
1001
ACAD
1000
RTMaterial
1005
0
  0
LINE
  5
5F473
330
1F
100
AcDbEntity
  8
cut
100
AcDbLine
 10
63.50058650509999
 20
43.12277063199997
 30
0.0
 11
63.50000023460001
 21
43.15601146259996
 31
0.0
1001
ACAD
1000
RTMaterial
1005
0
  0
SPLINE
  5
5F474
330
1F
100
AcDbEntity
  8
cut
100
AcDbSpline
210
0.0
220
0.0
230
1.0
 70
     8
 71
     3
 72
    11
 73
     7
 74
     0
 42
0.0000000001
 43
0.0000000001
 40
0.0
 40
0.0
 40
0.0
 40
0.0
 40
0.25
 40
0.5
 40
0.75
 40
1.0
 40
1.0
 40
1.0
 40
1.0
 10
56.24838147429994
 20
50.44457979769998
 30
0.0
 10
56.16748362959999
 20
50.43712223159997
 30
0.0
 10
55.99524441609998
 20
50.42189255049994
 30
0.0
 10
55.70411425819992
 20
50.39880426629998
 30
0.0
 10
55.38423011809999
 20
50.37666018019996
 30
0.0
 10
55.15043783789991
 20
50.36308691989995
 30
0.0
 10
55.02850851809995
 20
50.35680141249997
 30
0.0
1001
ACAD
1000
RTMaterial
1005
0
  0
SPLINE
  5
5F475
330
1F
100
AcDbEntity
  8
cut
100
AcDbSpline
210
0.0
220
0.0
230
1.0
 70
     8
 71
     3
 72
    10
 73
     6
 74
     0
 42
0.0000000001
 43
0.0000000001
 40
0.0
 40
0.0
 40
0.0
 40
0.0
 40
0.3333333333
 40
0.6666666667
 40
1.0
 40
1.0
 40
1.0
 40
1.0
 10
55.02850851809995
 20
50.35680141249997
 30
0.0
 10
54.9972825667
 20
50.35447354019999
 30
0.0
 10
54.9366053992
 20
50.34736336209999
 30
0.0
 10
54.85031553189998
 20
50.33008420899995
 30
0.0
 10
54.79697499369996
 20
50.31477840109999
 30
0.0
 10
54.77121398489993
 20
50.30628071879999
 30
0.0
1001
ACAD
1000
RTMaterial
1005
0
  0
SPLINE
  5
5F476
330
1F
100
AcDbEntity
  8
cut
100
AcDbSpline
210
0.0
220
0.0
230
1.0
 70
     8
 71
     3
 72
    10
 73
     6
 74
     0
 42
0.0000000001
 43
0.0000000001
 40
0.0
 40
0.0
 40
0.0
 40
0.0
 40
0.3333333333
 40
0.6666666667
 40
1.0
 40
1.0
 40
1.0
 40
1.0
 10
54.77121398489993
 20
50.30628071879999
 30
0.0
 10
54.76218900160001
 20
50.30330368309996
 30
0.0
 10
54.7442936761999
 20
50.29699259889998
 30
0.0
 10
54.71788525099992
 20
50.28642498419998
 30
0.0
 10
54.7006372637
 20
50.27867791970004
 30
0.0
 10
54.69209503629992
 20
50.27463040290001
 30
0.0
1001
ACAD
1000
RTMaterial
1005
0
  0
SPLINE
  5
5F477
330
1F
100
AcDbEntity
  8
cut
100
AcDbSpline
210
0.0
220
0.0
230
1.0
 70
     8
 71
     3
 72
    22
 73
    18
 74
     0
 42
0.0000000001
 43
0.0000000001
 40
0.0
 40
0.0
 40
0.0
 40
0.0
 40
0.0666666667
 40
0.1333333333
 40
0.2
 40
0.2666666667
 40
0.3333333333
 40
0.4
 40
0.4666666667000001
 40
0.5333333333
 40
0.6
 40
0.6666666667
 40
0.7333333333
 40
0.8
 40
0.8666666667000001
 40
0.9333333333
 40
1.0
 40
1.0
 40
1.0
 40
1.0
 10
54.69209503629992
 20
50.27463040290001
 30
0.0
 10
54.66764939579997
 20
50.2630474586
 30
0.0
 10
54.61924140709999
 20
50.23997604710001
 30
0.0
 10
54.54892626089992
 20
50.2060676181
 30
0.0
 10
54.47835194859994
 20
50.17164402329996
 30
0.0
 10
54.40577867709993
 20
50.13581444850001
 30
0.0
 10
54.32958209079998
 20
50.09772542389999
 30
0.0
 10
54.25096040519992
 20
50.05792023649997
 30
0.0
 10
54.17090113659998
 20
50.01686483040003
 30
0.0
 10
54.09044900049997
 20
49.97508601930002
 30
0.0
 10
54.0105562009
 20
49.93307941339998
 30
0.0
 10
53.9323669062
 20
49.89145280559995
 30
0.0
 10
53.85687125609996
 20
49.85075305179998
 30
0.0
 10
53.78529761009992
 20
49.8116935214
 30
0.0
 10
53.71604087959991
 20
49.77345867489998
 30
0.0
 10
53.64744415000001
 20
49.73517052909994
 30
0.0
 10
53.60032111919991
 20
49.7085835638
 30
0.0
 10
53.5765666193999
 20
49.69510609329995
 30
0.0
1001
ACAD
1000
RTMaterial
1005
0
  0
SPLINE
  5
5F478
330
1F
100
AcDbEntity
  8
cut
100
AcDbSpline
210
0.0
220
0.0
230
1.0
 70
     8
 71
     3
 72
    11
 73
     7
 74
     0
 42
0.0000000001
 43
0.0000000001
 40
0.0
 40
0.0
 40
0.0
 40
0.0
 40
0.25
 40
0.5
 40
0.75
 40
1.0
 40
1.0
 40
1.0
 40
1.0
 10
53.54884158429996
 20
49.67931466839996
 30
0.0
 10
53.52126599000001
 20
49.6635500388
 30
0.0
 10
53.46679721029994
 20
49.62981073869997
 30
0.0
 10
53.38661724939999
 20
49.57186340309999
 30
0.0
 10
53.30999948039999
 20
49.50788493639999
 30
0.0
 10
53.26108809679993
 20
49.46107687049994
 30
0.0
 10
53.2372318653999
 20
49.43660575809997
 30
0.0
1001
ACAD
1000
RTMaterial
1005
0
  0
LINE
  5
5F479
330
1F
100
AcDbEntity
  8
cut
100
AcDbLine
 10
53.5765666193999
 20
49.69510609329995
 30
0.0
 11
53.54884158429996
 21
49.67931466839996
 31
0.0
1001
ACAD
1000
RTMaterial
1005
0
  0
SPLINE
  5
5F47A
330
1F
100
AcDbEntity
  8
cut
100
AcDbSpline
210
0.0
220
0.0
230
1.0
 70
     8
 71
     3
 72
    21
 73
    17
 74
     0
 42
0.0000000001
 43
0.0000000001
 40
0.0
 40
0.0
 40
0.0
 40
0.0
 40
0.0714285714
 40
0.1428571429
 40
0.2142857143
 40
0.2857142857
 40
0.3571428571
 40
0.4285714286
 40
0.5
 40
0.5714285714000001
 40
0.6428571429
 40
0.7142857143000001
 40
0.7857142857
 40
0.8571428570999998
 40
0.9285714285999999
 40
1.0
 40
1.0
 40
1.0
 40
1.0
 10
53.2372318653999
 20
49.43660575809997
 30
0.0
 10
53.17831874629991
 20
49.37617418659994
 30
0.0
 10
53.0553251032
 20
49.25003041960002
 30
0.0
 10
52.85610136639997
 20
49.0457850185
 30
0.0
 10
52.63979299649992
 20
48.8241169167
 30
0.0
 10
52.40530315359996
 20
48.58392816019994
 30
0.0
 10
52.15156428719996
 20
48.32415508280002
 30
0.0
 10
51.87759688069997
 20
48.04382882229998
 30
0.0
 10
51.58045454289998
 20
47.73997740879997
 30
0.0
 10
51.25875615299998
 20
47.411239567
 30
0.0
 10
50.91068227
 20
47.05581671869992
 30
0.0
 10
50.53449654959996
 20
46.67200883649996
 30
0.0
 10
50.12845428669999
 20
46.25812222329995
 30
0.0
 10
49.6907511414999
 20
45.81242024299996
 30
0.0
 10
49.21983711559988
 20
45.33344519769997
 30
0.0
 10
48.88209323039991
 20
44.99035415079993
 30
0.0
 10
48.70739137949994
 20
44.8130154561
 30
0.0
1001
ACAD
1000
RTMaterial
1005
0
  0
SPLINE
  5
5F47B
330
1F
100
AcDbEntity
  8
cut
100
AcDbSpline
210
0.0
220
0.0
230
1.0
 70
     8
 71
     3
 72
    16
 73
    12
 74
     0
 42
0.0000000001
 43
0.0000000001
 40
0.0
 40
0.0
 40
0.0
 40
0.0
 40
0.1111111111
 40
0.2222222222
 40
0.3333333333
 40
0.4444444444000001
 40
0.5555555556
 40
0.6666666667
 40
0.7777777778
 40
0.8888888889
 40
1.0
 40
1.0
 40
1.0
 40
1.0
 10
48.70739137949994
 20
44.8130154561
 30
0.0
 10
48.68285524489994
 20
44.78810898789999
 30
0.0
 10
48.6355560135999
 20
44.73631119829997
 30
0.0
 10
48.56940729669992
 20
44.65175511899992
 30
0.0
 10
48.51001333709991
 20
44.56266221309999
 30
0.0
 10
48.45707628019994
 20
44.46901082570002
 30
0.0
 10
48.41107595349996
 20
44.37096184609998
 30
0.0
 10
48.37239292139992
 20
44.26961279159996
 30
0.0
 10
48.34106320059999
 20
44.16518587329995
 30
0.0
 10
48.317307276
 20
44.0579900267
 30
0.0
 10
48.30677991069996
 20
43.98564443559997
 30
0.0
 10
48.30283569269994
 20
43.94916937769994
 30
0.0
1001
ACAD
1000
RTMaterial
1005
0
  0
LINE
  5
5F47C
330
1F
100
AcDbEntity
  8
cut
100
AcDbLine
 10
48.30283569269994
 20
43.94916937769994
 30
0.0
 11
48.29980660149994
 21
43.91816166149993
 31
0.0
1001
ACAD
1000
RTMaterial
1005
0
  0
LINE
  5
5F47D
330
1F
100
AcDbEntity
  8
cut
100
AcDbLine
 10
48.29980660149994
 20
43.91816166149993
 30
0.0
 11
48.29850311489991
 21
43.88663269939996
 31
0.0
1001
ACAD
1000
RTMaterial
1005
0
  0
SPLINE
  5
5F47E
330
1F
100
AcDbEntity
  8
cut
100
AcDbSpline
210
0.0
220
0.0
230
1.0
 70
     8
 71
     3
 72
    10
 73
     6
 74
     0
 42
0.0000000001
 43
0.0000000001
 40
0.0
 40
0.0
 40
0.0
 40
0.0
 40
0.3333333333
 40
0.6666666667
 40
1.0
 40
1.0
 40
1.0
 40
1.0
 10
48.29850311489991
 20
43.88663269939996
 30
0.0
 10
48.29765323800001
 20
43.85907096939996
 30
0.0
 10
48.29749363149989
 20
43.80427687140001
 30
0.0
 10
48.3016672009
 20
43.72279920239998
 30
0.0
 10
48.30733882549992
 20
43.66951987970003
 30
0.0
 10
48.31086566769994
 20
43.6430882706
 30
0.0
1001
ACAD
1000
RTMaterial
1005
0
  0
SPLINE
  5
5F47F
330
1F
100
AcDbEntity
  8
cut
100
AcDbSpline
210
0.0
220
0.0
230
1.0
 70
     8
 71
     3
 72
    15
 73
    11
 74
     0
 42
0.0000000001
 43
0.0000000001
 40
0.0
 40
0.0
 40
0.0
 40
0.0
 40
0.125
 40
0.25
 40
0.375
 40
0.5
 40
0.625
 40
0.75
 40
0.875
 40
1.0
 40
1.0
 40
1.0
 40
1.0
 10
48.31086566769994
 20
43.6430882706
 30
0.0
 10
48.31476417029995
 20
43.61387128489996
 30
0.0
 10
48.32432187929993
 20
43.55570466599999
 30
0.0
 10
48.34426699539989
 20
43.46858964829993
 30
0.0
 10
48.3695174867999
 20
43.38370098140001
 30
0.0
 10
48.40003496129992
 20
43.30018034909994
 30
0.0
 10
48.43574366889999
 20
43.21891639129995
 30
0.0
 10
48.47675034209993
 20
43.13995143619997
 30
0.0
 10
48.5228079048
 20
43.06359284669997
 30
0.0
 10
48.55650096919993
 20
43.01498378709999
 30
0.0
 10
48.57413048159997
 20
42.99121007460001
 30
0.0
1001
ACAD
1000
RTMaterial
1005
0
  0
SPLINE
  5
5F480
330
1F
100
AcDbEntity
  8
cut
100
AcDbSpline
210
0.0
220
0.0
230
1.0
 70
     8
 71
     3
 72
    17
 73
    13
 74
     0
 42
0.0000000001
 43
0.0000000001
 40
0.0
 40
0.0
 40
0.0
 40
0.0
 40
0.1
 40
0.2
 40
0.3
 40
0.4
 40
0.5
 40
0.6
 40
0.7
 40
0.8
 40
0.9
 40
1.0
 40
1.0
 40
1.0
 40
1.0
 10
48.57413048159997
 20
42.99121007460001
 30
0.0
 10
48.6241322248
 20
42.92378183070002
 30
0.0
 10
48.72824087599991
 20
42.78339860409994
 30
0.0
 10
48.8961459619
 20
42.55701895479996
 30
0.0
 10
49.07752116469993
 20
42.31251409790002
 30
0.0
 10
49.27273128579992
 20
42.04940181669996
 30
0.0
 10
49.48259990089997
 20
41.76658149000002
 30
0.0
 10
49.70935566109989
 20
41.46106359459998
 30
0.0
 10
49.95418611679991
 20
41.13126354009994
 30
0.0
 10
50.21858817869992
 20
40.77518372540004
 30
0.0
 10
50.50376289969989
 20
40.39122953349999
 30
0.0
 10
50.70902521009992
 20
40.11494873679999
 30
0.0
 10
50.81533796629997
 20
39.97187696129998
 30
0.0
1001
ACAD
1000
RTMaterial
1005
0
  0
SPLINE
  5
5F481
330
1F
100
AcDbEntity
  8
cut
100
AcDbSpline
210
0.0
220
0.0
230
1.0
 70
     8
 71
     3
 72
    11
 73
     7
 74
     0
 42
0.0000000001
 43
0.0000000001
 40
0.0
 40
0.0
 40
0.0
 40
0.0
 40
0.25
 40
0.5
 40
0.75
 40
1.0
 40
1.0
 40
1.0
 40
1.0
 10
50.81533796629997
 20
39.97187696129998
 30
0.0
 10
50.86442791529993
 20
39.9058135235
 30
0.0
 10
50.96855226519989
 20
39.76602834649992
 30
0.0
 10
51.14358571459996
 20
39.53243344970002
 30
0.0
 10
51.33523521289993
 20
39.27834965259996
 30
0.0
 10
51.47507186419995
 20
39.09433655039999
 30
0.0
 10
51.54799208919991
 20
38.99880558339999
 30
0.0
1001
ACAD
1000
RTMaterial
1005
0
  0
SPLINE
  5
5F482
330
1F
100
AcDbEntity
  8
cut
100
AcDbSpline
210
0.0
220
0.0
230
1.0
 70
     8
 71
     3
 72
    10
 73
     6
 74
     0
 42
0.0000000001
 43
0.0000000001
 40
0.0
 40
0.0
 40
0.0
 40
0.0
 40
0.3333333333
 40
0.6666666667
 40
1.0
 40
1.0
 40
1.0
 40
1.0
 10
51.54799208919991
 20
38.99880558339999
 30
0.0
 10
51.56731258389999
 20
38.97471654750001
 30
0.0
 10
51.60717637059992
 20
38.92896815680001
 30
0.0
 10
51.67051264959997
 20
38.86684955679999
 30
0.0
 10
51.71411851340002
 20
38.8303511213
 30
0.0
 10
51.73627815459991
 20
38.81319129309998
 30
0.0
1001
ACAD
1000
RTMaterial
1005
0
  0
SPLINE
  5
5F483
330
1F
100
AcDbEntity
  8
cut
100
AcDbSpline
210
0.0
220
0.0
230
1.0
 70
     8
 71
     3
 72
    10
 73
     6
 74
     0
 42
0.0000000001
 43
0.0000000001
 40
0.0
 40
0.0
 40
0.0
 40
0.0
 40
0.3333333333
 40
0.6666666667
 40
1.0
 40
1.0
 40
1.0
 40
1.0
 10
51.73627815459991
 20
38.81319129309998
 30
0.0
 10
51.74389934149991
 20
38.80728965169999
 30
0.0
 10
51.75939967819994
 20
38.79575320589998
 30
0.0
 10
51.78346959679998
 20
38.77925369309997
 30
0.0
 10
51.80001092549997
 20
38.76883247929999
 30
0.0
 10
51.80840894269994
 20
38.76376198180003
 30
0.0
1001
ACAD
1000
RTMaterial
1005
0
  0
SPLINE
  5
5F484
330
1F
100
AcDbEntity
  8
cut
100
AcDbSpline
210
0.0
220
0.0
230
1.0
 70
     8
 71
     3
 72
    22
 73
    18
 74
     0
 42
0.0000000001
 43
0.0000000001
 40
0.0
 40
0.0
 40
0.0
 40
0.0
 40
0.0666666667
 40
0.1333333333
 40
0.2
 40
0.2666666667
 40
0.3333333333
 40
0.4
 40
0.4666666667000001
 40
0.5333333333
 40
0.6
 40
0.6666666667
 40
0.7333333333
 40
0.8
 40
0.8666666667000001
 40
0.9333333333
 40
1.0
 40
1.0
 40
1.0
 40
1.0
 10
51.80840894269994
 20
38.76376198180003
 30
0.0
 10
51.83236459589995
 20
38.74929820089994
 30
0.0
 10
51.87991786059996
 20
38.72072861579994
 30
0.0
 10
51.94933668109996
 20
38.67943791390002
 30
0.0
 10
52.01933563389997
 20
38.63820911149992
 30
0.0
 10
52.0916751158
 20
38.59604762499998
 30
0.0
 10
52.16801050149996
 20
38.55204106829996
 30
0.0
 10
52.24719152519998
 20
38.50690899949995
 30
0.0
 10
52.32825556149993
 20
38.46123395780001
 30
0.0
 10
52.41015931719999
 20
38.41561256649993
 30
0.0
 10
52.49193279289994
 20
38.37058369390002
 30
0.0
 10
52.57239725929998
 20
38.32678920140001
 30
0.0
 10
52.65051647439992
 20
38.28477217279999
 30
0.0
 10
52.72497498449997
 20
38.24518864250001
 30
0.0
 10
52.79739172579997
 20
38.20711839199999
 30
0.0
 10
52.86946860569997
 20
38.16963095019998
 30
0.0
 10
52.9192222876
 20
38.14402800189993
 30
0.0
 10
52.94436606729999
 20
38.13116108720004
 30
0.0
1001
ACAD
1000
RTMaterial
1005
0
  0
LINE
  5
5F485
330
1F
100
AcDbEntity
  8
cut
100
AcDbLine
 10
52.94436606729999
 20
38.13116108720004
 30
0.0
 11
52.9738076401
 21
38.11608515929999
 31
0.0
1001
ACAD
1000
RTMaterial
1005
0
  0
SPLINE
  5
5F486
330
1F
100
AcDbEntity
  8
cut
100
AcDbSpline
210
0.0
220
0.0
230
1.0
 70
     8
 71
     3
 72
    10
 73
     6
 74
     0
 42
0.0000000001
 43
0.0000000001
 40
0.0
 40
0.0
 40
0.0
 40
0.0
 40
0.3333333333
 40
0.6666666667
 40
1.0
 40
1.0
 40
1.0
 40
1.0
 10
52.9738076401
 20
38.11608515929999
 30
0.0
 10
53.01418313649998
 20
38.09539388369996
 30
0.0
 10
53.09629283719999
 20
38.05714488949997
 30
0.0
 10
53.22417002779997
 20
38.00883253699999
 30
0.0
 10
53.31114552609989
 20
37.98306168689993
 30
0.0
 10
53.35518923329999
 20
37.97177910419998
 30
0.0
1001
ACAD
1000
RTMaterial
1005
0
  0
SPLINE
  5
5F487
330
1F
100
AcDbEntity
  8
cut
100
AcDbSpline
210
0.0
220
0.0
230
1.0
 70
     8
 71
     3
 72
    21
 73
    17
 74
     0
 42
0.0000000001
 43
0.0000000001
 40
0.0
 40
0.0
 40
0.0
 40
0.0
 40
0.0714285714
 40
0.1428571429
 40
0.2142857143
 40
0.2857142857
 40
0.3571428571
 40
0.4285714286
 40
0.5
 40
0.5714285714000001
 40
0.6428571429
 40
0.7142857143000001
 40
0.7857142857
 40
0.8571428570999998
 40
0.9285714285999999
 40
1.0
 40
1.0
 40
1.0
 40
1.0
 10
53.35518923329999
 20
37.97177910419998
 30
0.0
 10
53.43913716909998
 20
37.95027434009995
 30
0.0
 10
53.61462466599999
 20
37.90532172849998
 30
0.0
 10
53.89962261059991
 20
37.83231876820003
 30
0.0
 10
54.20941025729991
 20
37.75297017470001
 30
0.0
 10
54.5453507716
 20
37.66692730729995
 30
0.0
 10
54.90865107819996
 20
37.57388229299994
 30
0.0
 10
55.30055494819993
 20
37.47351818799996
 30
0.0
 10
55.72497708169994
 20
37.36483352939996
 30
0.0
 10
56.18362533390001
 20
37.24739327129999
 30
0.0
 10
56.67883516139994
 20
37.12060171720003
 30
0.0
 10
57.21280433999999
 20
36.98389856569998
 30
0.0
 10
57.78773748659995
 20
36.83672233890002
 30
0.0
 10
58.40590071849994
 20
36.67849649659996
 30
0.0
 10
59.06921788529991
 20
36.50873268099997
 30
0.0
 10
59.54361916469991
 20
36.3873336936
 30
0.0
 10
59.78869359389995
 20
36.3246237189
 30
0.0
1001
ACAD
1000
RTMaterial
1005
0
  0
SPLINE
  5
5F488
330
1F
100
AcDbEntity
  8
cut
100
AcDbSpline
210
0.0
220
0.0
230
1.0
 70
     8
 71
     3
 72
    15
 73
    11
 74
     0
 42
0.0000000001
 43
0.0000000001
 40
0.0
 40
0.0
 40
0.0
 40
0.0
 40
0.125
 40
0.25
 40
0.375
 40
0.5
 40
0.625
 40
0.75
 40
0.875
 40
1.0
 40
1.0
 40
1.0
 40
1.0
 10
59.78869359389995
 20
36.3246237189
 30
0.0
 10
59.83340758769992
 20
36.31318224189994
 30
0.0
 10
59.9215748169999
 20
36.29408656999999
 30
0.0
 10
60.05069861169994
 20
36.27604025189993
 30
0.0
 10
60.1739906262
 20
36.26798596419997
 30
0.0
 10
60.29290661819999
 20
36.26928431210001
 30
0.0
 10
60.40653598429997
 20
36.27932550839995
 30
0.0
 10
60.51523276889992
 20
36.29741603519994
 30
0.0
 10
60.6192547448
 20
36.32322190389999
 30
0.0
 10
60.68503795549992
 20
36.34522442049996
 30
0.0
 10
60.71710647599997
 20
36.35737304579993
 30
0.0
1001
ACAD
1000
RTMaterial
1005
0
  0
SPLINE
  5
5F489
330
1F
100
AcDbEntity
  8
cut
100
AcDbSpline
210
0.0
220
0.0
230
1.0
 70
     8
 71
     3
 72
    10
 73
     6
 74
     0
 42
0.0000000001
 43
0.0000000001
 40
0.0
 40
0.0
 40
0.0
 40
0.0
 40
0.3333333333
 40
0.6666666667
 40
1.0
 40
1.0
 40
1.0
 40
1.0
 10
60.71710647599997
 20
36.35737304579993
 30
0.0
 10
60.7231597608
 20
36.359666232
 30
0.0
 10
60.73513931949998
 20
36.36439028069998
 30
0.0
 10
60.75273609070001
 20
36.37189287680002
 30
0.0
 10
60.76420468129999
 20
36.37715812019997
 30
0.0
 10
60.76987613169996
 20
36.37985439829993
 30
0.0
1001
ACAD
1000
RTMaterial
1005
0
  0
SPLINE
  5
5F48A
330
1F
100
AcDbEntity
  8
cut
100
AcDbSpline
210
0.0
220
0.0
230
1.0
 70
     8
 71
     3
 72
    10
 73
     6
 74
     0
 42
0.0000000001
 43
0.0000000001
 40
0.0
 40
0.0
 40
0.0
 40
0.0
 40
0.3333333333
 40
0.6666666667
 40
1.0
 40
1.0
 40
1.0
 40
1.0
 10
60.76987613169996
 20
36.37985439829993
 30
0.0
 10
60.7928278030999
 20
36.39076590869996
 30
0.0
 10
60.83735762959992
 20
36.41364583699999
 30
0.0
 10
60.9004317738
 20
36.4509653614
 30
0.0
 10
60.93954579769996
 20
36.4774627361
 30
0.0
 10
60.95844612399997
 20
36.4910933452
 30
0.0
1001
ACAD
1000
RTMaterial
1005
0
  0
SPLINE
  5
5F48B
330
1F
100
AcDbEntity
  8
cut
100
AcDbSpline
210
0.0
220
0.0
230
1.0
 70
     8
 71
     3
 72
    15
 73
    11
 74
     0
 42
0.0000000001
 43
0.0000000001
 40
0.0
 40
0.0
 40
0.0
 40
0.0
 40
0.125
 40
0.25
 40
0.375
 40
0.5
 40
0.625
 40
0.75
 40
0.875
 40
1.0
 40
1.0
 40
1.0
 40
1.0
 10
60.95844612399997
 20
36.4910933452
 30
0.0
 10
60.98045231969996
 20
36.50696385699996
 30
0.0
 10
61.02317320849994
 20
36.54015440809997
 30
0.0
 10
61.08373739059999
 20
36.59450921089996
 30
0.0
 10
61.13989579459991
 20
36.65251753259997
 30
0.0
 10
61.19271108519996
 20
36.71468987459997
 30
0.0
 10
61.24185990179995
 20
36.78094712699999
 30
0.0
 10
61.28704398789995
 20
36.85095616069998
 30
0.0
 10
61.32815035120001
 20
36.92414844489997
 30
0.0
 10
61.35268522639996
 20
36.97457573720004
 30
0.0
 10
61.36426485989995
 20
37.00023064999999
 30
0.0
1001
ACAD
1000
RTMaterial
1005
0
  0
SPLINE
  5
5F48C
330
1F
100
AcDbEntity
  8
cut
100
AcDbSpline
210
0.0
220
0.0
230
1.0
 70
     8
 71
     3
 72
    16
 73
    12
 74
     0
 42
0.0000000001
 43
0.0000000001
 40
0.0
 40
0.0
 40
0.0
 40
0.0
 40
0.1111111111
 40
0.2222222222
 40
0.3333333333
 40
0.4444444444000001
 40
0.5555555556
 40
0.6666666667
 40
0.7777777778
 40
0.8888888889
 40
1.0
 40
1.0
 40
1.0
 40
1.0
 10
61.36426485989995
 20
37.00023064999999
 30
0.0
 10
61.40169419019997
 20
37.08315609009998
 30
0.0
 10
61.48021126609996
 20
37.25716115789999
 30
0.0
 10
61.60887739929996
 20
37.54247692540003
 30
0.0
 10
61.74863355329995
 20
37.85258872790001
 30
0.0
 10
61.8998610964
 20
38.18838729279998
 30
0.0
 10
62.06419639809991
 20
38.55355772129997
 30
0.0
 10
62.24236782199994
 20
38.9497792336
 30
0.0
 10
62.4354166151
 20
39.3794325225
 30
0.0
 10
62.64412657819997
 20
39.84433507709997
 30
0.0
 10
62.79458774429992
 20
40.17978464419996
 30
0.0
 10
62.87256837879994
 20
40.35372322619998
 30
0.0
1001
ACAD
1000
RTMaterial
1005
0
  0
SPLINE
  5
5F48D
330
1F
100
AcDbEntity
  8
cut
100
AcDbSpline
210
0.0
220
0.0
230
1.0
 70
     8
 71
     3
 72
    11
 73
     7
 74
     0
 42
0.0000000001
 43
0.0000000001
 40
0.0
 40
0.0
 40
0.0
 40
0.0
 40
0.25
 40
0.5
 40
0.75
 40
1.0
 40
1.0
 40
1.0
 40
1.0
 10
62.87256837879994
 20
40.35372322619998
 30
0.0
 10
62.90592133439992
 20
40.42811818129997
 30
0.0
 10
62.97715503
 20
40.58624676229993
 30
0.0
 10
63.09848408099998
 20
40.85256339070002
 30
0.0
 10
63.23290720129995
 20
41.14409764079994
 30
0.0
 10
63.3320622265
 20
41.35641324179999
 30
0.0
 10
63.38404129409997
 20
41.46692569009997
 30
0.0
1001
ACAD
1000
RTMaterial
1005
0
  0
SPLINE
  5
5F48E
330
1F
100
AcDbEntity
  8
cut
100
AcDbSpline
210
0.0
220
0.0
230
1.0
 70
     8
 71
     3
 72
    10
 73
     6
 74
     0
 42
0.0000000001
 43
0.0000000001
 40
0.0
 40
0.0
 40
0.0
 40
0.0
 40
0.3333333333
 40
0.6666666667
 40
1.0
 40
1.0
 40
1.0
 40
1.0
 10
63.38404129409997
 20
41.46692569009997
 30
0.0
 10
63.39697467809997
 20
41.49617011309999
 30
0.0
 10
63.41989132279997
 20
41.554396247
 30
0.0
 10
63.44629177399991
 20
41.6411589374
 30
0.0
 10
63.45858605339998
 20
41.6974165217
 30
0.0
 10
63.4635500089999
 20
41.72522370500002
 30
0.0
1001
ACAD
1000
RTMaterial
1005
0
  0
SPLINE
  5
5F48F
330
1F
100
AcDbEntity
  8
cut
100
AcDbSpline
210
0.0
220
0.0
230
1.0
 70
     8
 71
     3
 72
    10
 73
     6
 74
     0
 42
0.0000000001
 43
0.0000000001
 40
0.0
 40
0.0
 40
0.0
 40
0.0
 40
0.3333333333
 40
0.6666666667
 40
1.0
 40
1.0
 40
1.0
 40
1.0
 10
63.4635500089999
 20
41.72522370500002
 30
0.0
 10
63.46467850149991
 20
41.7315453164
 30
0.0
 10
63.46680679359991
 20
41.74412860809996
 30
0.0
 10
63.469599931
 20
41.76269594769997
 30
0.0
 10
63.4712390846999
 20
41.77512171680001
 30
0.0
 10
63.47199999949992
 20
41.78132535329996
 30
0.0
1001
ACAD
1000
RTMaterial
1005
0
  0
LINE
  5
5F490
330
1F
100
AcDbEntity
  8
cut
100
AcDbLine
 10
63.47199999949992
 20
41.78132535329996
 30
0.0
 11
63.47384048889995
 21
41.81309149799995
 31
0.0
1001
ACAD
1000
RTMaterial
1005
0
  0
LINE
  5
5F5CB
330
1F
100
AcDbEntity
  8
nocut
100
AcDbLine
 10
0.0
 20
0.0
 30
0.0
 11
62.19999999999998
 21
0.0
 31
0.0
  0
DIMENSION
  5
5F662
330
1F
100
AcDbEntity
  8
2
100
AcDbDimension
  2
*D59
 10
98.89875600668171
 20
-50.80000000000001
 30
0.0
 11
94.84875600668173
 21
-1.749999999999991
 31
0.0
 70
    32
  1
%%C<>
 71
     5
 42
101.6
  3
\M+18352\M+18373\M+1815B - ISO-25
100
AcDbAlignedDimension
 13
60.11149880249996
 23
50.80000000000001
 33
0.0
 14
60.11149880249996
 24
-50.80000000000001
 34
0.0
 50
90.0
100
AcDbRotatedDimension
1001
ACAD
1000
DSTYLE
1002
{
1070
     4
1000
%%C[]"
1070
    40
1040
1.0
1070
    76
1070
     1
1070
   143
1040
0.0393700787401575
1070
   170
1070
     1
1070
   171
1070
     3
1070
   173
1070
     1
1070
   271
1070
     8
1070
   285
1070
     4
1070
   344
1005
32F1
1002
}
  0
DIMENSION
  5
5F67A
330
1F
100
AcDbEntity
  8
2
100
AcDbDimension
  2
*D60
 10
86.47930996829684
 20
-43.05500000000001
 30
0.0
 11
82.42930996829684
 21
-1.74999999999999
 31
0.0
 70
    32
  1
%%C<>
 71
     5
 42
86.11000000000002
  3
\M+18352\M+18373\M+1815B - ISO-25
100
AcDbAlignedDimension
 13
63.31561308721848
 23
43.05500000000001
 33
0.0
 14
63.31561308721848
 24
-43.05500000000001
 34
0.0
 50
90.0
100
AcDbRotatedDimension
1001
ACAD
1000
DSTYLE
1002
{
1070
     4
1000
%%C[]"
1070
    40
1040
1.0
1070
    76
1070
     1
1070
   143
1040
0.0393700787401575
1070
   170
1070
     1
1070
   171
1070
     3
1070
   173
1070
     1
1070
   271
1070
     8
1070
   285
1070
     4
1070
   344
1005
32F1
1002
}
  0
DIMENSION
  5
5F692
102
{ACAD_XDICTIONARY
360
5F69F
102
}
102
{ACAD_REACTORS
330
5F6A9
102
}
330
1F
100
AcDbEntity
  8
sk2
100
AcDbDimension
  2
*D61
 10
-19.71151154628132
 20
-19.05000000000001
 30
0.0
 11
-19.71151154628131
 21
0.0000000000000012
 31
0.0
 70
   160
  1
%%C<>
 71
     5
 42
38.10000000000002
  3
\M+18352\M+18373\M+1815B - ISO-25
100
AcDbAlignedDimension
 13
8.0
 23
19.05000000000001
 33
0.0
 14
8.0
 24
-19.05000000000001
 34
0.0
 50
90.0
100
AcDbRotatedDimension
1001
ACAD
1000
DSTYLE
1002
{
1070
     4
1000
%%c[]"
1070
    40
1040
1.0
1070
   143
1040
0.0393700787401575
1070
   170
1070
     1
1070
   171
1070
     3
1070
   271
1070
     8
1070
   285
1070
     4
1002
}
  0
DIMENSION
  5
5F6AA
102
{ACAD_XDICTIONARY
360
5F6B7
102
}
102
{ACAD_REACTORS
330
5F6C1
102
}
330
1F
100
AcDbEntity
  8
sk2
100
AcDbDimension
  2
*D62
 10
-32.31604547944079
 20
-48.41899999999998
 30
0.0
 11
-36.36604547944077
 21
0.0000000000000025
 31
0.0
 70
    32
  1
%%C<>
 71
     5
 42
96.83799999999997
  3
\M+18352\M+18373\M+1815B - ISO-25
100
AcDbAlignedDimension
 13
2.0
 23
48.41899999999998
 33
0.0
 14
2.0
 24
-48.41899999999998
 34
0.0
 50
90.0
100
AcDbRotatedDimension
1001
ACAD
1000
DSTYLE
1002
{
1070
     4
1000
%%c[]"
1070
    40
1040
1.0
1070
   143
1040
0.0393700787401575
1070
   170
1070
     1
1070
   171
1070
     3
1070
   271
1070
     8
1070
   285
1070
     4
1002
}
  0
DIMENSION
  5
5F6C2
102
{ACAD_XDICTIONARY
360
5F6CF
102
}
102
{ACAD_REACTORS
330
5F6D9
102
}
330
1F
100
AcDbEntity
  8
sk2
100
AcDbDimension
  2
*D63
 10
29.99999999999994
 20
-71.81330571068452
 30
0.0
 11
14.99999999999997
 21
-71.81330571068452
 31
0.0
 70
   160
 71
     5
 42
29.99999999999995
  3
\M+18352\M+18373\M+1815B - ISO-25
100
AcDbAlignedDimension
 13
0.0
 23
-46.41899999999998
 33
0.0
 14
29.99999999999995
 24
-18.74999330870003
 34
0.0
100
AcDbRotatedDimension
1001
ACAD
1000
DSTYLE
1002
{
1070
     4
1000
[]"
1070
    40
1040
1.0
1070
   143
1040
0.0393700787401575
1070
   170
1070
     1
1070
   171
1070
     3
1070
   271
1070
     8
1070
   285
1070
     4
1002
}
  0
DIMENSION
  5
5F6DA
330
1F
100
AcDbEntity
  8
2
100
AcDbDimension
  2
*D64
 10
61.39999999999991
 20
-71.81330571068452
 30
0.0
 11
94.09166666666664
 21
-71.81330571068452
 31
0.0
 70
   160
  1
<>(MAX)
 71
     5
 42
2.100000000000022
  3
\M+18352\M+18373\M+1815B - ISO-25
100
AcDbAlignedDimension
 13
63.49999999999994
 23
43.15602244547616
 33
0.0
 14
61.39999999999992
 24
36.03333605792798
 34
0.0
100
AcDbRotatedDimension
1001
ACAD
1000
DSTYLE
1002
{
1070
     4
1000
"
1070
    40
1040
1.0
1070
   143
1040
0.0393700787401575
1070
   170
1070
     1
1070
   171
1070
     3
1070
   271
1070
     8
1070
   285
1070
     4
1002
}
  0
DIMENSION
  5
5F6F4
330
1F
100
AcDbEntity
  8
2
100
AcDbDimension
  2
*D65
 10
61.49999999999995
 20
65.18426129943441
 30
0.0
 11
-5.258333333333382
 21
69.2342612994344
 31
0.0
 70
    32
  1
<>(APMX AT HIGH FEED PROCESS)
 71
     5
 42
2.0
  3
\M+18352\M+18373\M+1815B - ISO-25
100
AcDbAlignedDimension
 13
63.49999999999994
 23
43.15602244547616
 33
0.0
 14
61.49999999999995
 24
49.11246714892519
 34
0.0
100
AcDbRotatedDimension
1001
ACAD
1000
DSTYLE
1002
{
1070
     4
1000
"
1070
    40
1040
1.0
1070
   143
1040
0.0393700787401575
1070
   170
1070
     1
1070
   171
1070
     3
1070
   271
1070
     8
1070
   285
1070
     4
1002
}
  0
DIMENSION
  5
5F70E
330
1F
100
AcDbEntity
  8
2
100
AcDbDimension
  2
*D66
 10
60.49999999999994
 20
76.44602356844325
 30
0.0
 11
33.11666666666662
 21
80.49602356844324
 31
0.0
 70
    32
  1
APMX<>
 71
     5
 42
3.0
  3
\M+18352\M+18373\M+1815B - ISO-25
100
AcDbAlignedDimension
 13
63.49999999999994
 23
43.15602244547616
 33
0.0
 14
60.49999999999994
 24
49.98237812395834
 34
0.0
100
AcDbRotatedDimension
1001
ACAD
1000
DSTYLE
1002
{
1070
     4
1000
"
1070
    40
1040
1.0
1070
   143
1040
0.0393700787401575
1070
   170
1070
     1
1070
   171
1070
     3
1070
   271
1070
     8
1070
   285
1070
     4
1002
}
  0
DIMENSION
  5
5F728
102
{ACAD_XDICTIONARY
360
5F735
102
}
102
{ACAD_REACTORS
330
5F73F
102
}
330
1F
100
AcDbEntity
  8
2
100
AcDbDimension
  2
*D67
 10
0.0000000000000025
 20
87.95941829194976
 30
0.0
 11
31.74999999999997
 21
92.00941829194976
 31
0.0
 70
    32
 71
     5
 42
63.49999999999994
  3
\M+18352\M+18373\M+1815B - ISO-25
100
AcDbAlignedDimension
 13
63.49999999999994
 23
43.15602244547616
 33
0.0
 14
0.0
 24
46.41899999999998
 34
0.0
100
AcDbRotatedDimension
1001
ACAD
1000
DSTYLE
1002
{
1070
     4
1000
"
1070
    40
1040
1.0
1070
   143
1040
0.0393700787401575
1070
   170
1070
     1
1070
   171
1070
     3
1070
   271
1070
     8
1070
   285
1070
     4
1002
}
  0
DIMENSION
  5
5F742
330
1F
100
AcDbEntity
  8
2
100
AcDbDimension
  2
*D68
 10
60.13361615360862
 20
48.53522200214712
 30
0.0
 11
83.19961029232807
 21
64.93123220291463
 31
0.0
 70
    36
 71
     5
 42
1.500000000000042
  3
\M+18352\M+18373\M+1815B - ISO-25
100
AcDbRadialDimension
 15
61.46799858776468
 25
49.22036689150694
 35
0.0
 40
0.0
1001
ACAD
1000
DSTYLE
1002
{
1070
     4
1000
"
1070
    40
1040
1.0
1070
   143
1040
0.0393700787401575
1070
   170
1070
     1
1070
   171
1070
     3
1070
   271
1070
     8
1070
   285
1070
     4
1002
}
  0
LINE
  5
5FB8E
330
1F
100
AcDbEntity
  8
1
100
AcDbLine
 10
52.13347799669986
 20
47.88781242589993
 30
0.0
 11
52.15216012029987
 21
47.82049284509997
 31
0.0
1001
ACAD
1000
RTMaterial
1005
0
  0
LINE
  5
5FB8F
330
1F
100
AcDbEntity
  8
1
100
AcDbLine
 10
62.19999999999988
 20
-43.57495214010003
 30
0.0
 11
62.19999999999988
 21
37.8779482901
 31
0.0
1001
ACAD
1000
RTMaterial
1005
0
  0
LINE
  5
5FB92
330
1F
100
AcDbEntity
  8
1
100
AcDbLine
 10
51.40568790339989
 20
37.85203945069998
 30
0.0
 11
51.38198024839988
 21
37.96114103879995
 31
0.0
1001
ACAD
1000
RTMaterial
1005
0
  0
LINE
  5
5FB9D
330
1F
100
AcDbEntity
  8
1
100
AcDbLine
 10
62.87256838209987
 20
39.42873312079996
 30
0.0
 11
61.3642645738999
 21
35.95093855279998
 31
0.0
1001
ACAD
1000
RTMaterial
1005
0
  0
LINE
  5
5FBAB
330
1F
100
AcDbEntity
  8
1
100
AcDbLine
 10
52.73613225549985
 20
48.22175353969999
 30
0.0
 11
52.65694086589985
 21
48.00629581789997
 31
0.0
1001
ACAD
1000
RTMaterial
1005
0
  0
LINE
  5
5FBAC
330
1F
100
AcDbEntity
  8
1
100
AcDbLine
 10
51.3325246853999
 20
37.53237685829998
 30
0.0
 11
51.33339096639986
 21
37.53438024589991
 31
0.0
1001
ACAD
1000
RTMaterial
1005
0
  0
LINE
  5
5FBB9
330
1F
100
AcDbEntity
  8
1
100
AcDbLine
 10
52.15216012029987
 20
47.82049284509997
 30
0.0
 11
52.24338176389989
 21
47.94520307029995
 31
0.0
1001
ACAD
1000
RTMaterial
1005
0
  0
LINE
  5
5FBBC
330
1F
100
AcDbEntity
  8
1
100
AcDbLine
 10
59.60852405459985
 20
35.0310057451
 30
0.0
 11
59.69519803189985
 21
35.07628171029995
 31
0.0
1001
ACAD
1000
RTMaterial
1005
0
  0
LINE
  5
5FBBD
330
1F
100
AcDbEntity
  8
1
100
AcDbLine
 10
59.54563416069987
 20
34.9981567058
 30
0.0
 11
59.60852405459985
 21
35.0310057451
 31
0.0
1001
ACAD
1000
RTMaterial
1005
0
  0
LINE
  5
5FBBE
330
1F
100
AcDbEntity
  8
1
100
AcDbLine
 10
48.70739137299989
 20
43.5952353165
 30
0.0
 11
53.23723223529987
 21
48.43521522849994
 31
0.0
1001
ACAD
1000
RTMaterial
1005
0
  0
LINE
  5
5FBBF
330
1F
100
AcDbEntity
  8
1
100
AcDbLine
 10
49.06450513619984
 20
44.19464858219998
 30
0.0
 11
52.65694086589985
 21
48.00629581789997
 31
0.0
1001
ACAD
1000
RTMaterial
1005
0
  0
LINE
  5
5FBC0
330
1F
100
AcDbEntity
  8
1
100
AcDbLine
 10
52.15216012029987
 20
47.82049284509997
 30
0.0
 11
48.62205336599988
 21
44.11321995010001
 31
0.0
1001
ACAD
1000
RTMaterial
1005
0
  0
LINE
  5
5FBC3
330
1F
100
AcDbEntity
  8
1
100
AcDbLine
 10
59.59645248379985
 20
35.05392504119999
 30
0.0
 11
59.73651331909985
 21
35.08564465579997
 31
0.0
1001
ACAD
1000
RTMaterial
1005
0
  0
LINE
  5
5FBC4
330
1F
100
AcDbEntity
  8
1
100
AcDbLine
 10
59.65154868899986
 20
35.08326485199996
 30
0.0
 11
60.16715151889986
 21
35.09775317949993
 31
0.0
1001
ACAD
1000
RTMaterial
1005
0
  0
LINE
  5
5FBC5
330
1F
100
AcDbEntity
  8
1
100
AcDbLine
 10
41.70360981289991
 20
34.66930822009999
 30
0.0
 11
54.99679682539988
 21
33.96577250399997
 31
0.0
1001
ACAD
1000
RTMaterial
1005
0
  0
LINE
  5
5FBC6
330
1F
100
AcDbEntity
  8
1
100
AcDbLine
 10
48.29980660209987
 20
42.69793665079999
 30
0.0
 11
48.19711073079986
 21
42.93659423039997
 31
0.0
1001
ACAD
1000
RTMaterial
1005
0
  0
LINE
  5
5FBC7
330
1F
100
AcDbEntity
  8
1
100
AcDbLine
 10
48.26161378149987
 20
42.4941004401
 30
0.0
 11
48.26198681129984
 21
42.49301892809995
 31
0.0
1001
ACAD
1000
RTMaterial
1005
0
  0
LINE
  5
5FBC8
330
1F
100
AcDbEntity
  8
1
100
AcDbLine
 10
48.26198754659987
 20
42.49300034049997
 30
0.0
 11
48.37284547899987
 21
42.17170872069994
 31
0.0
1001
ACAD
1000
RTMaterial
1005
0
  0
LINE
  5
5FBCC
330
1F
100
AcDbEntity
  8
1
100
AcDbLine
 10
53.81227027529985
 20
48.89690322959996
 30
0.0
 11
53.81630795049989
 21
48.899023489
 31
0.0
1001
ACAD
1000
RTMaterial
1005
0
  0
LINE
  5
5FBCD
330
1F
100
AcDbEntity
  8
1
100
AcDbLine
 10
54.69621888579985
 20
49.35708442989994
 30
0.0
 11
53.81631349809987
 21
48.89901073509998
 31
0.0
1001
ACAD
1000
RTMaterial
1005
0
  0
LINE
  5
5FBCE
330
1F
100
AcDbEntity
  8
1
100
AcDbLine
 10
53.81274123499986
 20
48.89715007619997
 30
0.0
 11
53.80328662629984
 21
48.89224060559996
 31
0.0
1001
ACAD
1000
RTMaterial
1005
0
  0
LINE
  5
5FBCF
330
1F
100
AcDbEntity
  8
1
100
AcDbLine
 10
60.95702767879988
 20
32.9616369405
 30
0.0
 11
56.53305254029987
 21
33.79786150779995
 31
0.0
1001
ACAD
1000
RTMaterial
1005
0
  0
LINE
  5
5FBD0
330
1F
100
AcDbEntity
  8
1
100
AcDbLine
 10
59.12989448209987
 20
35.22214886939997
 30
0.0
 11
53.65034631899987
 21
36.52066171069999
 31
0.0
1001
ACAD
1000
RTMaterial
1005
0
  0
LINE
  5
5FBD1
330
1F
100
AcDbEntity
  8
1
100
AcDbLine
 10
59.78869359489988
 20
35.13729177409994
 30
0.0
 11
53.35518933129987
 21
36.66186782519992
 31
0.0
1001
ACAD
1000
RTMaterial
1005
0
  0
LINE
  5
5FBD2
330
1F
100
AcDbEntity
  8
1
100
AcDbLine
 10
19.83607248419986
 20
45.25302120879996
 30
0.0
 11
12.90113142139989
 21
48.05491927279996
 31
0.0
1001
ACAD
1000
RTMaterial
1005
0
  0
LINE
  5
5FBD3
330
1F
100
AcDbEntity
  8
1
100
AcDbLine
 10
48.49156092649986
 20
41.21672861370001
 30
0.0
 11
48.15827679609987
 21
41.6652951044
 31
0.0
1001
ACAD
1000
RTMaterial
1005
0
  0
LINE
  5
5FBD4
330
1F
100
AcDbEntity
  8
1
100
AcDbLine
 10
47.91250562349984
 20
42.52936691769991
 30
0.0
 11
48.10681431369989
 21
42.26473603980003
 31
0.0
1001
ACAD
1000
RTMaterial
1005
0
  0
LINE
  5
5FBD5
330
1F
100
AcDbEntity
  8
1
100
AcDbLine
 10
51.3979532004999
 20
37.78250226999996
 30
0.0
 11
51.83845721689988
 21
37.18257560449996
 31
0.0
1001
ACAD
1000
RTMaterial
1005
0
  0
LINE
  5
5FBD6
330
1F
100
AcDbEntity
  8
1
100
AcDbLine
 10
50.81533797679987
 20
38.73723795989997
 30
0.0
 11
48.57413073359987
 21
41.78955970519996
 31
0.0
1001
ACAD
1000
RTMaterial
1005
0
  0
LINE
  5
5FBD7
330
1F
100
AcDbEntity
  8
1
100
AcDbLine
 10
53.80328662629984
 20
48.89224060559996
 30
0.0
 11
53.79330108399983
 21
48.88713903199993
 31
0.0
1001
ACAD
1000
RTMaterial
1005
0
  0
LINE
  5
5FBD8
330
1F
100
AcDbEntity
  8
1
100
AcDbLine
 10
53.79330108399983
 20
48.88713903199993
 30
0.0
 11
53.78302635099988
 21
48.88199016480001
 31
0.0
1001
ACAD
1000
RTMaterial
1005
0
  0
LWPOLYLINE
  5
5FBD9
330
1F
100
AcDbEntity
  8
1
100
AcDbPolyline
 90
        6
 70
     0
 43
0.0
 10
53.78302635099988
 20
48.88199016480001
 10
53.77258145219986
 20
48.87686186989992
 10
53.76188790399988
 20
48.87172321069994
 10
53.75067106549988
 20
48.86645494199996
 10
53.73883758699986
 20
48.86103144259999
 10
53.73632639539988
 20
48.85989812010001
1001
ACAD
1000
RTMaterial
1005
0
  0
LINE
  5
5FBDA
330
1F
100
AcDbEntity
  8
1
100
AcDbLine
 10
49.06450513619984
 20
44.19464858219998
 30
0.0
 11
48.90055166589985
 21
44.19256162889996
 31
0.0
1001
ACAD
1000
RTMaterial
1005
0
  0
LINE
  5
5FBDB
330
1F
100
AcDbEntity
  8
1
100
AcDbLine
 10
48.49156092649986
 20
41.21672861370001
 30
0.0
 11
41.80403788399985
 21
41.61317644899997
 31
0.0
1001
ACAD
1000
RTMaterial
1005
0
  0
LINE
  5
5FBDC
330
1F
100
AcDbEntity
  8
1
100
AcDbLine
 10
56.92872555159988
 20
41.17772585219995
 30
0.0
 11
57.05688749199987
 21
41.15979100429996
 31
0.0
1001
ACAD
1000
RTMaterial
1005
0
  0
LINE
  5
5FBDD
330
1F
100
AcDbEntity
  8
1
100
AcDbLine
 10
54.76708734609991
 20
41.69490537059994
 30
0.0
 11
54.89524928639986
 21
41.67697052279993
 31
0.0
1001
ACAD
1000
RTMaterial
1005
0
  0
LINE
  5
5FBDE
330
1F
100
AcDbEntity
  8
1
100
AcDbLine
 10
48.16975310409986
 20
42.25037561709996
 30
0.0
 11
47.81040724699988
 21
42.33236572769993
 31
0.0
1001
ACAD
1000
RTMaterial
1005
0
  0
LINE
  5
5FBDF
330
1F
100
AcDbEntity
  8
1
100
AcDbLine
 10
59.63708794989987
 20
34.94888324659991
 30
0.0
 11
59.12989448209987
 21
35.22214886939997
 31
0.0
1001
ACAD
1000
RTMaterial
1005
0
  0
LINE
  5
5FBE0
330
1F
100
AcDbEntity
  8
1
100
AcDbLine
 10
52.22955241329987
 20
37.19553769519996
 30
0.0
 11
52.29838530919988
 21
37.14869107629994
 31
0.0
1001
ACAD
1000
RTMaterial
1005
0
  0
LINE
  5
5FBE1
330
1F
100
AcDbEntity
  8
1
100
AcDbLine
 10
52.29697432659986
 20
37.14964916679998
 30
0.0
 11
52.29833980119986
 21
37.14871582119997
 31
0.0
1001
ACAD
1000
RTMaterial
1005
0
  0
LINE
  5
5FBE2
330
1F
100
AcDbEntity
  8
1
100
AcDbLine
 10
51.80815019059986
 20
37.48433074259998
 30
0.0
 11
52.22955241329987
 21
37.19553769519996
 31
0.0
1001
ACAD
1000
RTMaterial
1005
0
  0
LINE
  5
5FBE3
330
1F
100
AcDbEntity
  8
1
100
AcDbLine
 10
52.29843071349984
 20
37.14865350619999
 30
0.0
 11
52.30014443919987
 21
37.14745290599996
 31
0.0
1001
ACAD
1000
RTMaterial
1005
0
  0
LINE
  5
5FBE4
330
1F
100
AcDbEntity
  8
1
100
AcDbLine
 10
52.30014443919987
 20
37.14745290599996
 30
0.0
 11
52.30048519839988
 21
37.14720647519994
 31
0.0
1001
ACAD
1000
RTMaterial
1005
0
  0
LINE
  5
5FBE5
330
1F
100
AcDbEntity
  8
1
100
AcDbLine
 10
47.64245781409989
 20
43.46728057249999
 30
0.0
 11
47.95852006529986
 21
43.21583453869999
 31
0.0
1001
ACAD
1000
RTMaterial
1005
0
  0
LINE
  5
5FBE6
330
1F
100
AcDbEntity
  8
1
100
AcDbLine
 10
48.16975310409986
 20
42.25037561709996
 30
0.0
 11
48.42376048759985
 21
42.04480764620001
 31
0.0
1001
ACAD
1000
RTMaterial
1005
0
  0
LINE
  5
5FBE7
330
1F
100
AcDbEntity
  8
1
100
AcDbLine
 10
48.15912382729988
 20
42.99546110889997
 30
0.0
 11
48.02245709429991
 21
43.15541229799999
 31
0.0
1001
ACAD
1000
RTMaterial
1005
0
  0
LINE
  5
5FBEC
330
1F
100
AcDbEntity
  8
1
100
AcDbLine
 10
33.17563844689988
 20
44.67060318089994
 30
0.0
 11
46.07079296629985
 21
48.61304755959998
 31
0.0
1001
ACAD
1000
RTMaterial
1005
0
  0
LINE
  5
5FBED
330
1F
100
AcDbEntity
  8
1
100
AcDbLine
 10
53.98364217839986
 20
48.98622262309993
 30
0.0
 11
53.22632773359988
 21
48.84009716679997
 31
0.0
1001
ACAD
1000
RTMaterial
1005
0
  0
LINE
  5
5FBF1
330
1F
100
AcDbEntity
  8
1
100
AcDbLine
 10
48.99451001349985
 20
47.88755597289998
 30
0.0
 11
52.13347799669986
 21
47.88781242589993
 31
0.0
1001
ACAD
1000
RTMaterial
1005
0
  0
LINE
  5
5FBF6
330
1F
100
AcDbEntity
  8
1
100
AcDbLine
 10
48.99451001349985
 20
49.04999999999995
 30
0.0
 11
52.96287934679987
 21
49.04999999999995
 31
0.0
1001
ACAD
1000
RTMaterial
1005
0
  0
LINE
  5
5FBF7
330
1F
100
AcDbEntity
  8
1
100
AcDbLine
 10
57.59630865149984
 20
43.29797170519992
 30
0.0
 11
57.7244705917999
 21
43.28003685739992
 31
0.0
1001
ACAD
1000
RTMaterial
1005
0
  0
LINE
  5
5FBF8
330
1F
100
AcDbEntity
  8
1
100
AcDbLine
 10
55.43467044589988
 20
43.81515122370001
 30
0.0
 11
55.56283238629987
 21
43.79721637589994
 31
0.0
1001
ACAD
1000
RTMaterial
1005
0
  0
LINE
  5
5FBF9
330
1F
100
AcDbEntity
  8
1
100
AcDbLine
 10
61.53271046769987
 20
49.0158140236
 30
0.0
 11
63.43637386899985
 21
42.65125806050003
 31
0.0
1001
ACAD
1000
RTMaterial
1005
0
  0
LINE
  5
5FBFA
330
1F
100
AcDbEntity
  8
1
100
AcDbLine
 10
56.24838147059984
 20
49.58237007559995
 30
0.0
 11
59.99789243799989
 21
50.00784285619999
 31
0.0
1001
ACAD
1000
RTMaterial
1005
0
  0
LINE
  5
5FBFB
330
1F
100
AcDbEntity
  8
1
100
AcDbLine
 10
52.96287934679987
 20
49.04999999999995
 30
0.0
 11
53.03696115249988
 21
49.04656254370002
 31
0.0
1001
ACAD
1000
RTMaterial
1005
0
  0
LINE
  5
5FBFC
330
1F
100
AcDbEntity
  8
1
100
AcDbLine
 10
53.03696115249988
 20
49.04656254370002
 30
0.0
 11
53.88669627999985
 21
48.96753558829999
 31
0.0
1001
ACAD
1000
RTMaterial
1005
0
  0
ARC
  5
5FC16
330
1F
100
AcDbEntity
  8
1
100
AcDbCircle
 10
27.32820435249994
 20
63.79669830009999
 30
0.0
 40
20.0
100
AcDbArc
 50
247.9999999999987
 51
287.0000000000019
1001
ACAD
1000
RTMaterial
1005
0
  0
ARC
  5
5FC1A
330
1F
100
AcDbEntity
  8
1
100
AcDbCircle
 10
48.99451001349985
 20
39.04999999999996
 30
0.0
 40
10.0
100
AcDbArc
 50
90.0
 51
107.0000000000019
1001
ACAD
1000
RTMaterial
1005
0
  0
ARC
  5
5FC1C
330
1F
100
AcDbEntity
  8
1
100
AcDbCircle
 10
11.02809845429988
 20
43.41899999999998
 30
0.0
 40
5.0
100
AcDbArc
 50
67.99999999999871
 51
90.0
1001
ACAD
1000
RTMaterial
1005
0
  0
SPLINE
  5
5FC64
330
1F
100
AcDbEntity
  8
1
100
AcDbSpline
210
0.0
220
0.0
230
1.0
 70
     8
 71
     3
 72
    15
 73
    11
 74
     0
 42
0.0000000001
 43
0.0000000001
 40
0.0
 40
0.0
 40
0.0
 40
0.0
 40
0.1248035261
 40
0.2496613061
 40
0.3746006319
 40
0.499629273
 40
0.6247274788000001
 40
0.7498557666
 40
0.8749517093000001
 40
1.0
 40
1.0
 40
1.0
 40
1.0
 10
55.17838032409986
 20
43.92289709889996
 30
0.0
 10
55.14783736549986
 20
43.9271715122
 30
0.0
 10
55.08516764019987
 20
43.92704386370001
 30
0.0
 10
54.99520373149988
 20
43.90065601209994
 30
0.0
 10
54.91603561699986
 20
43.85021117019994
 30
0.0
 10
54.85400880539987
 20
43.77969300379993
 30
0.0
 10
54.81398861509984
 20
43.69468087599995
 30
0.0
 10
54.79915791939987
 20
43.60186847169996
 30
0.0
 10
54.81061583059982
 20
43.50865857859997
 30
0.0
 10
54.83532483519991
 20
43.45094074169992
 30
0.0
 10
54.85134785189984
 20
43.42451839719996
 30
0.0
1001
ACAD
1000
RTMaterial
1005
0
  0
SPLINE
  5
5FC66
330
1F
100
AcDbEntity
  8
1
100
AcDbSpline
210
0.0
220
0.0
230
1.0
 70
     8
 71
     3
 72
    15
 73
    11
 74
     0
 42
0.0000000001
 43
0.0000000001
 40
0.0
 40
0.0
 40
0.0
 40
0.0
 40
0.1249745627
 40
0.2500150505
 40
0.3751191411999999
 40
0.5002276074000001
 40
0.6252937521000001
 40
0.7502820067
 40
0.8751804444999999
 40
1.0
 40
1.0
 40
1.0
 40
1.0
 10
54.58167461649987
 20
42.29491750949995
 30
0.0
 10
54.55555894439988
 20
42.27867172019995
 30
0.0
 10
54.5076314138999
 20
42.23857457939999
 30
0.0
 10
54.45539850499989
 20
42.16104867639995
 30
0.0
 10
54.42656800509985
 20
42.07202321229999
 30
0.0
 10
54.42349063079984
 20
41.97850328909993
 30
0.0
 10
54.44637647569988
 20
41.88780364139995
 30
0.0
 10
54.49346557129985
 20
41.80701822009996
 30
0.0
 10
54.56098900879988
 20
41.74251135039997
 30
0.0
 10
54.61633388029986
 20
41.71364985819997
 30
0.0
 10
54.64529149139986
 20
41.70339970399999
 30
0.0
1001
ACAD
1000
RTMaterial
1005
0
  0
SPLINE
  5
5FC67
330
1F
100
AcDbEntity
  8
1
100
AcDbSpline
210
0.0
220
0.0
230
1.0
 70
     8
 71
     3
 72
     8
 73
     4
 74
     0
 42
0.0000000001
 43
0.0000000001
 40
0.0
 40
0.0
 40
0.0
 40
0.0
 40
1.0
 40
1.0
 40
1.0
 40
1.0
 10
54.64529149139986
 20
41.70339970399999
 30
0.0
 10
54.66601284099988
 20
41.69606494739997
 30
0.0
 10
54.68758188899982
 20
41.69079399919996
 30
0.0
 10
54.70935145059986
 20
41.68775111050002
 30
0.0
1001
ACAD
1000
RTMaterial
1005
0
  0
SPLINE
  5
5FC68
330
1F
100
AcDbEntity
  8
1
100
AcDbSpline
210
0.0
220
0.0
230
1.0
 70
     8
 71
     3
 72
    15
 73
    11
 74
     0
 42
0.0000000001
 43
0.0000000001
 40
0.0
 40
0.0
 40
0.0
 40
0.0
 40
0.1251602541
 40
0.2502837245
 40
0.3753592817
 40
0.5003790434000001
 40
0.6253432712000001
 40
0.7502586988
 40
0.8751367873999999
 40
1.0
 40
1.0
 40
1.0
 40
1.0
 10
55.60329743619985
 20
40.8864372015999
 30
0.0
 10
55.60179923499987
 20
40.93446608589994
 30
0.0
 10
55.59038183009988
 20
41.03045814379993
 30
0.0
 10
55.54853007959986
 20
41.1690890794
 30
0.0
 10
55.4832260794999
 20
41.29832771439999
 30
0.0
 10
55.39646241219987
 20
41.41416794179997
 30
0.0
 10
55.29089286729988
 20
41.51308425370001
 30
0.0
 10
55.16972643919984
 20
41.5920503511
 30
0.0
 10
55.03672157119985
 20
41.6486440429
 30
0.0
 10
54.94272535219983
 20
41.67033014719999
 30
0.0
 10
54.89524918949991
 20
41.67696982919994
 30
0.0
1001
ACAD
1000
RTMaterial
1005
0
  0
SPLINE
  5
5FC69
330
1F
100
AcDbEntity
  8
1
100
AcDbSpline
210
0.0
220
0.0
230
1.0
 70
     8
 71
     3
 72
    11
 73
     7
 74
     0
 42
0.0000000001
 43
0.0000000001
 40
0.0
 40
0.0
 40
0.0
 40
0.0
 40
0.2502996486
 40
0.5003874572
 40
0.7502656923000001
 40
1.0
 40
1.0
 40
1.0
 40
1.0
 10
55.60329743619985
 20
40.8864372015999
 30
0.0
 10
55.60449150949989
 20
40.84815795889994
 30
0.0
 10
55.62045373079985
 20
40.77138887089995
 30
0.0
 10
55.68224356879984
 20
40.67193672519993
 30
0.0
 10
55.77424018249985
 20
40.59964090239993
 30
0.0
 10
55.84872234789987
 20
40.57546666319995
 30
0.0
 10
55.88656510419986
 20
40.57017196279997
 30
0.0
1001
ACAD
1000
RTMaterial
1005
0
  0
SPLINE
  5
5FC6A
330
1F
100
AcDbEntity
  8
1
100
AcDbSpline
210
0.0
220
0.0
230
1.0
 70
     8
 71
     3
 72
     9
 73
     5
 74
     0
 42
0.0000000001
 43
0.0000000001
 40
0.0
 40
0.0
 40
0.0
 40
0.0
 40
0.5000427267000001
 40
1.0
 40
1.0
 40
1.0
 40
1.0
 10
57.33148275889988
 20
41.07002338219996
 30
0.0
 10
57.28889307849988
 20
41.09289489889994
 30
0.0
 10
57.19949889269987
 20
41.13117416069997
 30
0.0
 10
57.10475545709988
 20
41.15309425849995
 30
0.0
 10
57.05688746779987
 20
41.15979083139996
 30
0.0
1001
ACAD
1000
RTMaterial
1005
0
  0
SPLINE
  5
5FC6B
330
1F
100
AcDbEntity
  8
1
100
AcDbSpline
210
0.0
220
0.0
230
1.0
 70
     8
 71
     3
 72
     9
 73
     5
 74
     0
 42
0.0000000001
 43
0.0000000001
 40
0.0
 40
0.0
 40
0.0
 40
0.0
 40
0.7495490479000001
 40
1.0
 40
1.0
 40
1.0
 40
1.0
 10
57.33148275889988
 20
41.07002338219996
 30
0.0
 10
57.3569984117999
 20
41.05632096229999
 30
0.0
 10
57.39374088409988
 20
41.04248300589995
 30
0.0
 10
57.43175567549986
 20
41.03545152199996
 30
0.0
 10
57.44133955419989
 20
41.03411028129994
 30
0.0
1001
ACAD
1000
RTMaterial
1005
0
  0
SPLINE
  5
5FC6C
330
1F
100
AcDbEntity
  8
1
100
AcDbSpline
210
0.0
220
0.0
230
1.0
 70
     8
 71
     3
 72
    15
 73
    11
 74
     0
 42
0.0000000001
 43
0.0000000001
 40
0.0
 40
0.0
 40
0.0
 40
0.0
 40
0.1249035286
 40
0.2498597456
 40
0.3748744754
 40
0.4999215358
 40
0.6249805071
 40
0.7500291854000001
 40
0.8750362872
 40
1.0
 40
1.0
 40
1.0
 40
1.0
 10
54.58167461649987
 20
42.29491750949995
 30
0.0
 10
54.62712916259988
 20
42.32319344209997
 30
0.0
 10
54.7127547863999
 20
42.38883641219996
 30
0.0
 10
54.81950147219987
 20
42.51021362249997
 30
0.0
 10
54.90079789309987
 20
42.65005954319997
 30
0.0
 10
54.95348079569987
 20
42.80303015739997
 30
0.0
 10
54.97557978059984
 20
42.96331659439999
 30
0.0
 10
54.96623010359991
 20
43.12484584499998
 30
0.0
 10
54.92584054889988
 20
43.28142060849995
 30
0.0
 10
54.87911880779984
 20
43.37872341489992
 30
0.0
 10
54.85134785189984
 20
43.42451839719996
 30
0.0
1001
ACAD
1000
RTMaterial
1005
0
  0
SPLINE
  5
5FC6D
330
1F
100
AcDbEntity
  8
1
100
AcDbSpline
210
0.0
220
0.0
230
1.0
 70
     8
 71
     3
 72
    11
 73
     7
 74
     0
 42
0.0000000001
 43
0.0000000001
 40
0.0
 40
0.0
 40
0.0
 40
0.0
 40
0.2497812734
 40
0.4996706779000001
 40
0.7497377359000001
 40
1.0
 40
1.0
 40
1.0
 40
1.0
 10
55.56283241039989
 20
43.79721654870002
 30
0.0
 10
55.64461745689988
 20
43.78577509199994
 30
0.0
 10
55.81279884979989
 20
43.78779682300001
 30
0.0
 10
56.05190969139989
 20
43.86596005019993
 30
0.0
 10
56.25713000749988
 20
44.01171151879992
 30
0.0
 10
56.35907260199991
 20
44.1457399001
 30
0.0
 10
56.39873652629984
 20
44.2183536993
 30
0.0
1001
ACAD
1000
RTMaterial
1005
0
  0
SPLINE
  5
5FC6E
330
1F
100
AcDbEntity
  8
1
100
AcDbSpline
210
0.0
220
0.0
230
1.0
 70
     8
 71
     3
 72
    11
 73
     7
 74
     0
 42
0.0000000001
 43
0.0000000001
 40
0.0
 40
0.0
 40
0.0
 40
0.0
 40
0.2497807494
 40
0.499671638
 40
0.7497263809
 40
1.0
 40
1.0
 40
1.0
 40
1.0
 10
56.73315477409989
 20
44.38683541739993
 30
0.0
 10
56.7004353824999
 20
44.39141329169996
 30
0.0
 10
56.63315113739987
 20
44.39060592300001
 30
0.0
 10
56.53749256759988
 20
44.35933438059993
 30
0.0
 10
56.45538945779986
 20
44.30102595539994
 30
0.0
 10
56.41460549099986
 20
44.24740543429999
 30
0.0
 10
56.39873652629984
 20
44.2183536993
 30
0.0
1001
ACAD
1000
RTMaterial
1005
0
  0
SPLINE
  5
5FC6F
330
1F
100
AcDbEntity
  8
1
100
AcDbSpline
210
0.0
220
0.0
230
1.0
 70
     8
 71
     3
 72
     8
 73
     4
 74
     0
 42
0.0000000001
 43
0.0000000001
 40
0.0
 40
0.0
 40
0.0
 40
0.0
 40
1.0
 40
1.0
 40
1.0
 40
1.0
 10
57.72447068879984
 20
43.28003755099996
 30
0.0
 10
57.76837702969988
 20
43.27389711909995
 30
0.0
 10
57.81292691319987
 20
43.2713101301
 30
0.0
 10
57.85724861349985
 20
43.27233899219999
 30
0.0
1001
ACAD
1000
RTMaterial
1005
0
  0
SPLINE
  5
5FC70
330
1F
100
AcDbEntity
  8
1
100
AcDbSpline
210
0.0
220
0.0
230
1.0
 70
     8
 71
     3
 72
     8
 73
     4
 74
     0
 42
0.0000000001
 43
0.0000000001
 40
0.0
 40
0.0
 40
0.0
 40
0.0
 40
1.0
 40
1.0
 40
1.0
 40
1.0
 10
57.91036842769989
 20
43.26925626970001
 30
0.0
 10
57.89280279689984
 20
43.27171154459995
 30
0.0
 10
57.87498023309985
 20
43.27275060529996
 30
0.0
 10
57.85724861349985
 20
43.27233899219999
 30
0.0
1001
ACAD
1000
RTMaterial
1005
0
  0
SPLINE
  5
5FC71
330
1F
100
AcDbEntity
  8
1
100
AcDbSpline
210
0.0
220
0.0
230
1.0
 70
     8
 71
     3
 72
    27
 73
    23
 74
     0
 42
0.0000000001
 43
0.0000000001
 40
0.0
 40
0.0
 40
0.0
 40
0.0
 40
0.0623947125
 40
0.0936232012
 40
0.1248550523
 40
0.1872761331
 40
0.249720486
 40
0.2809806853999999
 40
0.3122477685
 40
0.3747459269
 40
0.4372685048
 40
0.4998100351
 40
0.5623628903000001
 40
0.6249181621000001
 40
0.6874666821
 40
0.7187637134
 40
0.7500560675
 40
0.8125675237000001
 40
0.8750532600999999
 40
0.9063133248999999
 40
0.9375658356999998
 40
1.0
 40
1.0
 40
1.0
 40
1.0
 10
56.75950983129985
 20
45.89919564319996
 30
0.0
 10
56.95193629359988
 20
45.87226463899997
 30
0.0
 10
57.23800140949987
 20
45.80707186349997
 30
0.0
 10
57.60332863379983
 20
45.67302812659995
 30
0.0
 10
57.95614513949988
 20
45.50844029809996
 30
0.0
 10
58.36907798349989
 20
45.24729095309993
 30
0.0
 10
58.73192559789988
 20
44.91996082679998
 30
0.0
 10
58.98575905839988
 20
44.62442466980002
 30
0.0
 10
59.21377234729988
 20
44.30834277899998
 30
0.0
 10
59.44736887059986
 20
43.87848588889994
 30
0.0
 10
59.63655792029988
 20
43.32299899679997
 30
0.0
 10
59.72953893029989
 20
42.74334911339991
 30
0.0
 10
59.72356925229985
 20
42.15621876269994
 30
0.0
 10
59.61888284569988
 20
41.57851740819995
 30
0.0
 10
59.45167973289989
 20
41.11838145179996
 30
0.0
 10
59.27312204659989
 20
40.77155725549999
 30
0.0
 10
59.06597806759987
 20
40.44113767969998
 30
0.0
 10
58.75576966929987
 20
40.06289697109997
 30
0.0
 10
58.38621714079988
 20
39.74254999559992
 30
0.0
 10
58.06177618949988
 20
39.52670418169993
 30
0.0
 10
57.7204620569999
 20
39.33920003139997
 30
0.0
 10
57.44726564289988
 20
39.23167609629997
 30
0.0
 10
57.26095852049986
 20
39.17608260819998
 30
0.0
1001
ACAD
1000
RTMaterial
1005
0
  0
SPLINE
  5
5FC72
330
1F
100
AcDbEntity
  8
1
100
AcDbSpline
210
0.0
220
0.0
230
1.0
 70
     8
 71
     3
 72
     9
 73
     5
 74
     0
 42
0.0000000001
 43
0.0000000001
 40
0.0
 40
0.0
 40
0.0
 40
0.0
 40
0.4999358793999999
 40
1.0
 40
1.0
 40
1.0
 40
1.0
 10
55.80324918459985
 20
39.0657827805
 30
0.0
 10
56.04590717469983
 20
39.03182163359998
 30
0.0
 10
56.54001451629984
 20
39.01598902759997
 30
0.0
 10
57.02610550959986
 20
39.10600317230001
 30
0.0
 10
57.26095852049986
 20
39.17608260819998
 30
0.0
1001
ACAD
1000
RTMaterial
1005
0
  0
SPLINE
  5
5FC73
330
1F
100
AcDbEntity
  8
1
100
AcDbSpline
210
0.0
220
0.0
230
1.0
 70
     8
 71
     3
 72
     9
 73
     5
 74
     0
 42
0.0000000001
 43
0.0000000001
 40
0.0
 40
0.0
 40
0.0
 40
0.0
 40
0.4999927562
 40
1.0
 40
1.0
 40
1.0
 40
1.0
 10
55.43467041419984
 20
43.81515095649996
 30
0.0
 10
55.38679942869987
 20
43.82185053769996
 30
0.0
 10
55.29205670419987
 20
43.84377155639998
 30
0.0
 10
55.2026617965999
 20
43.88204897389994
 30
0.0
 10
55.16007517899987
 20
43.90491884589994
 30
0.0
1001
ACAD
1000
RTMaterial
1005
0
  0
SPLINE
  5
5FC74
330
1F
100
AcDbEntity
  8
1
100
AcDbSpline
210
0.0
220
0.0
230
1.0
 70
     8
 71
     3
 72
    27
 73
    23
 74
     0
 42
0.0000000001
 43
0.0000000001
 40
0.0
 40
0.0
 40
0.0
 40
0.0
 40
0.0624341643
 40
0.0936866751
 40
0.1249467399
 40
0.1874324763
 40
0.2499439325
 40
0.2812362866
 40
0.3125333179
 40
0.3750818379
 40
0.4376371097
 40
0.5001899649000001
 40
0.5627314952
 40
0.6252540731
 40
0.6877522315000001
 40
0.7190193145999999
 40
0.750279514
 40
0.8127238669
 40
0.8751449476999999
 40
0.9063767988
 40
0.9376052875
 40
1.0
 40
1.0
 40
1.0
 40
1.0
 10
55.3018004953999
 20
45.78889581549998
 30
0.0
 10
55.11549337299988
 20
45.73330232739993
 30
0.0
 10
54.84229695889985
 20
45.62577839229999
 30
0.0
 10
54.50098282639988
 20
45.43827424199991
 30
0.0
 10
54.17654187509987
 20
45.22242842799999
 30
0.0
 10
53.80698934659989
 20
44.90208145259998
 30
0.0
 10
53.49678094829989
 20
44.52384074399998
 30
0.0
 10
53.28963696929986
 20
44.19342116819996
 30
0.0
 10
53.11107928289988
 20
43.8465969719
 30
0.0
 10
52.94387617019987
 20
43.3864610155
 30
0.0
 10
52.83918976349986
 20
42.80875966099995
 30
0.0
 10
52.83322008559986
 20
42.22162931029993
 30
0.0
 10
52.92620109559988
 20
41.64197942679999
 30
0.0
 10
53.11539014529984
 20
41.08649253480002
 30
0.0
 10
53.34898666859988
 20
40.65663564469997
 30
0.0
 10
53.57699995749988
 20
40.34055375379995
 30
0.0
 10
53.83083341799988
 20
40.04501759689998
 30
0.0
 10
54.19368103239986
 20
39.71768747049998
 30
0.0
 10
54.60661387639987
 20
39.45653812550001
 30
0.0
 10
54.95943038209986
 20
39.29195029709996
 30
0.0
 10
55.32475760639989
 20
39.15790656019993
 30
0.0
 10
55.61082272229987
 20
39.09271378469998
 30
0.0
 10
55.80324918459985
 20
39.0657827805
 30
0.0
1001
ACAD
1000
RTMaterial
1005
0
  0
SPLINE
  5
5FC75
330
1F
100
AcDbEntity
  8
1
100
AcDbSpline
210
0.0
220
0.0
230
1.0
 70
     8
 71
     3
 72
     9
 73
     5
 74
     0
 42
0.0000000001
 43
0.0000000001
 40
0.0
 40
0.0
 40
0.0
 40
0.0
 40
0.5000641206000001
 40
1.0
 40
1.0
 40
1.0
 40
1.0
 10
55.3018004953999
 20
45.78889581549998
 30
0.0
 10
55.53665350629984
 20
45.85897525139995
 30
0.0
 10
56.02274449959987
 20
45.94898939609999
 30
0.0
 10
56.51685184119987
 20
45.93315679009998
 30
0.0
 10
56.75950983129985
 20
45.89919564319996
 30
0.0
1001
ACAD
1000
RTMaterial
1005
0
  0
SPLINE
  5
5FC76
330
1F
100
AcDbEntity
  8
1
100
AcDbSpline
210
0.0
220
0.0
230
1.0
 70
     8
 71
     3
 72
    27
 73
    23
 74
     0
 42
0.0000000001
 43
0.0000000001
 40
0.0
 40
0.0
 40
0.0
 40
0.0
 40
0.0624427899
 40
0.0937102059
 40
0.1249873065
 40
0.1874900014
 40
0.2500207912
 40
0.281332068
 40
0.3126473387
 40
0.3752087474
 40
0.4377679573
 40
0.5003130489000001
 40
0.562834304
 40
0.6253256282000001
 40
0.6877854148
 40
0.7190421229
 40
0.7502924867000001
 40
0.8127033279999999
 40
0.8751043047999999
 40
0.9063425463999999
 40
0.9375810863999999
 40
1.0
 40
1.0
 40
1.0
 40
1.0
 10
55.64232396629984
 20
44.73166073049998
 30
0.0
 10
55.49539277939988
 20
44.68781690379995
 30
0.0
 10
55.2806099863999
 20
44.59993904919997
 30
0.0
 10
55.01641399379986
 20
44.44304879329997
 30
0.0
 10
54.76862895769989
 20
44.26092947079996
 30
0.0
 10
54.49416869049986
 20
43.98887119759996
 30
0.0
 10
54.27804740949989
 20
43.66839650129992
 30
0.0
 10
54.14516016179987
 20
43.390799458
 30
0.0
 10
54.03998129079986
 20
43.10149308199993
 30
0.0
 10
53.96244809619986
 20
42.72252839919997
 30
0.0
 10
53.95975460629983
 20
42.2588166365
 30
0.0
 10
54.04731277639985
 20
41.80345958319998
 30
0.0
 10
54.22185035139989
 20
41.37403907249995
 30
0.0
 10
54.47654965739985
 20
40.98708541849993
 30
0.0
 10
54.7478448958999
 20
40.71212622479999
 30
0.0
 10
54.99346524209989
 20
40.52746672009999
 30
0.0
 10
55.25590128239986
 20
40.36782188059993
 30
0.0
 10
55.61144287639985
 20
40.21789134709996
 30
0.0
 10
55.9894324853999
 20
40.14053701859995
 30
0.0
 10
56.2960791331999
 20
40.12387484249996
 30
0.0
 10
56.6028293240999
 20
40.13734282489997
 30
0.0
 10
56.83052090719986
 20
40.1815195876
 30
0.0
 10
56.97739591189986
 20
40.22534664969998
 30
0.0
1001
ACAD
1000
RTMaterial
1005
0
  0
SPLINE
  5
5FC77
330
1F
100
AcDbEntity
  8
1
100
AcDbSpline
210
0.0
220
0.0
230
1.0
 70
     8
 71
     3
 72
     8
 73
     4
 74
     0
 42
0.0000000001
 43
0.0000000001
 40
0.0
 40
0.0
 40
0.0
 40
0.0
 40
1.0
 40
1.0
 40
1.0
 40
1.0
 10
55.16007517899987
 20
43.90491884589994
 30
0.0
 10
55.14521713369987
 20
43.91289791569994
 30
0.0
 10
55.12969427699989
 20
43.91974271769993
 30
0.0
 10
55.11378786169984
 20
43.92534744919993
 30
0.0
1001
ACAD
1000
RTMaterial
1005
0
  0
SPLINE
  5
5FC78
330
1F
100
AcDbEntity
  8
1
100
AcDbSpline
210
0.0
220
0.0
230
1.0
 70
     8
 71
     3
 72
    15
 73
    11
 74
     0
 42
0.0000000001
 43
0.0000000001
 40
0.0
 40
0.0
 40
0.0
 40
0.0
 40
0.1249035286
 40
0.2498597456
 40
0.3748744754
 40
0.4999215358
 40
0.6249805071
 40
0.7500291854000001
 40
0.8750362872
 40
1.0
 40
1.0
 40
1.0
 40
1.0
 10
58.03804526179987
 20
42.66208987059997
 30
0.0
 10
57.99259071559987
 20
42.63381393809993
 30
0.0
 10
57.90696509179986
 20
42.568170968
 30
0.0
 10
57.80021840609987
 20
42.44679375769993
 30
0.0
 10
57.71892198519987
 20
42.30694783699994
 30
0.0
 10
57.66623908259987
 20
42.15397722279994
 30
0.0
 10
57.6441400976999
 20
41.99369078579997
 30
0.0
 10
57.65348977469983
 20
41.83216153519992
 30
0.0
 10
57.69387932939986
 20
41.67558677169995
 30
0.0
 10
57.74060107049985
 20
41.57828396519994
 30
0.0
 10
57.7683720263999
 20
41.53248898300001
 30
0.0
1001
ACAD
1000
RTMaterial
1005
0
  0
SPLINE
  5
5FC79
330
1F
100
AcDbEntity
  8
1
100
AcDbSpline
210
0.0
220
0.0
230
1.0
 70
     8
 71
     3
 72
    11
 73
     7
 74
     0
 42
0.0000000001
 43
0.0000000001
 40
0.0
 40
0.0
 40
0.0
 40
0.0
 40
0.2502234889999999
 40
0.500298469
 40
0.7502309122
 40
1.0
 40
1.0
 40
1.0
 40
1.0
 10
56.88826050169985
 20
44.08850502639995
 30
0.0
 10
56.88738193159986
 20
44.11666996219998
 30
0.0
 10
56.87834669279988
 20
44.17302103689997
 30
0.0
 10
56.84383359439988
 20
44.25112204179998
 30
0.0
 10
56.79069112719986
 20
44.31789198559994
 30
0.0
 10
56.74499373169988
 20
44.35197601189997
 30
0.0
 10
56.72047704439984
 20
44.36576318869998
 30
0.0
1001
ACAD
1000
RTMaterial
1005
0
  0
SPLINE
  5
5FC7A
330
1F
100
AcDbEntity
  8
1
100
AcDbSpline
210
0.0
220
0.0
230
1.0
 70
     8
 71
     3
 72
     8
 73
     4
 74
     0
 42
0.0000000001
 43
0.0000000001
 40
0.0
 40
0.0
 40
0.0
 40
0.0
 40
1.0
 40
1.0
 40
1.0
 40
1.0
 10
56.72047704439984
 20
44.36576318869998
 30
0.0
 10
56.70372534579986
 20
44.37518365519991
 30
0.0
 10
56.68607943309985
 20
44.38316532039999
 30
0.0
 10
56.66793886169983
 20
44.38951230889995
 30
0.0
1001
ACAD
1000
RTMaterial
1005
0
  0
SPLINE
  5
5FC7B
330
1F
100
AcDbEntity
  8
1
100
AcDbSpline
210
0.0
220
0.0
230
1.0
 70
     8
 71
     3
 72
    15
 73
    11
 74
     0
 42
0.0000000001
 43
0.0000000001
 40
0.0
 40
0.0
 40
0.0
 40
0.0
 40
0.1248757498
 40
0.2497465242
 40
0.3746627943
 40
0.4996245048
 40
0.6246450574
 40
0.7497140269
 40
0.8748478632999999
 40
1.0
 40
1.0
 40
1.0
 40
1.0
 10
57.59630910689987
 20
43.29797496849994
 30
0.0
 10
57.54882795939988
 20
43.30461294949992
 30
0.0
 10
57.45482911739987
 20
43.32629882159994
 30
0.0
 10
57.32182602209985
 20
43.3829011272
 30
0.0
 10
57.20066206239988
 20
43.46186338309997
 30
0.0
 10
57.0950932433999
 20
43.56078011509999
 30
0.0
 10
57.00833499619989
 20
43.67661937039997
 30
0.0
 10
56.94302363229986
 20
43.80585605179999
 30
0.0
 10
56.90117945899988
 20
43.94448746349996
 30
0.0
 10
56.88975860219983
 20
44.04047936929998
 30
0.0
 10
56.88826050169985
 20
44.08850502639995
 30
0.0
1001
ACAD
1000
RTMaterial
1005
0
  0
SPLINE
  5
5FC7C
330
1F
100
AcDbEntity
  8
1
100
AcDbSpline
210
0.0
220
0.0
230
1.0
 70
     8
 71
     3
 72
    15
 73
    11
 74
     0
 42
0.0000000001
 43
0.0000000001
 40
0.0
 40
0.0
 40
0.0
 40
0.0
 40
0.1249712139
 40
0.2500063639
 40
0.3751077101
 40
0.5002138165
 40
0.6252813567000001
 40
0.7502739849
 40
0.8751788063999999
 40
1.0
 40
1.0
 40
1.0
 40
1.0
 10
57.90988332139988
 20
42.68002471849996
 30
0.0
 10
57.93561795599988
 20
42.69603347569995
 30
0.0
 10
57.98290616919985
 20
42.73543002429994
 30
0.0
 10
58.03482816359991
 20
42.81147784399997
 30
0.0
 10
58.06412539209986
 20
42.89887465399999
 30
0.0
 10
58.06848178279989
 20
42.99094304580001
 30
0.0
 10
58.04759910599989
 20
43.08069108899997
 30
0.0
 10
58.00302708269987
 20
43.16130287329997
 30
0.0
 10
57.93823356149989
 20
43.22660509089991
 30
0.0
 10
57.88462646999988
 20
43.25671236779993
 30
0.0
 10
57.85643963889987
 20
43.26775094869998
 30
0.0
1001
ACAD
1000
RTMaterial
1005
0
  0
LINE
  5
5FC7D
330
1F
100
AcDbEntity
  8
1
100
AcDbLine
 10
57.85643963889987
 20
43.26775094869998
 30
0.0
 11
57.84295967389988
 21
43.27269325519995
 31
0.0
1001
ACAD
1000
RTMaterial
1005
0
  0
SPLINE
  5
5FC7E
330
1F
100
AcDbEntity
  8
1
100
AcDbSpline
210
0.0
220
0.0
230
1.0
 70
     8
 71
     3
 72
    15
 73
    11
 74
     0
 42
0.0000000001
 43
0.0000000001
 40
0.0
 40
0.0
 40
0.0
 40
0.0
 40
0.1249599769
 40
0.2499720737
 40
0.3750190592
 40
0.5000784648
 40
0.6251259588
 40
0.7501389967000001
 40
0.8751002055
 40
1.0
 40
1.0
 40
1.0
 40
1.0
 10
57.64021008599986
 20
41.55042383089994
 30
0.0
 10
57.61243992879986
 20
41.59621749609999
 30
0.0
 10
57.56571936079985
 20
41.69352129519995
 30
0.0
 10
57.52532479969983
 20
41.85009491849996
 30
0.0
 10
57.51597766649985
 20
42.01162618730001
 30
0.0
 10
57.53807423669986
 20
42.17191276509999
 30
0.0
 10
57.59075935739986
 20
42.32488241419997
 30
0.0
 10
57.67205441959987
 20
42.46473128409991
 30
0.0
 10
57.77880505719986
 20
42.58610521359997
 30
0.0
 10
57.86443008249989
 20
42.6517495990999
 30
0.0
 10
57.90988332139988
 20
42.68002471849996
 30
0.0
1001
ACAD
1000
RTMaterial
1005
0
  0
SPLINE
  5
5FC7F
330
1F
100
AcDbEntity
  8
1
100
AcDbSpline
210
0.0
220
0.0
230
1.0
 70
     8
 71
     3
 72
    15
 73
    11
 74
     0
 42
0.0000000001
 43
0.0000000001
 40
0.0
 40
0.0
 40
0.0
 40
0.0
 40
0.1249929242
 40
0.2500590293
 40
0.3751822011
 40
0.5002973722000001
 40
0.6253498794
 40
0.7503080916
 40
0.8751765463999999
 40
1.0
 40
1.0
 40
1.0
 40
1.0
 10
58.03804526179987
 20
42.66208987059997
 30
0.0
 10
58.06647647619985
 20
42.67977609059994
 30
0.0
 10
58.11825407459986
 20
42.7242045490999
 30
0.0
 10
58.17203307889986
 20
42.81088691859998
 30
0.0
 10
58.1973620908999
 20
42.90982001529994
 30
0.0
 10
58.19178386319987
 20
43.0117708365999
 30
0.0
 10
58.15585543509985
 20
43.10729991639994
 30
0.0
 10
58.09284854319987
 20
43.18753552499998
 30
0.0
 10
58.00873320319988
 20
43.24500876619999
 30
0.0
 10
57.94348446319986
 20
43.26462740249996
 30
0.0
 10
57.91036842769989
 20
43.26925626970001
 30
0.0
1001
ACAD
1000
RTMaterial
1005
0
  0
SPLINE
  5
5FC80
330
1F
100
AcDbEntity
  8
1
100
AcDbSpline
210
0.0
220
0.0
230
1.0
 70
     8
 71
     3
 72
    11
 73
     7
 74
     0
 42
0.0000000001
 43
0.0000000001
 40
0.0
 40
0.0
 40
0.0
 40
0.0
 40
0.2502689694
 40
0.5003316144
 40
0.7502220338
 40
1.0
 40
1.0
 40
1.0
 40
1.0
 10
56.09282141159986
 20
40.75658852879996
 30
0.0
 10
56.13248639769989
 20
40.82920427189998
 30
0.0
 10
56.23443080299989
 20
40.96323178349996
 30
0.0
 10
56.43965057929989
 20
41.10898737889994
 30
0.0
 10
56.67876130009983
 20
41.187139978
 30
0.0
 10
56.84694222859992
 20
41.18917176269991
 30
0.0
 10
56.92872558329987
 20
41.1777261194
 30
0.0
1001
ACAD
1000
RTMaterial
1005
0
  0
SPLINE
  5
5FC81
330
1F
100
AcDbEntity
  8
1
100
AcDbSpline
210
0.0
220
0.0
230
1.0
 70
     8
 71
     3
 72
    15
 73
    11
 74
     0
 42
0.0000000001
 43
0.0000000001
 40
0.0
 40
0.0
 40
0.0
 40
0.0
 40
0.1251602541
 40
0.2502837245
 40
0.3753592817
 40
0.5003790434000001
 40
0.6253432712000001
 40
0.7502586988
 40
0.8751367873999999
 40
1.0
 40
1.0
 40
1.0
 40
1.0
 10
57.01642244199991
 20
44.07057017859995
 30
0.0
 10
57.01792064319988
 20
44.02254129429997
 30
0.0
 10
57.02933804819986
 20
43.92654923629993
 30
0.0
 10
57.07118979869989
 20
43.78791830079996
 30
0.0
 10
57.13649379879985
 20
43.65867966579997
 30
0.0
 10
57.22325746609988
 20
43.54283943839994
 30
0.0
 10
57.32882701099987
 20
43.44392312639996
 30
0.0
 10
57.4499934390999
 20
43.36495702909991
 30
0.0
 10
57.5829983070999
 20
43.30836333730002
 30
0.0
 10
57.67699452609986
 20
43.28667723299997
 30
0.0
 10
57.72447068879984
 20
43.28003755099996
 30
0.0
1001
ACAD
1000
RTMaterial
1005
0
  0
SPLINE
  5
5FC82
330
1F
100
AcDbEntity
  8
1
100
AcDbSpline
210
0.0
220
0.0
230
1.0
 70
     8
 71
     3
 72
     8
 73
     4
 74
     0
 42
0.0000000001
 43
0.0000000001
 40
0.0
 40
0.0
 40
0.0
 40
0.0
 40
1.0
 40
1.0
 40
1.0
 40
1.0
 10
54.64833787319986
 20
41.70280829479998
 30
0.0
 10
54.66901142689988
 20
41.70293298149999
 30
0.0
 10
54.68970434119984
 20
41.70227340439999
 30
0.0
 10
54.71032833999988
 20
41.70083742349993
 30
0.0
1001
ACAD
1000
RTMaterial
1005
0
  0
SPLINE
  5
5FC83
330
1F
100
AcDbEntity
  8
1
100
AcDbSpline
210
0.0
220
0.0
230
1.0
 70
     8
 71
     3
 72
     8
 73
     4
 74
     0
 42
0.0000000001
 43
0.0000000001
 40
0.0
 40
0.0
 40
0.0
 40
0.0
 40
1.0
 40
1.0
 40
1.0
 40
1.0
 10
54.71032833999988
 20
41.70083742349993
 30
0.0
 10
54.7293050767999
 20
41.69951613599994
 30
0.0
 10
54.7482474261999
 20
41.69753591080001
 30
0.0
 10
54.76708689059984
 20
41.69490210739996
 30
0.0
1001
ACAD
1000
RTMaterial
1005
0
  0
SPLINE
  5
5FC84
330
1F
100
AcDbEntity
  8
1
100
AcDbSpline
210
0.0
220
0.0
230
1.0
 70
     8
 71
     3
 72
    15
 73
    11
 74
     0
 42
0.0000000001
 43
0.0000000001
 40
0.0
 40
0.0
 40
0.0
 40
0.0
 40
0.1248035261
 40
0.2496613061
 40
0.3746006319
 40
0.499629273
 40
0.6247274788000001
 40
0.7498557666
 40
0.8749517093000001
 40
1.0
 40
1.0
 40
1.0
 40
1.0
 10
57.44133955419989
 20
41.03411028129994
 30
0.0
 10
57.47188251279988
 20
41.02983586800002
 30
0.0
 10
57.53455223809988
 20
41.0299635165
 30
0.0
 10
57.62451614669988
 20
41.05635136809996
 30
0.0
 10
57.7036842611999
 20
41.10679620999997
 30
0.0
 10
57.76571107279989
 20
41.17731437639998
 30
0.0
 10
57.8057312631999
 20
41.26232650419995
 30
0.0
 10
57.82056195879983
 20
41.3551389083999
 30
0.0
 10
57.80910404769986
 20
41.44834880159993
 30
0.0
 10
57.78439504299985
 20
41.50606663849993
 30
0.0
 10
57.7683720263999
 20
41.53248898300001
 30
0.0
1001
ACAD
1000
RTMaterial
1005
0
  0
SPLINE
  5
5FC85
330
1F
100
AcDbEntity
  8
1
100
AcDbSpline
210
0.0
220
0.0
230
1.0
 70
     8
 71
     3
 72
    15
 73
    11
 74
     0
 42
0.0000000001
 43
0.0000000001
 40
0.0
 40
0.0
 40
0.0
 40
0.0
 40
0.1248198495
 40
0.2497009272
 40
0.3746642443
 40
0.4997044267000001
 40
0.6247961708
 40
0.7499053905
 40
0.8749776184999998
 40
1.0
 40
1.0
 40
1.0
 40
1.0
 10
57.37833385189986
 20
41.04946909799997
 30
0.0
 10
57.40643494079984
 20
41.05115715709996
 30
0.0
 10
57.46248083799986
 20
41.06184819209994
 30
0.0
 10
57.53949808409988
 20
41.09874418879991
 30
0.0
 10
57.60468423229986
 20
41.15406663589993
 30
0.0
 10
57.65367881609989
 20
41.22417547059995
 30
0.0
 10
57.68328990749989
 20
41.30445209909993
 30
0.0
 10
57.69154956699987
 20
41.38963432429995
 30
0.0
 10
57.67796580559985
 20
41.47406351259997
 30
0.0
 10
57.65483118169988
 20
41.52631328809997
 30
0.0
 10
57.64021008599986
 20
41.55042383089994
 30
0.0
1001
ACAD
1000
RTMaterial
1005
0
  0
SPLINE
  5
5FC86
330
1F
100
AcDbEntity
  8
1
100
AcDbSpline
210
0.0
220
0.0
230
1.0
 70
     8
 71
     3
 72
    11
 73
     7
 74
     0
 42
0.0000000001
 43
0.0000000001
 40
0.0
 40
0.0
 40
0.0
 40
0.0
 40
0.2497812734
 40
0.4996706779000001
 40
0.7497377359000001
 40
1.0
 40
1.0
 40
1.0
 40
1.0
 10
57.05688746779987
 20
41.15979083139996
 30
0.0
 10
56.97510242139987
 20
41.17123228819997
 30
0.0
 10
56.80692102849985
 20
41.16921055709997
 30
0.0
 10
56.56781018689986
 20
41.09104732989993
 30
0.0
 10
56.36258987079987
 20
40.94529586139998
 30
0.0
 10
56.26064727619985
 20
40.81126748010001
 30
0.0
 10
56.2209833519999
 20
40.73865368089991
 30
0.0
1001
ACAD
1000
RTMaterial
1005
0
  0
SPLINE
  5
5FC87
330
1F
100
AcDbEntity
  8
1
100
AcDbSpline
210
0.0
220
0.0
230
1.0
 70
     8
 71
     3
 72
    11
 73
     7
 74
     0
 42
0.0000000001
 43
0.0000000001
 40
0.0
 40
0.0
 40
0.0
 40
0.0
 40
0.2502996486
 40
0.5003874572
 40
0.7502656923000001
 40
1.0
 40
1.0
 40
1.0
 40
1.0
 10
57.01642244199991
 20
44.07057017859995
 30
0.0
 10
57.01522836869987
 20
44.10884942129996
 30
0.0
 10
56.9992661474999
 20
44.18561850929996
 30
0.0
 10
56.93747630949991
 20
44.28507065499997
 30
0.0
 10
56.84547969569985
 20
44.35736647779992
 30
0.0
 10
56.77099753039988
 20
44.38154071699995
 30
0.0
 10
56.73315477409989
 20
44.38683541739993
 30
0.0
1001
ACAD
1000
RTMaterial
1005
0
  0
SPLINE
  5
5FC88
330
1F
100
AcDbEntity
  8
1
100
AcDbSpline
210
0.0
220
0.0
230
1.0
 70
     8
 71
     3
 72
    11
 73
     7
 74
     0
 42
0.0000000001
 43
0.0000000001
 40
0.0
 40
0.0
 40
0.0
 40
0.0
 40
0.2497807494
 40
0.499671638
 40
0.7497263809
 40
1.0
 40
1.0
 40
1.0
 40
1.0
 10
55.88656510419986
 20
40.57017196279997
 30
0.0
 10
55.91928449579985
 20
40.56559408849994
 30
0.0
 10
55.98656874089988
 20
40.56640145719995
 30
0.0
 10
56.08222731069986
 20
40.59767299959998
 30
0.0
 10
56.16433042049988
 20
40.65598142480001
 30
0.0
 10
56.20511438729988
 20
40.70960194589992
 30
0.0
 10
56.2209833519999
 20
40.73865368089991
 30
0.0
1001
ACAD
1000
RTMaterial
1005
0
  0
SPLINE
  5
5FC89
330
1F
100
AcDbEntity
  8
1
100
AcDbSpline
210
0.0
220
0.0
230
1.0
 70
     8
 71
     3
 72
    11
 73
     7
 74
     0
 42
0.0000000001
 43
0.0000000001
 40
0.0
 40
0.0
 40
0.0
 40
0.0
 40
0.2497849674
 40
0.4997030093000001
 40
0.7497650819000001
 40
1.0
 40
1.0
 40
1.0
 40
1.0
 10
55.82350790329986
 20
40.58552441609998
 30
0.0
 10
55.85111596349986
 20
40.58717271589995
 30
0.0
 10
55.90617701369985
 20
40.59754435739995
 30
0.0
 10
55.98207024049987
 20
40.63325657979999
 30
0.0
 10
56.04668884999989
 20
40.68680863639997
 30
0.0
 10
56.07953928299986
 20
40.73227258319997
 30
0.0
 10
56.09282141159986
 20
40.75658852879996
 30
0.0
1001
ACAD
1000
RTMaterial
1005
0
  0
SPLINE
  5
5FC8A
330
1F
100
AcDbEntity
  8
1
100
AcDbSpline
210
0.0
220
0.0
230
1.0
 70
     8
 71
     3
 72
     9
 73
     5
 74
     0
 42
0.0000000001
 43
0.0000000001
 40
0.0
 40
0.0
 40
0.0
 40
0.0
 40
0.5000427267000001
 40
1.0
 40
1.0
 40
1.0
 40
1.0
 10
55.28823711939987
 20
43.886983998
 30
0.0
 10
55.33082679979987
 20
43.86411248129997
 30
0.0
 10
55.42022098559988
 20
43.82583321949994
 30
0.0
 10
55.51496442119987
 20
43.80391312159992
 30
0.0
 10
55.56283241039989
 20
43.79721654870002
 30
0.0
1001
ACAD
1000
RTMaterial
1005
0
  0
SPLINE
  5
5FC8B
330
1F
100
AcDbEntity
  8
1
100
AcDbSpline
210
0.0
220
0.0
230
1.0
 70
     8
 71
     3
 72
     9
 73
     5
 74
     0
 42
0.0000000001
 43
0.0000000001
 40
0.0
 40
0.0
 40
0.0
 40
0.0
 40
0.7495490479000001
 40
1.0
 40
1.0
 40
1.0
 40
1.0
 10
55.28823711939987
 20
43.886983998
 30
0.0
 10
55.26272146649984
 20
43.90068641789997
 30
0.0
 10
55.22597899419986
 20
43.91452437429996
 30
0.0
 10
55.18796420279989
 20
43.92155585819994
 30
0.0
 10
55.17838032409986
 20
43.92289709889996
 30
0.0
1001
ACAD
1000
RTMaterial
1005
0
  0
SPLINE
  5
5FC8C
330
1F
100
AcDbEntity
  8
1
100
AcDbSpline
210
0.0
220
0.0
230
1.0
 70
     8
 71
     3
 72
     8
 73
     4
 74
     0
 42
0.0000000001
 43
0.0000000001
 40
0.0
 40
0.0
 40
0.0
 40
0.0
 40
1.0
 40
1.0
 40
1.0
 40
1.0
 10
54.89524918949991
 20
41.67696982919994
 30
0.0
 10
54.85134284849988
 20
41.68311026109996
 30
0.0
 10
54.80679296509987
 20
41.68569725009996
 30
0.0
 10
54.76247126479989
 20
41.68466838799997
 30
0.0
1001
ACAD
1000
RTMaterial
1005
0
  0
SPLINE
  5
5FC8D
330
1F
100
AcDbEntity
  8
1
100
AcDbSpline
210
0.0
220
0.0
230
1.0
 70
     8
 71
     3
 72
    27
 73
    23
 74
     0
 42
0.0000000001
 43
0.0000000001
 40
0.0
 40
0.0
 40
0.0
 40
0.0
 40
0.0624189136
 40
0.0936574536
 40
0.1248956952
 40
0.187296672
 40
0.2497075133
 40
0.2809578771
 40
0.3122145852
 40
0.3746743718
 40
0.4371656960000001
 40
0.4996869511
 40
0.5622320427
 40
0.6247912526000001
 40
0.6873526613
 40
0.718667932
 40
0.7499792088
 40
0.8125099985999998
 40
0.8750126935
 40
0.9062897940999999
 40
0.9375572100999999
 40
1.0
 40
1.0
 40
1.0
 40
1.0
 10
55.64232396629984
 20
44.73166073049998
 30
0.0
 10
55.78919897109989
 20
44.77548779260001
 30
0.0
 10
56.01689055409986
 20
44.81966455529994
 30
0.0
 10
56.32364074509985
 20
44.83313253769995
 30
0.0
 10
56.6302873928999
 20
44.81647036159995
 30
0.0
 10
57.00827700189984
 20
44.73911603300002
 30
0.0
 10
57.36381859589989
 20
44.58918549959998
 30
0.0
 10
57.62625463619986
 20
44.42954066009997
 30
0.0
 10
57.87187498239984
 20
44.24488115539998
 30
0.0
 10
58.14317022079984
 20
43.96992196169992
 30
0.0
 10
58.39786952689985
 20
43.58296830769996
 30
0.0
 10
58.57240710179991
 20
43.15354779699993
 30
0.0
 10
58.65996527199991
 20
42.69819074369997
 30
0.0
 10
58.65727178199989
 20
42.23447898099993
 30
0.0
 10
58.57973858749989
 20
41.85551429819997
 30
0.0
 10
58.47455971649987
 20
41.56620792219996
 30
0.0
 10
58.34167246879985
 20
41.28861087889998
 30
0.0
 10
58.12555118779989
 20
40.9681361826
 30
0.0
 10
57.85109092059986
 20
40.6960779094
 30
0.0
 10
57.60330588449988
 20
40.5139585869
 30
0.0
 10
57.33910989189985
 20
40.35706833099993
 30
0.0
 10
57.12432709889987
 20
40.26919047639995
 30
0.0
 10
56.97739591189986
 20
40.22534664969998
 30
0.0
1001
ACAD
1000
RTMaterial
1005
0
  0
SPLINE
  5
5FC8E
330
1F
100
AcDbEntity
  8
1
100
AcDbSpline
210
0.0
220
0.0
230
1.0
 70
     8
 71
     3
 72
     8
 73
     4
 74
     0
 42
0.0000000001
 43
0.0000000001
 40
0.0
 40
0.0
 40
0.0
 40
0.0
 40
1.0
 40
1.0
 40
1.0
 40
1.0
 10
54.70935145059986
 20
41.68775111050002
 30
0.0
 10
54.72691708139985
 20
41.68529583559996
 30
0.0
 10
54.7447396451999
 20
41.68425677489994
 30
0.0
 10
54.76247126479989
 20
41.68466838799997
 30
0.0
1001
ACAD
1000
RTMaterial
1005
0
  0
SPLINE
  5
5FC91
330
1F
100
AcDbEntity
  8
1
100
AcDbSpline
210
0.0
220
0.0
230
1.0
 70
     8
 71
     3
 72
     9
 73
     5
 74
     0
 42
0.0000000001
 43
0.0000000001
 40
0.0
 40
0.0
 40
0.0
 40
0.0
 40
0.2479593616
 40
1.0
 40
1.0
 40
1.0
 40
1.0
 10
55.0285085395999
 20
49.45396765069995
 30
0.0
 10
55.12941804569988
 20
49.46376424529995
 30
0.0
 10
55.5362973995999
 20
49.50409754139997
 30
0.0
 10
55.94285298619985
 20
49.54770047329998
 30
0.0
 10
56.24838147059984
 20
49.58237007559995
 30
0.0
1001
ACAD
1000
RTMaterial
1005
0
  0
LINE
  5
5FC92
330
1F
100
AcDbEntity
  8
1
100
AcDbLine
 10
54.69621888409989
 20
49.35708421269993
 30
0.0
 11
54.70069532569988
 21
49.35939625029994
 31
0.0
1001
ACAD
1000
RTMaterial
1005
0
  0
LINE
  5
5FC93
330
1F
100
AcDbEntity
  8
1
100
AcDbLine
 10
54.70069532569988
 20
49.35939625029994
 30
0.0
 11
54.70934690439986
 21
49.36375284669992
 31
0.0
1001
ACAD
1000
RTMaterial
1005
0
  0
SPLINE
  5
5FC94
330
1F
100
AcDbEntity
  8
1
100
AcDbSpline
210
0.0
220
0.0
230
1.0
 70
     8
 71
     3
 72
     8
 73
     4
 74
     0
 42
0.0000000001
 43
0.0000000001
 40
0.0
 40
0.0
 40
0.0
 40
0.0
 40
1.0
 40
1.0
 40
1.0
 40
1.0
 10
54.70934690439986
 20
49.36375284669992
 30
0.0
 10
54.72951927929989
 20
49.37374059139995
 30
0.0
 10
54.75018650719983
 20
49.38278638899999
 30
0.0
 10
54.77121407219988
 20
49.39081890229999
 30
0.0
1001
ACAD
1000
RTMaterial
1005
0
  0
SPLINE
  5
5FC95
330
1F
100
AcDbEntity
  8
1
100
AcDbSpline
210
0.0
220
0.0
230
1.0
 70
     8
 71
     3
 72
     9
 73
     5
 74
     0
 42
0.0000000001
 43
0.0000000001
 40
0.0
 40
0.0
 40
0.0
 40
0.0
 40
0.2498748411
 40
1.0
 40
1.0
 40
1.0
 40
1.0
 10
51.54799209049986
 20
37.73213896260001
 30
0.0
 10
51.48725203449988
 20
37.81606161939999
 30
0.0
 10
51.24388887869987
 20
38.15171672419996
 30
0.0
 10
50.99940300069988
 20
38.4865580298
 30
0.0
 10
50.81533797679987
 20
38.73723795989997
 30
0.0
1001
ACAD
1000
RTMaterial
1005
0
  0
SPLINE
  5
5FC96
330
1F
100
AcDbEntity
  8
1
100
AcDbSpline
210
0.0
220
0.0
230
1.0
 70
     8
 71
     3
 72
     8
 73
     4
 74
     0
 42
0.0000000001
 43
0.0000000001
 40
0.0
 40
0.0
 40
0.0
 40
0.0
 40
1.0
 40
1.0
 40
1.0
 40
1.0
 10
51.78711045229988
 20
37.49870497169997
 30
0.0
 10
51.76964549429988
 20
37.5106112112
 30
0.0
 10
51.7526697360999
 20
37.52326905690001
 30
0.0
 10
51.73627825979986
 20
37.53661457300001
 30
0.0
1001
ACAD
1000
RTMaterial
1005
0
  0
SPLINE
  5
5FC97
330
1F
100
AcDbEntity
  8
1
100
AcDbSpline
210
0.0
220
0.0
230
1.0
 70
     8
 71
     3
 72
     9
 73
     5
 74
     0
 42
0.0000000001
 43
0.0000000001
 40
0.0
 40
0.0
 40
0.0
 40
0.0
 40
0.2496740753
 40
1.0
 40
1.0
 40
1.0
 40
1.0
 10
63.38404129859987
 20
40.56223450089993
 30
0.0
 10
63.34012359089991
 20
40.46851809399998
 30
0.0
 10
63.16555768109987
 20
40.09253970739997
 30
0.0
 10
62.99632321389987
 20
39.71408271629992
 30
0.0
 10
62.87256838209987
 20
39.42873312079996
 30
0.0
1001
ACAD
1000
RTMaterial
1005
0
  0
SPLINE
  5
5FC98
330
1F
100
AcDbEntity
  8
1
100
AcDbSpline
210
0.0
220
0.0
230
1.0
 70
     8
 71
     3
 72
     9
 73
     5
 74
     0
 42
0.0000000001
 43
0.0000000001
 40
0.0
 40
0.0
 40
0.0
 40
0.0
 40
0.2567257741
 40
1.0
 40
1.0
 40
1.0
 40
1.0
 10
53.22632737259988
 20
48.84009903379996
 30
0.0
 10
53.20254954019986
 20
48.83551035809995
 30
0.0
 10
53.1103641576999
 20
48.81546780249999
 30
0.0
 10
53.02002245249986
 20
48.78685650779994
 30
0.0
 10
52.95491881049986
 20
48.76083349679999
 30
0.0
1001
ACAD
1000
RTMaterial
1005
0
  0
SPLINE
  5
5FC99
330
1F
100
AcDbEntity
  8
1
100
AcDbSpline
210
0.0
220
0.0
230
1.0
 70
     8
 71
     3
 72
     9
 73
     5
 74
     0
 42
0.0000000001
 43
0.0000000001
 40
0.0
 40
0.0
 40
0.0
 40
0.0
 40
0.501675589
 40
1.0
 40
1.0
 40
1.0
 40
1.0
 10
48.57413047129984
 20
41.78955951479998
 30
0.0
 10
48.53126056899987
 20
41.84794444829998
 30
0.0
 10
48.45407605239984
 20
41.97066327449994
 30
0.0
 10
48.39630752549988
 20
42.10369167999994
 30
0.0
 10
48.3728556769999
 20
42.17171211260001
 30
0.0
1001
ACAD
1000
RTMaterial
1005
0
  0
LINE
  5
5FC9A
330
1F
100
AcDbEntity
  8
1
100
AcDbLine
 10
47.64622493369984
 20
43.49794422730002
 30
0.0
 11
47.64245781409989
 21
43.46728057249999
 31
0.0
1001
ACAD
1000
RTMaterial
1005
0
  0
SPLINE
  5
5FC9B
330
1F
100
AcDbEntity
  8
1
100
AcDbSpline
210
0.0
220
0.0
230
1.0
 70
     8
 71
     3
 72
     9
 73
     5
 74
     0
 42
0.0000000001
 43
0.0000000001
 40
0.0
 40
0.0
 40
0.0
 40
0.0
 40
0.2493217228
 40
1.0
 40
1.0
 40
1.0
 40
1.0
 10
47.69825798469986
 20
43.73053582769995
 30
0.0
 10
47.69226998799985
 20
43.71164017949996
 30
0.0
 10
47.66991019649987
 20
43.63533614319999
 30
0.0
 10
47.65418734199989
 20
43.5570916165999
 30
0.0
 10
47.64622477319989
 20
43.49794424219999
 30
0.0
1001
ACAD
1000
RTMaterial
1005
0
  0
SPLINE
  5
5FC9C
330
1F
100
AcDbEntity
  8
1
100
AcDbSpline
210
0.0
220
0.0
230
1.0
 70
     8
 71
     3
 72
     9
 73
     5
 74
     0
 42
0.0000000001
 43
0.0000000001
 40
0.0
 40
0.0
 40
0.0
 40
0.0
 40
0.2491533436
 40
1.0
 40
1.0
 40
1.0
 40
1.0
 10
47.73032706729987
 20
43.82156051569995
 30
0.0
 10
47.72742423399984
 20
43.81408866279997
 30
0.0
 10
47.71601041969984
 20
43.78400817760002
 30
0.0
 10
47.70555370959988
 20
43.75356440379994
 30
0.0
 10
47.69825614919983
 20
43.73053631120001
 30
0.0
1001
ACAD
1000
RTMaterial
1005
0
  0
SPLINE
  5
5FC9D
330
1F
100
AcDbEntity
  8
1
100
AcDbSpline
210
0.0
220
0.0
230
1.0
 70
     8
 71
     3
 72
    11
 73
     7
 74
     0
 42
0.0000000001
 43
0.0000000001
 40
0.0
 40
0.0
 40
0.0
 40
0.0
 40
0.2482991202
 40
0.4971764117000001
 40
0.7476319500000001
 40
1.0
 40
1.0
 40
1.0
 40
1.0
 10
47.64050718129982
 20
43.43683670819996
 30
0.0
 10
47.63630294569987
 20
43.35706157940001
 30
0.0
 10
47.64135545219983
 20
43.19628470669994
 30
0.0
 10
47.68997944429986
 20
42.95951699929998
 30
0.0
 10
47.77954739069985
 20
42.73359628069994
 30
0.0
 10
47.86445032339986
 20
42.59481389409995
 30
0.0
 10
47.91250562349984
 20
42.52936691769991
 30
0.0
1001
ACAD
1000
RTMaterial
1005
0
  0
LINE
  5
5FC9E
330
1F
100
AcDbEntity
  8
1
100
AcDbLine
 10
47.64245781409989
 20
43.46728057249999
 30
0.0
 11
47.64050718129982
 21
43.43683670819996
 31
0.0
1001
ACAD
1000
RTMaterial
1005
0
  0
SPLINE
  5
5FC9F
330
1F
100
AcDbEntity
  8
1
100
AcDbSpline
210
0.0
220
0.0
230
1.0
 70
     8
 71
     3
 72
     9
 73
     5
 74
     0
 42
0.0000000001
 43
0.0000000001
 40
0.0
 40
0.0
 40
0.0
 40
0.0
 40
0.4973933731000001
 40
1.0
 40
1.0
 40
1.0
 40
1.0
 10
60.71710645109988
 20
35.23038222419996
 30
0.0
 10
60.63205807049985
 20
35.18961565259997
 30
0.0
 10
60.45195815029984
 20
35.12543632069998
 30
0.0
 10
60.26241613839989
 20
35.10042914379994
 30
0.0
 10
60.1671511735999
 20
35.09775208690002
 30
0.0
1001
ACAD
1000
RTMaterial
1005
0
  0
SPLINE
  5
5FCA0
330
1F
100
AcDbEntity
  8
1
100
AcDbSpline
210
0.0
220
0.0
230
1.0
 70
     8
 71
     3
 72
     9
 73
     5
 74
     0
 42
0.0000000001
 43
0.0000000001
 40
0.0
 40
0.0
 40
0.0
 40
0.0
 40
0.2490451083
 40
1.0
 40
1.0
 40
1.0
 40
1.0
 10
60.95844602759985
 20
35.39258080709994
 30
0.0
 10
60.94383643409987
 20
35.38008291839992
 30
0.0
 10
60.88405202189989
 20
35.33122498259996
 30
0.0
 10
60.81989695559986
 20
35.28772564529993
 30
0.0
 10
60.7698746394999
 20
35.25842366119997
 30
0.0
1001
ACAD
1000
RTMaterial
1005
0
  0
SPLINE
  5
5FCA1
330
1F
100
AcDbEntity
  8
1
100
AcDbSpline
210
0.0
220
0.0
230
1.0
 70
     8
 71
     3
 72
     9
 73
     5
 74
     0
 42
0.0000000001
 43
0.0000000001
 40
0.0
 40
0.0
 40
0.0
 40
0.0
 40
0.5012706207000001
 40
1.0
 40
1.0
 40
1.0
 40
1.0
 10
61.36426486189987
 20
35.95093842389997
 30
0.0
 10
61.31807793389987
 20
35.84444220949996
 30
0.0
 10
61.20380292399983
 20
35.64077335269991
 30
0.0
 10
61.04620827189984
 20
35.46765517389997
 30
0.0
 10
60.95844717829987
 20
35.39257927669996
 30
0.0
1001
ACAD
1000
RTMaterial
1005
0
  0
SPLINE
  5
5FCA2
330
1F
100
AcDbEntity
  8
1
100
AcDbSpline
210
0.0
220
0.0
230
1.0
 70
     8
 71
     3
 72
     9
 73
     5
 74
     0
 42
0.0000000001
 43
0.0000000001
 40
0.0
 40
0.0
 40
0.0
 40
0.0
 40
0.4987360353
 40
1.0
 40
1.0
 40
1.0
 40
1.0
 10
60.96780067919985
 20
49.78964287899998
 30
0.0
 10
61.10100722699991
 20
49.69813046079997
 30
0.0
 10
61.33939949719985
 20
49.46842853069995
 30
0.0
 10
61.48616411109987
 20
49.17143338949995
 30
0.0
 10
61.53271046769987
 20
49.0158140236
 30
0.0
1001
ACAD
1000
RTMaterial
1005
0
  0
SPLINE
  5
5FCA3
330
1F
100
AcDbEntity
  8
1
100
AcDbSpline
210
0.0
220
0.0
230
1.0
 70
     8
 71
     3
 72
     9
 73
     5
 74
     0
 42
0.0000000001
 43
0.0000000001
 40
0.0
 40
0.0
 40
0.0
 40
0.0
 40
0.2492241108
 40
1.0
 40
1.0
 40
1.0
 40
1.0
 10
60.69643344129985
 20
49.92508622709994
 30
0.0
 10
60.71527568589988
 20
49.91816376769993
 30
0.0
 10
60.79027415009988
 20
49.88876587480001
 30
0.0
 10
60.86275393749986
 20
49.85295501309997
 30
0.0
 10
60.91516481739984
 20
49.8227917054
 30
0.0
1001
ACAD
1000
RTMaterial
1005
0
  0
SPLINE
  5
5FCA4
330
1F
100
AcDbEntity
  8
1
100
AcDbSpline
210
0.0
220
0.0
230
1.0
 70
     8
 71
     3
 72
     9
 73
     5
 74
     0
 42
0.0000000001
 43
0.0000000001
 40
0.0
 40
0.0
 40
0.0
 40
0.0
 40
0.4950561726
 40
1.0
 40
1.0
 40
1.0
 40
1.0
 10
59.99789239619985
 20
50.00784317659991
 30
0.0
 10
60.11401482429988
 20
50.02102007659994
 30
0.0
 10
60.35236368609986
 20
50.02119874199991
 30
0.0
 10
60.58454456879985
 20
49.96619517249996
 30
0.0
 10
60.69643414749987
 20
49.92508801559996
 30
0.0
1001
ACAD
1000
RTMaterial
1005
0
  0
SPLINE
  5
5FCA5
330
1F
100
AcDbEntity
  8
1
100
AcDbSpline
210
0.0
220
0.0
230
1.0
 70
     8
 71
     3
 72
     9
 73
     5
 74
     0
 42
0.0000000001
 43
0.0000000001
 40
0.0
 40
0.0
 40
0.0
 40
0.0
 40
0.7496191467000001
 40
1.0
 40
1.0
 40
1.0
 40
1.0
 10
63.46355001009988
 20
40.82090762730001
 30
0.0
 10
63.45165067369987
 20
40.75425307889998
 30
0.0
 10
63.4272576928999
 20
40.66658173309991
 30
0.0
 10
63.39316787779984
 20
40.58292648889994
 30
0.0
 10
63.38404129859987
 20
40.56223450089993
 30
0.0
1001
ACAD
1000
RTMaterial
1005
0
  0
SPLINE
  5
5FCA6
330
1F
100
AcDbEntity
  8
1
100
AcDbSpline
210
0.0
220
0.0
230
1.0
 70
     8
 71
     3
 72
     8
 73
     4
 74
     0
 42
0.0000000001
 43
0.0000000001
 40
0.0
 40
0.0
 40
0.0
 40
0.0
 40
1.0
 40
1.0
 40
1.0
 40
1.0
 10
63.47199999999986
 20
40.87700185739993
 30
0.0
 10
63.46969744869989
 20
40.8582335351
 30
0.0
 10
63.46687315899988
 20
40.83952236189998
 30
0.0
 10
63.46355001009988
 20
40.82090762730001
 30
0.0
1001
ACAD
1000
RTMaterial
1005
0
  0
LINE
  5
5FCA7
330
1F
100
AcDbEntity
  8
1
100
AcDbLine
 10
63.47384042659991
 20
40.90870781230001
 30
0.0
 11
63.47199999999986
 21
40.87700185739993
 31
0.0
1001
ACAD
1000
RTMaterial
1005
0
  0
SPLINE
  5
5FCA8
330
1F
100
AcDbEntity
  8
1
100
AcDbSpline
210
0.0
220
0.0
230
1.0
 70
     8
 71
     3
 72
     9
 73
     5
 74
     0
 42
0.0000000001
 43
0.0000000001
 40
0.0
 40
0.0
 40
0.0
 40
0.0
 40
0.2434504122
 40
1.0
 40
1.0
 40
1.0
 40
1.0
 10
63.50058650459988
 20
42.21576872599996
 30
0.0
 10
63.50229583499987
 20
42.10967902359999
 30
0.0
 10
63.50547568549984
 20
41.67385006159991
 30
0.0
 10
63.49255661029985
 20
41.23790471029997
 30
0.0
 10
63.47384150749985
 20
40.90870777019995
 30
0.0
1001
ACAD
1000
RTMaterial
1005
0
  0
LINE
  5
5FCA9
330
1F
100
AcDbEntity
  8
1
100
AcDbLine
 10
63.49999999999988
 20
42.24895564190001
 30
0.0
 11
63.5005854179999
 21
42.21576869449996
 31
0.0
1001
ACAD
1000
RTMaterial
1005
0
  0
SPLINE
  5
5FCAA
330
1F
100
AcDbEntity
  8
1
100
AcDbSpline
210
0.0
220
0.0
230
1.0
 70
     8
 71
     3
 72
     9
 73
     5
 74
     0
 42
0.0000000001
 43
0.0000000001
 40
0.0
 40
0.0
 40
0.0
 40
0.0
 40
0.2584941647
 40
1.0
 40
1.0
 40
1.0
 40
1.0
 10
63.43637431879983
 20
42.65125819650001
 30
0.0
 10
63.44644869079985
 20
42.61757634499997
 30
0.0
 10
63.48104092609986
 20
42.4860112193
 30
0.0
 10
63.49806803979987
 20
42.34978485319999
 30
0.0
 10
63.50000046879983
 20
42.24895565639997
 30
0.0
1001
ACAD
1000
RTMaterial
1005
0
  0
SPLINE
  5
5FCAB
330
1F
100
AcDbEntity
  8
1
100
AcDbSpline
210
0.0
220
0.0
230
1.0
 70
     8
 71
     3
 72
     9
 73
     5
 74
     0
 42
0.0000000001
 43
0.0000000001
 40
0.0
 40
0.0
 40
0.0
 40
0.0
 40
0.2427615416
 40
1.0
 40
1.0
 40
1.0
 40
1.0
 10
52.92457528839986
 20
48.74866165629993
 30
0.0
 10
52.87821968259987
 20
48.72999878929999
 30
0.0
 10
52.68758704959987
 20
48.65233222829999
 30
0.0
 10
52.49839277809986
 20
48.57113772409991
 30
0.0
 10
52.35597644169985
 20
48.50777844469996
 30
0.0
1001
ACAD
1000
RTMaterial
1005
0
  0
LINE
  5
5FCAC
330
1F
100
AcDbEntity
  8
1
100
AcDbLine
 10
52.95491898159986
 20
48.76083305749995
 30
0.0
 11
52.9245756878999
 21
48.74866063609999
 31
0.0
1001
ACAD
1000
RTMaterial
1005
0
  0
SPLINE
  5
5FCAD
330
1F
100
AcDbEntity
  8
1
100
AcDbSpline
210
0.0
220
0.0
230
1.0
 70
     8
 71
     3
 72
     9
 73
     5
 74
     0
 42
0.0000000001
 43
0.0000000001
 40
0.0
 40
0.0
 40
0.0
 40
0.0
 40
0.2504623937
 40
1.0
 40
1.0
 40
1.0
 40
1.0
 10
54.77121399869986
 20
49.39081909109996
 30
0.0
 10
54.79190550989983
 20
49.39872323259999
 30
0.0
 10
54.87552444309983
 20
49.42760495739992
 30
0.0
 10
54.96270392689985
 20
49.44599466669996
 30
0.0
 10
55.0285085395999
 20
49.45396765069995
 30
0.0
1001
ACAD
1000
RTMaterial
1005
0
  0
SPLINE
  5
5FCAE
330
1F
100
AcDbEntity
  8
1
100
AcDbSpline
210
0.0
220
0.0
230
1.0
 70
     8
 71
     3
 72
     9
 73
     5
 74
     0
 42
0.0000000001
 43
0.0000000001
 40
0.0
 40
0.0
 40
0.0
 40
0.0
 40
0.2578430942
 40
1.0
 40
1.0
 40
1.0
 40
1.0
 10
51.83845683899983
 20
37.18257532399997
 30
0.0
 10
51.85924828549985
 20
37.15425925349996
 30
0.0
 10
51.94353830459988
 20
37.0471732369
 30
0.0
 10
52.04208941629985
 20
36.95129191359996
 30
0.0
 10
52.12142139669987
 20
36.8885978962
 30
0.0
1001
ACAD
1000
RTMaterial
1005
0
  0
SPLINE
  5
5FCAF
330
1F
100
AcDbEntity
  8
1
100
AcDbSpline
210
0.0
220
0.0
230
1.0
 70
     8
 71
     3
 72
    10
 73
     6
 74
     0
 42
0.0000000001
 43
0.0000000001
 40
0.0
 40
0.0
 40
0.0
 40
0.0
 40
0.2421947278
 40
0.6220563912000001
 40
1.0
 40
1.0
 40
1.0
 40
1.0
 10
52.14764154529984
 20
36.86793280209997
 30
0.0
 10
52.22024599969984
 20
36.81086977929999
 30
0.0
 10
52.40781736999986
 20
36.66569245580002
 30
0.0
 10
52.71407873419986
 20
36.43851624209998
 30
0.0
 10
52.95006368799988
 20
36.27173853319999
 30
0.0
 10
53.06876697469983
 20
36.19003509339996
 30
0.0
1001
ACAD
1000
RTMaterial
1005
0
  0
LINE
  5
5FCB0
330
1F
100
AcDbEntity
  8
1
100
AcDbLine
 10
52.12142168909986
 20
36.88859826519996
 30
0.0
 11
52.14764222319985
 21
36.86793366069998
 31
0.0
1001
ACAD
1000
RTMaterial
1005
0
  0
SPLINE
  5
5FCB1
330
1F
100
AcDbEntity
  8
1
100
AcDbSpline
210
0.0
220
0.0
230
1.0
 70
     8
 71
     3
 72
     9
 73
     5
 74
     0
 42
0.0000000001
 43
0.0000000001
 40
0.0
 40
0.0
 40
0.0
 40
0.0
 40
0.2503103162
 40
1.0
 40
1.0
 40
1.0
 40
1.0
 10
51.73627813189989
 20
37.53661441579999
 30
0.0
 10
51.71869120999986
 20
37.5509332323
 30
0.0
 10
51.6502461108999
 20
37.6103435201
 30
0.0
 10
51.58909065039989
 20
37.67805964199994
 30
0.0
 10
51.54799209049986
 20
37.73213896260001
 30
0.0
1001
ACAD
1000
RTMaterial
1005
0
  0
SPLINE
  5
5FCB2
330
1F
100
AcDbEntity
  8
1
100
AcDbSpline
210
0.0
220
0.0
230
1.0
 70
     8
 71
     3
 72
     8
 73
     4
 74
     0
 42
0.0000000001
 43
0.0000000001
 40
0.0
 40
0.0
 40
0.0
 40
0.0
 40
1.0
 40
1.0
 40
1.0
 40
1.0
 10
60.91516606919987
 20
49.82279378919997
 30
0.0
 10
60.93313719389988
 20
49.81245111029995
 30
0.0
 10
60.95071064329989
 20
49.80138436229998
 30
0.0
 10
60.96780117589986
 20
49.78964357759998
 30
0.0
1001
ACAD
1000
RTMaterial
1005
0
  0
SPLINE
  5
5FCB3
330
1F
100
AcDbEntity
  8
1
100
AcDbSpline
210
0.0
220
0.0
230
1.0
 70
     8
 71
     3
 72
     8
 73
     4
 74
     0
 42
0.0000000001
 43
0.0000000001
 40
0.0
 40
0.0
 40
0.0
 40
0.0
 40
1.0
 40
1.0
 40
1.0
 40
1.0
 10
60.76987577529985
 20
35.25842151009999
 30
0.0
 10
60.75268869009988
 20
35.24835369620002
 30
0.0
 10
60.73506855169984
 20
35.2389914355
 30
0.0
 10
60.71710679509988
 20
35.23038143699995
 30
0.0
1001
ACAD
1000
RTMaterial
1005
0
  0
SPLINE
  5
5FCB4
330
1F
100
AcDbEntity
  8
1
100
AcDbSpline
210
0.0
220
0.0
230
1.0
 70
     8
 71
     3
 72
    11
 73
     7
 74
     0
 42
0.0000000001
 43
0.0000000001
 40
0.0
 40
0.0
 40
0.0
 40
0.0
 40
0.2476310057
 40
0.4970906347
 40
0.7482928707
 40
1.0
 40
1.0
 40
1.0
 40
1.0
 10
48.3028356838999
 20
42.7283158765
 30
0.0
 10
48.31162964009985
 20
42.80808931259997
 30
0.0
 10
48.34276209549989
 20
42.96703618369997
 30
0.0
 10
48.42783437189985
 20
43.19525283730001
 30
0.0
 10
48.54928781659987
 20
43.40785258599993
 30
0.0
 10
48.6516470594999
 20
43.53567442550001
 30
0.0
 10
48.70739137299989
 20
43.5952353165
 30
0.0
1001
ACAD
1000
RTMaterial
1005
0
  0
LINE
  5
5FCB5
330
1F
100
AcDbEntity
  8
1
100
AcDbLine
 10
48.29980660209987
 20
42.69793665079999
 30
0.0
 11
48.3028356838999
 21
42.7283158765
 31
0.0
1001
ACAD
1000
RTMaterial
1005
0
  0
LINE
  5
5FCB6
330
1F
100
AcDbEntity
  8
1
100
AcDbLine
 10
48.29850311459989
 20
42.66712533419997
 30
0.0
 11
48.29980660209987
 21
42.69793665079999
 31
0.0
1001
ACAD
1000
RTMaterial
1005
0
  0
SPLINE
  5
5FCB7
330
1F
100
AcDbEntity
  8
1
100
AcDbSpline
210
0.0
220
0.0
230
1.0
 70
     8
 71
     3
 72
     9
 73
     5
 74
     0
 42
0.0000000001
 43
0.0000000001
 40
0.0
 40
0.0
 40
0.0
 40
0.0
 40
0.2484673022
 40
1.0
 40
1.0
 40
1.0
 40
1.0
 10
48.31086564909987
 20
42.43067408169998
 30
0.0
 10
48.30817961619988
 20
42.45011273269994
 30
0.0
 10
48.29905462219983
 20
42.52857180529997
 30
0.0
 10
48.29662982009984
 20
42.60780065269995
 30
0.0
 10
48.29850295049988
 20
42.66712533869998
 30
0.0
1001
ACAD
1000
RTMaterial
1005
0
  0
SPLINE
  5
5FCB8
330
1F
100
AcDbEntity
  8
1
100
AcDbSpline
210
0.0
220
0.0
230
1.0
 70
     8
 71
     3
 72
     9
 73
     5
 74
     0
 42
0.0000000001
 43
0.0000000001
 40
0.0
 40
0.0
 40
0.0
 40
0.0
 40
0.2304774491
 40
1.0
 40
1.0
 40
1.0
 40
1.0
 10
48.19711073079986
 20
42.93659423039997
 30
0.0
 10
48.19497854209988
 20
42.94154927859994
 30
0.0
 10
48.18470989369984
 20
42.96261236359998
 30
0.0
 10
48.17082357139987
 20
42.98176803269996
 30
0.0
 10
48.15912382729988
 20
42.99546110889997
 30
0.0
1001
ACAD
1000
RTMaterial
1005
0
  0
SPLINE
  5
5FCB9
330
1F
100
AcDbEntity
  8
1
100
AcDbSpline
210
0.0
220
0.0
230
1.0
 70
     8
 71
     3
 72
     9
 73
     5
 74
     0
 42
0.0000000001
 43
0.0000000001
 40
0.0
 40
0.0
 40
0.0
 40
0.0
 40
0.2714774794
 40
1.0
 40
1.0
 40
1.0
 40
1.0
 10
47.95852006529986
 20
43.21583453869999
 30
0.0
 10
47.96475475959988
 20
43.21087447419995
 30
0.0
 10
47.98737015879988
 20
43.19218281529993
 30
0.0
 10
48.00856869039989
 20
43.17166692469998
 30
0.0
 10
48.02245709429991
 20
43.15541229799999
 30
0.0
1001
ACAD
1000
RTMaterial
1005
0
  0
SPLINE
  5
5FCBA
330
1F
100
AcDbEntity
  8
1
100
AcDbSpline
210
0.0
220
0.0
230
1.0
 70
     8
 71
     3
 72
     9
 73
     5
 74
     0
 42
0.0000000001
 43
0.0000000001
 40
0.0
 40
0.0
 40
0.0
 40
0.0
 40
0.248159661
 40
1.0
 40
1.0
 40
1.0
 40
1.0
 10
60.1671511735999
 20
35.09775208690002
 30
0.0
 10
60.13563663859986
 20
35.09686649159994
 30
0.0
 10
60.00854980659989
 20
35.09757190109997
 30
0.0
 10
59.88163570579985
 20
35.11526686970001
 30
0.0
 10
59.78869359489988
 20
35.13729177409994
 30
0.0
1001
ACAD
1000
RTMaterial
1005
0
  0
SPLINE
  5
5FCBB
330
1F
100
AcDbEntity
  8
1
100
AcDbSpline
210
0.0
220
0.0
230
1.0
 70
     8
 71
     3
 72
     9
 73
     5
 74
     0
 42
0.0000000001
 43
0.0000000001
 40
0.0
 40
0.0
 40
0.0
 40
0.0
 40
0.2485144324
 40
1.0
 40
1.0
 40
1.0
 40
1.0
 10
48.3728556769999
 20
42.17171211260001
 30
0.0
 10
48.36565956029989
 20
42.19258394169992
 30
0.0
 10
48.3386974940999
 20
42.27724420089993
 30
0.0
 10
48.32000185679987
 20
42.36454170169998
 30
0.0
 10
48.31086372089988
 20
42.43067382389995
 30
0.0
1001
ACAD
1000
RTMaterial
1005
0
  0
SPLINE
  5
5FCBC
330
1F
100
AcDbEntity
  8
1
100
AcDbSpline
210
0.0
220
0.0
230
1.0
 70
     8
 71
     3
 72
     9
 73
     5
 74
     0
 42
0.0000000001
 43
0.0000000001
 40
0.0
 40
0.0
 40
0.0
 40
0.0
 40
0.2594039192
 40
1.0
 40
1.0
 40
1.0
 40
1.0
 10
53.2372318685999
 20
48.43521557550002
 30
0.0
 10
53.26118534869988
 20
48.46080904839993
 30
0.0
 10
53.35664349539991
 20
48.55649933569998
 30
0.0
 10
53.46415774129986
 20
48.64022170189997
 30
0.0
 10
53.54884130669984
 20
48.69355626889995
 30
0.0
1001
ACAD
1000
RTMaterial
1005
0
  0
SPLINE
  5
5FCBD
330
1F
100
AcDbEntity
  8
1
100
AcDbSpline
210
0.0
220
0.0
230
1.0
 70
     8
 71
     3
 72
     9
 73
     5
 74
     0
 42
0.0000000001
 43
0.0000000001
 40
0.0
 40
0.0
 40
0.0
 40
0.0
 40
0.2436363991
 40
1.0
 40
1.0
 40
1.0
 40
1.0
 10
53.57656657529986
 20
48.71098803059993
 30
0.0
 10
53.66517849749988
 20
48.76660106929995
 30
0.0
 10
54.03090718399983
 20
48.9916239547
 30
0.0
 10
54.40503022939987
 20
49.20300397019992
 30
0.0
 10
54.69209441639987
 20
49.35492005989994
 30
0.0
1001
ACAD
1000
RTMaterial
1005
0
  0
LINE
  5
5FCBE
330
1F
100
AcDbEntity
  8
1
100
AcDbLine
 10
53.54884157179987
 20
48.69355583869998
 30
0.0
 11
53.57656714839987
 21
48.71098709699992
 31
0.0
1001
ACAD
1000
RTMaterial
1005
0
  0
SPLINE
  5
5FCBF
330
1F
100
AcDbEntity
  8
1
100
AcDbSpline
210
0.0
220
0.0
230
1.0
 70
     8
 71
     3
 72
     9
 73
     5
 74
     0
 42
0.0000000001
 43
0.0000000001
 40
0.0
 40
0.0
 40
0.0
 40
0.0
 40
0.2435088423
 40
1.0
 40
1.0
 40
1.0
 40
1.0
 10
52.94436609569988
 20
36.82158435749995
 30
0.0
 10
52.85026151059986
 20
36.87204308599997
 30
0.0
 10
52.46562405419985
 20
37.08262567039998
 30
0.0
 10
52.08868685929985
 20
37.30727178819996
 30
0.0
 10
51.80840824269989
 20
37.48470838959998
 30
0.0
1001
ACAD
1000
RTMaterial
1005
0
  0
LINE
  5
5FCC0
330
1F
100
AcDbEntity
  8
1
100
AcDbLine
 10
52.97380762729989
 20
36.80582963359996
 30
0.0
 11
52.9443666142999
 21
36.82158532269995
 31
0.0
1001
ACAD
1000
RTMaterial
1005
0
  0
SPLINE
  5
5FCC1
330
1F
100
AcDbEntity
  8
1
100
AcDbSpline
210
0.0
220
0.0
230
1.0
 70
     8
 71
     3
 72
     9
 73
     5
 74
     0
 42
0.0000000001
 43
0.0000000001
 40
0.0
 40
0.0
 40
0.0
 40
0.0
 40
0.2574460055999999
 40
1.0
 40
1.0
 40
1.0
 40
1.0
 10
53.35518922359989
 20
36.66186736559996
 30
0.0
 10
53.32109568349989
 20
36.66994666349996
 30
0.0
 10
53.1897242451999
 20
36.7056436968
 30
0.0
 10
53.06294843289987
 20
36.75821672799998
 30
0.0
 10
52.97380740499988
 20
36.80582921779996
 30
0.0
1001
ACAD
1000
RTMaterial
1005
0
  0
SPLINE
  5
5FCC2
330
1F
100
AcDbEntity
  8
1
100
AcDbSpline
210
0.0
220
0.0
230
1.0
 70
     8
 71
     3
 72
     8
 73
     4
 74
     0
 42
0.0000000001
 43
0.0000000001
 40
0.0
 40
0.0
 40
0.0
 40
0.0
 40
1.0
 40
1.0
 40
1.0
 40
1.0
 10
51.80840893849984
 20
37.48470948879992
 30
0.0
 10
51.80123127689984
 20
37.48925346669995
 30
0.0
 10
51.79412964369987
 20
37.49391983709995
 30
0.0
 10
51.78711045229988
 20
37.49870497169997
 30
0.0
1001
ACAD
1000
RTMaterial
1005
0
  0
SPLINE
  5
5FCC3
330
1F
100
AcDbEntity
  8
1
100
AcDbSpline
210
0.0
220
0.0
230
1.0
 70
     8
 71
     3
 72
     9
 73
     5
 74
     0
 42
0.0000000001
 43
0.0000000001
 40
0.0
 40
0.0
 40
0.0
 40
0.0
 40
0.4856906196
 40
1.0
 40
1.0
 40
1.0
 40
1.0
 10
60.95702767879988
 20
32.9616369405
 30
0.0
 10
61.10578863099988
 20
32.42403402119999
 30
0.0
 10
61.47579842349983
 20
31.33434364580001
 30
0.0
 10
61.94196513449987
 20
30.28335002429998
 30
0.0
 10
62.19999999999988
 20
29.75201871479999
 30
0.0
1001
ACAD
1000
RTMaterial
1005
0
  0
SPLINE
  5
5FCC4
330
1F
100
AcDbEntity
  8
1
100
AcDbSpline
210
0.0
220
0.0
230
1.0
 70
     8
 71
     3
 72
     9
 73
     5
 74
     0
 42
0.0000000001
 43
0.0000000001
 40
0.0
 40
0.0
 40
0.0
 40
0.0
 40
0.2377428571
 40
1.0
 40
1.0
 40
1.0
 40
1.0
 10
60.33237928019985
 20
33.25742285529998
 30
0.0
 10
60.38144460129984
 20
33.23307848019994
 30
0.0
 10
60.58835640279989
 20
33.13175306089994
 30
0.0
 10
60.79716411259989
 20
33.03432696169995
 30
0.0
 10
60.95702767879988
 20
32.9616369405
 30
0.0
1001
ACAD
1000
RTMaterial
1005
0
  0
SPLINE
  5
5FCC5
330
1F
100
AcDbEntity
  8
1
100
AcDbSpline
210
0.0
220
0.0
230
1.0
 70
     8
 71
     3
 72
    19
 73
    15
 74
     0
 42
0.0000000001
 43
0.0000000001
 40
0.0
 40
0.0
 40
0.0
 40
0.0
 40
0.2237701549
 40
0.4186362654
 40
0.5845289779999999
 40
0.7216466544
 40
0.7795303809
 40
0.8303738118999998
 40
0.8742628610999998
 40
0.9113258423999999
 40
0.9417753781999998
 40
0.9660061562999999
 40
0.9848303043000001
 40
1.0
 40
1.0
 40
1.0
 40
1.0
 10
51.89600473729985
 20
48.65469378469999
 30
0.0
 10
51.83518245449988
 20
48.66257311519996
 30
0.0
 10
51.72156821999988
 20
48.6787181711
 30
0.0
 10
51.56365377859987
 20
48.70588274279993
 30
0.0
 10
51.43002061139987
 20
48.73363555980001
 30
0.0
 10
51.33407444789987
 20
48.75789257969995
 30
0.0
 10
51.26960322169987
 20
48.77752263889994
 30
0.0
 10
51.23007202059984
 20
48.79123314419996
 30
0.0
 10
51.19654239859989
 20
48.80472205319995
 30
0.0
 10
51.16899295069988
 20
48.81794907019991
 30
0.0
 10
51.14736298579988
 20
48.83087394219995
 30
0.0
 10
51.13159098439985
 20
48.84354861739996
 30
0.0
 10
51.12144983099989
 20
48.85613376239996
 30
0.0
 10
51.11871467769987
 20
48.86545908659991
 30
0.0
 10
51.1187097415999
 20
48.8696167672
 30
0.0
1001
ACAD
1000
RTMaterial
1005
0
  0
SPLINE
  5
5FCC6
330
1F
100
AcDbEntity
  8
1
100
AcDbSpline
210
0.0
220
0.0
230
1.0
 70
     8
 71
     3
 72
     9
 73
     5
 74
     0
 42
0.0000000001
 43
0.0000000001
 40
0.0
 40
0.0
 40
0.0
 40
0.0
 40
0.2324870311
 40
1.0
 40
1.0
 40
1.0
 40
1.0
 10
52.27161912209988
 20
48.00673728159996
 30
0.0
 10
52.2729395844999
 20
48.00966210190001
 30
0.0
 10
52.27927874169984
 20
48.02194657239994
 30
0.0
 10
52.28794062149984
 20
48.03292595859995
 30
0.0
 10
52.29520687529987
 20
48.04063558279995
 30
0.0
1001
ACAD
1000
RTMaterial
1005
0
  0
SPLINE
  5
5FCC7
330
1F
100
AcDbEntity
  8
1
100
AcDbSpline
210
0.0
220
0.0
230
1.0
 70
     8
 71
     3
 72
    13
 73
     9
 74
     0
 42
0.0000000001
 43
0.0000000001
 40
0.0
 40
0.0
 40
0.0
 40
0.0
 40
0.3018257444
 40
0.4401249859
 40
0.5695864614000001
 40
0.6900824702
 40
0.8017264351000001
 40
1.0
 40
1.0
 40
1.0
 40
1.0
 10
32.34945961129984
 20
40.01762649309995
 30
0.0
 10
32.20806749579987
 20
40.04726682019992
 30
0.0
 10
32.00385709679989
 20
40.10215495879992
 30
0.0
 10
31.74952923109987
 20
40.20092722649997
 30
0.0
 10
31.58188866699987
 20
40.28158021679996
 30
0.0
 10
31.4328750242999
 20
40.37026162249998
 30
0.0
 10
31.26725813109988
 20
40.49290621809996
 30
0.0
 10
31.16284352789989
 20
40.60168012289994
 30
0.0
 10
31.10952899279988
 20
40.68019023669996
 30
0.0
1001
ACAD
1000
RTMaterial
1005
0
  0
SPLINE
  5
5FCC8
330
1F
100
AcDbEntity
  8
1
100
AcDbSpline
210
0.0
220
0.0
230
1.0
 70
     8
 71
     3
 72
     9
 73
     5
 74
     0
 42
0.0000000001
 43
0.0000000001
 40
0.0
 40
0.0
 40
0.0
 40
0.0
 40
0.4936397566000001
 40
1.0
 40
1.0
 40
1.0
 40
1.0
 10
55.42835560839989
 20
35.12084013589993
 30
0.0
 10
55.37595287049987
 20
35.06227018869998
 30
0.0
 10
55.26053902439986
 20
34.95158791309996
 30
0.0
 10
55.13015144289989
 20
34.85927269419994
 30
0.0
 10
55.06163571699989
 20
34.8167932504
 30
0.0
1001
ACAD
1000
RTMaterial
1005
0
  0
SPLINE
  5
5FCC9
330
1F
100
AcDbEntity
  8
1
100
AcDbSpline
210
0.0
220
0.0
230
1.0
 70
     8
 71
     3
 72
     9
 73
     5
 74
     0
 42
0.0000000001
 43
0.0000000001
 40
0.0
 40
0.0
 40
0.0
 40
0.0
 40
0.2664542228
 40
1.0
 40
1.0
 40
1.0
 40
1.0
 10
59.59307526959986
 20
34.79495416269993
 30
0.0
 10
59.59037772619985
 20
34.78533679419996
 30
0.0
 10
59.58046301889988
 20
34.74918531199995
 30
0.0
 10
59.57128190109989
 20
34.71282709059995
 30
0.0
 10
59.56518528379985
 20
34.68601315129996
 30
0.0
1001
ACAD
1000
RTMaterial
1005
0
  0
SPLINE
  5
5FCCA
330
1F
100
AcDbEntity
  8
1
100
AcDbSpline
210
0.0
220
0.0
230
1.0
 70
     8
 71
     3
 72
     8
 73
     4
 74
     0
 42
0.0000000001
 43
0.0000000001
 40
0.0
 40
0.0
 40
0.0
 40
0.0
 40
1.0
 40
1.0
 40
1.0
 40
1.0
 10
59.63708794989987
 20
34.94888324659991
 30
0.0
 10
59.6221587204999
 20
34.89764812209995
 30
0.0
 10
59.6074875006999
 20
34.84633711189997
 30
0.0
 10
59.59307526959986
 20
34.79495416269993
 30
0.0
1001
ACAD
1000
RTMaterial
1005
0
  0
SPLINE
  5
5FCCB
330
1F
100
AcDbEntity
  8
1
100
AcDbSpline
210
0.0
220
0.0
230
1.0
 70
     8
 71
     3
 72
     9
 73
     5
 74
     0
 42
0.0000000001
 43
0.0000000001
 40
0.0
 40
0.0
 40
0.0
 40
0.0
 40
0.2331756786
 40
1.0
 40
1.0
 40
1.0
 40
1.0
 10
60.05935796219984
 20
33.40185129849994
 30
0.0
 10
60.08023684109986
 20
33.38999842760001
 30
0.0
 10
60.17018281029987
 20
33.33987939929995
 30
0.0
 10
60.26165125499989
 20
33.29251545300002
 30
0.0
 10
60.33237928019985
 20
33.25742285529998
 30
0.0
1001
ACAD
1000
RTMaterial
1005
0
  0
SPLINE
  5
5FCCC
330
1F
100
AcDbEntity
  8
1
100
AcDbSpline
210
0.0
220
0.0
230
1.0
 70
     8
 71
     3
 72
    14
 73
    10
 74
     0
 42
0.0000000001
 43
0.0000000001
 40
0.0
 40
0.0
 40
0.0
 40
0.0
 40
0.337756695
 40
0.4857374904
 40
0.6190481479
 40
0.7372802719
 40
0.8401890606999998
 40
0.9276742762999999
 40
1.0
 40
1.0
 40
1.0
 40
1.0
 10
59.85810113299987
 20
34.61709089169995
 30
0.0
 10
59.83169794039986
 20
34.48849551299998
 30
0.0
 10
59.79775702389986
 20
34.30265717269993
 30
0.0
 10
59.76498183139989
 20
34.06426072080001
 30
0.0
 10
59.74888230719983
 20
33.90977732239998
 30
0.0
 10
59.73999567609991
 20
33.77225727719997
 30
0.0
 10
59.73819417949989
 20
33.65224265919994
 30
0.0
 10
59.74344177649988
 20
33.55019028329997
 30
0.0
 10
59.75245709309985
 20
33.48854675599995
 30
0.0
 10
59.75872311019987
 20
33.46114272269995
 30
0.0
1001
ACAD
1000
RTMaterial
1005
0
  0
LINE
  5
5FCCD
330
1F
100
AcDbEntity
  8
1
100
AcDbLine
 10
51.23623453829987
 20
37.01585856659995
 30
0.0
 11
51.23491284779987
 21
37.01893887159992
 31
0.0
1001
ACAD
1000
RTMaterial
1005
0
  0
SPLINE
  5
5FCCE
330
1F
100
AcDbEntity
  8
1
100
AcDbSpline
210
0.0
220
0.0
230
1.0
 70
     8
 71
     3
 72
     9
 73
     5
 74
     0
 42
0.0000000001
 43
0.0000000001
 40
0.0
 40
0.0
 40
0.0
 40
0.0
 40
0.4693396605000001
 40
1.0
 40
1.0
 40
1.0
 40
1.0
 10
53.0825400967999
 20
36.18665904509999
 30
0.0
 10
53.12159407019987
 20
36.19691043709997
 30
0.0
 10
53.20355145289989
 20
36.22369106789995
 30
0.0
 10
53.28201543749987
 20
36.25954957889997
 30
0.0
 10
53.32228708919984
 20
36.28105158139994
 30
0.0
1001
ACAD
1000
RTMaterial
1005
0
  0
SPLINE
  5
5FCCF
330
1F
100
AcDbEntity
  8
1
100
AcDbSpline
210
0.0
220
0.0
230
1.0
 70
     8
 71
     3
 72
    11
 73
     7
 74
     0
 42
0.0000000001
 43
0.0000000001
 40
0.0
 40
0.0
 40
0.0
 40
0.0
 40
0.2625066724
 40
0.5093975352000001
 40
0.7511047917
 40
1.0
 40
1.0
 40
1.0
 40
1.0
 10
51.39189174199987
 20
37.01413379959996
 30
0.0
 10
51.37162820959986
 20
37.04172863129992
 30
0.0
 10
51.33543800069986
 20
37.09777324959998
 30
0.0
 10
51.29713937549985
 20
37.1886115758
 30
0.0
 10
51.27934703809984
 20
37.28393208159991
 30
0.0
 10
51.28215669719986
 20
37.34846744129993
 30
0.0
 10
51.28687096969986
 20
37.38058383489994
 30
0.0
1001
ACAD
1000
RTMaterial
1005
0
  0
SPLINE
  5
5FCD0
330
1F
100
AcDbEntity
  8
1
100
AcDbSpline
210
0.0
220
0.0
230
1.0
 70
     8
 71
     3
 72
     8
 73
     4
 74
     0
 42
0.0000000001
 43
0.0000000001
 40
0.0
 40
0.0
 40
0.0
 40
0.0
 40
1.0
 40
1.0
 40
1.0
 40
1.0
 10
51.28687096969986
 20
37.38058383489994
 30
0.0
 10
51.2878718053999
 20
37.38740211620001
 30
0.0
 10
51.2890190903999
 20
37.39420037169992
 30
0.0
 10
51.29030535639987
 20
37.40097061189999
 30
0.0
1001
ACAD
1000
RTMaterial
1005
0
  0
SPLINE
  5
5FCD1
330
1F
100
AcDbEntity
  8
1
100
AcDbSpline
210
0.0
220
0.0
230
1.0
 70
     8
 71
     3
 72
     9
 73
     5
 74
     0
 42
0.0000000001
 43
0.0000000001
 40
0.0
 40
0.0
 40
0.0
 40
0.0
 40
0.2398297635
 40
1.0
 40
1.0
 40
1.0
 40
1.0
 10
51.29030535639987
 20
37.40097061189999
 30
0.0
 10
51.29220654939985
 20
37.41097750959994
 30
0.0
 10
51.30140019479989
 20
37.45245955010001
 30
0.0
 10
51.31549307779988
 20
37.492791883
 30
0.0
 10
51.32824619909985
 20
37.52245178199996
 30
0.0
1001
ACAD
1000
RTMaterial
1005
0
  0
SPLINE
  5
5FCD2
330
1F
100
AcDbEntity
  8
1
100
AcDbSpline
210
0.0
220
0.0
230
1.0
 70
     8
 71
     3
 72
    10
 73
     6
 74
     0
 42
0.0000000001
 43
0.0000000001
 40
0.0
 40
0.0
 40
0.0
 40
0.0
 40
0.5396916018
 40
0.7865771085
 40
1.0
 40
1.0
 40
1.0
 40
1.0
 10
51.32866420579984
 20
36.85025207559994
 30
0.0
 10
51.30092858659986
 20
36.94474721309996
 30
0.0
 10
51.27510230299987
 20
37.08752944399999
 30
0.0
 10
51.27281669109987
 20
37.27020856719998
 30
0.0
 10
51.28058612899986
 20
37.35405907219996
 30
0.0
 10
51.28658676749989
 20
37.39253883039999
 30
0.0
1001
ACAD
1000
RTMaterial
1005
0
  0
SPLINE
  5
5FCD3
330
1F
100
AcDbEntity
  8
1
100
AcDbSpline
210
0.0
220
0.0
230
1.0
 70
     8
 71
     3
 72
    19
 73
    15
 74
     0
 42
0.0000000001
 43
0.0000000001
 40
0.0
 40
0.0
 40
0.0
 40
0.0
 40
0.1248460536
 40
0.2496877931
 40
0.3745213794
 40
0.4993460427000001
 40
0.5619275020000001
 40
0.6245082991
 40
0.6870895277
 40
0.7496704939
 40
0.8122521284000001
 40
0.8748341744999999
 40
0.9374164384
 40
1.0
 40
1.0
 40
1.0
 40
1.0
 10
47.59936023019986
 20
42.04467507999999
 30
0.0
 10
47.52001742729987
 20
42.13753346779998
 30
0.0
 10
47.38736458199986
 20
42.34737976719998
 30
0.0
 10
47.2864067742999
 20
42.70471132719996
 30
0.0
 10
47.29159445209984
 20
43.07622144529995
 30
0.0
 10
47.38559429249988
 20
43.37194232309997
 30
0.0
 10
47.50950666779988
 20
43.58365808629992
 30
0.0
 10
47.62509752499989
 20
43.72730278409995
 30
0.0
 10
47.76068097619986
 20
43.8522058387
 30
0.0
 10
47.91331803399986
 20
43.95558869279994
 30
0.0
 10
48.07955772219987
 20
44.03527040469998
 30
0.0
 10
48.25578183579984
 20
44.08941985609999
 30
0.0
 10
48.43800318559988
 20
44.11710935219997
 30
0.0
 10
48.56097551339985
 20
44.117485294
 30
0.0
 10
48.62205336599988
 20
44.11321995010001
 30
0.0
1001
ACAD
1000
RTMaterial
1005
0
  0
SPLINE
  5
5FCD4
330
1F
100
AcDbEntity
  8
1
100
AcDbSpline
210
0.0
220
0.0
230
1.0
 70
     8
 71
     3
 72
     9
 73
     5
 74
     0
 42
0.0000000001
 43
0.0000000001
 40
0.0
 40
0.0
 40
0.0
 40
0.0
 40
0.4887359072
 40
1.0
 40
1.0
 40
1.0
 40
1.0
 10
32.34945961129984
 20
40.01762649309995
 30
0.0
 10
32.59135082079985
 20
39.63304520249995
 30
0.0
 10
33.15270373819988
 20
38.88618334029997
 30
0.0
 10
33.83016819769989
 20
38.24246253319996
 30
0.0
 10
34.2004286109999
 20
37.94448742639997
 30
0.0
1001
ACAD
1000
RTMaterial
1005
0
  0
SPLINE
  5
5FCD5
330
1F
100
AcDbEntity
  8
1
100
AcDbSpline
210
0.0
220
0.0
230
1.0
 70
     8
 71
     3
 72
    11
 73
     7
 74
     0
 42
0.0000000001
 43
0.0000000001
 40
0.0
 40
0.0
 40
0.0
 40
0.0
 40
0.2456799513
 40
0.4941337457000001
 40
0.7456494995
 40
1.0
 40
1.0
 40
1.0
 40
1.0
 10
34.2004286109999
 20
37.94448742639997
 30
0.0
 10
34.70236535349989
 20
37.5405429347
 30
0.0
 10
35.77490645649988
 20
36.80312256419995
 30
0.0
 10
37.54022153459988
 20
35.94565415859995
 30
0.0
 10
39.43572177999988
 20
35.35499482759997
 30
0.0
 10
40.75302172769989
 20
35.15393818190001
 30
0.0
 10
41.41810203379987
 20
35.10297595999998
 30
0.0
1001
ACAD
1000
RTMaterial
1005
0
  0
SPLINE
  5
5FCD6
330
1F
100
AcDbEntity
  8
1
100
AcDbSpline
210
0.0
220
0.0
230
1.0
 70
     8
 71
     3
 72
    26
 73
    22
 74
     0
 42
0.0000000001
 43
0.0000000001
 40
0.0
 40
0.0
 40
0.0
 40
0.0
 40
0.1659568072
 40
0.3312872831
 40
0.4122660852
 40
0.4910304536
 40
0.5664412141
 40
0.6369952381
 40
0.7008060502
 40
0.7295587797
 40
0.755913761
 40
0.7797640743000001
 40
0.8011724588999999
 40
0.8204414672
 40
0.8381484466999999
 40
0.8550904407999999
 40
0.8721155265
 40
0.8899260514999999
 40
0.908978783
 40
0.9515014156999999
 40
1.0
 40
1.0
 40
1.0
 40
1.0
 10
52.65681862579987
 20
34.44316137639999
 30
0.0
 10
52.51993396379987
 20
34.4480221279
 30
0.0
 10
52.24680664699992
 20
34.46149469739993
 30
0.0
 10
51.90747730439989
 20
34.48745631849994
 30
0.0
 10
51.64061818879986
 20
34.51537974269996
 30
0.0
 10
51.44811500899987
 20
34.5402657779
 30
0.0
 10
51.26499815339986
 20
34.57010225199991
 30
0.0
 10
51.09556502329986
 20
34.60605241309992
 30
0.0
 10
50.96596280429986
 20
34.64334666939999
 30
0.0
 10
50.8744125103999
 20
34.67892609739994
 30
0.0
 10
50.81560237449986
 20
34.70719302079999
 30
0.0
 10
50.76506458739988
 20
34.73809101999996
 30
0.0
 10
50.72352594629984
 20
34.77173762589996
 30
0.0
 10
50.6915823560999
 20
34.80820461389999
 30
0.0
 10
50.66973539829985
 20
34.84741314939999
 30
0.0
 10
50.65824219369989
 20
34.88891303439999
 30
0.0
 10
50.65676472649982
 20
34.93197614970001
 30
0.0
 10
50.66439884029989
 20
34.97605208059997
 30
0.0
 10
50.68620756339988
 20
35.0380819147
 30
0.0
 10
50.73289585359987
 20
35.11685729779998
 30
0.0
 10
50.78050553139985
 20
35.17513913649998
 30
0.0
 10
50.80719514419985
 20
35.20497023569999
 30
0.0
1001
ACAD
1000
RTMaterial
1005
0
  0
SPLINE
  5
5FCD7
330
1F
100
AcDbEntity
  8
1
100
AcDbSpline
210
0.0
220
0.0
230
1.0
 70
     8
 71
     3
 72
    15
 73
    11
 74
     0
 42
0.0000000001
 43
0.0000000001
 40
0.0
 40
0.0
 40
0.0
 40
0.0
 40
0.1031737148
 40
0.2113216956
 40
0.325951683
 40
0.4478360904
 40
0.5770202442
 40
0.7129098166
 40
0.8544029864
 40
1.0
 40
1.0
 40
1.0
 40
1.0
 10
55.06163571699989
 20
34.8167932504
 30
0.0
 10
54.98954517619989
 20
34.77209743719999
 30
0.0
 10
54.83514488029988
 20
34.69108134869998
 30
0.0
 10
54.58336852209987
 20
34.5976426405
 30
0.0
 10
54.30821277489986
 20
34.52809139129994
 30
0.0
 10
54.01116686109986
 20
34.47985698539998
 30
0.0
 10
53.6942684103999
 20
34.44995138669992
 30
0.0
 10
53.36023181619987
 20
34.43537593889994
 30
0.0
 10
53.01243402759985
 20
34.43338659249997
 30
0.0
 10
52.77644252949989
 20
34.43891355159991
 30
0.0
 10
52.65681862579987
 20
34.44316137639999
 30
0.0
1001
ACAD
1000
RTMaterial
1005
0
  0
LINE
  5
5FCD8
330
1F
100
AcDbEntity
  8
1
100
AcDbLine
 10
41.70360981289991
 20
35.08356082939997
 30
0.0
 11
55.03050394279989
 21
34.29164356899998
 31
0.0
1001
ACAD
1000
RTMaterial
1005
0
  0
SPLINE
  5
5FCD9
330
1F
100
AcDbEntity
  8
1
100
AcDbSpline
210
0.0
220
0.0
230
1.0
 70
     8
 71
     3
 72
     9
 73
     5
 74
     0
 42
0.0000000001
 43
0.0000000001
 40
0.0
 40
0.0
 40
0.0
 40
0.0
 40
0.2495087404
 40
1.0
 40
1.0
 40
1.0
 40
1.0
 10
41.41810203379987
 20
35.10297595999998
 30
0.0
 10
41.44183303309984
 20
35.10115755639998
 30
0.0
 10
41.53695951149984
 20
35.09407441739995
 30
0.0
 10
41.63214673089988
 20
35.08780735800002
 30
0.0
 10
41.70360981289991
 20
35.08356082939997
 30
0.0
1001
ACAD
1000
RTMaterial
1005
0
  0
SPLINE
  5
5FCDA
330
1F
100
AcDbEntity
  8
1
100
AcDbSpline
210
0.0
220
0.0
230
1.0
 70
     8
 71
     3
 72
     9
 73
     5
 74
     0
 42
0.0000000001
 43
0.0000000001
 40
0.0
 40
0.0
 40
0.0
 40
0.0
 40
0.4998844905
 40
1.0
 40
1.0
 40
1.0
 40
1.0
 10
51.01373843569985
 20
37.82103320809995
 30
0.0
 10
50.58123371729988
 20
38.37760406929999
 30
0.0
 10
49.72873598239988
 20
39.5009084504
 30
0.0
 10
48.89918763529988
 20
40.64128857039998
 30
0.0
 10
48.49156092649986
 20
41.21672861370001
 30
0.0
1001
ACAD
1000
RTMaterial
1005
0
  0
SPLINE
  5
5FCDB
330
1F
100
AcDbEntity
  8
1
100
AcDbSpline
210
0.0
220
0.0
230
1.0
 70
     8
 71
     3
 72
    11
 73
     7
 74
     0
 42
0.0000000001
 43
0.0000000001
 40
0.0
 40
0.0
 40
0.0
 40
0.0
 40
0.2615103514
 40
0.5152443782000001
 40
0.7600942044
 40
1.0
 40
1.0
 40
1.0
 40
1.0
 10
52.37643734919988
 20
36.31880586319994
 30
0.0
 10
52.24748523529985
 20
36.32821226699991
 30
0.0
 10
51.99450008629987
 20
36.37808759619998
 30
0.0
 10
51.65189895559985
 20
36.5417938837
 30
0.0
 10
51.36962702989984
 20
36.77939966599996
 30
0.0
 10
51.22971773799986
 20
36.97778416579996
 30
0.0
 10
51.17429147529986
 20
37.08265074339994
 30
0.0
1001
ACAD
1000
RTMaterial
1005
0
  0
LINE
  5
5FCDC
330
1F
100
AcDbEntity
  8
1
100
AcDbLine
 10
55.91343091849984
 20
35.54566280469999
 30
0.0
 11
55.72664385249987
 21
35.58952150879992
 31
0.0
1001
ACAD
1000
RTMaterial
1005
0
  0
SPLINE
  5
5FCDD
330
1F
100
AcDbEntity
  8
1
100
AcDbSpline
210
0.0
220
0.0
230
1.0
 70
     8
 71
     3
 72
     9
 73
     5
 74
     0
 42
0.0000000001
 43
0.0000000001
 40
0.0
 40
0.0
 40
0.0
 40
0.0
 40
0.2506462407
 40
1.0
 40
1.0
 40
1.0
 40
1.0
 10
55.14953777229988
 20
34.28436550699996
 30
0.0
 10
55.22130722219987
 20
34.2798545197
 30
0.0
 10
55.50743185949989
 20
34.25859518589994
 30
0.0
 10
55.79258440259986
 20
34.22439912339991
 30
0.0
 10
56.00508991319987
 20
34.19179858849998
 30
0.0
1001
ACAD
1000
RTMaterial
1005
0
  0
LINE
  5
5FCDE
330
1F
100
AcDbEntity
  8
1
100
AcDbLine
 10
55.03050394279989
 20
34.29164356899998
 30
0.0
 11
55.14953777229988
 21
34.28436550699996
 31
0.0
1001
ACAD
1000
RTMaterial
1005
0
  0
LINE
  5
5FCDF
330
1F
100
AcDbEntity
  8
1
100
AcDbLine
 10
59.85810113299987
 20
34.61709089169995
 30
0.0
 11
55.91343091849984
 21
35.54566280469999
 31
0.0
1001
ACAD
1000
RTMaterial
1005
0
  0
LINE
  5
5FCE0
330
1F
100
AcDbEntity
  8
1
100
AcDbLine
 10
56.53305254029987
 20
34.09921400819996
 30
0.0
 11
60.05935796219984
 21
33.40185129849994
 31
0.0
1001
ACAD
1000
RTMaterial
1005
0
  0
SPLINE
  5
5FCE1
330
1F
100
AcDbEntity
  8
1
100
AcDbSpline
210
0.0
220
0.0
230
1.0
 70
     8
 71
     3
 72
     9
 73
     5
 74
     0
 42
0.0000000001
 43
0.0000000001
 40
0.0
 40
0.0
 40
0.0
 40
0.0
 40
0.2492051354
 40
1.0
 40
1.0
 40
1.0
 40
1.0
 10
56.00508991319987
 20
34.19179858849998
 30
0.0
 10
56.04910315929988
 20
34.18504650309996
 30
0.0
 10
56.22557480479986
 20
34.15702976819995
 30
0.0
 10
56.40144874469985
 20
34.12524001199995
 30
0.0
 10
56.53305254029987
 20
34.09921400819996
 30
0.0
1001
ACAD
1000
RTMaterial
1005
0
  0
SPLINE
  5
5FCE2
330
1F
100
AcDbEntity
  8
1
100
AcDbSpline
210
0.0
220
0.0
230
1.0
 70
     8
 71
     3
 72
     9
 73
     5
 74
     0
 42
0.0000000001
 43
0.0000000001
 40
0.0
 40
0.0
 40
0.0
 40
0.0
 40
0.2671771687
 40
1.0
 40
1.0
 40
1.0
 40
1.0
 10
47.73724931349988
 20
42.34945517289998
 30
0.0
 10
47.71602301049989
 20
42.35453817479998
 30
0.0
 10
47.63706132699991
 20
42.37553848649997
 30
0.0
 10
47.56001930029987
 20
42.40372209749994
 30
0.0
 10
47.5053641131999
 20
42.42815121709997
 30
0.0
1001
ACAD
1000
RTMaterial
1005
0
  0
SPLINE
  5
5FCE3
330
1F
100
AcDbEntity
  8
1
100
AcDbSpline
210
0.0
220
0.0
230
1.0
 70
     8
 71
     3
 72
    10
 73
     6
 74
     0
 42
0.0000000001
 43
0.0000000001
 40
0.0
 40
0.0
 40
0.0
 40
0.0
 40
0.4447558510000001
 40
0.6984450546
 40
1.0
 40
1.0
 40
1.0
 40
1.0
 10
48.15827679609987
 20
41.6652951044
 30
0.0
 10
48.05365801179988
 20
41.73936846919997
 30
0.0
 10
47.89147844209987
 20
41.85878600639995
 30
0.0
 10
47.66671087739985
 20
42.03924783599996
 30
0.0
 10
47.54627247749988
 20
42.14481225399999
 30
0.0
 10
47.4830812919999
 20
42.20448557379995
 30
0.0
1001
ACAD
1000
RTMaterial
1005
0
  0
SPLINE
  5
5FCE4
330
1F
100
AcDbEntity
  8
1
100
AcDbSpline
210
0.0
220
0.0
230
1.0
 70
     8
 71
     3
 72
     9
 73
     5
 74
     0
 42
0.0000000001
 43
0.0000000001
 40
0.0
 40
0.0
 40
0.0
 40
0.0
 40
0.2547779435
 40
1.0
 40
1.0
 40
1.0
 40
1.0
 10
47.81040724699988
 20
42.33236572769993
 30
0.0
 10
47.80418681979989
 20
42.33378501089993
 30
0.0
 10
47.77977856439986
 20
42.33938556609996
 30
0.0
 10
47.75539844809986
 20
42.34510905169997
 30
0.0
 10
47.73724931349988
 20
42.34945517289998
 30
0.0
1001
ACAD
1000
RTMaterial
1005
0
  0
SPLINE
  5
5FCE5
330
1F
100
AcDbEntity
  8
1
100
AcDbSpline
210
0.0
220
0.0
230
1.0
 70
     8
 71
     3
 72
     8
 73
     4
 74
     0
 42
0.0000000001
 43
0.0000000001
 40
0.0
 40
0.0
 40
0.0
 40
0.0
 40
1.0
 40
1.0
 40
1.0
 40
1.0
 10
47.42598014049986
 20
42.47257210659995
 30
0.0
 10
47.41922007159985
 20
42.47719172349997
 30
0.0
 10
47.41258375129985
 20
42.48199839949996
 30
0.0
 10
47.40609326419985
 20
42.48698968870002
 30
0.0
1001
ACAD
1000
RTMaterial
1005
0
  0
SPLINE
  5
5FCE6
330
1F
100
AcDbEntity
  8
1
100
AcDbSpline
210
0.0
220
0.0
230
1.0
 70
     8
 71
     3
 72
     9
 73
     5
 74
     0
 42
0.0000000001
 43
0.0000000001
 40
0.0
 40
0.0
 40
0.0
 40
0.0
 40
0.2555316384
 40
1.0
 40
1.0
 40
1.0
 40
1.0
 10
47.40609326419985
 20
42.48698968870002
 30
0.0
 10
47.39901952199988
 20
42.49242951050002
 30
0.0
 10
47.37200845809986
 20
42.51457068079997
 30
0.0
 10
47.34786384909989
 20
42.54025593019991
 30
0.0
 10
47.33218760259984
 20
42.56099591359998
 30
0.0
1001
ACAD
1000
RTMaterial
1005
0
  0
SPLINE
  5
5FCE7
330
1F
100
AcDbEntity
  8
1
100
AcDbSpline
210
0.0
220
0.0
230
1.0
 70
     8
 71
     3
 72
     8
 73
     4
 74
     0
 42
0.0000000001
 43
0.0000000001
 40
0.0
 40
0.0
 40
0.0
 40
0.0
 40
1.0
 40
1.0
 40
1.0
 40
1.0
 10
47.50536006879985
 20
42.42813937289997
 30
0.0
 10
47.47767735469984
 20
42.44051518669993
 30
0.0
 10
47.45101717309984
 20
42.45546537039996
 30
0.0
 10
47.42598014049986
 20
42.47257210659995
 30
0.0
1001
ACAD
1000
RTMaterial
1005
0
  0
SPLINE
  5
5FCE8
330
1F
100
AcDbEntity
  8
1
100
AcDbSpline
210
0.0
220
0.0
230
1.0
 70
     8
 71
     3
 72
     9
 73
     5
 74
     0
 42
0.0000000001
 43
0.0000000001
 40
0.0
 40
0.0
 40
0.0
 40
0.0
 40
0.2344272731
 40
1.0
 40
1.0
 40
1.0
 40
1.0
 10
52.37643734919988
 20
36.31880586319994
 30
0.0
 10
52.39495643409987
 20
36.31595375099994
 30
0.0
 10
52.4741969490999
 20
36.30543230459995
 30
0.0
 10
52.55438037009986
 20
36.30193526329998
 30
0.0
 10
52.61555572509985
 20
36.30332291399998
 30
0.0
1001
ACAD
1000
RTMaterial
1005
0
  0
SPLINE
  5
5FCE9
330
1F
100
AcDbEntity
  8
1
100
AcDbSpline
210
0.0
220
0.0
230
1.0
 70
     8
 71
     3
 72
    10
 73
     6
 74
     0
 42
0.0000000001
 43
0.0000000001
 40
0.0
 40
0.0
 40
0.0
 40
0.0
 40
0.2932398186
 40
0.5487682462
 40
1.0
 40
1.0
 40
1.0
 40
1.0
 10
51.23491284779987
 20
37.01893887159992
 30
0.0
 10
51.20619155829984
 20
37.09511183379993
 30
0.0
 10
51.15726026459987
 20
37.23950905189997
 30
0.0
 10
51.08133861329986
 20
37.50659954119999
 30
0.0
 10
51.03800232579988
 20
37.69813679279997
 30
0.0
 10
51.01373843569985
 20
37.82103320809995
 30
0.0
1001
ACAD
1000
RTMaterial
1005
0
  0
SPLINE
  5
5FCEA
330
1F
100
AcDbEntity
  8
1
100
AcDbSpline
210
0.0
220
0.0
230
1.0
 70
     8
 71
     3
 72
     8
 73
     4
 74
     0
 42
0.0000000001
 43
0.0000000001
 40
0.0
 40
0.0
 40
0.0
 40
0.0
 40
1.0
 40
1.0
 40
1.0
 40
1.0
 10
53.46146478489988
 20
36.36587642529998
 30
0.0
 10
53.52846212249989
 20
36.41210884459997
 30
0.0
 10
53.59186238919988
 20
36.46404272279994
 30
0.0
 10
53.65034631899987
 20
36.52066171069999
 30
0.0
1001
ACAD
1000
RTMaterial
1005
0
  0
SPLINE
  5
5FCEB
330
1F
100
AcDbEntity
  8
1
100
AcDbSpline
210
0.0
220
0.0
230
1.0
 70
     8
 71
     3
 72
     9
 73
     5
 74
     0
 42
0.0000000001
 43
0.0000000001
 40
0.0
 40
0.0
 40
0.0
 40
0.0
 40
0.249520802
 40
1.0
 40
1.0
 40
1.0
 40
1.0
 10
53.32228708919984
 20
36.28105158139994
 30
0.0
 10
53.33424935029984
 20
36.28743851999997
 30
0.0
 10
53.38182258759985
 20
36.31371840389994
 30
0.0
 10
53.42789576919983
 20
36.34271167190002
 30
0.0
 10
53.46146478489988
 20
36.36587642529998
 30
0.0
1001
ACAD
1000
RTMaterial
1005
0
  0
LINE
  5
5FCEC
330
1F
100
AcDbEntity
  8
1
100
AcDbLine
 10
51.32824619909985
 20
37.52245178199996
 30
0.0
 11
51.33252468069986
 21
37.53237684989995
 31
0.0
1001
ACAD
1000
RTMaterial
1005
0
  0
SPLINE
  5
5FCED
330
1F
100
AcDbEntity
  8
1
100
AcDbSpline
210
0.0
220
0.0
230
1.0
 70
     8
 71
     3
 72
     9
 73
     5
 74
     0
 42
0.0000000001
 43
0.0000000001
 40
0.0
 40
0.0
 40
0.0
 40
0.0
 40
0.2958628406
 40
1.0
 40
1.0
 40
1.0
 40
1.0
 10
51.41103823299989
 20
37.83603816059997
 30
0.0
 10
51.41040866709989
 20
37.83757940059996
 30
0.0
 10
51.40835272539987
 20
37.84281388779993
 30
0.0
 10
51.40653727389985
 20
37.84816927309993
 30
0.0
 10
51.40568790339989
 20
37.85203945069998
 30
0.0
1001
ACAD
1000
RTMaterial
1005
0
  0
SPLINE
  5
5FCEE
330
1F
100
AcDbEntity
  8
1
100
AcDbSpline
210
0.0
220
0.0
230
1.0
 70
     8
 71
     3
 72
     9
 73
     5
 74
     0
 42
0.0000000001
 43
0.0000000001
 40
0.0
 40
0.0
 40
0.0
 40
0.0
 40
0.2570774527
 40
1.0
 40
1.0
 40
1.0
 40
1.0
 10
51.37784584799987
 20
37.63637637969998
 30
0.0
 10
51.37898244019988
 20
37.65370039059997
 30
0.0
 10
51.38499443359989
 20
37.72096758029994
 30
0.0
 10
51.39758515039989
 20
37.78770353879992
 30
0.0
 10
51.41103823299989
 20
37.83603816059997
 30
0.0
1001
ACAD
1000
RTMaterial
1005
0
  0
SPLINE
  5
5FCEF
330
1F
100
AcDbEntity
  8
1
100
AcDbSpline
210
0.0
220
0.0
230
1.0
 70
     8
 71
     3
 72
     9
 73
     5
 74
     0
 42
0.0000000001
 43
0.0000000001
 40
0.0
 40
0.0
 40
0.0
 40
0.0
 40
0.2431942668
 40
1.0
 40
1.0
 40
1.0
 40
1.0
 10
51.28658676749989
 20
37.39253883039999
 30
0.0
 10
51.28839769939986
 20
37.40414636709994
 30
0.0
 10
51.29729530899988
 20
37.45164307249996
 30
0.0
 10
51.31184707219984
 20
37.49803967129992
 30
0.0
 10
51.32551113649987
 20
37.53194907049999
 30
0.0
1001
ACAD
1000
RTMaterial
1005
0
  0
SPLINE
  5
5FCF0
330
1F
100
AcDbEntity
  8
1
100
AcDbSpline
210
0.0
220
0.0
230
1.0
 70
     8
 71
     3
 72
    15
 73
    11
 74
     0
 42
0.0000000001
 43
0.0000000001
 40
0.0
 40
0.0
 40
0.0
 40
0.0
 40
0.1743837191
 40
0.3515856087
 40
0.5170754514000001
 40
0.6585218152000002
 40
0.7728679962000001
 40
0.8638782995999999
 40
0.9375422577
 40
1.0
 40
1.0
 40
1.0
 40
1.0
 10
59.49573846359988
 20
26.27089279239994
 30
0.0
 10
59.56743891789989
 20
26.24273703029996
 30
0.0
 10
59.7143689447999
 20
26.19178362579999
 30
0.0
 10
59.9362494776999
 20
26.13617409789998
 30
0.0
 10
60.14837540059983
 20
26.10564341139997
 30
0.0
 10
60.33498401469984
 20
26.10172138839994
 30
0.0
 10
60.48762119839989
 20
26.12107646499999
 30
0.0
 10
60.60590225369987
 20
26.1585935219
 30
0.0
 10
60.69326445999985
 20
26.20986146359996
 30
0.0
 10
60.73573505709987
 20
26.25376302749999
 30
0.0
 10
60.75161536589991
 20
26.27632392620001
 30
0.0
1001
ACAD
1000
RTMaterial
1005
0
  0
SPLINE
  5
5FCF1
330
1F
100
AcDbEntity
  8
1
100
AcDbSpline
210
0.0
220
0.0
230
1.0
 70
     8
 71
     3
 72
    13
 73
     9
 74
     0
 42
0.0000000001
 43
0.0000000001
 40
0.0
 40
0.0
 40
0.0
 40
0.0
 40
0.1468685971
 40
0.2865354701
 40
0.4197557672
 40
0.5470121933
 40
0.7844689781000001
 40
1.0
 40
1.0
 40
1.0
 40
1.0
 10
42.68685038829988
 20
30.04124595599996
 30
0.0
 10
42.22898730559984
 20
30.19470496779997
 30
0.0
 10
41.35821990469986
 20
30.56516759849996
 30
0.0
 10
40.17009014369989
 20
31.27367861019991
 30
0.0
 10
39.12196834449986
 20
32.0730394547
 30
0.0
 10
37.92092378079985
 20
33.18853006169997
 30
0.0
 10
36.68634173999988
 20
34.65265471379996
 30
0.0
 10
35.87494461919988
 20
35.90545863139994
 30
0.0
 10
35.52118918939988
 20
36.51950054519995
 30
0.0
1001
ACAD
1000
RTMaterial
1005
0
  0
SPLINE
  5
5FCF2
330
1F
100
AcDbEntity
  8
1
100
AcDbSpline
210
0.0
220
0.0
230
1.0
 70
     8
 71
     3
 72
     9
 73
     5
 74
     0
 42
0.0000000001
 43
0.0000000001
 40
0.0
 40
0.0
 40
0.0
 40
0.0
 40
0.5180188393999999
 40
1.0
 40
1.0
 40
1.0
 40
1.0
 10
33.17563844689988
 20
38.72731101389997
 30
0.0
 10
33.01512421579986
 20
38.93788944459993
 30
0.0
 10
32.72254601989988
 20
39.35787585649996
 30
0.0
 10
32.46512533649986
 20
39.8001081251
 30
0.0
 10
32.34945961129984
 20
40.01762649309995
 30
0.0
1001
ACAD
1000
RTMaterial
1005
0
  0
SPLINE
  5
5FCF3
330
1F
100
AcDbEntity
  8
1
100
AcDbSpline
210
0.0
220
0.0
230
1.0
 70
     8
 71
     3
 72
    22
 73
    18
 74
     0
 42
0.0000000001
 43
0.0000000001
 40
0.0
 40
0.0
 40
0.0
 40
0.0
 40
0.0048739717
 40
0.0103387436
 40
0.0169262549
 40
0.0249565847
 40
0.045993889
 40
0.0742788547
 40
0.1101818967
 40
0.1539214976
 40
0.2056302402
 40
0.2653668318
 40
0.3331065342
 40
0.4087197907000001
 40
0.582349216
 40
0.7819973080000001
 40
1.0
 40
1.0
 40
1.0
 40
1.0
 10
51.1187097415999
 20
48.8696167672
 30
0.0
 10
51.11870613169987
 20
48.87265749260001
 30
0.0
 10
51.12006926319986
 20
48.87916376409993
 30
0.0
 10
51.12594133489984
 20
48.88813948099993
 30
0.0
 10
51.13529394629984
 20
48.89660803829997
 30
0.0
 10
51.15416530909988
 20
48.90851912919993
 30
0.0
 10
51.18759046939988
 20
48.92187853899997
 30
0.0
 10
51.23889815949991
 20
48.93591367300001
 30
0.0
 10
51.30501641889987
 20
48.94892964889994
 30
0.0
 10
51.38609962529989
 20
48.96089365299997
 30
0.0
 10
51.48232111549987
 20
48.97174239039998
 30
0.0
 10
51.59369450059983
 20
48.98145768319995
 30
0.0
 10
51.72011164149984
 20
48.99003632519992
 30
0.0
 10
51.91759881989987
 20
49.00045044249998
 30
0.0
 10
52.19750294809983
 20
49.01009143559992
 30
0.0
 10
52.56632146729987
 20
49.01730682649997
 30
0.0
 10
52.82687558819986
 20
49.01966701480001
 30
0.0
 10
52.96287934679987
 20
49.02034882039998
 30
0.0
1001
ACAD
1000
RTMaterial
1005
0
  0
SPLINE
  5
5FCF4
330
1F
100
AcDbEntity
  8
1
100
AcDbSpline
210
0.0
220
0.0
230
1.0
 70
     8
 71
     3
 72
     9
 73
     5
 74
     0
 42
0.0000000001
 43
0.0000000001
 40
0.0
 40
0.0
 40
0.0
 40
0.0
 40
0.2516194074
 40
1.0
 40
1.0
 40
1.0
 40
1.0
 10
54.42805067179989
 20
27.67021752659991
 30
0.0
 10
54.44018855709988
 20
27.66929857199995
 30
0.0
 10
54.4883779706999
 20
27.66501398230003
 30
0.0
 10
54.53634560759986
 20
27.65826313259998
 30
0.0
 10
54.57198384249989
 20
27.65188489559995
 30
0.0
1001
ACAD
1000
RTMaterial
1005
0
  0
SPLINE
  5
5FCF5
330
1F
100
AcDbEntity
  8
1
100
AcDbSpline
210
0.0
220
0.0
230
1.0
 70
     8
 71
     3
 72
     9
 73
     5
 74
     0
 42
0.0000000001
 43
0.0000000001
 40
0.0
 40
0.0
 40
0.0
 40
0.0
 40
0.2380175187
 40
1.0
 40
1.0
 40
1.0
 40
1.0
 10
47.2990311454999
 20
42.99090066139996
 30
0.0
 10
47.30506329189984
 20
43.00636174559992
 30
0.0
 10
47.33270126419983
 20
43.07041963449996
 30
0.0
 10
47.36881606939988
 20
43.13065926499996
 30
0.0
 10
47.39950826899985
 20
43.17402779889994
 30
0.0
1001
ACAD
1000
RTMaterial
1005
0
  0
SPLINE
  5
5FCF6
330
1F
100
AcDbEntity
  8
1
100
AcDbSpline
210
0.0
220
0.0
230
1.0
 70
     8
 71
     3
 72
     9
 73
     5
 74
     0
 42
0.0000000001
 43
0.0000000001
 40
0.0
 40
0.0
 40
0.0
 40
0.0
 40
0.2455894693
 40
1.0
 40
1.0
 40
1.0
 40
1.0
 10
51.32551113649987
 20
37.53194907049999
 30
0.0
 10
51.32908722439987
 20
37.54082366209997
 30
0.0
 10
51.34439747439984
 20
37.57665455589995
 30
0.0
 10
51.3626559304999
 20
37.61121454599993
 30
0.0
 10
51.37784584799987
 20
37.63637637969998
 30
0.0
1001
ACAD
1000
RTMaterial
1005
0
  0
SPLINE
  5
5FCF7
330
1F
100
AcDbEntity
  8
1
100
AcDbSpline
210
0.0
220
0.0
230
1.0
 70
     8
 71
     3
 72
    15
 73
    11
 74
     0
 42
0.0000000001
 43
0.0000000001
 40
0.0
 40
0.0
 40
0.0
 40
0.0
 40
0.1281188786
 40
0.2557750505
 40
0.3826118662
 40
0.5084127764000001
 40
0.6330753527000001
 40
0.7565629986
 40
0.8788689151999999
 40
1.0
 40
1.0
 40
1.0
 40
1.0
 10
40.70416437419988
 20
41.63470506779993
 30
0.0
 10
40.46265941019988
 20
41.62843467329998
 30
0.0
 10
39.97920110269991
 20
41.64326408839992
 30
0.0
 10
39.26481537939987
 20
41.75777100199991
 30
0.0
 10
38.57585470819987
 20
41.9636589433
 30
0.0
 10
37.92210892269987
 20
42.24799222389998
 30
0.0
 10
37.30631914779986
 20
42.59354990719998
 30
0.0
 10
36.72716275429991
 20
42.98531555459994
 30
0.0
 10
36.18198551789987
 20
43.41206660339992
 30
0.0
 10
35.83765135819988
 20
43.71602580799998
 30
0.0
 10
35.67034691069989
 20
43.87152594419996
 30
0.0
1001
ACAD
1000
RTMaterial
1005
0
  0
SPLINE
  5
5FCF8
330
1F
100
AcDbEntity
  8
1
100
AcDbSpline
210
0.0
220
0.0
230
1.0
 70
     8
 71
     3
 72
     9
 73
     5
 74
     0
 42
0.0000000001
 43
0.0000000001
 40
0.0
 40
0.0
 40
0.0
 40
0.0
 40
0.5000064113000001
 40
1.0
 40
1.0
 40
1.0
 40
1.0
 10
41.80403788399985
 20
41.61317644899997
 30
0.0
 10
41.62096955819987
 20
41.62402905329997
 30
0.0
 10
41.25441873849985
 20
41.63911295449992
 30
0.0
 10
40.88748761479985
 20
41.63946484179996
 30
0.0
 10
40.70416437419988
 20
41.63470506779993
 30
0.0
1001
ACAD
1000
RTMaterial
1005
0
  0
SPLINE
  5
5FCF9
330
1F
100
AcDbEntity
  8
1
100
AcDbSpline
210
0.0
220
0.0
230
1.0
 70
     8
 71
     3
 72
     9
 73
     5
 74
     0
 42
0.0000000001
 43
0.0000000001
 40
0.0
 40
0.0
 40
0.0
 40
0.0
 40
0.4948757852
 40
1.0
 40
1.0
 40
1.0
 40
1.0
 10
51.17429147529986
 20
37.08265074339994
 30
0.0
 10
51.11550792229985
 20
37.19386931939999
 30
0.0
 10
51.02695163639987
 20
37.43589583699992
 30
0.0
 10
51.00679294409985
 20
37.69281826809993
 30
0.0
 10
51.01373843569985
 20
37.82103320809995
 30
0.0
1001
ACAD
1000
RTMaterial
1005
0
  0
SPLINE
  5
5FCFA
330
1F
100
AcDbEntity
  8
1
100
AcDbSpline
210
0.0
220
0.0
230
1.0
 70
     8
 71
     3
 72
     9
 73
     5
 74
     0
 42
0.0000000001
 43
0.0000000001
 40
0.0
 40
0.0
 40
0.0
 40
0.0
 40
0.5107377939
 40
1.0
 40
1.0
 40
1.0
 40
1.0
 10
55.72664385249987
 20
35.58952150879992
 30
0.0
 10
55.68752991829985
 20
35.50310028239994
 30
0.0
 10
55.60067541519988
 20
35.33818866709999
 30
0.0
 10
55.48894724379983
 20
35.18856272120002
 30
0.0
 10
55.42835560839989
 20
35.12084013589993
 30
0.0
1001
ACAD
1000
RTMaterial
1005
0
  0
SPLINE
  5
5FCFB
330
1F
100
AcDbEntity
  8
1
100
AcDbSpline
210
0.0
220
0.0
230
1.0
 70
     8
 71
     3
 72
    13
 73
     9
 74
     0
 42
0.0000000001
 43
0.0000000001
 40
0.0
 40
0.0
 40
0.0
 40
0.0
 40
0.1011139523
 40
0.2128437197
 40
0.3325477556
 40
0.4583222291000001
 40
0.7230195009
 40
1.0
 40
1.0
 40
1.0
 40
1.0
 10
50.80719514419985
 20
35.20497023569999
 30
0.0
 10
50.85055236829987
 20
35.25343079819999
 30
0.0
 10
50.94916777159989
 20
35.3488218782
 30
0.0
 10
51.11386013269987
 20
35.48535914319996
 30
0.0
 10
51.29774617229987
 20
35.62316343499998
 30
0.0
 10
51.56670535279989
 20
35.81111377859997
 30
0.0
 10
51.92702858919983
 20
36.04456046239994
 30
0.0
 10
52.2239575024999
 20
36.2267316626
 30
0.0
 10
52.37643734919988
 20
36.31880586319994
 30
0.0
1001
ACAD
1000
RTMaterial
1005
0
  0
SPLINE
  5
5FCFC
330
1F
100
AcDbEntity
  8
1
100
AcDbSpline
210
0.0
220
0.0
230
1.0
 70
     8
 71
     3
 72
     9
 73
     5
 74
     0
 42
0.0000000001
 43
0.0000000001
 40
0.0
 40
0.0
 40
0.0
 40
0.0
 40
0.4961604097
 40
1.0
 40
1.0
 40
1.0
 40
1.0
 10
57.83396461199988
 20
26.92742241089991
 30
0.0
 10
57.62330148789988
 20
27.01116741549999
 30
0.0
 10
57.19063424029986
 20
27.16039441869998
 30
0.0
 10
56.74485327159988
 20
27.26505503809995
 30
0.0
 10
56.51818034059989
 20
27.30523819499996
 30
0.0
1001
ACAD
1000
RTMaterial
1005
0
  0
SPLINE
  5
5FCFD
330
1F
100
AcDbEntity
  8
1
100
AcDbSpline
210
0.0
220
0.0
230
1.0
 70
     8
 71
     3
 72
    12
 73
     8
 74
     0
 42
0.0000000001
 43
0.0000000001
 40
0.0
 40
0.0
 40
0.0
 40
0.0
 40
0.0822697744
 40
0.1771332979
 40
0.4049243787
 40
0.6809223658
 40
1.0
 40
1.0
 40
1.0
 40
1.0
 10
52.29520687529987
 20
48.04063558279995
 30
0.0
 10
52.30328684349984
 20
48.04920857239995
 30
0.0
 10
52.32249271269989
 20
48.06596914369999
 30
0.0
 10
52.37080800389986
 20
48.09819532469998
 30
0.0
 10
52.44852366649985
 20
48.1352190055
 30
0.0
 10
52.55960266109986
 20
48.17474913429999
 30
0.0
 10
52.64173334819986
 20
48.19771164929995
 30
0.0
 10
52.6860057465999
 20
48.20900525319996
 30
0.0
1001
ACAD
1000
RTMaterial
1005
0
  0
SPLINE
  5
5FCFE
330
1F
100
AcDbEntity
  8
1
100
AcDbSpline
210
0.0
220
0.0
230
1.0
 70
     8
 71
     3
 72
     9
 73
     5
 74
     0
 42
0.0000000001
 43
0.0000000001
 40
0.0
 40
0.0
 40
0.0
 40
0.0
 40
0.4999934682000001
 40
1.0
 40
1.0
 40
1.0
 40
1.0
 10
48.15827679609987
 20
41.6652951044
 30
0.0
 10
48.05072324419985
 20
41.70186753599995
 30
0.0
 10
47.84457462369988
 20
41.8045645505
 30
0.0
 10
47.67315887159987
 20
41.95830526949992
 30
0.0
 10
47.59936023019986
 20
42.04467507999999
 30
0.0
1001
ACAD
1000
RTMaterial
1005
0
  0
SPLINE
  5
5FCFF
330
1F
100
AcDbEntity
  8
1
100
AcDbSpline
210
0.0
220
0.0
230
1.0
 70
     8
 71
     3
 72
     9
 73
     5
 74
     0
 42
0.0000000001
 43
0.0000000001
 40
0.0
 40
0.0
 40
0.0
 40
0.0
 40
0.2035471182
 40
1.0
 40
1.0
 40
1.0
 40
1.0
 10
47.46229460259985
 20
42.23942025859997
 30
0.0
 10
47.47870962999985
 20
42.22742247069999
 30
0.0
 10
47.56116841479985
 20
42.17098483999996
 30
0.0
 10
47.65155853279987
 20
42.12630491949994
 30
0.0
 10
47.72567226399985
 20
42.09738210719996
 30
0.0
1001
ACAD
1000
RTMaterial
1005
0
  0
SPLINE
  5
5FD00
330
1F
100
AcDbEntity
  8
1
100
AcDbSpline
210
0.0
220
0.0
230
1.0
 70
     8
 71
     3
 72
     9
 73
     5
 74
     0
 42
0.0000000001
 43
0.0000000001
 40
0.0
 40
0.0
 40
0.0
 40
0.0
 40
0.2533372305
 40
1.0
 40
1.0
 40
1.0
 40
1.0
 10
55.14953777229988
 20
33.95796346959997
 30
0.0
 10
55.24316842769986
 20
33.95334610099997
 30
0.0
 10
55.61250241449989
 20
33.93024424729998
 30
0.0
 10
55.98062118439987
 20
33.88790991650001
 30
0.0
 10
56.2536862808999
 20
33.84579502139997
 30
0.0
1001
ACAD
1000
RTMaterial
1005
0
  0
SPLINE
  5
5FD01
330
1F
100
AcDbEntity
  8
1
100
AcDbSpline
210
0.0
220
0.0
230
1.0
 70
     8
 71
     3
 72
    11
 73
     7
 74
     0
 42
0.0000000001
 43
0.0000000001
 40
0.0
 40
0.0
 40
0.0
 40
0.0
 40
0.2733265854
 40
0.5375881811
 40
0.7840690569
 40
1.0
 40
1.0
 40
1.0
 40
1.0
 10
41.62875632449988
 20
34.67352423679995
 30
0.0
 10
41.04358921589988
 20
34.70847267199991
 30
0.0
 10
39.89573234349985
 20
34.85193734179996
 30
0.0
 10
38.26281817139989
 20
35.27057425749996
 30
0.0
 10
36.80653520509987
 20
35.835055603
 30
0.0
 10
35.92296530539988
 20
36.28917745129996
 30
0.0
 10
35.52118918939988
 20
36.51950054519995
 30
0.0
1001
ACAD
1000
RTMaterial
1005
0
  0
SPLINE
  5
5FD02
330
1F
100
AcDbEntity
  8
1
100
AcDbSpline
210
0.0
220
0.0
230
1.0
 70
     8
 71
     3
 72
    21
 73
    17
 74
     0
 42
0.0000000001
 43
0.0000000001
 40
0.0
 40
0.0
 40
0.0
 40
0.0
 40
0.043102921
 40
0.0839390373
 40
0.1240452939
 40
0.1650978486
 40
0.2086523309
 40
0.2559282538
 40
0.3077703298999999
 40
0.3646729667000001
 40
0.4268566592000001
 40
0.4943611014
 40
0.5670710273
 40
0.6447952751
 40
0.8141776766999999
 40
1.0
 40
1.0
 40
1.0
 40
1.0
 10
31.10952899279988
 20
40.68019023669996
 30
0.0
 10
31.0824735235999
 20
40.72003167879995
 30
0.0
 10
31.03634670949987
 20
40.80247814809996
 30
0.0
 10
30.99484002499986
 20
40.93583874659993
 30
0.0
 10
30.98438840069986
 20
41.07292527509997
 30
0.0
 10
31.00492017959988
 20
41.21182165699991
 30
0.0
 10
31.05550477949987
 20
41.35112092899999
 30
0.0
 10
31.13461925679991
 20
41.4902160583
 30
0.0
 10
31.24093443669989
 20
41.62890912329999
 30
0.0
 10
31.37306087309986
 20
41.76721189120002
 30
0.0
 10
31.52957734079985
 20
41.90523272999996
 30
0.0
 10
31.70903759959993
 20
42.04305558169994
 30
0.0
 10
31.90985552579986
 20
42.18093722149996
 30
0.0
 10
32.21281555859992
 20
42.37057554629996
 30
0.0
 10
32.63549296439987
 20
42.60632710309994
 30
0.0
 10
32.98947038589989
 20
42.78589721699995
 30
0.0
 10
33.17563844689988
 20
42.87781202659994
 30
0.0
1001
ACAD
1000
RTMaterial
1005
0
  0
SPLINE
  5
5FD03
330
1F
100
AcDbEntity
  8
1
100
AcDbSpline
210
0.0
220
0.0
230
1.0
 70
     8
 71
     3
 72
     9
 73
     5
 74
     0
 42
0.0000000001
 43
0.0000000001
 40
0.0
 40
0.0
 40
0.0
 40
0.0
 40
0.2430575989
 40
1.0
 40
1.0
 40
1.0
 40
1.0
 10
47.72567226399985
 20
42.09738210719996
 30
0.0
 10
47.74825050949988
 20
42.08857096849993
 30
0.0
 10
47.84224330299986
 20
42.05519956899997
 30
0.0
 10
47.94038465459988
 20
42.03355761209997
 30
0.0
 10
48.01526521279988
 20
42.02407259649999
 30
0.0
1001
ACAD
1000
RTMaterial
1005
0
  0
SPLINE
  5
5FD04
330
1F
100
AcDbEntity
  8
1
100
AcDbSpline
210
0.0
220
0.0
230
1.0
 70
     8
 71
     3
 72
     9
 73
     5
 74
     0
 42
0.0000000001
 43
0.0000000001
 40
0.0
 40
0.0
 40
0.0
 40
0.0
 40
0.4963954907
 40
1.0
 40
1.0
 40
1.0
 40
1.0
 10
62.19999999999988
 20
28.56337535379993
 30
0.0
 10
61.98205991299989
 20
28.17186121359998
 30
0.0
 10
61.51747330489985
 20
27.39721479219998
 30
0.0
 10
61.01327638859988
 20
26.64806152519992
 30
0.0
 10
60.75161536589991
 20
26.27632392620001
 30
0.0
1001
ACAD
1000
RTMaterial
1005
0
  0
SPLINE
  5
5FD05
330
1F
100
AcDbEntity
  8
1
100
AcDbSpline
210
0.0
220
0.0
230
1.0
 70
     8
 71
     3
 72
     9
 73
     5
 74
     0
 42
0.0000000001
 43
0.0000000001
 40
0.0
 40
0.0
 40
0.0
 40
0.0
 40
0.4842886518
 40
1.0
 40
1.0
 40
1.0
 40
1.0
 10
47.39950826899985
 20
43.17402779889994
 30
0.0
 10
47.4321046867999
 20
43.22008702139998
 30
0.0
 10
47.50716630709985
 20
43.30982190919996
 30
0.0
 10
47.59344965949987
 20
43.38862078480002
 30
0.0
 10
47.64013735059984
 20
43.42644699729999
 30
0.0
1001
ACAD
1000
RTMaterial
1005
0
  0
SPLINE
  5
5FD06
330
1F
100
AcDbEntity
  8
1
100
AcDbSpline
210
0.0
220
0.0
230
1.0
 70
     8
 71
     3
 72
    10
 73
     6
 74
     0
 42
0.0000000001
 43
0.0000000001
 40
0.0
 40
0.0
 40
0.0
 40
0.0
 40
0.5705799251000001
 40
0.8100759360999999
 40
1.0
 40
1.0
 40
1.0
 40
1.0
 10
51.18035190509989
 20
37.37872616089993
 30
0.0
 10
51.18274530079986
 20
37.31330789949993
 30
0.0
 10
51.1917311613999
 20
37.22047345319999
 30
0.0
 10
51.21335952629983
 20
37.10775990230002
 30
0.0
 10
51.22508883049988
 20
37.05989246539997
 30
0.0
 10
51.23060558079988
 20
37.03881261129993
 30
0.0
1001
ACAD
1000
RTMaterial
1005
0
  0
SPLINE
  5
5FD07
330
1F
100
AcDbEntity
  8
1
100
AcDbSpline
210
0.0
220
0.0
230
1.0
 70
     8
 71
     3
 72
    11
 73
     7
 74
     0
 42
0.0000000001
 43
0.0000000001
 40
0.0
 40
0.0
 40
0.0
 40
0.0
 40
0.4011746018000001
 40
0.7236806468000001
 40
0.9382114009
 40
1.0
 40
1.0
 40
1.0
 40
1.0
 10
51.23060558079988
 20
37.03881261129993
 30
0.0
 10
51.23140654439987
 20
37.0357520787
 30
0.0
 10
51.23277501479987
 20
37.03059992669995
 30
0.0
 10
51.23494432579986
 20
37.02220558569996
 30
0.0
 10
51.23554585879986
 20
37.01997227120001
 30
0.0
 10
51.23654302419987
 20
37.01548139959994
 30
0.0
 10
51.23623453829987
 20
37.01585856659995
 30
0.0
1001
ACAD
1000
RTMaterial
1005
0
  0
SPLINE
  5
5FD08
330
1F
100
AcDbEntity
  8
1
100
AcDbSpline
210
0.0
220
0.0
230
1.0
 70
     8
 71
     3
 72
     9
 73
     5
 74
     0
 42
0.0000000001
 43
0.0000000001
 40
0.0
 40
0.0
 40
0.0
 40
0.0
 40
0.5032959675000001
 40
1.0
 40
1.0
 40
1.0
 40
1.0
 10
51.3134944810999
 20
38.05532094339992
 30
0.0
 10
51.26552149539986
 20
37.94920489149996
 30
0.0
 10
51.19451311729989
 20
37.72652632579997
 30
0.0
 10
51.17614985189987
 20
37.49358013339992
 30
0.0
 10
51.18035190509989
 20
37.37872616089993
 30
0.0
1001
ACAD
1000
RTMaterial
1005
0
  0
SPLINE
  5
5FD09
330
1F
100
AcDbEntity
  8
1
100
AcDbSpline
210
0.0
220
0.0
230
1.0
 70
     8
 71
     3
 72
     9
 73
     5
 74
     0
 42
0.0000000001
 43
0.0000000001
 40
0.0
 40
0.0
 40
0.0
 40
0.0
 40
0.4816406991
 40
1.0
 40
1.0
 40
1.0
 40
1.0
 10
46.07079296629985
 20
28.93994636510001
 30
0.0
 10
46.52942180349987
 20
28.79474528849994
 30
0.0
 10
47.4958286829999
 20
28.53683709949996
 30
0.0
 10
48.48110056909985
 20
28.36413217099994
 30
0.0
 10
48.99451001349985
 20
28.29730839259998
 30
0.0
1001
ACAD
1000
RTMaterial
1005
0
  0
SPLINE
  5
5FD0A
330
1F
100
AcDbEntity
  8
1
100
AcDbSpline
210
0.0
220
0.0
230
1.0
 70
     8
 71
     3
 72
     9
 73
     5
 74
     0
 42
0.0000000001
 43
0.0000000001
 40
0.0
 40
0.0
 40
0.0
 40
0.0
 40
0.5000009657
 40
1.0
 40
1.0
 40
1.0
 40
1.0
 10
46.07079296629985
 20
47.43903375819996
 30
0.0
 10
46.54252569209984
 20
47.5870707569
 30
0.0
 10
47.50983257719986
 20
47.81197892189999
 30
0.0
 10
48.5000963935999
 20
47.88751557709997
 30
0.0
 10
48.99451001349985
 20
47.88755597289998
 30
0.0
1001
ACAD
1000
RTMaterial
1005
0
  0
SPLINE
  5
5FD0B
330
1F
100
AcDbEntity
  8
1
100
AcDbSpline
210
0.0
220
0.0
230
1.0
 70
     8
 71
     3
 72
     9
 73
     5
 74
     0
 42
0.0000000001
 43
0.0000000001
 40
0.0
 40
0.0
 40
0.0
 40
0.0
 40
0.2480398648
 40
1.0
 40
1.0
 40
1.0
 40
1.0
 10
42.68685038829988
 20
30.04124595599996
 30
0.0
 10
42.96582822119984
 20
29.94774275779997
 30
0.0
 10
44.09145361239985
 20
29.57344813729998
 30
0.0
 10
45.22040298749987
 20
29.2091783244
 30
0.0
 10
46.07079296629985
 20
28.93994636510001
 30
0.0
1001
ACAD
1000
RTMaterial
1005
0
  0
SPLINE
  5
5FD0C
330
1F
100
AcDbEntity
  8
1
100
AcDbSpline
210
0.0
220
0.0
230
1.0
 70
     8
 71
     3
 72
    12
 73
     8
 74
     0
 42
0.0000000001
 43
0.0000000001
 40
0.0
 40
0.0
 40
0.0
 40
0.0
 40
0.2721408939
 40
0.5299190266
 40
0.7714932867000001
 40
0.8871217599999999
 40
1.0
 40
1.0
 40
1.0
 40
1.0
 10
52.39826227809988
 20
36.67450717230003
 30
0.0
 10
52.31950754629986
 20
36.65246338169993
 30
0.0
 10
52.16111606449988
 20
36.6251362351
 30
0.0
 10
51.92755920209987
 20
36.63828507969999
 30
0.0
 10
51.74930351439986
 20
36.69638033099995
 30
0.0
 10
51.62772437629985
 20
36.7692237686
 30
0.0
 10
51.57475841499991
 20
36.81348198969999
 30
0.0
 10
51.55059647439987
 20
36.83729068279996
 30
0.0
1001
ACAD
1000
RTMaterial
1005
0
  0
SPLINE
  5
5FD0D
330
1F
100
AcDbEntity
  8
1
100
AcDbSpline
210
0.0
220
0.0
230
1.0
 70
     8
 71
     3
 72
     9
 73
     5
 74
     0
 42
0.0000000001
 43
0.0000000001
 40
0.0
 40
0.0
 40
0.0
 40
0.0
 40
0.5229015426000001
 40
1.0
 40
1.0
 40
1.0
 40
1.0
 10
51.55059647439987
 20
36.83729068279996
 30
0.0
 10
51.52107567819985
 20
36.86638549689997
 30
0.0
 10
51.46544641949986
 20
36.92288525279997
 30
0.0
 10
51.41427551859988
 20
36.98365162429997
 30
0.0
 10
51.39189174199987
 20
37.01413379959996
 30
0.0
1001
ACAD
1000
RTMaterial
1005
0
  0
SPLINE
  5
5FD0E
330
1F
100
AcDbEntity
  8
1
100
AcDbSpline
210
0.0
220
0.0
230
1.0
 70
     8
 71
     3
 72
     8
 73
     4
 74
     0
 42
0.0000000001
 43
0.0000000001
 40
0.0
 40
0.0
 40
0.0
 40
0.0
 40
1.0
 40
1.0
 40
1.0
 40
1.0
 10
46.07079296629985
 20
47.43903375819996
 30
0.0
 10
44.3647120176999
 20
46.90363926579999
 30
0.0
 10
42.65876286419984
 20
46.36782457480001
 30
0.0
 10
40.95296019189987
 20
45.83154413620002
 30
0.0
1001
ACAD
1000
RTMaterial
1005
0
  0
SPLINE
  5
5FD0F
330
1F
100
AcDbEntity
  8
1
100
AcDbSpline
210
0.0
220
0.0
230
1.0
 70
     8
 71
     3
 72
    11
 73
     7
 74
     0
 42
0.0000000001
 43
0.0000000001
 40
0.0
 40
0.0
 40
0.0
 40
0.0
 40
0.2409927125
 40
0.4895318272
 40
0.7433704557
 40
1.0
 40
1.0
 40
1.0
 40
1.0
 10
35.67034691069989
 20
43.87152594419996
 30
0.0
 10
36.08452787839985
 20
44.05459817179997
 30
0.0
 10
36.93278956079985
 20
44.41091864599997
 30
0.0
 10
38.23672729869986
 20
44.91227606029997
 30
0.0
 10
39.5812179754999
 20
45.38856048679997
 30
0.0
 10
40.49293917969987
 20
45.68691998109994
 30
0.0
 10
40.95296019189987
 20
45.83154413620002
 30
0.0
1001
ACAD
1000
RTMaterial
1005
0
  0
SPLINE
  5
5FD10
330
1F
100
AcDbEntity
  8
1
100
AcDbSpline
210
0.0
220
0.0
230
1.0
 70
     8
 71
     3
 72
    11
 73
     7
 74
     0
 42
0.0000000001
 43
0.0000000001
 40
0.0
 40
0.0
 40
0.0
 40
0.0
 40
0.2366830831
 40
0.4845586587
 40
0.7401370658
 40
1.0
 40
1.0
 40
1.0
 40
1.0
 10
33.17563844689988
 20
42.87781202659994
 30
0.0
 10
33.36575019239985
 20
42.97167391029995
 30
0.0
 10
33.75977176639987
 20
43.15417763980002
 30
0.0
 10
34.37208286069989
 20
43.40881216179997
 30
0.0
 10
35.01212459719983
 20
43.64976175689998
 30
0.0
 10
35.44906278679986
 20
43.79926259779995
 30
0.0
 10
35.67034691069989
 20
43.87152594419996
 30
0.0
1001
ACAD
1000
RTMaterial
1005
0
  0
SPLINE
  5
5FD11
330
1F
100
AcDbEntity
  8
1
100
AcDbSpline
210
0.0
220
0.0
230
1.0
 70
     8
 71
     3
 72
     9
 73
     5
 74
     0
 42
0.0000000001
 43
0.0000000001
 40
0.0
 40
0.0
 40
0.0
 40
0.0
 40
0.2548433536
 40
1.0
 40
1.0
 40
1.0
 40
1.0
 10
53.03696115249988
 20
49.01715448319999
 30
0.0
 10
53.09918245069986
 20
49.0114646179
 30
0.0
 10
53.34329583749985
 20
48.98868713679997
 30
0.0
 10
53.58725549749988
 20
48.96423885419995
 30
0.0
 10
53.76891035099987
 20
48.9447913633
 30
0.0
1001
ACAD
1000
RTMaterial
1005
0
  0
SPLINE
  5
5FD12
330
1F
100
AcDbEntity
  8
1
100
AcDbSpline
210
0.0
220
0.0
230
1.0
 70
     8
 71
     3
 72
     9
 73
     5
 74
     0
 42
0.0000000001
 43
0.0000000001
 40
0.0
 40
0.0
 40
0.0
 40
0.0
 40
0.517437713
 40
1.0
 40
1.0
 40
1.0
 40
1.0
 10
34.2004286109999
 20
37.59593105089994
 30
0.0
 10
34.00741530159991
 20
37.77535695879993
 30
0.0
 10
33.64982656109987
 20
38.13910027609995
 30
0.0
 10
33.32462737319986
 20
38.5318526172
 30
0.0
 10
33.17563844689988
 20
38.72731101389997
 30
0.0
1001
ACAD
1000
RTMaterial
1005
0
  0
LINE
  5
5FD13
330
1F
100
AcDbEntity
  8
1
100
AcDbLine
 10
53.03696115249988
 20
27.77554524459998
 30
0.0
 11
54.42805067179989
 21
27.67021752659991
 31
0.0
1001
ACAD
1000
RTMaterial
1005
0
  0
SPLINE
  5
5FD14
330
1F
100
AcDbEntity
  8
1
100
AcDbSpline
210
0.0
220
0.0
230
1.0
 70
     8
 71
     3
 72
     9
 73
     5
 74
     0
 42
0.0000000001
 43
0.0000000001
 40
0.0
 40
0.0
 40
0.0
 40
0.0
 40
0.2608849409
 40
1.0
 40
1.0
 40
1.0
 40
1.0
 10
35.52118918939988
 20
36.51950054519995
 30
0.0
 10
35.40040211009989
 20
36.60542423029994
 30
0.0
 10
34.94309533059988
 20
36.94271255299998
 30
0.0
 10
34.5080098201999
 20
37.31000238679996
 30
0.0
 10
34.2004286109999
 20
37.59593105089994
 30
0.0
1001
ACAD
1000
RTMaterial
1005
0
  0
SPLINE
  5
5FD15
330
1F
100
AcDbEntity
  8
1
100
AcDbSpline
210
0.0
220
0.0
230
1.0
 70
     8
 71
     3
 72
     9
 73
     5
 74
     0
 42
0.0000000001
 43
0.0000000001
 40
0.0
 40
0.0
 40
0.0
 40
0.0
 40
0.2490983899
 40
1.0
 40
1.0
 40
1.0
 40
1.0
 10
52.96287934679987
 20
49.02034882039998
 30
0.0
 10
52.96903753719988
 20
49.02037969230002
 30
0.0
 10
52.99376004829986
 20
49.02020756339993
 30
0.0
 10
53.01847432499989
 20
49.01884502259997
 30
0.0
 10
53.03696115249988
 20
49.01715448319999
 30
0.0
1001
ACAD
1000
RTMaterial
1005
0
  0
SPLINE
  5
5FD16
330
1F
100
AcDbEntity
  8
1
100
AcDbSpline
210
0.0
220
0.0
230
1.0
 70
     8
 71
     3
 72
     8
 73
     4
 74
     0
 42
0.0000000001
 43
0.0000000001
 40
0.0
 40
0.0
 40
0.0
 40
0.0
 40
1.0
 40
1.0
 40
1.0
 40
1.0
 10
53.03696115249988
 20
27.77554524459998
 30
0.0
 10
53.01220892049986
 20
27.77741954189997
 30
0.0
 10
52.98749847079983
 20
27.7799564225
 30
0.0
 10
52.96287934679987
 20
27.78313206489997
 30
0.0
1001
ACAD
1000
RTMaterial
1005
0
  0
ELLIPSE
  5
5FD25
330
1F
100
AcDbEntity
  8
1
100
AcDbEllipse
 10
15.2083066781999
 20
-0.0000000000000568
 30
0.0
 11
-56.67765703059999
 21
-37.7565958538
 31
0.0
210
0.0
220
0.0
230
1.0
 40
0.5524295597
 41
-2.5822785153
 42
-2.5763012697
1001
ACAD
1000
RTMaterial
1005
0
  0
ELLIPSE
  5
5FD26
330
1F
100
AcDbEntity
  8
1
100
AcDbEllipse
 10
43.64842874679988
 20
-0.0000000000000568
 30
0.0
 11
7.427263174900002
 21
49.01710242350001
 31
0.0
210
0.0
220
0.0
230
1.0
 40
0.2418325815
 41
-0.1474028316
 42
-0.0963942903
1001
ACAD
1000
RTMaterial
1005
0
  0
ELLIPSE
  5
5FD27
330
1F
100
AcDbEntity
  8
1
100
AcDbEllipse
 10
5.468348859499883
 20
-0.0000000000000568
 30
0.0
 11
46.94618320039999
 21
48.9821562858
 31
0.0
210
0.0
220
0.0
230
1.0
 40
0.054933693
 41
-0.1600432774
 42
-0.1540147851
1001
ACAD
1000
RTMaterial
1005
0
  0
ELLIPSE
  5
5FD28
330
1F
100
AcDbEntity
  8
1
100
AcDbEllipse
 10
51.14691301209984
 20
43.76047232039996
 30
0.0
 11
-2.522367721899999
 21
0.3806746899000002
 31
0.0
210
0.0
220
0.0
230
1.0
 40
0.0812499867
 41
-0.46007086
 42
-0.1978005773
1001
ACAD
1000
RTMaterial
1005
0
  0
ELLIPSE
  5
5FD29
330
1F
100
AcDbEntity
  8
1
100
AcDbEllipse
 10
53.12510458809987
 20
37.98458128789997
 30
0.0
 11
2.5101397666
 21
5.0077258413
 31
0.0
210
0.0
220
0.0
230
1.0
 40
0.2559254971
 41
1.7674061774
 42
1.787672183399999
1001
ACAD
1000
RTMaterial
1005
0
  0
ELLIPSE
  5
5FD2A
330
1F
100
AcDbEntity
  8
1
100
AcDbEllipse
 10
53.89737436999985
 20
36.03423443789996
 30
0.0
 11
-1.939614604799999
 21
0.4565062913000001
 31
0.0
210
0.0
220
0.0
230
1.0
 40
0.0211265774
 41
7.136997350299999
 42
9.090781620199999
1001
ACAD
1000
RTMaterial
1005
0
  0
ELLIPSE
  5
5FD2B
330
1F
100
AcDbEntity
  8
1
100
AcDbEllipse
 10
10839.8142718184
 20
-894.7466183290005
 30
0.0
 11
-10837.211852092
 21
936.6102768954005
 31
0.0
210
0.0
220
0.0
230
1.0
 40
0.009029672
 41
0.0987560517
 42
0.1005751067
1001
ACAD
1000
RTMaterial
1005
0
  0
ELLIPSE
  5
5FD2C
330
1F
100
AcDbEntity
  8
1
100
AcDbEllipse
 10
300.7374720590999
 20
-22.64093562240004
 30
0.0
 11
-272.9389086246
 21
67.08407893520003
 31
0.0
210
0.0
220
0.0
230
1.0
 40
0.0741056823
 41
0.4920840561000001
 42
0.505255146
1001
ACAD
1000
RTMaterial
1005
0
  0
ELLIPSE
  5
5FD2D
330
1F
100
AcDbEntity
  8
1
100
AcDbEllipse
 10
54.55675739809987
 20
22.10613897659994
 30
0.0
 11
1.4290650875
 21
11.7765553512
 31
0.0
210
0.0
220
0.0
230
1.0
 40
0.8404292787999999
 41
-0.0555417021
 42
-0.0271205829
1001
ACAD
1000
RTMaterial
1005
0
  0
ELLIPSE
  5
5FD2E
330
1F
100
AcDbEntity
  8
1
100
AcDbEllipse
 10
42.47422429929986
 20
49.91759287859998
 30
0.0
 11
0.6751737856000016
 21
15.2529225024
 31
0.0
210
0.0
220
0.0
230
1.0
 40
0.8511454179000001
 41
3.128470543399999
 42
3.1342396674
1001
ACAD
1000
RTMaterial
1005
0
  0
ELLIPSE
  5
5FD2F
330
1F
100
AcDbEntity
  8
1
100
AcDbEllipse
 10
52.18194523799986
 20
35.58511041389994
 30
0.0
 11
-8.4125570515
 21
0.962829147800001
 31
0.0
210
0.0
220
0.0
230
1.0
 40
0.1626095708
 41
-4.352659713199999
 42
-4.3333290922
1001
ACAD
1000
RTMaterial
1005
0
  0
ELLIPSE
  5
5FD30
330
1F
100
AcDbEntity
  8
1
100
AcDbEllipse
 10
48.69192175399985
 20
41.76134576309993
 30
0.0
 11
-2.3701875655
 21
0.3525254196000001
 31
0.0
210
0.0
220
0.0
230
1.0
 40
0.0700311318
 41
-1.464172001699999
 42
-1.270882900699999
1001
ACAD
1000
RTMaterial
1005
0
  0
ELLIPSE
  5
5FD31
330
1F
100
AcDbEntity
  8
1
100
AcDbEllipse
 10
15.11542909619987
 20
-0.0000000000000568
 30
0.0
 11
-49.80168690960002
 21
-46.8286827766
 31
0.0
210
0.0
220
0.0
230
1.0
 40
0.2930368706
 41
-2.6554608271
 42
-2.6540459091
1001
ACAD
1000
RTMaterial
1005
0
  0
ELLIPSE
  5
5FD32
330
1F
100
AcDbEntity
  8
1
100
AcDbEllipse
 10
70.66159067279989
 20
-0.0000000000000568
 30
0.0
 11
-17.20301225609999
 21
48.4709143176
 31
0.0
210
0.0
220
0.0
230
1.0
 40
0.43683336
 41
0.0588313175
 42
0.0643059564
1001
ACAD
1000
RTMaterial
1005
0
  0
ELLIPSE
  5
5FD33
330
1F
100
AcDbEntity
  8
1
100
AcDbEllipse
 10
486.1426594525998
 20
-0.0000000000000568
 30
0.0
 11
-534.6473884621
 21
46.24685594570002
 31
0.0
210
0.0
220
0.0
230
1.0
 40
0.0305699371
 41
0.6161487744
 42
0.6289251874000001
1001
ACAD
1000
RTMaterial
1005
0
  0
VIEWPORT
  5
6B
102
{ACAD_XDICTIONARY
360
5FD50
102
}
330
50
100
AcDbEntity
 67
     1
  8
0
100
AcDbViewport
 10
155.3592437148233
 20
160.4455827878762
 30
0.0
 40
349.5854424261001
 41
282.2272140146125
 68
     1
 69
     1
 12
155.3592437148233
 22
160.4455827878762
 13
0.0
 23
0.0
 14
10.0
 24
10.0
 15
10.0
 25
10.0
 16
0.0
 26
0.0
 36
1.0
 17
0.0
 27
0.0
 37
0.0
 42
50.0
 43
0.0
 44
0.0
 45
282.2272140146125
 50
0.0
 51
0.0
 72
  1000
 90
    32864
  1

281
     0
 71
     1
 74
     0
110
0.0
120
0.0
130
0.0
111
1.0
121
0.0
131
0.0
112
0.0
122
1.0
132
0.0
 79
     0
146
0.0
  0
VIEWPORT
  5
6D
102
{ACAD_XDICTIONARY
360
5FD52
102
}
330
50
100
AcDbEntity
 67
     1
  8
0
100
AcDbViewport
 10
133.3499939441681
 20
101.5999939441681
 30
0.0
 40
213.3599903106689
 41
162.5599903106689
 68
     2
 69
     2
 12
210.0
 22
148.5
 13
0.0
 23
0.0
 14
10.0
 24
10.0
 15
10.0
 25
10.0
 16
0.0
 26
0.0
 36
1.0
 17
0.0
 27
0.0
 37
0.0
 42
50.0
 43
0.0
 44
0.0
 45
324.0677920111345
 50
0.0
 51
0.0
 72
   100
 90
    32864
  1

281
     0
 71
     1
 74
     0
110
0.0
120
0.0
130
0.0
111
1.0
121
0.0
131
0.0
112
0.0
122
1.0
132
0.0
 79
     0
146
0.0
  0
ENDSEC
  0
SECTION
  2
OBJECTS
  0
DICTIONARY
  5
C
330
0
100
AcDbDictionary
281
     1
  3
ACAD_COLOR
350
85
  3
ACAD_GROUP
350
D
  3
ACAD_LAYOUT
350
1A
  3
ACAD_MATERIAL
350
84
  3
ACAD_MLINESTYLE
350
17
  3
ACAD_PLOTSETTINGS
350
19
  3
ACAD_PLOTSTYLENAME
350
E
  3
ACAD_TABLESTYLE
350
A1
  3
ACDBHEADERROUNDTRIPXREC
350
5FD4B
  3
AcDbVariableDictionary
350
5E
  3
ASE_INDEX_DICTIONARY
350
349E9
  3
DWGPROPS
350
5FD4A
  0
DICTIONARY
  5
E2
330
2
100
AcDbDictionary
280
     1
281
     1
  3
ACAD_LAYERFILTERS
360
5FD39
  3
ACAD_LAYERSTATES
360
3759A
  3
ACLYDICTIONARY
360
5FD38
  0
DICTIONARY
  5
31EE
330
1F
100
AcDbDictionary
280
     1
281
     1
  3
ACAD_SORTENTS
360
31EF
  0
DICTIONARY
  5
43668
330
680
100
AcDbDictionary
280
     1
281
     1
  3
ACAD_SORTENTS
360
43669
  0
DICTIONARY
  5
5FD54
330
71
100
AcDbDictionary
280
     1
281
     1
  3
ACAD_XREC_ROUNDTRIP
360
5FD55
  0
DICTIONARY
  5
5FD56
330
73
100
AcDbDictionary
280
     1
281
     1
  3
ACAD_XREC_ROUNDTRIP
360
5FD57
  0
DICTIONARY
  5
5F69F
330
5F692
100
AcDbDictionary
280
     1
281
     1
  3
ACAD_DIMASSOC
360
5F6A9
  0
DICTIONARY
  5
5F6B7
330
5F6AA
100
AcDbDictionary
280
     1
281
     1
  3
ACAD_DIMASSOC
360
5F6C1
  0
DICTIONARY
  5
5F6CF
330
5F6C2
100
AcDbDictionary
280
     1
281
     1
  3
ACAD_DIMASSOC
360
5F6D9
  0
DICTIONARY
  5
5F735
330
5F728
100
AcDbDictionary
280
     1
281
     1
  3
ACAD_DIMASSOC
360
5F73F
  0
DICTIONARY
  5
5FD50
330
6B
100
AcDbDictionary
280
     1
281
     1
  3
ACAD_XREC_ROUNDTRIP
360
5FD51
  0
DICTIONARY
  5
5FD52
330
6D
100
AcDbDictionary
280
     1
281
     1
  3
ACAD_XREC_ROUNDTRIP
360
5FD53
  0
DICTIONARY
  5
85
102
{ACAD_REACTORS
330
C
102
}
330
C
100
AcDbDictionary
281
     1
  0
DICTIONARY
  5
D
102
{ACAD_REACTORS
330
C
102
}
330
C
100
AcDbDictionary
281
     1
  0
DICTIONARY
  5
1A
102
{ACAD_REACTORS
330
C
102
}
330
C
100
AcDbDictionary
281
     1
  3
\M+1838C\M+18343\M+18341\M+18345\M+183671
350
51
  3
\M+1838C\M+18343\M+18341\M+18345\M+183672
350
56
  3
Model
350
22
  0
DICTIONARY
  5
84
102
{ACAD_REACTORS
330
C
102
}
330
C
100
AcDbDictionary
281
     1
  0
DICTIONARY
  5
17
102
{ACAD_REACTORS
330
C
102
}
330
C
100
AcDbDictionary
281
     1
  3
Standard
350
18
  0
DICTIONARY
  5
19
102
{ACAD_REACTORS
330
C
102
}
330
C
100
AcDbDictionary
281
     1
  0
ACDBDICTIONARYWDFLT
  5
E
102
{ACAD_REACTORS
330
C
102
}
330
C
100
AcDbDictionary
281
     1
  3
Normal
350
F
100
AcDbDictionaryWithDefault
340
F
  0
DICTIONARY
  5
A1
102
{ACAD_REACTORS
330
C
102
}
330
C
100
AcDbDictionary
281
     1
  3
Standard
350
A2
  0
DICTIONARY
  5
5FD4B
102
{ACAD_REACTORS
330
C
102
}
330
C
100
AcDbDictionary
281
     1
  0
DICTIONARY
  5
5E
102
{ACAD_REACTORS
330
C
102
}
330
C
100
AcDbDictionary
281
     1
  3
CTABLESTYLE
350
B8
  3
DIMASSOC
350
5F
  3
HIDETEXT
350
63
  3
PROJECTNAME
350
31CE
  0
DICTIONARY
  5
349E9
102
{ACAD_REACTORS
330
C
102
}
330
C
100
AcDbDictionary
281
     1
  3
ASEBlockHierarchyIndexRecord
350
349EA
1001
DCO15
1040
1842496176.844
  0
XRECORD
  5
5FD4A
102
{ACAD_REACTORS
330
C
102
}
330
C
100
AcDbXrecord
280
     1
  1
DWGPROPS COOKIE
  2

  3

  4

  6

  7

  8

  9

300
=
301
=
302
=
303
=
304
=
305
=
306
=
307
=
308
=
309
=
 40
1.949109675925925
 41
2455489.391063368
 42
2458416.588309294
  1

 90
        0
  0
DICTIONARY
  5
5FD39
102
{ACAD_REACTORS
330
E2
102
}
330
E2
100
AcDbDictionary
281
     1
  0
DICTIONARY
  5
3759A
102
{ACAD_REACTORS
330
E2
102
}
330
E2
100
AcDbDictionary
281
     1
  0
DICTIONARY
  5
5FD38
102
{ACAD_REACTORS
330
E2
102
}
330
E2
100
AcDbDictionary
281
     1
1001
ACAD
1000
<All
  0
SORTENTSTABLE
  5
31EF
102
{ACAD_REACTORS
330
31EE
102
}
330
31EE
100
AcDbSortentsTable
330
1F
331
5F489
  5
5F48F
331
5F45E
  5
5F464
331
5F480
  5
5F486
331
5F3CD
  5
5F3CD
331
5F44D
  5
5F453
331
5F3BA
  5
5F3BA
331
5F45C
  5
5F462
331
5F47E
  5
5F484
331
5F3CB
  5
5F3CB
331
5F3ED
  5
5F3F1
331
5F44B
  5
5F451
331
5F3DA
  5
5F3DA
331
5F3FC
  5
5F3FE
331
5F45A
  5
5F460
331
5F47C
  5
5F482
331
5F3EB
  5
5F3ED
331
5F3D8
  5
5F3D8
331
5F47A
  5
5F480
331
5F3C7
  5
5F3C7
331
5F3E9
  5
5F3EB
331
5F425
  5
5F427
331
5F469
  5
5F474
331
5F478
  5
5F47E
331
5F3C5
  5
5F3C5
331
5F423
  5
5F425
331
5F467
  5
5F473
331
5F3B4
  5
5F3B4
331
5F3D6
  5
5F3D6
331
5F476
  5
5F47C
331
5F490
  5
5F4A7
331
5F3C3
  5
5F3C3
331
5CD11
  5
5CD11
331
5F3E5
  5
5F3E7
331
5F465
  5
5F471
331
5F487
  5
5F48D
331
5F430
  5
5F436
331
5F452
  5
5F458
331
5F474
  5
5F47A
331
5F48E
  5
5F4A5
331
5F3C1
  5
5F3C1
331
5F3E3
  5
5F3E5
331
5F405
  5
5F407
331
5F5CB
  5
5F65F
331
5F463
  5
5F46C
331
5F485
  5
5F48B
331
5F3F4
  5
5F3F7
331
5F472
  5
5F478
331
5F48C
  5
5F4A3
331
5F3BF
  5
5F3BF
331
5F403
  5
5F405
331
5F461
  5
5F467
331
5F483
  5
5F489
331
5F3D0
  5
5F3D0
331
5F3F2
  5
5F3F4
331
5F48A
  5
5F490
331
5F3BD
  5
5F3BD
331
5F39B
  5
5F39B
331
5F45F
  5
5F465
331
5F481
  5
5F487
331
5F3CE
  5
5F3CE
331
5F44E
  5
5F454
331
5F488
  5
5F48E
331
5F45D
  5
5F463
331
5F47F
  5
5F485
331
5F3CC
  5
5F3CC
331
5F46E
  5
5F476
331
5F44C
  5
5F452
331
5F3B9
  5
5F3B9
331
5F3DB
  5
5F3DB
331
5F3FD
  5
5F3FF
331
5F45B
  5
5F461
331
5F47D
  5
5F483
331
5F3EC
  5
5F3EE
331
5F46C
  5
5F475
331
5F44A
  5
5F450
331
5F3D9
  5
5F3D9
331
5F47B
  5
5F481
331
5F3C8
  5
5F3C8
331
5F3EA
  5
5F3EC
331
5F426
  5
5F428
331
5F448
  5
5F44F
331
5F3B7
  5
5F3B7
331
5F457
  5
5F45D
331
5F479
  5
5F47F
331
5F3C6
  5
5F3C6
331
5F3E8
  5
5F3EA
331
5F424
  5
5F426
331
5F446
  5
5F44E
331
5F3B5
  5
5F3B5
331
68C
  5
435D5
331
5F477
  5
5F47D
331
5F3C4
  5
5F3C4
331
5F466
  5
5F472
331
5F3D5
  5
5F3D5
331
5F3F7
  5
5F3F9
331
5F453
  5
5F459
331
5F475
  5
5F47B
331
5F48F
  5
5F4A6
331
5F3C2
  5
5F3C2
331
5F3E4
  5
5F3E6
331
5F464
  5
5F46E
331
5F486
  5
5F48C
331
5F451
  5
5F457
331
5F473
  5
5F479
331
5F48D
  5
5F4A4
331
5F3C0
  5
5F3C0
331
5F3E2
  5
5F3E4
331
5F404
  5
5F406
331
5F462
  5
5F469
331
5F484
  5
5F48A
331
5F3AF
  5
5F3AF
331
5F395
  5
5F395
331
5F3F3
  5
5F3F5
331
5F471
  5
5F477
331
5F48B
  5
5F4A1
331
5F3BE
  5
5F3BE
331
5F460
  5
5F466
331
5F482
  5
5F488
331
5F3CF
  5
5F3CF
331
5F3F1
  5
5F3F3
331
5F44F
  5
5F455
  0
SORTENTSTABLE
  5
43669
102
{ACAD_REACTORS
330
43668
102
}
330
43668
100
AcDbSortentsTable
330
680
  0
XRECORD
  5
5FD55
102
{ACAD_REACTORS
330
5FD54
102
}
330
5FD54
100
AcDbXrecord
280
     1
102
SHADEPLOT
 70
     0
  0
XRECORD
  5
5FD57
102
{ACAD_REACTORS
330
5FD56
102
}
330
5FD56
100
AcDbXrecord
280
     1
102
SHADEPLOT
 70
     0
  0
DIMASSOC
  5
5F6A9
102
{ACAD_REACTORS
330
5F69F
102
}
330
5F69F
100
AcDbDimAssoc
330
5F692
 90
        3
 70
     0
 71
     0
  1
AcDbOsnapPointRef
 72
     1
331
5F3F2
 73
     2
 91
        0
 40
0.9999999999999998
 10
0.0
 20
0.0
 30
2.000000000000000E+50
 75
     0
  1
AcDbOsnapPointRef
 72
     1
331
5F3C8
 73
     2
 91
        0
 40
0.9999999999999998
 10
0.0
 20
0.0
 30
2.000000000000000E+50
 75
     0
  0
DIMASSOC
  5
5F6C1
102
{ACAD_REACTORS
330
5F6B7
102
}
330
5F6B7
100
AcDbDimAssoc
330
5F6AA
 90
        3
 70
     0
 71
     0
  1
AcDbOsnapPointRef
 72
    13
331
5F45B
 73
     2
 91
        0
 40
1.570796326794896
 10
0.0
 20
0.0
 30
2.000000000000000E+50
 75
     0
  1
AcDbOsnapPointRef
 72
     1
331
5F45C
 73
     2
 91
        0
 40
4.712388980384689
 10
0.0
 20
0.0
 30
2.000000000000000E+50
 75
     0
  0
DIMASSOC
  5
5F6D9
102
{ACAD_REACTORS
330
5F6CF
102
}
330
5F6CF
100
AcDbDimAssoc
330
5F6C2
 90
        3
 70
     0
 71
     0
  1
AcDbOsnapPointRef
 72
    13
331
5F45C
 73
     2
 91
        0
 40
3.141592653589793
 10
0.0
 20
0.0
 30
2.000000000000000E+50
 75
     0
  1
AcDbOsnapPointRef
 72
    13
331
5F3EB
 73
     2
 91
        0
 40
0.0
 10
0.0
 20
0.0
 30
2.000000000000000E+50
 75
     0
  0
DIMASSOC
  5
5F73F
102
{ACAD_REACTORS
330
5F735
102
}
330
5F735
100
AcDbDimAssoc
330
5F728
 90
        2
 70
     0
 71
     0
  1
AcDbOsnapPointRef
 72
     1
331
5F45B
 73
     2
 91
        0
 40
3.141592653589793
 10
0.0
 20
0.0
 30
2.000000000000000E+50
 75
     0
  0
XRECORD
  5
5FD51
102
{ACAD_REACTORS
330
5FD50
102
}
330
5FD50
100
AcDbXrecord
280
     1
102
SHADEPLOT
 70
     0
  0
XRECORD
  5
5FD53
102
{ACAD_REACTORS
330
5FD52
102
}
330
5FD52
100
AcDbXrecord
280
     1
102
SHADEPLOT
 70
     0
  0
LAYOUT
  5
51
102
{ACAD_XDICTIONARY
360
B2
102
}
102
{ACAD_REACTORS
330
1A
102
}
330
1A
100
AcDbPlotSettings
  1

  2
none_device
  4
Letter_(8.50_x_11.00_Inches)
  6

 40
6.349999904632567
 41
6.349999904632567
 42
6.350006103515625
 43
6.350006103515625
 44
215.8999938964844
 45
279.3999938964844
 46
0.0
 47
0.0
 48
0.0
 49
0.0
140
0.0
141
0.0
142
1.0
143
1.0
 70
   688
 72
     1
 73
     1
 74
     5
  7

 75
    16
147
1.0
148
0.0
149
0.0
100
AcDbLayout
  1
\M+1838C\M+18343\M+18341\M+18345\M+183671
 70
     1
 71
     1
 10
-6.350006103515625
 20
-6.349999904632567
 11
273.0499877929688
 21
209.5499939918518
 12
0.0
 22
0.0
 32
0.0
 14
26.66999878883364
 24
20.31999878883365
 34
0.0
 15
240.0299890995025
 25
182.8799890995025
 35
0.0
146
0.0
 13
0.0
 23
0.0
 33
0.0
 16
1.0
 26
0.0
 36
0.0
 17
0.0
 27
1.0
 37
0.0
 76
     0
330
50
331
6B
  0
LAYOUT
  5
56
102
{ACAD_XDICTIONARY
360
B5
102
}
102
{ACAD_REACTORS
330
1A
102
}
330
1A
100
AcDbPlotSettings
  1

  2
none_device
  4
Letter_(8.50_x_11.00_Inches)
  6

 40
6.349999904632567
 41
6.349999904632567
 42
6.350006103515625
 43
6.350006103515625
 44
215.8999938964844
 45
279.3999938964844
 46
0.0
 47
0.0
 48
0.0
 49
0.0
140
0.0
141
0.0
142
1.0
143
1.0
 70
   688
 72
     1
 73
     1
 74
     5
  7

 75
    16
147
1.0
148
0.0
149
0.0
100
AcDbLayout
  1
\M+1838C\M+18343\M+18341\M+18345\M+183672
 70
     1
 71
     2
 10
-6.350006103515625
 20
-6.349999904632567
 11
273.0499877929688
 21
209.5499939918518
 12
0.0
 22
0.0
 32
0.0
 14
26.66999878883363
 24
20.31999878883363
 34
0.0
 15
240.0299890995026
 25
182.8799890995025
 35
0.0
146
0.0
 13
0.0
 23
0.0
 33
0.0
 16
1.0
 26
0.0
 36
0.0
 17
0.0
 27
1.0
 37
0.0
 76
     0
330
55
331
71
  0
LAYOUT
  5
22
102
{ACAD_XDICTIONARY
360
5FD4C
102
}
102
{ACAD_REACTORS
330
1A
102
}
330
1A
100
AcDbPlotSettings
  1

  2
none_device
  4
ANSI_A_(8.50_x_11.00_Inches)
  6

 40
6.349999904632567
 41
19.04999923706055
 42
6.350006103515625
 43
19.04998779296875
 44
215.8999938964844
 45
279.3999938964844
 46
0.0
 47
0.0
 48
0.0
 49
0.0
140
0.0
141
0.0
142
1.0
143
78.436453180766
 70
 11952
 72
     0
 73
     1
 74
     0
  7

 75
     0
147
0.0127491741332998
148
0.0
149
0.0
100
AcDbLayout
  1
Model
 70
     1
 71
     0
 10
0.0
 20
0.0
 11
12.0
 21
9.0
 12
0.0
 22
0.0
 32
0.0
 14
0.0
 24
0.0
 34
0.0
 15
0.0
 25
0.0
 35
0.0
146
0.0
 13
0.0
 23
0.0
 33
0.0
 16
1.0
 26
0.0
 36
0.0
 17
0.0
 27
1.0
 37
0.0
 76
     0
330
1F
  0
MLINESTYLE
  5
18
102
{ACAD_REACTORS
330
17
102
}
330
17
100
AcDbMlineStyle
  2
STANDARD
 70
     0
  3

 62
   256
 51
90.0
 52
90.0
 71
     2
 49
0.5
 62
   256
  6
BYLAYER
 49
-0.5
 62
   256
  6
BYLAYER
  0
ACDBPLACEHOLDER
  5
F
102
{ACAD_REACTORS
330
E
102
}
330
E
  0
TABLESTYLE
  5
A2
102
{ACAD_REACTORS
330
A1
102
}
330
A1
100
AcDbTableStyle
  3
Standard
 70
     0
 71
     0
 40
1.5
 41
1.5
280
     0
281
     0
  7
Standard
140
4.5
170
     2
 62
     0
 63
     7
283
     0
274
    -2
284
     1
 64
     0
275
    -2
285
     1
 65
     0
276
    -2
286
     1
 66
     0
277
    -2
287
     1
 67
     0
278
    -2
288
     1
 68
     0
279
    -2
289
     1
 69
     0
  7
Standard
140
6.0
170
     5
 62
     0
 63
     7
283
     0
274
    -2
284
     1
 64
     0
275
    -2
285
     1
 65
     0
276
    -2
286
     1
 66
     0
277
    -2
287
     1
 67
     0
278
    -2
288
     1
 68
     0
279
    -2
289
     1
 69
     0
  7
Standard
140
4.5
170
     5
 62
     0
 63
     7
283
     0
274
    -2
284
     1
 64
     0
275
    -2
285
     1
 65
     0
276
    -2
286
     1
 66
     0
277
    -2
287
     1
 67
     0
278
    -2
288
     1
 68
     0
279
    -2
289
     1
 69
     0
  0
DICTIONARYVAR
  5
B8
102
{ACAD_REACTORS
330
5E
102
}
330
5E
100
DictionaryVariables
280
     0
  1
STANDARD
  0
DICTIONARYVAR
  5
5F
102
{ACAD_REACTORS
330
5E
102
}
330
5E
100
DictionaryVariables
280
     0
  1
2
  0
DICTIONARYVAR
  5
63
102
{ACAD_REACTORS
330
5E
102
}
330
5E
100
DictionaryVariables
280
     0
  1
1
  0
DICTIONARYVAR
  5
31CE
102
{ACAD_REACTORS
330
5E
102
}
330
5E
100
DictionaryVariables
280
     0
  1

  0
XRECORD
  5
349EA
102
{ACAD_REACTORS
330
349E9
102
}
330
349E9
100
AcDbXrecord
280
     1
330
68C
330
431D
330
431E
330
4329
330
4334
330
4335
330
4B09
330
4B0A
330
5153
330
5154
330
515D
330
515E
330
516A
330
516B
330
5177
330
5178
330
85B4
330
85B5
330
8620
330
8621
330
862A
330
862B
330
8637
330
8638
330
8644
330
8645
330
9773
330
9774
330
977D
330
977E
330
978A
330
978B
330
9797
330
9798
330
BD86
330
BD87
330
BD8F
330
BD90
330
BD98
330
BDA0
330
BDA1
330
BDDD
330
BDDE
330
BDE7
330
BDE8
330
BDF4
330
BDF5
330
BE01
330
BE02
330
E473
330
E474
330
E48D
330
E48E
330
E485
330
E47C
330
E47D
330
E4CC
330
E4CD
330
E4D7
330
E4D8
330
1C63B
330
1C63C
330
1C705
330
1C706
330
1C719
330
1C71A
330
1C72E
330
1C72F
330
1C738
330
1C739
330
27043
330
27044
330
2703A
330
2703B
330
2CF2C
330
2CF2D
330
2CF38
330
2CF39
330
2CF42
330
2CF43
330
2CF4F
330
2CF50
330
2CF59
330
2CF5A
330
2FA31
330
2FA32
330
2FA3D
330
2FA3E
330
2FA4A
330
2FA4B
330
2FA54
330
2FA55
330
329D8
330
329D9
330
329E1
330
329E2
330
329EA
330
329EB
330
329F3
330
329F4
330
32E63
330
32E64
330
32E6F
330
32E70
330
32E79
330
32E7A
330
32E88
330
32E89
330
32E92
330
32E93
  0
DICTIONARY
  5
B2
330
51
100
AcDbDictionary
280
     1
281
     1
  3
ACAD_XREC_ROUNDTRIP
360
5FD4E
  3
ADSK_XREC_LAYOUTTHUMBNAIL
360
B3
  0
DICTIONARY
  5
B5
330
56
100
AcDbDictionary
280
     1
281
     1
  3
ACAD_XREC_ROUNDTRIP
360
5FD4F
  3
ADSK_XREC_LAYOUTTHUMBNAIL
360
B6
  0
DICTIONARY
  5
5FD4C
330
22
100
AcDbDictionary
280
     1
281
     1
  3
ACAD_XREC_ROUNDTRIP
360
5FD4D
  0
XRECORD
  5
5FD4E
102
{ACAD_REACTORS
330
B2
102
}
330
B2
100
AcDbXrecord
280
     1
102
SHADEPLOT
 70
     0
102
SHADEPLOTRESLEVEL
 70
     2
102
SHADEPLOTCUSTOMDPI
 70
   300
  0
XRECORD
  5
B3
102
{ACAD_REACTORS
330
B2
102
}
330
B2
100
AcDbXrecord
280
     1
310
28000000B40000008B0000000100080000000000BC61000000000000000000000001000000000000FFFFFF0000000000FFFFFF000000000000000000000000000000000000000000000000000000000000000000330000006600000099000000CC000000FF00000000330000333300006633000099330000CC330000FF3300
310
0000660000336600006666000099660000CC660000FF66000000990000339900006699000099990000CC990000FF99000000CC000033CC000066CC000099CC0000CCCC0000FFCC000000FF000033FF000066FF000099FF0000CCFF0000FFFF000000003300330033006600330099003300CC003300FF003300003333003333
310
33006633330099333300CC333300FF33330000663300336633006666330099663300CC663300FF66330000993300339933006699330099993300CC993300FF99330000CC330033CC330066CC330099CC3300CCCC3300FFCC330000FF330033FF330066FF330099FF3300CCFF3300FFFF330000006600330066006600660099
310
006600CC006600FF00660000336600333366006633660099336600CC336600FF33660000666600336666006666660099666600CC666600FF66660000996600339966006699660099996600CC996600FF99660000CC660033CC660066CC660099CC6600CCCC6600FFCC660000FF660033FF660066FF660099FF6600CCFF6600
310
FFFF660000009900330099006600990099009900CC009900FF00990000339900333399006633990099339900CC339900FF33990000669900336699006666990099669900CC669900FF66990000999900339999006699990099999900CC999900FF99990000CC990033CC990066CC990099CC9900CCCC9900FFCC990000FF99
310
0033FF990066FF990099FF9900CCFF9900FFFF99000000CC003300CC006600CC009900CC00CC00CC00FF00CC000033CC003333CC006633CC009933CC00CC33CC00FF33CC000066CC003366CC006666CC009966CC00CC66CC00FF66CC000099CC003399CC006699CC009999CC00CC99CC00FF99CC0000CCCC0033CCCC0066CC
310
CC0099CCCC00CCCCCC00FFCCCC0000FFCC0033FFCC0066FFCC0099FFCC00CCFFCC00FFFFCC000000FF003300FF006600FF009900FF00CC00FF00FF00FF000033FF003333FF006633FF009933FF00CC33FF00FF33FF000066FF003366FF006666FF009966FF00CC66FF00FF66FF000099FF003399FF006699FF009999FF00CC
310
99FF00FF99FF0000CCFF0033CCFF0066CCFF0099CCFF00CCCCFF00FFCCFF0000FFFF0033FFFF0066FFFF0099FFFF00CCFFFF00FFFFFF00000000000D0D0D001A1A1A00282828003535350043434300505050005D5D5D006B6B6B00787878008686860093939300A1A1A100AEAEAE00BBBBBB00C9C9C900D6D6D600E4E4E400
310
F1F1F100FFFFFF0000000000000000000000000000000000000000000000000000000000000000000000000000000000EFEFEFE2E2E2E2E2E2E2E2E2E2E2E2E2E2E2E2E2E2E2E2E2E2E2E2E2E2E2E2E2E2E2E2E2E2E2E2E2E2E2E2E2E2E2E2E2E2E2E2E2E2E2E2E2E2E2E2E2E2E2E2E2E2E2E2E2E2E2E2E2E2E2E2E2E2E2E2
310
E2E2E2E2E2E2E2E2E2E2E2E2E2E2E2E2E2E2E2E2E2E2E2E2E2E2E2E2E2E2E2E2E2E2E2E2E2E2E2E2E2E2E2E2E2E2E2E2E2E2E2E2E2E2E2E2E2E2E2E2E2E2E2E2E2E2E2E2E2E2E2E2E2E2E2E2E2E2E2E2E2E2E2E2E2E2E2E2E2E2E2E2E2E2E2E2E2E2E2E2E2E2E2E2E2E2E2E2E2E2E2E2E2E2E2E2E2E2E2E2E2E2E2E2E2E2E2
310
E2E2E2E2E2E2E2E2E2E2E2E2E2E2E2E2E2E2E2E2E2E2E2E2E2E2E2E2E2E2E2E2E2E2E2E2E2E2E2E2E2E2E2E2E2E2E2E2E2E2E2E2E2E2E2E2E2E2E2E2E2E2E2E2E2E2E2E2E2E2E2E2E2E2E2E2E2E2E2E2E2E2E2E2E2E2E2E2E2E2E2E2E2E2E2E2E2E2E2E2E2E2E2E2E2E2E2E2E2E2E2E2E2E2E2E2E2E2E2E2E2E2E2E2E2E2E2
310
E2E2E2E2E2E2E2E2E2E2E2E2E2E2E2E2E2E2E2E2E2E2E2E2E2E2E2E2F5F5F5F5F5F5F5F5F5F5F5F5F5F5F5F5F5F5F5F5F5F5F5F5F5F5F5F5F5F5F5F5F5F5F5F5F5F5F5F5F5F5F5F5F5F5F5F5F5F5F5F5F5F5F5F5F5F5F5F5F5F5F5F5F5F5F5F5F5F5F5F5F5F5F5F5F5F5F5F5F5F5F5F5F5F5F5F5F5F5F5F5F5F5F5F5F5F5F5
310
F5F5F5F5F5F5F5F5F5F5F5F5F5F5F5F5F5F5F5F5F5F5F5F5F5F5F5F5F5F5F5F5F5F5F5F5F5F5F5F5F5F5F5F5F5F5F5F5F5F5F5F5F5F5F5F5F5F5F5F5F5F5F5F5F5F5F5F5F5F5F5F5F5F5F5F5F5F5F5E2E2F5F5F5F5F5F5F5F5F5F5F5F5F5F5F5F5F5F5F5F5F5F5F5F5F5F5F5F5F5F5F5F5F5F5F5F5F5F5F5F5F5F5F5F5F5F5
310
F5F5F5F5F5F5F5F5F5F5F5F5F5F5F5F5F5F5F5F5F5F5F5F5F5F5F5F5F5F5F5F5F5F5F5F5F5F5F5F5F5F5F5F5F5F5F5F5F5F5F5F5F5F5F5F5F5F5F5F5F5F5F5F5F5F5F5F5F5F5F5F5F5F5F5F5F5F5F5F5F5F5F5F5F5F5F5F5F5F5F5F5F5F5F5F5F5F5F5F5F5F5F5F5F5F5F5F5F5F5F5F5F5F5F5F5F5F5F5F5F5F5F5F5F5F5F5
310
F5F5F5F5F5E2E2F5F5F5F5F5F5F5F5F5F5F5F5F5F5F5F5F5F5F5F5F5F5F5F5F5F5F5F5F5F5F5F5F5F5F5F5F5F5F5F5F5F5F5F5F5F5F5F5F5F5F5F5F5F5F5F5F5F5F5F5F5F5F5F5F5F5F5F5F5F5F5F5F5F5F5F5F5F5F5F5F5F5F5F5F5F5F5F5F5F5F5F5F5F5F5F5F5F5F5F5F5F5F5F5F5F5F5F5F5F5F5F5F5F5F5F5F5F5F5F5
310
F5F5F5F5F5F5F5F5F5F5F5F5F5F5F5F5F5F5F5F5F5F5F5F5F5F5F5F5F5F5F5F5F5F5F5F5F5F5F5F5F5F5F5F5F5F5F5F5F5F5F5F5F5F5F5F5F5F5E2E2F5F5F5F5E2E2E2E2E2E2E2E2F5F5F5F5F5F5F5F5F5E2E2E2E2E2E2E2E2E2E2E2E2E2E2E2F5F5F5F5F5F5F5F5F5E2E2E2E2E2E2E2E2E2E2E2E2E2E2E2E2F5F5F5F5F5F5
310
F5F5E2E2E2E2E2E2E2E2E2E2E2E2E2E2E2E2F5F5F5F5F5F5F5F5E2E2E2E2E2E2E2E2E2E2E2E2E2E2E2E2F5F5F5F5F5F5F5F5E2E2E2E2E2E2E2E2E2E2E2E2E2E2E2E2F5F5F5F5F5F5F5F5F5E2E2E2E2E2E2E2E2E2E2E2E2E2E2E2F5F5F5F5F5F5F5F5F5E2E2E2E2E2E2E2E2F5F5F5F5E2E2F5F5F5F5E2F5F5F5F5F5F5F5F5F5
310
F5F5F5F5F5F5F5F5F5F5F5F5F5F5F5F5F5F5F5F5F5F5F5F5F5F5F5F5F5F5F5F5F5F5F5F5F5F5F5F5F5F5F5F5F5F5F5F5F5F5F5F5F5F5F5F5F5F5F5F5F5F5F5F5F5F5F5F5F5F5F5F5F5F5F5F5F5F5F5F5F5F5F5F5F5F5F5F5F5F5F5F5F5F5F5F5F5F5F5F5F5F5F5F5F5F5F5F5F5F5F5F5F5F5F5F5F5F5F5F5F5F5F5F5F5F5F5
310
F5F5F5F5F5F5F5F5F5F5F5F5F5F5F5F5F5F5F5F5F5F5F5F5F5F5F5F5F5F5F5F5E2F5F5F5F5E2E2F5F5F5F5E2F5F5F5F5F5F5F5F5F5F5F5F5F5F5F5F5F5F5F5F5F5F5F5F5F5F5F5F5F5F5F5F5F5F5F5F5F5F5F5F5F5F5F5F5F5F5F5F5F5F5F5F5F5F5F5F5F5F5F5F5F5F5F5F5F5F5F5F5F5F5F5F5F5F5F5F5F5F5F5F5F5F5F5
310
F5F5F5F5F5F5F5F5F5F5F5F5F5F5F5F5F5F5F5F5F5F5F5F5F5F5F5F5F5F5F5F5F5F5F5F5F5F5F5F5F5F5F5F5F5F5F5F5F5F5F5F5F5F5F5F5F5F5F5F5F5F5F5F5F5F5F5F5F5F5F5F5F5F5F5F5F5F5F5F5F5F5F5F5F5E2F5F5F5F5E2E2F5F5F5F5E2F5F5F5F5F5F5F5F5F5F5F5F5F5F5F5F5F5F5F5F5F5F5F5F5F5F5F5F5F5F5
310
F5F5F5F5F5F5F5F5F5F5F5F5F5F5F5F5F5F5F5F5F5F5F5F5F5F5F5F5F5F5F5F5F5F5F5F5F5F5F5F5F5F5F5F5F5F5F5F5F5F5F5F5F5F5F5F5F5F5F5F5F5F5F5F5F5F5F5F5F5F5F5F5F5F5F5F5F5F5F5F5F5F5F5F5F5F5F5F5F5F5F5F5F5F5F5F5F5F5F5F5F5F5F5F5F5F5F5F5F5F5F5F5F5F5F5F5F5F5F5F5F5F5F5F5F5F5F5
310
F5F5F5F5F5F5F5F5F5F5F5E2F5F5F5F5E2E2F5F5F5F5E2F5F5F5F5F5F5F5F5F5F5F5F5F5F5F5F5F5F5F5F5F5F5F5F5F5F5F5F5F5F5F5F5F5F5F5F5F5F5F5F5F5F5F5F5F5F5F5F5F5F5F5F5F5F5F5F5F5F5F5F5F5F5F5F5F5F5F5F5F5F5F5F5F5F5F5F5F5F5F5F5F5F5F5F5F5F5F5F5F5F5F5F5F5F5F5F5F5F5F5F5F5F5F5F5
310
F5F5F5F5F5F5F5F5F5F5F5F5F5F5F5F5F5F5F5F5F5F5F5F5F5F5F5F5F5F5F5F5F5F5F5F5F5F5F5F5F5F5F5F5F5F5F5F5F5F5F5F5F5F5F5F5F5F5F5F5F5F5F5F5E2F5F5F5F5E2E2F5F5F5F5E2F5F5F5F5F5F5F5F5F5F5F5F5F5F5F5F5F5F5F5F5F5F5F5F5F5F5F5F5F5F5F5F5F5F5F5F5F5F5F5F5F5F5F5F5F5F5F5F5F5F5F5
310
F5F5F5F5F5F5F5F5F5F5F5F5F5F5F5F5F5F5F5F5F5F5F5F5F5F5F5F5F5F5F5F5F5F5F5F5F5F5F5F5F5F5F5F5F5F5F5F5F5F5F5F5F5F5F5F5F5F5F5F5F5F5F5F5F5F5F5F5F5F5F5F5F5F5F5F5F5F5F5F5F5F5F5F5F5F5F5F5F5F5F5F5F5F5F5F5F5F5F5F5F5F5F5F5F5F5F5F5F5F5F5F5F5F5F5F5F5E2F5F5F5F5E2E2F5F5F5
310
F5E2F5F5F5F5F5F5F5F5F5F5F5F5F5F5F5F5F5F5F5F5F5F5F5F5F5F5F5F5F5F5F5F5F5F5F5F5F5F5F5F5F5F5F5F5F5F5F5F5F5F5F5F5F5F5F5F5F5F5F5F5F5F5F5F5F5F5F5F5F5F5F5F5F5F5F5F5F5F5F5F5F5F5F5F5F5F5F5F5F5F5F5F5F5F5F5F5F5F5F5F5F5F5F5F5F5F5F5F5F5F5F5F5F5F5F5F5F5F5F5F5F5F5F5F5F5
310
F5F5F5F5F5F5F5F5F5F5F5F5F5F5F5F5F5F5F5F5F5F5F5F5F5F5F5F5F5F5F5F5F5F5F5F5F5F5F5F5F5F5F5E2F5F5F5F5E2E2F5F5F5F5E2F5F5F5F5F5F5F5F5F5F5F5F5F5F5F5F5F5F5F5F5F5F5F5F5F5F5F5F5F5F5F5F5F5F5F5F5F5F5F5F5F5F5F5F5F5F5F5F5F5F5F5F5F5F5F5F5F5F5F5F5F5F5F5F5F5F5F5F5F5F5F5F5
310
F5F5F5F5F5F5F5F5F5F5F5F5F5F5F5F5F5F5F5F5F5F5F5F5F5F5F5F5F5F5F5F5F5F5F5F5F5F5F5F5F5F5F5F5F5F5F5F5F5F5F5F5F5F5F5F5F5F5F5F5F5F5F5F5F5F5F5F5F5F5F5F5F5F5F5F5F5F5F5F5F5F5F5F5F5F5F5F5F5F5F5F5F5F5F5F5E2F5F5F5F5E2E2F5F5F5F5E2F5F5F5F5F5F5F5F5F5F5F5F5F5F5F5F5F5F5F5
310
F5F5F5F5F5F5F5F5F5F5F5F5F5F5F5F5F5F5F5F5F5F5F5F5F5F5F5F5F5F5F5F5F5F5F5F5F5F5F5F5F5F5F5F5F5F5F5F5F5F5F5F5F5F5F5F5F5F5F5F5F5F5F5F5F5F5F5F5F5F5F5F5F5F5F5F5F5F5F5F5F5F5F5F5F5F5F5F5F5F5F5F5F5F5F5F5F5F5F5F5F5F5F5F5F5F5F5F5F5F5F5F5F5F5F5F5F5F5F5F5F5F5F5F5F5F5F5
310
F5F5F5F5F5F5F5F5F5F5F5F5F5F5F5F5F5F5F5F5F5F5E2F5F5F5F5E2E2F5F5F5F5F5F5F5F5F5F5F5F5F5F5F5F5F5F5F5F5F5F5F5F5F5F5F5F5F5F5F5F5F5F5F5F5F5F5F5F5F5F5F5F5F5F5F5F5F5F5F5F5F5F5F5F5F5F5F5F5F5F5F5F5F5F5F5F5F5F5F5F5F5F5F5F5F5F5F5F5F5F5F5F5F5F5F5F5F5F5F5F5F5F5F5F5F5F5
310
F5F5F5F5F5F5F5F5F5F5F5F5F5F5F5F5F5F5F5F5F5F5F5F5F5F5F5F5F5F5F5F5F5F5F5F5F5F5F5F5F5F5F5F5F5F5F5F5F5F5F5F5F5F5F5F5F5F5F5F5F5F5F5F5F5F5F5F5F5F5F5F5F5F5F5F5F5F5F5F5E2E2F5F5F5F5F5F5F5F5F5F5F5F5F5F5F5F5F5F5F5F5F5F5F5F5F5F5F5F5F5F5F5F5F5F5F5F5F5F5F5F5F5F5F5F5F5
310
F5F5F5F5F5F5F5F5F5F5F5F5F5F5F5F5F5F5F5F5F5F5F5F5F5F5F5F5F5F5F5F5F5F5F5F5F5F5F5F5F5F5F5F5F5F5F5F5F5F5F5F5F5F5F5F5F5F5F5F5F5F5F5F5F5F5F5F5F5F5F5F5F5F5F5F5F5F5F5F5F5F5F5F5F5F5F5F5F5F5F5F5F5F5F5F5F5F5F5F5F5F5F5F5F5F5F5F5F5F5F5F5F5F5F5F5F5F5F5F5F5F5F5F5F5F5F5
310
F5F5F5F5F5F5E2E2F5F5F5F5F5F5F5F5F5F5F5F5F5F5F5F5F5F5F5F5F5F5F5F5F5F5F5F5F5F5F5F5F5F5F5F5F5F5F5F5F5F5F5F5F5F5F5F5F5F5F5F5F5F5F5F5F5F5F5F5F5F5F5F5F5F5F5F5F5F5F5F5F5F5F5F5F5F5F5F5F5F5F5F5F5F5F5F5F5F5F5F5F5F5F5F5F5F5F5F5F5F5F5F5F5F5F5F5F5F5F5F5F5F5F5F5F5F5F5
310
F5F5F5F5F5F5F5F5F5F5F5F5F5F5F5F5F5F5F5F5F5F5F5F5F5F5F5F5F5F5F5F5F5F5F5F5F5F5F5F5F5F5F5F5F5F5F5F5F5F5F5F5F5F5F5F5F5F5F5E2E2F5F5F5F5F5F5F5F5F5F5F5F5F5F5F5F5F5F5F5F5F5F5F5F5F5F5F5F5F5F5F5F5F5F5F5F5F5F5F5F5F5F5F5F5F5F5F5F5F5F5F5F5F5F5F5F5F5F5F5F5F5F5F5F5F5F5
310
F5F5F5F5F5F5F5F5F5F5F5F5F5F5F5F5F5F5F5F5F5F5F5F5F5F5F5F5F5F5F5F5F5F5F5F5F5F5F5F5F5F5F5F5F5F5F5F5F5F5F5F5F5F5F5F5F5F5F5F5F5F5F5F5F5F5F5F5F5F5F5F5F5F5F5F5F5F5F5F5F5F5F5F5F5F5F5F5F5F5F5F5F5F5F5F5F5F5F5F5F5F5F5F5F5F5F5F5F5F5F5F5E2E2F5F5F5F5F5F5F5F5F5F5F5F5F5
310
F5F5F5F5F5F5F5F5E2E2E2E2E2E2E2E2E2E2E2E2E2E2E2E2E2E2E2E2E2E2E2E2E2E2E2E2E2E2E2E2E2E2E2E2E2E2E2E2E2E2E2E2E2E2E2E2E2E2E2E2E2E2E2E2E2E2E2E2E2E2E2E2E2E2E2E2E2E2E2E2E2E2E2E2E2E2E2E2E2E2E2E2E2E2E2E2E2E2E2E2E2E2E2E2E2E2E2E2E2E2E2E2E2E2E2E2E2E2E2E2E2E2E2E2E2E2E2
310
E2E2E2E2E2E2E2E2E2E2E2E2E2E2E2E2E2F5F5F5F5F5F5F5F5F5F5F5F5F5F5F5F5F5F5F5F5F5E2E2F5F5F5F5F5F5F5F5F5F5F5F5F5F5F5F5F5F5F5F5F5E22D2D2D2DF5F5F5F5E2F5F5F5F5F5F5F52DF5F5F5F5F5F5F5F5F5F5F5F5F5F5F5F5F5F5E2F5F5F5F5F5F5F5F5F5F5F5F5F5F5F5F5F5F5F5F5F5F5F5F5F5F5F5F5F5
310
F5F5F5F5F5F5F5F5F5F5F5F5F5F5F5F5F5F5F5F5F5F5F5F5F5F5F5F5F5F5F5F5F5F5F5F5F5F5F5F5F5F5F5F5F5F5F5F5F5F5F5F5F5F5F5F5F5F5F5F5F5F5F5F5F5F5F5F5F5E2F5F5F5F5F5F5F5F5F5F5F5F5F5F5F5F5F5F5F5F5F5E2E2F5F5F5F5F5F5F5F5F5F5F5F5F5F5F5F5F5F5F5F5F5E2DCF5F52DF5F5F5F5E2F5F5F5
310
F5F5F5F52DF5F5F5F5F5F5F5F5F5F5F5F5F5F5F5F5F5F5E2F5F5F5F5F5F5F5F5F5F5F5F5F5F5F5F5F5F5F5F5F5F5F5F5F5F5F5F5F5F5F5F5F5F5F5F5F5F5F5F5F5F5F5F5F5F5F5F5F5F5F5F5F5F5F5F5F5F5F5F5F5F5F5F5F5F5F5F5F5F5F5F5F5F5F5F5F5F5F5F5F5F5F5F5F5F5F5F5F5F5F5F5F5F5F5F5F5F5E2F5F5F5F5
310
F5F5F5F5F5F5F5F5F5F5F5F5F5F5F5F5F5E2E2F5F5F5F5F5F5F5F5F5F5F5F5F5F5F5F5F5F5F5F5F5E2DCF5F52DF5F5F5F5E2F5F5F5F5F5F5F52DF5F5F5F5F5F5F5F5F5F5F5F5F5F5F5F5F5F5E2E2F5F5F5F5F5F5F5F5F5F5F5F5F5F5F5F5F5F5F5F5F5F5F5F5F5F5F5F5F5F5F5F5F5F5F5F5F5F5F5F5F5F5F5F5F5F5F5F5F5
310
F5F5F5F5F5F5F5F5F5F5F5F5F5F5F5F5F5F5F5F5F5F5F5F5F5F5F5F5F5F5F5F5F5F5F5F5F5F5F5F5F5F5F5F5F5F5F5F5E2F5F5F5F5F5F5F5F5F5F5F5F5F5F5F5F5F5F5F5F5F5E2E2F5F5F5F5F5F5F5F5F5F5F5F5F5F5F5F5F5F5F5F5F5E2BEF5F52D2D2D2D2D2D2D2D2D2D2D2D2D2DE2E2E2E2E2E2E2E2E2E2E2E2E2E2E2E2
310
E2E2E2E2F5F5F5F5F5F5F5F5F5F5F5F5F5F5F5F5F5F5F5F5F5F5F5F5F5F5F5F5F5F5F5F5F5F5F5F5F5F5F5F5F5F5F5F5F5F5F5F5F5F5F5F5F5F5F5F5F5F5F5F5F5F5F5F5F5F5F5F5F5F5F5F5F5F5F5F5F5F5F5F5F5F5F5F5F5F5F5F5F5F5F5F5F5F5F5F5F5E2F5F5F5F5F5F5F5F5F5F5F5F5F5F5F5F5F5F5F5F5F5E2E2F5F5
310
F5F5E2F5F5F5F5F5F5F5F5F5F5F5F5F5F5F5F5E2DCF5F5F5F5F5F5F5E2F5F5F5F5F5F5F5E2F5F5F5F5F5F5F5F5F5F5F5F5F5F5F5F5F5F5F5F5F5F5F5F5F5F5F5F5F5F5F5F5F5F5F5F5F5F5F5F5F5F5F5F5F5F5F5F5F5F5F5F5F5F5F5F5F5F5F5F5F5F5F5F5F5F5F5F5F5F5F5F5F5F5F5F5F5F5F5F5F5F5F5F5F5F5F5F5F5F5
310
F5F5F5F5F5F5F5F5F5F5F5F5F5F5F5F5F5F5F5F5F5F5F5F5F5F5F5E2F5F5F5F5F5F5F5F5F5F5F5F5F5F5F5F5E2F5F5F5F5E2E2F5F5F5F5E2F5F5F5F5F5F5F5F5F5F5F5F5F5F5F5F5E2F5F5F5F5F5F5F5F5E2F5F5F5F5F5F5F5E2F5F5F5F5F5F5F5F5F5F5F5F5F5F5F5F5F5F5F5F5F5F5F5F5F5F5F5F5F5F5F5F5F5F5F5F5F5
310
F5F5F5F5F5F5F5F5F5F5F5F5F5F5F5F5F5F5F5F5F5F5F5F5F5F5F5F5F5F5F5F5F5F5F5F5F5F5F5F5F5F5F5F5F5F5F5F5F5F5F5F5F5F5F5F5F5F5F5F5F5F5F5F5F5F5F5F5F5F5F5F5F5F5F5F5F5F5F5F5E2F5F5F5F5F5F5F5F5F5F5F5F5F5F5F5F5E2F5F5F5F5E2E2F5F5F5F5E2F5F5F5F5F5F5F5F5F5F5F5F5F5F5F5F5E2E2
310
E2E2E2E2E2E2E2E2F5F5F5F5F5F5F5E2F5F5F5F5F5F5F5F5F5F5F5F5F5F5F5F5F5F5F5F5F5F5F5F5F5F5F5F5F5F5F5F5F5F5F5F5F5F5F5F5F5F5F5F5F5F5F5F5F5F5F5F5F5F5F5F5F5F5F5F5F5F5F5F5F5F5F5F5F5F5F5F5F5F5F5F5F5F5F5F5F5F5F5F5F5F5F5F5F5F5F5F5F5F5F5F5F5F5F5F5F5F5F5F5F5F5F5F5F5F5F5
310
F5F5F5F5F5F5E2F5F5F5F5F5F5F5F5F5F5F5F5F5F5F5F5E2F5F5F5F5E2E2F5F5F5F5E2F5F5F5F5F5F5F5F5F5F5F5F5F5F5F5F5E2E2E2E2F5F5F5F5F5F5F5F5F5F5F5F5F5E2F5F5F5F5F5F5F5F5F5F5F5F5F5F5F5F5F5F5F5F5F5F5F5F5F5F5F5F5F5F5F5F5F5F5F5F5F5F5F5F5F5F5F5F5F5F5F5F5F5F5F5F5F5F5F5F5F5F5
310
F5F5F5F5F5F5F5F5F5F5F5F5F5F5F5F5F5F5F5F5F5F5F5F5F5F5F5F5F5F5F5F5F5F5F5F5F5F5F5F5F5F5F5F5F5F5F5F5F5F5F5F5F5F5F5F5F5F5F5E2F5F5F5F5F5F5F5F5F5F5F5F5F5F5F5F5E2F5F5F5F5E2E2F5F5F5F5E2F5F5F5F5F5F5F5F5F5F5F5F5F5F5F5F5E2E2E2E2F5F5F5F5F5F5F5F5F5F5F5F5F5E2F5F5F5F5F5
310
F5F5F5F5F5F5F5F5F5F5F5F5F5F5F5F5F5F5F5F5F5F5F5F5F5F5F5F5F5F5F5F5F5F5F5F5F5F5F5F5F5F5F5F5F5F5F5F5F5F5F5F5F5F5F5F5F5F5F5F5F5F5F5F5F5F5F5F5F5F5F5F5F5F5F5F5F5F5F5F5F5F5F5F5F5F5F5F5F5F5F5F5F5F5F5F5F5F5F5F5F5F5F5F5F5F5F5F5F5F5F5F5E2F5F5F5F5F5F5F5F5F5F5F5F5F5F5
310
F5F5E2F5F5F5F5E2E2F5F5F5F5E2F5F5F5F5F5F5F5F5F5F5F5F5F5F5F5F5E2F5F5F5F5F5F5F5F5F5F5F5F5F5F5F5F5E2F5F5F5F5F5F5F5F5F5F5F5F5F5F5F5F5F5F5F5F5F5F5F5F5F5F5F5F5F5F5F5F5F5F5F5F5F5F5F5F5F5F5F5F5F5F5F5F5F5F5F5F5F5F5F5F5F5F5F5F5F5F5F5F5F5F5F5F5F5F5F5F5F5F5F5F5F5F5F5
310
F5F5F5F5F5F5F5F5F5F5F5F5F5F5F5F5F5F5F5F5F5F5F5F5F5F5F5F5F5F5F5F5F5F5F5F5F5F5E2F5F5F5F5F5F5F5F5F5F5F5F5F5F5F5F5E2F5F5F5F5E2E2F5F5F5F5E2F5F5F5F5F5F5F5F5F5F5F5F5F5F5F5F5E2E2E2E2E2E2E2E2E2E2E2E2E2E2E2E2E2E2F5F5F5F5F5F5F5F5F5F5F5F5F5F5F5F5F5F5F5F5F5F5F5F5F5F5
310
F5F5F5F5F5F5F5F5F5F5F5F5F5F5F5F5F5F5F5F5F5F5F5F5F5F5F5F5F5F5F5F5F5F5F5F5F5F5F5F5F5F5F5F5F5F5F5F5F5F5F5F5F5F5F5F5F5F5F5F5F5F5F5F5F5F5F5F5F5F5F5F5F5F5F5F5F5F5F5F5F5F5F5F5F5F5F5F5F5F5F5E2F5F5F5F5F5F5F5F5F5F5F5F5F5F5F5F5E2F5F5F5F5E2E2F5F5F5F5E2F5F5F5F5F5F5F5
310
F5F5F5F5F5F5F5F5F5E2E2E2F5F5F5F5F5F5F5F5F5F5F5F5F5F5F5F5F5F5F5F5F5F5F5F5F5F5F5F5F5F5F5F5F5F5F5F5F5F5F5F5F5F5F5F5F5F5F5F5F5F5F5F5F5F5F5F5F5F5F5F5F5F5F5F5F5F5F5F5F5F5F5F5F5F5F5F5F5F5F5F5F5F5F5F5F5F5F5F5F5F5F5F5F5F5F5F5F5F5F5F5F5F5F5F5F5F5F5F5F5F5F5F5F5F5F5
310
F5F5F5F5F5F5F5F5F5F5F5F5F5F5F5F5F5E2F5F5F5F5F5F5F5F5F5F5F5F5F5F5F5F5E2F5F5F5F5E2E2F5F5F5F5E2F5F5F5F5F5F5F5F5F5F5F5F5F5F5F5F5E2E2E2F5F5F5F5F5F5F5F5F5F5F5F5F5F5F5F5F5F5F5F5F5F5F5F5F5F5F5F5F5F5F5F5F5F5F5F5F5F5F5F5F5F5F5F5F5F5F5F5F5F5F5F5F5F5F5F5F5F5F5F5F5F5
310
F5F5F5F5F5F5F5F5F5F5F5F5F5F5F5F5F5F5F5F5F5F5F5F5F5F5F5F5F5F5F5F5F5F5F5F5F5F5F5F5F5F5F5F5F5F5F5F5F5F5F5F5F5F5F5F5F5F5F5F5F5F5F5F5F5F5F5F5F5F5E2F5F5F5F5F5F5F5F5F5F5F5F5F5F5F5F5E2F5F5F5F5E2E2F5F5F5F5E2F5F5F5F5F5F5F5F5F5F5F5F5F5F5F5F5E2F5F5F5F5F5F5F5F5F5F5F5
310
F5F5F5F5F5F5F5F5F5F5F5F5F5F5F5F5F5F5F5F5F5F5F5F5F5F5F5F5F5F5F5F5F5F5F5F5F5F5F5F5F5F5F5F5F5F5F5F5F5F5F5F5F5F5F5F5F5F5F5F5F5F5F5F5F5F5F5F5F5F5F5F5F5F5F5F5F5F5F5F5F5F5F5F5F5F5F5F5F5F5F5F5F5F5F5F5F5F5F5F5F5F5F5F5F5F5F5F5F5F5F5F5F5F5F5F5F5F5F5F5F5F5F5E2F5F5F5
310
F5F5F5F5F5F5F5F5F5F5F5F5F5E2F5F5F5F5E2E2F5F5F5F5E2F5F5F5F5F5F5F5F5F5F5F5F5F5F5F5F5E20F0F0F0F0F0F0F0F0F0F0FF5F5F5F5F5F5F5F5F5F5F5F5F5F5F5F5F5F5F5F5F5F5F5F5F5F5F5F5F5F5F5F5F5F5F5F5F5F5F5F5F5F5F5F5F5F5F5F5F5F5F5F5F5F5F5F5F5F5F5F5F5F5F5F5F5F5F5F5F5F5F5F5F5F5
310
F5F5F5F5F5F5F5F5F5F5F5F5F5F5F5F5F5F5F5F5F5F5F5F5F5F5F5F5F5F5F5F5F5F5F5F5F5F5F5F5F5F5F5F5F5F5F5F5F5E2F5F5F5F5F5F5F5F5F5F5F5F5F5F5F5F5E2F5F5F5F5E2E2F5F5F5F5E2F5F5F5F5F5F5F5F5F5F5F5F5F5F5F5F5E20F0F0F0F0F0F0F0F0F0FF5F5F5F5F5F5F5F5F5F5F5F5F5F5F5F5F5F5F5F5F5F5
310
F5F5F5F5F5F5F5F5F5F5F5F5F5F5F5F5F5F5F5F5F5F5F5F5F5F5F5F5F5F5F5F5F5F5F5F5F5F5F5F5F5F5F5F5F5F5F5F5F5F5F5F5F5F5F5F5F5F5F5F5F5F5F5F5F5F5F5F5F5F5F5F5F5F5F5F5F5F5F5F5F5F5F5F5F5F5F5F5F5F5F5F5F5F5F5F5F5F5F5F5F5F5E2F5F5F5F5F5F5F5F5F5F5F5F5F5F5F5F5E2F5F5F5F5E2E2F5
310
F5F5F5E2F5F5F5F5F5F5F5F5F5F5F5F5F5F5F5F5E2F5F5F5F5F5F5F5F5F5F5F5F5F5F5F5F5F5F5F5F5F5F5F5F5F5F5F5F5F5F5F5F5F5F5F5F5F5F5F5F5F5F5F5F5F5F5F5F5F5F5F5F5F5F5F5F5F5F5F5F5F5F5F5F5F5F5F5F5F5F5F5F5F5F5F5F5F5F5F5F5F5F5F5F5F5F5F5F5F5F5F5F5F5F5F5F5F5F5F5F5F5F5F5F5F5F5
310
F5F5F5F5F5F5F5F5F5F5F5F5F5F5F5F5F5F5F5F5F5F5F5F5F5F5F5F5E2F5F5F5F5F5F5F5F5F5F5F5F5F5F5F5F5E2F5F5F5F5E2E2F5F5F5F5E2F5F5F5F5F5F5F5F5F5F5F5F5F5F5F5F5E2F5F5F5F5F5F5F5F5F5F5F5F5F5F5F5F5F5F5F5F5F5F5F5F5F5F5F5F5F5F5F5F5F5F5F5F5F5F5F5F5F5F5F5F5F5F5F5F5F5F5F5F5F5
310
F5F5F5F5F5F5F5F5F5F5F5F5F5F5F5F5F5F5F5F5F5F5F5F5F5F5F5F5F5F5F5F5F5F5F5F5F5F5F5F5F5F5F5F5F5F5F5F5F5F5F5F5F5F5F5F5F5F5F5F5F5F5F5F5F5F5F5F5F5F5F5F5F5F5F5F5F5F5F5F5F5E2F5F5F5F5F5F5F5F5F5F5F5F5F5F5F5F5E2F5F5F5F5E2E2F5F5F5F5E2F5F5F5F5F5F5F5F5F5F5F5F5F5F5F5F5E2
310
F5F5F5F5F5F5F5F5F5F5F5F5F5F5F5F5F5F5F5F5F5F5F5F5F5F5F5F5F5F5F5F5F5F5F5F5F5F5F5F5F5F5F5F5F5F5F5F5F5F5F5F5F5F5F5F5F5F5F5F5F5F5F5F5F5F5F5F5F5F5F5F5F5F5F5F5F5F5F5F5F5F5F5F5F5F5F5F5F5F5F5F5F5F5F5F5F5F5F5F5F5F5F5F5F5F5F5F5F5F5F5F5F5F5F5F5F5F5F5F5F5F5F5F5F5F5F5
310
F5F5F5F5F5F5F5E2F5F5F5F5F5F5F5F5F5F5F5F5F5F5F5F5E2F5F5F5F5E2E2F5F5F5F5E2F5F5F5F5F5F5F5F5F5F5F5F5F5F5F5F5E2F5F5F5F5F5F5F5F5F5F5F5F5F5F5F5F5F5F5F5F5F5F5F5F5F5F5F5F5F5F5F5F5F5F5F5F5F5F5F5F5F5F5F5F5F5F5F5F5F5F5F5F5F5F5F5F5F5F5F5F5F5F5F5F5F5F5F5F5F5F5F5F5F5F5
310
F5F5F5F5F5F5F5F5F5F5F5F5F5F5F5F5F5F5F5F5F5F5F5F5F5F5F5F5F5F5F5F5F5F5F5F5F5F5F5F5F5F5F5F5F5F5F5F5F5F5F5F5F5F5F5F5F5F5F5F5E2F5F5F5F5F5F5F5F5F5F5F5F5F5F5F5F5E2F5F5F5F5E2E2F5F5F5F5F5F5F5F5F5F5F5F5F5F5F5F5F5F5F5F5F5E2F5F5F5F5F5F5F5F5F5F5F5F5F5F5F5F5F5F5F5F5F5
310
F5F5F5F5F5F5F5F5F5F5F5F5F5F5F5F5F5F5F5F5F5F5F5F5F5F5F5F5F5F5F5F5F5F5F5F5F5F5F5F5F5F5F5F5F5F5F5F5F5F5F5F5F5F5F5F5F5F5F5F5F5F5F5F5F5F5F5F5F5F5F5F5F5F5F5F5F5F5F5F5F5F5F5F5F5F5F5F5F5F5F5F5F5F5F5F5F5F5F5F5F5F5F5F5F5F5F5F5F5F5F5F5F5E2F5F5F5F5F5F5F5F5F5F5F5F5F5
310
F5F5F5F5F5F5F5F5E2E2F5F5F5F5F5F5F5F5F5F5F5F5F5F5F5F5F5F5F5F5F5E2F5F5F5F5F5F5F5F5F5F5F5F5F5F5F5F5F5F5F5F5F5F5F5F5F5F5F5F5F5F5F5F5F5F5F5F5F5F5F5F5F5F5F5F5F5F5F5F5F5F5F5F5F5F5F5F5F5F5F5F5F5F5F5F5F5F5F5F5F5F5F5F5F5F5F5F5F5F5F5F5F5F5F5F5F5F5F5F5F5F5F5F5F5F5F5
310
F5F5F5F5F5F5F5F5F5F5F5F5F5F5F5F5F5F5F5F5F5F5F5F5F5F5F5F5F5F5F5F5F5F5F5F5F5F5F5E2F5F5F5F5F5F5F5F5F5F5F5F5F5F5F5F5F5F5F5F5F5E2E2F5F5F5F5F5F5F5F5F5F5F5F5F5F5F5F5F5F5F5F5F5E2F5F5F5F5F5F5F5F5F5F5F5F5F5F5F5F5F5F5F5F5F5F5F5F5F5F5F5F5F5F5F5F5F5F5F5F5F5F5F5F5F5F5
310
F5F5F5F5F5F5F5F5F5F5F5F5F5F5F5F5F5F5F5F5F5F5F5F5F5F5F5F5F5F5F5F5F5F5F5F5F5F5F5F5F5F5F5F5F5F5F5F5F5F5F5F5F5F5F5F5F5F5F5F5F5F5F5F5F5F5F5F5F5F5F5F5F5F5F5F5F5F5F5F5F5F5F5F5F5F5F5F5F5F5F5F5E2F5F5F5F5F5F5F5F5F5F5F5F5F5F5F5F5F5F5F5F5F5E2E2F5F5F5F5F5F5F5F5F5F5F5
310
F5F5F5F5F5F5F5F5F5F5E2F5F5F5F5F5F5F5F5F5F5F5F5F5F5F5F5F5F5F5F5F5F5F5F5F5F5F5F5F5F5F5F5F5F5F5F5F5F5F5F5F5F5F5F5F5F5F5F5F5F5F5F5F5F5F5F5F5F5F5F5F5F5F5F5F5F5F5F5F5F5F5F5F5F5F5F5F5F5F5F5F5F5F5F5F5F5F5F5F5F5F5F5F5F5F5F5F5F5F5F5F5F5F5F5F5F5F5F5F5F5F5F5F5F5F5F5
310
F5F5F5F5F5F5F5F5F5F5F5F5F5F5F5F5F5F5E2F5F5F5F5F5F5F5F5F5F5F5F5F5F5F5F5F5F5F5F5F5E2E2F5F5F5F5F5F5F5F5F5F5F5F5F5F5F5F5F5F5F5F5F5E2F5F5F5F5F5F5F5F5F5F5F5F5F5F5F5F5F5F5F5F5F5F5F5F5F5F5F5F5F5F5F5F5F5F5F5F5F5F5F5F5F5F5F5F5F5F5F5F5F5F5F5F5F5F5F5F5F5F5F5F5F5F5F5
310
F5F5F5F5F5F5F5F5F5F5F5F5F5F5F5F5F5F5F5F5F5F5F5F5F5F5F5F5F5F5F5F5F5F5F5F5F5F5F5F5F5F5F5F5F5F5F5F5F5F5F5F5F5F5F5F5F5F5F5F5F5F5F5F5F5F5F5F5F5F5F5E2F5F5F5F5F5F5F5F5F5F5F5F5F5F5F5F5F5F5F5F5F5E2E2F5F5F5F5F5F5F5F5F5F5F5F5F5F5F5F5F5F5F5F5F5E2F5F5F5F5F5F5F5F5F5F5
310
F5F5F5F5F5F5F5F5F5F5F5F5F5F5F5F5F5F5F5F5F5F5F5F5F5F5F5F5F5F5F5F5F5F5F5F5F5F5F5F5F5F5F5F5F5F5F5F5F5F5F5F5F5F5F5F5F5F5F5F5F5F5F5F5F5F5F5F5F5F5F5F5F5F5F5F5F5F5F5F5F5F5F5F5F5F5F5F5F5F5F5F5F5F5F5F5F5F5F5F5F5F5F5F5F5F5F5F5F5F5F5F5F5F5F5F5F5F5F5F5F5F5F5F5E2F5F5
310
F5F5F5F5F5F5F5F5F5F5F5F5F5F5F5F5F5F5F5E2E2F5F5F5F5F5F5F5F5F5F5F5F5F5F5F5F5F5F5F5F5F5E2F5F5F5F5F5F5F5F5F5F5F5F5F5F5F5F5F5F5F5F5F5F5F5F5F5F5F5F5F5F5F5F5F5F5F5F5F5F5F5F5F5F5F5F5F5F5F5F5F5F5F5F5F5F5F5F5F5F5F5F5F5F5F5F5F5F5F5F5F5F5F5F5F5F5F5F5F5F5F5F5F5F5F5F5
310
F5F5F5F5F5F5F5F5F5F5F5F5F5F5F5F5F5F5F5F5F5F5F5F5F5F5F5F5F5F5F5F5F5F5F5F5F5F5F5F5F5F5F5F5F5F5F5F5F5F5E2F5F5F5F5F5F5F5F5F5F5F5F5F5F5F5F5F5F5F5F5F5E2E2F5F5F5F5F5F5F5F5F5F5F5F5F5F5F5F5F5F5F5F5F5E2F5F5F5F5F5F5F5F5F5F5F5F5F5F5F5F5F5F5F5F5F5F5F5F5F5F5F5F5F5F5F5
310
F5F5F5F5F5F5F5F5F5F5F5F5F5F5F5F5F5F5F5F5F5F5F5F5F5F5F5F5F5F5F5F5F5F5F5F5F5F5F5F5F5F5F5F5F5F5F5F5F5F5F5F5F5F5F5F5F5F5F5F5F5F5F5F5F5F5F5F5F5F5F5F5F5F5F5F5F5F5F5F5F5F5F5F5F5F5F5F5F5F5F5F5F5F5F5F5F5F5F5F5F5F5F5E2F5F5F5F5F5F5F5F5F5F5F5F5F5F5F5F5F5F5F5F5F5E2E2
310
F5F5F5F5F5F5F5F5F5F5F5F5F5F5F5F5F5F5F5F5F5E2F5F5F5F5F5F5F5F5F5F5F5F5F5F5F5F5F5F5F5F5F5F5F5F5F5F5F5F5F5F5F5F5F5F5F5F5F5F5F5F5F5F5F5F5F5F5F5F5F5F5F5F5F5F5F5F5F5F5F5F5F5F5F5F5F5F5F5F5F5F5F5F5F5F5F5F5F5F5F5F5F5F5F5F5F5F5F5F5F5F5F5F5F5F5F5F5F5F5F5F5F5F5F5F5F5
310
F5F5F5F5F5F5F5F5F5F5F5F5F5F5F5F5F5F5F5F5F5F5F5F5F5F5F5F5F5E2F5F5F5F5F5F5F5F5F5F5F5F5F5F5F5F5F5F5F5F5F5E2E2F5F5F5F5F5F5F5F5F5F5F5F5F5F5F5F5F5F5F5F5F5E2F5F5F5F5F5F5F5F5F5F5F5F5F5F5F5F5F5F5F5F5F5F5F5F5F5F5F5F5F5F5F5F5F5F5F5F5F5F5F5F5F5F5F5F5F5F5F5F5F5F5F5F5
310
F5F5F5F5F5F5F5F5F5F5F5F5F5F5F5F5F5F5F5F5F5F5F5F5F5F5F5F5F5F5F5F5F5F5F5F5F5F5F5F5F5F5F5F5F5F5F5F5F5F5F5F5F5F5F5F5F5F5F5F5F5F5F5F5F5F5F5F5F5F5F5F5F5F5F5F5F5F5F5F5F5F5E2F5F5F5F5F5F5F5F5F5F5F5F5F5F5F5F5F5F5F5F5F5E2E2F5F5F5F5E2F5F5F5F5F5F5F5F5F5F5F5F5F5F5F5F5
310
E2F5F5F5F5F5F5F5F5F5F5F5F5F5F5F5F5F5F5F5F5F5F5F5F5F5F5F5F5F5F5F5F5F5F5F5F5F5F5F5F5F5F5F5F5F5F5F5F5F5F5F5F5F5F5F5F5F5F5F5F5F5F5F5F5F5F5F5F5F5F5F5F5F5F5F5F5F5F5F5F5F5F5F5F5F5F5F5F5F5F5F5F5F5F5F5F5F5F5F5F5F5F5F5F5F5F5F5F5F5F5F5F5F5F5F5F5F5F5F5F5F5F5F5F5F5F5
310
F5F5F5F5F5F5F5F5E2F5F5F5F5F5F5F5F5F5F5F5F5F5F5F5F5E2F5F5F5F5E2E2F5F5F5F5E2F5F5F5F5F5F5F5F5F5F5F5F5F5F5F5F5E2F5F5F5F5F5F5F5F5F5F5F5F5F5F5F5F5F5F5F5F5F5F5F5F5F5F5F5F5F5F5F5F5F5F5F5F5F5F5F5F5F5F5F5F5F5F5F5F5F5F5F5F5F5F5F5F5F5F5F5F5F5F5F5F5F5F5F5F5F5F5F5F5F5
310
F5F5F5F5F5F5F5F5F5F5F5F5F5F5F5F5F5F5F5F5F5F5F5F5F5F5F5F5F5F5F5F5F5F5F5F5F5F5F5F5F5F5F5F5F5F5F5F5F5F5F5F5F5F5F5F5F5F5F5F5F5E2F5F5F5F5F5F5F5F5F5F5F5F5F5F5F5F5E2F5F5F5F5E2E2F5F5F5F5E2F5F5F5F5F5F5F5F5F5F5F5F5F5F5F5F5E2F5F5F5F5F5F5F5F5F5F5F5F5F5F5F5F5F5F5F5F5
310
F5F5F5F5F5F5F5F5F5F5F5F5F5F5F5F5F5F5F5F5F5F5F5F5F5F5F5F5F5F5F5F5F5F5F5F5F5F5F5F5F5F5F5F5F5F5F5F5F5F5F5F5F5F5F5F5F5F5F5F5F5F5F5F5F5F5F5F5F5F5F5F5F5F5F5F5F5F5F5F5F5F5F5F5F5F5F5F5F5F5F5F5F5F5F5F5F5F5F5F5F5F5F5F5F5F5F5F5F5F5F5F5F5F5E2F5F5F5F5F5F5F5F5F5F5F5F5
310
F5F5F5F5E2F5F5F5F5E2E2F5F5F5F5E2F5F5F5F5F5F5F5F5F5F5F5F5F5F5F5F5E2F5F5F5F5F5F5F5F5F5F5F5F5F5F5F5F5F5F5F5F5F5F5F5F5F5F5F5F5F5F5F5F5F5F5F5F5F5F5F5F5F5F5F5F5F5F5F5F5F5F5F5F5F5F5F5F5F5F5F5F5F5F5F5F5F5F5F5F5F5F5F5F5F5F5F5F5F5F5F5F5F5F5F5F5F5F5F5F5F5F5F5F5F5F5
310
F5F5F5F5F5F5F5F5F5F5F5F5F5F5F5F5F5F5F5F5F5F5F5F5F5F5F5F5F5F5F5F5F5F5F5F5F5F5F5F5E2F5F5F5F5F5F5F5F5F5F5F5F5F5F5F5F5E2F5F5F5F5E2E2F5F5F5F5E2F5F5F5F5F5F5F5F5F5F5F5F5F5F5F5F5E2F5F5F5F5F5F5F5F5F5F5F5F5F5F5F5F5F5F5F5F5F5F5F5F5F5F5F5F5F5F5F5F5F5F5F5F5F5F5F5F5F5
310
F5F5F5F5F5F5F5F5F5F5F5F5F5F5F5F5F5F5F5F5F5F5F5F5F5F5F5F5F5F5F5F5F5F5F5F5F5F5F5F5F5F5F5F5F5F5F5F5F5F5F5F5F5F5F5F5F5F5F5F5F5F5F5F5F5F5F5F5F5F5F5F5F5F5F5F5F5F5F5F5F5F5F5F5F5F5F5F5F5F5F5F5F5E2F5F5F5F5F5F5F5F5F5F5F5F5F5F5F5F5E2F5F5F5F5E2E2F5F5F5F5E2F5F5F5F5F5
310
F5F5F5F5F5F5F5F5F5F5F5E2F5F5F5F5F5F5F5F5F5F5F5F5F5F5F5F5F5F5F5F5F5F5F5F5F5F5F5F5F5F5F5F5F5F5F5F5F5F5F5F5F5F5F5F5F5F5F5F5F5F5F5F5F5F5F5F5F5F5F5F5F5F5F5F5F5F5F5F5F5F5F5F5F5F5F5F5F5F5F5F5F5F5F5F5F5F5F5F5F5F5F5F5F5F5F5F5F5F5F5F5F5F5F5F5F5F5F5F5F5F5F5F5F5F5F5
310
F5F5F5F5F5F5F5F5F5F5F5F5F5F5F5F5F5F5F5E2F5F5F5F5F5F5F5F5F5F5F5F5F5F5F5F5E2F5F5F5F5E2E2F5F5F5F5E2F5F5F5F5F5F5F5F5F5F5F5F5F5F5F5F5E2F5F5F5F5F5F5F5F5F5F5F5F5F5F5F5F5F5F5F5F5F5F5F5F5F5F5F5F5F5F5F5F5F5F5F5F5F5F5F5F5F5F5F5F5F5F5F5F5F5F5F5F5F5F5F5F5F5F5F5F5F5F5
310
F5F5F5F5F5F5F5F5F5F5F5F5F5F5F5F5F5F5F5F5F5F5F5F5F5F5F5F5F5F5F5F5F5F5F5F5F5F5F5F5F5F5F5F5F5F5F5F5F5F5F5F5F5F5F5F5F5F5F5F5F5F5F5F5F5F5F5F5F5F5F5F5E2F5F5F5F5F5F5F5F5F5F5F5F5F5F5F5F5E2F5F5F5F5E2E2F5F5F5F5E2F5F5F5F5F5F5F5F5F5F5F5F5F5F5F5F5E2F5F5F5F5F5F5F5F5F5
310
F5F5F5F5F5F5F5F5F5F5F5F5F5F5F5F5F5F5F5F5F5F5F5F5F5F5F5F5F5F5F5F5F5F5F5F5F5F5F5F5F5F5F5F5F5F5F5F5F5F5F5F5F5F5F5F5F5F5F5F5F5F5F5F5F5F5F5F5F5F5F5F5F5F5F5F5F5F5F5F5F5F5F5F5F5F5F5F5F5F5F5F5F5F5F5F5F5F5F5F5F5F5F5F5F5F5F5F5F5F5F5F5F5F5F5F5F5F5F5F5F5F5F5F5F5E2F5
310
F5F5F5F5F5F5F5F5F5F5F5F5F5F5F5E2F5F5F5F5E2E2F5F5F5F5E2F5F5F5F5F5F5F5F5F5F5F5F5F5F5F5F5E2F5F5F5F5F5F5F5F5F5F5F5F5F5F5F5F5F5F5F5F5F5F5F5F5F5F5F5F5F5F5F5F5F5F5F5F5F5F5F5F5F5F5F5F5F5F5F5F5F5F5F5F5F5F5F5F5F5F5F5F5F5F5F5F5F5F5F5F5F5F5F5F5F5F5F5F5F5F5F5F5F5F5F5
310
F5F5F5F5F5F5F5F5F5F5F5F5F5F5F5F5F5F5F5F5F5F5F5F5F5F5F5F5F5F5F5F5F5F5F5F5F5F5F5F5F5F5F5F5F5F5F5F5F5F5F5E2F5F5F5F5F5F5F5F5F5F5F5F5F5F5F5F5E2F5F5F5F5E2E2F5F5F5F5E2F5F5F5F5F5F5F5F5F5F5F5F5F5F5F5F5E2F5F5F5F5F5F5F5F5F5F5F5F5F5F5F5F5F5F5F5F5F5F5F5F5F5F5F5F5F5F5
310
F5F5F5F5F5F5F5F5F5F5F5F5F5F5F5F5F5F5F5F5F5F5F5F5F5F5F5F5F5F5F5F5F5F5F5F5F5F5F5F5F5F5F5F5F5F5F5F5F5F5F5F5F5F5F5F5F5F5F5F5F5F5F5F5F5F5F5F5F5F5F5F5F5F5F5F5F5F5F5F5F5F5F5F5F5F5F5F5F5F5F5F5F5F5F5F5F5F5F5F5F5F5F5F5E2F5F5F5F5F5F5F5F5F5F5F5F5F5F5F5F5E2F5F5F5F5E2
310
E2F5F5F5F5E2F5F5F5F5F5F5F5F5F5F5F5F5F5F5F5F5E2F5F5F5F5F5F5F5F5F5F5F5F5F5F5F5F5F5F5F5F5F5F5F5F5F5F5F5F5F5F5F5F5F5F5F5F5F5F5F5F5F5F5F5F5F5F5F5F5F5F5F5F5F5F5F5F5F5F5F5F5F5F5F5F5F5F5F5F5F5F5F5F5F5F5F5F5F5F5F5F5F5F5F5F5F5F5F5F5F5F5F5F5F5F5F5F5F5F5F5F5F5F5F5F5
310
F5F5F5F5F5F5F5F5F5F5F5F5F5F5F5F5F5F5F5F5F5F5F5F5F5F5F5F5F5F5E2F5F5F5F5F5F5F5F5F5F5F5F5F5F5F5F5E2F5F5F5F5E2E2F5F5F5F5E2F5F5F5F5F5F5F5F5F5F5F5F5F5F5F5F5E2F5F5F5F5F5F5F5F5F5F5F5F5F5F5F5F5F5F5F5F5F5F5F5F5F5F5F5F5F5F5F5F5F5F5F5F5F5F5F5F5F5F5F5F5F5F5F5F5F5F5F5
310
F5F5F5F5F5F5F5F5F5F5F5F5F5F5F5F5F5F5F5F5F5F5F5F5F5F5F5F5F5F5F5F5F5F5F5F5F5F5F5F5F5F5F5F5F5F5F5F5F5F5F5F5F5F5F5F5F5F5F5F5F5F5F5F5F5F5F5F5F5F5F5F5F5F5F5F5F5F5F5F5F5F5F5E2F5F5F5F5F5F5F5F5F5F5F5F5F5F5F5F5E2F5F5F5F5E2E2F5F5F5F5E2F5F5F5F5F5F5F5F5F5F5F5F5F5F5F5
310
F5E2F5F5F5F5F5F5F5F5F5F5F5F5F5F5F5F5F5F5F5F5F5F5F5F5F5F5F5F5F5F5F5F5F5F5F5F5F5F5F5F5F5F5F5F5F5F5F5F5F5F5F5F5F5F5F5F5F5F5F5F5F5F5F5F5F5F5F5F5F5F5F5F5F5F5F5F5F5F5F5F5F5F5F5F5F5F5F5F5F5F5F5F5F5F5F5F5F5F5F5F5F5F5F5F5F5F5F5F5F5F5F5F5F5F5F5F5F5F5F5F5F5F5F5F5F5
310
F5F5F5F5F5F5F5F5F5E2F5F5F5F5F5F5F5F5F5F5F5F5F5F5F5F5E2F5F5F5F5E2E2F5F5F5F5E2F5F5F5F5F5F5F5F5F5F5F5F5F5F5F5F5E2F5F5F5F5F5F5F5F5F5F5F5F5F5F5F5F5F5F5F5F5F5F5F5F5F5F5F5F5F5F5F5F5F5F5F5F5F5F5F5F5F5F5F5F5F5F5F5F5F5F5F5F5F5F5F5F5F5F5F5F5F5F5F5F5F5F5F5F5F5F5F5F5
310
F5F5F5F5F5F5F5F5F5F5F5F5F5F5F5F5F5F5F5F5F5F5F5F5F5F5F5F5F5F5F5F5F5F5F5F5F5F5F5F5F5F5F5F5F5F5F5F5F5F5F5F5F5F5F5F5F5F5F5F5F5F5E2F5F5F5F5F5F5F5F5F5F5F5F5F5F5F5F5E2F5F5F5F5E2E2F5F5F5F5E2F5F5F5F5F5F5F5F5F5F5F5F5F5F5F5F5E2F5F5F5F5F5F5F5F5F5F5F5F5F5F5F5F5F5F5F5
310
F5F5F5F5F5F5F5F5F5F5F5F5F5F5F5F5F5F5F5F5F5F5F5F5F5F5F5F5F5F5F5F5F5F5F5F5F5F5F5F5F5F5F5F5F5F5F5F5F5F5F5F5F5F5F5F5F5F5F5F5F5F5F5F5F5F5F5F5F5F5F5F5F5F5F5F5F5F5F5F5F5F5F5F5F5F5F5F5F5F5F5F5F5F5F5F5F5F5F5F5F5F5F5F5F5F5F5F5F5F5F5F5F5F5F5E2F5F5F5F5F5F5F5F5F5F5F5
310
F5F5F5F5F5E2F5F5F5F5E2E2F5F5F5F5E2F5F5F5F5F5F5F5F5F5F5F5F5F5F5F5F5E2F5F5F5F5F5F5F5F5F5F5F5F5F5F5F5F5F5F5F5F5F5F5F5F5F5F5F5F5F5F5F5F5F5F5F5F5F5F5F5F5F5F5F5F5F5F5F5F5F5F5F5F5F5F5F5F5F5F5F5F5F5F5F5F5F5F5F5F5F5F5F5F5F5F5F5F5F5F5F5F5F5F5F5F5F5F5F5F5F5F5F5F5F5
310
F5F5F5F5F5F5F5F5F5F5F5F5F5F5F5F5F5F5F5F5F5F5F5F5F5F5F5F5F5F5F5F5F5F5F5F5F5F5F5F5F5E2F5F5F5F5F5F5F5F5F5F5F5F5F5F5F5F5E2F5F5F5F5E2E2F5F5F5F5F5F5F5F5F5F5F5F5F5F5F5F5F5F5F5F5F5E2F5F5F5F5F5F5F5F5F5F5F5F5F5F5F5F5F5F5F5F5F5F5F5F5F5F5F5F5F5F5F5F5F5F5F5F5F5F5F5F5
310
F5F5F5F5F5F5F5F5F5F5F5F5F5F5F5F5F5F5F5F5F5F5F5F5F5F5F5F5F5F5F5F5F5F5F5F5F5F5F5F5F5F5F5F5F5F5F5F5F5F5F5F5F5F5F5F5F5F5F5F5F5F5F5F5F5F5F5F5F5F5F5F5F5F5F5F5F5F5F5F5F5F5F5F5F5F5F5F5F5F5F5F5F5F5E2F5F5F5F5F5F5F5F5F5F5F5F5F5F5F5F5F5F5F5F5F5E2E2F5F5F5F5F5F5F5F5F5
310
F5F5F5F5F5F5F5F5F5F5F5F5E2F5F5F5F5F5F5F5F5F5F5F5F5F5F5F5F5F5F5F5F5F5F5F5F5F5F5F5F5F5F5F5F5F5F5F5F5F5F5F5F5F5F5F5F5F5F5F5F5F5F5F5F5F5F5F5F5F5F5F5F5F5F5F5F5F5F5F5F5F5F5F5F5F5F5F5F5F5F5F5F5F5F5F5F5F5F5F5F5F5F5F5F5F5F5F5F5F5F5F5F5F5F5F5F5F5F5F5F5F5F5F5F5F5F5
310
F5F5F5F5F5F5F5F5F5F5F5F5F5F5F5F5F5F5F5F5E2F5F5F5F5F5F5F5F5F5F5F5F5F5F5F5F5F5F5F5F5F5E2E2F5F5F5F5F5F5F5F5F5F5F5F5F5F5F5F5F5F5F5F5F5E2F5F5F5F5F5F5F5F5F5F5F5F5F5F5F5F5F5F5F5F5F5F5F5F5F5F5F5F5F5F5F5F5F5F5F5F5F5F5F5F5F5F5F5F5F5F5F5F5F5F5F5F5F5F5F5F5F5F5F5F5F5
310
F5F5F5F5F5F5F5F5F5F5F5F5F5F5F5F5F5F5F5F5F5F5F5F5F5F5F5F5F5F5F5F5F5F5F5F5F5F5F5F5F5F5F5F5F5F5F5F5F5F5F5F5F5F5F5F5F5F5F5F5F5F5F5F5F5F5F5F5F5F5F5F5F5E2F5F5F5F5F5F5F5F5F5F5F5F5F5F5F5F5F5F5F5F5F5E2E2F5F5F5F5F5F5F5F5F5F5F5F5F5F5F5F5F5F5F5F5F5E2F5F5F5F5F5F5F5F5
310
F5F5F5F5F5F5F5F5F5F5F5F5F5F5F5F5F5F5F5F5F5F5F5F5F5F5F5F5F5F5F5F5F5F5F5F5F5F5F5F5F5F5F5F5F5F5F5F5F5F5F5F5F5F5F5F5F5F5F5F5F5F5F5F5F5F5F5F5F5F5F5F5F5F5F5F5F5F5F5F5F5F5F5F5F5F5F5F5F5F5F5F5F5F5F5F5F5F5DCF5F5F5F5F5F5F5F5F5F5F5F5F5F5F5F5F5F5F5F5F5F5F5F5F5F5F5E2
310
F5F5F5F5F5F5F5F5F5F5F5F5F5F5F5F5F5F5F5F5F5E2E2F5F5F5F5F5F5F5F5F5F5F5F5F5F5F5F5F5F5F5F5F5E2F5F5F5F5F5F5F5F5F5F5F5F5F5F5F5F5F5F5F5F5F5F5F5F5F5F5F5F5F5F5F5F5F5F5F5F5F5F5F5F5F5F5F5F5F5F5F5F5F5F5F5F5F5F5F5F5F5F5F5F5F5F5F5F5F5F5F5F5F5F5F5F5F5F5F5F5F5F5F5F5F5E2
310
ECE2E2E2E2E2E2E2E2E2E2E2E2E2E2E2E2E2E2E2E2E2E2E2DCE2E2E2E2E2E2E2E2E2E2E2E2E2E2E2E2E2E2E2E2E2E2E2ECE2F5F5E2F5F5F5F5F5F5F5F5F5F5F5F5F5F5F5F5F5F5F5F5F5E2E2F5F5F5F5F5F5F5F5F5F5F5F5F5F5F5F5F5F5F5F5F5E2F5F5F5F5F5F5F5F5F5F5F5F5F5F5F5F5F5F5F5F5F5F5F5F5F5F5F5F5F5
310
F5F5F5F5F5F5F5F5F5F5F5F5F5F5F5F5F5F5F5F5F5F5F5F5F5F5F5F5F5F5F5F5F5F5F5F5F5F5F5F5F5F5F5F5F5F5F5F5F5F5F5E2F5F5ECF5F5F5F5F5F5F5F5F5F5F5F5F5F5F5F5F5F5F5F5F5F5DCF5F5F5F5F5F5F5F5F5F5F5F5F5F5F5F5F5F5F5F5F5F5ECF5F5E2F5E2F5F5F5F5F5F5F5F5F5F5F5F5F5F5F5F5F5F5F5F5F5
310
E2E2F5F5F5F5F5F5F5F5F5F5F5F5F5F5F5F5F5F5F5F5F5E2F5F5F5F5F5F5F5F5F5F5F5F5F5F5F5F5F5F5F5F5F5F5F5F5F5F5F5F5F5F5F5F5F5F5F5F5F5F5F5F5F5F5F5F5F5F5F5F5F5F5F5F5F5F5F5F5F5F5F5F5F5F5F5F5F5F5F5F5F5F5F5F5F5F5F5F5F5F5F5E2F5F5F5F5ECF5F5F5F5F5F5F5F5F5F5F5F5F5F5F5F5F5F5
310
F5F5F5DCF5F5F5F5F5F5F5F5F5F5F5F5F5F5F5F5F5F5F5F5F5ECF5F5F5F5E2E2F5F5F5F5F5F5F5F5F5F5F5F5F5F5F5F5F5F5F5F5F5E2E2F5F5F5F5F5F5F5F5F5F5F5F5F5F5F5F5F5F5F5F5F5E2F5F5F5F5F5F5F5F5F5F5F5F5F5F5F5F5F5F5F5F5F5F5F5F5F5F5F5F5F5F5F5F5F5F5F5F5F5F5F5F5F5F5F5F5F5F5F5F5F5F5
310
F5F5F5F5F5F5F5F5F5F5F5F5F5F5F5F5F5F5F5F5F5F5F5F5F5F5F5F5E2E2E2E2E2E2ECE2E2E2E2E2E2E2E2E2ECECECECECECE2ECECECECECDCECECECECECE2ECECECECECECE2E2E2E2E2E2E2E2ECE2E2E2E2E2E2E2F5F5F5F5F5F5F5F5F5F5F5F5F5F5F5F5F5F5F5F5F5E2E2F5F5F5F5F5F5F5F5F5F5F5F5F5F5F5F5F5F5F5
310
F5F5E2F5F5F5F5F5F5F5F5F5F5F5F5F5F5F5F5F5F5F5F5F5F5F5F5F5F5F5F5F5F5F5F5F5F5F5F5F5F5F5F5F5F5F5F5F5F5F5F5F5F5F5F5F5F5F5F5F5F5F5F5F5F5F5F5F5F5F5F5F5F5F5F5F5F5F5F5F5F5E2F5F5F5F5F5F5F5F5F5F5F5F5F5F5F5ECF5F5F5F5F5F5F5F5F5F5F5DCF5F5F5F5F5F5F5F5F5F5ECF5F5F5F5F5F5
310
F5F5F5F5F5F5F5F5F5E2E2F5F5F5F5F5F5F5F5F5F5F5F5F5F5F5F5F5F5F5F5F5E2E2F5F5F5F5E2F5F5F5F5F5F5F5F5F5F5F5F5F5F5F5F5E2F5F5F5F5F5F5F5F5F5F5F5F5F5F5F5F5F5F5F5F5F5F5F5F5F5F5F5F5F5F5F5F5F5F5F5F5F5F5F5F5F5F5F5F5F5F5F5F5F5F5F5F5F5F5F5F5F5F5F5F5F5F5F5F5F5F5F5F5F5F5F5
310
F5F5F5F5F5F5F5E2F5F5F5F5F5F5F5F5F5F5F5F5F5F5F5ECECECECECECECECECECECECECECECECECECECECECECECECF5F5F5F5F5F5F5F5F5F5F5F5F5F5F5E2E2F5F5F5F5F5F5F5F5F5F5F5F5F5F5F5F5E2F5F5F5F5E2E2F5F5F5F5E2F5F5F5F5F5F5F5F5F5F5F5F5F5F5F5F5E2F5F5F5F5F5F5F5F5F5F5F5F5F5F5F5F5F5F5
310
F5F5F5F5F5F5F5F5F5F5F5F5F5F5F5F5F5F5F5F5F5F5F5F5F5F5F5F5F5F5F5F5F5F5F5F5F5F5F5F5F5F5F5F5F5F5F5F5F5F5F5F5F5F5F5F5F5F5F5F5F5E2F5F5F5F5F5F5F5F5F5F5F5F5F5F5F5F5F5F5F5ECF5F5F5F5F5F5DCF5F5F5F5F5ECF5F5F5F5F5F5F5F5F5F5F5F5F5F5F5F5F5F5F5F5E2E2F5F5F5F5F5F5F5F5F5F5
310
F5F5F5F5F5F5E2F5F5F5F5E2E2F5F5F5F5E2F5F5F5F5F5F5F5F5F5F5F5F5F5F5F5F5E2F5F5F5F5F5F5F5F5F5F5F5F5F5F5F5F5F5F5F5F5F5F5F5F5F5F5F5F5F5F5F5F5F5F5F5F5F5F5F5F5F5F5F5F5F5F5F5F5F5F5F5F5F5F5F5F5F5F5F5F5F5F5F5F5F5F5F5F5F5F5F5F5F5F5F5F5F5F5F5F5E2F5F5F5F5F5F5F5F5F5F5F5
310
F5F5F5F5F5ECECECECECECF5ECECECECECF5ECECECECECF5F5F5F5F5F5F5F5F5F5F5F5F5F5F5F5F5E2F5E2F5F5F5F5F5F5F5F5F5F5F5F5F5F5F5F5E2F5F5F5F5E2E2F5F5F5F5E2F5F5F5F5F5F5F5F5F5F5F5F5F5F5F5F5E2F5F5F5F5F5F5F5F5F5F5F5F5F5F5F5F5F5F5F5F5F5F5F5F5F5F5F5F5F5F5F5F5F5F5F5F5F5F5F5
310
F5F5F5F5F5F5F5F5F5F5F5F5F5F5F5F5F5F5F5F5F5F5F5F5F5F5F5F5F5F5F5F5F5F5F5F5F5F5F5F5F5F5E2E2F5F5F5F5F5F5F5F5F5F5F5F5F5F5ECF5F5F5F5F5F5F5F5DCF5F5F5F5F5F5F5ECF5F5F5F5F5F5F5F5F5F5F5F5F5F5F5E2E2F5F5E2F5F5F5F5F5F5F5F5F5F5F5F5F5F5F5F5E2F5F5F5F5E2E2F5F5F5F5E2F5F5F5
310
F5F5F5F5F5F5F5F5F5F5F5F5F5E2F5F5F5F5F5F5F5F5F5F5F5F5F5F5F5F5F5F5F5F5F5F5F5F5F5F5F5F5F5F5F5F5F5F5F5F5F5F5F5F5F5F5F5F5F5F5F5F5F5F5F5F5F5F5F5F5F5F5F5F5F5F5F5F5F5F5F5F5F5F5F5F5F5F5F5F5F5F5F5F5F5F5F5E2F5F5F5F5F5F5F5F5F5F5F5F5F5ECF5F5F5F5F5F5F5F5DCF5F5F5F5F5F5
310
F5ECF5F5F5F5F5F5F5F5F5F5F5F5F5E2E2F5F5F5F5E2F5F5F5F5F5F5F5F5F5F5F5F5F5F5F5F5E2F5F5F5F5E2E2F5F5F5F5E2F5F5F5F5F5F5F5F5F5F5F5F5F5F5F5F5E2F5F5F5F5F5F5F5F5F5F5F5F5F5F5F5F5F5F5F5F5F5F5F5F5F5F5F5F5F5F5F5F5F5F5F5F5F5F5F5F5F5F5F5F5F5F5F5F5F5F5F5F5F5F5F5F5F5F5F5F5
310
F5F5F5F5F5F5F5F5F5F5F5F5F5F5F5F5F5F5F5F5F5F5F5F5E2E2F5F5F5F5F5F5F5F5F5F5F5ECF5F5F5F5F5F5F5F5DCF5F5F5F5F5F5F5ECF5F5F5F5F5F5F5F5F5F5F5F5E2F5F5F5F5F5F5E2F5F5F5F5F5F5F5F5F5F5F5F5F5F5F5F5E2F5F5F5F5E2E2F5F5F5F5E2F5F5F5F5F5F5F5F5F5F5F5F5F5F5F5F5E2F5F5F5F5F5F5F5
310
F5F5F5F5F5F5F5F5F5F5F5F5F5F5F5F5F5F5F5F5F5F5F5F5F5F5F5F5F5F5F5F5F5F5F5F5F5F5F5F5F5F5F5F5F5F5F5F5F5F5F5F5F5F5F5F5F5F5F5F5F5F5F5F5F5F5F5F5F5F5F5F5F5F5F5F5F5F5F5E2F5F5F5F5F5F5F5F5F5F5ECF5F5F5F5F5F5F5F5DCF5F5F5F5F5F5F5ECF5F5F5F5F5F5F5F5F5F5E2E2F5F5F5F5F5F5F5
310
E2F5F5F5F5F5F5F5F5F5F5F5F5F5F5F5F5E2F5F5F5F5E2E2F5F5F5F5E2F5F5F5F5F5F5F5F5F5F5F5F5F5F5F5F5E2F5F5F5F5F5F5F5F5F5F5F5F5F5F5F5F5F5F5F5F5F5F5F5F5F5F5F5F5F5F5F5F5F5F5F5F5F5F5F5F5F5F5F5F5F5F5F5F5F5F5F5F5F5F5F5F5F5F5F5F5F5F5F5F5F5F5F5F5F5F5F5F5F5F5F5F5F5F5F5F5F5
310
F5F5F5F5F5F5E2E2F5F5F5F5F5F5F5F5F5ECECECECECF5ECECECECECF5ECECECECECF5F5F5F5F5F5F5F5E2E2F5F5F5F5F5F5F5F5F5E2F5F5F5F5F5F5F5F5F5F5F5F5F5F5F5F5E2F5F5F5F5E2E2F5F5F5F5E2F5F5F5F5F5F5F5F5F5F5F5F5F5F5F5F5E2F5F5F5F5F5F5F5F5F5F5F5F5F5F5F5F5F5F5F5F5F5F5F5F5F5F5F5F5
310
F5F5F5F5F5F5F5F5F5F5F5F5F5F5F5F5F5F5F5F5F5F5F5F5F5F5F5F5F5F5F5F5F5F5F5F5F5F5F5F5F5F5F5F5F5F5F5F5F5F5F5F5F5F5F5F5F5F5F5F5F5E2E2F5F5F5F5F5F5F5ECF5F5F5F5F5F5F5DCF5F5F5F5F5F5F5ECF5F5F5F5F5F5F5E2F5F5F5F5F5F5F5F5F5F5F5E2F5F5F5F5F5F5F5F5F5F5F5F5F5F5F5F5E2F5F5F5
310
F5E2E2F5F5F5F5E2F5F5F5F5F5F5F5F5F5F5F5F5F5F5F5F5E2F5F5F5F5F5F5F5F5F5F5F5F5F5F5F5F5F5F5F5F5F5F5F5F5F5F5F5F5F5F5F5F5F5F5F5F5F5F5F5F5F5F5F5F5F5F5F5F5F5F5F5F5F5F5F5F5F5F5F5F5F5F5F5F5F5F5F5F5F5F5F5F5F5F5F5F5F5F5F5F5F5F5F5F5F5F5F5F5F5F5E2F5F5F5F5F5F5F5ECF5F5F5
310
F5F5F5F5DCF5F5F5F5F5F5F5ECF5F5F5F5F5F5F5E2F5F5F5F5F5F5F5F5F5F5F5E2F5F5F5F5F5F5F5F5F5F5F5F5F5F5F5F5E2F5F5F5F5E2E2F5F5F5F5E2F5F5F5F5F5F5F5F5F5F5F5F5F5F5F5F5E2F5F5F5F5F5F5F5F5F5F5F5F5F5F5F5F5F5F5F5F5F5F5F5F5F5F5F5F5F5F5F5F5F5F5F5F5F5F5F5F5F5F5F5F5F5F5F5F5F5
310
F5F5F5F5F5F5F5F5F5F5F5F5F5F5F5F5F5F5F5F5F5F5F5F5F5F5F5F5F5F5F5F5F5F5F5F5F5F5F5F5F5E2F5F5F5F5F5F5F5ECF5F5F5F5F5F5F5DCF5F5F5F5F5F5F5ECF5F5F5F5F5F5F5E2F5F5F5F5F5F5F5F5F5F5F5E2F5F5F5F5F5F5F5F5F5F5F5F5F5F5F5F5E2F5F5F5F5E2E2F5F5F5F5E2F5F5F5F5F5F5F5F5F5F5F5F5F5
310
F5F5F5E2F5F5F5F5F5F5F5F5F5F5F5F5F5F5F5F5F5F5F5F5F5F5F5F5F5F5F5F5F5F5F5F5F5F5F5F5F5F5F5F5F5F5F5F5F5F5F5F5F5F5F5F5F5F5F5F5F5F5F5F5F5F5F5F5F5F5F5F5F5F5F5F5F5F5F5F5F5F5F5F5F5F5F5F5F5F5F5F5F5F5E2F5F5F5F5F5F5F5ECF5F5F5F5E2E2E2E2E2E2E2F5F5F5F5ECF5F5F5F5F5F5F5E2
310
F5F5F5F5F5F5F5F5F5F5F5E2F5F5F5F5F5F5F5F5F5F5F5F5F5F5F5F5E2F5F5F5F5E2E2F5F5F5F5E2F5F5F5F5F5F5F5F5F5F5F5F5F5F5F5F5E2F5F5F5F5F5F5F5F5F5F5F5F5F5F5F5F5F5F5F5F5F5F5F5F5F5F5F5F5F5F5F5F5F5F5F5F5F5F5F5F5F5F5F5F5F5F5F5F5F5F5F5F5F5F5F5F5F5F5F5F5F5F5F5F5F5F5F5F5F5F5
310
F5F5F5F5F5F5F5F5F5F5F5F5F5F5F5F5F5F5F5F5E2F5F5F5F5F5F5F5ECECECECECECF5F5DCF5F5ECECECECECECF5F5F5F5F5F5F5E2F5F5F5F5F5F5F5F5F5F5F5E2F5F5F5F5F5F5F5F5F5F5F5F5F5F5F5F5E2F5F5F5F5E2E2F5F5F5F5E2F5F5F5F5F5F5F5F5F5F5F5F5F5F5F5F5E2F5F5F5F5F5F5F5F5F5F5F5F5F5F5F5F5F5
310
F5F5F5F5F5F5F5F5F5F5F5F5F5F5F5F5F5F5F5F5F5F5F5F5F5F5F5F5F5F5F5F5F5F5F5F5F5F5F5F5F5F5F5F5F5F5F5F5F5F5F5F5F5F5F5F5F5F5F5F5F5F5F5F5F5F5F5F5F5F5F5F5F5E2F5F5F5F5F5F5F5ECF5F5F5F5E2F5F5DCF5F5E2F5F5F5F5ECF5F5F5F5F5F5F5E2F5F5F5F5F5F5F5F5F5F5F5E2F5F5F5F5F5F5F5F5F5
310
F5F5F5F5F5F5F5E2F5F5F5F5E2E2F5F5F5F5E2F5F5F5F5F5F5F5F5F5F5F5F5F5F5F5F5E2F5F5F5F5F5F5F5F5F5F5F5F5F5F5F5F5F5F5F5F5F5F5F5F5F5F5F5F5F5F5F5F5F5F5F5F5F5F5F5F5F5F5F5F5F5F5F5F5F5F5F5F5F5F5F5F5F5F5F5F5F5F5F5F5F5F5F5F5F5F5F5F5F5F5F5F5F5F5F5F5F5F5F5F5F5F5F5F5F5F5E2
310
E2E2E2E2E2E2E2E2E2E2E2E2ECF5F5DCF5F5E2E2E2E2E2E2E2E2E2E2E2E2E2E2F5F5F5F5F5F5F5F5F5F5F5E2F5F5F5F5F5F5F5F5F5F5F5F5F5F5F5F5E2F5F5F5F5E2E2F5F5F5F5E2F5F5F5F5F5F5F5F5F5F5F5F5F5F5F5F5E2F5F5F5F5F5F5F5F5F5F5F5F5F5F5F5F5F5F5F5F5F5F5F5F5F5F5F5F5F5F5F5F5F5F5F5F5F5F5
310
F5F5F5F5F5F5F5F5F5F5F5F5F5F5F5F5F5F5F5F5F5F5F5F5F5F5F5F5F5F5F5F5F5F5F5F5F5F5F5F5F5F5F5F5F5F5F5F5F5F5F5F5F5F5F5F5F5F5F5F5F5F5F5F5F5F5F5F5DCF5F5F5F5F5F5F5F5F5F5F5F5F5F5F5F5F5F5F5F5F5F5F5F5F5F5F5E2F5F5F5F5F5F5F5F5F5F5F5F5F5F5F5F5E2F5F5F5F5E2E2F5F5F5F5F5F5F5
310
F5F5F5F5F5F5F5F5F5F5F5F5F5F5E2F5F5F5F5F5F5F5F5F5F5F5F5F5F5F5F5F5F5F5F5F5F5F5F5F5F5F5F5F5F5F5F5F5F5F5F5F5F5F5F5F5F5F5F5F5F5F5F5F5F5F5F5F5F5F5F5F5F5F5F5F5F5F5F5F5F5F5F5F5F5F5F5F5F5F5F5F5F5F5F5F5F5F5F5F5F5F5F5F5F5F5F5F5F5F5F5F5F5F5F5F5F5F5F5F5F5F5F5F5F5F5F5
310
F5F5F5F5F5F5F5F5F5F5F5F5F5F5F5F5F5F5F5F5F5F5E2F5F5F5F5F5F5F5F5F5F5F5F5F5F5F5F5F5F5F5F5F5E2E2F5F5F5F5F5F5F5F5F5F5F5F5F5F5F5F5F5F5F5F5F5E2F5F5F5F5F5F5F5F5F5F5F5F5F5F5F5F5F5F5F5F5F5F5F5F5F5F5F5F5F5F5F5F5F5F5F5F5F5F5F5F5F5F5F5F5F5F5F5F5F5F5F5F5F5F5F5F5F5F5F5
310
F5F5F5F5F5F5F5F5F5F5F5F5F5F5F5F5F5F5F5F5F5F5F5F5F5F5F5F5F5F5F5F5F5F5F5F5F5F5F5F5F5F5F5F5F5F5F5F5F5F5F5F5F5F5F5F5F5F5F5F5F5F5F5F5F5F5F5F5F5F5F5F5F5F5F5E2F5F5F5F5F5F5F5F5F5F5F5F5F5F5F5F5F5F5F5F5F5E2E2F5F5F5F5F5F5F5F5F5F5F5F5F5F5F5F5F5F5F5F5F5E2F5F5F5F5F5F5
310
F5F5F5F5F5F5F5F5F5F5F5F5F5F5F5F5F5F5F5F5F5F5F5F5F5F5F5F5F5F5F5F5F5F5F5F5F5F5F5F5F5F5F5F5F5F5F5F5F5F5F5F5F5F5F5F5F5F5F5F5F5F5F5F5F5F5F5F5F5F5F5F5F5F5F5F5F5F5F5F5F5F5F5F5F5F5F5F5F5F5F5F5F5F5F5F5F5F5F5F5F5F5F5F5F5F5F5F5F5F5F5F5F5F5F5F5F5F5F5F5F5F5F5F5F5F5F5
310
F5E2F5F5F5F5F5F5F5F5F5F5F5F5F5F5F5F5F5F5F5F5F5E2E2F5F5F5F5F5F5F5F5F5F5F5F5F5F5F5F5F5F5F5F5F5E2F5F5F5F5F5F5F5F5F5F5F5F5F5F5F5F5F5F5F5F5F5F5F5F5F5F5F5F5F5F5F5F5F5F5F5F5F5F5F5F5F5F5F5F5F5F5F5F5F5F5F5F5F5F5F5F5F5F5F5F5F5F5F5F5F5F5F5F5F5F5F5F5F5F5F5F5F5F5F5F5
310
F5F5F5F5F5F5F5F5F5F5F5F5F5F5F5F5F5F5F5F5F5F5F5F5F5F5F5F5F5F5F5F5F5F5F5F5F5F5F5F5F5F5F5F5F5F5F5F5F5F5F5F5F5F5E2F5F5F5F5F5F5F5F5F5F5F5F5F5F5F5F5F5F5F5F5F5E2E2F5F5F5F5F5F5F5F5F5F5F5F5F5F5F5F5F5F5F5F5F5E2F5F5F5F5F5F5F5F5F5F5F5F5F5F5F5F5F5F5F5F5F5F5F5F5F5F5F5
310
F5F5F5F5F5F5F5F5F5F5F5F5F5F5F5F5F5F5F5F5F5F5F5F5F5F5F5F5F5F5F5F5F5F5F5F5F5F5F5F5F5F5F5F5F5F5F5F5F5F5F5F5F5F5F5F5F5F5F5F5F5F5F5F5F5F5F5F5F5F5F5F5F5F5F5F5F5F5F5F5F5F5F5F5F5F5F5F5F5F5F5F5F5F5F5F5F5F5F5F5F5F5F5F5F5F5F5E2F5F5F5F5F5F5F5F5F5F5F5F5F5F5F5F5F5F5F5
310
F5F5E2E2F5F5F5F5F5F5F5F5F5F5F5F5F5F5F5F5F5F5F5F5F5E2F5F5F5F5F5F5F5F5F5F5F5F5F5F5F5F5F5F5F5F5F5F5F5F5F5F5F5F5F5F5F5F5F5F5F5F5F5F5F5F5F5F5F5F5F5F5F5F5F5F5F5F5F5F5F5F5F5F5F5F5F5F5F5F5F5F5F5F5F5F5F5F5F5F5F5F5F5F5F5F5F5F5F5F5F5F5F5F5F5F5F5F5F5F5F5F5F5F5F5F5F5
310
F5F5F5F5F5F5F5F5F5F5F5F5F5F5F5F5F5F5F5F5F5F5F5F5F5F5F5F5F5F5F5F5F5E2F5F5F5F5F5F5F5F5F5F5F5F5F5F5F5F5F5F5F5F5F5E2E2F5F5F5F5F5F5F5F5F5F5F5F5F5F5F5F5F5F5F5F5F5E2F5F5F5F5F5F5F5F5F5F5F5F5F5F5F5F5F5F5F5F5F5F5F5F5F5F5F5F5F5F5F5F5F5F5F5F5F5F5F5F5F5F5F5F5F5F5F5F5
310
F5F5F5F5F5F5F5F5F5F5F5F5F5F5F5F5F5F5F5F5F5F5F5F5F5F5F5F5F5F5F5F5F5F5F5F5F5F5F5F5F5F5F5F5F5F5F5F5F5F5F5F5F5F5F5F5F5F5F5F5F5F5F5F5F5F5F5F5F5F5F5F5F5F5F5F5F5F5F5F5F5F5F5F5F5F5E2F5F5F5F5F5F5F5F5F5F5F5F5F5F5F5F5F5F5F5F5F5E2E2F5F5F5F5F5F5F5F5F5F5F5F5F5F5F5F5F5
310
F5F5F5F5E2F5F5F5F5F5F5F5F5F5F5F5F5F5F5F5F5F5F5F5F5F5F5F5F5F5F5F5F5F5F5F5F5F5F5F5F5F5F5F5F5F5F5F5F5F5F5F5F5F5F5F5F5F5F5F5F5F5F5F5F5F5F5F5F5F5F5F5F5F5F5F5F5F5F5F5F5F5F5F5F5F5F5F5F5F5F5F5F5F5F5F5F5F5F5F5F5F5F5F5F5F5F5F5F5F5F5F5F5F5F5F5F5F5F5F5F5F5F5F5F5F5F5
310
F5F5F5F5F5F5F5F5F5F5F5F5E2F5F5F5F5F5F5F5F5F5F5F5F5F5F5F5F5F5F5F5F5F5E2E2F5F5F5F5F5F5F5F5F5F5F5F5F5F5F5F5F5F5F5F5F5E2F5F5F5F5F5F5F5F5F5F5F5F5F5F5F5F5F5F5F5F5F5F5F5F5F5F5F5F5F5F5F5F5F5F5F5F5F5F5F5F5F5F5F5F5F5F5F5F5F5F5F5F5F5F5F5F5F5F5F5F5F5F5F5F5F5F5F5F5F5
310
F5F5F5F5F5F5F5F5F5F5F5F5F5F5F5F5F5F5F5F5F5F5F5F5F5F5F5F5F5F5F5F5F5F5F5F5F5F5F5F5F5F5F5F5F5F5F5F5F5F5F5F5F5F5F5F5F5F5F5F5F5F5F5F5F5E2F5F5F5F5F5F5F5F5F5F5F5F5F5F5F5F5F5F5F5F5F5E2E2F5F5F5F5F5F5F5F5F5F5F5F5F5F5F5F5F5F5F5F5F5E2F5F5F5F5F5F5F5F5F5F5F5F5F5F5F5F5
310
F5F5F5F5F5F5F5F5F5F5F5F5F5F5F5F5F5F5F5F5F5F5F5F5F5F5F5F5F5F5F5F5F5F5F5F5F5F5F5F5F5F5F5F5F5F5F5F5F5F5F5F5F5F5F5F5F5F5F5F5F5F5F5F5F5F5F5F5F5F5F5F5F5F5F5F5F5F5F5F5F5F5F5F5F5F5F5F5F5F5F5F5F5F5F5F5F5F5F5F5F5F5F5F5F5F5F5F5F5F5F5F5F5F5F5F5F5F5E2F5F5F5F5F5F5F5F5
310
F5F5F5F5F5F5F5F5F5F5F5F5F5E2E2F5F5F5F5E2F5F5F5F5F5F5F5F5F5F5F5F5F5F5F5F5E2F5F5F5F5F5F5F5F5F5F5F5F5F5F5F5F5F5F5F5F5F5F5F5F5F5F5F5F5F5F5F5F5F5F5F5F5F5F5F5F5F5F5F5F5F5F5F5F5F5F5F5F5F5F5F5F5F5F5F5F5F5F5F5F5F5F5F5F5F5F5F5F5F5F5F5F5F5F5F5F5F5F5F5F5F5F5F5F5F5F5
310
F5F5F5F5F5F5F5F5F5F5F5F5F5F5F5F5F5F5F5F5F5F5F5F5F5F5F5F5F5F5F5F5F5F5F5F5F5F5F5F5F5F5F5F5E2F5F5F5F5F5F5F5F5F5F5F5F5F5F5F5F5E2F5F5F5F5E2E2F5F5F5F5E2F5F5F5F5F5F5F5F5F5F5F5F5F5F5F5F5E2F5F5F5F5F5F5F5F5F5F5F5F5F5F5F5F5F5F5F5F5F5F5F5F5F5F5F5F5F5F5F5F5F5F5F5F5F5
310
F5F5F5F5F5F5F5F5F5F5F5F5F5F5F5F5F5F5F5F5F5F5F5F5F5F5F5F5F5F5F5F5F5F5F5F5F5F5F5F5F5F5F5F5F5F5F5F5F5F5F5F5F5F5F5F5F5F5F5F5F5F5F5F5F5F5F5F5F5F5F5F5F5F5F5F5F5F5F5F5F5F5F5F5F5F5F5F5F5F5F5F5F5F5F5F5F5E2F5F5F5F5F5F5F5F5F5F5F5F5F5F5F5F5E2F5F5F5F5E2E2F5F5F5F5E2F5
310
F5F5F5F5F5F5F5F5F5F5F5F5F5F5F5E2F5F5F5F5F5F5F5F5F5F5F5F5F5F5F5F5F5F5F5F5F5F5F5F5F5F5F5F5F5F5F5F5F5F5F5F5F5F5F5F5F5F5F5F5F5F5F5F5F5F5F5F5F5F5F5F5F5F5F5F5F5F5F5F5F5F5F5F5F5F5F5F5F5F5F5F5F5F5F5F5F5F5F5F5F5F5F5F5F5F5F5F5F5F5F5F5F5F5F5F5F5F5F5F5F5F5F5F5F5F5F5
310
F5F5F5F5F5F5F5F5F5F5F5F5F5F5F5F5F5F5F5F5F5F5F5E2F5F5F5F5F5F5F5F5F5F5F5F5F5F5F5F5E2F5F5F5F5E2E2F5F5F5F5E2F5F5F5F5F5F5F5F5F5F5F5F5F5F5F5F5E2F5F5F5F5F5F5F5F5F5F5F5F5F5F5F5F5F5F5F5F5F5F5F5F5F5F5F5F5F5F5F5F5F5F5F5F5F5F5F5F5F5F5F5F5F5F5F5F5F5F5F5F5F5F5F5F5F5F5
310
F5F5F5F5F5F5F5F5F5F5F5F5F5F5F5F5F5F5F5F5F5F5F5F5F5F5F5F5F5F5F5F5F5F5F5F5F5F5F5F5F5F5F5F5F5F5F5F5F5F5F5F5F5F5F5F5F5F5F5F5F5F5F5F5F5F5F5F5F5F5F5F5F5F5F5F5E2F5F5F5F5F5F5F5F5F5F5F5F5F5F5F5F5E2F5F5F5F5E2E2F5F5F5F5E2F5F5F5F5F5F5F5F5F5F5F5F5F5F5F5F5E2F5F5F5F5F5
310
F5F5F5F5F5F5F5F5F5F5F5F5F5F5F5F5F5F5F5F5F5F5F5F5F5F5F5F5F5F5F5F5F5F5F5F5F5F5F5F5F5F5F5F5F5F5F5F5F5F5F5F5F5F5F5F5F5F5F5F5F5F5F5F5F5F5F5F5F5F5F5F5F5F5F5F5F5F5F5F5F5F5F5F5F5F5F5F5F5F5F5F5F5F5F5F5F5F5F5F5F5F5F5F5F5F5F5F5F5F5F5F5F5F5F5F5F5F5F5F5F5F5F5F5F5F5F5
310
F5F5E2F5F5F5F5F5F5F5F5F5F5F5F5F5F5F5F5E2F5F5F5F5E2E2F5F5F5F5E2F5F5F5F5F5F5F5F5F5F5F5F5F5F5F5F5E2F5F5F5F5F5F5F5F5F5F5F5F5F5F5F5F5F5F5F5F5F5F5F5F5F5F5F5F5F5F5F5F5F5F5F5F5F5F5F5F5F5F5F5F5F5F5F5F5F5F5F5F5F5F5F5F5F5F5F5F5F5F5F5F5F5F5F5F5F5F5F5F5F5F5F5F5F5F5F5
310
F5F5F5F5F5F5F5F5F5F5F5F5F5F5F5F5F5F5F5F5F5F5F5F5F5F5F5F5F5F5F5F5F5F5F5F5F5F5F5F5F5F5F5F5F5F5F5F5F5F5F5F5F5F5F5E2F5F5F5F5F5F5F5F5F5F5F5F5F5F5F5F5E2F5F5F5F5E2E2F5F5F5F5E2F5F5F5F5F5F5F5F5F5F5F5F5F5F5F5F5E2F5F5F5F5F5F5F5F5F5F5F5F5F5F5F5F5F5F5F5F5F5F5F5F5F5F5
310
F5F5F5F5F5F5F5F5F5F5F5F5F5F5F5F5F5F5F5F5F5F5F5F5F5F5F5F5F5F5F5F5F5F5F5F5F5F5F5F5F5F5F5F5F5F5F5F5F5F5F5F5F5F5F5F5F5F5F5F5F5F5F5F5F5F5F5F5F5F5F5F5F5F5F5F5F5F5F5F5F5F5F5F5F5F5F5F5F5F5F5F5F5F5F5F5F5F5F5F5F5F5F5F5F5F5F5F5E2F5F5F5F5F5F5F5F5F5F5F5F5F5F5F5F5E2F5
310
F5F5F5E2E2F5F5F5F5E2F5F5F5F5F5F5F5F5F5F5F5F5F5F5F5F5E2F5F5F5F5F5F5F5F5F5F5F5F5F5F5F5F5F5F5F5F5F5F5F5F5F5F5F5F5F5F5F5F5F5F5F5F5F5F5F5F5F5F5F5F5F5F5F5F5F5F5F5F5F5F5F5F5F5F5F5F5F5F5F5F5F5F5F5F5F5F5F5F5F5F5F5F5F5F5F5F5F5F5F5F5F5F5F5F5F5F5F5F5F5F5F5F5F5F5F5F5
310
F5F5F5F5F5F5F5F5F5F5F5F5F5F5F5F5F5F5F5F5F5F5F5F5F5F5F5F5F5F5F5F5F5F5E2F5F5F5F5F5F5F5F5F5F5F5F5F5F5F5F5E2F5F5F5F5E2E2F5F5F5F5E2F5F5F5F5F5F5F5F5F5F5F5F5F5F5F5F5E2F5F5F5F5F5F5F5F5F5F5F5F5F5F5F5F5F5F5F5F5F5F5F5F5F5F5F5F5F5F5F5F5F5F5F5F5F5F5F5F5F5F5F5F5F5F5F5
310
F5F5F5F5F5F5F5F5F5F5F5F5F5F5F5F5F5F5F5F5F5F5F5F5F5F5F5F5F5F5F5F5F5F5F5F5F5F5F5F5F5F5F5F5F5F5F5F5F5F5F5F5F5F5F5F5F5F5F5F5F5F5F5F5F5F5F5F5F5F5F5F5F5F5F5F5F5F5F5F5F5F5F5F5F5F5F5E2F5F5F5F5F5F5F5F5F5F5F5F5F5F5F5F5E2F5F5F5F5E2E2F5F5F5F5E2F5F5F5F5F5F5F5F5F5F5F5
310
F5F5F5F5F5E2F5F5F5F5F5F5F5F5F5F5F5F5F5F5F5F5F5F5F5F5F5F5F5F5F5F5F5F5F5F5F5F5F5F5F5F5F5F5F5F5F5F5F5F5F5F5F5F5F5F5F5F5F5F5F5F5F5F5F5F5F5F5F5F5F5F5F5F5F5F5F5F5F5F5F5F5F5F5F5F5F5F5F5F5F5F5F5F5F5F5F5F5F5F5F5F5F5F5F5F5F5F5F5F5F5F5F5F5F5F5F5F5F5F5F5F5F5F5F5F5F5
310
F5F5F5F5F5F5F5F5F5F5F5F5F5E2F5F5F5F5F5F5F5F5F5F5F5F5F5F5F5F5E2F5F5F5F5E2E2F5F5F5F5E2F5F5F5F5F5F5F5F5F5F5F5F5F5F5F5F5E2F5F5F5F5F5F5F5F5F5F5F5F5F5F5F5F5F5F5F5F5F5F5F5F5F5F5F5F5F5F5F5F5F5F5F5F5F5F5F5F5F5F5F5F5F5F5F5F5F5F5F5F5F5F5F5F5F5F5F5F5F5F5F5F5F5F5F5F5
310
F5F5F5F5F5F5F5F5F5F5F5F5F5F5F5F5F5F5F5F5F5F5F5F5F5F5F5F5F5F5F5F5F5F5F5F5F5F5F5F5F5F5F5F5F5F5F5F5F5F5F5F5F5F5F5F5F5F5F5F5F5F5F5F5F5F5E2F5F5F5F5F5F5F5F5F5F5F5F5F5F5F5F5E2F5F5F5F5E2E2F5F5F5F5E2F5F5F5F5F5F5F5F5F5F5F5F5F5F5F5F5E2F5F5F5F5F5F5F5F5F5F5F5F5F5F5F5
310
F5F5F5F5F5F5F5F5F5F5F5F5F5F5F5F5F5F5F5F5F5F5F5F5F5F5F5F5F5F5F5F5F5F5F5F5F5F5F5F5F5F5F5F5F5F5F5F5F5F5F5F5F5F5F5F5F5F5F5F5F5F5F5F5F5F5F5F5F5F5F5F5F5F5F5F5F5F5F5F5F5F5F5F5F5F5F5F5F5F5F5F5F5F5F5F5F5F5F5F5F5F5F5F5F5F5F5F5F5F5F5F5F5F5F5F5F5F5F5E2F5F5F5F5F5F5F5
310
F5F5F5F5F5F5F5F5F5E2F5F5F5F5E2E2F5F5F5F5E2F5F5F5F5F5F5F5F5F5F5F5F5F5F5F5F5E2F5F5F5F5F5F5F5F5F5F5F5F5F5F5F5F5F5F5F5F5F5F5F5F5F5F5F5F5F5F5F5F5F5F5F5F5F5F5F5F5F5F5F5F5F5F5F5F5F5F5F5F5F5F5F5F5F5F5F5F5F5F5F5F5F5F5F5F5F5F5F5F5F5F5F5F5F5F5F5F5F5F5F5F5F5F5F5F5F5
310
F5F5F5F5F5F5F5F5F5F5F5F5F5F5F5F5F5F5F5F5F5F5F5F5F5F5F5F5F5F5F5F5F5F5F5F5F5F5F5F5F5F5F5F5F5E2F5F5F5F5F5F5F5F5F5F5F5F5F5F5F5F5E2F5F5F5F5E2E2F5F5F5F5E2F5F5F5F5F5F5F5F5F5F5F5F5F5F5F5F5E2F5F5F5F5F5F5F5F5F5F5F5F5F5F5F5F5F5F5F5F5F5F5F5F5F5F5F5F5F5F5F5F5F5F5F5F5
310
F5F5F5F5F5F5F5F5F5F5F5F5F5F5F5F5F5F5F5F5F5F5F5F5F5F5F5F5F5F5F5F5F5F5F5F5F5F5F5F5F5F5F5F5F5F5F5F5F5F5F5F5F5F5F5F5F5F5F5F5F5F5F5F5F5F5F5F5F5F5F5F5F5F5F5F5F5F5F5F5F5F5F5F5F5F5F5F5F5F5F5F5F5F5F5F5F5F5E2F5F5F5F5F5F5F5F5F5F5F5F5F5F5F5F5E2F5F5F5F5E2E2F5F5F5F5E2
310
F5F5F5F5F5F5F5F5F5F5F5F5F5F5F5F5E2F5F5F5F5F5F5F5F5F5F5F5F5F5F5F5F5F5F5F5F5F5F5F5F5F5F5F5F5F5F5F5F5F5F5F5F5F5F5F5F5F5F5F5F5F5F5F5F5F5F5F5F5F5F5F5F5F5F5F5F5F5F5F5F5F5F5F5F5F5F5F5F5F5F5F5F5F5F5F5F5F5F5F5F5F5F5F5F5F5F5F5F5F5F5F5F5F5F5F5F5F5F5F5F5F5F5F5F5F5F5
310
F5F5F5F5F5F5F5F5F5F5F5F5F5F5F5F5F5F5F5F5F5F5F5F5E2F5F5F5F5F5F5F5F5F5F5F5F5F5F5F5F5E2F5F5F5F5E2E2F5F5F5F5E2F5F5F5F5F5F5F5F5F5F5F5F5F5F5F5F5E2F5F5F5F5F5F5F5F5F5F5F5F5F5F5F5F5F5F5F5F5F5F5F5F5F5F5F5F5F5F5F5F5F5F5F5F5F5F5F5F5F5F5F5F5F5F5F5F5F5F5F5F5F5F5F5F5F5
310
F5F5F5F5F5F5F5F5F5F5F5F5F5F5F5F5F5F5F5F5F5F5F5F5F5F5F5F5F5F5F5F5F5F5F5F5F5F5F5F5F5F5F5F5F5F5F5F5F5F5F5F5F5F5F5F5F5F5F5F5F5F5F5F5F5F5F5F5F5F5F5F5F5F5F5F5F5E2F5F5F5F5F5F5F5F5F5F5F5F5F5F5F5F5E2F5F5F5F5E2E2F5F5F5F5F5F5F5F5F5F5F5F5F5F5F5F5F5F5F5F5F5E2F5F5F5F5
310
F5F5F5F5F5F5F5F5F5F5F5F5F5F5F5F5F5F5F5F5F5F5F5F5F5F5F5F5F5F5F5F5F5F5F5F5F5F5F5F5F5F5F5F5F5F5F5F5F5F5F5F5F5F5F5F5F5F5F5F5F5F5F5F5F5F5F5F5F5F5F5F5F5F5F5F5F5F5F5F5F5F5F5F5F5F5F5F5F5F5F5F5F5F5F5F5F5F5F5F5F5F5F5F5F5F5F5F5F5F5F5F5F5F5F5F5F5F5F5F5F5F5F5F5F5F5F5
310
F5F5F5E2F5F5F5F5F5F5F5F5F5F5F5F5F5F5F5F5F5F5F5F5F5E2E2F5F5F5F5F5F5F5F5F5F5F5F5F5F5F5F5F5F5F5F5F5E2F5F5F5F5F5F5F5F5F5F5F5F5F5F5F5F5F5F5F5F5F5F5F5F5F5F5F5F5F5F5F5F5F5F5F5F5F5F5F5F5F5F5F5F5F5F5F5F5F5F5F5F5F5F5F5F5F5F5F5F5F5F5F5F5F5F5F5F5F5F5F5F5F5F5F5F5F5F5
310
F5F5F5F5F5F5F5F5F5F5F5F5F5F5F5F5F5F5F5F5F5F5F5F5F5F5F5F5F5F5F5F5F5F5F5F5F5F5F5F5F5F5F5F5F5F5F5F5F5F5F5F5F5F5F5F5E2F5F5F5F5F5F5F5F5F5F5F5F5F5F5F5F5F5F5F5F5F5E2E2F5F5F5F5F5F5F5F5F5F5F5F5F5F5F5F5F5F5F5F5F5E2F5F5F5F5F5F5F5F5F5F5F5F5F5F5F5F5F5F5F5F5F5F5F5F5F5
310
F5F5F5F5F5F5F5F5F5F5F5F5F5F5F5F5F5F5F5F5F5F5F5F5F5F5F5F5F5F5F5F5F5F5F5F5F5F5F5F5F5F5F5F5F5F5F5F5F5F5F5F5F5F5F5F5F5F5F5F5F5F5F5F5F5F5F5F5F5F5F5F5F5F5F5F5F5F5F5F5F5F5F5F5F5F5F5F5F5F5F5F5F5F5F5F5F5F5F5F5F5F5F5F5F5F5F5F5F5E2F5F5F5F5F5F5F5F5F5F5F5F5F5F5F5F5F5
310
F5F5F5F5E2E2F5F5F5F5F5F5F5F5F5F5F5F5F5F5F5F5F5F5F5F5F5E2F5F5F5F5F5F5F5F5F5F5F5F5F5F5F5F5F5F5F5F5F5F5F5F5F5F5F5F5F5F5F5F5F5F5F5F5F5F5F5F5F5F5F5F5F5F5F5F5F5F5F5F5F5F5F5F5F5F5F5F5F5F5F5F5F5F5F5F5F5F5F5F5F5F5F5F5F5F5F5F5F5F5F5F5F5F5F5F5F5F5F5F5F5F5F5F5F5F5F5
310
F5F5F5F5F5F5F5F5F5F5F5F5F5F5F5F5F5F5F5F5F5F5F5F5F5F5F5F5F5F5F5F5F5F5F5E2F5F5F5F5F5F5F5F5F5F5F5F5F5F5F5F5F5F5F5F5F5E2E2F5F5F5F5F5F5F5F5F5F5F5F5F5F5F5F5F5F5F5F5F5E2E2E2E2E2E2E2E2E2E2E2E2E2E2E2E2E2E2E2E2E2E2E2E2E2E2E2E2E2E2E2E2E2E2E2E2E2E2E2E2E2E2E2E2E2E2E2
310
E2E2E2E2E2E2E2E2E2E2E2E2E2E2E2E2E2E2E2E2E2E2E2E2E2E2E2E2E2E2E2E2E2E2E2E2E2E2E2E2E2E2E2E2E2E2E2E2E2E2E2E2E2E2E2E2E2E2E2E2E2E2E2E2E2E2E2E2E2E2E2E2E2E2E2E2E2E2E2E2E2E2E2E2E2E2E2E2E2F5F5F5F5F5F5F5F5F5F5F5F5F5F5F5F5F5F5F5F5F5E2E2F5F5F5F5F5F5F5F5F5F5F5F5F5F5F5
310
F5F5F5F5F5F5F5F5F5F5F5F5F5F5F5F5F5F5F5F5F5F5F5F5F5F5F5F5F5F5F5F5F5F5F5F5F5F5F5F5F5F5F5F5F5F5F5F5F5F5F5F5F5F5F5F5F5F5F5F5F5F5F5F5F5F5F5F5F5F5F5F5F5F5F5F5F5F5F5F5F5F5F5F5F5F5F5F5F5F5F5F5F5F5F5F5F5F5F5F5F5F5F5F5F5F5F5F5F5F5F5F5F5F5F5F5F5F5F5F5F5F5F5F5F5F5F5
310
F5F5F5F5F5F5F5F5F5F5F5F5F5F5F5F5F5F5F5F5F5F5F5F5F5F5F5F5F5F5F5F5F5F5F5F5E2E2F5F5F5F5F5F5F5F5F5F5F5F5F5F5F5F5F5F5F5F5F5F5F5F5F5F5F5F5F5F5F5F5F5F5F5F5F5F5F5F5F5F5F5F5F5F5F5F5F5F5F5F5F5F5F5F5F5F5F5F5F5F5F5F5F5F5F5F5F5F5F5F5F5F5F5F5F5F5F5F5F5F5F5F5F5F5F5F5F5
310
F5F5F5F5F5F5F5F5F5F5F5F5F5F5F5F5F5F5F5F5F5F5F5F5F5F5F5F5F5F5F5F5F5F5F5F5F5F5F5F5F5F5F5F5F5F5F5F5F5F5F5F5F5F5F5F5F5F5F5F5F5F5F5F5F5F5F5F5F5F5F5F5F5F5F5F5F5F5F5F5F5F5F5F5F5F5F5F5F5E2E2F5F5F5F5F5F5F5F5F5F5F5F5F5F5F5F5F5F5F5F5F5F5F5F5F5F5F5F5F5F5F5F5F5F5F5F5
310
F5F5F5F5F5F5F5F5F5F5F5F5F5F5F5F5F5F5F5F5F5F5F5F5F5F5F5F5F5F5F5F5F5F5F5F5F5F5F5F5F5F5F5F5F5F5F5F5F5F5F5F5F5F5F5F5F5F5F5F5F5F5F5F5F5F5F5F5F5F5F5F5F5F5F5F5F5F5F5F5F5F5F5F5F5F5F5F5F5F5F5F5F5F5F5F5F5F5F5F5F5F5F5F5F5F5F5F5F5F5F5F5F5F5F5F5F5F5F5F5F5F5F5F5F5F5F5
310
F5F5F5F5F5F5F5F5F5F5F5F5F5F5F5E2E2F5F5F5F5F5F5F5F5F5F5F5F5F5F5F5F5F5F5F5F5F5F5F5F5F5F5F5F5F5F5F5F5F5F5F5F5F5F5F5F5F5F5F5F5F5F5F5F5F5F5F5F5F5F5F5F5F5F5F5F5F5F5F5F5F5F5F5F5F5F5F5F5F5F5F5F5F5F5F5F5F5F5F5F5F5F5F5F5F5F5F5F5F5F5F5F5F5F5F5F5F5F5F5F5F5F5F5F5F5F5
310
F5F5F5F5F5F5F5F5F5F5F5F5F5F5F5F5F5F5F5F5F5F5F5F5F5F5F5F5F5F5F5F5F5F5F5F5F5F5F5F5F5F5F5F5F5F5F5F5F5F5F5F5F5F5F5F5F5F5F5F5F5F5F5F5F5F5F5F5E2E2F5F5F5F5E2F5F5F5F5F5F5F5F5F5F5F5F5F5F5F5F5F5F5F5F5F5F5F5F5F5F5F5F5F5F5F5F5F5F5F5F5F5F5F5F5F5F5F5F5F5F5F5F5F5F5F5F5
310
F5F5F5F5F5F5F5F5F5F5F5F5F5F5F5F5F5F5F5F5F5F5F5F5F5F5F5F5F5F5F5F5F5F5F5F5F5F5F5F5F5F5F5F5F5F5F5F5F5F5F5F5F5F5F5F5F5F5F5F5F5F5F5F5F5F5F5F5F5F5F5F5F5F5F5F5F5F5F5F5F5F5F5F5F5F5F5F5F5F5F5F5F5F5F5F5F5F5F5F5F5F5F5F5F5F5F5F5F5F5F5F5F5F5F5F5E2F5F5F5F5E2E2F5F5F5F5
310
E2F5F5F5F5F5F5F5F5F5F5F5F5F5F5F5F5F5F5F5F5F5F5F5F5F5F5F5F5F5F5F5F5F5F5F5F5F5F5F5F5F5F5F5F5F5F5F5F5F5F5F5F5F5F5F5F5F5F5F5F5F5F5F5F5F5F5F5F5F5F5F5F5F5F5F5F5F5F5F5F5F5F5F5F5F5F5F5F5F5F5F5F5F5F5F5F5F5F5F5F5F5F5F5F5F5F5F5F5F5F5F5F5F5F5F5F5F5F5F5F5F5F5F5F5F5F5
310
F5F5F5F5F5F5F5F5F5F5F5F5F5F5F5F5F5F5F5F5F5F5F5F5F5F5F5F5F5F5F5F5F5F5F5F5F5F5F5F5F5F5E2F5F5F5F5E2E2F5F5F5F5E2F5F5F5F5F5F5F5F5F5F5F5F5F5F5F5F5F5F5F5F5F5F5F5F5F5F5F5F5F5F5F5F5F5F5F5F5F5F5F5F5F5F5F5F5F5F5F5F5F5F5F5F5F5F5F5F5F5F5F5F5F5F5F5F5F5F5F5F5F5F5F5F5F5
310
F5F5F5F5F5F5F5F5F5F5F5F5F5F5F5F5F5F5F5F5F5F5F5F5F5F5F5F5F5F5F5F5F5F5F5F5F5F5F5F5F5F5F5F5F5F5F5F5F5F5F5F5F5F5F5F5F5F5F5F5F5F5F5F5F5F5F5F5F5F5F5F5F5F5F5F5F5F5F5F5F5F5F5F5F5F5F5F5F5F5F5F5F5F5F5E2F5F5F5F5E2E2F5F5F5F5E2F5F5F5F5F5F5F5F5F5F5F5F5F5F5F5F5F5F5F5F5
310
F5F5F5F5F5F5F5F5F5F5F5F5F5F5F5F5F5F5F5F5F5F5F5F5F5F5F5F5F5F5F5F5F5F5F5F5F5F5F5F5F5F5F5F5F5F5F5F5F5F5F5F5F5F5F5F5F5F5F5F5F5F5F5F5F5F5F5F5F5F5F5F5F5F5F5F5F5F5F5F5F5F5F5F5F5F5F5F5F5F5F5F5F5F5F5F5F5F5F5F5F5F5F5F5F5F5F5F5F5F5F5F5F5F5F5F5F5F5F5F5F5F5F5F5F5F5F5
310
F5F5F5F5F5F5F5F5F5F5F5F5F5F5F5F5F5F5F5F5F5E2F5F5F5F5E2E2F5F5F5F5E2F5F5F5F5F5F5F5F5F5F5F5F5F5F5F5F5F5F5F5F5F5F5F5F5F5F5F5F5F5F5F5F5F5F5F5F5F5F5F5F5F5F5F5F5F5F5F5F5F5F5F5F5F5F5F5F5F5F5F5F5F5F5F5F5F5F5F5F5F5F5F5F5F5F5F5F5F5F5F5F5F5F5F5F5F5F5F5F5F5F5F5F5F5F5
310
F5F5F5F5F5F5F5F5F5F5F5F5F5F5F5F5F5F5F5F5F5F5F5F5F5F5F5F5F5F5F5F5F5F5F5F5F5F5F5F5F5F5F5F5F5F5F5F5F5F5F5F5F5F5F5F5F5F5F5F5F5F5F5F5F5F5F5F5F5F5F5F5F5F5E2F5F5F5F5E2E2F5F5F5F5E2F5F5F5F5F5F5F5F5F5F5F5F5F5F5F5F5F5F5F5F5F5F5F5F5F5F5F5F5F5F5F5F5F5F5F5F5F5F5F5F5F5
310
F5F5F5F5F5F5F5F5F5F5F5F5F5F5F5F5F5F5F5F5F5F5F5F5F5F5F5F5F5F5F5F5F5F5F5F5F5F5F5F5F5F5F5F5F5F5F5F5F5F5F5F5F5F5F5F5F5F5F5F5F5F5F5F5F5F5F5F5F5F5F5F5F5F5F5F5F5F5F5F5F5F5F5F5F5F5F5F5F5F5F5F5F5F5F5F5F5F5F5F5F5F5F5F5F5F5F5F5F5F5F5F5F5F5F5F5F5F5F5F5F5F5F5F5F5F5F5
310
E2F5F5F5F5E2E2F5F5F5F5E2F5F5F5F5F5F5F5F5F5F5F5F5F5F5F5F5F5F5F5F5F5F5F5F5F5F5F5F5F5F5F5F5F5F5F5F5F5F5F5F5F5F5F5F5F5F5F5F5F5F5F5F5F5F5F5F5F5F5F5F5F5F5F5F5F5F5F5F5F5F5F5F5F5F5F5F5F5F5F5F5F5F5F5F5F5F5F5F5F5F5F5F5F5F5F5F5F5F5F5F5F5F5F5F5F5F5F5F5F5F5F5F5F5F5F5
310
F5F5F5F5F5F5F5F5F5F5F5F5F5F5F5F5F5F5F5F5F5F5F5F5F5F5F5F5F5F5F5F5F5F5F5F5F5F5F5F5F5F5F5F5F5F5F5F5F5F5F5F5F5E2F5F5F5F5E2E2F5F5F5F5E2F5F5F5F5F5F5F5F5F5F5F5F5F5F5F5F5F5F5F5F5F5F5F5F5F5F5F5F5F5F5F5F5F5F5F5F5F5F5F5F5F5F5F5F5F5F5F5F5F5F5F5F5F5F5F5F5F5F5F5F5F5F5
310
F5F5F5F5F5F5F5F5F5F5F5F5F5F5F5F5F5F5F5F5F5F5F5F5F5F5F5F5F5F5F5F5F5F5F5F5F5F5F5F5F5F5F5F5F5F5F5F5F5F5F5F5F5F5F5F5F5F5F5F5F5F5F5F5F5F5F5F5F5F5F5F5F5F5F5F5F5F5F5F5F5F5F5F5F5F5F5F5F5F5F5F5F5F5F5F5F5F5F5F5F5F5F5F5F5F5E2F5F5F5F5E2E2F5F5F5F5E2E2E2E2E2E2E2E2F5F5
310
F5F5F5F5F5F5F5E2E2E2E2E2E2E2E2E2E2E2E2E2E2E2F5F5F5F5F5F5F5F5F5E2E2E2E2E2E2E2E2E2E2E2E2E2E2E2E2F5F5F5F5F5F5F5F5E2E2E2E2E2E2E2E2E2E2E2E2E2E2E2E2F5F5F5F5F5F5F5F5E2E2E2E2E2E2E2E2E2E2E2E2E2E2E2E2F5F5F5F5F5F5F5F5E2E2E2E2E2E2E2E2E2E2E2E2E2E2E2E2F5F5F5F5F5F5F5F5
310
F5E2E2E2E2E2E2E2E2E2E2E2E2E2E2E2F5F5F5F5F5F5F5F5F5E2E2E2E2E2E2E2E2F5F5F5F5E2E2F5F5F5F5F5F5F5F5F5F5F5F5F5F5F5F5F5F5F5F5F5F5F5F5F5F5F5F5F5F5F5F5F5F5F5F5F5F5F5F5F5F5F5F5F5F5F5F5F5F5F5F5F5F5F5F5F5F5F5F5F5F5F5F5F5F5F5F5F5F5F5F5F5F5F5F5F5F5F5F5F5F5F5F5F5F5F5F5
310
F5F5F5F5F5F5F5F5F5F5F5F5F5F5F5F5F5F5F5F5F5F5F5F5F5F5F5F5F5F5F5F5F5F5F5F5F5F5F5F5F5F5F5F5F5F5F5F5F5F5F5F5F5F5F5F5F5F5F5F5F5F5F5F5F5F5F5F5F5F5F5F5F5F5F5F5F5F5F5F5F5F5F5F5F5F5F5F5F5F5E2E2F5F5F5F5F5F5F5F5F5F5F5F5F5F5F5F5F5F5F5F5F5F5F5F5F5F5F5F5F5F5F5F5F5F5F5
310
F5F5F5F5F5F5F5F5F5F5F5F5F5F5F5F5F5F5F5F5F5F5F5F5F5F5F5F5F5F5F5F5F5F5F5F5F5F5F5F5F5F5F5F5F5F5F5F5F5F5F5F5F5F5F5F5F5F5F5F5F5F5F5F5F5F5F5F5F5F5F5F5F5F5F5F5F5F5F5F5F5F5F5F5F5F5F5F5F5F5F5F5F5F5F5F5F5F5F5F5F5F5F5F5F5F5F5F5F5F5F5F5F5F5F5F5F5F5F5F5F5F5F5F5F5F5F5
310
F5F5F5F5F5F5F5F5F5F5F5F5F5F5F5F5E2E2F5F5F5F5F5F5F5F5F5F5F5F5F5F5F5F5F5F5F5F5F5F5F5F5F5F5F5F5F5F5F5F5F5F5F5F5F5F5F5F5F5F5F5F5F5F5F5F5F5F5F5F5F5F5F5F5F5F5F5F5F5F5F5F5F5F5F5F5F5F5F5F5F5F5F5F5F5F5F5F5F5F5F5F5F5F5F5F5F5F5F5F5F5F5F5F5F5F5F5F5F5F5F5F5F5F5F5F5F5
310
F5F5F5F5F5F5F5F5F5F5F5F5F5F5F5F5F5F5F5F5F5F5F5F5F5F5F5F5F5F5F5F5F5F5F5F5F5F5F5F5F5F5F5F5F5F5F5F5F5F5F5F5F5F5F5F5F5F5F5F5F5F5F5F5F5F5F5F5F5E2E2E2E2E2E2E2E2E2E2E2E2E2E2E2E2E2E2E2E2E2E2E2E2E2E2E2E2E2E2E2E2E2E2E2E2E2E2E2E2E2E2E2E2E2E2E2E2E2E2E2E2E2E2E2E2E2E2
310
E2E2E2E2E2E2E2E2E2E2E2E2E2E2E2E2E2E2E2E2E2E2E2E2E2E2E2E2E2E2E2E2E2E2E2E2E2E2E2E2E2E2E2E2E2E2E2E2E2E2E2E2E2E2E2E2E2E2E2E2E2E2E2E2E2E2E2E2E2E2E2E2E2E2E2E2E2E2E2E2E2E2E2E2E2E2E2E2E2E2E2E2E2E2E2E2E2E2E2E2E2E2E2E2E2E2E2E2E2E2E2E2E2E2E2E2E2E2E2E2E2E2E2EFEFEFEF
310
EFEFEFEFEFEFEFEFEFEFEFEFEFEFEFEFEFEFEFEFEFEFEFEFEFEFEFEFEFEFEFEFEFEFEFEFEFEFEFEFEFEFEFEFEFEFEFEFEFEFEFEFEFEFEFEFEFEFEFEFEFEFEFEFEFEFEFEFEFEFEFEFEFEFEFEFEFEFEFEFEFEFEFEFEFEFEFEFEFEFEFEFEFEFEFEFEFEFEFEFEFEFEFEFEFEFEFEFEFEFEFEFEFEFEFEFEFEFEFEFEFEFEFEFEFEFEF
310
EFEFEFEFEFEFEFEFEFEFEFEFEFEFEFEFEFEFEFEFEFEFEFEFEFEFEFEFEFEFEFEFEFEFEFEFEFEFEFEFEFEFEFEFEFEFEFEFEF
  0
XRECORD
  5
5FD4F
102
{ACAD_REACTORS
330
B5
102
}
330
B5
100
AcDbXrecord
280
     1
102
SHADEPLOT
 70
     0
102
SHADEPLOTRESLEVEL
 70
     2
102
SHADEPLOTCUSTOMDPI
 70
   300
  0
XRECORD
  5
B6
102
{ACAD_REACTORS
330
B5
102
}
330
B5
100
AcDbXrecord
280
     1
310
28000000B40000008B0000000100080000000000BC610000000000000000000000010000000000000000000000000000FFFFFF000000000000000000000000000000000000000000000000000000000000000000330000006600000099000000CC000000FF00000000330000333300006633000099330000CC330000FF3300
310
0000660000336600006666000099660000CC660000FF66000000990000339900006699000099990000CC990000FF99000000CC000033CC000066CC000099CC0000CCCC0000FFCC000000FF000033FF000066FF000099FF0000CCFF0000FFFF000000003300330033006600330099003300CC003300FF003300003333003333
310
33006633330099333300CC333300FF33330000663300336633006666330099663300CC663300FF66330000993300339933006699330099993300CC993300FF99330000CC330033CC330066CC330099CC3300CCCC3300FFCC330000FF330033FF330066FF330099FF3300CCFF3300FFFF330000006600330066006600660099
310
006600CC006600FF00660000336600333366006633660099336600CC336600FF33660000666600336666006666660099666600CC666600FF66660000996600339966006699660099996600CC996600FF99660000CC660033CC660066CC660099CC6600CCCC6600FFCC660000FF660033FF660066FF660099FF6600CCFF6600
310
FFFF660000009900330099006600990099009900CC009900FF00990000339900333399006633990099339900CC339900FF33990000669900336699006666990099669900CC669900FF66990000999900339999006699990099999900CC999900FF99990000CC990033CC990066CC990099CC9900CCCC9900FFCC990000FF99
310
0033FF990066FF990099FF9900CCFF9900FFFF99000000CC003300CC006600CC009900CC00CC00CC00FF00CC000033CC003333CC006633CC009933CC00CC33CC00FF33CC000066CC003366CC006666CC009966CC00CC66CC00FF66CC000099CC003399CC006699CC009999CC00CC99CC00FF99CC0000CCCC0033CCCC0066CC
310
CC0099CCCC00CCCCCC00FFCCCC0000FFCC0033FFCC0066FFCC0099FFCC00CCFFCC00FFFFCC000000FF003300FF006600FF009900FF00CC00FF00FF00FF000033FF003333FF006633FF009933FF00CC33FF00FF33FF000066FF003366FF006666FF009966FF00CC66FF00FF66FF000099FF003399FF006699FF009999FF00CC
310
99FF00FF99FF0000CCFF0033CCFF0066CCFF0099CCFF00CCCCFF00FFCCFF0000FFFF0033FFFF0066FFFF0099FFFF00CCFFFF00FFFFFF00000000000D0D0D001A1A1A00282828003535350043434300505050005D5D5D006B6B6B00787878008686860093939300A1A1A100AEAEAE00BBBBBB00C9C9C900D6D6D600E4E4E400
310
F1F1F100FFFFFF0000000000000000000000000000000000000000000000000000000000000000000000000000000000F5F5F5F5F5F5F5F5F5F5F5F5F5F5F5F5F5F5F5F5F5F5F5F5F5F5F5F5F5F5F5F5F5F5F5F5F5F5F5F5F5F5F5F5F5F5F5F5F5F5F5F5F5F5F5F5F5F5F5F5F5F5F5F5F5F5F5F5F5F5F5F5F5F5F5F5F5F5F5
310
F5F5F5F5F5F5F5F5F5F5F5F5F5F5F5F5F5F5F5F5F5F5F5F5F5F5F5F5F5F5F5F5F5F5F5F5F5F5F5F5F5F5F5F5F5F5F5F5F5F5F5F5F5F5F5F5F5F5F5F5F5F5F5F5F5F5F5F5F5F5F5F5F5F5F5F5F5F5F5F5F5F5F5F5F5F5F5F5F5F5F5F5F5F5F5F5F5F5F5F5F5F5E2E2E2E2E2E2E2E2E2E2E2E2E2E2E2E2E2E2E2E2E2E2E2E2E2
310
E2E2E2E2E2E2E2E2E2E2E2E2E2E2E2E2E2E2E2E2E2E2E2E2E2E2E2E2E2E2E2E2E2E2E2E2E2E2E2E2E2E2E2E2E2E2E2E2E2E2E2E2E2E2E2E2E2E2E2E2E2E2E2E2E2E2E2E2E2E2E2E2E2E2E2E2E2E2E2E2E2E2E2E2E2E2E2E2E2E2E2E2E2E2E2E2E2E2E2E2E2E2E2E2E2E2E2E2E2E2E2E2E2E2E2E2E2E2E2E2E2E2E2E2E2E2E2
310
E2E2E2E2E2E2E2E2E2E2E2E2E2E2E2E2E2E2E2E2E2E2E2E2E2E2F5F5E2E2E2E2E2E2E2E2E2E2E2E2E2E2E2E2E2E2E2E2E2E2E2E2E2E2E2E2E2E2E2E2E2E2E2E2E2E2E2E2E2E2E2E2E2E2E2E2E2E2E2E2E2E2E2E2E2E2E2E2E2E2E2E2E2E2E2E2E2E2E2E2E2E2E2E2E2E2E2E2E2E2E2E2E2E2E2E2E2E2E2E2E2E2E2E2E2E2E2
310
E2E2E2E2E2E2E2E2E2E2E2E2E2E2E2E2E2E2E2E2E2E2E2E2E2E2E2E2E2E2E2E2E2E2E2E2E2E2E2E2E2E2E2E2E2E2E2E2E2E2E2E2E2E2E2E2E2E2E2E2E2E2E2E2E2E2E2E2E2E2E2E2E2E2E2E2E2E2E2F5F5E2E2E2E2E2E2E2E2E2E2E2E2E2E2E2E2E2E2E2E2E2E2E2E2E2E2E2E2E2E2E2E2E2E2E2E2E2E2E2E2E2E2E2E2E2E2
310
E2E2E2E2E2E2E2E2E2E2E2E2E2E2E2E2E2E2E2E2E2E2E2E2E2E2E2E2E2E2E2E2E2E2E2E2E2E2E2E2E2E2E2E2E2E2E2E2E2E2E2E2E2E2E2E2E2E2E2E2E2E2E2E2E2E2E2E2E2E2E2E2E2E2E2E2E2E2E2E2E2E2E2E2E2E2E2E2E2E2E2E2E2E2E2E2E2E2E2E2E2E2E2E2E2E2E2E2E2E2E2E2E2E2E2E2E2E2E2E2E2E2E2E2E2E2E2
310
E2E2E2E2E2F5F5E2E2E2E2E2E2E2E2E2E2E2E2E2E2E2E2E2E2E2E2E2E2E2E2E2E2E2E2E2E2E2E2E2E2E2E2E2E2E2E2E2E2E2E2E2E2E2E2E2E2E2E2E2E2E2E2E2E2E2E2E2E2E2E2E2E2E2E2E2E2E2E2E2E2E2E2E2E2E2E2E2E2E2E2E2E2E2E2E2E2E2E2E2E2E2E2E2E2E2E2E2E2E2E2E2E2E2E2E2E2E2E2E2E2E2E2E2E2E2E2
310
E2E2E2E2E2E2E2E2E2E2E2E2E2E2E2E2E2E2E2E2E2E2E2E2E2E2E2E2E2E2E2E2E2E2E2E2E2E2E2E2E2E2E2E2E2E2E2E2E2E2E2E2E2E2E2E2E2E2F5F5E2E2E2F5F5F5F5F5F5F5F5E2E2E2E2E2E2E2E2E2F5F5F5F5F5F5F5F5F5F5F5F5F5F5F5F5E2E2E2E2E2E2E2E2E2F5F5F5F5F5F5F5F5F5F5F5F5F5F5F5E2E2E2E2E2E2E2
310
E2E2F5F5F5F5F5F5F5F5F5F5F5F5F5F5F5F5E2E2E2E2E2E2E2E2F5F5F5F5F5F5F5F5F5F5F5F5F5F5F5F5E2E2E2E2E2E2E2E2E2F5F5F5F5F5F5F5F5F5F5F5F5F5F5F5E2E2E2E2E2E2E2E2E2F5F5F5F5F5F5F5F5F5F5F5F5F5F5F5F5E2E2E2E2E2E2E2E2E2F5F5F5F5F5F5F5F5E2E2E2F5F5E2E2E2F5E2E2E2E2E2E2E2E2E2E2
310
E2E2E2E2E2E2E2E2E2E2E2E2E2E2E2E2E2E2E2E2E2E2E2E2E2E2E2E2E2E2E2E2E2E2E2E2E2E2E2E2E2E2E2E2E2E2E2E2E2E2E2E2E2E2E2E2E2E2E2E2E2E2E2E2E2E2E2E2E2E2E2E2E2E2E2E2E2E2E2E2E2E2E2E2E2E2E2E2E2E2E2E2E2E2E2E2E2E2E2E2E2E2E2E2E2E2E2E2E2E2E2E2E2E2E2E2E2E2E2E2E2E2E2E2E2E2E2
310
E2E2E2E2E2E2E2E2E2E2E2E2E2E2E2E2E2E2E2E2E2E2E2E2E2E2E2E2E2E2E2E2E2F5E2E2E2F5F5E2E2E2F5E2E2E2E2E2E2E2E2E2E2E2E2E2E2E2E2E2E2E2E2E2E2E2E2E2E2E2E2E2E2E2E2E2E2E2E2E2E2E2E2E2E2E2E2E2E2E2E2E2E2E2E2E2E2E2E2E2E2E2E2E2E2E2E2E2E2E2E2E2E2E2E2E2E2E2E2E2E2E2E2E2E2E2E2
310
E2E2E2E2E2E2E2E2E2E2E2E2E2E2E2E2E2E2E2E2E2E2E2E2E2E2E2E2E2E2E2E2E2E2E2E2E2E2E2E2E2E2E2E2E2E2E2E2E2E2E2E2E2E2E2E2E2E2E2E2E2E2E2E2E2E2E2E2E2E2E2E2E2E2E2E2E2E2E2E2E2E2E2E2E2E2F5E2E2E2F5F5E2E2E2F5E2E2E2E2E2E2E2E2E2E2E2E2E2E2E2E2E2E2E2E2E2E2E2E2E2E2E2E2E2E2E2
310
E2E2E2E2E2E2E2E2E2E2E2E2E2E2E2E2E2E2E2E2E2E2E2E2E2E2E2E2E2E2E2E2E2E2E2E2E2E2E2E2E2E2E2E2E2E2E2E2E2E2E2E2E2E2E2E2E2E2E2E2E2E2E2E2E2E2E2E2E2E2E2E2E2E2E2E2E2E2E2E2E2E2E2E2E2E2E2E2E2E2E2E2E2E2E2E2E2E2E2E2E2E2E2E2E2E2E2E2E2E2E2E2E2E2E2E2E2E2E2E2E2E2E2E2E2E2E2
310
E2E2E2E2E2E2E2E2E2E2E2E2F5E2E2E2F5F5E2E2E2F5E2E2E2E2E2E2E2E2E2E2E2E2E2E2E2E2E2E2E2E2E2E2E2E2E2E2E2E2E2E2E2E2E2E2E2E2E2E2E2E2E2E2E2E2E2E2E2E2E2E2E2E2E2E2E2E2E2E2E2E2E2E2E2E2E2E2E2E2E2E2E2E2E2E2E2E2E2E2E2E2E2E2E2E2E2E2E2E2E2E2E2E2E2E2E2E2E2E2E2E2E2E2E2E2E2
310
E2E2E2E2E2E2E2E2E2E2E2E2E2E2E2E2E2E2E2E2E2E2E2E2E2E2E2E2E2E2E2E2E2E2E2E2E2E2E2E2E2E2E2E2E2E2E2E2E2E2E2E2E2E2E2E2E2E2E2E2E2E2E2E2E2F5E2E2E2F5F5E2E2E2F5E2E2E2E2E2E2E2E2E2E2E2E2E2E2E2E2E2E2E2E2E2E2E2E2E2E2E2E2E2E2E2E2E2E2E2E2E2E2E2E2E2E2E2E2E2E2E2E2E2E2E2E2
310
E2E2E2E2E2E2E2E2E2E2E2E2E2E2E2E2E2E2E2E2E2E2E2E2E2E2E2E2E2E2E2E2E2E2E2E2E2E2E2E2E2E2E2E2E2E2E2E2E2E2E2E2E2E2E2E2E2E2E2E2E2E2E2E2E2E2E2E2E2E2E2E2E2E2E2E2E2E2E2E2E2E2E2E2E2E2E2E2E2E2E2E2E2E2E2E2E2E2E2E2E2E2E2E2E2E2E2E2E2E2E2E2E2E2E2E2E2E2F5E2E2E2F5F5E2E2E2
310
F5E2E2E2E2E2E2E2E2E2E2E2E2E2E2E2E2E2E2E2E2E2E2E2E2E2E2E2E2E2E2E2E2E2E2E2E2E2E2E2E2E2E2E2E2E2E2E2E2E2E2E2E2E2E2E2E2E2E2E2E2E2E2E2E2E2E2E2E2E2E2E2E2E2E2E2E2E2E2E2E2E2E2E2E2E2E2E2E2E2E2E2E2E2E2E2E2E2E2E2E2E2E2E2E2E2E2E2E2E2E2E2E2E2E2E2E2E2E2E2E2E2E2E2E2E2E2
310
E2E2E2E2E2E2E2E2E2E2E2E2E2E2E2E2E2E2E2E2E2E2E2E2E2E2E2E2E2E2E2E2E2E2E2E2E2E2E2E2E2E2E2E2F5E2E2E2F5F5E2E2E2F5E2E2E2E2E2E2E2E2E2E2E2E2E2E2E2E2E2E2E2E2E2E2E2E2E2E2E2E2E2E2E2E2E2E2E2E2E2E2E2E2E2E2E2E2E2E2E2E2E2E2E2E2E2E2E2E2E2E2E2E2E2E2E2E2E2E2E2E2E2E2E2E2E2
310
E2E2E2E2E2E2E2E2E2E2E2E2E2E2E2E2E2E2E2E2E2E2E2E2E2E2E2E2E2E2E2E2E2E2E2E2E2E2E2E2E2E2E2E2E2E2E2E2E2E2E2E2E2E2E2E2E2E2E2E2E2E2E2E2E2E2E2E2E2E2E2E2E2E2E2E2E2E2E2E2E2E2E2E2E2E2E2E2E2E2E2E2E2E2E2E2E2F5E2E2E2F5F5E2E2E2F5E2E2E2E2E2E2E2E2E2E2E2E2E2E2E2E2E2E2E2E2
310
E2E2E2E2E2E2E2E2E2E2E2E2E2E2E2E2E2E2E2E2E2E2E2E2E2E2E2E2E2E2E2E2E2E2E2E2E2E2E2E2E2E2E2E2E2E2E2E2E2E2E2E2E2E2E2E2E2E2E2E2E2E2E2E2E2E2E2E2E2E2E2E2E2E2E2E2E2E2E2E2E2E2E2E2E2E2E2E2E2E2E2E2E2E2E2E2E2E2E2E2E2E2E2E2E2E2E2E2E2E2E2E2E2E2E2E2E2E2E2E2E2E2E2E2E2E2E2
310
E2E2E2E2E2E2E2E2E2E2E2E2E2E2E2E2E2E2E2E2E2E2E2F5E2E2E2F5F5E2E2E2E2E2E2E2E2E2E2E2E2E2E2E2E2E2E2E2E2E2E2E2E2E2E2E2E2E2E2E2E2E2E2E2E2E2E2E2E2E2E2E2E2E2E2E2E2E2E2E2E2E2E2E2E2E2E2E2E2E2E2E2E2E2E2E2E2E2E2E2E2E2E2E2E2E2E2E2E2E2E2E2E2E2E2E2E2E2E2E2E2E2E2E2E2E2E2
310
E2E2E2E2E2E2E2E2E2E2E2E2E2E2E2E2E2E2E2E2E2E2E2E2E2E2E2E2E2E2E2E2E2E2E2E2E2E2E2E2E2E2E2E2E2E2E2E2E2E2E2E2E2E2E2E2E2E2E2E2E2E2E2E2E2E2E2E2E2E2E2E2E2E2E2E2E2E2E2E2F5F5E2E2E2E2E2E2E2E2E2E2E2E2E2E2E2E2E2E2E2E2E2E2E2E2E2E2E2E2E2E2E2E2E2E2E2E2E2E2E2E2E2E2E2E2E2
310
E2E2E2E2E2E2E2E2E2E2E2E2E2E2E2E2E2E2E2E2E2E2E2E2E2E2E2E2E2E2E2E2E2E2E2E2E2E2E2E2E2E2E2E2E2E2E2E2E2E2E2E2E2E2E2E2E2E2E2E2E2E2E2E2E2E2E2E2E2E2E2E2E2E2E2E2E2E2E2E2E2E2E2E2E2E2E2E2E2E2E2E2E2E2E2E2E2E2E2E2E2E2E2E2E2E2E2E2E2E2E2E2E2E2E2E2E2E2E2E2E2E2E2E2E2E2E2
310
E2E2E2E2E2E2F5F5E2E2E2E2E2E2E2E2E2E2E2E2E2E2E2E2E2E2E2E2E2E2E2E2E2E2E2E2E2E2E2E2E2E2E2E2E2E2E2E2E2E2E2E2E2E2E2E2E2E2E2E2E2E2E2E2E2E2E2E2E2E2E2E2E2E2E2E2E2E2E2E2E2E2E2E2E2E2E2E2E2E2E2E2E2E2E2E2E2E2E2E2E2E2E2E2E2E2E2E2E2E2E2E2E2E2E2E2E2E2E2E2E2E2E2E2E2E2E2
310
E2E2E2E2E2E2E2E2E2E2E2E2E2E2E2E2E2E2E2E2E2E2E2E2E2E2E2E2E2E2E2E2E2E2E2E2E2E2E2E2E2E2E2E2E2E2E2E2E2E2E2E2E2E2E2E2E2E2E2F5F5E2E2E2E2E2E2E2E2E2E2E2E2E2E2E2E2E2E2E2E2E2E2E2E2E2E2E2E2E2E2E2E2E2E2E2E2E2E2E2E2E2E2E2E2E2E2E2E2E2E2E2E2E2E2E2E2E2E2E2E2E2E2E2E2E2E2
310
E2E2E2E2E2E2E2E2E2E2E2E2E2E2E2E2E2E2E2E2E2E2E2E2E2E2E2E2E2E2E2E2E2E2E2E2E2E2E2E2E2E2E2E2E2E2E2E2E2E2E2E2E2E2E2E2E2E2E2E2E2E2E2E2E2E2E2E2E2E2E2E2E2E2E2E2E2E2E2E2E2E2E2E2E2E2E2E2E2E2E2E2E2E2E2E2E2E2E2E2E2E2E2E2E2E2E2E2E2E2E2E2F5F5E2E2E2E2E2E2E2E2E2E2E2E2E2
310
E2E2E2E2E2E2E2F5F5F5F5F5F5F5F5F5F5F5F5F5F5F5F5F5F5F5F5F5F5F5F5F5F5F5F5F5F5F5F5F5F5F5F5F5F5F5F5F5F5F5F5F5F5F5F5F5F5F5F5F5F5F5F5F5F5F5F5F5F5F5F5F5F5F5F5F5F5F5F5F5F5F5F5F5F5F5F5F5F5F5F5F5F5F5F5F5F5F5F5F5F5F5F5F5F5F5F5F5F5F5F5F5F5F5F5F5F5F5F5F5F5F5F5F5F5F5F5
310
F5F5F5F5F5F5F5F5F5F5F5F5F5F5F5F5F5F5E2E2E2E2E2E2E2E2E2E2E2E2E2E2E2E2E2E2E2E2F5F5E2E2E2E2E2E2E2E2E2E2E2E2E2E2E2E2E2E2E2E2F5E2E2E2E2E2E2E2E2E2E2E2E2E2E2E2E2E2E2E2E2E2E2E2E2E2E2E2E2E2E2E2E2E2E2E2E2E2E2E2E2E2E2E2E2E2E2E2E2E2E2E2E2E2E2E2E2E2E2E2E2E2E2E2E2E2E2
310
E2E2E2E2E2E2E2E2E2E2E2E2E2E2E2E2E2E2E2E2E2E2E2E2E2E2E2E2E2E2E2E2E2E2E2E2E2E2E2E2E2E2E2E2E2E2E2E2E2E2E2E2E2E2E2E2E2E2E2E2E2E2E2E2E2E2E2E2E2E2F5E2E2E2E2E2E2E2E2E2E2E2E2E2E2E2E2E2E2E2E2F5F5E2E2E2E2E2E2E2E2E2E2E2E2E2E2E2E2E2E2E2E2F5E2E2E2E2E2E2E2E2E2E2E2E2E2
310
E2E2E2E2E2E2E2E2E2E2E2E2E2E2E2E2E2E2E2E2E2E2E2E2E2E2E2E2E2E2E2E2E2E2E2E2E2E2E2E2E2E2E2E2E2E2E2E2E2E2E2E2E2E2E2E2E2E2E2E2E2E2E2E2E2E2E2E2E2E2E2E2E2E2E2E2E2E2E2E2E2E2E2E2E2E2E2E2E2E2E2E2E2E2E2E2E2E2E2E2E2E2E2E2E2E2E2E2E2E2E2E2E2E2E2E2E2E2E2E2E2E2E2F5E2E2E2
310
E2E2E2E2E2E2E2E2E2E2E2E2E2E2E2E2E2F5F5E2E2E2E2E2E2E2E2E2E2E2E2E2E2E2E2E2E2E2E2F5E2E2E2E2E2E2E2E2E2E2E2E2E2E2E2E2E2E2E2E2E2E2E2E2E2E2E2E2E2E2E2E2E2E2E2E2E2E2E2E2E2E2E2E2E2E2E2E2E2E2E2E2E2E2E2E2E2E2E2E2E2E2E2E2E2E2E2E2E2E2E2E2E2E2E2E2E2E2E2E2E2E2E2E2E2E2E2
310
E2E2E2E2E2E2E2E2E2E2E2E2E2E2E2E2E2E2E2E2E2E2E2E2E2E2E2E2E2E2E2E2E2E2E2E2E2E2E2E2E2E2E2E2E2E2E2E2E2F5E2E2E2E2E2E2E2E2E2E2E2E2E2E2E2E2E2E2E2E2F5F5E2E2E2E2E2E2E2E2E2E2E2E2E2E2E2E2E2E2E2E2F5E2E2E2E2E2E2E2E2E2E2E2E2E2E2E2E2E2E2E2E2E2E2E2E2E2E2E2E2E2E2E2E2E2E2
310
E2E2E2E2E2E2E2E2E2E2E2E2E2E2E2E2E2E2E2E2E2E2E2E2E2E2E2E2E2E2E2E2E2E2E2E2E2E2E2E2E2E2E2E2E2E2E2E2E2E2E2E2E2E2E2E2E2E2E2E2E2E2E2E2E2E2E2E2E2E2E2E2E2E2E2E2E2E2E2E2E2E2E2E2E2E2E2E2E2E2E2E2E2E2E2E2E2E2E2E2E2E2F5E2E2E2E2E2E2E2E2E2E2E2E2E2E2E2E2E2E2E2E2F5F5E2E2
310
E2F5E2E2E2E2E2E2E2E2E2E2E2E2E2E2E2E2F5E2E2E2E2E2E2E2E2E2E2E2E2E2E2E2E2E2E2E2E2E2E2E2E2E2E2E2E2E2E2E2E2E2E2E2E2E2E2E2E2E2E2E2E2E2E2E2E2E2E2E2E2E2E2E2E2E2E2E2E2E2E2E2E2E2E2E2E2E2E2E2E2E2E2E2E2E2E2E2E2E2E2E2E2E2E2E2E2E2E2E2E2E2E2E2E2E2E2E2E2E2E2E2E2E2E2E2E2
310
E2E2E2E2E2E2E2E2E2E2E2E2E2E2E2E2E2E2E2E2E2E2E2E2E2E2E2E2F5E2E2E2E2E2E2E2E2E2E2E2E2E2E2E2E2F5E2E2E2F5F5E2E2E2F5E2E2E2E2E2E2E2E2E2E2E2E2E2E2E2E2F5E2E2E2E2E2E2E2E2E2E2E2E2E2E2E2E2E2E2E2E2E2E2E2E2E2E2E2E2E2E2E2E2E2E2E2E2E2E2E2E2E2E2E2E2E2E2E2E2E2E2E2E2E2E2E2
310
E2E2E2E2E2E2E2E2E2E2E2E2E2E2E2E2E2E2E2E2E2E2E2E2E2E2E2E2E2E2E2E2E2E2E2E2E2E2E2E2E2E2E2E2E2E2E2E2E2E2E2E2E2E2E2E2E2E2E2E2E2E2E2E2E2E2E2E2E2E2E2E2E2E2E2E2E2E2E2E2E2F5E2E2E2E2E2E2E2E2E2E2E2E2E2E2E2E2F5E2E2E2F5F5E2E2E2F5E2E2E2E2E2E2E2E2E2E2E2E2E2E2E2E2F5E2E2
310
E2E2E2E2E2E2E2E2E2E2E2E2E2E2E2E2E2E2E2E2E2E2E2E2E2E2E2E2E2E2E2E2E2E2E2E2E2E2E2E2E2E2E2E2E2E2E2E2E2E2E2E2E2E2E2E2E2E2E2E2E2E2E2E2E2E2E2E2E2E2E2E2E2E2E2E2E2E2E2E2E2E2E2E2E2E2E2E2E2E2E2E2E2E2E2E2E2E2E2E2E2E2E2E2E2E2E2E2E2E2E2E2E2E2E2E2E2E2E2E2E2E2E2E2E2E2E2
310
E2E2E2E2E2E2E2F5E2E2E2E2E2E2E2E2E2E2E2E2E2E2E2E2F5E2E2E2F5F5E2E2E2F5E2E2E2E2E2E2E2E2E2E2E2E2E2E2E2E2F5E2E2E2E2E2E2E2E2E2E2E2E2E2E2E2E2E2E2E2E2E2E2E2E2E2E2E2E2E2E2E2E2E2E2E2E2E2E2E2E2E2E2E2E2E2E2E2E2E2E2E2E2E2E2E2E2E2E2E2E2E2E2E2E2E2E2E2E2E2E2E2E2E2E2E2E2
310
E2E2E2E2E2E2E2E2E2E2E2E2E2E2E2E2E2E2E2E2E2E2E2E2E2E2E2E2E2E2E2E2E2E2E2E2E2E2E2E2E2E2E2E2E2E2E2E2E2E2E2E2E2E2E2E2E2E2E2E2F5E2E2E2E2E2E2E2E2E2E2E2E2E2E2E2E2F5E2E2E2F5F5E2E2E2F5E2E2E2E2E2E2E2E2E2E2E2E2E2E2E2E2F5E2E2E2E2E2E2E2E2E2E2E2E2E2E2E2E2E2E2E2E2E2E2E2
310
E2E2E2E2E2E2E2E2E2E2E2E2E2E2E2E2E2E2E2E2E2E2E2E2E2E2E2E2E2E2E2E2E2E2E2E2E2E2E2E2E2E2E2E2E2E2E2E2E2E2E2E2E2E2E2E2E2E2E2E2E2E2E2E2E2E2E2E2E2E2E2E2E2E2E2E2E2E2E2E2E2E2E2E2E2E2E2E2E2E2E2E2E2E2E2E2E2E2E2E2E2E2E2E2E2E2E2E2E2E2E2E2E2F5E2E2E2E2E2E2E2E2E2E2E2E2E2
310
E2E2E2F5E2E2E2F5F5E2E2E2F5E2E2E2E2E2E2E2E2E2E2E2E2E2E2E2E2F5E2E2E2E2E2E2E2E2E2E2E2E2E2E2E2E2E2E2E2E2E2E2E2E2E2E2E2E2E2E2E2E2E2E2E2E2E2E2E2E2E2E2E2E2E2E2E2E2E2E2E2E2E2E2E2E2E2E2E2E2E2E2E2E2E2E2E2E2E2E2E2E2E2E2E2E2E2E2E2E2E2E2E2E2E2E2E2E2E2E2E2E2E2E2E2E2E2
310
E2E2E2E2E2E2E2E2E2E2E2E2E2E2E2E2E2E2E2E2E2E2E2E2E2E2E2E2E2E2E2E2E2E2E2E2E2E2E2F5E2E2E2E2E2E2E2E2E2E2E2E2E2E2E2E2F5E2E2E2F5F5E2E2E2F5E2E2E2E2E2E2E2E2E2E2E2E2E2E2E2E2F5E2E2E2E2E2E2E2E2E2E2E2E2E2E2E2E2E2E2E2E2E2E2E2E2E2E2E2E2E2E2E2E2E2E2E2E2E2E2E2E2E2E2E2E2
310
E2E2E2E2E2E2E2E2E2E2E2E2E2E2E2E2E2E2E2E2E2E2E2E2E2E2E2E2E2E2E2E2E2E2E2E2E2E2E2E2E2E2E2E2E2E2E2E2E2E2E2E2E2E2E2E2E2E2E2E2E2E2E2E2E2E2E2E2E2E2E2E2E2E2E2E2E2E2E2E2E2E2E2E2E2E2E2E2E2E2E2E2F5E2E2E2E2E2E2E2E2E2E2E2E2E2E2E2E2F5E2E2E2F5F5E2E2E2F5E2E2E2E2E2E2E2E2
310
E2E2E2E2E2E2E2E2F5E2E2E2E2E2E2E2E2E2E2E2E2E2E2E2E2E2E2E2E2E2E2E2E2E2E2E2E2E2E2E2E2E2E2E2E2E2E2E2E2E2E2E2E2E2E2E2E2E2E2E2E2E2E2E2E2E2E2E2E2E2E2E2E2E2E2E2E2E2E2E2E2E2E2E2E2E2E2E2E2E2E2E2E2E2E2E2E2E2E2E2E2E2E2E2E2E2E2E2E2E2E2E2E2E2E2E2E2E2E2E2E2E2E2E2E2E2E2
310
E2E2E2E2E2E2E2E2E2E2E2E2E2E2E2E2E2E2F5E2E2E2E2E2E2E2E2E2E2E2E2E2E2E2E2F5E2E2E2F5F5E2E2E2F5E2E2E2E2E2E2E2E2E2E2E2E2E2E2E2E2F5E2E2E2E2E2E2E2E2E2E2E2E2E2E2E2E2E2E2E2E2E2E2E2E2E2E2E2E2E2E2E2E2E2E2E2E2E2E2E2E2E2E2E2E2E2E2E2E2E2E2E2E2E2E2E2E2E2E2E2E2E2E2E2E2E2
310
E2E2E2E2E2E2E2E2E2E2E2E2E2E2E2E2E2E2E2E2E2E2E2E2E2E2E2E2E2E2E2E2E2E2E2E2E2E2E2E2E2E2E2E2E2E2E2E2E2E2E2E2E2E2E2E2E2E2E2E2E2E2E2E2E2E2E2E2E2E2E2F5E2E2E2E2E2E2E2E2E2E2E2E2E2E2E2E2F5E2E2E2F5F5E2E2E2F5E2E2E2E2E2E2E2E2E2E2E2E2E2E2E2E2F5E2E2E2E2E2E2E2E2E2E2E2E2
310
E2E2E2E2E2E2E2E2E2E2E2E2E2E2E2E2E2E2E2E2E2E2E2E2E2E2E2E2E2E2E2E2E2E2E2E2E2E2E2E2E2E2E2E2E2E2E2E2E2E2E2E2E2E2E2E2E2E2E2E2E2E2E2E2E2E2E2E2E2E2E2E2E2E2E2E2E2E2E2E2E2E2E2E2E2E2E2E2E2E2E2E2E2E2E2E2E2E2E2E2E2E2E2E2E2E2E2E2E2E2E2E2E2E2E2E2E2E2E2E2E2E2E2E2F5E2E2
310
E2E2E2E2E2E2E2E2E2E2E2E2E2E2F5E2E2E2F5F5E2E2E2F5E2E2E2E2E2E2E2E2E2E2E2E2E2E2E2E2F5E2E2E2E2E2E2E2E2E2E2E2E2E2E2E2E2E2E2E2E2E2E2E2E2E2E2E2E2E2E2E2E2E2E2E2E2E2E2E2E2E2E2E2E2E2E2E2E2E2E2E2E2E2E2E2E2E2E2E2E2E2E2E2E2E2E2E2E2E2E2E2E2E2E2E2E2E2E2E2E2E2E2E2E2E2E2
310
E2E2E2E2E2E2E2E2E2E2E2E2E2E2E2E2E2E2E2E2E2E2E2E2E2E2E2E2E2E2E2E2E2E2E2E2E2E2E2E2E2E2E2E2E2E2E2E2E2E2F5E2E2E2E2E2E2E2E2E2E2E2E2E2E2E2E2F5E2E2E2F5F5E2E2E2F5E2E2E2E2E2E2E2E2E2E2E2E2E2E2E2E2F5E2E2E2E2E2E2E2E2E2E2E2E2E2E2E2E2E2E2E2E2E2E2E2E2E2E2E2E2E2E2E2E2E2
310
E2E2E2E2E2E2E2E2E2E2E2E2E2E2E2E2E2E2E2E2E2E2E2E2E2E2E2E2E2E2E2E2E2E2E2E2E2E2E2E2E2E2E2E2E2E2E2E2E2E2E2E2E2E2E2E2E2E2E2E2E2E2E2E2E2E2E2E2E2E2E2E2E2E2E2E2E2E2E2E2E2E2E2E2E2E2E2E2E2E2E2E2E2E2E2E2E2E2E2E2E2E2E2F5E2E2E2E2E2E2E2E2E2E2E2E2E2E2E2E2F5E2E2E2F5F5E2
310
E2E2F5E2E2E2E2E2E2E2E2E2E2E2E2E2E2E2E2F5E2E2E2E2E2E2E2E2E2E2E2E2E2E2E2E2E2E2E2E2E2E2E2E2E2E2E2E2E2E2E2E2E2E2E2E2E2E2E2E2E2E2E2E2E2E2E2E2E2E2E2E2E2E2E2E2E2E2E2E2E2E2E2E2E2E2E2E2E2E2E2E2E2E2E2E2E2E2E2E2E2E2E2E2E2E2E2E2E2E2E2E2E2E2E2E2E2E2E2E2E2E2E2E2E2E2E2
310
E2E2E2E2E2E2E2E2E2E2E2E2E2E2E2E2E2E2E2E2E2E2E2E2E2E2E2E2E2F5E2E2E2E2E2E2E2E2E2E2E2E2E2E2E2E2F5E2E2E2F5F5E2E2E2F5E2E2E2E2E2E2E2E2E2E2E2E2E2E2E2E2F5E2E2E2E2E2E2E2E2E2E2E2E2E2E2E2E2E2E2E2E2E2E2E2E2E2E2E2E2E2E2E2E2E2E2E2E2E2E2E2E2E2E2E2E2E2E2E2E2E2E2E2E2E2E2
310
E2E2E2E2E2E2E2E2E2E2E2E2E2E2E2E2E2E2E2E2E2E2E2E2E2E2E2E2E2E2E2E2E2E2E2E2E2E2E2E2E2E2E2E2E2E2E2E2E2E2E2E2E2E2E2E2E2E2E2E2E2E2E2E2E2E2E2E2E2E2E2E2E2E2E2E2E2E2E2E2E2E2F5E2E2E2E2E2E2E2E2E2E2E2E2E2E2E2E2F5E2E2E2F5F5E2E2E2F5E2E2E2E2E2E2E2E2E2E2E2E2E2E2E2E2F5E2
310
E2E2E2E2E2E2E2E2E2E2E2E2E2E2E2E2E2E2E2E2E2E2E2E2E2E2E2E2E2E2E2E2E2E2E2E2E2E2E2E2E2E2E2E2E2E2E2E2E2E2E2E2E2E2E2E2E2E2E2E2E2E2E2E2E2E2E2E2E2E2E2E2E2E2E2E2E2E2E2E2E2E2E2E2E2E2E2E2E2E2E2E2E2E2E2E2E2E2E2E2E2E2E2E2E2E2E2E2E2E2E2E2E2E2E2E2E2E2E2E2E2E2E2E2E2E2E2
310
E2E2E2E2E2E2E2E2F5E2E2E2E2E2E2E2E2E2E2E2E2E2E2E2E2F5E2E2E2F5F5E2E2E2F5E2E2E2E2E2E2E2E2E2E2E2E2E2E2E2E2F5E2E2E2E2E2E2E2E2E2E2E2E2E2E2E2E2E2E2E2E2E2E2E2E2E2E2E2E2E2E2E2E2E2E2E2E2E2E2E2E2E2E2E2E2E2E2E2E2E2E2E2E2E2E2E2E2E2E2E2E2E2E2E2E2E2E2E2E2E2E2E2E2E2E2E2
310
E2E2E2E2E2E2E2E2E2E2E2E2E2E2E2E2E2E2E2E2E2E2E2E2E2E2E2E2E2E2E2E2E2E2E2E2E2E2E2E2E2E2E2E2E2E2E2E2E2E2E2E2E2E2E2E2E2E2E2E2E2F5E2E2E2E2E2E2E2E2E2E2E2E2E2E2E2E2F5E2E2E2F5F5E2E2E2F5E2E2E2E2E2E2E2E2E2E2E2E2E2E2E2E2F5E2E2E2E2E2E2E2E2E2E2E2E2E2E2E2E2E2E2E2E2E2E2
310
E2E2E2E2E2E2E2E2E2E2E2E2E2E2E2E2E2E2E2E2E2E2E2E2E2E2E2E2E2E2E2E2E2E2E2E2E2E2E2E2E2E2E2E2E2E2E2E2E2E2E2E2E2E2E2E2E2E2E2E2E2E2E2E2E2E2E2E2E2E2E2E2E2E2E2E2E2E2E2E2E2E2E2E2E2E2E2E2E2E2E2E2E2E2E2E2E2E2E2E2E2E2E2E2E2E2E2E2E2E2E2E2E2E2F5E2E2E2E2E2E2E2E2E2E2E2E2
310
E2E2E2E2F5E2E2E2F5F5E2E2E2E2E2E2E2E2E2E2E2E2E2E2E2E2E2E2E2E2F5E2E2E2E2E2E2E2E2E2E2E2E2E2E2E2E2E2E2E2E2E2E2E2E2E2E2E2E2E2E2E2E2E2E2E2E2E2E2E2E2E2E2E2E2E2E2E2E2E2E2E2E2E2E2E2E2E2E2E2E2E2E2E2E2E2E2E2E2E2E2E2E2E2E2E2E2E2E2E2E2E2E2E2E2E2E2E2E2E2E2E2E2E2E2E2E2
310
E2E2E2E2E2E2E2E2E2E2E2E2E2E2E2E2E2E2E2E2E2E2E2E2E2E2E2E2E2E2E2E2E2E2E2E2E2E2E2E2F5E2E2E2E2E2E2E2E2E2E2E2E2E2E2E2E2E2E2E2E2F5F5E2E2E2E2E2E2E2E2E2E2E2E2E2E2E2E2E2E2E2E2F5E2E2E2E2E2E2E2E2E2E2E2E2E2E2E2E2E2E2E2E2E2E2E2E2E2E2E2E2E2E2E2E2E2E2E2E2E2E2E2E2E2E2E2
310
E2E2E2E2E2E2E2E2E2E2E2E2E2E2E2E2E2E2E2E2E2E2E2E2E2E2E2E2E2E2E2E2E2E2E2E2E2E2E2E2E2E2E2E2E2E2E2E2E2E2E2E2E2E2E2E2E2E2E2E2E2E2E2E2E2E2E2E2E2E2E2E2E2E2E2E2E2E2E2E2E2E2E2E2E2E2E2E2E2E2E2E2E2F5E2E2E2E2E2E2E2E2E2E2E2E2E2E2E2E2E2E2E2E2F5F5E2E2E2E2E2E2E2E2E2E2E2
310
E2E2E2E2E2E2E2E2E2F5E2E2E2E2E2E2E2E2E2E2E2E2E2E2E2E2E2E2E2E2E2E2E2E2E2E2E2E2E2E2E2E2E2E2E2E2E2E2E2E2E2E2E2E2E2E2E2E2E2E2E2E2E2E2E2E2E2E2E2E2E2E2E2E2E2E2E2E2E2E2E2E2E2E2E2E2E2E2E2E2E2E2E2E2E2E2E2E2E2E2E2E2E2E2E2E2E2E2E2E2E2E2E2E2E2E2E2E2E2E2E2E2E2E2E2E2E2
310
E2E2E2E2E2E2E2E2E2E2E2E2E2E2E2E2E2E2E2F5E2E2E2E2E2E2E2E2E2E2E2E2E2E2E2E2E2E2E2E2F5F5E2E2E2E2E2E2E2E2E2E2E2E2E2E2E2E2E2E2E2E2F5E2E2E2E2E2E2E2E2E2E2E2E2E2E2E2E2E2E2E2E2E2E2E2E2E2E2E2E2E2E2E2E2E2E2E2E2E2E2E2E2E2E2E2E2E2E2E2E2E2E2E2E2E2E2E2E2E2E2E2E2E2E2E2E2
310
E2E2E2E2E2E2E2E2E2E2E2E2E2E2E2E2E2E2E2E2E2E2E2E2E2E2E2E2E2E2E2E2E2E2E2E2E2E2E2E2E2E2E2E2E2E2E2E2E2E2E2E2E2E2E2E2E2E2E2E2E2E2E2E2E2E2E2E2E2E2E2E2F5E2E2E2E2E2E2E2E2E2E2E2E2E2E2E2E2E2E2E2E2F5F5E2E2E2E2E2E2E2E2E2E2E2E2E2E2E2E2E2E2E2E2F5E2E2E2E2E2E2E2E2E2E2E2
310
E2E2E2E2E2E2E2E2E2E2E2E2E2E2E2E2E2E2E2E2E2E2E2E2E2E2E2E2E2E2E2E2E2E2E2E2E2E2E2E2E2E2E2E2E2E2E2E2E2E2E2E2E2E2E2E2E2E2E2E2E2E2E2E2E2E2E2E2E2E2E2E2E2E2E2E2E2E2E2E2E2E2E2E2E2E2E2E2E2E2E2E2E2E2E2E2E2E2E2E2E2E2E2E2E2E2E2E2E2E2E2E2E2E2E2E2E2E2E2E2E2E2E2E2E2F5E2
310
E2E2E2E2E2E2E2E2E2E2E2E2E2E2E2E2E2E2E2F5F5E2E2E2E2E2E2E2E2E2E2E2E2E2E2E2E2E2E2E2E2F5E2E2E2E2E2E2E2E2E2E2E2E2E2E2E2E2E2E2E2E2E2E2E2E2E2E2E2E2E2E2E2E2E2E2E2E2E2E2E2E2E2E2E2E2E2E2E2E2E2E2E2E2E2E2E2E2E2E2E2E2E2E2E2E2E2E2E2E2E2E2E2E2E2E2E2E2E2E2E2E2E2E2E2E2E2
310
E2E2E2E2E2E2E2E2E2E2E2E2E2E2E2E2E2E2E2E2E2E2E2E2E2E2E2E2E2E2E2E2E2E2E2E2E2E2E2E2E2E2E2E2E2E2E2E2E2E2E2F5E2E2E2E2E2E2E2E2E2E2E2E2E2E2E2E2E2E2E2E2F5F5E2E2E2E2E2E2E2E2E2E2E2E2E2E2E2E2E2E2E2E2F5E2E2E2E2E2E2E2E2E2E2E2E2E2E2E2E2E2E2E2E2E2E2E2E2E2E2E2E2E2E2E2E2
310
E2E2E2E2E2E2E2E2E2E2E2E2E2E2E2E2E2E2E2E2E2E2E2E2E2E2E2E2E2E2E2E2E2E2E2E2E2E2E2E2E2E2E2E2E2E2E2E2E2E2E2E2E2E2E2E2E2E2E2E2E2E2E2E2E2E2E2E2E2E2E2E2E2E2E2E2E2E2E2E2E2E2E2E2E2E2E2E2E2E2E2E2E2E2E2E2E2E2E2E2E2E2E2E2F5E2E2E2E2E2E2E2E2E2E2E2E2E2E2E2E2E2E2E2E2F5F5
310
E2E2E2E2E2E2E2E2E2E2E2E2E2E2E2E2E2E2E2E2F5E2E2E2E2E2E2E2E2E2E2E2E2E2E2E2E2E2E2E2E2E2E2E2E2E2E2E2E2E2E2E2E2E2E2E2E2E2E2E2E2E2E2E2E2E2E2E2E2E2E2E2E2E2E2E2E2E2E2E2E2E2E2E2E2E2E2E2E2E2E2E2E2E2E2E2E2E2E2E2E2E2E2E2E2E2E2E2E2E2E2E2E2E2E2E2E2E2E2E2E2E2E2E2E2E2E2
310
E2E2E2E2E2E2E2E2E2E2E2E2E2E2E2E2E2E2E2E2E2E2E2E2E2E2E2E2E2E2F5E2E2E2E2E2E2E2E2E2E2E2E2E2E2E2E2E2E2E2E2F5F5E2E2E2E2E2E2E2E2E2E2E2E2E2E2E2E2E2E2E2E2F5E2E2E2E2E2E2E2E2E2E2E2E2E2E2E2E2E2E2E2E2E2E2E2E2E2E2E2E2E2E2E2E2E2E2E2E2E2E2E2E2E2E2E2E2E2E2E2E2E2E2E2E2E2
310
E2E2E2E2E2E2E2E2E2E2E2E2E2E2E2E2E2E2E2E2E2E2E2E2E2E2E2E2E2E2E2E2E2E2E2E2E2E2E2E2E2E2E2E2E2E2E2E2E2E2E2E2E2E2E2E2E2E2E2E2E2E2E2E2E2E2E2E2E2E2E2E2E2E2E2E2E2E2E2E2E2E2E2F5E2E2E2E2E2E2E2E2E2E2E2E2E2E2E2E2E2E2E2E2F5F5E2E2E2F5E2E2E2E2E2E2E2E2E2E2E2E2E2E2E2E2F5
310
E2E2E2E2E2E2E2E2E2E2E2E2E2E2E2E2E2E2E2E2E2E2E2E2E2E2E2E2E2E2E2E2E2E2E2E2E2E2E2E2E2E2E2E2E2E2E2E2E2E2E2E2E2E2E2E2E2E2E2E2E2E2E2E2E2E2E2E2E2E2E2E2E2E2E2E2E2E2E2E2E2E2E2E2E2E2E2E2E2E2E2E2E2E2E2E2E2E2E2E2E2E2E2E2E2E2E2E2E2E2E2E2E2E2E2E2E2E2E2E2E2E2E2E2E2E2E2
310
E2E2E2E2E2E2E2E2E2F5E2E2E2E2E2E2E2E2E2E2E2E2E2E2E2E2F5E2E2E2F5F5E2E2E2F5E2E2E2E2E2E2E2E2E2E2E2E2E2E2E2E2F5E2E2E2E2E2E2E2E2E2E2E2E2E2E2E2E2E2E2E2E2E2E2E2E2E2E2E2E2E2E2E2E2E2E2E2E2E2E2E2E2E2E2E2E2E2E2E2E2E2E2E2E2E2E2E2E2E2E2E2E2E2E2E2E2E2E2E2E2E2E2E2E2E2E2
310
E2E2E2E2E2E2E2E2E2E2E2E2E2E2E2E2E2E2E2E2E2E2E2E2E2E2E2E2E2E2E2E2E2E2E2E2E2E2E2E2E2E2E2E2E2E2E2E2E2E2E2E2E2E2E2E2E2E2E2E2E2E2F5E2E2E2E2E2E2E2E2E2E2E2E2E2E2E2E2F5E2E2E2F5F5E2E2E2F5E2E2E2E2E2E2E2E2E2E2E2E2E2E2E2E2F5E2E2E2E2E2E2E2E2E2E2E2E2E2E2E2E2E2E2E2E2E2
310
E2E2E2E2E2E2E2E2E2E2E2E2E2E2E2E2E2E2E2E2E2E2E2E2E2E2E2E2E2E2E2E2E2E2E2E2E2E2E2E2E2E2E2E2E2E2E2E2E2E2E2E2E2E2E2E2E2E2E2E2E2E2E2E2E2E2E2E2E2E2E2E2E2E2E2E2E2E2E2E2E2E2E2E2E2E2E2E2E2E2E2E2E2E2E2E2E2E2E2E2E2E2E2E2E2E2E2E2E2E2E2E2E2E2E2F5E2E2E2E2E2E2E2E2E2E2E2
310
E2E2E2E2E2F5E2E2E2F5F5E2E2E2F5E2E2E2E2E2E2E2E2E2E2E2E2E2E2E2E2F5E2E2E2E2E2E2E2E2E2E2E2E2E2E2E2E2E2E2E2E2E2E2E2E2E2E2E2E2E2E2E2E2E2E2E2E2E2E2E2E2E2E2E2E2E2E2E2E2E2E2E2E2E2E2E2E2E2E2E2E2E2E2E2E2E2E2E2E2E2E2E2E2E2E2E2E2E2E2E2E2E2E2E2E2E2E2E2E2E2E2E2E2E2E2E2
310
E2E2E2E2E2E2E2E2E2E2E2E2E2E2E2E2E2E2E2E2E2E2E2E2E2E2E2E2E2E2E2E2E2E2E2E2E2E2E2E2E2F5E2E2E2E2E2E2E2E2E2E2E2E2E2E2E2E2F5E2E2E2F5F5E2E2E2F5E2E2E2E2E2E2E2E2E2E2E2E2E2E2E2E2F5E2E2E2E2E2E2E2E2E2E2E2E2E2E2E2E2E2E2E2E2E2E2E2E2E2E2E2E2E2E2E2E2E2E2E2E2E2E2E2E2E2E2
310
E2E2E2E2E2E2E2E2E2E2E2E2E2E2E2E2E2E2E2E2E2E2E2E2E2E2E2E2E2E2E2E2E2E2E2E2E2E2E2E2E2E2E2E2E2E2E2E2E2E2E2E2E2E2E2E2E2E2E2E2E2E2E2E2E2E2E2E2E2E2E2E2E2E2E2E2E2E2E2E2E2E2E2E2E2E2E2E2E2E2E2E2E2E2F5E2E2E2E2E2E2E2E2E2E2E2E2E2E2E2E2F5E2E2E2F5F5E2E2E2F5E2E2E2E2E2E2
310
E2E2E2E2E2E2E2E2E2E2F5E2E2E2E2E2E2E2E2E2E2E2E2E2E2E2E2E2E2E2E2E2E2E2E2E2E2E2E2E2E2E2E2E2E2E2E2E2E2E2E2E2E2E2E2E2E2E2E2E2E2E2E2E2E2E2E2E2E2E2E2E2E2E2E2E2E2E2E2E2E2E2E2E2E2E2E2E2E2E2E2E2E2E2E2E2E2E2E2E2E2E2E2E2E2E2E2E2E2E2E2E2E2E2E2E2E2E2E2E2E2E2E2E2E2E2E2
310
E2E2E2E2E2E2E2E2E2E2E2E2E2E2E2E2E2E2E2E2F5E2E2E2E2E2E2E2E2E2E2E2E2E2E2E2E2F5E2E2E2F5F5E2E2E2F5E2E2E2E2E2E2E2E2E2E2E2E2E2E2E2E2F5E2E2E2E2E2E2E2E2E2E2E2E2E2E2E2E2E2E2E2E2E2E2E2E2E2E2E2E2E2E2E2E2E2E2E2E2E2E2E2E2E2E2E2E2E2E2E2E2E2E2E2E2E2E2E2E2E2E2E2E2E2E2E2
310
E2E2E2E2E2E2E2E2E2E2E2E2E2E2E2E2E2E2E2E2E2E2E2E2E2E2E2E2E2E2E2E2E2E2E2E2E2E2E2E2E2E2E2E2E2E2E2E2E2E2E2E2E2E2E2E2E2E2E2E2E2E2E2E2E2E2E2E2E2E2E2E2E2F5E2E2E2E2E2E2E2E2E2E2E2E2E2E2E2E2F5E2E2E2F5F5E2E2E2F5E2E2E2E2E2E2E2E2E2E2E2E2E2E2E2E2F5E2E2E2E2E2E2E2E2E2E2
310
E2E2E2E2E2E2E2E2E2E2E2E2E2E2E2E2E2E2E2E2E2E2E2E2E2E2E2E2E2E2E2E2E2E2E2E2E2E2E2E2E2E2E2E2E2E2E2E2E2E2E2E2E2E2E2E2E2E2E2E2E2E2E2E2E2E2E2E2E2E2E2E2E2E2E2E2E2E2E2E2E2E2E2E2E2E2E2E2E2E2E2E2E2E2E2E2E2E2E2E2E2E2E2E2E2E2E2E2E2E2E2E2E2E2E2E2E2E2E2E2E2E2E2E2E2E2F5
310
E2E2E2E2E2E2E2E2E2E2E2E2E2E2E2E2F5E2E2E2F5F5E2E2E2F5E2E2E2E2E2E2E2E2E2E2E2E2E2E2E2E2F5E2E2E2E2E2E2E2E2E2E2E2E2E2E2E2E2E2E2E2E2E2E2E2E2E2E2E2E2E2E2E2E2E2E2E2E2E2E2E2E2E2E2E2E2E2E2E2E2E2E2E2E2E2E2E2E2E2E2E2E2E2E2E2E2E2E2E2E2E2E2E2E2E2E2E2E2E2E2E2E2E2E2E2E2
310
E2E2E2E2E2E2E2E2E2E2E2E2E2E2E2E2E2E2E2E2E2E2E2E2E2E2E2E2E2E2E2E2E2E2E2E2E2E2E2E2E2E2E2E2E2E2E2E2E2E2E2E2F5E2E2E2E2E2E2E2E2E2E2E2E2E2E2E2E2F5E2E2E2F5F5E2E2E2F5E2E2E2E2E2E2E2E2E2E2E2E2E2E2E2E2F5E2E2E2E2E2E2E2E2E2E2E2E2E2E2E2E2E2E2E2E2E2E2E2E2E2E2E2E2E2E2E2
310
E2E2E2E2E2E2E2E2E2E2E2E2E2E2E2E2E2E2E2E2E2E2E2E2E2E2E2E2E2E2E2E2E2E2E2E2E2E2E2E2E2E2E2E2E2E2E2E2E2E2E2E2E2E2E2E2E2E2E2E2E2E2E2E2E2E2E2E2E2E2E2E2E2E2E2E2E2E2E2E2E2E2E2E2E2E2E2E2E2E2E2E2E2E2E2E2E2E2E2E2E2E2E2E2E2F5E2E2E2E2E2E2E2E2E2E2E2E2E2E2E2E2F5E2E2E2F5
310
F5E2E2E2F5E2E2E2E2E2E2E2E2E2E2E2E2E2E2E2E2F5E2E2E2E2E2E2E2E2E2E2E2E2E2E2E2E2E2E2E2E2E2E2E2E2E2E2E2E2E2E2E2E2E2E2E2E2E2E2E2E2E2E2E2E2E2E2E2E2E2E2E2E2E2E2E2E2E2E2E2E2E2E2E2E2E2E2E2E2E2E2E2E2E2E2E2E2E2E2E2E2E2E2E2E2E2E2E2E2E2E2E2E2E2E2E2E2E2E2E2E2E2E2E2E2E2
310
E2E2E2E2E2E2E2E2E2E2E2E2E2E2E2E2E2E2E2E2E2E2E2E2E2E2E2E2E2E2E2F5E2E2E2E2E2E2E2E2E2E2E2E2E2E2E2E2F5E2E2E2F5F5E2E2E2F5E2E2E2E2E2E2E2E2E2E2E2E2E2E2E2E2F5E2E2E2E2E2E2E2E2E2E2E2E2E2E2E2E2E2E2E2E2E2E2E2E2E2E2E2E2E2E2E2E2E2E2E2E2E2E2E2E2E2E2E2E2E2E2E2E2E2E2E2E2
310
E2E2E2E2E2E2E2E2E2E2E2E2E2E2E2E2E2E2E2E2E2E2E2E2E2E2E2E2E2E2E2E2E2E2E2E2E2E2E2E2E2E2E2E2E2E2E2E2E2E2E2E2E2E2E2E2E2E2E2E2E2E2E2E2E2E2E2E2E2E2E2E2E2E2E2E2E2E2E2E2E2E2E2E2F5E2E2E2E2E2E2E2E2E2E2E2E2E2E2E2E2F5E2E2E2F5F5E2E2E2F5E2E2E2E2E2E2E2E2E2E2E2E2E2E2E2E2
310
F5E2E2E2E2E2E2E2E2E2E2E2E2E2E2E2E2E2E2E2E2E2E2E2E2E2E2E2E2E2E2E2E2E2E2E2E2E2E2E2E2E2E2E2E2E2E2E2E2E2E2E2E2E2E2E2E2E2E2E2E2E2E2E2E2E2E2E2E2E2E2E2E2E2E2E2E2E2E2E2E2E2E2E2E2E2E2E2E2E2E2E2E2E2E2E2E2E2E2E2E2E2E2E2E2E2E2E2E2E2E2E2E2E2E2E2E2E2E2E2E2E2E2E2E2E2E2
310
E2E2E2E2E2E2E2E2E2E2F5E2E2E2E2E2E2E2E2E2E2E2E2E2E2E2E2F5E2E2E2F5F5E2E2E2F5E2E2E2E2E2E2E2E2E2E2E2E2E2E2E2E2F5E2E2E2E2E2E2E2E2E2E2E2E2E2E2E2E2E2E2E2E2E2E2E2E2E2E2E2E2E2E2E2E2E2E2E2E2E2E2E2E2E2E2E2E2E2E2E2E2E2E2E2E2E2E2E2E2E2E2E2E2E2E2E2E2E2E2E2E2E2E2E2E2E2
310
E2E2E2E2E2E2E2E2E2E2E2E2E2E2E2E2E2E2E2E2E2E2E2E2E2E2E2E2E2E2E2E2E2E2E2E2E2E2E2E2E2E2E2E2E2E2E2E2E2E2E2E2E2E2E2E2E2E2E2E2E2E2E2F5E2E2E2E2E2E2E2E2E2E2E2E2E2E2E2E2F5E2E2E2F5F5E2E2E2F5E2E2E2E2E2E2E2E2E2E2E2E2E2E2E2E2F5E2E2E2E2E2E2E2E2E2E2E2E2E2E2E2E2E2E2E2E2
310
E2E2E2E2E2E2E2E2E2E2E2E2E2E2E2E2E2E2E2E2E2E2E2E2E2E2E2E2E2E2E2E2E2E2E2E2E2E2E2E2E2E2E2E2E2E2E2E2E2E2E2E2E2E2E2E2E2E2E2E2E2E2E2E2E2E2E2E2E2E2E2E2E2E2E2E2E2E2E2E2E2E2E2E2E2E2E2E2E2E2E2E2E2E2E2E2E2E2E2E2E2E2E2E2E2E2E2E2E2E2E2E2E2E2E2E2F5E2E2E2E2E2E2E2E2E2E2
310
E2E2E2E2E2E2F5E2E2E2F5F5E2E2E2F5E2E2E2E2E2E2E2E2E2E2E2E2E2E2E2E2F5E2E2E2E2E2E2E2E2E2E2E2E2E2E2E2E2E2E2E2E2E2E2E2E2E2E2E2E2E2E2E2E2E2E2E2E2E2E2E2E2E2E2E2E2E2E2E2E2E2E2E2E2E2E2E2E2E2E2E2E2E2E2E2E2E2E2E2E2E2E2E2E2E2E2E2E2E2E2E2E2E2E2E2E2E2E2E2E2E2E2E2E2E2E2
310
E2E2E2E2E2E2E2E2E2E2E2E2E2E2E2E2E2E2E2E2E2E2E2E2E2E2E2E2E2E2E2E2E2E2E2E2E2E2E2E2E2E2F5E2E2E2E2E2E2E2E2E2E2E2E2E2E2E2E2F5E2E2E2F5F5E2E2E2E2E2E2E2E2E2E2E2E2E2E2E2E2E2E2E2E2F5E2E2E2E2E2E2E2E2E2E2E2E2E2E2E2E2E2E2E2E2E2E2E2E2E2E2E2E2E2E2E2E2E2E2E2E2E2E2E2E2E2
310
E2E2E2E2E2E2E2E2E2E2E2E2E2E2E2E2E2E2E2E2E2E2E2E2E2E2E2E2E2E2E2E2E2E2E2E2E2E2E2E2E2E2E2E2E2E2E2E2E2E2E2E2E2E2E2E2E2E2E2E2E2E2E2E2E2E2E2E2E2E2E2E2E2E2E2E2E2E2E2E2E2E2E2E2E2E2E2E2E2E2E2E2E2E2E2F5E2E2E2E2E2E2E2E2E2E2E2E2E2E2E2E2E2E2E2E2F5F5E2E2E2E2E2E2E2E2E2
310
E2E2E2E2E2E2E2E2E2E2E2F5E2E2E2E2E2E2E2E2E2E2E2E2E2E2E2E2E2E2E2E2E2E2E2E2E2E2E2E2E2E2E2E2E2E2E2E2E2E2E2E2E2E2E2E2E2E2E2E2E2E2E2E2E2E2E2E2E2E2E2E2E2E2E2E2E2E2E2E2E2E2E2E2E2E2E2E2E2E2E2E2E2E2E2E2E2E2E2E2E2E2E2E2E2E2E2E2E2E2E2E2E2E2E2E2E2E2E2E2E2E2E2E2E2E2E2
310
E2E2E2E2E2E2E2E2E2E2E2E2E2E2E2E2E2E2E2E2E2F5E2E2E2E2E2E2E2E2E2E2E2E2E2E2E2E2E2E2E2E2F5F5E2E2E2E2E2E2E2E2E2E2E2E2E2E2E2E2E2E2E2E2F5E2E2E2E2E2E2E2E2E2E2E2E2E2E2E2E2E2E2E2E2E2E2E2E2E2E2E2E2E2E2E2E2E2E2E2E2E2E2E2E2E2E2E2E2E2E2E2E2E2E2E2E2E2E2E2E2E2E2E2E2E2E2
310
E2E2E2E2E2E2E2E2E2E2E2E2E2E2E2E2E2E2E2E2E2E2E2E2E2E2E2E2E2E2E2E2E2E2E2E2E2E2E2E2E2E2E2E2E2E2E2E2E2E2E2E2E2E2E2E2E2E2E2E2E2E2E2E2E2E2E2E2E2E2E2E2E2E2F5E2E2E2E2E2E2E2E2E2E2E2E2E2E2E2E2E2E2E2E2F5F5E2E2E2E2E2E2E2E2E2E2E2E2E2E2E2E2E2E2E2E2F5E2E2E2E2E2E2E2E2E2
310
E2E2E2E2E2E2E2E2E2E2E2E2E2E2E2E2E2E2E2E2E2E2E2E2E2E2E2E2E2E2E2E2E2E2E2E2E2E2E2E2E2E2E2E2E2E2E2E2E2E2E2E2E2E2E2E2E2E2E2E2E2E2E2E2E2E2E2E2E2E2E2E2E2E2E2E2E2E2E2E2E2E2E2E2E2E2E2E2E2E2E2E2E2E2E2E2E2E2E2E2E2E2E2E2E2E2E2E2E2E2E2E2E2E2E2E2E2E2E2E2E2E2E2E2E2E2E2
310
F5E2E2E2E2E2E2E2E2E2E2E2E2E2E2E2E2E2E2E2E2F5F5E2E2E2E2E2E2E2E2E2E2E2E2E2E2E2E2E2E2E2E2F5E2E2E2E2E2E2E2E2E2E2E2E2E2E2E2E2E2E2E2E2E2E2E2E2E2E2E2E2E2E2E2E2E2E2E2E2E2E2E2E2E2E2E2E2E2E2E2E2E2E2E2E2E2E2E2E2E2E2E2E2E2E2E2E2E2E2E2E2E2E2E2E2E2E2E2E2E2E2E2E2E2E2E2
310
E2E2E2E2E2E2E2E2E2E2E2E2E2E2E2E2E2E2E2E2E2E2E2E2E2E2E2E2E2E2E2E2E2E2E2E2E2E2E2E2E2E2E2E2E2E2E2E2E2E2E2E2E2F5E2E2E2E2E2E2E2E2E2E2E2E2E2E2E2E2E2E2E2E2F5F5E2E2E2E2E2E2E2E2E2E2E2E2E2E2E2E2E2E2E2E2F5E2E2E2E2E2E2E2E2E2E2E2E2E2E2E2E2E2E2E2E2E2E2E2E2E2E2E2E2E2E2
310
E2E2E2E2E2E2E2E2E2E2E2E2E2E2E2E2E2E2E2E2E2E2E2E2E2E2E2E2E2E2E2E2E2E2E2E2E2E2E2E2E2E2E2E2E2E2E2E2E2E2E2E2E2E2E2E2E2E2E2E2E2E2E2E2E2E2E2E2E2E2E2E2E2E2E2E2E2E2E2E2E2E2E2E2E2E2E2E2E2E2E2E2E2E2E2E2E2E2E2E2E2E2E2E2E2E2F5E2E2E2E2E2E2E2E2E2E2E2E2E2E2E2E2E2E2E2E2
310
F5F5E2E2E2E2E2E2E2E2E2E2E2E2E2E2E2E2E2E2E2E2F5E2E2E2E2E2E2E2E2E2E2E2E2E2E2E2E2E2E2E2E2E2E2E2E2E2E2E2E2E2E2E2E2E2E2E2E2E2E2E2E2E2E2E2E2E2E2E2E2E2E2E2E2E2E2E2E2E2E2E2E2E2E2E2E2E2E2E2E2E2E2E2E2E2E2E2E2E2E2E2E2E2E2E2E2E2E2E2E2E2E2E2E2E2E2E2E2E2E2E2E2E2E2E2E2
310
E2E2E2E2E2E2E2E2E2E2E2E2E2E2E2E2E2E2E2E2E2E2E2E2E2E2E2E2E2E2E2E2F5E2E2E2E2E2E2E2E2E2E2E2E2E2E2E2E2E2E2E2E2F5F5E2E2E2E2E2E2E2E2E2E2E2E2E2E2E2E2E2E2E2E2F5E2E2E2E2E2E2E2E2E2E2E2E2E2E2E2E2E2E2E2E2E2E2E2E2E2E2E2E2E2E2E2E2E2E2E2E2E2E2E2E2E2E2E2E2E2E2E2E2E2E2E2
310
E2E2E2E2E2E2E2E2E2E2E2E2E2E2E2E2E2E2E2E2E2E2E2E2E2E2E2E2E2E2E2E2E2E2E2E2E2E2E2E2E2E2E2E2E2E2E2E2E2E2E2E2E2E2E2E2E2E2E2E2E2E2E2E2E2E2E2E2E2E2E2E2E2E2E2E2E2E2E2E2E2E2E2E2E2F5E2E2E2E2E2E2E2E2E2E2E2E2E2E2E2E2E2E2E2E2F5F5E2E2E2E2E2E2E2E2E2E2E2E2E2E2E2E2E2E2E2
310
E2F5E2E2E2E2E2E2E2E2E2E2E2E2E2E2E2E2E2E2E2E2E2E2E2E2E2E2E2E2E2E2E2E2E2E2E2E2E2E2E2E2E2E2E2E2E2E2E2E2E2E2E2E2E2E2E2E2E2E2E2E2E2E2E2E2E2E2E2E2E2E2E2E2E2E2E2E2E2E2E2E2E2E2E2E2E2E2E2E2E2E2E2E2E2E2E2E2E2E2E2E2E2E2E2E2E2E2E2E2E2E2E2E2E2E2E2E2E2E2E2E2E2E2E2E2E2
310
E2E2E2E2E2E2E2E2E2E2E2F5E2E2E2E2E2E2E2E2E2E2E2E2E2E2E2E2E2E2E2E2F5F5E2E2E2E2E2E2E2E2E2E2E2E2E2E2E2E2E2E2E2E2F5E2E2E2E2E2E2E2E2E2E2E2E2E2E2E2E2E2E2E2E2E2E2E2E2E2E2E2E2E2E2E2E2E2E2E2E2E2E2E2E2E2E2E2E2E2E2E2E2E2E2E2E2E2E2E2E2E2E2E2E2E2E2E2E2E2E2E2E2E2E2E2E2
310
E2E2E2E2E2E2E2E2E2E2E2E2E2E2E2E2E2E2E2E2E2E2E2E2E2E2E2E2E2E2E2E2E2E2E2E2E2E2E2E2E2E2E2E2E2E2E2E2E2E2E2E2E2E2E2E2E2E2E2E2E2E2E2E2F5E2E2E2E2E2E2E2E2E2E2E2E2E2E2E2E2E2E2E2E2F5F5E2E2E2F5E2E2E2E2E2E2E2E2E2E2E2E2E2E2E2E2F5E2E2E2E2E2E2E2E2E2E2E2E2E2E2E2E2E2E2E2
310
E2E2E2E2E2E2E2E2E2E2E2E2E2E2E2E2E2E2E2E2E2E2E2E2E2E2E2E2E2E2E2E2E2E2E2E2E2E2E2E2E2E2E2E2E2E2E2E2E2E2E2E2E2E2E2E2E2E2E2E2E2E2E2E2E2E2E2E2E2E2E2E2E2E2E2E2E2E2E2E2E2E2E2E2E2E2E2E2E2E2E2E2E2E2E2E2E2E2E2E2E2E2E2E2E2E2E2E2E2E2E2E2E2E2E2E2E2F5E2E2E2E2E2E2E2E2E2
310
E2E2E2E2E2E2E2F5E2E2E2F5F5E2E2E2F5E2E2E2E2E2E2E2E2E2E2E2E2E2E2E2E2F5E2E2E2E2E2E2E2E2E2E2E2E2E2E2E2E2E2E2E2E2E2E2E2E2E2E2E2E2E2E2E2E2E2E2E2E2E2E2E2E2E2E2E2E2E2E2E2E2E2E2E2E2E2E2E2E2E2E2E2E2E2E2E2E2E2E2E2E2E2E2E2E2E2E2E2E2E2E2E2E2E2E2E2E2E2E2E2E2E2E2E2E2E2
310
E2E2E2E2E2E2E2E2E2E2E2E2E2E2E2E2E2E2E2E2E2E2E2E2E2E2E2E2E2E2E2E2E2E2E2E2E2E2E2E2E2E2E2F5E2E2E2E2E2E2E2E2E2E2E2E2E2E2E2E2F5E2E2E2F5F5E2E2E2F5E2E2E2E2E2E2E2E2E2E2E2E2E2E2E2E2F5E2E2E2E2E2E2E2E2E2E2E2E2E2E2E2E2E2E2E2E2E2E2E2E2E2E2E2E2E2E2E2E2E2E2E2E2E2E2E2E2
310
E2E2E2E2E2E2E2E2E2E2E2E2E2E2E2E2E2E2E2E2E2E2E2E2E2E2E2E2E2E2E2E2E2E2E2E2E2E2E2E2E2E2E2E2E2E2E2E2E2E2E2E2E2E2E2E2E2E2E2E2E2E2E2E2E2E2E2E2E2E2E2E2E2E2E2E2E2E2E2E2E2E2E2E2E2E2E2E2E2E2E2E2E2E2E2E2F5E2E2E2E2E2E2E2E2E2E2E2E2E2E2E2E2F5E2E2E2F5F5E2E2E2F5E2E2E2E2
310
E2E2E2E2E2E2E2E2E2E2E2E2F5E2E2E2E2E2E2E2E2E2E2E2E2E2E2E2E2E2E2E2E2E2E2E2E2E2E2E2E2E2E2E2E2E2E2E2E2E2E2E2E2E2E2E2E2E2E2E2E2E2E2E2E2E2E2E2E2E2E2E2E2E2E2E2E2E2E2E2E2E2E2E2E2E2E2E2E2E2E2E2E2E2E2E2E2E2E2E2E2E2E2E2E2E2E2E2E2E2E2E2E2E2E2E2E2E2E2E2E2E2E2E2E2E2E2
310
E2E2E2E2E2E2E2E2E2E2E2E2E2E2E2E2E2E2E2E2E2E2F5E2E2E2E2E2E2E2E2E2E2E2E2E2E2E2E2F5E2E2E2F5F5E2E2E2F5E2E2E2E2E2E2E2E2E2E2E2E2E2E2E2E2F5E2E2E2E2E2E2E2E2E2E2E2E2E2E2E2E2E2E2E2E2E2E2E2E2E2E2E2E2E2E2E2E2E2E2E2E2E2E2E2E2E2E2E2E2E2E2E2E2E2E2E2E2E2E2E2E2E2E2E2E2E2
310
E2E2E2E2E2E2E2E2E2E2E2E2E2E2E2E2E2E2E2E2E2E2E2E2E2E2E2E2E2E2E2E2E2E2E2E2E2E2E2E2E2E2E2E2E2E2E2E2E2E2E2E2E2E2E2E2E2E2E2E2E2E2E2E2E2E2E2E2E2E2E2E2E2E2E2F5E2E2E2E2E2E2E2E2E2E2E2E2E2E2E2E2F5E2E2E2F5F5E2E2E2F5E2E2E2E2E2E2E2E2E2E2E2E2E2E2E2E2F5E2E2E2E2E2E2E2E2
310
E2E2E2E2E2E2E2E2E2E2E2E2E2E2E2E2E2E2E2E2E2E2E2E2E2E2E2E2E2E2E2E2E2E2E2E2E2E2E2E2E2E2E2E2E2E2E2E2E2E2E2E2E2E2E2E2E2E2E2E2E2E2E2E2E2E2E2E2E2E2E2E2E2E2E2E2E2E2E2E2E2E2E2E2E2E2E2E2E2E2E2E2E2E2E2E2E2E2E2E2E2E2E2E2E2E2E2E2E2E2E2E2E2E2E2E2E2E2E2E2E2E2E2E2E2E2E2
310
E2F5E2E2E2E2E2E2E2E2E2E2E2E2E2E2E2E2F5E2E2E2F5F5E2E2E2F5E2E2E2E2E2E2E2E2E2E2E2E2E2E2E2E2F5E2E2E2E2E2E2E2E2E2E2E2E2E2E2E2E2E2E2E2E2E2E2E2E2E2E2E2E2E2E2E2E2E2E2E2E2E2E2E2E2E2E2E2E2E2E2E2E2E2E2E2E2E2E2E2E2E2E2E2E2E2E2E2E2E2E2E2E2E2E2E2E2E2E2E2E2E2E2E2E2E2E2
310
E2E2E2E2E2E2E2E2E2E2E2E2E2E2E2E2E2E2E2E2E2E2E2E2E2E2E2E2E2E2E2E2E2E2E2E2E2E2E2E2E2E2E2E2E2E2E2E2E2E2E2E2E2E2F5E2E2E2E2E2E2E2E2E2E2E2E2E2E2E2E2F5E2E2E2F5F5E2E2E2F5E2E2E2E2E2E2E2E2E2E2E2E2E2E2E2E2F5E2E2E2E2E2E2E2E2E2E2E2E2E2E2E2E2E2E2E2E2E2E2E2E2E2E2E2E2E2
310
E2E2E2E2E2E2E2E2E2E2E2E2E2E2E2E2E2E2E2E2E2E2E2E2E2E2E2E2E2E2E2E2E2E2E2E2E2E2E2E2E2E2E2E2E2E2E2E2E2E2E2E2E2E2E2E2E2E2E2E2E2E2E2E2E2E2E2E2E2E2E2E2E2E2E2E2E2E2E2E2E2E2E2E2E2E2E2E2E2E2E2E2E2E2E2E2E2E2E2E2E2E2E2E2E2E2E2F5E2E2E2E2E2E2E2E2E2E2E2E2E2E2E2E2F5E2E2
310
E2F5F5E2E2E2F5E2E2E2E2E2E2E2E2E2E2E2E2E2E2E2E2F5E2E2E2E2E2E2E2E2E2E2E2E2E2E2E2E2E2E2E2E2E2E2E2E2E2E2E2E2E2E2E2E2E2E2E2E2E2E2E2E2E2E2E2E2E2E2E2E2E2E2E2E2E2E2E2E2E2E2E2E2E2E2E2E2E2E2E2E2E2E2E2E2E2E2E2E2E2E2E2E2E2E2E2E2E2E2E2E2E2E2E2E2E2E2E2E2E2E2E2E2E2E2E2
310
E2E2E2E2E2E2E2E2E2E2E2E2E2E2E2E2E2E2E2E2E2E2E2E2E2E2E2E2E2E2E2E2E2F5E2E2E2E2E2E2E2E2E2E2E2E2E2E2E2E2F5E2E2E2F5F5E2E2E2F5E2E2E2E2E2E2E2E2E2E2E2E2E2E2E2E2F5E2E2E2E2E2E2E2E2E2E2E2E2E2E2E2E2E2E2E2E2E2E2E2E2E2E2E2E2E2E2E2E2E2E2E2E2E2E2E2E2E2E2E2E2E2E2E2E2E2E2
310
E2E2E2E2E2E2E2E2E2E2E2E2E2E2E2E2E2E2E2E2E2E2E2E2E2E2E2E2E2E2E2E2E2E2E2E2E2E2E2E2E2E2E2E2E2E2E2E2E2E2E2E2E2E2E2E2E2E2E2E2E2E2E2E2E2E2E2E2E2E2E2E2E2E2E2E2E2E2E2E2E2E2E2E2E2E2F5E2E2E2E2E2E2E2E2E2E2E2E2E2E2E2E2F5E2E2E2F5F5E2E2E2F5E2E2E2E2E2E2E2E2E2E2E2E2E2E2
310
E2E2F5E2E2E2E2E2E2E2E2E2E2E2E2E2E2E2E2E2E2E2E2E2E2E2E2E2E2E2E2E2E2E2E2E2E2E2E2E2E2E2E2E2E2E2E2E2E2E2E2E2E2E2E2E2E2E2E2E2E2E2E2E2E2E2E2E2E2E2E2E2E2E2E2E2E2E2E2E2E2E2E2E2E2E2E2E2E2E2E2E2E2E2E2E2E2E2E2E2E2E2E2E2E2E2E2E2E2E2E2E2E2E2E2E2E2E2E2E2E2E2E2E2E2E2E2
310
E2E2E2E2E2E2E2E2E2E2E2E2F5E2E2E2E2E2E2E2E2E2E2E2E2E2E2E2E2F5E2E2E2F5F5E2E2E2F5E2E2E2E2E2E2E2E2E2E2E2E2E2E2E2E2F5E2E2E2E2E2E2E2E2E2E2E2E2E2E2E2E2E2E2E2E2E2E2E2E2E2E2E2E2E2E2E2E2E2E2E2E2E2E2E2E2E2E2E2E2E2E2E2E2E2E2E2E2E2E2E2E2E2E2E2E2E2E2E2E2E2E2E2E2E2E2E2
310
E2E2E2E2E2E2E2E2E2E2E2E2E2E2E2E2E2E2E2E2E2E2E2E2E2E2E2E2E2E2E2E2E2E2E2E2E2E2E2E2E2E2E2E2E2E2E2E2E2E2E2E2E2E2E2E2E2E2E2E2E2E2E2E2E2F5E2E2E2E2E2E2E2E2E2E2E2E2E2E2E2E2F5E2E2E2F5F5E2E2E2F5E2E2E2E2E2E2E2E2E2E2E2E2E2E2E2E2F5E2E2E2E2E2E2E2E2E2E2E2E2E2E2E2E2E2E2
310
E2E2E2E2E2E2E2E2E2E2E2E2E2E2E2E2E2E2E2E2E2E2E2E2E2E2E2E2E2E2E2E2E2E2E2E2E2E2E2E2E2E2E2E2E2E2E2E2E2E2E2E2E2E2E2E2E2E2E2E2E2E2E2E2E2E2E2E2E2E2E2E2E2E2E2E2E2E2E2E2E2E2E2E2E2E2E2E2E2E2E2E2E2E2E2E2E2E2E2E2E2E2E2E2E2E2E2E2E2E2E2E2E2E2E2E2E2E2F5E2E2E2E2E2E2E2E2
310
E2E2E2E2E2E2E2E2F5E2E2E2F5F5E2E2E2F5E2E2E2E2E2E2E2E2E2E2E2E2E2E2E2E2F5E2E2E2E2E2E2E2E2E2E2E2E2E2E2E2E2E2E2E2E2E2E2E2E2E2E2E2E2E2E2E2E2E2E2E2E2E2E2E2E2E2E2E2E2E2E2E2E2E2E2E2E2E2E2E2E2E2E2E2E2E2E2E2E2E2E2E2E2E2E2E2E2E2E2E2E2E2E2E2E2E2E2E2E2E2E2E2E2E2E2E2E2
310
E2E2E2E2E2E2E2E2E2E2E2E2E2E2E2E2E2E2E2E2E2E2E2E2E2E2E2E2E2E2E2E2E2E2E2E2E2E2E2E2E2E2E2E2F5E2E2E2E2E2E2E2E2E2E2E2E2E2E2E2E2F5E2E2E2F5F5E2E2E2F5E2E2E2E2E2E2E2E2E2E2E2E2E2E2E2E2F5E2E2E2E2E2E2E2E2E2E2E2E2E2E2E2E2E2E2E2E2E2E2E2E2E2E2E2E2E2E2E2E2E2E2E2E2E2E2E2
310
E2E2E2E2E2E2E2E2E2E2E2E2E2E2E2E2E2E2E2E2E2E2E2E2E2E2E2E2E2E2E2E2E2E2E2E2E2E2E2E2E2E2E2E2E2E2E2E2E2E2E2E2E2E2E2E2E2E2E2E2E2E2E2E2E2E2E2E2E2E2E2E2E2E2E2E2E2E2E2E2E2E2E2E2E2E2E2E2E2E2E2E2E2E2E2E2E2F5E2E2E2E2E2E2E2E2E2E2E2E2E2E2E2E2F5E2E2E2F5F5E2E2E2F5E2E2E2
310
E2E2E2E2E2E2E2E2E2E2E2E2E2F5E2E2E2E2E2E2E2E2E2E2E2E2E2E2E2E2E2E2E2E2E2E2E2E2E2E2E2E2E2E2E2E2E2E2E2E2E2E2E2E2E2E2E2E2E2E2E2E2E2E2E2E2E2E2E2E2E2E2E2E2E2E2E2E2E2E2E2E2E2E2E2E2E2E2E2E2E2E2E2E2E2E2E2E2E2E2E2E2E2E2E2E2E2E2E2E2E2E2E2E2E2E2E2E2E2E2E2E2E2E2E2E2E2
310
E2E2E2E2E2E2E2E2E2E2E2E2E2E2E2E2E2E2E2E2E2E2E2F5E2E2E2E2E2E2E2E2E2E2E2E2E2E2E2E2F5E2E2E2F5F5E2E2E2E2E2E2E2E2E2E2E2E2E2E2E2E2E2E2E2E2F5E2E2E2E2E2E2E2E2E2E2E2E2E2E2E2E2E2E2E2E2E2E2E2E2E2E2E2E2E2E2E2E2E2E2E2E2E2E2E2E2E2E2E2E2E2E2E2E2E2E2E2E2E2E2E2E2E2E2E2E2
310
E2E2E2E2E2E2E2E2E2E2E2E2E2E2E2E2E2E2E2E2E2E2E2E2E2E2E2E2E2E2E2E2E2E2E2E2E2E2E2E2E2E2E2E2E2E2E2E2E2E2E2E2E2E2E2E2E2E2E2E2E2E2E2E2E2E2E2E2E2E2E2E2E2E2E2E2F5E2E2E2E2E2E2E2E2E2E2E2E2E2E2E2E2E2E2E2E2F5F5E2E2E2E2E2E2E2E2E2E2E2E2E2E2E2E2E2E2E2E2F5E2E2E2E2E2E2E2
310
E2E2E2E2E2E2E2E2E2E2E2E2E2E2E2E2E2E2E2E2E2E2E2E2E2E2E2E2E2E2E2E2E2E2E2E2E2E2E2E2E2E2E2E2E2E2E2E2E2E2E2E2E2E2E2E2E2E2E2E2E2E2E2E2E2E2E2E2E2E2E2E2E2E2E2E2E2E2E2E2E2E2E2E2E2E2E2E2E2E2E2E2E2E2E2E2E2E2E2E2E2E2E2E2E2E2E2E2E2E2E2E2E2E2E2E2E2E2E2E2E2E2E2E2E2E2E2
310
E2E2F5E2E2E2E2E2E2E2E2E2E2E2E2E2E2E2E2E2E2E2E2F5F5E2E2E2E2E2E2E2E2E2E2E2E2E2E2E2E2E2E2E2E2F5E2E2E2E2E2E2E2E2E2E2E2E2E2E2E2E2E2E2E2E2E2E2E2E2E2E2E2E2E2E2E2E2E2E2E2E2E2E2E2E2E2E2E2E2E2E2E2E2E2E2E2E2E2E2E2E2E2E2E2E2E2E2E2E2E2E2E2E2E2E2E2E2E2E2E2E2E2E2E2E2E2
310
E2E2E2E2E2E2E2E2E2E2E2E2E2E2E2E2E2E2E2E2E2E2E2E2E2E2E2E2E2E2E2E2E2E2E2E2E2E2E2E2E2E2E2E2E2E2E2E2E2E2E2E2E2E2E2F5E2E2E2E2E2E2E2E2E2E2E2E2E2E2E2E2E2E2E2E2F5F5E2E2E2E2E2E2E2E2E2E2E2E2E2E2E2E2E2E2E2E2F5E2E2E2E2E2E2E2E2E2E2E2E2E2E2E2E2E2E2E2E2E2E2E2E2E2E2E2E2
310
E2E2E2E2E2E2E2E2E2E2E2E2E2E2E2E2E2E2E2E2E2E2E2E2E2E2E2E2E2E2E2E2E2E2E2E2E2E2E2E2E2E2E2E2E2E2E2E2E2E2E2E2E2E2E2E2E2E2E2E2E2E2E2E2E2E2E2E2E2E2E2E2E2E2E2E2E2E2E2E2E2E2E2E2E2E2E2E2E2E2E2E2E2E2E2E2E2E2E2E2E2E2E2E2E2E2E2E2F5E2E2E2E2E2E2E2E2E2E2E2E2E2E2E2E2E2E2
310
E2E2F5F5E2E2E2E2E2E2E2E2E2E2E2E2E2E2E2E2E2E2E2E2F5E2E2E2E2E2E2E2E2E2E2E2E2E2E2E2E2E2E2E2E2E2E2E2E2E2E2E2E2E2E2E2E2E2E2E2E2E2E2E2E2E2E2E2E2E2E2E2E2E2E2E2E2E2E2E2E2E2E2E2E2E2E2E2E2E2E2E2E2E2E2E2E2E2E2E2E2E2E2E2E2E2E2E2E2E2E2E2E2E2E2E2E2E2E2E2E2E2E2E2E2E2E2
310
E2E2E2E2E2E2E2E2E2E2E2E2E2E2E2E2E2E2E2E2E2E2E2E2E2E2E2E2E2E2E2E2E2E2F5E2E2E2E2E2E2E2E2E2E2E2E2E2E2E2E2E2E2E2E2F5F5E2E2E2E2E2E2E2E2E2E2E2E2E2E2E2E2E2E2E2E2F5E2E2E2E2E2E2E2E2E2E2E2E2E2E2E2E2E2E2E2E2E2E2E2E2E2E2E2E2E2E2E2E2E2E2E2E2E2E2E2E2E2E2E2E2E2E2E2E2E2
310
E2E2E2E2E2E2E2E2E2E2E2E2E2E2E2E2E2E2E2E2E2E2E2E2E2E2E2E2E2E2E2E2E2E2E2E2E2E2E2E2E2E2E2E2E2E2E2E2E2E2E2E2E2E2E2E2E2E2E2E2E2E2E2E2E2E2E2E2E2E2E2E2E2E2E2E2E2E2E2E2E2E2E2E2E2E2E2F5E2E2E2E2E2E2E2E2E2E2E2E2E2E2E2E2E2E2E2E2F5F5E2E2E2E2E2E2E2E2E2E2E2E2E2E2E2E2E2
310
E2E2E2F5E2E2E2E2E2E2E2E2E2E2E2E2E2E2E2E2E2E2E2E2E2E2E2E2E2E2E2E2E2E2E2E2E2E2E2E2E2E2E2E2E2E2E2E2E2E2E2E2E2E2E2E2E2E2E2E2E2E2E2E2E2E2E2E2E2E2E2E2E2E2E2E2E2E2E2E2E2E2E2E2E2E2E2E2E2E2E2E2E2E2E2E2E2E2E2E2E2E2E2E2E2E2E2E2E2E2E2E2E2E2E2E2E2E2E2E2E2E2E2E2E2E2E2
310
E2E2E2E2E2E2E2E2E2E2E2E2E2F5E2E2E2E2E2E2E2E2E2E2E2E2E2E2E2E2E2E2E2E2F5F5E2E2E2E2E2E2E2E2E2E2E2E2E2E2E2E2E2E2E2E2F5E2E2E2E2E2E2E2E2E2E2E2E2E2E2E2E2E2E2E2E2E2E2E2E2E2E2E2E2E2E2E2E2E2E2E2E2E2E2E2E2E2E2E2E2E2E2E2E2E2E2E2E2E2E2E2E2E2E2E2E2E2E2E2E2E2E2E2E2E2E2
310
E2E2E2E2E2E2E2E2E2E2E2E2E2E2E2E2E2E2E2E2E2E2E2E2E2E2E2E2E2E2E2E2E2E2E2E2E2E2E2E2E2E2E2E2E2E2E2E2E2E2E2E2E2E2E2E2E2E2E2E2E2E2E2E2E2E2F5E2E2E2E2E2E2E2E2E2E2E2E2E2E2E2E2E2E2E2E2F5F5E2E2E2E2E2E2E2E2E2E2E2E2E2E2E2E2E2E2E2E2F5E2E2E2E2E2E2E2E2E2E2E2E2E2E2E2E2E2
310
E2E2E2E2E2E2E2E2E2E2E2E2E2E2E2E2E2E2E2E2E2E2E2E2E2E2E2E2E2E2E2E2E2E2E2E2E2E2E2E2E2E2E2E2E2E2E2E2E2E2E2E2E2E2E2E2E2E2E2E2E2E2E2E2E2E2E2E2E2E2E2E2E2E2E2E2E2E2E2E2E2E2E2E2E2E2E2E2E2E2E2E2E2E2E2E2E2E2E2E2E2E2E2E2E2E2E2E2E2E2E2E2E2E2E2E2E2E2E2F5E2E2E2E2E2E2E2
310
E2E2E2E2E2E2E2E2E2E2E2E2E2F5F5E2E2E2F5E2E2E2E2E2E2E2E2E2E2E2E2E2E2E2E2F5E2E2E2E2E2E2E2E2E2E2E2E2E2E2E2E2E2E2E2E2E2E2E2E2E2E2E2E2E2E2E2E2E2E2E2E2E2E2E2E2E2E2E2E2E2E2E2E2E2E2E2E2E2E2E2E2E2E2E2E2E2E2E2E2E2E2E2E2E2E2E2E2E2E2E2E2E2E2E2E2E2E2E2E2E2E2E2E2E2E2E2
310
E2E2E2E2E2E2E2E2E2E2E2E2E2E2E2E2E2E2E2E2E2E2E2E2E2E2E2E2E2E2E2E2E2E2E2E2E2E2E2E2E2E2E2E2E2F5E2E2E2E2E2E2E2E2E2E2E2E2E2E2E2E2F5E2E2E2F5F5E2E2E2F5E2E2E2E2E2E2E2E2E2E2E2E2E2E2E2E2F5E2E2E2E2E2E2E2E2E2E2E2E2E2E2E2E2E2E2E2E2E2E2E2E2E2E2E2E2E2E2E2E2E2E2E2E2E2E2
310
E2E2E2E2E2E2E2E2E2E2E2E2E2E2E2E2E2E2E2E2E2E2E2E2E2E2E2E2E2E2E2E2E2E2E2E2E2E2E2E2E2E2E2E2E2E2E2E2E2E2E2E2E2E2E2E2E2E2E2E2E2E2E2E2E2E2E2E2E2E2E2E2E2E2E2E2E2E2E2E2E2E2E2E2E2E2E2E2E2E2E2E2E2E2E2E2E2E2F5E2E2E2E2E2E2E2E2E2E2E2E2E2E2E2E2F5E2E2E2F5F5E2E2E2F5E2E2
310
E2E2E2E2E2E2E2E2E2E2E2E2E2E2F5E2E2E2E2E2E2E2E2E2E2E2E2E2E2E2E2E2E2E2E2E2E2E2E2E2E2E2E2E2E2E2E2E2E2E2E2E2E2E2E2E2E2E2E2E2E2E2E2E2E2E2E2E2E2E2E2E2E2E2E2E2E2E2E2E2E2E2E2E2E2E2E2E2E2E2E2E2E2E2E2E2E2E2E2E2E2E2E2E2E2E2E2E2E2E2E2E2E2E2E2E2E2E2E2E2E2E2E2E2E2E2E2
310
E2E2E2E2E2E2E2E2E2E2E2E2E2E2E2E2E2E2E2E2E2E2E2E2F5E2E2E2E2E2E2E2E2E2E2E2E2E2E2E2E2F5E2E2E2F5F5E2E2E2F5E2E2E2E2E2E2E2E2E2E2E2E2E2E2E2E2F5E2E2E2E2E2E2E2E2E2E2E2E2E2E2E2E2E2E2E2E2E2E2E2E2E2E2E2E2E2E2E2E2E2E2E2E2E2E2E2E2E2E2E2E2E2E2E2E2E2E2E2E2E2E2E2E2E2E2E2
310
E2E2E2E2E2E2E2E2E2E2E2E2E2E2E2E2E2E2E2E2E2E2E2E2E2E2E2E2E2E2E2E2E2E2E2E2E2E2E2E2E2E2E2E2E2E2E2E2E2E2E2E2E2E2E2E2E2E2E2E2E2E2E2E2E2E2E2E2E2E2E2E2E2E2E2E2E2F5E2E2E2E2E2E2E2E2E2E2E2E2E2E2E2E2F5E2E2E2F5F5E2E2E2F5E2E2E2E2E2E2E2E2E2E2E2E2E2E2E2E2F5E2E2E2E2E2E2
310
E2E2E2E2E2E2E2E2E2E2E2E2E2E2E2E2E2E2E2E2E2E2E2E2E2E2E2E2E2E2E2E2E2E2E2E2E2E2E2E2E2E2E2E2E2E2E2E2E2E2E2E2E2E2E2E2E2E2E2E2E2E2E2E2E2E2E2E2E2E2E2E2E2E2E2E2E2E2E2E2E2E2E2E2E2E2E2E2E2E2E2E2E2E2E2E2E2E2E2E2E2E2E2E2E2E2E2E2E2E2E2E2E2E2E2E2E2E2E2E2E2E2E2E2E2E2E2
310
E2E2E2F5E2E2E2E2E2E2E2E2E2E2E2E2E2E2E2E2F5E2E2E2F5F5E2E2E2F5E2E2E2E2E2E2E2E2E2E2E2E2E2E2E2E2F5E2E2E2E2E2E2E2E2E2E2E2E2E2E2E2E2E2E2E2E2E2E2E2E2E2E2E2E2E2E2E2E2E2E2E2E2E2E2E2E2E2E2E2E2E2E2E2E2E2E2E2E2E2E2E2E2E2E2E2E2E2E2E2E2E2E2E2E2E2E2E2E2E2E2E2E2E2E2E2E2
310
E2E2E2E2E2E2E2E2E2E2E2E2E2E2E2E2E2E2E2E2E2E2E2E2E2E2E2E2E2E2E2E2E2E2E2E2E2E2E2E2E2E2E2E2E2E2E2E2E2E2E2E2E2E2E2E2F5E2E2E2E2E2E2E2E2E2E2E2E2E2E2E2E2F5E2E2E2F5F5E2E2E2F5E2E2E2E2E2E2E2E2E2E2E2E2E2E2E2E2F5E2E2E2E2E2E2E2E2E2E2E2E2E2E2E2E2E2E2E2E2E2E2E2E2E2E2E2
310
E2E2E2E2E2E2E2E2E2E2E2E2E2E2E2E2E2E2E2E2E2E2E2E2E2E2E2E2E2E2E2E2E2E2E2E2E2E2E2E2E2E2E2E2E2E2E2E2E2E2E2E2E2E2E2E2E2E2E2E2E2E2E2E2E2E2E2E2E2E2E2E2E2E2E2E2E2E2E2E2E2E2E2E2E2E2E2E2E2E2E2E2E2E2E2E2E2E2E2E2E2E2E2E2E2E2E2E2E2F5E2E2E2E2E2E2E2E2E2E2E2E2E2E2E2E2F5
310
E2E2E2F5F5E2E2E2F5E2E2E2E2E2E2E2E2E2E2E2E2E2E2E2E2F5E2E2E2E2E2E2E2E2E2E2E2E2E2E2E2E2E2E2E2E2E2E2E2E2E2E2E2E2E2E2E2E2E2E2E2E2E2E2E2E2E2E2E2E2E2E2E2E2E2E2E2E2E2E2E2E2E2E2E2E2E2E2E2E2E2E2E2E2E2E2E2E2E2E2E2E2E2E2E2E2E2E2E2E2E2E2E2E2E2E2E2E2E2E2E2E2E2E2E2E2E2
310
E2E2E2E2E2E2E2E2E2E2E2E2E2E2E2E2E2E2E2E2E2E2E2E2E2E2E2E2E2E2E2E2E2E2E2F5E2E2E2E2E2E2E2E2E2E2E2E2E2E2E2E2F5E2E2E2F5F5E2E2E2F5E2E2E2E2E2E2E2E2E2E2E2E2E2E2E2E2F5E2E2E2E2E2E2E2E2E2E2E2E2E2E2E2E2E2E2E2E2E2E2E2E2E2E2E2E2E2E2E2E2E2E2E2E2E2E2E2E2E2E2E2E2E2E2E2E2
310
E2E2E2E2E2E2E2E2E2E2E2E2E2E2E2E2E2E2E2E2E2E2E2E2E2E2E2E2E2E2E2E2E2E2E2E2E2E2E2E2E2E2E2E2E2E2E2E2E2E2E2E2E2E2E2E2E2E2E2E2E2E2E2E2E2E2E2E2E2E2E2E2E2E2E2E2E2E2E2E2E2E2E2E2E2E2E2E2F5E2E2E2E2E2E2E2E2E2E2E2E2E2E2E2E2F5E2E2E2F5F5E2E2E2F5E2E2E2E2E2E2E2E2E2E2E2E2
310
E2E2E2E2F5E2E2E2E2E2E2E2E2E2E2E2E2E2E2E2E2E2E2E2E2E2E2E2E2E2E2E2E2E2E2E2E2E2E2E2E2E2E2E2E2E2E2E2E2E2E2E2E2E2E2E2E2E2E2E2E2E2E2E2E2E2E2E2E2E2E2E2E2E2E2E2E2E2E2E2E2E2E2E2E2E2E2E2E2E2E2E2E2E2E2E2E2E2E2E2E2E2E2E2E2E2E2E2E2E2E2E2E2E2E2E2E2E2E2E2E2E2E2E2E2E2E2
310
E2E2E2E2E2E2E2E2E2E2E2E2E2E2F5E2E2E2E2E2E2E2E2E2E2E2E2E2E2E2E2F5E2E2E2F5F5E2E2E2F5E2E2E2E2E2E2E2E2E2E2E2E2E2E2E2E2F5E2E2E2E2E2E2E2E2E2E2E2E2E2E2E2E2E2E2E2E2E2E2E2E2E2E2E2E2E2E2E2E2E2E2E2E2E2E2E2E2E2E2E2E2E2E2E2E2E2E2E2E2E2E2E2E2E2E2E2E2E2E2E2E2E2E2E2E2E2
310
E2E2E2E2E2E2E2E2E2E2E2E2E2E2E2E2E2E2E2E2E2E2E2E2E2E2E2E2E2E2E2E2E2E2E2E2E2E2E2E2E2E2E2E2E2E2E2E2E2E2E2E2E2E2E2E2E2E2E2E2E2E2E2E2E2E2E2F5E2E2E2E2E2E2E2E2E2E2E2E2E2E2E2E2F5E2E2E2F5F5E2E2E2F5E2E2E2E2E2E2E2E2E2E2E2E2E2E2E2E2F5E2E2E2E2E2E2E2E2E2E2E2E2E2E2E2E2
310
E2E2E2E2E2E2E2E2E2E2E2E2E2E2E2E2E2E2E2E2E2E2E2E2E2E2E2E2E2E2E2E2E2E2E2E2E2E2E2E2E2E2E2E2E2E2E2E2E2E2E2E2E2E2E2E2E2E2E2E2E2E2E2E2E2E2E2E2E2E2E2E2E2E2E2E2E2E2E2E2E2E2E2E2E2E2E2E2E2E2E2E2E2E2E2E2E2E2E2E2E2E2E2E2E2E2E2E2E2E2E2E2E2E2E2E2E2E2E2E2F5E2E2E2E2E2E2
310
E2E2E2E2E2E2E2E2E2E2F5E2E2E2F5F5E2E2E2F5E2E2E2E2E2E2E2E2E2E2E2E2E2E2E2E2F5E2E2E2E2E2E2E2E2E2E2E2E2E2E2E2E2E2E2E2E2E2E2E2E2E2E2E2E2E2E2E2E2E2E2E2E2E2E2E2E2E2E2E2E2E2E2E2E2E2E2E2E2E2E2E2E2E2E2E2E2E2E2E2E2E2E2E2E2E2E2E2E2E2E2E2E2E2E2E2E2E2E2E2E2E2E2E2E2E2E2
310
E2E2E2E2E2E2E2E2E2E2E2E2E2E2E2E2E2E2E2E2E2E2E2E2E2E2E2E2E2E2E2E2E2E2E2E2E2E2E2E2E2E2E2E2E2E2F5E2E2E2E2E2E2E2E2E2E2E2E2E2E2E2E2F5E2E2E2F5F5E2E2E2F5E2E2E2E2E2E2E2E2E2E2E2E2E2E2E2E2F5E2E2E2E2E2E2E2E2E2E2E2E2E2E2E2E2E2E2E2E2E2E2E2E2E2E2E2E2E2E2E2E2E2E2E2E2E2
310
E2E2E2E2E2E2E2E2E2E2E2E2E2E2E2E2E2E2E2E2E2E2E2E2E2E2E2E2E2E2E2E2E2E2E2E2E2E2E2E2E2E2E2E2E2E2E2E2E2E2E2E2E2E2E2E2E2E2E2E2E2E2E2E2E2E2E2E2E2E2E2E2E2E2E2E2E2E2E2E2E2E2E2E2E2E2E2E2E2E2E2E2E2E2E2E2E2E2E2F5E2E2E2E2E2E2E2E2E2E2E2E2E2E2E2E2F5E2E2E2F5F5E2E2E2F5E2
310
E2E2E2E2E2E2E2E2E2E2E2E2E2E2E2F5E2E2E2E2E2E2E2E2E2E2E2E2E2E2E2E2E2E2E2E2E2E2E2E2E2E2E2E2E2E2E2E2E2E2E2E2E2E2E2E2E2E2E2E2E2E2E2E2E2E2E2E2E2E2E2E2E2E2E2E2E2E2E2E2E2E2E2E2E2E2E2E2E2E2E2E2E2E2E2E2E2E2E2E2E2E2E2E2E2E2E2E2E2E2E2E2E2E2E2E2E2E2E2E2E2E2E2E2E2E2E2
310
E2E2E2E2E2E2E2E2E2E2E2E2E2E2E2E2E2E2E2E2E2E2E2E2E2F5E2E2E2E2E2E2E2E2E2E2E2E2E2E2E2E2F5E2E2E2F5F5E2E2E2F5E2E2E2E2E2E2E2E2E2E2E2E2E2E2E2E2F5E2E2E2E2E2E2E2E2E2E2E2E2E2E2E2E2E2E2E2E2E2E2E2E2E2E2E2E2E2E2E2E2E2E2E2E2E2E2E2E2E2E2E2E2E2E2E2E2E2E2E2E2E2E2E2E2E2E2
310
E2E2E2E2E2E2E2E2E2E2E2E2E2E2E2E2E2E2E2E2E2E2E2E2E2E2E2E2E2E2E2E2E2E2E2E2E2E2E2E2E2E2E2E2E2E2E2E2E2E2E2E2E2E2E2E2E2E2E2E2E2E2E2E2E2E2E2E2E2E2E2E2E2E2E2E2E2E2F5E2E2E2E2E2E2E2E2E2E2E2E2E2E2E2E2F5E2E2E2F5F5E2E2E2F5E2E2E2E2E2E2E2E2E2E2E2E2E2E2E2E2F5E2E2E2E2E2
310
E2E2E2E2E2E2E2E2E2E2E2E2E2E2E2E2E2E2E2E2E2E2E2E2E2E2E2E2E2E2E2E2E2E2E2E2E2E2E2E2E2E2E2E2E2E2E2E2E2E2E2E2E2E2E2E2E2E2E2E2E2E2E2E2E2E2E2E2E2E2E2E2E2E2E2E2E2E2E2E2E2E2E2E2E2E2E2E2E2E2E2E2E2E2E2E2E2E2E2E2E2E2E2E2E2E2E2E2E2E2E2E2E2E2E2E2E2E2E2E2E2E2E2E2E2E2E2
310
E2E2E2E2F5E2E2E2E2E2E2E2E2E2E2E2E2E2E2E2E2F5E2E2E2F5F5E2E2E2E2E2E2E2E2E2E2E2E2E2E2E2E2E2E2E2E2F5E2E2E2E2E2E2E2E2E2E2E2E2E2E2E2E2E2E2E2E2E2E2E2E2E2E2E2E2E2E2E2E2E2E2E2E2E2E2E2E2E2E2E2E2E2E2E2E2E2E2E2E2E2E2E2E2E2E2E2E2E2E2E2E2E2E2E2E2E2E2E2E2E2E2E2E2E2E2E2
310
E2E2E2E2E2E2E2E2E2E2E2E2E2E2E2E2E2E2E2E2E2E2E2E2E2E2E2E2E2E2E2E2E2E2E2E2E2E2E2E2E2E2E2E2E2E2E2E2E2E2E2E2E2E2E2E2E2F5E2E2E2E2E2E2E2E2E2E2E2E2E2E2E2E2E2E2E2E2F5F5E2E2E2E2E2E2E2E2E2E2E2E2E2E2E2E2E2E2E2E2F5E2E2E2E2E2E2E2E2E2E2E2E2E2E2E2E2E2E2E2E2E2E2E2E2E2E2
310
E2E2E2E2E2E2E2E2E2E2E2E2E2E2E2E2E2E2E2E2E2E2E2E2E2E2E2E2E2E2E2E2E2E2E2E2E2E2E2E2E2E2E2E2E2E2E2E2E2E2E2E2E2E2E2E2E2E2E2E2E2E2E2E2E2E2E2E2E2E2E2E2E2E2E2E2E2E2E2E2E2E2E2E2E2E2E2E2E2E2E2E2E2E2E2E2E2E2E2E2E2E2E2E2E2E2E2E2E2E2F5E2E2E2E2E2E2E2E2E2E2E2E2E2E2E2E2
310
E2E2E2E2F5F5E2E2E2E2E2E2E2E2E2E2E2E2E2E2E2E2E2E2E2E2F5E2E2E2E2E2E2E2E2E2E2E2E2E2E2E2E2E2E2E2E2E2E2E2E2E2E2E2E2E2E2E2E2E2E2E2E2E2E2E2E2E2E2E2E2E2E2E2E2E2E2E2E2E2E2E2E2E2E2E2E2E2E2E2E2E2E2E2E2E2E2E2E2E2E2E2E2E2E2E2E2E2E2E2E2E2E2E2E2E2E2E2E2E2E2E2E2E2E2E2E2
310
E2E2E2E2E2E2E2E2E2E2E2E2E2E2E2E2E2E2E2E2E2E2E2E2E2E2E2E2E2E2E2E2E2E2E2E2F5E2E2E2E2E2E2E2E2E2E2E2E2E2E2E2E2E2E2E2E2F5F5E2E2E2E2E2E2E2E2E2E2E2E2E2E2E2E2E2E2E2E2F5E2E2E2E2E2E2E2E2E2E2E2E2E2E2E2E2E2E2E2E2E2E2E2E2E2E2E2E2E2E2E2E2E2E2E2E2E2E2E2E2E2E2E2E2E2E2E2
310
E2E2E2E2E2E2E2E2E2E2E2E2E2E2E2E2E2E2E2E2E2E2E2E2E2E2E2E2E2E2E2E2E2E2E2E2E2E2E2E2E2E2E2E2E2E2E2E2E2E2E2E2E2E2E2E2E2E2E2E2E2E2E2E2E2E2E2E2E2E2E2E2E2E2E2E2E2E2E2E2E2E2E2E2E2E2E2E2E2F5E2E2E2E2E2E2E2E2E2E2E2E2E2E2E2E2E2E2E2E2F5F5E2E2E2E2E2E2E2E2E2E2E2E2E2E2E2
310
E2E2E2E2E2F5F5F5F5F5F5F5F5F5F5F5F5F5F5F5F5F5F5F5F5F5F5F5F5F5F5F5F5F5F5F5F5F5F5F5F5F5F5F5F5F5F5F5F5F5F5F5F5F5F5F5F5F5F5F5F5F5F5F5F5F5F5F5F5F5F5F5F5F5F5F5F5F5F5F5F5F5F5F5F5F5F5F5F5F5F5F5F5F5F5F5F5F5F5F5F5F5F5F5F5F5F5F5F5F5F5F5F5F5F5F5F5F5F5F5F5F5F5F5F5F5F5
310
F5F5F5F5F5F5F5F5F5F5F5F5F5F5F5F5E2E2E2E2E2E2E2E2E2E2E2E2E2E2E2E2E2E2E2E2F5F5E2E2E2E2E2E2E2E2E2E2E2E2E2E2E2E2E2E2E2E2E2E2E2E2E2E2E2E2E2E2E2E2E2E2E2E2E2E2E2E2E2E2E2E2E2E2E2E2E2E2E2E2E2E2E2E2E2E2E2E2E2E2E2E2E2E2E2E2E2E2E2E2E2E2E2E2E2E2E2E2E2E2E2E2E2E2E2E2E2
310
E2E2E2E2E2E2E2E2E2E2E2E2E2E2E2E2E2E2E2E2E2E2E2E2E2E2E2E2E2E2E2E2E2E2E2E2E2E2E2E2E2E2E2E2E2E2E2E2E2E2E2E2E2E2E2E2E2E2E2E2E2E2E2E2E2E2E2E2E2E2E2E2E2E2E2E2E2E2E2E2E2E2E2E2E2E2E2E2E2F5F5E2E2E2E2E2E2E2E2E2E2E2E2E2E2E2E2E2E2E2E2E2E2E2E2E2E2E2E2E2E2E2E2E2E2E2E2
310
E2E2E2E2E2E2E2E2E2E2E2E2E2E2E2E2E2E2E2E2E2E2E2E2E2E2E2E2E2E2E2E2E2E2E2E2E2E2E2E2E2E2E2E2E2E2E2E2E2E2E2E2E2E2E2E2E2E2E2E2E2E2E2E2E2E2E2E2E2E2E2E2E2E2E2E2E2E2E2E2E2E2E2E2E2E2E2E2E2E2E2E2E2E2E2E2E2E2E2E2E2E2E2E2E2E2E2E2E2E2E2E2E2E2E2E2E2E2E2E2E2E2E2E2E2E2E2
310
E2E2E2E2E2E2E2E2E2E2E2E2E2E2E2F5F5E2E2E2E2E2E2E2E2E2E2E2E2E2E2E2E2E2E2E2E2E2E2E2E2E2E2E2E2E2E2E2E2E2E2E2E2E2E2E2E2E2E2E2E2E2E2E2E2E2E2E2E2E2E2E2E2E2E2E2E2E2E2E2E2E2E2E2E2E2E2E2E2E2E2E2E2E2E2E2E2E2E2E2E2E2E2E2E2E2E2E2E2E2E2E2E2E2E2E2E2E2E2E2E2E2E2E2E2E2E2
310
E2E2E2E2E2E2E2E2E2E2E2E2E2E2E2E2E2E2E2E2E2E2E2E2E2E2E2E2E2E2E2E2E2E2E2E2E2E2E2E2E2E2E2E2E2E2E2E2E2E2E2E2E2E2E2E2E2E2E2E2E2E2E2E2E2E2E2E2F5F5E2E2E2E2E2E2E2E2E2E2E2E2E2E2E2E2E2E2E2E2E2E2E2E2E2E2E2E2E2E2E2E2E2E2E2E2E2E2E2E2E2E2E2E2E2E2E2E2E2E2E2E2E2E2E2E2E2
310
E2E2E2E2E2E2E2E2E2E2E2E2E2E2E2E2E2E2E2E2E2E2E2E2E2E2E2E2E2E2E2E2E2E2E2E2E2E2E2E2E2E2E2E2E2E2E2E2E2E2E2E2E2E2E2E2E2E2E2E2E2E2E2E2E2E2E2E2E2E2E2E2E2E2E2E2E2E2E2E2E2E2E2E2E2E2E2E2E2E2E2E2E2E2E2E2E2E2E2E2E2E2E2E2E2E2E2E2E2E2E2E2E2E2E2E2E2E2E2E2E2F5F5E2E2E2F5
310
E2E2E2E2E2E2E2E2E2E2E2E2E2E2E2E2E2E2E2E2E2E2E2E2E2E2E2E2E2E2E2E2E2E2E2E2E2E2E2E2E2E2E2E2E2E2E2E2E2E2E2E2E2E2E2E2E2E2E2E2E2E2E2E2E2E2E2E2E2E2E2E2E2E2E2E2E2E2E2E2E2E2E2E2E2E2E2E2E2E2E2E2E2E2E2E2E2E2E2E2E2E2E2E2E2E2E2E2E2E2E2E2E2E2E2E2E2E2E2E2E2E2E2E2E2E2E2
310
E2E2E2E2E2E2E2E2E2E2E2E2E2E2E2E2E2E2E2E2E2E2E2E2E2E2E2E2E2E2E2E2E2E2E2E2E2E2E2E2E2E2E2F5E2E2E2F5F5E2E2E2F5E2E2E2E2E2E2E2E2E2E2E2E2E2E2E2E2E2E2E2E2E2E2E2E2E2E2E2E2E2E2E2E2E2E2E2E2E2E2E2E2E2E2E2E2E2E2E2E2E2E2E2E2E2E2E2E2E2E2E2E2E2E2E2E2E2E2E2E2E2E2E2E2E2E2
310
E2E2E2E2E2E2E2E2E2E2E2E2E2E2E2E2E2E2E2E2E2E2E2E2E2E2E2E2E2E2E2E2E2E2E2E2E2E2E2E2E2E2E2E2E2E2E2E2E2E2E2E2E2E2E2E2E2E2E2E2E2E2E2E2E2E2E2E2E2E2E2E2E2E2E2E2E2E2E2E2E2E2E2E2E2E2E2E2E2E2E2E2E2E2E2E2F5E2E2E2F5F5E2E2E2F5E2E2E2E2E2E2E2E2E2E2E2E2E2E2E2E2E2E2E2E2E2
310
E2E2E2E2E2E2E2E2E2E2E2E2E2E2E2E2E2E2E2E2E2E2E2E2E2E2E2E2E2E2E2E2E2E2E2E2E2E2E2E2E2E2E2E2E2E2E2E2E2E2E2E2E2E2E2E2E2E2E2E2E2E2E2E2E2E2E2E2E2E2E2E2E2E2E2E2E2E2E2E2E2E2E2E2E2E2E2E2E2E2E2E2E2E2E2E2E2E2E2E2E2E2E2E2E2E2E2E2E2E2E2E2E2E2E2E2E2E2E2E2E2E2E2E2E2E2E2
310
E2E2E2E2E2E2E2E2E2E2E2E2E2E2E2E2E2E2E2E2E2E2F5E2E2E2F5F5E2E2E2F5E2E2E2E2E2E2E2E2E2E2E2E2E2E2E2E2E2E2E2E2E2E2E2E2E2E2E2E2E2E2E2E2E2E2E2E2E2E2E2E2E2E2E2E2E2E2E2E2E2E2E2E2E2E2E2E2E2E2E2E2E2E2E2E2E2E2E2E2E2E2E2E2E2E2E2E2E2E2E2E2E2E2E2E2E2E2E2E2E2E2E2E2E2E2E2
310
E2E2E2E2E2E2E2E2E2E2E2E2E2E2E2E2E2E2E2E2E2E2E2E2E2E2E2E2E2E2E2E2E2E2E2E2E2E2E2E2E2E2E2E2E2E2E2E2E2E2E2E2E2E2E2E2E2E2E2E2E2E2E2E2E2E2E2E2E2E2E2E2E2E2E2F5E2E2E2F5F5E2E2E2F5E2E2E2E2E2E2E2E2E2E2E2E2E2E2E2E2E2E2E2E2E2E2E2E2E2E2E2E2E2E2E2E2E2E2E2E2E2E2E2E2E2E2
310
E2E2E2E2E2E2E2E2E2E2E2E2E2E2E2E2E2E2E2E2E2E2E2E2E2E2E2E2E2E2E2E2E2E2E2E2E2E2E2E2E2E2E2E2E2E2E2E2E2E2E2E2E2E2E2E2E2E2E2E2E2E2E2E2E2E2E2E2E2E2E2E2E2E2E2E2E2E2E2E2E2E2E2E2E2E2E2E2E2E2E2E2E2E2E2E2E2E2E2E2E2E2E2E2E2E2E2E2E2E2E2E2E2E2E2E2E2E2E2E2E2E2E2E2E2E2E2
310
E2F5E2E2E2F5F5E2E2E2F5E2E2E2E2E2E2E2E2E2E2E2E2E2E2E2E2E2E2E2E2E2E2E2E2E2E2E2E2E2E2E2E2E2E2E2E2E2E2E2E2E2E2E2E2E2E2E2E2E2E2E2E2E2E2E2E2E2E2E2E2E2E2E2E2E2E2E2E2E2E2E2E2E2E2E2E2E2E2E2E2E2E2E2E2E2E2E2E2E2E2E2E2E2E2E2E2E2E2E2E2E2E2E2E2E2E2E2E2E2E2E2E2E2E2E2E2
310
E2E2E2E2E2E2E2E2E2E2E2E2E2E2E2E2E2E2E2E2E2E2E2E2E2E2E2E2E2E2E2E2E2E2E2E2E2E2E2E2E2E2E2E2E2E2E2E2E2E2E2E2E2E2F5E2E2E2F5F5E2E2E2F5E2E2E2E2E2E2E2E2E2E2E2E2E2E2E2E2E2E2E2E2E2E2E2E2E2E2E2E2E2E2E2E2E2E2E2E2E2E2E2E2E2E2E2E2E2E2E2E2E2E2E2E2E2E2E2E2E2E2E2E2E2E2E2
310
E2E2E2E2E2E2E2E2E2E2E2E2E2E2E2E2E2E2E2E2E2E2E2E2E2E2E2E2E2E2E2E2E2E2E2E2E2E2E2E2E2E2E2E2E2E2E2E2E2E2E2E2E2E2E2E2E2E2E2E2E2E2E2E2E2E2E2E2E2E2E2E2E2E2E2E2E2E2E2E2E2E2E2E2E2E2E2E2E2E2E2E2E2E2E2E2E2E2E2E2E2E2E2E2E2E2E2F5E2E2E2F5F5E2E2E2F5E2E2E2E2E2E2E2E2E2E2
310
E2E2E2E2E2E2E2E2E2E2E2E2E2E2E2E2E2E2E2E2E2E2E2E2E2E2E2E2E2E2E2E2E2E2E2E2E2E2E2E2E2E2E2E2E2E2E2E2E2E2E2E2E2E2E2E2E2E2E2E2E2E2E2E2E2E2E2E2E2E2E2E2E2E2E2E2E2E2E2E2E2E2E2E2E2E2E2E2E2E2E2E2E2E2E2E2E2E2E2E2E2E2E2E2E2E2E2E2E2E2E2E2E2E2E2E2E2E2E2E2E2E2E2E2E2E2E2
310
E2E2E2E2E2E2E2E2E2E2E2E2E2E2E2E2E2E2E2E2E2E2E2E2E2E2E2E2E2E2E2E2E2F5E2E2E2F5F5E2E2E2F5F5F5F5F5F5F5F5E2E2E2E2E2E2E2E2E2F5F5F5F5F5F5F5F5F5F5F5F5F5F5F5F5E2E2E2E2E2E2E2E2E2F5F5F5F5F5F5F5F5F5F5F5F5F5F5F5E2E2E2E2E2E2E2E2E2F5F5F5F5F5F5F5F5F5F5F5F5F5F5F5F5E2E2E2
310
E2E2E2E2E2F5F5F5F5F5F5F5F5F5F5F5F5F5F5F5F5E2E2E2E2E2E2E2E2E2F5F5F5F5F5F5F5F5F5F5F5F5F5F5F5E2E2E2E2E2E2E2E2E2F5F5F5F5F5F5F5F5F5F5F5F5F5F5F5F5E2E2E2E2E2E2E2E2E2F5F5F5F5F5F5F5F5E2E2E2F5F5E2E2E2E2E2E2E2E2E2E2E2E2E2E2E2E2E2E2E2E2E2E2E2E2E2E2E2E2E2E2E2E2E2E2E2
310
E2E2E2E2E2E2E2E2E2E2E2E2E2E2E2E2E2E2E2E2E2E2E2E2E2E2E2E2E2E2E2E2E2E2E2E2E2E2E2E2E2E2E2E2E2E2E2E2E2E2E2E2E2E2E2E2E2E2E2E2E2E2E2E2E2E2E2E2E2E2E2E2E2E2E2E2E2E2E2E2E2E2E2E2E2E2E2E2E2E2E2E2E2E2E2E2E2E2E2E2E2E2E2E2E2E2E2E2E2E2E2E2E2E2E2E2E2E2E2E2E2E2E2E2E2E2E2
310
E2E2E2E2E2E2E2E2E2E2E2E2E2E2E2E2F5F5E2E2E2E2E2E2E2E2E2E2E2E2E2E2E2E2E2E2E2E2E2E2E2E2E2E2E2E2E2E2E2E2E2E2E2E2E2E2E2E2E2E2E2E2E2E2E2E2E2E2E2E2E2E2E2E2E2E2E2E2E2E2E2E2E2E2E2E2E2E2E2E2E2E2E2E2E2E2E2E2E2E2E2E2E2E2E2E2E2E2E2E2E2E2E2E2E2E2E2E2E2E2E2E2E2E2E2E2E2
310
E2E2E2E2E2E2E2E2E2E2E2E2E2E2E2E2E2E2E2E2E2E2E2E2E2E2E2E2E2E2E2E2E2E2E2E2E2E2E2E2E2E2E2E2E2E2E2E2E2E2E2E2E2E2E2E2E2E2E2E2E2E2E2E2E2E2E2E2E2F5F5E2E2E2E2E2E2E2E2E2E2E2E2E2E2E2E2E2E2E2E2E2E2E2E2E2E2E2E2E2E2E2E2E2E2E2E2E2E2E2E2E2E2E2E2E2E2E2E2E2E2E2E2E2E2E2E2
310
E2E2E2E2E2E2E2E2E2E2E2E2E2E2E2E2E2E2E2E2E2E2E2E2E2E2E2E2E2E2E2E2E2E2E2E2E2E2E2E2E2E2E2E2E2E2E2E2E2E2E2E2E2E2E2E2E2E2E2E2E2E2E2E2E2E2E2E2E2E2E2E2E2E2E2E2E2E2E2E2E2E2E2E2E2E2E2E2E2E2E2E2E2E2E2E2E2E2E2E2E2E2E2E2E2E2E2E2E2E2E2E2E2E2E2E2E2E2E2E2E2E2F5F5E2E2E2
310
E2E2E2E2E2E2E2E2E2E2E2E2E2E2E2E2E2E2E2E2E2E2E2E2E2E2E2E2E2E2E2E2E2E2E2E2E2E2E2E2E2E2E2E2E2E2E2E2E2E2E2E2E2E2E2E2E2E2E2E2E2E2E2E2E2E2E2E2E2E2E2E2E2E2E2E2E2E2E2E2E2E2E2E2E2E2E2E2E2E2E2E2E2E2E2E2E2E2E2E2E2E2E2E2E2E2E2E2E2E2E2E2E2E2E2E2E2E2E2E2E2E2E2E2E2E2E2
310
E2E2E2E2E2E2E2E2E2E2E2E2E2E2E2E2E2E2E2E2E2E2E2E2E2E2E2E2E2E2E2E2E2E2E2E2E2E2E2E2E2E2E2E2E2E2E2E2F5
  0
XRECORD
  5
5FD4D
102
{ACAD_REACTORS
330
5FD4C
102
}
330
5FD4C
100
AcDbXrecord
280
     1
102
SHADEPLOT
 70
     0
102
SHADEPLOTRESLEVEL
 70
     2
102
SHADEPLOTCUSTOMDPI
 70
   300
  0
ENDSEC
  0
EOF
