  0
SECTION
  2
HEADER
  9
$ACADVER
  1
AC1015
  9
$ACADMAINTVER
 70
    20
  9
$DWGCODEPAGE
  3
ANSI_936
  9
$INSBASE
 10
0.0
 20
0.0
 30
0.0
  9
$EXTMIN
 10
-65.01666666666671
 20
-84.94060425809028
 30
0.0
  9
$EXTMAX
 10
368.2114762827008
 20
125.2043569669982
 30
0.0
  9
$LIMMIN
 10
0.0
 20
0.0
  9
$LIMMAX
 10
420.0
 20
297.0
  9
$ORTHOMODE
 70
     0
  9
$REGENMODE
 70
     1
  9
$FILLMODE
 70
     1
  9
$QTEXTMODE
 70
     0
  9
$MIRRTEXT
 70
     1
  9
$LTSCALE
 40
1.0
  9
$ATTMODE
 70
     1
  9
$TEXTSIZE
 40
3.5
  9
$TRACEWID
 40
1.0
  9
$TEXTSTYLE
  7
simplex
  9
$CLAYER
  8
0
  9
$CELTYPE
  6
ByLayer
  9
$CECOLOR
 62
   256
  9
$CELTSCALE
 40
1.0
  9
$DISPSILH
 70
     0
  9
$DIMSCALE
 40
0.0
  9
$DIMASZ
 40
3.5
  9
$DIMEXO
 40
0.0
  9
$DIMDLI
 40
0.38
  9
$DIMRND
 40
0.0
  9
$DIMDLE
 40
0.0
  9
$DIMEXE
 40
1.5
  9
$DIMTP
 40
0.0
  9
$DIMTM
 40
0.0
  9
$DIMTXT
 40
3.5
  9
$DIMCEN
 40
0.09
  9
$DIMTSZ
 40
0.0
  9
$DIMTOL
 70
     0
  9
$DIMLIM
 70
     0
  9
$DIMTIH
 70
     0
  9
$DIMTOH
 70
     0
  9
$DIMSE1
 70
     0
  9
$DIMSE2
 70
     0
  9
$DIMTAD
 70
     1
  9
$DIMZIN
 70
     8
  9
$DIMBLK
  1

  9
$DIMASO
 70
     1
  9
$DIMSHO
 70
     1
  9
$DIMPOST
  1

  9
$DIMAPOST
  1

  9
$DIMALT
 70
     0
  9
$DIMALTD
 70
     2
  9
$DIMALTF
 40
25.4
  9
$DIMLFAC
 40
1.0
  9
$DIMTOFL
 70
     0
  9
$DIMTVP
 40
0.0
  9
$DIMTIX
 70
     0
  9
$DIMSOXD
 70
     0
  9
$DIMSAH
 70
     0
  9
$DIMBLK1
  1

  9
$DIMBLK2
  1

  9
$DIMSTYLE
  2
\M+18352\M+18373\M+1815B - ISO-25
  9
$DIMCLRD
 70
   256
  9
$DIMCLRE
 70
   256
  9
$DIMCLRT
 70
   256
  9
$DIMTFAC
 40
1.0
  9
$DIMGAP
 40
2.299999999999998
  9
$DIMJUST
 70
     0
  9
$DIMSD1
 70
     0
  9
$DIMSD2
 70
     0
  9
$DIMTOLJ
 70
     1
  9
$DIMTZIN
 70
     8
  9
$DIMALTZ
 70
     0
  9
$DIMALTTZ
 70
     0
  9
$DIMUPT
 70
     0
  9
$DIMDEC
 70
     2
  9
$DIMTDEC
 70
     2
  9
$DIMALTU
 70
     2
  9
$DIMALTTD
 70
     2
  9
$DIMTXSTY
  7
simplex
  9
$DIMAUNIT
 70
     0
  9
$DIMADEC
 70
     0
  9
$DIMALTRND
 40
0.0
  9
$DIMAZIN
 70
     0
  9
$DIMDSEP
 70
    46
  9
$DIMATFIT
 70
     3
  9
$DIMFRAC
 70
     0
  9
$DIMLDRBLK
  1

  9
$DIMLUNIT
 70
     2
  9
$DIMLWD
 70
    -1
  9
$DIMLWE
 70
    -1
  9
$DIMTMOVE
 70
     0
  9
$LUNITS
 70
     2
  9
$LUPREC
 70
     4
  9
$SKETCHINC
 40
1.0
  9
$FILLETRAD
 40
1.5
  9
$AUNITS
 70
     0
  9
$AUPREC
 70
     0
  9
$MENU
  1
.
  9
$ELEVATION
 40
0.0
  9
$PELEVATION
 40
0.0
  9
$THICKNESS
 40
0.0
  9
$LIMCHECK
 70
     0
  9
$CHAMFERA
 40
10.0
  9
$CHAMFERB
 40
10.0
  9
$CHAMFERC
 40
20.0
  9
$CHAMFERD
 40
0.0
  9
$SKPOLY
 70
     0
  9
$TDCREATE
 40
2455489.391063368
  9
$TDUCREATE
 40
2455489.057730035
  9
$TDUPDATE
 40
2458416.649214213
  9
$TDUUPDATE
 40
2458416.315880880
  9
$TDINDWG
 40
2.0100205556
  9
$TDUSRTIMER
 40
2.0099688426
  9
$USRTIMER
 70
     1
  9
$ANGBASE
 50
0.0
  9
$ANGDIR
 70
     0
  9
$PDMODE
 70
     0
  9
$PDSIZE
 40
0.0
  9
$PLINEWID
 40
0.0
  9
$SPLFRAME
 70
     0
  9
$SPLINETYPE
 70
     6
  9
$SPLINESEGS
 70
     8
  9
$HANDSEED
  5
60C8F
  9
$SURFTAB1
 70
     6
  9
$SURFTAB2
 70
     6
  9
$SURFTYPE
 70
     6
  9
$SURFU
 70
     6
  9
$SURFV
 70
     6
  9
$UCSBASE
  2

  9
$UCSNAME
  2

  9
$UCSORG
 10
0.0
 20
0.0
 30
0.0
  9
$UCSXDIR
 10
1.0
 20
0.0
 30
0.0
  9
$UCSYDIR
 10
0.0
 20
1.0
 30
0.0
  9
$UCSORTHOREF
  2

  9
$UCSORTHOVIEW
 70
     0
  9
$UCSORGTOP
 10
0.0
 20
0.0
 30
0.0
  9
$UCSORGBOTTOM
 10
0.0
 20
0.0
 30
0.0
  9
$UCSORGLEFT
 10
0.0
 20
0.0
 30
0.0
  9
$UCSORGRIGHT
 10
0.0
 20
0.0
 30
0.0
  9
$UCSORGFRONT
 10
0.0
 20
0.0
 30
0.0
  9
$UCSORGBACK
 10
0.0
 20
0.0
 30
0.0
  9
$PUCSBASE
  2

  9
$PUCSNAME
  2

  9
$PUCSORG
 10
0.0
 20
0.0
 30
0.0
  9
$PUCSXDIR
 10
1.0
 20
0.0
 30
0.0
  9
$PUCSYDIR
 10
0.0
 20
1.0
 30
0.0
  9
$PUCSORTHOREF
  2

  9
$PUCSORTHOVIEW
 70
     0
  9
$PUCSORGTOP
 10
0.0
 20
0.0
 30
0.0
  9
$PUCSORGBOTTOM
 10
0.0
 20
0.0
 30
0.0
  9
$PUCSORGLEFT
 10
0.0
 20
0.0
 30
0.0
  9
$PUCSORGRIGHT
 10
0.0
 20
0.0
 30
0.0
  9
$PUCSORGFRONT
 10
0.0
 20
0.0
 30
0.0
  9
$PUCSORGBACK
 10
0.0
 20
0.0
 30
0.0
  9
$USERI1
 70
     0
  9
$USERI2
 70
     0
  9
$USERI3
 70
     0
  9
$USERI4
 70
     0
  9
$USERI5
 70
     0
  9
$USERR1
 40
0.0
  9
$USERR2
 40
0.0
  9
$USERR3
 40
0.0
  9
$USERR4
 40
0.0
  9
$USERR5
 40
0.0
  9
$WORLDVIEW
 70
     1
  9
$SHADEDGE
 70
     3
  9
$SHADEDIF
 70
    70
  9
$TILEMODE
 70
     1
  9
$MAXACTVP
 70
    64
  9
$PINSBASE
 10
0.0
 20
0.0
 30
0.0
  9
$PLIMCHECK
 70
     0
  9
$PEXTMIN
 10
26.66999878883364
 20
20.31999878883365
 30
0.0
  9
$PEXTMAX
 10
240.0299890995025
 20
182.8799890995025
 30
0.0
  9
$PLIMMIN
 10
-6.350006103515625
 20
-6.349999904632567
  9
$PLIMMAX
 10
273.0499877929688
 20
209.5499939918518
  9
$UNITMODE
 70
     0
  9
$VISRETAIN
 70
     1
  9
$PLINEGEN
 70
     0
  9
$PSLTSCALE
 70
     1
  9
$TREEDEPTH
 70
  3020
  9
$CMLSTYLE
  2
Standard
  9
$CMLJUST
 70
     0
  9
$CMLSCALE
 40
20.0
  9
$PROXYGRAPHICS
 70
     1
  9
$MEASUREMENT
 70
     1
  9
$CELWEIGHT
370
    -1
  9
$ENDCAPS
280
     0
  9
$JOINSTYLE
280
     0
  9
$LWDISPLAY
290
     0
  9
$INSUNITS
 70
     4
  9
$HYPERLINKBASE
  1

  9
$STYLESHEET
  1

  9
$XEDIT
290
     1
  9
$CEPSNTYPE
380
     0
  9
$PSTYLEMODE
290
     1
  9
$FINGERPRINTGUID
  2
{601DDA01-5B13-4A4C-8F56-1333B78D855B}
  9
$VERSIONGUID
  2
{76E62FEB-CE96-4CDC-A52A-E76902F58848}
  9
$EXTNAMES
290
     1
  9
$PSVPSCALE
 40
0.0
  9
$OLESTARTUP
290
     0
  0
ENDSEC
  0
SECTION
  2
CLASSES
  0
CLASS
  1
ACDBDICTIONARYWDFLT
  2
AcDbDictionaryWithDefault
  3
ObjectDBX Classes
 90
        0
280
     0
281
     0
  0
CLASS
  1
ACDBPLACEHOLDER
  2
AcDbPlaceHolder
  3
ObjectDBX Classes
 90
        0
280
     0
281
     0
  0
CLASS
  1
LAYOUT
  2
AcDbLayout
  3
ObjectDBX Classes
 90
        0
280
     0
281
     0
  0
CLASS
  1
DICTIONARYVAR
  2
AcDbDictionaryVar
  3
ObjectDBX Classes
 90
        0
280
     0
281
     0
  0
CLASS
  1
TABLESTYLE
  2
AcDbTableStyle
  3
ObjectDBX Classes
 90
     2047
280
     0
281
     0
  0
CLASS
  1
SORTENTSTABLE
  2
AcDbSortentsTable
  3
ObjectDBX Classes
 90
        0
280
     0
281
     0
  0
CLASS
  1
DIMASSOC
  2
AcDbDimAssoc
  3
"AcDbDimAssoc|Product Desc:     AcDim ARX App For Dimension|Company:          Autodesk, Inc.|WEB Address:      www.autodesk.com"
 90
        0
280
     0
281
     0
  0
CLASS
  1
ACAD_EVALUATION_GRAPH
  2
AcDbEvalGraph
  3
ObjectDBX Classes
 90
    33921
280
     0
281
     0
  0
CLASS
  1
ACAECUSTOBJ
  2
AcAeEditorObj
  3
AcAeEditorObj
 90
    33792
280
     0
281
     0
  0
CLASS
  1
ACDB_DYNAMICBLOCKPURGEPREVENTER_VERSION
  2
AcDbDynamicBlockPurgePreventer
  3
ObjectDBX Classes
 90
    33921
280
     0
281
     0
  0
ENDSEC
  0
SECTION
  2
TABLES
  0
TABLE
  2
VPORT
  5
8
330
0
100
AcDbSymbolTable
 70
    29
  0
VPORT
  5
60C80
330
8
100
AcDbSymbolTableRecord
100
AcDbViewportTableRecord
  2
*Active
 70
     0
 10
0.0
 20
0.0
 11
1.0
 21
1.0
 12
23.69703529742478
 22
5.110256011295604
 13
0.0
 23
0.0
 14
10.0
 24
10.0
 15
10.0
 25
10.0
 16
0.0
 26
0.0
 36
1.0
 17
0.0
 27
0.0
 37
0.0
 40
337.3765943158706
 41
1.381443298969072
 42
50.0
 43
0.0
 44
0.0
 50
0.0
 51
0.0
 71
     0
 72
  1000
 73
     1
 74
     1
 75
     0
 76
     0
 77
     0
 78
     0
281
     0
 65
     1
110
0.0
120
0.0
130
0.0
111
1.0
121
0.0
131
0.0
112
0.0
122
1.0
132
0.0
 79
     0
146
0.0
  0
ENDTAB
  0
TABLE
  2
LTYPE
  5
5
330
0
100
AcDbSymbolTable
 70
     4
  0
LTYPE
  5
14
330
5
100
AcDbSymbolTableRecord
100
AcDbLinetypeTableRecord
  2
ByBlock
 70
     0
  3

 72
    65
 73
     0
 40
0.0
  0
LTYPE
  5
15
330
5
100
AcDbSymbolTableRecord
100
AcDbLinetypeTableRecord
  2
ByLayer
 70
     0
  3

 72
    65
 73
     0
 40
0.0
  0
LTYPE
  5
16
330
5
100
AcDbSymbolTableRecord
100
AcDbLinetypeTableRecord
  2
Continuous
 70
     0
  3
Solid line
 72
    65
 73
     0
 40
0.0
  0
LTYPE
  5
D7
330
5
100
AcDbSymbolTableRecord
100
AcDbLinetypeTableRecord
  2
HIDDEN
 70
     0
  3
Hidden __ __ __ __ __ __ __ __ __ __ __ __ __ _
 72
    65
 73
     2
 40
9.524999999999996
 49
6.349999999999997
 74
     0
 49
-3.174999999999998
 74
     0
  0
LTYPE
  5
D9
330
5
100
AcDbSymbolTableRecord
100
AcDbLinetypeTableRecord
  2
CENTER
 70
     0
  3
Center ____ _ ____ _ ____ _ ____ _ ____ _ ____
 72
    65
 73
     4
 40
50.8
 49
31.75
 74
     0
 49
-6.349999999999997
 74
     0
 49
6.349999999999997
 74
     0
 49
-6.349999999999997
 74
     0
  0
LTYPE
  5
35815
330
5
100
AcDbSymbolTableRecord
100
AcDbLinetypeTableRecord
  2
PHANTOM
 70
     0
  3
_____ _ _ _____ _ _ _____ _ _ _____
 72
    65
 73
     6
 40
0.8
 49
0.45
 74
     0
 49
-0.05
 74
     0
 49
0.1
 74
     0
 49
-0.05
 74
     0
 49
0.1
 74
     0
 49
-0.05
 74
     0
  0
ENDTAB
  0
TABLE
  2
LAYER
  5
2
102
{ACAD_XDICTIONARY
360
E2
102
}
330
0
100
AcDbSymbolTable
 70
    37
  0
LAYER
  5
10
330
2
100
AcDbSymbolTableRecord
100
AcDbLayerTableRecord
  2
0
 70
     0
 62
     7
  6
Continuous
370
    -3
390
F
  0
LAYER
  5
D1
330
2
100
AcDbSymbolTableRecord
100
AcDbLayerTableRecord
  2
1
 70
     0
 62
     4
  6
Continuous
370
    50
390
F
1001
AcAecLayerStandard
1000

1000

  0
LAYER
  5
D3
330
2
100
AcDbSymbolTableRecord
100
AcDbLayerTableRecord
  2
2
 70
     0
 62
     7
  6
Continuous
370
    25
390
F
1001
AcAecLayerStandard
1000

1000

  0
LAYER
  5
D4
330
2
100
AcDbSymbolTableRecord
100
AcDbLayerTableRecord
  2
3
 70
     0
 62
     1
  6
HIDDEN
370
    35
390
F
1001
AcAecLayerStandard
1000

1000

  0
LAYER
  5
D8
330
2
100
AcDbSymbolTableRecord
100
AcDbLayerTableRecord
  2
4
 70
     0
 62
     2
  6
CENTER
370
    25
390
F
1001
AcAecLayerStandard
1000

1000

  0
LAYER
  5
DA
330
2
100
AcDbSymbolTableRecord
100
AcDbLayerTableRecord
  2
6
 70
     0
 62
     5
  6
Continuous
370
    35
390
F
1001
AcAecLayerStandard
1000

1000

  0
LAYER
  5
DB
330
2
100
AcDbSymbolTableRecord
100
AcDbLayerTableRecord
  2
cut
 70
     0
 62
     1
  6
Continuous
370
    25
390
F
1001
AcAecLayerStandard
1000

1000

  0
LAYER
  5
DC
330
2
100
AcDbSymbolTableRecord
100
AcDbLayerTableRecord
  2
nocut
 70
     0
 62
     7
  6
Continuous
370
    25
390
F
1001
AcAecLayerStandard
1000

1000

  0
LAYER
  5
DD
330
2
100
AcDbSymbolTableRecord
100
AcDbLayerTableRecord
  2
sk1
 70
     0
 62
     4
  6
Continuous
370
    50
390
F
1001
AcAecLayerStandard
1000

1000

  0
LAYER
  5
DE
330
2
100
AcDbSymbolTableRecord
100
AcDbLayerTableRecord
  2
sk2
 70
     0
 62
     7
  6
Continuous
370
    25
390
F
1001
AcAecLayerStandard
1000

1000

  0
LAYER
  5
DF
330
2
100
AcDbSymbolTableRecord
100
AcDbLayerTableRecord
  2
sk3
 70
     0
 62
     1
  6
HIDDEN
370
    35
390
F
1001
AcAecLayerStandard
1000

1000

  0
LAYER
  5
E0
330
2
100
AcDbSymbolTableRecord
100
AcDbLayerTableRecord
  2
sk4
 70
     0
 62
     2
  6
CENTER
370
    25
390
F
1001
AcAecLayerStandard
1000

1000

  0
LAYER
  5
E1
330
2
100
AcDbSymbolTableRecord
100
AcDbLayerTableRecord
  2
sk6
 70
     0
 62
     5
  6
Continuous
370
    35
390
F
1001
AcAecLayerStandard
1000

1000

  0
LAYER
  5
31B6
330
2
100
AcDbSymbolTableRecord
100
AcDbLayerTableRecord
  2
Defpoints
 70
     0
 62
     7
  6
Continuous
290
     0
370
    -3
390
F
  0
ENDTAB
  0
TABLE
  2
STYLE
  5
3
330
0
100
AcDbSymbolTable
 70
    11
  0
STYLE
  5
11
330
3
100
AcDbSymbolTableRecord
100
AcDbTextStyleTableRecord
  2
Standard
 70
     0
 40
0.0
 41
1.0
 50
0.0
 71
     0
 42
2.5
  3
txt.shx
  4
@extfont2.shx
  0
STYLE
  5
D6
330
3
100
AcDbSymbolTableRecord
100
AcDbTextStyleTableRecord
  2

 70
     1
 40
0.0
 41
1.0
 50
0.0
 71
     0
 42
2.5
  3
ltypeshp.shx
  4

  0
STYLE
  5
24A
330
3
100
AcDbSymbolTableRecord
100
AcDbTextStyleTableRecord
  2
simplex
 70
     0
 40
3.5
 41
1.0
 50
0.0
 71
     0
 42
3.5
  3
txt.shx
  4

  0
STYLE
  5
69E
330
3
100
AcDbSymbolTableRecord
100
AcDbTextStyleTableRecord
  2
MX_NOTE_STANDARD
 70
     0
 40
0.0
 41
1.0
 50
0.0
 71
     0
 42
4.2
  3
txt.shx
  4
extfont.shx
  0
STYLE
  5
3524
330
3
100
AcDbSymbolTableRecord
100
AcDbTextStyleTableRecord
  2
TEXTSTYLE_2
 70
     0
 40
0.0
 41
0.775
 50
0.0
 71
     0
 42
0.2
  3
gdt
  4

  0
STYLE
  5
3525
330
3
100
AcDbSymbolTableRecord
100
AcDbTextStyleTableRecord
  2
TEXTSTYLE_3
 70
     0
 40
0.0
 41
0.75
 50
0.0
 71
     0
 42
0.2
  3
txt
  4

  0
STYLE
  5
3526
330
3
100
AcDbSymbolTableRecord
100
AcDbTextStyleTableRecord
  2
TEXTSTYLE_13
 70
     0
 40
0.0
 41
1.0
 50
0.0
 71
     0
 42
0.2
  3
txt
  4

  0
STYLE
  5
519A
330
3
100
AcDbSymbolTableRecord
100
AcDbTextStyleTableRecord
  2
TEXTSTYLE_14
 70
     0
 40
0.0
 41
1.0
 50
0.0
 71
     0
 42
0.2
  3
txt
  4

  0
STYLE
  5
6F72
330
3
100
AcDbSymbolTableRecord
100
AcDbTextStyleTableRecord
  2
TEXTSTYLE_4
 70
     0
 40
0.0
 41
0.75
 50
0.0
 71
     0
 42
0.2
  3
txt
  4

  0
STYLE
  5
6F73
330
3
100
AcDbSymbolTableRecord
100
AcDbTextStyleTableRecord
  2
TEXTSTYLE_17
 70
     0
 40
0.0
 41
1.0
 50
0.0
 71
     0
 42
0.2
  3
txt
  4

  0
STYLE
  5
FE12
330
3
100
AcDbSymbolTableRecord
100
AcDbTextStyleTableRecord
  2
TEXTSTYLE_12
 70
     0
 40
0.0
 41
1.0
 50
0.0
 71
     0
 42
0.2
  3
txt
  4

  0
ENDTAB
  0
TABLE
  2
VIEW
  5
6
330
0
100
AcDbSymbolTable
 70
     0
  0
ENDTAB
  0
TABLE
  2
UCS
  5
7
330
0
100
AcDbSymbolTable
 70
     0
  0
ENDTAB
  0
TABLE
  2
APPID
  5
9
330
0
100
AcDbSymbolTable
 70
    11
  0
APPID
  5
12
330
9
100
AcDbSymbolTableRecord
100
AcDbRegAppTableRecord
  2
ACAD
 70
     0
  0
APPID
  5
D2
330
9
100
AcDbSymbolTableRecord
100
AcDbRegAppTableRecord
  2
AcAecLayerStandard
 70
     0
  0
APPID
  5
E6
330
9
100
AcDbSymbolTableRecord
100
AcDbRegAppTableRecord
  2
ACAD_DSTYLE_DIMTEXT_FILL
 70
     0
  0
APPID
  5
4C84
330
9
100
AcDbSymbolTableRecord
100
AcDbRegAppTableRecord
  2
ACAD_EXEMPT_FROM_CAD_STANDARDS
 70
     0
  0
APPID
  5
3493E
330
9
100
AcDbSymbolTableRecord
100
AcDbRegAppTableRecord
  2
DCO15
 70
     0
  0
APPID
  5
4366A
330
9
100
AcDbSymbolTableRecord
100
AcDbRegAppTableRecord
  2
ACAUTHENVIRON
 70
     0
  0
APPID
  5
4366D
330
9
100
AcDbSymbolTableRecord
100
AcDbRegAppTableRecord
  2
AcDbDynamicBlockTrueName
 70
     0
  0
APPID
  5
4366E
330
9
100
AcDbSymbolTableRecord
100
AcDbRegAppTableRecord
  2
AcDbDynamicBlockGUID
 70
     0
  0
APPID
  5
43670
330
9
100
AcDbSymbolTableRecord
100
AcDbRegAppTableRecord
  2
AcDbBlockRepETag
 70
     0
  0
APPID
  5
45C9F
330
9
100
AcDbSymbolTableRecord
100
AcDbRegAppTableRecord
  2
ACAD_DSTYLE_DIMEXT_ENABLED
 70
     0
  0
APPID
  5
45CA0
330
9
100
AcDbSymbolTableRecord
100
AcDbRegAppTableRecord
  2
ACAD_DSTYLE_DIMEXT_LENGTH
 70
     0
  0
ENDTAB
  0
TABLE
  2
DIMSTYLE
  5
A
330
0
100
AcDbSymbolTable
 70
    10
100
AcDbDimStyleTable
 71
     2
340
1BF
340
27
  0
DIMSTYLE
105
27
330
A
100
AcDbSymbolTableRecord
100
AcDbDimStyleTableRecord
  2
ISO-25
 70
     0
 41
2.5
 42
0.625
 43
3.75
 44
1.25
 73
     0
 74
     0
 77
     1
 78
     8
140
2.5
141
2.5
143
0.03937007874016
147
0.625
171
     3
172
     1
271
     2
272
     2
274
     3
278
    44
283
     0
284
     8
340
11
  0
DIMSTYLE
105
1BF
102
{ACAD_REACTORS
330
6099E
330
60984
330
6096A
330
60950
330
60920
330
60908
330
60938
330
608F0
330
608D8
330
609B7
102
}
330
A
100
AcDbSymbolTableRecord
100
AcDbDimStyleTableRecord
  2
\M+18352\M+18373\M+1815B - ISO-25
 70
     0
 40
0.0
 41
3.5
 42
0.0
 44
1.5
 73
     0
 74
     0
 77
     1
 78
     8
140
3.5
147
2.299999999999998
176
   256
177
   256
178
   256
271
     2
272
     2
284
     8
340
24A
371
    -1
372
    -1
  0
DIMSTYLE
105
69F
330
A
100
AcDbSymbolTableRecord
100
AcDbDimStyleTableRecord
  2
MXDIMSTYLE
 70
     0
 41
2.5
 42
0.5
 43
3.75
 44
1.5
 73
     0
 74
     0
 77
     1
 78
     8
140
4.2
141
2.5
143
0.03937
147
1.0
171
     4
172
     1
173
     1
271
     2
272
     2
274
     4
283
     0
288
     1
340
69E
341
697
343
697
344
697
  0
DIMSTYLE
105
3527
330
A
100
AcDbSymbolTableRecord
100
AcDbDimStyleTableRecord
  2
STANDARD
 70
     0
 41
3.0
 47
0.001
 48
0.001
 71
     1
 73
     0
 74
     0
 77
     1
 78
     8
140
4.0
271
     3
272
     3
284
     8
340
11
341
34B1
342
34B1
343
34B1
344
34B1
  0
DIMSTYLE
105
3528
330
A
100
AcDbSymbolTableRecord
100
AcDbDimStyleTableRecord
  2
DIMSTYLE_1
 70
     0
 41
3.0
 73
     0
 74
     0
 77
     1
 78
     8
140
4.0
271
     3
272
     3
284
     8
340
11
341
34B1
342
34B1
343
34B1
344
34B1
  0
DIMSTYLE
105
3529
330
A
100
AcDbSymbolTableRecord
100
AcDbDimStyleTableRecord
  2
DIMSTYLE_2
 70
     0
 41
3.0
 47
0.001
 48
0.001
 73
     0
 74
     0
 77
     1
 78
     8
140
4.0
271
     3
272
     3
284
     8
340
11
341
34B1
342
34B1
343
34B1
344
34B1
  0
DIMSTYLE
105
352A
330
A
100
AcDbSymbolTableRecord
100
AcDbDimStyleTableRecord
  2
DIMSTYLE_3
 70
     0
 41
3.0
 47
-0.1
 48
0.3
 71
     1
 73
     0
 74
     0
 77
     1
 78
     8
140
4.0
146
0.5
271
     3
272
     3
284
     8
340
11
341
34B1
342
34B1
343
34B1
344
34B1
  0
DIMSTYLE
105
352B
330
A
100
AcDbSymbolTableRecord
100
AcDbDimStyleTableRecord
  2
DIMSTYLE_4
 70
     0
 41
3.0
 47
0.1
 48
0.1
 71
     1
 73
     0
 74
     0
 77
     1
 78
     8
140
4.0
271
     3
272
     3
284
     8
340
11
341
34B1
342
34B1
343
34B1
344
34B1
  0
DIMSTYLE
105
27245
330
A
100
AcDbSymbolTableRecord
100
AcDbDimStyleTableRecord
  2
DIMSTYLE_5
 70
     0
 41
3.0
 47
0.001
 48
0.001
 73
     0
 74
     0
 77
     1
 78
     8
140
4.0
271
     3
272
     3
284
     8
340
11
341
34B1
342
34B1
343
34B1
344
34B1
  0
DIMSTYLE
105
4771C
330
A
100
AcDbSymbolTableRecord
100
AcDbDimStyleTableRecord
  2
\M+18352\M+18373\M+1815B_-_ISO-25
 70
     0
 40
0.0
 41
3.5
 42
0.0
 44
1.5
 73
     0
 74
     0
 77
     1
 78
     8
140
3.5
147
2.299999999999998
176
   256
177
   256
178
   256
279
     2
284
     8
285
     8
286
     8
340
24A
  0
ENDTAB
  0
TABLE
  2
BLOCK_RECORD
  5
1
330
0
100
AcDbSymbolTable
 70
    94
  0
BLOCK_RECORD
  5
1F
102
{ACAD_XDICTIONARY
360
31EE
102
}
330
1
100
AcDbSymbolTableRecord
100
AcDbBlockTableRecord
  2
*Model_Space
340
22
  0
BLOCK_RECORD
  5
50
330
1
100
AcDbSymbolTableRecord
100
AcDbBlockTableRecord
  2
*Paper_Space
340
51
  0
BLOCK_RECORD
  5
55
330
1
100
AcDbSymbolTableRecord
100
AcDbBlockTableRecord
  2
*Paper_Space0
340
56
  0
BLOCK_RECORD
  5
680
102
{ACAD_XDICTIONARY
360
43668
102
}
330
1
100
AcDbSymbolTableRecord
100
AcDbBlockTableRecord
  2
zero block
340
0
102
{BLKREFS
331
68C
102
}
1001
ACAD
1000
DesignCenter Data
1002
{
1070
     1
1070
     4
1002
}
1001
AcDbDynamicBlockGUID
1000
{A89DF4EB-B2CB-439E-AC69-1EAC9F242D1C}
1001
AcDbBlockRepETag
1070
     1
1071
        7
  0
BLOCK_RECORD
  5
697
330
1
100
AcDbSymbolTableRecord
100
AcDbBlockTableRecord
  2
_OPEN30
340
0
  0
BLOCK_RECORD
  5
32F1
330
1
100
AcDbSymbolTableRecord
100
AcDbBlockTableRecord
  2
_None
340
0
102
{BLKREFS
331
5CE0B
331
5F1BF
102
}
  0
BLOCK_RECORD
  5
34B1
330
1
100
AcDbSymbolTableRecord
100
AcDbBlockTableRecord
  2
_OPEN
340
0
102
{BLKREFS
331
5CDDE
331
5CDDF
331
5CDE8
331
5CDE9
331
5CDF2
331
5CDF3
331
5CDFC
331
5CDFD
331
5CE03
331
5CE0C
331
5EDB1
331
5EDB8
331
5EDC0
331
5EDC1
331
5EDC9
331
5EDCA
331
5EDD2
331
5EDD3
331
5EDDB
331
5EDDC
331
5F1B0
331
5F1B1
331
5F1B7
331
5F1C0
331
5F192
331
5F193
331
5F19C
331
5F19D
331
5F1A6
331
5F1A7
331
5F61C
331
5F61D
331
5F625
331
5F626
331
5F62E
331
5F62F
331
5F637
331
5F638
331
5F64F
331
5F657
102
}
  0
BLOCK_RECORD
  5
45B07
330
1
100
AcDbSymbolTableRecord
100
AcDbBlockTableRecord
  2
*D7
340
0
  0
BLOCK_RECORD
  5
45B1F
330
1
100
AcDbSymbolTableRecord
100
AcDbBlockTableRecord
  2
*D8
340
0
  0
BLOCK_RECORD
  5
608D9
330
1
100
AcDbSymbolTableRecord
100
AcDbBlockTableRecord
  2
*D84
340
0
  0
BLOCK_RECORD
  5
608F1
330
1
100
AcDbSymbolTableRecord
100
AcDbBlockTableRecord
  2
*D85
340
0
  0
BLOCK_RECORD
  5
60909
330
1
100
AcDbSymbolTableRecord
100
AcDbBlockTableRecord
  2
*D86
340
0
  0
BLOCK_RECORD
  5
60921
330
1
100
AcDbSymbolTableRecord
100
AcDbBlockTableRecord
  2
*D87
340
0
  0
BLOCK_RECORD
  5
60939
330
1
100
AcDbSymbolTableRecord
100
AcDbBlockTableRecord
  2
*D88
340
0
  0
BLOCK_RECORD
  5
60951
330
1
100
AcDbSymbolTableRecord
100
AcDbBlockTableRecord
  2
*D89
340
0
  0
BLOCK_RECORD
  5
6096B
330
1
100
AcDbSymbolTableRecord
100
AcDbBlockTableRecord
  2
*D90
340
0
  0
BLOCK_RECORD
  5
60985
330
1
100
AcDbSymbolTableRecord
100
AcDbBlockTableRecord
  2
*D91
340
0
  0
BLOCK_RECORD
  5
6099F
330
1
100
AcDbSymbolTableRecord
100
AcDbBlockTableRecord
  2
*D92
340
0
  0
BLOCK_RECORD
  5
609B8
330
1
100
AcDbSymbolTableRecord
100
AcDbBlockTableRecord
  2
*D93
340
0
  0
ENDTAB
  0
ENDSEC
  0
SECTION
  2
BLOCKS
  0
BLOCK
  5
20
330
1F
100
AcDbEntity
  8
0
100
AcDbBlockBegin
  2
*Model_Space
 70
     0
 10
0.0
 20
0.0
 30
0.0
  3
*Model_Space
  1

  0
ENDBLK
  5
21
330
1F
100
AcDbEntity
  8
0
100
AcDbBlockEnd
  0
BLOCK
  5
52
330
50
100
AcDbEntity
 67
     1
  8
0
100
AcDbBlockBegin
  2
*Paper_Space
 70
     0
 10
0.0
 20
0.0
 30
0.0
  3
*Paper_Space
  1

  0
ENDBLK
  5
53
330
50
100
AcDbEntity
 67
     1
  8
0
100
AcDbBlockEnd
  0
BLOCK
  5
57
330
55
100
AcDbEntity
 67
     1
  8
0
100
AcDbBlockBegin
  2
*Paper_Space0
 70
     0
 10
0.0
 20
0.0
 30
0.0
  3
*Paper_Space0
  1

  0
VIEWPORT
  5
71
102
{ACAD_XDICTIONARY
360
60C8B
102
}
330
55
100
AcDbEntity
 67
     1
  8
0
100
AcDbViewport
 10
150.1652135264906
 20
101.599997546291
 30
0.0
 40
339.1973820494347
 41
164.5360435314421
 68
     0
 69
     0
 12
150.1652135264906
 22
101.599997546291
 13
0.0
 23
0.0
 14
10.0
 24
10.0
 15
10.0
 25
10.0
 16
0.0
 26
0.0
 36
1.0
 17
0.0
 27
0.0
 37
0.0
 42
50.0
 43
0.0
 44
0.0
 45
164.5360435314421
 50
0.0
 51
0.0
 72
  1000
 90
    32864
  1

281
     0
 71
     1
 74
     0
110
0.0
120
0.0
130
0.0
111
1.0
121
0.0
131
0.0
112
0.0
122
1.0
132
0.0
 79
     0
146
0.0
  0
VIEWPORT
  5
73
102
{ACAD_XDICTIONARY
360
60C8D
102
}
330
55
100
AcDbEntity
 67
     1
  8
0
100
AcDbViewport
 10
133.3499939441681
 20
101.5999939441681
 30
0.0
 40
213.3599903106689
 41
162.5599903106689
 68
     0
 69
     0
 12
210.0
 22
148.5
 13
0.0
 23
0.0
 14
10.0
 24
10.0
 15
10.0
 25
10.0
 16
0.0
 26
0.0
 36
1.0
 17
0.0
 27
0.0
 37
0.0
 42
50.0
 43
0.0
 44
0.0
 45
324.0677920111345
 50
0.0
 51
0.0
 72
   100
 90
    32864
  1

281
     0
 71
     1
 74
     0
110
0.0
120
0.0
130
0.0
111
1.0
121
0.0
131
0.0
112
0.0
122
1.0
132
0.0
 79
     0
146
0.0
  0
ENDBLK
  5
58
330
55
100
AcDbEntity
 67
     1
  8
0
100
AcDbBlockEnd
  0
BLOCK
  5
68A
330
680
100
AcDbEntity
  8
0
100
AcDbBlockBegin
  2
zero block
 70
     0
 10
0.0
 20
0.0
 30
0.0
  3
zero block
  1

  0
HATCH
  5
43661
330
680
100
AcDbEntity
  8
0
 62
     7
100
AcDbHatch
 10
0.0
 20
0.0
 30
0.0
210
0.0
220
0.0
230
1.0
  2
SOLID
 70
     1
 71
     0
 91
        2
 92
        7
 72
     1
 73
     1
 93
        3
 10
0.0
 20
0.9999999999999875
 42
0.4142135623730915
 10
-1.0
 20
0.0
 42
0.0
 10
0.0
 20
0.0
 42
0.0
 97
        0
 92
        7
 72
     1
 73
     1
 93
        3
 10
1.000000000000007
 20
0.0
 42
0.0
 10
0.0
 20
0.0
 42
0.0
 10
0.0
 20
-1.0
 42
0.4142135623730974
 97
        0
 75
     0
 76
     1
 47
0.0090601366782909
 98
        2
 10
-0.380591363650975
 20
0.4885804701532896
 10
0.4350764810977559
 20
-0.4536738423704725
1001
AcDbBlockRepETag
1070
     1
1071
        0
1005
43661
  0
LINE
  5
43662
330
680
100
AcDbEntity
  8
0
 62
     7
 48
0.2
100
AcDbLine
 10
-1.0
 20
0.0
 30
0.0
 11
1.000000000000007
 21
0.0
 31
0.0
1001
AcDbBlockRepETag
1070
     1
1071
        1
1005
43662
  0
LINE
  5
43663
330
680
100
AcDbEntity
  8
0
 62
     7
 48
0.2
100
AcDbLine
 10
0.0
 20
-1.0
 30
0.0
 11
0.0
 21
0.9999999999999875
 31
0.0
1001
AcDbBlockRepETag
1070
     1
1071
        2
1005
43663
  0
ARC
  5
43664
330
680
100
AcDbEntity
  8
0
 62
     7
 48
0.2
100
AcDbCircle
 10
0.0
 20
0.0
 30
0.0
 40
1.0
100
AcDbArc
 50
270.0
 51
0.0
1001
AcDbBlockRepETag
1070
     1
1071
        3
1005
43664
  0
ARC
  5
43665
330
680
100
AcDbEntity
  8
0
 62
     7
 48
0.2
100
AcDbCircle
 10
0.0
 20
0.0
 30
0.0
 40
1.0
100
AcDbArc
 50
0.0
 51
90.0
1001
AcDbBlockRepETag
1070
     1
1071
        4
1005
43665
  0
ARC
  5
43666
330
680
100
AcDbEntity
  8
0
 62
     7
 48
0.2
100
AcDbCircle
 10
0.0
 20
0.0
 30
0.0
 40
1.0
100
AcDbArc
 50
180.0
 51
270.0
1001
AcDbBlockRepETag
1070
     1
1071
        5
1005
43666
  0
ARC
  5
43667
330
680
100
AcDbEntity
  8
0
 62
     7
 48
0.2
100
AcDbCircle
 10
0.0
 20
0.0
 30
0.0
 40
1.0
100
AcDbArc
 50
90.0
 51
180.0
1001
AcDbBlockRepETag
1070
     1
1071
        6
1005
43667
  0
ENDBLK
  5
68B
330
680
100
AcDbEntity
  8
0
100
AcDbBlockEnd
  0
BLOCK
  5
698
330
697
100
AcDbEntity
  8
0
  6
ByBlock
 62
     0
370
    -2
100
AcDbBlockBegin
  2
_OPEN30
 70
     2
 10
0.0
 20
0.0
 30
0.0
  3
_OPEN30
  1

  0
LINE
  5
699
330
697
100
AcDbEntity
  8
0
  6
ByBlock
 62
     0
370
    -2
100
AcDbLine
 10
-1.0
 20
0.267949
 30
0.0
 11
0.0
 21
0.0
 31
0.0
  0
LINE
  5
69A
330
697
100
AcDbEntity
  8
0
  6
ByBlock
 62
     0
370
    -2
100
AcDbLine
 10
0.0
 20
0.0
 30
0.0
 11
-1.0
 21
-0.267949
 31
0.0
  0
LINE
  5
69B
330
697
100
AcDbEntity
  8
0
  6
ByBlock
 62
     0
370
    -2
100
AcDbLine
 10
0.0
 20
0.0
 30
0.0
 11
-1.0
 21
0.0
 31
0.0
  0
ENDBLK
  5
69C
330
697
100
AcDbEntity
  8
0
  6
ByBlock
 62
     0
370
    -2
100
AcDbBlockEnd
  0
BLOCK
  5
32F2
330
32F1
100
AcDbEntity
  8
0
100
AcDbBlockBegin
  2
_None
 70
     0
 10
0.0
 20
0.0
 30
0.0
  3
_None
  1

  0
ENDBLK
  5
32F3
330
32F1
100
AcDbEntity
  8
0
100
AcDbBlockEnd
  0
BLOCK
  5
34B2
330
34B1
100
AcDbEntity
  8
0
100
AcDbBlockBegin
  2
_OPEN
 70
     0
 10
0.0
 20
0.0
 30
0.0
  3
_OPEN
  1

  0
LINE
  5
34B3
330
34B1
100
AcDbEntity
  8
0
  6
ByBlock
 62
     0
100
AcDbLine
 10
0.0
 20
0.0
 30
0.0
 11
-1.0
 21
0.1766666667
 31
0.0
  0
LINE
  5
34B4
330
34B1
100
AcDbEntity
  8
0
  6
ByBlock
 62
     0
100
AcDbLine
 10
-1.0
 20
-0.1766666667
 30
0.0
 11
0.0
 21
0.0
 31
0.0
  0
LINE
  5
34B5
330
34B1
100
AcDbEntity
  8
0
  6
ByBlock
 62
     0
100
AcDbLine
 10
-1.0
 20
0.0
 30
0.0
 11
0.0
 21
0.0
 31
0.0
  0
ENDBLK
  5
34B6
330
34B1
100
AcDbEntity
  8
0
  6
ByBlock
 62
     0
100
AcDbBlockEnd
  0
BLOCK
  5
45B11
330
45B07
100
AcDbEntity
  8
0
100
AcDbBlockBegin
  2
*D7
 70
     1
 10
0.0
 20
0.0
 30
0.0
  3
*D7
  1

  0
LINE
  5
5CCE5
330
45B07
100
AcDbEntity
  8
sk2
100
AcDbLine
 10
-0.0000000000000526
 20
-28.49999999999995
 30
0.0
 11
-0.0000000000000538
 21
-48.51991747839992
 31
0.0
  0
LINE
  5
5CCE6
330
45B07
100
AcDbEntity
  8
sk2
100
AcDbLine
 10
30.99999999999995
 20
-8.099999999999972
 30
0.0
 11
30.99999999999994
 21
-48.51991747839992
 31
0.0
  0
LINE
  5
5CCE7
330
45B07
100
AcDbEntity
  8
sk2
100
AcDbLine
 10
3.499999999999946
 20
-47.01991747839993
 30
0.0
 11
27.49999999999995
 21
-47.01991747839993
 31
0.0
  0
SOLID
  5
5CCE8
330
45B07
100
AcDbEntity
  8
sk2
100
AcDbTrace
 10
3.499999999999946
 20
-46.43658414506659
 30
0.0
 11
3.499999999999946
 21
-47.60325081173324
 31
0.0
 12
-0.0000000000000537
 22
-47.01991747839993
 32
0.0
 13
-0.0000000000000537
 23
-47.01991747839993
 33
0.0
  0
SOLID
  5
5CCE9
330
45B07
100
AcDbEntity
  8
sk2
100
AcDbTrace
 10
27.49999999999995
 20
-46.43658414506659
 30
0.0
 11
27.49999999999995
 21
-47.60325081173324
 31
0.0
 12
30.99999999999994
 22
-47.01991747839993
 32
0.0
 13
30.99999999999994
 23
-47.01991747839993
 33
0.0
  0
MTEXT
  5
5CCEA
330
45B07
100
AcDbEntity
  8
sk2
100
AcDbMText
 10
15.49999999999994
 20
-42.96991747839992
 30
0.0
 40
3.5
 41
0.0
 71
     5
 72
     1
  1
\A1;31
  7
simplex
 73
     1
 44
1.0
1001
ACAD
1000
MTEXTBEGIN
1070
    73
1070
     1
1070
    44
1040
1.0
1070
    74
1070
     0
1000
MTEXTEND
  0
POINT
  5
5CCEB
330
45B07
100
AcDbEntity
  8
Defpoints
 62
     0
100
AcDbPoint
 10
-0.0000000000000526
 20
-28.49999999999995
 30
0.0
  0
POINT
  5
5CCEC
330
45B07
100
AcDbEntity
  8
Defpoints
 62
     0
100
AcDbPoint
 10
30.99999999999995
 20
-8.099999999999972
 30
0.0
  0
POINT
  5
5CCED
330
45B07
100
AcDbEntity
  8
Defpoints
 62
     0
100
AcDbPoint
 10
30.99999999999994
 20
-47.01991747839993
 30
0.0
  0
ENDBLK
  5
45B12
330
45B07
100
AcDbEntity
  8
0
100
AcDbBlockEnd
  0
BLOCK
  5
45B29
330
45B1F
100
AcDbEntity
  8
0
100
AcDbBlockBegin
  2
*D8
 70
     1
 10
0.0
 20
0.0
 30
0.0
  3
*D8
  1

  0
LINE
  5
475A2
330
45B1F
100
AcDbEntity
  8
2
100
AcDbLine
 10
46.67862375679994
 20
31.50000000000006
 30
0.0
 11
83.68825656423609
 21
31.50000000000004
 31
0.0
  0
LINE
  5
475A3
330
45B1F
100
AcDbEntity
  8
2
100
AcDbLine
 10
82.18825656423609
 20
-31.49999999999995
 30
0.0
 11
82.18825656423609
 21
28.00000000000004
 31
0.0
  0
SOLID
  5
475A4
330
45B1F
100
AcDbEntity
  8
2
100
AcDbTrace
 10
81.60492323090277
 20
28.00000000000004
 30
0.0
 11
82.77158989756944
 21
28.00000000000004
 31
0.0
 12
82.18825656423609
 22
31.50000000000004
 32
0.0
 13
82.18825656423609
 23
31.50000000000004
 33
0.0
  0
MTEXT
  5
475A5
330
45B1F
100
AcDbEntity
  8
2
100
AcDbMText
 10
78.1382565642361
 20
-1.749999999999953
 30
0.0
 40
3.5
 41
0.0
 71
     5
 72
     1
  1
\A1;%%C63
  7
simplex
 11
0.0000000000000001
 21
1.0
 31
0.0
 73
     1
 44
1.0
1001
ACAD
1000
MTEXTBEGIN
1070
    73
1070
     1
1070
    44
1040
1.0
1070
    74
1070
     0
1000
MTEXTEND
  0
POINT
  5
475A6
330
45B1F
100
AcDbEntity
  8
Defpoints
 62
     0
100
AcDbPoint
 10
82.95119073979995
 20
-31.49999999999995
 30
0.0
  0
POINT
  5
475A7
330
45B1F
100
AcDbEntity
  8
Defpoints
 62
     0
100
AcDbPoint
 10
46.67862375679994
 20
31.50000000000006
 30
0.0
  0
POINT
  5
475A8
330
45B1F
100
AcDbEntity
  8
Defpoints
 62
     0
100
AcDbPoint
 10
82.18825656423609
 20
31.50000000000004
 30
0.0
  0
ENDBLK
  5
45B2A
330
45B1F
100
AcDbEntity
  8
0
100
AcDbBlockEnd
  0
BLOCK
  5
608E3
330
608D9
100
AcDbEntity
  8
0
100
AcDbBlockBegin
  2
*D84
 70
     1
 10
0.0
 20
0.0
 30
0.0
  3
*D84
  1

  0
LINE
  5
60C0B
330
608D9
100
AcDbEntity
  8
2
100
AcDbLine
 10
63.37032789066009
 20
30.36499999999994
 30
0.0
 11
85.10438141794569
 21
30.36499999999993
 31
0.0
  0
LINE
  5
60C0C
330
608D9
100
AcDbEntity
  8
2
100
AcDbLine
 10
83.60438141794569
 20
26.86499999999993
 30
0.0
 11
83.60438141794569
 21
-30.36500000000005
 31
0.0
  0
SOLID
  5
60C0D
330
608D9
100
AcDbEntity
  8
2
100
AcDbTrace
 10
83.02104808461235
 20
26.86499999999993
 30
0.0
 11
84.18771475127902
 21
26.86499999999993
 31
0.0
 12
83.60438141794569
 22
30.36499999999993
 32
0.0
 13
83.60438141794569
 23
30.36499999999993
 33
0.0
  0
MTEXT
  5
60C0E
330
608D9
100
AcDbEntity
  8
2
100
AcDbMText
 10
79.55438141794569
 20
-1.750000000000047
 30
0.0
 40
3.5
 41
0.0
 71
     5
 72
     1
  1
\A1;%%C60.73 [%%C2.391"]
  7
simplex
 11
0.0000000000000001
 21
1.0
 31
0.0
 73
     1
 44
1.0
1001
ACAD
1000
MTEXTBEGIN
1070
    73
1070
     1
1070
    44
1040
1.0
1070
    74
1070
     0
1000
MTEXTEND
  0
POINT
  5
60C0F
330
608D9
100
AcDbEntity
  8
Defpoints
 62
     0
100
AcDbPoint
 10
63.37032789066009
 20
30.36499999999994
 30
0.0
  0
POINT
  5
60C10
330
608D9
100
AcDbEntity
  8
Defpoints
 62
     0
100
AcDbPoint
 10
63.37032789066009
 20
-30.36500000000005
 30
0.0
  0
POINT
  5
60C11
330
608D9
100
AcDbEntity
  8
Defpoints
 62
     0
100
AcDbPoint
 10
83.60438141794569
 20
-30.36500000000005
 30
0.0
  0
ENDBLK
  5
608E4
330
608D9
100
AcDbEntity
  8
0
100
AcDbBlockEnd
  0
BLOCK
  5
608FB
330
608F1
100
AcDbEntity
  8
0
100
AcDbBlockBegin
  2
*D85
 70
     1
 10
0.0
 20
0.0
 30
0.0
  3
*D85
  1

  0
LINE
  5
60C12
330
608F1
100
AcDbEntity
  8
2
100
AcDbLine
 10
60.11389173679998
 20
38.09999999999994
 30
0.0
 11
97.06961267679032
 21
38.09999999999993
 31
0.0
  0
LINE
  5
60C13
330
608F1
100
AcDbEntity
  8
2
100
AcDbLine
 10
95.56961267679032
 20
34.59999999999993
 30
0.0
 11
95.56961267679028
 21
-38.10000000000006
 31
0.0
  0
SOLID
  5
60C14
330
608F1
100
AcDbEntity
  8
2
100
AcDbTrace
 10
94.98627934345698
 20
34.59999999999993
 30
0.0
 11
96.15294601012365
 21
34.59999999999993
 31
0.0
 12
95.56961267679032
 22
38.09999999999993
 32
0.0
 13
95.56961267679032
 23
38.09999999999993
 33
0.0
  0
MTEXT
  5
60C15
330
608F1
100
AcDbEntity
  8
2
100
AcDbMText
 10
91.5196126767903
 20
-1.750000000000047
 30
0.0
 40
3.5
 41
0.0
 71
     5
 72
     1
  1
\A1;%%C76.2 [%%C3.000"]
  7
simplex
 11
0.0000000000000001
 21
1.0
 31
0.0
 73
     1
 44
1.0
1001
ACAD
1000
MTEXTBEGIN
1070
    73
1070
     1
1070
    44
1040
1.0
1070
    74
1070
     0
1000
MTEXTEND
  0
POINT
  5
60C16
330
608F1
100
AcDbEntity
  8
Defpoints
 62
     0
100
AcDbPoint
 10
60.11389173679998
 20
38.09999999999994
 30
0.0
  0
POINT
  5
60C17
330
608F1
100
AcDbEntity
  8
Defpoints
 62
     0
100
AcDbPoint
 10
60.11389173679998
 20
-38.10000000000005
 30
0.0
  0
POINT
  5
60C18
330
608F1
100
AcDbEntity
  8
Defpoints
 62
     0
100
AcDbPoint
 10
95.56961267679028
 20
-38.10000000000006
 30
0.0
  0
ENDBLK
  5
608FC
330
608F1
100
AcDbEntity
  8
0
100
AcDbBlockEnd
  0
BLOCK
  5
60913
330
60909
100
AcDbEntity
  8
0
100
AcDbBlockBegin
  2
*D86
 70
     1
 10
0.0
 20
0.0
 30
0.0
  3
*D86
  1

  0
LINE
  5
60C19
330
60909
100
AcDbEntity
  8
sk2
100
AcDbLine
 10
6.0
 20
15.87499999999994
 30
0.0
 11
-16.97663592289015
 21
15.87499999999995
 31
0.0
  0
LINE
  5
60C1A
330
60909
100
AcDbEntity
  8
sk2
100
AcDbLine
 10
5.999999999999971
 20
-15.87500000000005
 30
0.0
 11
-16.97663592289015
 21
-15.87500000000005
 31
0.0
  0
LINE
  5
60C1B
330
60909
100
AcDbEntity
  8
sk2
100
AcDbLine
 10
-15.47663592289015
 20
12.37499999999995
 30
0.0
 11
-15.47663592289016
 21
-12.37500000000005
 31
0.0
  0
SOLID
  5
60C1C
330
60909
100
AcDbEntity
  8
sk2
100
AcDbTrace
 10
-16.05996925622348
 20
12.37499999999995
 30
0.0
 11
-14.89330258955681
 21
12.37499999999995
 31
0.0
 12
-15.47663592289015
 22
15.87499999999995
 32
0.0
 13
-15.47663592289015
 23
15.87499999999995
 33
0.0
  0
SOLID
  5
60C1D
330
60909
100
AcDbEntity
  8
sk2
100
AcDbTrace
 10
-16.05996925622349
 20
-12.37500000000005
 30
0.0
 11
-14.89330258955682
 21
-12.37500000000005
 31
0.0
 12
-15.47663592289016
 22
-15.87500000000005
 32
0.0
 13
-15.47663592289016
 23
-15.87500000000005
 33
0.0
  0
MTEXT
  5
60C1E
330
60909
100
AcDbEntity
  8
sk2
100
AcDbMText
 10
-19.52663592289015
 20
-0.0000000000000518
 30
0.0
 40
3.5
 41
0.0
 71
     5
 72
     1
  1
\A1;%%C31.75 [%%c1.250"]
  7
simplex
 11
0.0000000000000001
 21
1.0
 31
0.0
 73
     1
 44
1.0
1001
ACAD
1000
MTEXTBEGIN
1070
    73
1070
     1
1070
    44
1040
1.0
1070
    74
1070
     0
1000
MTEXTEND
  0
POINT
  5
60C1F
330
60909
100
AcDbEntity
  8
Defpoints
 62
     0
100
AcDbPoint
 10
6.0
 20
15.87499999999994
 30
0.0
  0
POINT
  5
60C20
330
60909
100
AcDbEntity
  8
Defpoints
 62
     0
100
AcDbPoint
 10
5.999999999999971
 20
-15.87500000000005
 30
0.0
  0
POINT
  5
60C21
330
60909
100
AcDbEntity
  8
Defpoints
 62
     0
100
AcDbPoint
 10
-15.47663592289016
 20
-15.87500000000005
 30
0.0
  0
ENDBLK
  5
60914
330
60909
100
AcDbEntity
  8
0
100
AcDbBlockEnd
  0
BLOCK
  5
6092B
330
60921
100
AcDbEntity
  8
0
100
AcDbBlockBegin
  2
*D87
 70
     1
 10
0.0
 20
0.0
 30
0.0
  3
*D87
  1

  0
LINE
  5
60C22
330
60921
100
AcDbEntity
  8
sk2
100
AcDbLine
 10
2.0
 20
36.51249999999993
 30
0.0
 11
-29.31909173704726
 21
36.51249999999994
 31
0.0
  0
LINE
  5
60C23
330
60921
100
AcDbEntity
  8
sk2
100
AcDbLine
 10
1.999999999999971
 20
-36.51250000000004
 30
0.0
 11
-29.31909173704728
 21
-36.51250000000004
 31
0.0
  0
LINE
  5
60C24
330
60921
100
AcDbEntity
  8
sk2
100
AcDbLine
 10
-27.81909173704726
 20
33.01249999999994
 30
0.0
 11
-27.81909173704728
 21
-33.01250000000004
 31
0.0
  0
SOLID
  5
60C25
330
60921
100
AcDbEntity
  8
sk2
100
AcDbTrace
 10
-28.40242507038059
 20
33.01249999999994
 30
0.0
 11
-27.23575840371393
 21
33.01249999999994
 31
0.0
 12
-27.81909173704726
 22
36.51249999999994
 32
0.0
 13
-27.81909173704726
 23
36.51249999999994
 33
0.0
  0
SOLID
  5
60C26
330
60921
100
AcDbEntity
  8
sk2
100
AcDbTrace
 10
-28.40242507038061
 20
-33.01250000000004
 30
0.0
 11
-27.23575840371394
 21
-33.01250000000004
 31
0.0
 12
-27.81909173704728
 22
-36.51250000000004
 32
0.0
 13
-27.81909173704728
 23
-36.51250000000004
 33
0.0
  0
MTEXT
  5
60C27
330
60921
100
AcDbEntity
  8
sk2
100
AcDbMText
 10
-31.86909173704727
 20
-0.0000000000000546
 30
0.0
 40
3.5
 41
0.0
 71
     5
 72
     1
  1
\A1;%%C73.025 [%%c2.875"]
  7
simplex
 11
0.0000000000000001
 21
1.0
 31
0.0
 73
     1
 44
1.0
1001
ACAD
1000
MTEXTBEGIN
1070
    73
1070
     1
1070
    44
1040
1.0
1070
    74
1070
     0
1000
MTEXTEND
  0
POINT
  5
60C28
330
60921
100
AcDbEntity
  8
Defpoints
 62
     0
100
AcDbPoint
 10
2.0
 20
36.51249999999993
 30
0.0
  0
POINT
  5
60C29
330
60921
100
AcDbEntity
  8
Defpoints
 62
     0
100
AcDbPoint
 10
1.999999999999971
 20
-36.51250000000004
 30
0.0
  0
POINT
  5
60C2A
330
60921
100
AcDbEntity
  8
Defpoints
 62
     0
100
AcDbPoint
 10
-27.81909173704728
 20
-36.51250000000004
 30
0.0
  0
ENDBLK
  5
6092C
330
60921
100
AcDbEntity
  8
0
100
AcDbBlockEnd
  0
BLOCK
  5
60943
330
60939
100
AcDbEntity
  8
0
100
AcDbBlockBegin
  2
*D88
 70
     1
 10
0.0
 20
0.0
 30
0.0
  3
*D88
  1

  0
LINE
  5
60C2B
330
60939
100
AcDbEntity
  8
sk2
100
AcDbLine
 10
-0.0000000000000284
 20
-34.51250000000005
 30
0.0
 11
-0.0000000000000299
 21
-58.54396838913408
 31
0.0
  0
LINE
  5
60C2C
330
60939
100
AcDbEntity
  8
sk2
100
AcDbLine
 10
31.99999999999997
 20
-15.69999959600011
 30
0.0
 11
31.99999999999997
 21
-58.54396838913408
 31
0.0
  0
LINE
  5
60C2D
330
60939
100
AcDbEntity
  8
sk2
100
AcDbLine
 10
3.49999999999997
 20
-57.04396838913408
 30
0.0
 11
28.49999999999997
 21
-57.04396838913408
 31
0.0
  0
SOLID
  5
60C2E
330
60939
100
AcDbEntity
  8
sk2
100
AcDbTrace
 10
3.49999999999997
 20
-56.46063505580074
 30
0.0
 11
3.49999999999997
 21
-57.62730172246741
 31
0.0
 12
-0.0000000000000298
 22
-57.04396838913408
 32
0.0
 13
-0.0000000000000298
 23
-57.04396838913408
 33
0.0
  0
SOLID
  5
60C2F
330
60939
100
AcDbEntity
  8
sk2
100
AcDbTrace
 10
28.49999999999997
 20
-56.46063505580074
 30
0.0
 11
28.49999999999997
 21
-57.62730172246741
 31
0.0
 12
31.99999999999997
 22
-57.04396838913408
 32
0.0
 13
31.99999999999997
 23
-57.04396838913408
 33
0.0
  0
MTEXT
  5
60C30
330
60939
100
AcDbEntity
  8
sk2
100
AcDbMText
 10
15.99999999999997
 20
-52.99396838913408
 30
0.0
 40
3.5
 41
0.0
 71
     5
 72
     1
  1
\A1;32 [1.260"]
  7
simplex
 73
     1
 44
1.0
1001
ACAD
1000
MTEXTBEGIN
1070
    73
1070
     1
1070
    44
1040
1.0
1070
    74
1070
     0
1000
MTEXTEND
  0
POINT
  5
60C31
330
60939
100
AcDbEntity
  8
Defpoints
 62
     0
100
AcDbPoint
 10
-0.0000000000000284
 20
-34.51250000000005
 30
0.0
  0
POINT
  5
60C32
330
60939
100
AcDbEntity
  8
Defpoints
 62
     0
100
AcDbPoint
 10
31.99999999999997
 20
-15.69999959600011
 30
0.0
  0
POINT
  5
60C33
330
60939
100
AcDbEntity
  8
Defpoints
 62
     0
100
AcDbPoint
 10
31.99999999999997
 20
-57.04396838913408
 30
0.0
  0
ENDBLK
  5
60944
330
60939
100
AcDbEntity
  8
0
100
AcDbBlockEnd
  0
BLOCK
  5
6095C
330
60951
100
AcDbEntity
  8
0
100
AcDbBlockBegin
  2
*D89
 70
     1
 10
0.0
 20
0.0
 30
0.0
  3
*D89
  1

  0
LINE
  5
60C34
330
60951
100
AcDbEntity
  8
2
100
AcDbLine
 10
63.5
 20
30.4645806656227
 30
0.0
 11
63.49999999999999
 21
-58.54396838913407
 31
0.0
  0
LINE
  5
60C35
330
60951
100
AcDbEntity
  8
2
100
AcDbLine
 10
61.40000000000004
 20
23.52626515562807
 30
0.0
 11
61.40000000000003
 21
-58.54396838913407
 31
0.0
  0
LINE
  5
60C36
330
60951
100
AcDbEntity
  8
2
100
AcDbLine
 10
57.90000000000002
 20
-57.04396838913408
 30
0.0
 11
54.40000000000003
 21
-57.04396838913408
 31
0.0
  0
LINE
  5
60C37
330
60951
100
AcDbEntity
  8
2
100
AcDbLine
 10
67.0
 20
-57.04396838913408
 30
0.0
 11
117.6833333333333
 21
-57.04396838913408
 31
0.0
  0
SOLID
  5
60C38
330
60951
100
AcDbEntity
  8
2
100
AcDbTrace
 10
57.90000000000002
 20
-56.46063505580074
 30
0.0
 11
57.90000000000002
 21
-57.62730172246741
 31
0.0
 12
61.40000000000003
 22
-57.04396838913408
 32
0.0
 13
61.40000000000003
 23
-57.04396838913408
 33
0.0
  0
SOLID
  5
60C39
330
60951
100
AcDbEntity
  8
2
100
AcDbTrace
 10
67.0
 20
-56.46063505580074
 30
0.0
 11
67.0
 21
-57.62730172246741
 31
0.0
 12
63.49999999999999
 22
-57.04396838913408
 32
0.0
 13
63.49999999999999
 23
-57.04396838913408
 33
0.0
  0
MTEXT
  5
60C3A
330
60951
100
AcDbEntity
  8
2
100
AcDbMText
 10
94.09166666666667
 20
-52.99396838913408
 30
0.0
 40
3.5
 41
0.0
 71
     5
 72
     1
  1
\A1;2.1 [.083"](MAX)
  7
simplex
 73
     1
 44
1.0
1001
ACAD
1000
MTEXTBEGIN
1070
    73
1070
     1
1070
    44
1040
1.0
1070
    74
1070
     0
1000
MTEXTEND
  0
POINT
  5
60C3B
330
60951
100
AcDbEntity
  8
Defpoints
 62
     0
100
AcDbPoint
 10
63.5
 20
30.4645806656227
 30
0.0
  0
POINT
  5
60C3C
330
60951
100
AcDbEntity
  8
Defpoints
 62
     0
100
AcDbPoint
 10
61.40000000000004
 20
23.52626515562807
 30
0.0
  0
POINT
  5
60C3D
330
60951
100
AcDbEntity
  8
Defpoints
 62
     0
100
AcDbPoint
 10
61.40000000000003
 20
-57.04396838913408
 30
0.0
  0
ENDBLK
  5
6095D
330
60951
100
AcDbEntity
  8
0
100
AcDbBlockEnd
  0
BLOCK
  5
60976
330
6096B
100
AcDbEntity
  8
0
100
AcDbBlockBegin
  2
*D90
 70
     1
 10
0.0
 20
0.0
 30
0.0
  3
*D90
  1

  0
LINE
  5
60C3E
330
6096B
100
AcDbEntity
  8
2
100
AcDbLine
 10
63.5
 20
30.4645806656227
 30
0.0
 11
63.5
 21
57.25939886565538
 31
0.0
  0
LINE
  5
60C3F
330
6096B
100
AcDbEntity
  8
2
100
AcDbLine
 10
61.5
 20
36.60539624667467
 30
0.0
 11
61.5
 21
57.25939886565538
 31
0.0
  0
LINE
  5
60C40
330
6096B
100
AcDbEntity
  8
2
100
AcDbLine
 10
67.0
 20
55.75939886565539
 30
0.0
 11
70.5
 21
55.75939886565539
 31
0.0
  0
LINE
  5
60C41
330
6096B
100
AcDbEntity
  8
2
100
AcDbLine
 10
58.0
 20
55.75939886565539
 30
0.0
 11
-65.01666666666665
 21
55.75939886565539
 31
0.0
  0
SOLID
  5
60C42
330
6096B
100
AcDbEntity
  8
2
100
AcDbTrace
 10
67.0
 20
56.34273219898872
 30
0.0
 11
67.0
 21
55.17606553232205
 31
0.0
 12
63.5
 22
55.75939886565539
 32
0.0
 13
63.5
 23
55.75939886565539
 33
0.0
  0
SOLID
  5
60C43
330
6096B
100
AcDbEntity
  8
2
100
AcDbTrace
 10
58.0
 20
56.34273219898872
 30
0.0
 11
58.0
 21
55.17606553232205
 31
0.0
 12
61.5
 22
55.75939886565539
 32
0.0
 13
61.5
 23
55.75939886565539
 33
0.0
  0
MTEXT
  5
60C44
330
6096B
100
AcDbEntity
  8
2
100
AcDbMText
 10
-5.258333333333325
 20
59.80939886565538
 30
0.0
 40
3.5
 41
0.0
 71
     5
 72
     1
  1
\A1;2 [.079"](APMX AT HIGH FEED PROCESS)
  7
simplex
 73
     1
 44
1.0
1001
ACAD
1000
MTEXTBEGIN
1070
    73
1070
     1
1070
    44
1040
1.0
1070
    74
1070
     0
1000
MTEXTEND
  0
POINT
  5
60C45
330
6096B
100
AcDbEntity
  8
Defpoints
 62
     0
100
AcDbPoint
 10
63.5
 20
30.4645806656227
 30
0.0
  0
POINT
  5
60C46
330
6096B
100
AcDbEntity
  8
Defpoints
 62
     0
100
AcDbPoint
 10
61.5
 20
36.60539624667467
 30
0.0
  0
POINT
  5
60C47
330
6096B
100
AcDbEntity
  8
Defpoints
 62
     0
100
AcDbPoint
 10
61.5
 20
55.75939886565539
 30
0.0
  0
ENDBLK
  5
60977
330
6096B
100
AcDbEntity
  8
0
100
AcDbBlockEnd
  0
BLOCK
  5
60990
330
60985
100
AcDbEntity
  8
0
100
AcDbBlockBegin
  2
*D91
 70
     1
 10
0.0
 20
0.0
 30
0.0
  3
*D91
  1

  0
LINE
  5
60C48
330
60985
100
AcDbEntity
  8
2
100
AcDbLine
 10
63.5
 20
30.4645806656227
 30
0.0
 11
63.5
 21
68.05214122297297
 31
0.0
  0
LINE
  5
60C49
330
60985
100
AcDbEntity
  8
2
100
AcDbLine
 10
60.5
 20
37.47530722166611
 30
0.0
 11
60.5
 21
68.05214122297297
 31
0.0
  0
LINE
  5
60C4A
330
60985
100
AcDbEntity
  8
2
100
AcDbLine
 10
67.0
 20
66.55214122297298
 30
0.0
 11
70.5
 21
66.55214122297298
 31
0.0
  0
LINE
  5
60C4B
330
60985
100
AcDbEntity
  8
2
100
AcDbLine
 10
57.0
 20
66.55214122297298
 30
0.0
 11
12.73333333333334
 21
66.55214122297298
 31
0.0
  0
SOLID
  5
60C4C
330
60985
100
AcDbEntity
  8
2
100
AcDbTrace
 10
67.0
 20
67.13547455630631
 30
0.0
 11
67.0
 21
65.96880788963964
 31
0.0
 12
63.5
 22
66.55214122297298
 32
0.0
 13
63.5
 23
66.55214122297298
 33
0.0
  0
SOLID
  5
60C4D
330
60985
100
AcDbEntity
  8
2
100
AcDbTrace
 10
57.0
 20
67.13547455630631
 30
0.0
 11
57.0
 21
65.96880788963964
 31
0.0
 12
60.5
 22
66.55214122297298
 32
0.0
 13
60.5
 23
66.55214122297298
 33
0.0
  0
MTEXT
  5
60C4E
330
60985
100
AcDbEntity
  8
2
100
AcDbMText
 10
33.11666666666667
 20
70.60214122297297
 30
0.0
 40
3.5
 41
0.0
 71
     5
 72
     1
  1
\A1;APMX3 [.118"]
  7
simplex
 73
     1
 44
1.0
1001
ACAD
1000
MTEXTBEGIN
1070
    73
1070
     1
1070
    44
1040
1.0
1070
    74
1070
     0
1000
MTEXTEND
  0
POINT
  5
60C4F
330
60985
100
AcDbEntity
  8
Defpoints
 62
     0
100
AcDbPoint
 10
63.5
 20
30.4645806656227
 30
0.0
  0
POINT
  5
60C50
330
60985
100
AcDbEntity
  8
Defpoints
 62
     0
100
AcDbPoint
 10
60.5
 20
37.47530722166611
 30
0.0
  0
POINT
  5
60C51
330
60985
100
AcDbEntity
  8
Defpoints
 62
     0
100
AcDbPoint
 10
60.5
 20
66.55214122297298
 30
0.0
  0
ENDBLK
  5
60991
330
60985
100
AcDbEntity
  8
0
100
AcDbBlockEnd
  0
BLOCK
  5
609A9
330
6099F
100
AcDbEntity
  8
0
100
AcDbBlockBegin
  2
*D92
 70
     1
 10
0.0
 20
0.0
 30
0.0
  3
*D92
  1

  0
LINE
  5
60C52
330
6099F
100
AcDbEntity
  8
2
100
AcDbLine
 10
63.5
 20
30.4645806656227
 30
0.0
 11
63.5
 21
78.92771461007999
 31
0.0
  0
LINE
  5
60C53
330
6099F
100
AcDbEntity
  8
2
100
AcDbLine
 10
0.0
 20
34.51249999999993
 30
0.0
 11
0.0000000000000027
 21
78.92771461007999
 31
0.0
  0
LINE
  5
60C54
330
6099F
100
AcDbEntity
  8
2
100
AcDbLine
 10
60.0
 20
77.42771461007999
 30
0.0
 11
3.500000000000002
 21
77.42771461007999
 31
0.0
  0
SOLID
  5
60C55
330
6099F
100
AcDbEntity
  8
2
100
AcDbTrace
 10
60.0
 20
78.01104794341331
 30
0.0
 11
60.0
 21
76.84438127674666
 31
0.0
 12
63.5
 22
77.42771461007999
 32
0.0
 13
63.5
 23
77.42771461007999
 33
0.0
  0
SOLID
  5
60C56
330
6099F
100
AcDbEntity
  8
2
100
AcDbTrace
 10
3.500000000000002
 20
78.01104794341331
 30
0.0
 11
3.500000000000002
 21
76.84438127674666
 31
0.0
 12
0.0000000000000026
 22
77.42771461007999
 32
0.0
 13
0.0000000000000026
 23
77.42771461007999
 33
0.0
  0
MTEXT
  5
60C57
330
6099F
100
AcDbEntity
  8
2
100
AcDbMText
 10
31.75
 20
81.47771461007998
 30
0.0
 40
3.5
 41
0.0
 71
     5
 72
     1
  1
\A1;63.5 [2.500"]
  7
simplex
 73
     1
 44
1.0
1001
ACAD
1000
MTEXTBEGIN
1070
    73
1070
     1
1070
    44
1040
1.0
1070
    74
1070
     0
1000
MTEXTEND
  0
POINT
  5
60C58
330
6099F
100
AcDbEntity
  8
Defpoints
 62
     0
100
AcDbPoint
 10
63.5
 20
30.4645806656227
 30
0.0
  0
POINT
  5
60C59
330
6099F
100
AcDbEntity
  8
Defpoints
 62
     0
100
AcDbPoint
 10
0.0
 20
34.51249999999993
 30
0.0
  0
POINT
  5
60C5A
330
6099F
100
AcDbEntity
  8
Defpoints
 62
     0
100
AcDbPoint
 10
0.0000000000000026
 20
77.42771461007999
 30
0.0
  0
ENDBLK
  5
609AA
330
6099F
100
AcDbEntity
  8
0
100
AcDbBlockEnd
  0
BLOCK
  5
609C0
330
609B8
100
AcDbEntity
  8
0
100
AcDbBlockBegin
  2
*D93
 70
     1
 10
0.0
 20
0.0
 30
0.0
  3
*D93
  1

  0
LINE
  5
60C5B
330
609B8
100
AcDbEntity
  8
2
100
AcDbLine
 10
102.060159003044
 20
58.37567497169132
 30
0.0
 11
64.53421563823451
 21
38.38891637942454
 31
0.0
  0
MTEXT
  5
60C5C
330
609B8
100
AcDbEntity
  8
2
100
AcDbMText
 10
82.93789359872009
 20
52.77955709846531
 30
0.0
 40
3.5
 41
0.0
 71
     5
 72
     1
  1
\A1;R1.5 [R.059"]
  7
simplex
 11
0.8826172488783116
 21
0.4700923228286977
 31
0.0
 73
     1
 44
1.0
1001
ACAD
1000
MTEXTBEGIN
1070
    73
1070
     1
1070
    44
1040
1.0
1070
    74
1070
     0
1000
MTEXTEND
  0
SOLID
  5
60C5D
330
609B8
100
AcDbEntity
  8
2
100
AcDbTrace
 10
64.25999511658443
 20
38.90377644127022
 30
0.0
 11
64.80843615988459
 21
37.87405631757886
 31
0.0
 12
61.44505526716041
 22
36.74359324952409
 32
0.0
 13
61.44505526716041
 23
36.74359324952409
 33
0.0
  0
LINE
  5
60C5E
330
609B8
100
AcDbEntity
  8
2
100
AcDbLine
 10
60.03112939384317
 20
36.03845476528118
 30
0.0
 11
60.21112939384317
 21
36.03845476528117
 31
0.0
  0
LINE
  5
60C5F
330
609B8
100
AcDbEntity
  8
2
100
AcDbLine
 10
60.12112939384317
 20
35.94845476528116
 30
0.0
 11
60.12112939384318
 21
36.12845476528117
 31
0.0
  0
POINT
  5
60C60
330
609B8
100
AcDbEntity
  8
Defpoints
 62
     0
100
AcDbPoint
 10
61.44505526716041
 20
36.74359324952409
 30
0.0
  0
POINT
  5
60C61
330
609B8
100
AcDbEntity
  8
Defpoints
 62
     0
100
AcDbPoint
 10
60.12112939384318
 20
36.03845476528117
 30
0.0
  0
ENDBLK
  5
609C1
330
609B8
100
AcDbEntity
  8
0
100
AcDbBlockEnd
  0
ENDSEC
  0
SECTION
  2
ENTITIES
  0
INSERT
  5
68C
330
1F
100
AcDbEntity
  8
0
100
AcDbBlockReference
  2
zero block
 10
0.0000000000000072
 20
0.0
 30
0.0
 50
180.0
  0
MTEXT
  5
5CD11
330
1F
100
AcDbEntity
  8
sk6
100
AcDbMText
 10
-4.313683593221639
 20
99.85505536519804
 30
0.0
 40
5.0
 41
85.25075165579854
 71
     1
 72
     5
  1
WJX14UR3_0006DA
  7
simplex
 73
     1
 44
1.0
1001
ACAD
1000
ACAD_MTEXT_DEFINED_HEIGHT_BEGIN
1070
    46
1040
0.0
1000
ACAD_MTEXT_DEFINED_HEIGHT_END
1000
MTEXTBEGIN
1070
    73
1070
     1
1070
    44
1040
1.0
1070
    74
1070
     0
1000
MTEXTEND
  0
LINE
  5
6077E
330
1F
100
AcDbEntity
  8
nocut
100
AcDbLine
 10
62.19999999999998
 20
30.87808091760002
 30
0.0
 11
62.19999999999998
 21
-0.0000000000000568
 31
0.0
1001
ACAD
1000
RTMaterial
1005
0
  0
LINE
  5
6077F
330
1F
100
AcDbEntity
  8
cut
100
AcDbLine
 10
63.43637431679994
 20
30.86310458309993
 30
0.0
 11
61.54834887070001
 21
37.03855755709992
 31
0.0
1001
ACAD
1000
RTMaterial
1005
0
  0
LINE
  5
60780
330
1F
100
AcDbEntity
  8
nocut
100
AcDbLine
 10
60.75069842700003
 20
35.79251634940005
 30
0.0
 11
62.19999999999998
 21
30.87808091760002
 31
0.0
1001
ACAD
1000
RTMaterial
1005
0
  0
LINE
  5
60781
330
1F
100
AcDbEntity
  8
cut
100
AcDbLine
 10
59.97441482979997
 20
38.09350131989993
 30
0.0
 11
56.24838147419996
 21
37.74553001179993
 31
0.0
1001
ACAD
1000
RTMaterial
1005
0
  0
LINE
  5
60782
330
1F
100
AcDbEntity
  8
nocut
100
AcDbLine
 10
54.63671017480004
 20
36.22455862599998
 30
0.0
 11
59.49538781609999
 21
36.64853772059996
 31
0.0
1001
ACAD
1000
RTMaterial
1005
0
  0
LINE
  5
60783
330
1F
100
AcDbEntity
  8
nocut
100
AcDbLine
 10
53.09840339839997
 20
36.57458758410007
 30
0.0
 11
54.3671294815
 21
36.24694244790004
 31
0.0
1001
ACAD
1000
RTMaterial
1005
0
  0
LINE
  5
60784
330
1F
100
AcDbEntity
  8
1
100
AcDbLine
 10
53.0984033984
 20
-36.57458758410007
 30
0.0
 11
54.36712948139998
 21
-36.2469424479001
 31
0.0
1001
ACAD
1000
RTMaterial
1005
0
  0
LINE
  5
60785
330
1F
100
AcDbEntity
  8
1
100
AcDbLine
 10
48.99451001349993
 20
-36.60000000000008
 30
0.0
 11
52.89836821519995
 21
-36.60000000000008
 31
0.0
1001
ACAD
1000
RTMaterial
1005
0
  0
LINE
  5
60786
330
1F
100
AcDbEntity
  8
1
100
AcDbLine
 10
9.028098454299907
 20
-36.51250000000004
 30
0.0
 11
1.999999999999971
 21
-36.51250000000004
 31
0.0
1001
ACAD
1000
RTMaterial
1005
0
  0
LINE
  5
60787
330
1F
100
AcDbEntity
  8
1
100
AcDbLine
 10
54.63671017479995
 20
-36.22455862600015
 30
0.0
 11
59.49538781609996
 21
-36.64853772060013
 31
0.0
1001
ACAD
1000
RTMaterial
1005
0
  0
LINE
  5
60788
330
1F
100
AcDbEntity
  8
1
100
AcDbLine
 10
32.80290174099994
 20
-32.1066461338001
 30
0.0
 11
46.07079296629993
 21
-36.16304755960005
 31
0.0
1001
ACAD
1000
RTMaterial
1005
0
  0
LINE
  5
60789
330
1F
100
AcDbEntity
  8
1
100
AcDbLine
 10
60.75069842699995
 20
-35.7925163494001
 30
0.0
 11
62.19999999999996
 21
-30.87808091760007
 31
0.0
1001
ACAD
1000
RTMaterial
1005
0
  0
LINE
  5
6078A
330
1F
100
AcDbEntity
  8
1
100
AcDbLine
 10
19.46333577819999
 20
-32.68906416170012
 30
0.0
 11
10.90113142139998
 21
-36.14841927280003
 31
0.0
1001
ACAD
1000
RTMaterial
1005
0
  0
LINE
  5
6078B
330
1F
100
AcDbEntity
  8
sk3
100
AcDbLine
 10
17.83926112069994
 20
-16.42504622960007
 30
0.0
 11
16.65968317469995
 21
-15.87500000000005
 31
0.0
1001
ACAD
1000
RTMaterial
1005
0
  0
LINE
  5
6078C
330
1F
100
AcDbEntity
  8
1
100
AcDbLine
 10
62.19999999999998
 20
25.37087738779991
 30
0.0
 11
62.19999999999996
 21
-30.87807909430007
 31
0.0
1001
ACAD
1000
RTMaterial
1005
0
  0
LINE
  5
6078D
330
1F
100
AcDbEntity
  8
sk3
100
AcDbLine
 10
31.19999999999996
 20
-16.50000000000005
 30
0.0
 11
18.17735573009995
 21
-16.50000000000005
 31
0.0
1001
ACAD
1000
RTMaterial
1005
0
  0
LINE
  5
6078E
330
1F
100
AcDbEntity
  8
sk3
100
AcDbLine
 10
1.19999999999996
 20
-16.37500000000005
 30
0.0
 11
5.999999999999971
 21
-16.37500000000005
 31
0.0
1001
ACAD
1000
RTMaterial
1005
0
  0
LINE
  5
6078F
102
{ACAD_REACTORS
330
6091F
102
}
330
1F
100
AcDbEntity
  8
sk3
100
AcDbLine
 10
16.65968317469995
 20
-15.87500000000005
 30
0.0
 11
5.999999999999971
 21
-15.87500000000005
 31
0.0
1001
ACAD
1000
RTMaterial
1005
0
  0
LINE
  5
60790
330
1F
100
AcDbEntity
  8
1
100
AcDbLine
 10
-0.0000000000000284
 20
7.349999999999965
 30
0.0
 11
0.9999999999999715
 21
6.349999999999965
 31
0.0
1001
ACAD
1000
RTMaterial
1005
0
  0
LINE
  5
60791
330
1F
100
AcDbEntity
  8
1
100
AcDbLine
 10
52.06414109939998
 20
35.61982440889995
 30
0.0
 11
52.14999390729997
 21
35.31046048659988
 31
0.0
1001
ACAD
1000
RTMaterial
1005
0
  0
LINE
  5
60792
330
1F
100
AcDbEntity
  8
sk3
100
AcDbLine
 10
59.0
 20
18.89230957209992
 30
0.0
 11
58.99999999999997
 21
-18.89230957210003
 31
0.0
1001
ACAD
1000
RTMaterial
1005
0
  0
LINE
  5
60793
330
1F
100
AcDbEntity
  8
sk3
100
AcDbLine
 10
58.0
 20
12.99999999999994
 30
0.0
 11
57.99999999999997
 21
-13.00000000000006
 31
0.0
1001
ACAD
1000
RTMaterial
1005
0
  0
LINE
  5
60794
330
1F
100
AcDbEntity
  8
sk3
100
AcDbLine
 10
57.99999999999997
 20
-13.00000000000006
 30
0.0
 11
40.39999999999994
 21
-13.00000000000006
 31
0.0
1001
ACAD
1000
RTMaterial
1005
0
  0
LINE
  5
60795
330
1F
100
AcDbEntity
  8
1
100
AcDbLine
 10
6.139999999999957
 20
6.349999999999965
 30
0.0
 11
7.139999999999957
 21
5.349999999999965
 31
0.0
1001
ACAD
1000
RTMaterial
1005
0
  0
LINE
  5
60796
330
1F
100
AcDbEntity
  8
1
100
AcDbLine
 10
51.40568974519993
 20
25.34496606869988
 30
0.0
 11
51.38198397059994
 21
25.45406501069994
 31
0.0
1001
ACAD
1000
RTMaterial
1005
0
  0
LINE
  5
60797
330
1F
100
AcDbEntity
  8
sk3
100
AcDbLine
 10
39.49999999999997
 20
-8.500000000000056
 30
0.0
 11
32.39999999999998
 21
-8.500000000000056
 31
0.0
1001
ACAD
1000
RTMaterial
1005
0
  0
LINE
  5
60798
330
1F
100
AcDbEntity
  8
sk3
100
AcDbLine
 10
1.199999999999988
 20
16.37499999999994
 30
0.0
 11
0.0
 21
17.57499999999993
 31
0.0
1001
ACAD
1000
RTMaterial
1005
0
  0
LINE
  5
60799
330
1F
100
AcDbEntity
  8
1
100
AcDbLine
 10
52.76680988039998
 20
35.79805243909988
 30
0.0
 11
52.76660413729996
 21
35.97316158999996
 31
0.0
1001
ACAD
1000
RTMaterial
1005
0
  0
LINE
  5
6079A
330
1F
100
AcDbEntity
  8
1
100
AcDbLine
 10
62.87256838219994
 20
26.92166221859992
 30
0.0
 11
61.36426457390001
 21
23.4438676504999
 31
0.0
1001
ACAD
1000
RTMaterial
1005
0
  0
LINE
  5
6079B
330
1F
100
AcDbEntity
  8
1
100
AcDbLine
 10
6.139999999999957
 20
-6.350000000000079
 30
0.0
 11
0.9999999999999715
 21
-6.350000000000079
 31
0.0
1001
ACAD
1000
RTMaterial
1005
0
  0
LINE
  5
6079C
330
1F
100
AcDbEntity
  8
sk3
100
AcDbLine
 10
59.0
 20
13.99999999999994
 30
0.0
 11
58.0
 21
12.99999999999994
 31
0.0
1001
ACAD
1000
RTMaterial
1005
0
  0
LINE
  5
6079D
330
1F
100
AcDbEntity
  8
4
100
AcDbLine
 10
67.10243534269991
 20
-0.0000000000000568
 30
0.0
 11
-4.217102988800064
 21
-0.0000000000000568
 31
0.0
1001
ACAD
1000
RTMaterial
1005
0
  0
LINE
  5
6079E
330
1F
100
AcDbEntity
  8
sk3
100
AcDbLine
 10
39.49999999999997
 20
-8.500000000000056
 30
0.0
 11
39.99999999999997
 21
-9.000000000000056
 31
0.0
1001
ACAD
1000
RTMaterial
1005
0
  0
LINE
  5
6079F
330
1F
100
AcDbEntity
  8
sk3
100
AcDbLine
 10
40.0
 20
12.59999999999996
 30
0.0
 11
39.99999999999997
 21
-12.60000000000008
 31
0.0
1001
ACAD
1000
RTMaterial
1005
0
  0
LINE
  5
607A0
330
1F
100
AcDbEntity
  8
sk3
100
AcDbLine
 10
39.5
 20
8.499999999999943
 30
0.0
 11
39.49999999999997
 21
-8.500000000000056
 31
0.0
1001
ACAD
1000
RTMaterial
1005
0
  0
LINE
  5
607A1
330
1F
100
AcDbEntity
  8
1
100
AcDbLine
 10
52.76049625280001
 20
35.78097029019989
 30
0.0
 11
52.65694086590002
 21
35.49922491559994
 31
0.0
1001
ACAD
1000
RTMaterial
1005
0
  0
LINE
  5
607A2
330
1F
100
AcDbEntity
  8
1
100
AcDbLine
 10
0.9999999999999715
 20
6.349999999999965
 30
0.0
 11
6.139999999999957
 21
6.349999999999965
 31
0.0
1001
ACAD
1000
RTMaterial
1005
0
  0
LINE
  5
607A3
330
1F
100
AcDbEntity
  8
sk3
100
AcDbLine
 10
39.5
 20
8.499999999999943
 30
0.0
 11
32.39999999999998
 21
8.499999999999943
 31
0.0
1001
ACAD
1000
RTMaterial
1005
0
  0
LINE
  5
607A4
330
1F
100
AcDbEntity
  8
sk3
100
AcDbLine
 10
39.5
 20
8.499999999999943
 30
0.0
 11
40.0
 21
8.999999999999943
 31
0.0
1001
ACAD
1000
RTMaterial
1005
0
  0
LINE
  5
607A5
330
1F
100
AcDbEntity
  8
sk3
100
AcDbLine
 10
58.99999999999997
 20
-14.00000000000005
 30
0.0
 11
57.99999999999997
 21
-13.00000000000006
 31
0.0
1001
ACAD
1000
RTMaterial
1005
0
  0
LINE
  5
607A6
102
{ACAD_REACTORS
330
6094F
102
}
330
1F
100
AcDbEntity
  8
sk3
100
AcDbLine
 10
31.99999999999997
 20
-15.69999959600011
 30
0.0
 11
32.0
 21
15.69577211779995
 31
0.0
1001
ACAD
1000
RTMaterial
1005
0
  0
LINE
  5
607A7
330
1F
100
AcDbEntity
  8
1
100
AcDbLine
 10
52.14999390729997
 20
35.31046048659988
 30
0.0
 11
52.34653312839999
 21
35.57915166069995
 31
0.0
1001
ACAD
1000
RTMaterial
1005
0
  0
LINE
  5
607A8
330
1F
100
AcDbEntity
  8
1
100
AcDbLine
 10
59.54563416069999
 20
22.49108580359996
 30
0.0
 11
59.69519803189996
 21
22.56921080799987
 31
0.0
1001
ACAD
1000
RTMaterial
1005
0
  0
LINE
  5
607A9
330
1F
100
AcDbEntity
  8
sk3
100
AcDbLine
 10
58.0
 20
12.99999999999994
 30
0.0
 11
40.39999999999998
 21
12.99999999999994
 31
0.0
1001
ACAD
1000
RTMaterial
1005
0
  0
LINE
  5
607AA
102
{ACAD_REACTORS
330
6091F
102
}
330
1F
100
AcDbEntity
  8
sk3
100
AcDbLine
 10
16.65968317469998
 20
15.87499999999994
 30
0.0
 11
6.0
 21
15.87499999999994
 31
0.0
1001
ACAD
1000
RTMaterial
1005
0
  0
LINE
  5
607AB
330
1F
100
AcDbEntity
  8
sk3
100
AcDbLine
 10
1.199999999999988
 20
16.37499999999994
 30
0.0
 11
6.0
 21
16.37499999999994
 31
0.0
1001
ACAD
1000
RTMaterial
1005
0
  0
LINE
  5
607AC
330
1F
100
AcDbEntity
  8
sk3
100
AcDbLine
 10
31.19999999999999
 20
16.49999999999994
 30
0.0
 11
18.17735573009997
 21
16.49999999999994
 31
0.0
1001
ACAD
1000
RTMaterial
1005
0
  0
LINE
  5
607AD
330
1F
100
AcDbEntity
  8
1
100
AcDbLine
 10
48.7073913731
 20
31.08816441419993
 30
0.0
 11
53.23723223529999
 21
35.92814432619992
 31
0.0
1001
ACAD
1000
RTMaterial
1005
0
  0
LINE
  5
607AE
330
1F
100
AcDbEntity
  8
1
100
AcDbLine
 10
49.06450513620001
 20
31.68757767999995
 30
0.0
 11
52.65694086590002
 21
35.49922491559994
 31
0.0
1001
ACAD
1000
RTMaterial
1005
0
  0
LINE
  5
607AF
330
1F
100
AcDbEntity
  8
1
100
AcDbLine
 10
52.14999390729997
 20
35.31046048659988
 30
0.0
 11
48.62206552449999
 21
31.60547528939986
 31
0.0
1001
ACAD
1000
RTMaterial
1005
0
  0
LINE
  5
607B0
330
1F
100
AcDbEntity
  8
sk3
100
AcDbLine
 10
1.19999999999996
 20
-16.37500000000005
 30
0.0
 11
-0.0000000000000284
 21
-17.57500000000004
 31
0.0
1001
ACAD
1000
RTMaterial
1005
0
  0
LINE
  5
607B1
330
1F
100
AcDbEntity
  8
sk3
100
AcDbLine
 10
60.34743411329995
 20
-25.10579850410011
 30
0.0
 11
62.19999999999996
 21
-29.1763421399001
 31
0.0
1001
ACAD
1000
RTMaterial
1005
0
  0
LINE
  5
607B2
330
1F
100
AcDbEntity
  8
1
100
AcDbLine
 10
7.139999999999957
 20
-5.350000000000079
 30
0.0
 11
6.139999999999957
 21
-6.350000000000079
 31
0.0
1001
ACAD
1000
RTMaterial
1005
0
  0
LINE
  5
607B3
330
1F
100
AcDbEntity
  8
1
100
AcDbLine
 10
59.59645248379996
 20
22.54685413899989
 30
0.0
 11
59.73651331909997
 21
22.57857375349994
 31
0.0
1001
ACAD
1000
RTMaterial
1005
0
  0
LINE
  5
607B4
330
1F
100
AcDbEntity
  8
1
100
AcDbLine
 10
59.65154868909997
 20
22.57619394979991
 30
0.0
 11
60.16715151899996
 21
22.59068227719996
 31
0.0
1001
ACAD
1000
RTMaterial
1005
0
  0
LINE
  5
607B5
330
1F
100
AcDbEntity
  8
1
100
AcDbLine
 10
55.18350082449996
 20
22.88261576809992
 30
0.0
 11
41.70411089359999
 21
23.68169712079987
 31
0.0
1001
ACAD
1000
RTMaterial
1005
0
  0
LINE
  5
607B6
330
1F
100
AcDbEntity
  8
1
100
AcDbLine
 10
0.9999999999999715
 20
-6.350000000000079
 30
0.0
 11
-0.0000000000000284
 21
-7.350000000000079
 31
0.0
1001
ACAD
1000
RTMaterial
1005
0
  0
LINE
  5
607B7
330
1F
100
AcDbEntity
  8
1
100
AcDbLine
 10
53.81593554119996
 20
36.39175814779992
 30
0.0
 11
53.81227027529996
 21
36.38983232729987
 31
0.0
1001
ACAD
1000
RTMaterial
1005
0
  0
LINE
  5
607B8
330
1F
100
AcDbEntity
  8
1
100
AcDbLine
 10
54.69209493169995
 20
36.84784818749995
 30
0.0
 11
54.69621888579997
 21
36.85001352759986
 31
0.0
1001
ACAD
1000
RTMaterial
1005
0
  0
LINE
  5
607B9
330
1F
100
AcDbEntity
  8
sk3
100
AcDbLine
 10
17.83926112069997
 20
16.42504622959996
 30
0.0
 11
16.65968317469998
 21
15.87499999999994
 31
0.0
1001
ACAD
1000
RTMaterial
1005
0
  0
LINE
  5
607BA
330
1F
100
AcDbEntity
  8
1
100
AcDbLine
 10
62.19999999999998
 20
21.5680570241999
 30
0.0
 11
56.56703362079998
 21
22.70310740289994
 31
0.0
1001
ACAD
1000
RTMaterial
1005
0
  0
LINE
  5
607BB
330
1F
100
AcDbEntity
  8
1
100
AcDbLine
 10
59.12989448209998
 20
22.71507796719993
 30
0.0
 11
53.65033969429998
 21
24.01359237829991
 31
0.0
1001
ACAD
1000
RTMaterial
1005
0
  0
LINE
  5
607BC
330
1F
100
AcDbEntity
  8
1
100
AcDbLine
 10
59.78869359489999
 20
22.63022087179996
 30
0.0
 11
53.35518933139997
 21
24.15479692299988
 31
0.0
1001
ACAD
1000
RTMaterial
1005
0
  0
LINE
  5
607BD
330
1F
100
AcDbEntity
  8
1
100
AcDbLine
 10
19.46333577820002
 20
32.68906416169995
 30
0.0
 11
10.90113142140001
 21
36.14841927279992
 31
0.0
1001
ACAD
1000
RTMaterial
1005
0
  0
LINE
  5
607BE
330
1F
100
AcDbEntity
  8
1
100
AcDbLine
 10
48.26161378159998
 20
29.98702953779991
 30
0.0
 11
48.26198681129994
 21
29.98594802589991
 31
0.0
1001
ACAD
1000
RTMaterial
1005
0
  0
LINE
  5
607BF
330
1F
100
AcDbEntity
  8
1
100
AcDbLine
 10
48.26198754659998
 20
29.98592943829988
 30
0.0
 11
48.37284547899997
 21
29.66463781839991
 31
0.0
1001
ACAD
1000
RTMaterial
1005
0
  0
LINE
  5
607C0
330
1F
100
AcDbEntity
  8
sk3
100
AcDbLine
 10
16.65968317469998
 20
15.87499999999994
 30
0.0
 11
16.65968317469995
 21
-15.87500000000005
 31
0.0
1001
ACAD
1000
RTMaterial
1005
0
  0
LINE
  5
607C1
330
1F
100
AcDbEntity
  8
1
100
AcDbLine
 10
54.69208767549997
 20
36.84786212099993
 30
0.0
 11
53.81593554119996
 21
36.39175814779992
 31
0.0
1001
ACAD
1000
RTMaterial
1005
0
  0
LINE
  5
607C2
330
1F
100
AcDbEntity
  8
1
100
AcDbLine
 10
53.81274123499998
 20
36.39007917399988
 30
0.0
 11
53.80328662629995
 21
36.38516970339992
 31
0.0
1001
ACAD
1000
RTMaterial
1005
0
  0
LINE
  5
607C3
330
1F
100
AcDbEntity
  8
1
100
AcDbLine
 10
53.80328662629995
 20
36.38516970339992
 30
0.0
 11
53.79330108409999
 21
36.3800681297999
 31
0.0
1001
ACAD
1000
RTMaterial
1005
0
  0
LINE
  5
607C4
330
1F
100
AcDbEntity
  8
1
100
AcDbLine
 10
53.79330108409999
 20
36.3800681297999
 30
0.0
 11
53.78302635099998
 21
36.37491926259986
 31
0.0
1001
ACAD
1000
RTMaterial
1005
0
  0
LWPOLYLINE
  5
607C5
330
1F
100
AcDbEntity
  8
1
100
AcDbPolyline
 90
        6
 70
     0
 43
0.0
 10
53.78302635099998
 20
36.37491926259986
 10
53.77258145219997
 20
36.3697909675999
 10
53.76188790399999
 20
36.36465230839991
 10
53.75067106559999
 20
36.35938403979992
 10
53.73883758699998
 20
36.35396054029991
 10
53.73632639539994
 20
36.35282721789997
1001
ACAD
1000
RTMaterial
1005
0
  0
LINE
  5
607C6
330
1F
100
AcDbEntity
  8
1
100
AcDbLine
 10
49.06450513620001
 20
31.68757767999995
 30
0.0
 11
48.90055166590002
 21
31.68549072669993
 31
0.0
1001
ACAD
1000
RTMaterial
1005
0
  0
LINE
  5
607C7
330
1F
100
AcDbEntity
  8
1
100
AcDbLine
 10
47.43965006679997
 20
29.77379061909989
 30
0.0
 11
41.80403781489997
 21
30.10787937869987
 31
0.0
1001
ACAD
1000
RTMaterial
1005
0
  0
LINE
  5
607C8
330
1F
100
AcDbEntity
  8
1
100
AcDbLine
 10
56.92872555169998
 20
28.67065494989993
 30
0.0
 11
57.05688749199999
 21
28.65272010209992
 31
0.0
1001
ACAD
1000
RTMaterial
1005
0
  0
LINE
  5
607C9
330
1F
100
AcDbEntity
  8
1
100
AcDbLine
 10
54.76708734609997
 20
29.1878344683999
 30
0.0
 11
54.89524928649996
 21
29.16989962049991
 31
0.0
1001
ACAD
1000
RTMaterial
1005
0
  0
LINE
  5
607CA
330
1F
100
AcDbEntity
  8
1
100
AcDbLine
 10
52.22955241329998
 20
24.68846679299992
 30
0.0
 11
52.2983853092
 21
24.6416201740999
 31
0.0
1001
ACAD
1000
RTMaterial
1005
0
  0
LINE
  5
607CB
330
1F
100
AcDbEntity
  8
1
100
AcDbLine
 10
52.29697432659998
 20
24.64257826449989
 30
0.0
 11
52.29833980129996
 21
24.64164491899988
 31
0.0
1001
ACAD
1000
RTMaterial
1005
0
  0
LWPOLYLINE
  5
607CC
330
1F
100
AcDbEntity
  8
1
100
AcDbPolyline
 90
        3
 70
     0
 43
0.0
 10
51.80815019059997
 20
24.97725984029995
 10
51.98653713160002
 20
24.85488356889994
 10
52.22955241329998
 20
24.68846679299992
1001
ACAD
1000
RTMaterial
1005
0
  0
LINE
  5
607CD
330
1F
100
AcDbEntity
  8
1
100
AcDbLine
 10
52.29843071349995
 20
24.64158260389991
 30
0.0
 11
52.30014443919998
 21
24.64038200369987
 31
0.0
1001
ACAD
1000
RTMaterial
1005
0
  0
LINE
  5
607CE
330
1F
100
AcDbEntity
  8
1
100
AcDbLine
 10
52.30014443919998
 20
24.64038200369987
 30
0.0
 11
52.3004851984
 21
24.64013557289997
 31
0.0
1001
ACAD
1000
RTMaterial
1005
0
  0
LINE
  5
607CF
330
1F
100
AcDbEntity
  8
1
100
AcDbLine
 10
47.91250562349995
 20
30.02229601549988
 30
0.0
 11
48.10519702049998
 21
29.75986774469993
 31
0.0
1001
ACAD
1000
RTMaterial
1005
0
  0
LINE
  5
607D0
330
1F
100
AcDbEntity
  8
1
100
AcDbLine
 10
51.40049735469995
 20
25.27196645959993
 30
0.0
 11
51.8384572169
 21
24.67550470219993
 31
0.0
1001
ACAD
1000
RTMaterial
1005
0
  0
LINE
  5
607D1
330
1F
100
AcDbEntity
  8
1
100
AcDbLine
 10
50.81533797679998
 20
26.23016705759989
 30
0.0
 11
48.57413073359999
 21
29.28248880289994
 31
0.0
1001
ACAD
1000
RTMaterial
1005
0
  0
LINE
  5
607D2
330
1F
100
AcDbEntity
  8
1
100
AcDbLine
 10
48.29980660219996
 20
30.1908657484999
 30
0.0
 11
48.19711073090002
 21
30.42952332809989
 31
0.0
1001
ACAD
1000
RTMaterial
1005
0
  0
LINE
  5
607D3
330
1F
100
AcDbEntity
  8
1
100
AcDbLine
 10
32.80290174099997
 20
32.10664613379993
 30
0.0
 11
46.07079296629996
 21
36.16304755959993
 31
0.0
1001
ACAD
1000
RTMaterial
1005
0
  0
LINE
  5
607D4
330
1F
100
AcDbEntity
  8
1
100
AcDbLine
 10
48.99451001349996
 20
35.61955711989992
 30
0.0
 11
52.06414109939998
 21
35.61982440889995
 31
0.0
1001
ACAD
1000
RTMaterial
1005
0
  0
LINE
  5
607D5
330
1F
100
AcDbEntity
  8
1
100
AcDbLine
 10
57.59630865149995
 20
30.79090080299989
 30
0.0
 11
57.7244705919
 21
30.77296595509989
 31
0.0
1001
ACAD
1000
RTMaterial
1005
0
  0
LINE
  5
607D6
330
1F
100
AcDbEntity
  8
1
100
AcDbLine
 10
55.43467044589999
 20
31.30808032149986
 30
0.0
 11
55.56283238629998
 21
31.29014547359992
 31
0.0
1001
ACAD
1000
RTMaterial
1005
0
  0
LINE
  5
607D7
330
1F
100
AcDbEntity
  8
1
100
AcDbLine
 10
48.16887527119996
 20
29.74401514429997
 30
0.0
 11
47.72739124409997
 21
29.85392189869987
 31
0.0
1001
ACAD
1000
RTMaterial
1005
0
  0
LINE
  5
607D8
330
1F
100
AcDbEntity
  8
1
100
AcDbLine
 10
59.62985034869996
 20
22.44571181809994
 30
0.0
 11
59.12989448209998
 21
22.71507796719993
 31
0.0
1001
ACAD
1000
RTMaterial
1005
0
  0
LINE
  5
607D9
330
1F
100
AcDbEntity
  8
1
100
AcDbLine
 10
47.64245781409999
 20
30.9602096701999
 30
0.0
 11
47.95852006529997
 21
30.7087636364999
 31
0.0
1001
ACAD
1000
RTMaterial
1005
0
  0
LINE
  5
607DA
330
1F
100
AcDbEntity
  8
1
100
AcDbLine
 10
48.16887527119996
 20
29.74401514429997
 30
0.0
 11
48.42376048759996
 21
29.53773674399986
 31
0.0
1001
ACAD
1000
RTMaterial
1005
0
  0
LINE
  5
607DB
330
1F
100
AcDbEntity
  8
1
100
AcDbLine
 10
48.15912382729999
 20
30.48839020669993
 30
0.0
 11
48.02245709429996
 21
30.64834139579989
 31
0.0
1001
ACAD
1000
RTMaterial
1005
0
  0
LINE
  5
607DC
330
1F
100
AcDbEntity
  8
1
100
AcDbLine
 10
53.98364217839997
 20
36.4791517207999
 30
0.0
 11
53.22632773359998
 21
36.33302626459994
 31
0.0
1001
ACAD
1000
RTMaterial
1005
0
  0
LINE
  5
607DD
330
1F
100
AcDbEntity
  8
1
100
AcDbLine
 10
56.2483814707
 20
37.07529917329987
 30
0.0
 11
59.99789243809999
 21
37.5007719539999
 31
0.0
1001
ACAD
1000
RTMaterial
1005
0
  0
LINE
  5
607DE
330
1F
100
AcDbEntity
  8
1
100
AcDbLine
 10
9.028098454299936
 20
36.51249999999993
 30
0.0
 11
2.0
 21
36.51249999999993
 31
0.0
1001
ACAD
1000
RTMaterial
1005
0
  0
LINE
  5
607DF
330
1F
100
AcDbEntity
  8
1
100
AcDbLine
 10
48.99451001349996
 20
36.59999999999997
 30
0.0
 11
51.86755178859994
 21
36.59999999999997
 31
0.0
1001
ACAD
1000
RTMaterial
1005
0
  0
LINE
  5
607E0
330
1F
100
AcDbEntity
  8
1
100
AcDbLine
 10
7.139999999999957
 20
5.349999999999965
 30
0.0
 11
7.139999999999957
 21
-5.350000000000079
 31
0.0
1001
ACAD
1000
RTMaterial
1005
0
  0
LINE
  5
607E1
330
1F
100
AcDbEntity
  8
sk3
100
AcDbLine
 10
5.999999999999971
 20
-16.37499762160007
 30
0.0
 11
5.999999999999971
 21
-6.350000000000079
 31
0.0
1001
ACAD
1000
RTMaterial
1005
0
  0
LINE
  5
607E2
330
1F
100
AcDbEntity
  8
sk3
100
AcDbLine
 10
5.999999999999971
 20
6.349999999999965
 30
0.0
 11
6.0
 21
16.37499762149986
 31
0.0
1001
ACAD
1000
RTMaterial
1005
0
  0
LINE
  5
607E3
330
1F
100
AcDbEntity
  8
1
100
AcDbLine
 10
61.53271046769998
 20
36.50874312139996
 30
0.0
 11
63.43637386899994
 21
30.14418715829987
 31
0.0
1001
ACAD
1000
RTMaterial
1005
0
  0
LINE
  5
607E4
330
1F
100
AcDbEntity
  8
sk3
100
AcDbLine
 10
1.199999999999988
 20
16.37499999999994
 30
0.0
 11
1.19999999999996
 21
6.349999999999965
 31
0.0
1001
ACAD
1000
RTMaterial
1005
0
  0
LINE
  5
607E5
330
1F
100
AcDbEntity
  8
sk3
100
AcDbLine
 10
1.19999999999996
 20
-6.350000000000079
 30
0.0
 11
1.19999999999996
 21
-16.37500000000005
 31
0.0
1001
ACAD
1000
RTMaterial
1005
0
  0
LINE
  5
607E6
330
1F
100
AcDbEntity
  8
1
100
AcDbLine
 10
-0.0000000000000284
 20
-34.51250000000005
 30
0.0
 11
-0.0000000000000284
 21
-7.350000000000079
 31
0.0
1001
ACAD
1000
RTMaterial
1005
0
  0
LINE
  5
607E7
330
1F
100
AcDbEntity
  8
1
100
AcDbLine
 10
-0.0000000000000284
 20
7.349999999999965
 30
0.0
 11
0.0
 21
34.51249999999993
 31
0.0
1001
ACAD
1000
RTMaterial
1005
0
  0
LINE
  5
607E8
330
1F
100
AcDbEntity
  8
nocut
100
AcDbLine
 10
19.46333577820002
 20
32.6890641617
 30
0.0
 11
10.90113142139995
 21
36.14841927280003
 31
0.0
1001
ACAD
1000
RTMaterial
1005
0
  0
LINE
  5
607E9
330
1F
100
AcDbEntity
  8
nocut
100
AcDbLine
 10
0.0
 20
0.0
 30
0.0
 11
0.0
 21
34.51249999999999
 31
0.0
1001
ACAD
1000
RTMaterial
1005
0
  0
LINE
  5
607EA
330
1F
100
AcDbEntity
  8
nocut
100
AcDbLine
 10
46.07079296629996
 20
36.16304755959999
 30
0.0
 11
32.80290174099997
 21
32.10664613379999
 31
0.0
1001
ACAD
1000
RTMaterial
1005
0
  0
LINE
  5
607EB
330
1F
100
AcDbEntity
  8
nocut
100
AcDbLine
 10
9.028098454299993
 20
36.51249999999999
 30
0.0
 11
2.0
 21
36.51249999999999
 31
0.0
1001
ACAD
1000
RTMaterial
1005
0
  0
LINE
  5
607EC
330
1F
100
AcDbEntity
  8
nocut
100
AcDbLine
 10
52.89836821519998
 20
36.60000000000002
 30
0.0
 11
48.99451001350001
 21
36.60000000000002
 31
0.0
1001
ACAD
1000
RTMaterial
1005
0
  0
ARC
  5
607ED
330
1F
100
AcDbEntity
  8
cut
100
AcDbCircle
 10
60.11389173679998
 20
36.59999999999997
 30
0.0
 40
1.5
100
AcDbArc
 50
16.99999999999887
 51
95.33533266130111
1001
ACAD
1000
RTMaterial
1005
0
  0
ARC
  5
607EE
330
1F
100
AcDbEntity
  8
nocut
100
AcDbCircle
 10
59.59970608129999
 20
35.45308061150001
 30
0.0
 40
1.199999999999999
100
AcDbArc
 50
16.43115893249984
 51
94.9871251817006
1001
ACAD
1000
RTMaterial
1005
0
  0
ARC
  5
607EF
330
1F
100
AcDbEntity
  8
nocut
100
AcDbCircle
 10
52.89836821519998
 20
35.80000000000001
 30
0.0
 40
0.8
100
AcDbArc
 50
75.51988534580016
 51
90.0
1001
ACAD
1000
RTMaterial
1005
0
  0
ARC
  5
607F0
330
1F
100
AcDbEntity
  8
nocut
100
AcDbCircle
 10
54.56716466469998
 20
37.02153003199999
 30
0.0
 40
0.8
100
AcDbArc
 50
255.5198853458002
 51
274.9871251817006
1001
ACAD
1000
RTMaterial
1005
0
  0
ARC
  5
607F1
330
1F
100
AcDbEntity
  8
1
100
AcDbCircle
 10
26.95546764649999
 20
51.2327412530999
 30
0.0
 40
20.0
100
AcDbArc
 50
248.0000000000004
 51
287.0000000000002
1001
ACAD
1000
RTMaterial
1005
0
  0
ARC
  5
607F2
330
1F
100
AcDbEntity
  8
1
100
AcDbCircle
 10
26.95546764649995
 20
-51.23274125310013
 30
0.0
 40
20.0
100
AcDbArc
 50
72.99999999999982
 51
111.9999999999996
1001
ACAD
1000
RTMaterial
1005
0
  0
ARC
  5
607F3
330
1F
100
AcDbEntity
  8
sk3
100
AcDbCircle
 10
73.99999999999997
 20
-18.89230957210003
 30
0.0
 40
15.0
100
AcDbArc
 50
180.0
 51
204.4709986590996
1001
ACAD
1000
RTMaterial
1005
0
  0
ARC
  5
607F4
330
1F
100
AcDbEntity
  8
sk3
100
AcDbCircle
 10
73.99999999999997
 20
18.89230957209992
 30
0.0
 40
15.0
100
AcDbArc
 50
170.4253833899008
 51
180.0
1001
ACAD
1000
RTMaterial
1005
0
  0
ARC
  5
607F5
330
1F
100
AcDbEntity
  8
1
100
AcDbCircle
 10
42.47342257019994
 20
36.65891406219993
 30
0.0
 40
13.0
100
AcDbArc
 50
230.4784509913985
 51
266.6073784632992
1001
ACAD
1000
RTMaterial
1005
0
  0
ARC
  5
607F6
330
1F
100
AcDbEntity
  8
1
100
AcDbCircle
 10
54.59172261169999
 20
12.90014119779994
 30
0.0
 40
10.0
100
AcDbArc
 50
78.60737846329934
 51
86.6073784632992
1001
ACAD
1000
RTMaterial
1005
0
  0
ARC
  5
607F7
330
1F
100
AcDbEntity
  8
1
100
AcDbCircle
 10
48.99451001349996
 20
26.59999999999997
 30
0.0
 40
10.0
100
AcDbArc
 50
90.0
 51
107.0000000000002
1001
ACAD
1000
RTMaterial
1005
0
  0
ARC
  5
607F8
330
1F
100
AcDbEntity
  8
1
100
AcDbCircle
 10
48.99451001349993
 20
-26.60000000000008
 30
0.0
 40
10.0
100
AcDbArc
 50
252.9999999999998
 51
270.0
1001
ACAD
1000
RTMaterial
1005
0
  0
ARC
  5
607F9
330
1F
100
AcDbEntity
  8
1
100
AcDbCircle
 10
39.60976484139997
 20
33.18768021639994
 30
0.0
 40
8.5
100
AcDbArc
 50
221.5122195291988
 51
230.4784509913985
1001
ACAD
1000
RTMaterial
1005
0
  0
ARC
  5
607FA
330
1F
100
AcDbEntity
  8
1
100
AcDbCircle
 10
9.028098454299936
 20
31.51249999999993
 30
0.0
 40
5.0
100
AcDbArc
 50
68.00000000000039
 51
90.0
1001
ACAD
1000
RTMaterial
1005
0
  0
ARC
  5
607FB
330
1F
100
AcDbEntity
  8
1
100
AcDbCircle
 10
9.028098454299907
 20
-31.51250000000004
 30
0.0
 40
5.0
100
AcDbArc
 50
270.0
 51
291.9999999999996
1001
ACAD
1000
RTMaterial
1005
0
  0
ARC
  5
607FC
102
{ACAD_REACTORS
330
60937
330
609B5
102
}
330
1F
100
AcDbEntity
  8
1
100
AcDbCircle
 10
2.0
 20
34.51249999999993
 30
0.0
 40
2.0
100
AcDbArc
 50
90.0
 51
180.0
1001
ACAD
1000
RTMaterial
1005
0
  0
ARC
  5
607FD
102
{ACAD_REACTORS
330
60937
330
6094F
102
}
330
1F
100
AcDbEntity
  8
1
100
AcDbCircle
 10
1.999999999999971
 20
-34.51250000000005
 30
0.0
 40
2.0
100
AcDbArc
 50
180.0
 51
270.0
1001
ACAD
1000
RTMaterial
1005
0
  0
ARC
  5
607FE
330
1F
100
AcDbEntity
  8
1
100
AcDbCircle
 10
59.59970608129996
 20
-35.45308061150007
 30
0.0
 40
1.199999999999999
100
AcDbArc
 50
265.0128748182994
 51
343.5688410675002
1001
ACAD
1000
RTMaterial
1005
0
  0
ARC
  5
607FF
330
1F
100
AcDbEntity
  8
sk3
100
AcDbCircle
 10
31.19999999999999
 20
15.69999999999993
 30
0.0
 40
0.8
100
AcDbArc
 50
0.0
 51
90.0
1001
ACAD
1000
RTMaterial
1005
0
  0
ARC
  5
60800
330
1F
100
AcDbEntity
  8
sk3
100
AcDbCircle
 10
31.19999999999999
 20
-15.70000000000004
 30
0.0
 40
0.8
100
AcDbArc
 50
270.0
 51
0.0
1001
ACAD
1000
RTMaterial
1005
0
  0
ARC
  5
60801
330
1F
100
AcDbEntity
  8
sk3
100
AcDbCircle
 10
18.17735573009995
 20
-15.70000000000004
 30
0.0
 40
0.8
100
AcDbArc
 50
245.0000000000003
 51
270.0
1001
ACAD
1000
RTMaterial
1005
0
  0
ARC
  5
60802
330
1F
100
AcDbEntity
  8
sk3
100
AcDbCircle
 10
18.17735573009997
 20
15.69999999999993
 30
0.0
 40
0.8
100
AcDbArc
 50
90.0
 51
114.9999999999996
1001
ACAD
1000
RTMaterial
1005
0
  0
ARC
  5
60803
330
1F
100
AcDbEntity
  8
1
100
AcDbCircle
 10
52.89836821519995
 20
-35.80000000000007
 30
0.0
 40
0.8
100
AcDbArc
 50
270.0
 51
284.4801146541998
1001
ACAD
1000
RTMaterial
1005
0
  0
ARC
  5
60804
330
1F
100
AcDbEntity
  8
1
100
AcDbCircle
 10
54.56716466469996
 20
-37.0215300320001
 30
0.0
 40
0.8
100
AcDbArc
 50
85.01287481829939
 51
104.4801146541998
1001
ACAD
1000
RTMaterial
1005
0
  0
ARC
  5
60805
330
1F
100
AcDbEntity
  8
sk3
100
AcDbCircle
 10
40.39999999999994
 20
-12.60000000000008
 30
0.0
 40
0.4
100
AcDbArc
 50
180.0
 51
270.0
1001
ACAD
1000
RTMaterial
1005
0
  0
ARC
  5
60806
330
1F
100
AcDbEntity
  8
sk3
100
AcDbCircle
 10
40.39999999999998
 20
12.59999999999996
 30
0.0
 40
0.4
100
AcDbArc
 50
90.0
 51
180.0
1001
ACAD
1000
RTMaterial
1005
0
  0
ARC
  5
60807
330
1F
100
AcDbEntity
  8
sk3
100
AcDbCircle
 10
32.39999999999998
 20
-8.900000000000034
 30
0.0
 40
0.4
100
AcDbArc
 50
90.0
 51
180.0
1001
ACAD
1000
RTMaterial
1005
0
  0
ARC
  5
60808
330
1F
100
AcDbEntity
  8
sk3
100
AcDbCircle
 10
32.39999999999998
 20
8.89999999999992
 30
0.0
 40
0.4
100
AcDbArc
 50
180.0
 51
270.0
1001
ACAD
1000
RTMaterial
1005
0
  0
ARC
  5
60809
330
1F
100
AcDbEntity
  8
nocut
100
AcDbCircle
 10
26.95546764650004
 20
51.23274125309996
 30
0.0
 40
20.0
100
AcDbArc
 50
248.0000000000004
 51
287.0000000000002
1001
ACAD
1000
RTMaterial
1005
0
  0
ARC
  5
6080A
330
1F
100
AcDbEntity
  8
nocut
100
AcDbCircle
 10
48.99451001350001
 20
26.60000000000002
 30
0.0
 40
10.0
100
AcDbArc
 50
90.0
 51
107.0000000000002
1001
ACAD
1000
RTMaterial
1005
0
  0
ARC
  5
6080B
330
1F
100
AcDbEntity
  8
nocut
100
AcDbCircle
 10
9.028098454299993
 20
31.51249999999999
 30
0.0
 40
5.0
100
AcDbArc
 50
68.00000000000044
 51
90.0
1001
ACAD
1000
RTMaterial
1005
0
  0
ARC
  5
6080C
330
1F
100
AcDbEntity
  8
nocut
100
AcDbCircle
 10
2.0
 20
34.51249999999999
 30
0.0
 40
2.0
100
AcDbArc
 50
90.0
 51
180.0
1001
ACAD
1000
RTMaterial
1005
0
  0
SPLINE
  5
6080D
330
1F
100
AcDbEntity
  8
cut
100
AcDbSpline
210
0.0
220
0.0
230
1.0
 70
     8
 71
     3
 72
    22
 73
    18
 74
     0
 42
0.0000000001
 43
0.0000000001
 40
0.0
 40
0.0
 40
0.0
 40
0.0
 40
0.0666666667
 40
0.1333333333
 40
0.2
 40
0.2666666667
 40
0.3333333333
 40
0.4
 40
0.4666666667000001
 40
0.5333333333
 40
0.6
 40
0.6666666667
 40
0.7333333333
 40
0.8
 40
0.8666666667000001
 40
0.9333333333
 40
1.0
 40
1.0
 40
1.0
 40
1.0
 10
63.47384048889998
 20
29.12352037469998
 30
0.0
 10
63.47543857349993
 20
29.15162778679997
 30
0.0
 10
63.47848044639997
 20
29.20735566669993
 30
0.0
 10
63.48254018119994
 20
29.28851025539996
 30
0.0
 10
63.48626014599997
 20
29.3701543782999
 30
0.0
 10
63.48969429749999
 20
29.45431966849992
 30
0.0
 10
63.49287311769993
 20
29.54290839459992
 30
0.0
 10
63.49569643959998
 20
29.63455877479987
 30
0.0
 10
63.49809824679991
 20
29.72814019079988
 30
0.0
 10
63.50003925849993
 20
29.82244159449994
 30
0.0
 10
63.50149764219995
 20
29.91634778639991
 30
0.0
 10
63.50245862449995
 20
30.00851030679996
 30
0.0
 10
63.50292858479995
 20
30.09775307449991
 30
0.0
 10
63.50294665999999
 20
30.1825991062999
 30
0.0
 10
63.50256796569997
 20
30.26491902689986
 30
0.0
 10
63.50181652639995
 20
30.3466624516999
 30
0.0
 10
63.50104374289995
 20
30.40295722529993
 30
0.0
 10
63.50058650509996
 20
30.43137236649989
 30
0.0
1001
ACAD
1000
RTMaterial
1005
0
  0
SPLINE
  5
6080E
330
1F
100
AcDbEntity
  8
cut
100
AcDbSpline
210
0.0
220
0.0
230
1.0
 70
     8
 71
     3
 72
    11
 73
     7
 74
     0
 42
0.0000000001
 43
0.0000000001
 40
0.0
 40
0.0
 40
0.0
 40
0.0
 40
0.25
 40
0.5
 40
0.75
 40
1.0
 40
1.0
 40
1.0
 40
1.0
 10
63.50000023459998
 20
30.46456969769991
 30
0.0
 10
63.49923314469996
 20
30.50043459559993
 30
0.0
 10
63.49532418119995
 20
30.57090358159991
 30
0.0
 10
63.48193963689997
 20
30.67334052329989
 30
0.0
 10
63.46231182319994
 20
30.77096512989994
 30
0.0
 10
63.44556327279994
 20
30.83289136489992
 30
0.0
 10
63.43637431679994
 20
30.86310458309993
 30
0.0
1001
ACAD
1000
RTMaterial
1005
0
  0
LINE
  5
6080F
330
1F
100
AcDbEntity
  8
cut
100
AcDbLine
 10
63.50058650509996
 20
30.43137236649989
 30
0.0
 11
63.50000023459998
 21
30.46456969769991
 31
0.0
1001
ACAD
1000
RTMaterial
1005
0
  0
SPLINE
  5
60810
330
1F
100
AcDbEntity
  8
cut
100
AcDbSpline
210
0.0
220
0.0
230
1.0
 70
     8
 71
     3
 72
    11
 73
     7
 74
     0
 42
0.0000000001
 43
0.0000000001
 40
0.0
 40
0.0
 40
0.0
 40
0.0
 40
0.25
 40
0.5
 40
0.75
 40
1.0
 40
1.0
 40
1.0
 40
1.0
 10
56.24838147419996
 20
37.74553001179993
 30
0.0
 10
56.16717542009997
 20
37.73808013429994
 30
0.0
 10
55.99447261239999
 20
37.72289865049987
 30
0.0
 10
55.70309949529996
 20
37.69998871009989
 30
0.0
 10
55.38344146229997
 20
37.6781381191999
 30
0.0
 10
55.15012178989997
 20
37.66484985429992
 30
0.0
 10
55.02850851789998
 20
37.65873348349993
 30
0.0
1001
ACAD
1000
RTMaterial
1005
0
  0
SPLINE
  5
60811
330
1F
100
AcDbEntity
  8
cut
100
AcDbSpline
210
0.0
220
0.0
230
1.0
 70
     8
 71
     3
 72
    10
 73
     6
 74
     0
 42
0.0000000001
 43
0.0000000001
 40
0.0
 40
0.0
 40
0.0
 40
0.0
 40
0.3333333333
 40
0.6666666667
 40
1.0
 40
1.0
 40
1.0
 40
1.0
 10
55.02850851789998
 20
37.65873348349993
 30
0.0
 10
54.99727832799999
 20
37.65644581049992
 30
0.0
 10
54.93659523989999
 20
37.64941686619989
 30
0.0
 10
54.85030599899999
 20
37.63226527369989
 30
0.0
 10
54.79697084209999
 20
37.6170478311999
 30
0.0
 10
54.7712139848
 20
37.60859568109993
 30
0.0
1001
ACAD
1000
RTMaterial
1005
0
  0
SPLINE
  5
60812
330
1F
100
AcDbEntity
  8
cut
100
AcDbSpline
210
0.0
220
0.0
230
1.0
 70
     8
 71
     3
 72
    10
 73
     6
 74
     0
 42
0.0000000001
 43
0.0000000001
 40
0.0
 40
0.0
 40
0.0
 40
0.0
 40
0.3333333333
 40
0.6666666667
 40
1.0
 40
1.0
 40
1.0
 40
1.0
 10
54.7712139848
 20
37.60859568109993
 30
0.0
 10
54.76218789799998
 20
37.60563375769988
 30
0.0
 10
54.74429113989998
 20
37.59935342759991
 30
0.0
 10
54.71788279509997
 20
37.58883390799991
 30
0.0
 10
54.70063622509997
 20
37.58112026269993
 30
0.0
 10
54.69209503649995
 20
37.5770898525999
 30
0.0
1001
ACAD
1000
RTMaterial
1005
0
  0
SPLINE
  5
60813
330
1F
100
AcDbEntity
  8
cut
100
AcDbSpline
210
0.0
220
0.0
230
1.0
 70
     8
 71
     3
 72
    22
 73
    18
 74
     0
 42
0.0000000001
 43
0.0000000001
 40
0.0
 40
0.0
 40
0.0
 40
0.0
 40
0.0666666667
 40
0.1333333333
 40
0.2
 40
0.2666666667
 40
0.3333333333
 40
0.4
 40
0.4666666667000001
 40
0.5333333333
 40
0.6
 40
0.6666666667
 40
0.7333333333
 40
0.8
 40
0.8666666667000001
 40
0.9333333333
 40
1.0
 40
1.0
 40
1.0
 40
1.0
 10
54.69209503649995
 20
37.5770898525999
 30
0.0
 10
54.66765639089999
 20
37.56555776149986
 30
0.0
 10
54.61926157449994
 20
37.54258843659989
 30
0.0
 10
54.54896404980002
 20
37.50883238779994
 30
0.0
 10
54.47840474559995
 20
37.47456522959993
 30
0.0
 10
54.40584415269995
 20
37.43890026569995
 30
0.0
 10
54.32965746230002
 20
37.40098800169994
 30
0.0
 10
54.25104251639999
 20
37.36136958949993
 30
0.0
 10
54.17098663619999
 20
37.32050903909988
 30
0.0
 10
54.09053481069998
 20
37.27893103579987
 30
0.0
 10
54.0106391942
 20
37.23712884079987
 30
0.0
 10
53.93244368789999
 20
37.19570695829987
 30
0.0
 10
53.85693849609999
 20
37.15520918819994
 30
0.0
 10
53.78535229649997
 20
37.11634490529991
 30
0.0
 10
53.71608033039996
 20
37.07830253109995
 30
0.0
 10
53.64746567739996
 20
37.04020854199991
 30
0.0
 10
53.60032865059998
 20
37.01375759389993
 30
0.0
 10
53.57656661949994
 20
37.00034937539994
 30
0.0
1001
ACAD
1000
RTMaterial
1005
0
  0
SPLINE
  5
60814
330
1F
100
AcDbEntity
  8
cut
100
AcDbSpline
210
0.0
220
0.0
230
1.0
 70
     8
 71
     3
 72
    11
 73
     7
 74
     0
 42
0.0000000001
 43
0.0000000001
 40
0.0
 40
0.0
 40
0.0
 40
0.0
 40
0.25
 40
0.5
 40
0.75
 40
1.0
 40
1.0
 40
1.0
 40
1.0
 10
53.54884158419998
 20
36.98464286289993
 30
0.0
 10
53.52126802989999
 20
36.96896296539995
 30
0.0
 10
53.46680217250002
 20
36.93538981109993
 30
0.0
 10
53.38662163599997
 20
36.87768210749994
 30
0.0
 10
53.31000178439996
 20
36.81392998609994
 30
0.0
 10
53.2610890107
 20
36.76726711099991
 30
0.0
 10
53.23723186559999
 20
36.74286692069995
 30
0.0
1001
ACAD
1000
RTMaterial
1005
0
  0
LINE
  5
60815
330
1F
100
AcDbEntity
  8
cut
100
AcDbLine
 10
53.57656661949994
 20
37.00034937539994
 30
0.0
 11
53.54884158419998
 21
36.98464286289993
 31
0.0
1001
ACAD
1000
RTMaterial
1005
0
  0
SPLINE
  5
60816
330
1F
100
AcDbEntity
  8
cut
100
AcDbSpline
210
0.0
220
0.0
230
1.0
 70
     8
 71
     3
 72
    21
 73
    17
 74
     0
 42
0.0000000001
 43
0.0000000001
 40
0.0
 40
0.0
 40
0.0
 40
0.0
 40
0.0714285714
 40
0.1428571429
 40
0.2142857143
 40
0.2857142857
 40
0.3571428571
 40
0.4285714286
 40
0.5
 40
0.5714285714000001
 40
0.6428571429
 40
0.7142857143000001
 40
0.7857142857
 40
0.8571428570999998
 40
0.9285714285999999
 40
1.0
 40
1.0
 40
1.0
 40
1.0
 10
53.23723186559999
 20
36.74286692069995
 30
0.0
 10
53.17861014449994
 20
36.6829108300999
 30
0.0
 10
53.05630493299998
 20
36.55785039869988
 30
0.0
 10
52.85848256139996
 20
36.35568491379991
 30
0.0
 10
52.64377342669996
 20
36.13639346409991
 30
0.0
 10
52.4109832437
 20
35.89879363819995
 30
0.0
 10
52.15887598359995
 20
35.64166761999997
 30
0.0
 10
51.88641569129998
 20
35.3640094125999
 30
0.0
 10
51.5905156064
 20
35.06273736969996
 30
0.0
 10
51.26966483579997
 20
34.73639121589992
 30
0.0
 10
50.92192077359993
 20
34.38308902469993
 30
0.0
 10
50.54541259230001
 20
34.00104459009987
 30
0.0
 10
50.13825927039994
 20
33.58848714689987
 30
0.0
 10
49.69850713019997
 20
33.14360396019992
 30
0.0
 10
49.22446610989999
 20
32.66488530589993
 30
0.0
 10
48.8837800892
 20
32.3215290414999
 30
0.0
 10
48.70739137969997
 20
32.14396685349993
 30
0.0
1001
ACAD
1000
RTMaterial
1005
0
  0
SPLINE
  5
60817
330
1F
100
AcDbEntity
  8
cut
100
AcDbSpline
210
0.0
220
0.0
230
1.0
 70
     8
 71
     3
 72
    15
 73
    11
 74
     0
 42
0.0000000001
 43
0.0000000001
 40
0.0
 40
0.0
 40
0.0
 40
0.0
 40
0.125
 40
0.25
 40
0.375
 40
0.5
 40
0.625
 40
0.75
 40
0.875
 40
1.0
 40
1.0
 40
1.0
 40
1.0
 10
48.70739137969997
 20
32.14396685349993
 30
0.0
 10
48.67985080899996
 20
32.11624306099992
 30
0.0
 10
48.62703140799999
 20
32.05831623749992
 30
0.0
 10
48.55397353419999
 20
31.9627225372999
 30
0.0
 10
48.48950490379997
 20
31.86165006449988
 30
0.0
 10
48.43319510279997
 20
31.75440432909989
 30
0.0
 10
48.38594524669997
 20
31.64210117409988
 30
0.0
 10
48.3480296587
 20
31.52592491029992
 30
0.0
 10
48.31954768109994
 20
31.40569539739994
 30
0.0
 10
48.30728950849999
 20
31.32429514689988
 30
0.0
 10
48.30283569309995
 20
31.28315876329987
 30
0.0
1001
ACAD
1000
RTMaterial
1005
0
  0
LINE
  5
60818
330
1F
100
AcDbEntity
  8
cut
100
AcDbLine
 10
48.30283569309995
 20
31.28315876329987
 30
0.0
 11
48.29980660149999
 21
31.25218573439986
 31
0.0
1001
ACAD
1000
RTMaterial
1005
0
  0
LINE
  5
60819
330
1F
100
AcDbEntity
  8
cut
100
AcDbLine
 10
48.29980660149999
 20
31.25218573439986
 30
0.0
 11
48.29850311519994
 21
31.2206836769999
 31
0.0
1001
ACAD
1000
RTMaterial
1005
0
  0
SPLINE
  5
6081A
330
1F
100
AcDbEntity
  8
cut
100
AcDbSpline
210
0.0
220
0.0
230
1.0
 70
     8
 71
     3
 72
    10
 73
     6
 74
     0
 42
0.0000000001
 43
0.0000000001
 40
0.0
 40
0.0
 40
0.0
 40
0.0
 40
0.3333333333
 40
0.6666666667
 40
1.0
 40
1.0
 40
1.0
 40
1.0
 10
48.29850311519994
 20
31.2206836769999
 30
0.0
 10
48.2976538085
 20
31.19316042469995
 30
0.0
 10
48.29749291410002
 20
31.13842079659992
 30
0.0
 10
48.30166347219995
 20
31.05695687349993
 30
0.0
 10
48.30733635249998
 20
31.00364193009989
 30
0.0
 10
48.31086566739998
 20
30.97718145539995
 30
0.0
1001
ACAD
1000
RTMaterial
1005
0
  0
SPLINE
  5
6081B
330
1F
100
AcDbEntity
  8
cut
100
AcDbSpline
210
0.0
220
0.0
230
1.0
 70
     8
 71
     3
 72
    15
 73
    11
 74
     0
 42
0.0000000001
 43
0.0000000001
 40
0.0
 40
0.0
 40
0.0
 40
0.0
 40
0.125
 40
0.25
 40
0.375
 40
0.5
 40
0.625
 40
0.75
 40
0.875
 40
1.0
 40
1.0
 40
1.0
 40
1.0
 10
48.31086566739998
 20
30.97718145539995
 30
0.0
 10
48.31472989119999
 20
30.94821005419993
 30
0.0
 10
48.32418445159999
 20
30.89058315099993
 30
0.0
 10
48.34380645269994
 20
30.80451659649987
 30
0.0
 10
48.36861944999998
 20
30.72061692499995
 30
0.0
 10
48.39867824969997
 20
30.63783517589991
 30
0.0
 10
48.43401555999998
 20
30.55690804709991
 30
0.0
 10
48.47494322149998
 20
30.47771121019991
 30
0.0
 10
48.52142776599999
 20
30.4004683039999
 30
0.0
 10
48.55593767469997
 20
30.35075207939991
 30
0.0
 10
48.57413048299997
 20
30.32633061079986
 30
0.0
1001
ACAD
1000
RTMaterial
1005
0
  0
SPLINE
  5
6081C
330
1F
100
AcDbEntity
  8
cut
100
AcDbSpline
210
0.0
220
0.0
230
1.0
 70
     8
 71
     3
 72
    17
 73
    13
 74
     0
 42
0.0000000001
 43
0.0000000001
 40
0.0
 40
0.0
 40
0.0
 40
0.0
 40
0.1
 40
0.2
 40
0.3
 40
0.4
 40
0.5
 40
0.6
 40
0.7
 40
0.8
 40
0.9
 40
1.0
 40
1.0
 40
1.0
 40
1.0
 10
48.57413048299997
 20
30.32633061079986
 30
0.0
 10
48.62399046659999
 20
30.25940009609997
 30
0.0
 10
48.72810607079998
 20
30.1196550704999
 30
0.0
 10
48.89723523399999
 20
29.89270549439988
 30
0.0
 10
49.08003627879998
 20
29.64748091149989
 30
0.0
 10
49.27604044219998
 20
29.3846285100999
 30
0.0
 10
49.48757435629994
 20
29.10104873189988
 30
0.0
 10
49.71536862719995
 20
28.79579000239994
 30
0.0
 10
49.96061407359997
 20
28.46728788019987
 30
0.0
 10
50.22440072109998
 20
28.11412059059989
 30
0.0
 10
50.50765846359997
 20
27.73508902219993
 30
0.0
 10
50.71049698789995
 20
27.46383149089991
 30
0.0
 10
50.81533796629997
 20
27.32367582579986
 30
0.0
1001
ACAD
1000
RTMaterial
1005
0
  0
SPLINE
  5
6081D
330
1F
100
AcDbEntity
  8
cut
100
AcDbSpline
210
0.0
220
0.0
230
1.0
 70
     8
 71
     3
 72
    11
 73
     7
 74
     0
 42
0.0000000001
 43
0.0000000001
 40
0.0
 40
0.0
 40
0.0
 40
0.0
 40
0.25
 40
0.5
 40
0.75
 40
1.0
 40
1.0
 40
1.0
 40
1.0
 10
50.81533796629997
 20
27.32367582579986
 30
0.0
 10
50.86399729289997
 20
27.25862606779993
 30
0.0
 10
50.96744490759999
 20
27.1207505633999
 30
0.0
 10
51.14207573409998
 20
26.88972787619992
 30
0.0
 10
51.33401936370001
 20
26.63794088309993
 30
0.0
 10
51.47456577609995
 20
26.45535594729989
 30
0.0
 10
51.54799208899999
 20
26.36052812789996
 30
0.0
1001
ACAD
1000
RTMaterial
1005
0
  0
SPLINE
  5
6081E
330
1F
100
AcDbEntity
  8
cut
100
AcDbSpline
210
0.0
220
0.0
230
1.0
 70
     8
 71
     3
 72
    10
 73
     6
 74
     0
 42
0.0000000001
 43
0.0000000001
 40
0.0
 40
0.0
 40
0.0
 40
0.0
 40
0.3333333333
 40
0.6666666667
 40
1.0
 40
1.0
 40
1.0
 40
1.0
 10
51.54799208899999
 20
26.36052812789996
 30
0.0
 10
51.56727415699998
 20
26.33683110119989
 30
0.0
 10
51.60707708299998
 20
26.29179439159992
 30
0.0
 10
51.67040046609997
 20
26.23054906469997
 30
0.0
 10
51.71406693279999
 20
26.19450690689991
 30
0.0
 10
51.73627815449998
 20
26.17754923029992
 30
0.0
1001
ACAD
1000
RTMaterial
1005
0
  0
SPLINE
  5
6081F
330
1F
100
AcDbEntity
  8
cut
100
AcDbSpline
210
0.0
220
0.0
230
1.0
 70
     8
 71
     3
 72
    10
 73
     6
 74
     0
 42
0.0000000001
 43
0.0000000001
 40
0.0
 40
0.0
 40
0.0
 40
0.0
 40
0.3333333333
 40
0.6666666667
 40
1.0
 40
1.0
 40
1.0
 40
1.0
 10
51.73627815449998
 20
26.17754923029992
 30
0.0
 10
51.74389108669998
 20
26.17173695919991
 30
0.0
 10
51.75938004639999
 20
26.16037006429997
 30
0.0
 10
51.78344894759999
 20
26.14409947209992
 30
0.0
 10
51.80000189789996
 20
26.13381413809992
 30
0.0
 10
51.80840894259995
 20
26.12880782779991
 30
0.0
1001
ACAD
1000
RTMaterial
1005
0
  0
SPLINE
  5
60820
330
1F
100
AcDbEntity
  8
cut
100
AcDbSpline
210
0.0
220
0.0
230
1.0
 70
     8
 71
     3
 72
    22
 73
    18
 74
     0
 42
0.0000000001
 43
0.0000000001
 40
0.0
 40
0.0
 40
0.0
 40
0.0
 40
0.0666666667
 40
0.1333333333
 40
0.2
 40
0.2666666667
 40
0.3333333333
 40
0.4
 40
0.4666666667000001
 40
0.5333333333
 40
0.6
 40
0.6666666667
 40
0.7333333333
 40
0.8
 40
0.8666666667000001
 40
0.9333333333
 40
1.0
 40
1.0
 40
1.0
 40
1.0
 10
51.80840894259995
 20
26.12880782779991
 30
0.0
 10
51.83237155339998
 20
26.11453833499997
 30
0.0
 10
51.87993791349999
 20
26.08635416189986
 30
0.0
 10
51.94937383449996
 20
26.04562498099995
 30
0.0
 10
52.01938737649999
 20
26.00496159839992
 30
0.0
 10
52.09173941149998
 20
25.96338301819992
 30
0.0
 10
52.16808521829995
 20
25.9199899887999
 30
0.0
 10
52.24727397699997
 20
25.87549260269992
 30
0.0
 10
52.32834271079997
 20
25.8304654765999
 30
0.0
 10
52.41024831609997
 20
25.7854966477999
 30
0.0
 10
52.49202047239998
 20
25.74111731479991
 30
0.0
 10
52.57247982109999
 20
25.69796010429997
 30
0.0
 10
52.65058981329997
 20
25.6565599070999
 30
0.0
 10
52.72503490929995
 20
25.61756262039995
 30
0.0
 10
52.79743479929994
 20
25.58006057649988
 30
0.0
 10
52.8694917816
 20
25.5431365222999
 30
0.0
 10
52.91923035909997
 20
25.5179206247999
 30
0.0
 10
52.94436606729999
 20
25.50524885259989
 30
0.0
1001
ACAD
1000
RTMaterial
1005
0
  0
LINE
  5
60821
330
1F
100
AcDbEntity
  8
cut
100
AcDbLine
 10
52.94436606729999
 20
25.50524885259989
 30
0.0
 11
52.97380764000002
 21
25.49038993459993
 31
0.0
1001
ACAD
1000
RTMaterial
1005
0
  0
SPLINE
  5
60822
330
1F
100
AcDbEntity
  8
cut
100
AcDbSpline
210
0.0
220
0.0
230
1.0
 70
     8
 71
     3
 72
    10
 73
     6
 74
     0
 42
0.0000000001
 43
0.0000000001
 40
0.0
 40
0.0
 40
0.0
 40
0.0
 40
0.3333333333
 40
0.6666666667
 40
1.0
 40
1.0
 40
1.0
 40
1.0
 10
52.97380764000002
 20
25.49038993459993
 30
0.0
 10
53.01421187619997
 20
25.46997256909993
 30
0.0
 10
53.09635792069997
 20
25.43215437129993
 30
0.0
 10
53.2242142673
 20
25.38414747909991
 30
0.0
 10
53.31116365929995
 20
25.35835641249992
 30
0.0
 10
53.3551892328
 20
25.34701174919991
 30
0.0
1001
ACAD
1000
RTMaterial
1005
0
  0
SPLINE
  5
60823
330
1F
100
AcDbEntity
  8
cut
100
AcDbSpline
210
0.0
220
0.0
230
1.0
 70
     8
 71
     3
 72
    21
 73
    17
 74
     0
 42
0.0000000001
 43
0.0000000001
 40
0.0
 40
0.0
 40
0.0
 40
0.0
 40
0.0714285714
 40
0.1428571429
 40
0.2142857143
 40
0.2857142857
 40
0.3571428571
 40
0.4285714286
 40
0.5
 40
0.5714285714000001
 40
0.6428571429
 40
0.7142857143000001
 40
0.7857142857
 40
0.8571428570999998
 40
0.9285714285999999
 40
1.0
 40
1.0
 40
1.0
 40
1.0
 10
53.3551892328
 20
25.34701174919991
 30
0.0
 10
53.43913052889996
 20
25.32538146329989
 30
0.0
 10
53.61460564699996
 20
25.28016585439991
 30
0.0
 10
53.89958754819997
 20
25.20673396499996
 30
0.0
 10
54.20936204049997
 20
25.12691711799988
 30
0.0
 10
54.54529226429997
 20
25.04036435799992
 30
0.0
 10
54.90858571119997
 20
24.94676558979989
 30
0.0
 10
55.30048529480001
 20
24.84580187719996
 30
0.0
 10
55.7249061183
 20
24.73646534099993
 30
0.0
 10
56.18355600209998
 20
24.61831789769991
 30
0.0
 10
56.67877036250001
 20
24.49075980749995
 30
0.0
 10
57.21274695579996
 20
24.35322687679997
 30
0.0
 10
57.78769033189997
 20
24.20515365879993
 30
0.0
 10
58.40586653949998
 20
24.04595946239993
 30
0.0
 10
59.06919932279999
 20
23.87515224939989
 30
0.0
 10
59.54361271769994
 20
23.75300386349994
 30
0.0
 10
59.7886935939
 20
23.68990588569994
 30
0.0
1001
ACAD
1000
RTMaterial
1005
0
  0
SPLINE
  5
60824
330
1F
100
AcDbEntity
  8
cut
100
AcDbSpline
210
0.0
220
0.0
230
1.0
 70
     8
 71
     3
 72
    15
 73
    11
 74
     0
 42
0.0000000001
 43
0.0000000001
 40
0.0
 40
0.0
 40
0.0
 40
0.0
 40
0.125
 40
0.25
 40
0.375
 40
0.5
 40
0.625
 40
0.75
 40
0.875
 40
1.0
 40
1.0
 40
1.0
 40
1.0
 10
59.7886935939
 20
23.68990588569994
 30
0.0
 10
59.83253143419995
 20
23.67861949269991
 30
0.0
 10
59.91937464239999
 20
23.65943885539997
 30
0.0
 10
60.04811211169999
 20
23.6404139711999
 30
0.0
 10
60.17204992759997
 20
23.63101728359993
 30
0.0
 10
60.29219234829998
 20
23.63085387849992
 30
0.0
 10
60.40715252309997
 20
23.63947439159989
 30
0.0
 10
60.51678748299997
 20
23.65616025769992
 30
0.0
 10
60.6208781894
 20
23.68041258499994
 30
0.0
 10
60.68570748289994
 20
23.70101253809992
 30
0.0
 10
60.71710647599997
 20
23.71232461129989
 30
0.0
1001
ACAD
1000
RTMaterial
1005
0
  0
SPLINE
  5
60825
330
1F
100
AcDbEntity
  8
cut
100
AcDbSpline
210
0.0
220
0.0
230
1.0
 70
     8
 71
     3
 72
    10
 73
     6
 74
     0
 42
0.0000000001
 43
0.0000000001
 40
0.0
 40
0.0
 40
0.0
 40
0.0
 40
0.3333333333
 40
0.6666666667
 40
1.0
 40
1.0
 40
1.0
 40
1.0
 10
60.71710647599997
 20
23.71232461129989
 30
0.0
 10
60.72316742509997
 20
23.71450818129989
 30
0.0
 10
60.73515708469995
 20
23.71901005029991
 30
0.0
 10
60.75275355090003
 20
23.72616914209993
 30
0.0
 10
60.76421214019996
 20
23.73119831449992
 30
0.0
 10
60.76987613169996
 20
23.73377458319993
 30
0.0
1001
ACAD
1000
RTMaterial
1005
0
  0
SPLINE
  5
60826
330
1F
100
AcDbEntity
  8
cut
100
AcDbSpline
210
0.0
220
0.0
230
1.0
 70
     8
 71
     3
 72
    10
 73
     6
 74
     0
 42
0.0000000001
 43
0.0000000001
 40
0.0
 40
0.0
 40
0.0
 40
0.0
 40
0.3333333333
 40
0.6666666667
 40
1.0
 40
1.0
 40
1.0
 40
1.0
 10
60.76987613169996
 20
23.73377458319993
 30
0.0
 10
60.79289018319997
 20
23.74424253299992
 30
0.0
 10
60.83750195599998
 20
23.76622175389991
 30
0.0
 10
60.900572028
 20
23.8021244814999
 30
0.0
 10
60.93960469109998
 20
23.82763127999993
 30
0.0
 10
60.95844612399997
 20
23.8407505461999
 30
0.0
1001
ACAD
1000
RTMaterial
1005
0
  0
SPLINE
  5
60827
330
1F
100
AcDbEntity
  8
cut
100
AcDbSpline
210
0.0
220
0.0
230
1.0
 70
     8
 71
     3
 72
    15
 73
    11
 74
     0
 42
0.0000000001
 43
0.0000000001
 40
0.0
 40
0.0
 40
0.0
 40
0.0
 40
0.125
 40
0.25
 40
0.375
 40
0.5
 40
0.625
 40
0.75
 40
0.875
 40
1.0
 40
1.0
 40
1.0
 40
1.0
 10
60.95844612399997
 20
23.8407505461999
 30
0.0
 10
60.98052606329997
 20
23.85612478029992
 30
0.0
 10
61.02348513639999
 20
23.88842806029993
 30
0.0
 10
61.08478147839997
 20
23.94199739749996
 30
0.0
 10
61.1415126709
 20
23.99939215229989
 30
0.0
 10
61.19449806019997
 20
24.06076020849992
 30
0.0
 10
61.24323192359998
 20
24.12559996919993
 30
0.0
 10
61.28780418129998
 20
24.19383348549991
 30
0.0
 10
61.32835336949995
 20
24.26518660679994
 30
0.0
 10
61.35273578899995
 20
24.31473909829987
 30
0.0
 10
61.36426485989995
 20
24.34001786859994
 30
0.0
1001
ACAD
1000
RTMaterial
1005
0
  0
SPLINE
  5
60828
330
1F
100
AcDbEntity
  8
cut
100
AcDbSpline
210
0.0
220
0.0
230
1.0
 70
     8
 71
     3
 72
    16
 73
    12
 74
     0
 42
0.0000000001
 43
0.0000000001
 40
0.0
 40
0.0
 40
0.0
 40
0.0
 40
0.1111111111
 40
0.2222222222
 40
0.3333333333
 40
0.4444444444000001
 40
0.5555555556
 40
0.6666666667
 40
0.7777777778
 40
0.8888888889
 40
1.0
 40
1.0
 40
1.0
 40
1.0
 10
61.36426485989995
 20
24.34001786859994
 30
0.0
 10
61.40142796300001
 20
24.42150210559993
 30
0.0
 10
61.47945978839999
 20
24.59268540469998
 30
0.0
 10
61.6074919316
 20
24.87387995319995
 30
0.0
 10
61.74680144659999
 20
25.18021634039997
 30
0.0
 10
61.89773977250002
 20
25.51254610039996
 30
0.0
 10
62.06199617499999
 20
25.87467812789993
 30
0.0
 10
62.24031276629995
 20
26.26835176639992
 30
0.0
 10
62.43375639679991
 20
26.69603211509991
 30
0.0
 10
62.64312546959994
 20
27.15960391289997
 30
0.0
 10
62.79422482909999
 20
27.49466541879991
 30
0.0
 10
62.87256837879997
 20
27.66853064749995
 30
0.0
1001
ACAD
1000
RTMaterial
1005
0
  0
SPLINE
  5
60829
330
1F
100
AcDbEntity
  8
cut
100
AcDbSpline
210
0.0
220
0.0
230
1.0
 70
     8
 71
     3
 72
    11
 73
     7
 74
     0
 42
0.0000000001
 43
0.0000000001
 40
0.0
 40
0.0
 40
0.0
 40
0.0
 40
0.25
 40
0.5
 40
0.75
 40
1.0
 40
1.0
 40
1.0
 40
1.0
 10
62.87256837879997
 20
27.66853064749995
 30
0.0
 10
62.90605444379995
 20
27.74284515559993
 30
0.0
 10
62.97749791849994
 20
27.90069458469998
 30
0.0
 10
63.09895552389995
 20
28.16625042879991
 30
0.0
 10
63.23329011469994
 20
28.4566773398999
 30
0.0
 10
63.33221927949992
 20
28.66800324169992
 30
0.0
 10
63.38404129409994
 20
28.77796159989993
 30
0.0
1001
ACAD
1000
RTMaterial
1005
0
  0
SPLINE
  5
6082A
330
1F
100
AcDbEntity
  8
cut
100
AcDbSpline
210
0.0
220
0.0
230
1.0
 70
     8
 71
     3
 72
    10
 73
     6
 74
     0
 42
0.0000000001
 43
0.0000000001
 40
0.0
 40
0.0
 40
0.0
 40
0.0
 40
0.3333333333
 40
0.6666666667
 40
1.0
 40
1.0
 40
1.0
 40
1.0
 10
63.38404129409994
 20
28.77796159989993
 30
0.0
 10
63.39697494249995
 20
28.80715032229989
 30
0.0
 10
63.41989210299996
 20
28.86526778559994
 30
0.0
 10
63.44629282719992
 20
28.95187566969998
 30
0.0
 10
63.45858638229995
 20
29.0080346613999
 30
0.0
 10
63.46355000899993
 20
29.03579369269989
 30
0.0
1001
ACAD
1000
RTMaterial
1005
0
  0
SPLINE
  5
6082B
330
1F
100
AcDbEntity
  8
cut
100
AcDbSpline
210
0.0
220
0.0
230
1.0
 70
     8
 71
     3
 72
    10
 73
     6
 74
     0
 42
0.0000000001
 43
0.0000000001
 40
0.0
 40
0.0
 40
0.0
 40
0.0
 40
0.3333333333
 40
0.6666666667
 40
1.0
 40
1.0
 40
1.0
 40
1.0
 10
63.46355000899993
 20
29.03579369269989
 30
0.0
 10
63.46467850579992
 20
29.04210479999995
 30
0.0
 10
63.46680680299996
 20
29.05466721649986
 30
0.0
 10
63.46959993659996
 20
29.07320383149988
 30
0.0
 10
63.47123908689994
 20
29.08560912589991
 30
0.0
 10
63.47199999949996
 20
29.09180255899986
 30
0.0
1001
ACAD
1000
RTMaterial
1005
0
  0
LINE
  5
6082C
330
1F
100
AcDbEntity
  8
cut
100
AcDbLine
 10
63.47199999949996
 20
29.09180255899986
 30
0.0
 11
63.47384048889998
 21
29.12352037469998
 31
0.0
1001
ACAD
1000
RTMaterial
1005
0
  0
SPLINE
  5
6082D
330
1F
100
AcDbEntity
  8
1
100
AcDbSpline
210
0.0
220
0.0
230
1.0
 70
     8
 71
     3
 72
    15
 73
    11
 74
     0
 42
0.0000000001
 43
0.0000000001
 40
0.0
 40
0.0
 40
0.0
 40
0.0
 40
0.1248035261
 40
0.2496613061
 40
0.3746006319
 40
0.499629273
 40
0.6247274788000001
 40
0.7498557666
 40
0.8749517093000001
 40
1.0
 40
1.0
 40
1.0
 40
1.0
 10
55.17838032409997
 20
31.41582619659988
 30
0.0
 10
55.14783736549998
 20
31.42010060999997
 30
0.0
 10
55.08516764019998
 20
31.41997296139994
 30
0.0
 10
54.99520373159999
 20
31.3935851098999
 30
0.0
 10
54.91603561709997
 20
31.34314026789997
 30
0.0
 10
54.85400880549997
 20
31.27262210149991
 30
0.0
 10
54.81398861509996
 20
31.18760997369987
 30
0.0
 10
54.79915791949998
 20
31.09479756949992
 30
0.0
 10
54.8106158306
 20
31.00158767629989
 30
0.0
 10
54.83532483529995
 20
30.9438698393999
 30
0.0
 10
54.85134785189996
 20
30.91744749489993
 30
0.0
1001
ACAD
1000
RTMaterial
1005
0
  0
SPLINE
  5
6082E
330
1F
100
AcDbEntity
  8
1
100
AcDbSpline
210
0.0
220
0.0
230
1.0
 70
     8
 71
     3
 72
    15
 73
    11
 74
     0
 42
0.0000000001
 43
0.0000000001
 40
0.0
 40
0.0
 40
0.0
 40
0.0
 40
0.1249745627
 40
0.2500150505
 40
0.3751191411999999
 40
0.5002276074000001
 40
0.6252937521000001
 40
0.7502820067
 40
0.8751804444999999
 40
1.0
 40
1.0
 40
1.0
 40
1.0
 10
54.58167461649998
 20
29.78784660729991
 30
0.0
 10
54.55555894439999
 20
29.77160081799991
 30
0.0
 10
54.50763141399995
 20
29.73150367719995
 30
0.0
 10
54.45539850509999
 20
29.65397777409987
 30
0.0
 10
54.42656800509997
 20
29.56495230999991
 30
0.0
 10
54.42349063079996
 20
29.47143238679996
 30
0.0
 10
54.44637647579998
 20
29.38073273909992
 30
0.0
 10
54.49346557140001
 20
29.29994731789992
 30
0.0
 10
54.56098900879999
 20
29.2354404480999
 30
0.0
 10
54.61633388029998
 20
29.20657895599993
 30
0.0
 10
54.64529149139997
 20
29.19632880169991
 30
0.0
1001
ACAD
1000
RTMaterial
1005
0
  0
SPLINE
  5
6082F
330
1F
100
AcDbEntity
  8
1
100
AcDbSpline
210
0.0
220
0.0
230
1.0
 70
     8
 71
     3
 72
     8
 73
     4
 74
     0
 42
0.0000000001
 43
0.0000000001
 40
0.0
 40
0.0
 40
0.0
 40
0.0
 40
1.0
 40
1.0
 40
1.0
 40
1.0
 10
54.64529149139997
 20
29.19632880169991
 30
0.0
 10
54.666012841
 20
29.18899404509989
 30
0.0
 10
54.687581889
 20
29.18372309699993
 30
0.0
 10
54.70935145059996
 20
29.18068020829986
 30
0.0
1001
ACAD
1000
RTMaterial
1005
0
  0
SPLINE
  5
60830
330
1F
100
AcDbEntity
  8
1
100
AcDbSpline
210
0.0
220
0.0
230
1.0
 70
     8
 71
     3
 72
    15
 73
    11
 74
     0
 42
0.0000000001
 43
0.0000000001
 40
0.0
 40
0.0
 40
0.0
 40
0.0
 40
0.1251602541
 40
0.2502837245
 40
0.3753592817
 40
0.5003790434000001
 40
0.6253432712000001
 40
0.7502586988
 40
0.8751367873999999
 40
1.0
 40
1.0
 40
1.0
 40
1.0
 10
55.60329743629996
 20
28.37936629939986
 30
0.0
 10
55.60179923509998
 20
28.4273951836999
 30
0.0
 10
55.5903818301
 20
28.52338724159989
 30
0.0
 10
55.54853007959997
 20
28.66201817709992
 30
0.0
 10
55.48322607949995
 20
28.79125681219995
 30
0.0
 10
55.39646241219998
 20
28.90709703949989
 30
0.0
 10
55.29089286729998
 20
29.00601335149986
 30
0.0
 10
55.16972643919996
 20
29.08497944889996
 30
0.0
 10
55.03672157119996
 20
29.14157314059992
 30
0.0
 10
54.94272535219995
 20
29.16325924489991
 30
0.0
 10
54.89524918949996
 20
29.16989892699991
 30
0.0
1001
ACAD
1000
RTMaterial
1005
0
  0
SPLINE
  5
60831
330
1F
100
AcDbEntity
  8
1
100
AcDbSpline
210
0.0
220
0.0
230
1.0
 70
     8
 71
     3
 72
    11
 73
     7
 74
     0
 42
0.0000000001
 43
0.0000000001
 40
0.0
 40
0.0
 40
0.0
 40
0.0
 40
0.2502996486
 40
0.5003874572
 40
0.7502656923000001
 40
1.0
 40
1.0
 40
1.0
 40
1.0
 10
55.60329743629996
 20
28.37936629939986
 30
0.0
 10
55.6044915096
 20
28.3410870566999
 30
0.0
 10
55.62045373079996
 20
28.26431796859992
 30
0.0
 10
55.68224356879994
 20
28.1648658229999
 30
0.0
 10
55.77424018259995
 20
28.0925700000999
 30
0.0
 10
55.84872234789997
 20
28.06839576099992
 30
0.0
 10
55.88656510419998
 20
28.06310106049989
 30
0.0
1001
ACAD
1000
RTMaterial
1005
0
  0
SPLINE
  5
60832
330
1F
100
AcDbEntity
  8
1
100
AcDbSpline
210
0.0
220
0.0
230
1.0
 70
     8
 71
     3
 72
     9
 73
     5
 74
     0
 42
0.0000000001
 43
0.0000000001
 40
0.0
 40
0.0
 40
0.0
 40
0.0
 40
0.5000427267000001
 40
1.0
 40
1.0
 40
1.0
 40
1.0
 10
57.33148275889999
 20
28.56295247989994
 30
0.0
 10
57.2888930785
 20
28.5858239966999
 30
0.0
 10
57.19949889269997
 20
28.62410325839988
 30
0.0
 10
57.1047554571
 20
28.64602335629991
 30
0.0
 10
57.05688746789997
 20
28.65271992919992
 30
0.0
1001
ACAD
1000
RTMaterial
1005
0
  0
SPLINE
  5
60833
330
1F
100
AcDbEntity
  8
1
100
AcDbSpline
210
0.0
220
0.0
230
1.0
 70
     8
 71
     3
 72
     9
 73
     5
 74
     0
 42
0.0000000001
 43
0.0000000001
 40
0.0
 40
0.0
 40
0.0
 40
0.0
 40
0.7495490479000001
 40
1.0
 40
1.0
 40
1.0
 40
1.0
 10
57.33148275889999
 20
28.56295247989994
 30
0.0
 10
57.35699841179997
 20
28.5492500600999
 30
0.0
 10
57.39374088409999
 20
28.53541210359992
 30
0.0
 10
57.43175567549997
 20
28.52838061979992
 30
0.0
 10
57.4413395542
 20
28.52703937909991
 30
0.0
1001
ACAD
1000
RTMaterial
1005
0
  0
SPLINE
  5
60834
330
1F
100
AcDbEntity
  8
1
100
AcDbSpline
210
0.0
220
0.0
230
1.0
 70
     8
 71
     3
 72
    15
 73
    11
 74
     0
 42
0.0000000001
 43
0.0000000001
 40
0.0
 40
0.0
 40
0.0
 40
0.0
 40
0.1249035286
 40
0.2498597456
 40
0.3748744754
 40
0.4999215358
 40
0.6249805071
 40
0.7500291854000001
 40
0.8750362872
 40
1.0
 40
1.0
 40
1.0
 40
1.0
 10
54.58167461649998
 20
29.78784660729991
 30
0.0
 10
54.62712916269999
 20
29.81612253979989
 30
0.0
 10
54.71275478649999
 20
29.88176550989994
 30
0.0
 10
54.81950147219999
 20
30.00314272019989
 30
0.0
 10
54.90079789319998
 20
30.14298864089989
 30
0.0
 10
54.95348079569999
 20
30.29595925519994
 30
0.0
 10
54.97557978059996
 20
30.45624569209991
 30
0.0
 10
54.96623010370001
 20
30.61777494279994
 30
0.0
 10
54.9258405489
 20
30.77434970619987
 30
0.0
 10
54.87911880780001
 20
30.87165251269988
 30
0.0
 10
54.85134785189996
 20
30.91744749489993
 30
0.0
1001
ACAD
1000
RTMaterial
1005
0
  0
SPLINE
  5
60835
330
1F
100
AcDbEntity
  8
1
100
AcDbSpline
210
0.0
220
0.0
230
1.0
 70
     8
 71
     3
 72
    11
 73
     7
 74
     0
 42
0.0000000001
 43
0.0000000001
 40
0.0
 40
0.0
 40
0.0
 40
0.0
 40
0.2497812734
 40
0.4996706779000001
 40
0.7497377359000001
 40
1.0
 40
1.0
 40
1.0
 40
1.0
 10
55.5628324105
 20
31.29014564649987
 30
0.0
 10
55.6446174569
 20
31.2787041897999
 30
0.0
 10
55.8127988498
 20
31.28072592079985
 30
0.0
 10
56.0519096914
 20
31.35888914799989
 30
0.0
 10
56.2571300075
 20
31.5046406164999
 30
0.0
 10
56.35907260210001
 20
31.63866899779993
 30
0.0
 10
56.39873652629995
 20
31.71128279699991
 30
0.0
1001
ACAD
1000
RTMaterial
1005
0
  0
SPLINE
  5
60836
330
1F
100
AcDbEntity
  8
1
100
AcDbSpline
210
0.0
220
0.0
230
1.0
 70
     8
 71
     3
 72
    11
 73
     7
 74
     0
 42
0.0000000001
 43
0.0000000001
 40
0.0
 40
0.0
 40
0.0
 40
0.0
 40
0.2497807494
 40
0.499671638
 40
0.7497263809
 40
1.0
 40
1.0
 40
1.0
 40
1.0
 10
56.7331547741
 20
31.8797645151999
 30
0.0
 10
56.70043538250002
 20
31.88434238939988
 30
0.0
 10
56.63315113739997
 20
31.88353502069992
 30
0.0
 10
56.5374925676
 20
31.85226347829991
 30
0.0
 10
56.45538945779998
 20
31.79395505319991
 30
0.0
 10
56.41460549099997
 20
31.74033453199991
 30
0.0
 10
56.39873652629995
 20
31.71128279699991
 30
0.0
1001
ACAD
1000
RTMaterial
1005
0
  0
SPLINE
  5
60837
330
1F
100
AcDbEntity
  8
1
100
AcDbSpline
210
0.0
220
0.0
230
1.0
 70
     8
 71
     3
 72
     8
 73
     4
 74
     0
 42
0.0000000001
 43
0.0000000001
 40
0.0
 40
0.0
 40
0.0
 40
0.0
 40
1.0
 40
1.0
 40
1.0
 40
1.0
 10
57.72447068879995
 20
30.77296664869988
 30
0.0
 10
57.76837702979998
 20
30.76682621679993
 30
0.0
 10
57.81292691319999
 20
30.76423922779992
 30
0.0
 10
57.85724861349996
 20
30.76526808989991
 30
0.0
1001
ACAD
1000
RTMaterial
1005
0
  0
SPLINE
  5
60838
330
1F
100
AcDbEntity
  8
1
100
AcDbSpline
210
0.0
220
0.0
230
1.0
 70
     8
 71
     3
 72
     8
 73
     4
 74
     0
 42
0.0000000001
 43
0.0000000001
 40
0.0
 40
0.0
 40
0.0
 40
0.0
 40
1.0
 40
1.0
 40
1.0
 40
1.0
 10
57.91036842769995
 20
30.76218536739992
 30
0.0
 10
57.89280279689996
 20
30.76464064239991
 30
0.0
 10
57.87498023309996
 20
30.76567970299988
 30
0.0
 10
57.85724861349996
 20
30.76526808989991
 30
0.0
1001
ACAD
1000
RTMaterial
1005
0
  0
SPLINE
  5
60839
330
1F
100
AcDbEntity
  8
1
100
AcDbSpline
210
0.0
220
0.0
230
1.0
 70
     8
 71
     3
 72
    27
 73
    23
 74
     0
 42
0.0000000001
 43
0.0000000001
 40
0.0
 40
0.0
 40
0.0
 40
0.0
 40
0.0623947125
 40
0.0936232012
 40
0.1248550523
 40
0.1872761331
 40
0.249720486
 40
0.2809806853999999
 40
0.3122477685
 40
0.3747459269
 40
0.4372685048
 40
0.4998100351
 40
0.5623628903000001
 40
0.6249181621000001
 40
0.6874666821
 40
0.7187637134
 40
0.7500560675
 40
0.8125675237000001
 40
0.8750532600999999
 40
0.9063133248999999
 40
0.9375658356999998
 40
1.0
 40
1.0
 40
1.0
 40
1.0
 10
56.75950983140001
 20
33.39212474089988
 30
0.0
 10
56.95193629359994
 20
33.3651937366999
 30
0.0
 10
57.23800140949999
 20
33.30000096129993
 30
0.0
 10
57.60332863379995
 20
33.16595722429992
 30
0.0
 10
57.95614513949994
 20
33.00136939589993
 30
0.0
 10
58.36907798350001
 20
32.74022005089989
 30
0.0
 10
58.73192559789998
 20
32.4128899244999
 30
0.0
 10
58.98575905839999
 20
32.11735376759987
 30
0.0
 10
59.21377234729999
 20
31.80127187679995
 30
0.0
 10
59.44736887059997
 20
31.37141498659992
 30
0.0
 10
59.63655792029999
 20
30.81592809459994
 30
0.0
 10
59.72953893030001
 20
30.23627821109994
 30
0.0
 10
59.72356925239996
 20
29.64914786039992
 30
0.0
 10
59.6188828457
 20
29.07144650589993
 30
0.0
 10
59.45167973299999
 20
28.61131054959992
 30
0.0
 10
59.27312204660001
 20
28.26448635319991
 30
0.0
 10
59.06597806759998
 20
27.93406677739989
 30
0.0
 10
58.75576966929997
 20
27.55582606889993
 30
0.0
 10
58.3862171408
 20
27.23547909339988
 30
0.0
 10
58.06177618949999
 20
27.01963327949989
 30
0.0
 10
57.72046205699997
 20
26.83212912909989
 30
0.0
 10
57.44726564289999
 20
26.72460519399988
 30
0.0
 10
57.26095852049997
 20
26.66901170599994
 30
0.0
1001
ACAD
1000
RTMaterial
1005
0
  0
SPLINE
  5
6083A
330
1F
100
AcDbEntity
  8
1
100
AcDbSpline
210
0.0
220
0.0
230
1.0
 70
     8
 71
     3
 72
     9
 73
     5
 74
     0
 42
0.0000000001
 43
0.0000000001
 40
0.0
 40
0.0
 40
0.0
 40
0.0
 40
0.4999358793999999
 40
1.0
 40
1.0
 40
1.0
 40
1.0
 10
55.80324918459997
 20
26.55871187819992
 30
0.0
 10
56.04590717469995
 20
26.52475073139993
 30
0.0
 10
56.54001451639999
 20
26.50891812529994
 30
0.0
 10
57.02610550959997
 20
26.59893226999992
 30
0.0
 10
57.26095852049997
 20
26.66901170599994
 30
0.0
1001
ACAD
1000
RTMaterial
1005
0
  0
SPLINE
  5
6083B
330
1F
100
AcDbEntity
  8
1
100
AcDbSpline
210
0.0
220
0.0
230
1.0
 70
     8
 71
     3
 72
     9
 73
     5
 74
     0
 42
0.0000000001
 43
0.0000000001
 40
0.0
 40
0.0
 40
0.0
 40
0.0
 40
0.4999927562
 40
1.0
 40
1.0
 40
1.0
 40
1.0
 10
55.43467041419996
 20
31.30808005419993
 30
0.0
 10
55.38679942869999
 20
31.31477963539993
 30
0.0
 10
55.29205670419997
 20
31.3367006540999
 30
0.0
 10
55.20266179660001
 20
31.3749780716999
 30
0.0
 10
55.16007517899999
 20
31.39784794359997
 30
0.0
1001
ACAD
1000
RTMaterial
1005
0
  0
SPLINE
  5
6083C
330
1F
100
AcDbEntity
  8
1
100
AcDbSpline
210
0.0
220
0.0
230
1.0
 70
     8
 71
     3
 72
    27
 73
    23
 74
     0
 42
0.0000000001
 43
0.0000000001
 40
0.0
 40
0.0
 40
0.0
 40
0.0
 40
0.0624341643
 40
0.0936866751
 40
0.1249467399
 40
0.1874324763
 40
0.2499439325
 40
0.2812362866
 40
0.3125333179
 40
0.3750818379
 40
0.4376371097
 40
0.5001899649000001
 40
0.5627314952
 40
0.6252540731
 40
0.6877522315000001
 40
0.7190193145999999
 40
0.750279514
 40
0.8127238669
 40
0.8751449476999999
 40
0.9063767988
 40
0.9376052875
 40
1.0
 40
1.0
 40
1.0
 40
1.0
 10
55.30180049550001
 20
33.28182491319996
 30
0.0
 10
55.11549337299999
 20
33.2262314251999
 30
0.0
 10
54.84229695889997
 20
33.11870749009989
 30
0.0
 10
54.50098282639999
 20
32.93120333969995
 30
0.0
 10
54.17654187509999
 20
32.7153575257999
 30
0.0
 10
53.8069893466
 20
32.3950105502999
 30
0.0
 10
53.4967809483
 20
32.01676984179994
 30
0.0
 10
53.28963696929998
 20
31.68635026599992
 30
0.0
 10
53.11107928299998
 20
31.33952606959991
 30
0.0
 10
52.94387617019999
 20
30.87939011319992
 30
0.0
 10
52.83918976359996
 20
30.30168875869987
 30
0.0
 10
52.83322008559998
 20
29.71455840809989
 30
0.0
 10
52.92620109559999
 20
29.13490852459995
 30
0.0
 10
53.11539014539994
 20
28.57942163259986
 30
0.0
 10
53.34898666859999
 20
28.14956474239989
 30
0.0
 10
53.57699995759998
 20
27.83348285159991
 30
0.0
 10
53.83083341799999
 20
27.53794669469994
 30
0.0
 10
54.19368103250002
 20
27.21061656829988
 30
0.0
 10
54.60661387639999
 20
26.94946722329991
 30
0.0
 10
54.95943038209998
 20
26.78487939479988
 30
0.0
 10
55.3247576064
 20
26.65083565789996
 30
0.0
 10
55.61082272229999
 20
26.5856428823999
 30
0.0
 10
55.80324918459997
 20
26.55871187819992
 30
0.0
1001
ACAD
1000
RTMaterial
1005
0
  0
SPLINE
  5
6083D
330
1F
100
AcDbEntity
  8
1
100
AcDbSpline
210
0.0
220
0.0
230
1.0
 70
     8
 71
     3
 72
     9
 73
     5
 74
     0
 42
0.0000000001
 43
0.0000000001
 40
0.0
 40
0.0
 40
0.0
 40
0.0
 40
0.5000641206000001
 40
1.0
 40
1.0
 40
1.0
 40
1.0
 10
55.30180049550001
 20
33.28182491319996
 30
0.0
 10
55.53665350629995
 20
33.35190434909993
 30
0.0
 10
56.02274449959998
 20
33.44191849379991
 30
0.0
 10
56.51685184119997
 20
33.4260858877999
 30
0.0
 10
56.75950983140001
 20
33.39212474089988
 30
0.0
1001
ACAD
1000
RTMaterial
1005
0
  0
SPLINE
  5
6083E
330
1F
100
AcDbEntity
  8
1
100
AcDbSpline
210
0.0
220
0.0
230
1.0
 70
     8
 71
     3
 72
    27
 73
    23
 74
     0
 42
0.0000000001
 43
0.0000000001
 40
0.0
 40
0.0
 40
0.0
 40
0.0
 40
0.0624427899
 40
0.0937102059
 40
0.1249873065
 40
0.1874900014
 40
0.2500207912
 40
0.281332068
 40
0.3126473387
 40
0.3752087474
 40
0.4377679573
 40
0.5003130489000001
 40
0.562834304
 40
0.6253256282000001
 40
0.6877854148
 40
0.7190421229
 40
0.7502924867000001
 40
0.8127033279999999
 40
0.8751043047999999
 40
0.9063425463999999
 40
0.9375810863999999
 40
1.0
 40
1.0
 40
1.0
 40
1.0
 10
55.6423239664
 20
32.22458982819996
 30
0.0
 10
55.49539277939999
 20
32.18074600149987
 30
0.0
 10
55.2806099864
 20
32.09286814699993
 30
0.0
 10
55.01641399379997
 20
31.93597789099994
 30
0.0
 10
54.76862895769994
 20
31.75385856859993
 30
0.0
 10
54.49416869049997
 20
31.48180029529993
 30
0.0
 10
54.27804740949994
 20
31.1613255989999
 30
0.0
 10
54.14516016179994
 20
30.88372855569992
 30
0.0
 10
54.03998129079997
 20
30.59442217979989
 30
0.0
 10
53.96244809629997
 20
30.21545749689989
 30
0.0
 10
53.95975460629995
 20
29.75174573419991
 30
0.0
 10
54.04731277649995
 20
29.2963886808999
 30
0.0
 10
54.2218503514
 20
28.86696817019993
 30
0.0
 10
54.47654965750001
 20
28.48001451629989
 30
0.0
 10
54.74784489590001
 20
28.20505532249996
 30
0.0
 10
54.9934652421
 20
28.02039581789995
 30
0.0
 10
55.25590128239997
 20
27.86075097839989
 30
0.0
 10
55.61144287639996
 20
27.71082044489992
 30
0.0
 10
55.98943248539995
 20
27.63346611639992
 30
0.0
 10
56.2960791332
 20
27.61680394019993
 30
0.0
 10
56.6028293242
 20
27.63027192259989
 30
0.0
 10
56.83052090719996
 20
27.67444868539997
 30
0.0
 10
56.97739591199996
 20
27.71827574749995
 30
0.0
1001
ACAD
1000
RTMaterial
1005
0
  0
SPLINE
  5
6083F
330
1F
100
AcDbEntity
  8
1
100
AcDbSpline
210
0.0
220
0.0
230
1.0
 70
     8
 71
     3
 72
     8
 73
     4
 74
     0
 42
0.0000000001
 43
0.0000000001
 40
0.0
 40
0.0
 40
0.0
 40
0.0
 40
1.0
 40
1.0
 40
1.0
 40
1.0
 10
55.16007517899999
 20
31.39784794359997
 30
0.0
 10
55.14521713369998
 20
31.40582701339992
 30
0.0
 10
55.12969427699994
 20
31.41267181539996
 30
0.0
 10
55.11378786169996
 20
31.4182765468999
 30
0.0
1001
ACAD
1000
RTMaterial
1005
0
  0
SPLINE
  5
60840
330
1F
100
AcDbEntity
  8
1
100
AcDbSpline
210
0.0
220
0.0
230
1.0
 70
     8
 71
     3
 72
    15
 73
    11
 74
     0
 42
0.0000000001
 43
0.0000000001
 40
0.0
 40
0.0
 40
0.0
 40
0.0
 40
0.1249035286
 40
0.2498597456
 40
0.3748744754
 40
0.4999215358
 40
0.6249805071
 40
0.7500291854000001
 40
0.8750362872
 40
1.0
 40
1.0
 40
1.0
 40
1.0
 10
58.03804526179994
 20
30.15501896839993
 30
0.0
 10
57.99259071569998
 20
30.1267430357999
 30
0.0
 10
57.90696509189996
 20
30.06110006569992
 30
0.0
 10
57.80021840609999
 20
29.93972285539996
 30
0.0
 10
57.71892198519998
 20
29.7998769347999
 30
0.0
 10
57.66623908259998
 20
29.64690632049991
 30
0.0
 10
57.64414009769996
 20
29.48661988359993
 30
0.0
 10
57.65348977469995
 20
29.32509063289996
 30
0.0
 10
57.69387932949996
 20
29.16851586949992
 30
0.0
 10
57.74060107049996
 20
29.0712130629999
 30
0.0
 10
57.76837202640002
 20
29.02541808079985
 30
0.0
1001
ACAD
1000
RTMaterial
1005
0
  0
SPLINE
  5
60841
330
1F
100
AcDbEntity
  8
1
100
AcDbSpline
210
0.0
220
0.0
230
1.0
 70
     8
 71
     3
 72
    11
 73
     7
 74
     0
 42
0.0000000001
 43
0.0000000001
 40
0.0
 40
0.0
 40
0.0
 40
0.0
 40
0.2502234889999999
 40
0.500298469
 40
0.7502309122
 40
1.0
 40
1.0
 40
1.0
 40
1.0
 10
56.88826050169996
 20
31.58143412419992
 30
0.0
 10
56.88738193159998
 20
31.60959905989989
 30
0.0
 10
56.87834669279999
 20
31.66595013459994
 30
0.0
 10
56.84383359439999
 20
31.7440511394999
 30
0.0
 10
56.79069112729997
 20
31.81082108329986
 30
0.0
 10
56.74499373169999
 20
31.84490510959995
 30
0.0
 10
56.72047704439996
 20
31.85869228649989
 30
0.0
1001
ACAD
1000
RTMaterial
1005
0
  0
SPLINE
  5
60842
330
1F
100
AcDbEntity
  8
1
100
AcDbSpline
210
0.0
220
0.0
230
1.0
 70
     8
 71
     3
 72
     8
 73
     4
 74
     0
 42
0.0000000001
 43
0.0000000001
 40
0.0
 40
0.0
 40
0.0
 40
0.0
 40
1.0
 40
1.0
 40
1.0
 40
1.0
 10
56.72047704439996
 20
31.85869228649989
 30
0.0
 10
56.70372534579996
 20
31.86811275289995
 30
0.0
 10
56.68607943320001
 20
31.87609441809991
 30
0.0
 10
56.66793886179994
 20
31.88244140659993
 30
0.0
1001
ACAD
1000
RTMaterial
1005
0
  0
SPLINE
  5
60843
330
1F
100
AcDbEntity
  8
1
100
AcDbSpline
210
0.0
220
0.0
230
1.0
 70
     8
 71
     3
 72
    15
 73
    11
 74
     0
 42
0.0000000001
 43
0.0000000001
 40
0.0
 40
0.0
 40
0.0
 40
0.0
 40
0.1248757498
 40
0.2497465242
 40
0.3746627943
 40
0.4996245048
 40
0.6246450574
 40
0.7497140269
 40
0.8748478632999999
 40
1.0
 40
1.0
 40
1.0
 40
1.0
 10
57.59630910699996
 20
30.79090406619992
 30
0.0
 10
57.5488279594
 20
30.79754204729989
 30
0.0
 10
57.45482911739998
 20
30.81922791939991
 30
0.0
 10
57.32182602219996
 20
30.87583022489992
 30
0.0
 10
57.2006620624
 20
30.95479248079988
 30
0.0
 10
57.09509324340001
 20
31.05370921289995
 30
0.0
 10
57.0083349962
 20
31.16954846819993
 30
0.0
 10
56.94302363239995
 20
31.29878514959995
 30
0.0
 10
56.90117945909998
 20
31.43741656119988
 30
0.0
 10
56.88975860219994
 20
31.53340846709995
 30
0.0
 10
56.88826050169996
 20
31.58143412419992
 30
0.0
1001
ACAD
1000
RTMaterial
1005
0
  0
SPLINE
  5
60844
330
1F
100
AcDbEntity
  8
1
100
AcDbSpline
210
0.0
220
0.0
230
1.0
 70
     8
 71
     3
 72
    15
 73
    11
 74
     0
 42
0.0000000001
 43
0.0000000001
 40
0.0
 40
0.0
 40
0.0
 40
0.0
 40
0.1249712139
 40
0.2500063639
 40
0.3751077101
 40
0.5002138165
 40
0.6252813567000001
 40
0.7502739849
 40
0.8751788063999999
 40
1.0
 40
1.0
 40
1.0
 40
1.0
 10
57.90988332149999
 20
30.17295381619988
 30
0.0
 10
57.93561795609997
 20
30.18896257339992
 30
0.0
 10
57.98290616919996
 20
30.22835912199992
 30
0.0
 10
58.03482816359997
 20
30.30440694169994
 30
0.0
 10
58.06412539219997
 20
30.39180375169991
 30
0.0
 10
58.0684817828
 20
30.48387214349992
 30
0.0
 10
58.04759910600001
 20
30.57362018679993
 30
0.0
 10
58.00302708269999
 20
30.65423197099995
 30
0.0
 10
57.93823356149999
 20
30.71953418869987
 30
0.0
 10
57.88462647
 20
30.74964146549991
 30
0.0
 10
57.85643963889999
 20
30.76068004649989
 30
0.0
1001
ACAD
1000
RTMaterial
1005
0
  0
LINE
  5
60845
330
1F
100
AcDbEntity
  8
1
100
AcDbLine
 10
57.85643963889999
 20
30.76068004649989
 30
0.0
 11
57.8429596739
 21
30.76562235299991
 31
0.0
1001
ACAD
1000
RTMaterial
1005
0
  0
SPLINE
  5
60846
330
1F
100
AcDbEntity
  8
1
100
AcDbSpline
210
0.0
220
0.0
230
1.0
 70
     8
 71
     3
 72
    15
 73
    11
 74
     0
 42
0.0000000001
 43
0.0000000001
 40
0.0
 40
0.0
 40
0.0
 40
0.0
 40
0.1249599769
 40
0.2499720737
 40
0.3750190592
 40
0.5000784648
 40
0.6251259588
 40
0.7501389967000001
 40
0.8751002055
 40
1.0
 40
1.0
 40
1.0
 40
1.0
 10
57.64021008599996
 20
29.04335292859997
 30
0.0
 10
57.61243992879997
 20
29.08914659379991
 30
0.0
 10
57.56571936079996
 20
29.18645039299992
 30
0.0
 10
57.52532479969994
 20
29.34302401629992
 30
0.0
 10
57.51597766649997
 20
29.50455528509991
 30
0.0
 10
57.53807423669996
 20
29.66484186289995
 30
0.0
 10
57.59075935739997
 20
29.81781151199994
 30
0.0
 10
57.67205441969998
 20
29.95766038189987
 30
0.0
 10
57.77880505730002
 20
30.07903431129989
 30
0.0
 10
57.8644300825
 20
30.14467869689986
 30
0.0
 10
57.90988332149999
 20
30.17295381619988
 30
0.0
1001
ACAD
1000
RTMaterial
1005
0
  0
SPLINE
  5
60847
330
1F
100
AcDbEntity
  8
1
100
AcDbSpline
210
0.0
220
0.0
230
1.0
 70
     8
 71
     3
 72
    15
 73
    11
 74
     0
 42
0.0000000001
 43
0.0000000001
 40
0.0
 40
0.0
 40
0.0
 40
0.0
 40
0.1249929242
 40
0.2500590293
 40
0.3751822011
 40
0.5002973722000001
 40
0.6253498794
 40
0.7503080916
 40
0.8751765463999999
 40
1.0
 40
1.0
 40
1.0
 40
1.0
 10
58.03804526179994
 20
30.15501896839993
 30
0.0
 10
58.06647647619996
 20
30.17270518829986
 30
0.0
 10
58.11825407459997
 20
30.21713364689987
 30
0.0
 10
58.17203307899996
 20
30.30381601639994
 30
0.0
 10
58.197362091
 20
30.40274911299992
 30
0.0
 10
58.19178386319999
 20
30.50469993439987
 30
0.0
 10
58.15585543509996
 20
30.6002290141999
 30
0.0
 10
58.09284854319997
 20
30.6804646226999
 30
0.0
 10
58.0087332032
 20
30.73793786389996
 30
0.0
 10
57.94348446319998
 20
30.75755650019988
 30
0.0
 10
57.91036842769995
 20
30.76218536739992
 30
0.0
1001
ACAD
1000
RTMaterial
1005
0
  0
SPLINE
  5
60848
330
1F
100
AcDbEntity
  8
1
100
AcDbSpline
210
0.0
220
0.0
230
1.0
 70
     8
 71
     3
 72
    11
 73
     7
 74
     0
 42
0.0000000001
 43
0.0000000001
 40
0.0
 40
0.0
 40
0.0
 40
0.0
 40
0.2502689694
 40
0.5003316144
 40
0.7502220338
 40
1.0
 40
1.0
 40
1.0
 40
1.0
 10
56.09282141159997
 20
28.24951762649988
 30
0.0
 10
56.1324863978
 20
28.32213336969994
 30
0.0
 10
56.23443080300001
 20
28.45616088119988
 30
0.0
 10
56.4396505794
 20
28.6019164766999
 30
0.0
 10
56.6787613001
 20
28.68006907569992
 30
0.0
 10
56.84694222859997
 20
28.68210086039994
 30
0.0
 10
56.92872558340003
 20
28.67065521709992
 30
0.0
1001
ACAD
1000
RTMaterial
1005
0
  0
SPLINE
  5
60849
330
1F
100
AcDbEntity
  8
1
100
AcDbSpline
210
0.0
220
0.0
230
1.0
 70
     8
 71
     3
 72
    15
 73
    11
 74
     0
 42
0.0000000001
 43
0.0000000001
 40
0.0
 40
0.0
 40
0.0
 40
0.0
 40
0.1251602541
 40
0.2502837245
 40
0.3753592817
 40
0.5003790434000001
 40
0.6253432712000001
 40
0.7502586988
 40
0.8751367873999999
 40
1.0
 40
1.0
 40
1.0
 40
1.0
 10
57.01642244210001
 20
31.56349927629992
 30
0.0
 10
57.01792064329999
 20
31.51547039199988
 30
0.0
 10
57.02933804819998
 20
31.41947833409989
 30
0.0
 10
57.0711897987
 20
31.28084739849993
 30
0.0
 10
57.13649379879996
 20
31.15160876349995
 30
0.0
 10
57.22325746609993
 20
31.0357685361999
 30
0.0
 10
57.32882701099999
 20
30.93685222419992
 30
0.0
 10
57.44999343910001
 20
30.85788612679994
 30
0.0
 10
57.58299830710001
 20
30.80129243509987
 30
0.0
 10
57.67699452609997
 20
30.77960633069995
 30
0.0
 10
57.72447068879995
 20
30.77296664869988
 30
0.0
1001
ACAD
1000
RTMaterial
1005
0
  0
SPLINE
  5
6084A
330
1F
100
AcDbEntity
  8
1
100
AcDbSpline
210
0.0
220
0.0
230
1.0
 70
     8
 71
     3
 72
     8
 73
     4
 74
     0
 42
0.0000000001
 43
0.0000000001
 40
0.0
 40
0.0
 40
0.0
 40
0.0
 40
1.0
 40
1.0
 40
1.0
 40
1.0
 10
54.64833787319998
 20
29.19573739249995
 30
0.0
 10
54.6690114269
 20
29.19586207919991
 30
0.0
 10
54.68970434120001
 20
29.19520250219995
 30
0.0
 10
54.71032833999998
 20
29.19376652129989
 30
0.0
1001
ACAD
1000
RTMaterial
1005
0
  0
SPLINE
  5
6084B
330
1F
100
AcDbEntity
  8
1
100
AcDbSpline
210
0.0
220
0.0
230
1.0
 70
     8
 71
     3
 72
     8
 73
     4
 74
     0
 42
0.0000000001
 43
0.0000000001
 40
0.0
 40
0.0
 40
0.0
 40
0.0
 40
1.0
 40
1.0
 40
1.0
 40
1.0
 10
54.71032833999998
 20
29.19376652129989
 30
0.0
 10
54.72930507679996
 20
29.1924452337999
 30
0.0
 10
54.7482474263
 20
29.19046500849993
 30
0.0
 10
54.76708689059996
 20
29.18783120519993
 30
0.0
1001
ACAD
1000
RTMaterial
1005
0
  0
SPLINE
  5
6084C
330
1F
100
AcDbEntity
  8
1
100
AcDbSpline
210
0.0
220
0.0
230
1.0
 70
     8
 71
     3
 72
    15
 73
    11
 74
     0
 42
0.0000000001
 43
0.0000000001
 40
0.0
 40
0.0
 40
0.0
 40
0.0
 40
0.1248035261
 40
0.2496613061
 40
0.3746006319
 40
0.499629273
 40
0.6247274788000001
 40
0.7498557666
 40
0.8749517093000001
 40
1.0
 40
1.0
 40
1.0
 40
1.0
 10
57.4413395542
 20
28.52703937909991
 30
0.0
 10
57.47188251279999
 20
28.52276496569994
 30
0.0
 10
57.53455223809999
 20
28.52289261429996
 30
0.0
 10
57.62451614679998
 20
28.54928046579988
 30
0.0
 10
57.70368426129994
 20
28.59972530769989
 30
0.0
 10
57.76571107289999
 20
28.67024347419994
 30
0.0
 10
57.80573126320001
 20
28.75525560199992
 30
0.0
 10
57.82056195889999
 20
28.84806800619987
 30
0.0
 10
57.80910404779996
 20
28.94127789929996
 30
0.0
 10
57.78439504309995
 20
28.99899573629989
 30
0.0
 10
57.76837202640002
 20
29.02541808079985
 30
0.0
1001
ACAD
1000
RTMaterial
1005
0
  0
SPLINE
  5
6084D
330
1F
100
AcDbEntity
  8
1
100
AcDbSpline
210
0.0
220
0.0
230
1.0
 70
     8
 71
     3
 72
    15
 73
    11
 74
     0
 42
0.0000000001
 43
0.0000000001
 40
0.0
 40
0.0
 40
0.0
 40
0.0
 40
0.1248198495
 40
0.2497009272
 40
0.3746642443
 40
0.4997044267000001
 40
0.6247961708
 40
0.7499053905
 40
0.8749776184999998
 40
1.0
 40
1.0
 40
1.0
 40
1.0
 10
57.37833385189998
 20
28.54239819569995
 30
0.0
 10
57.40643494079995
 20
28.54408625489993
 30
0.0
 10
57.46248083799997
 20
28.55477728979991
 30
0.0
 10
57.53949808409998
 20
28.59167328649988
 30
0.0
 10
57.60468423229998
 20
28.64699573369989
 30
0.0
 10
57.65367881609996
 20
28.71710456839992
 30
0.0
 10
57.68328990750001
 20
28.79738119679996
 30
0.0
 10
57.69154956699998
 20
28.88256342199992
 30
0.0
 10
57.67796580559997
 20
28.96699261029994
 30
0.0
 10
57.65483118169999
 20
29.01924238589993
 30
0.0
 10
57.64021008599996
 20
29.04335292859997
 30
0.0
1001
ACAD
1000
RTMaterial
1005
0
  0
SPLINE
  5
6084E
330
1F
100
AcDbEntity
  8
1
100
AcDbSpline
210
0.0
220
0.0
230
1.0
 70
     8
 71
     3
 72
    11
 73
     7
 74
     0
 42
0.0000000001
 43
0.0000000001
 40
0.0
 40
0.0
 40
0.0
 40
0.0
 40
0.2497812734
 40
0.4996706779000001
 40
0.7497377359000001
 40
1.0
 40
1.0
 40
1.0
 40
1.0
 10
57.05688746789997
 20
28.65271992919992
 30
0.0
 10
56.97510242139998
 20
28.66416138589989
 30
0.0
 10
56.80692102849997
 20
28.66213965489993
 30
0.0
 10
56.56781018689997
 20
28.5839764276999
 30
0.0
 10
56.36258987079997
 20
28.43822495919994
 30
0.0
 10
56.26064727629994
 20
28.30419657779993
 30
0.0
 10
56.22098335199996
 20
28.23158277869988
 30
0.0
1001
ACAD
1000
RTMaterial
1005
0
  0
SPLINE
  5
6084F
330
1F
100
AcDbEntity
  8
1
100
AcDbSpline
210
0.0
220
0.0
230
1.0
 70
     8
 71
     3
 72
    11
 73
     7
 74
     0
 42
0.0000000001
 43
0.0000000001
 40
0.0
 40
0.0
 40
0.0
 40
0.0
 40
0.2502996486
 40
0.5003874572
 40
0.7502656923000001
 40
1.0
 40
1.0
 40
1.0
 40
1.0
 10
57.01642244210001
 20
31.56349927629992
 30
0.0
 10
57.01522836879997
 20
31.60177851899988
 30
0.0
 10
56.99926614750001
 20
31.67854760709992
 30
0.0
 10
56.93747630960001
 20
31.77799975269989
 30
0.0
 10
56.84547969579995
 20
31.8502955754999
 30
0.0
 10
56.7709975304
 20
31.87446981469998
 30
0.0
 10
56.7331547741
 20
31.8797645151999
 30
0.0
1001
ACAD
1000
RTMaterial
1005
0
  0
SPLINE
  5
60850
330
1F
100
AcDbEntity
  8
1
100
AcDbSpline
210
0.0
220
0.0
230
1.0
 70
     8
 71
     3
 72
    11
 73
     7
 74
     0
 42
0.0000000001
 43
0.0000000001
 40
0.0
 40
0.0
 40
0.0
 40
0.0
 40
0.2497807494
 40
0.499671638
 40
0.7497263809
 40
1.0
 40
1.0
 40
1.0
 40
1.0
 10
55.88656510419998
 20
28.06310106049989
 30
0.0
 10
55.91928449579995
 20
28.05852318629991
 30
0.0
 10
55.9865687409
 20
28.05933055489993
 30
0.0
 10
56.08222731069997
 20
28.09060209739994
 30
0.0
 10
56.16433042049999
 20
28.14891052249993
 30
0.0
 10
56.2051143873
 20
28.20253104369988
 30
0.0
 10
56.22098335199996
 20
28.23158277869988
 30
0.0
1001
ACAD
1000
RTMaterial
1005
0
  0
SPLINE
  5
60851
330
1F
100
AcDbEntity
  8
1
100
AcDbSpline
210
0.0
220
0.0
230
1.0
 70
     8
 71
     3
 72
    11
 73
     7
 74
     0
 42
0.0000000001
 43
0.0000000001
 40
0.0
 40
0.0
 40
0.0
 40
0.0
 40
0.2497849674
 40
0.4997030093000001
 40
0.7497650819000001
 40
1.0
 40
1.0
 40
1.0
 40
1.0
 10
55.82350790340001
 20
28.07845351389995
 30
0.0
 10
55.85111596349998
 20
28.08010181359993
 30
0.0
 10
55.90617701379994
 20
28.09047345519991
 30
0.0
 10
55.98207024049997
 20
28.12618567759989
 30
0.0
 10
56.04668885000001
 20
28.17973773419993
 30
0.0
 10
56.07953928299997
 20
28.22520168099993
 30
0.0
 10
56.09282141159997
 20
28.24951762649988
 30
0.0
1001
ACAD
1000
RTMaterial
1005
0
  0
SPLINE
  5
60852
330
1F
100
AcDbEntity
  8
1
100
AcDbSpline
210
0.0
220
0.0
230
1.0
 70
     8
 71
     3
 72
     9
 73
     5
 74
     0
 42
0.0000000001
 43
0.0000000001
 40
0.0
 40
0.0
 40
0.0
 40
0.0
 40
0.5000427267000001
 40
1.0
 40
1.0
 40
1.0
 40
1.0
 10
55.28823711939998
 20
31.37991309579991
 30
0.0
 10
55.33082679979997
 20
31.35704157899989
 30
0.0
 10
55.4202209856
 20
31.3187623172999
 30
0.0
 10
55.51496442119997
 20
31.29684221939988
 30
0.0
 10
55.5628324105
 20
31.29014564649987
 30
0.0
1001
ACAD
1000
RTMaterial
1005
0
  0
SPLINE
  5
60853
330
1F
100
AcDbEntity
  8
1
100
AcDbSpline
210
0.0
220
0.0
230
1.0
 70
     8
 71
     3
 72
     9
 73
     5
 74
     0
 42
0.0000000001
 43
0.0000000001
 40
0.0
 40
0.0
 40
0.0
 40
0.0
 40
0.7495490479000001
 40
1.0
 40
1.0
 40
1.0
 40
1.0
 10
55.28823711939998
 20
31.37991309579991
 30
0.0
 10
55.26272146649995
 20
31.39361551559989
 30
0.0
 10
55.22597899419998
 20
31.40745347209992
 30
0.0
 10
55.18796420280001
 20
31.41448495589993
 30
0.0
 10
55.17838032409997
 20
31.41582619659988
 30
0.0
1001
ACAD
1000
RTMaterial
1005
0
  0
SPLINE
  5
60854
330
1F
100
AcDbEntity
  8
1
100
AcDbSpline
210
0.0
220
0.0
230
1.0
 70
     8
 71
     3
 72
     8
 73
     4
 74
     0
 42
0.0000000001
 43
0.0000000001
 40
0.0
 40
0.0
 40
0.0
 40
0.0
 40
1.0
 40
1.0
 40
1.0
 40
1.0
 10
54.89524918949996
 20
29.16989892699991
 30
0.0
 10
54.85134284859999
 20
29.17603935889991
 30
0.0
 10
54.80679296509999
 20
29.17862634779993
 30
0.0
 10
54.76247126480001
 20
29.17759748579988
 30
0.0
1001
ACAD
1000
RTMaterial
1005
0
  0
SPLINE
  5
60855
330
1F
100
AcDbEntity
  8
1
100
AcDbSpline
210
0.0
220
0.0
230
1.0
 70
     8
 71
     3
 72
    27
 73
    23
 74
     0
 42
0.0000000001
 43
0.0000000001
 40
0.0
 40
0.0
 40
0.0
 40
0.0
 40
0.0624189136
 40
0.0936574536
 40
0.1248956952
 40
0.187296672
 40
0.2497075133
 40
0.2809578771
 40
0.3122145852
 40
0.3746743718
 40
0.4371656960000001
 40
0.4996869511
 40
0.5622320427
 40
0.6247912526000001
 40
0.6873526613
 40
0.718667932
 40
0.7499792088
 40
0.8125099985999998
 40
0.8750126935
 40
0.9062897940999999
 40
0.9375572100999999
 40
1.0
 40
1.0
 40
1.0
 40
1.0
 10
55.6423239664
 20
32.22458982819996
 30
0.0
 10
55.78919897109995
 20
32.26841689029993
 30
0.0
 10
56.01689055419996
 20
32.3125936530999
 30
0.0
 10
56.32364074509997
 20
32.32606163549991
 30
0.0
 10
56.63028739289996
 20
32.30939945929993
 30
0.0
 10
57.00827700189996
 20
32.23204513079986
 30
0.0
 10
57.3638185959
 20
32.0821145972999
 30
0.0
 10
57.62625463619997
 20
31.92246975779994
 30
0.0
 10
57.87187498239996
 20
31.7378102530999
 30
0.0
 10
58.1431702209
 20
31.4628510593999
 30
0.0
 10
58.39786952689997
 20
31.07589740549992
 30
0.0
 10
58.57240710189995
 20
30.64647689479989
 30
0.0
 10
58.65996527199996
 20
30.19111984139994
 30
0.0
 10
58.6572717821
 20
29.72740807869991
 30
0.0
 10
58.5797385875
 20
29.34844339589989
 30
0.0
 10
58.47455971649998
 20
29.05913701989994
 30
0.0
 10
58.34167246879997
 20
28.78153997669995
 30
0.0
 10
58.12555118789998
 20
28.46106528039996
 30
0.0
 10
57.85109092059997
 20
28.18900700709992
 30
0.0
 10
57.60330588449995
 20
28.00688768459992
 30
0.0
 10
57.33910989199995
 20
27.84999742869991
 30
0.0
 10
57.12432709889998
 20
27.76211957409987
 30
0.0
 10
56.97739591199996
 20
27.71827574749995
 30
0.0
1001
ACAD
1000
RTMaterial
1005
0
  0
SPLINE
  5
60856
330
1F
100
AcDbEntity
  8
1
100
AcDbSpline
210
0.0
220
0.0
230
1.0
 70
     8
 71
     3
 72
     8
 73
     4
 74
     0
 42
0.0000000001
 43
0.0000000001
 40
0.0
 40
0.0
 40
0.0
 40
0.0
 40
1.0
 40
1.0
 40
1.0
 40
1.0
 10
54.70935145059996
 20
29.18068020829986
 30
0.0
 10
54.72691708140001
 20
29.17822493329988
 30
0.0
 10
54.74473964519996
 20
29.17718587269991
 30
0.0
 10
54.76247126480001
 20
29.17759748579988
 30
0.0
1001
ACAD
1000
RTMaterial
1005
0
  0
SPLINE
  5
60857
330
1F
100
AcDbEntity
  8
1
100
AcDbSpline
210
0.0
220
0.0
230
1.0
 70
     8
 71
     3
 72
     9
 73
     5
 74
     0
 42
0.0000000001
 43
0.0000000001
 40
0.0
 40
0.0
 40
0.0
 40
0.0
 40
0.2479593616
 40
1.0
 40
1.0
 40
1.0
 40
1.0
 10
55.02850853960001
 20
36.94689674839992
 30
0.0
 10
55.12941804569999
 20
36.95669334299987
 30
0.0
 10
55.53629739969995
 20
36.99702663909989
 30
0.0
 10
55.94285298619997
 20
37.04062957109994
 30
0.0
 10
56.2483814707
 20
37.07529917329987
 30
0.0
1001
ACAD
1000
RTMaterial
1005
0
  0
LINE
  5
60858
330
1F
100
AcDbEntity
  8
1
100
AcDbLine
 10
54.6962188841
 20
36.85001331039996
 30
0.0
 11
54.7006953257
 21
36.8523253480999
 31
0.0
1001
ACAD
1000
RTMaterial
1005
0
  0
LINE
  5
60859
330
1F
100
AcDbEntity
  8
1
100
AcDbLine
 10
54.7006953257
 20
36.8523253480999
 30
0.0
 11
54.70934690439998
 21
36.8566819443999
 31
0.0
1001
ACAD
1000
RTMaterial
1005
0
  0
SPLINE
  5
6085A
330
1F
100
AcDbEntity
  8
1
100
AcDbSpline
210
0.0
220
0.0
230
1.0
 70
     8
 71
     3
 72
     8
 73
     4
 74
     0
 42
0.0000000001
 43
0.0000000001
 40
0.0
 40
0.0
 40
0.0
 40
0.0
 40
1.0
 40
1.0
 40
1.0
 40
1.0
 10
54.70934690439998
 20
36.8566819443999
 30
0.0
 10
54.72951927939999
 20
36.86666968919991
 30
0.0
 10
54.75018650729999
 20
36.8757154866999
 30
0.0
 10
54.7712140722
 20
36.8837480000999
 30
0.0
1001
ACAD
1000
RTMaterial
1005
0
  0
SPLINE
  5
6085B
330
1F
100
AcDbEntity
  8
1
100
AcDbSpline
210
0.0
220
0.0
230
1.0
 70
     8
 71
     3
 72
     9
 73
     5
 74
     0
 42
0.0000000001
 43
0.0000000001
 40
0.0
 40
0.0
 40
0.0
 40
0.0
 40
0.2498748411
 40
1.0
 40
1.0
 40
1.0
 40
1.0
 10
51.54799209059996
 20
25.22506806029992
 30
0.0
 10
51.48725203449998
 20
25.30899071709991
 30
0.0
 10
51.24388887869997
 20
25.64464582199992
 30
0.0
 10
50.99940300079999
 20
25.97948712749996
 30
0.0
 10
50.81533797679998
 20
26.23016705759989
 30
0.0
1001
ACAD
1000
RTMaterial
1005
0
  0
SPLINE
  5
6085C
330
1F
100
AcDbEntity
  8
1
100
AcDbSpline
210
0.0
220
0.0
230
1.0
 70
     8
 71
     3
 72
     8
 73
     4
 74
     0
 42
0.0000000001
 43
0.0000000001
 40
0.0
 40
0.0
 40
0.0
 40
0.0
 40
1.0
 40
1.0
 40
1.0
 40
1.0
 10
51.7871104523
 20
24.99163406939988
 30
0.0
 10
51.76964549429993
 20
25.0035403089999
 30
0.0
 10
51.75266973609996
 20
25.01619815459992
 30
0.0
 10
51.73627825979997
 20
25.02954367079985
 30
0.0
1001
ACAD
1000
RTMaterial
1005
0
  0
SPLINE
  5
6085D
330
1F
100
AcDbEntity
  8
1
100
AcDbSpline
210
0.0
220
0.0
230
1.0
 70
     8
 71
     3
 72
     9
 73
     5
 74
     0
 42
0.0000000001
 43
0.0000000001
 40
0.0
 40
0.0
 40
0.0
 40
0.0
 40
0.2496740753
 40
1.0
 40
1.0
 40
1.0
 40
1.0
 10
63.38404129859995
 20
28.05516359869989
 30
0.0
 10
63.34012359089999
 20
27.96144719169991
 30
0.0
 10
63.16555768109996
 20
27.58546880509988
 30
0.0
 10
62.99632321389996
 20
27.20701181409987
 30
0.0
 10
62.87256838219994
 20
26.92166221859992
 30
0.0
1001
ACAD
1000
RTMaterial
1005
0
  0
SPLINE
  5
6085E
330
1F
100
AcDbEntity
  8
1
100
AcDbSpline
210
0.0
220
0.0
230
1.0
 70
     8
 71
     3
 72
     9
 73
     5
 74
     0
 42
0.0000000001
 43
0.0000000001
 40
0.0
 40
0.0
 40
0.0
 40
0.0
 40
0.2567257741
 40
1.0
 40
1.0
 40
1.0
 40
1.0
 10
53.22632737269998
 20
36.33302813149987
 30
0.0
 10
53.20254954029997
 20
36.32843945579987
 30
0.0
 10
53.11036415769996
 20
36.30839690029996
 30
0.0
 10
53.02002245249997
 20
36.27978560549991
 30
0.0
 10
52.95491881049997
 20
36.2537625944999
 30
0.0
1001
ACAD
1000
RTMaterial
1005
0
  0
SPLINE
  5
6085F
330
1F
100
AcDbEntity
  8
1
100
AcDbSpline
210
0.0
220
0.0
230
1.0
 70
     8
 71
     3
 72
     9
 73
     5
 74
     0
 42
0.0000000001
 43
0.0000000001
 40
0.0
 40
0.0
 40
0.0
 40
0.0
 40
0.501675589
 40
1.0
 40
1.0
 40
1.0
 40
1.0
 10
48.57413047139999
 20
29.28248861259988
 30
0.0
 10
48.53126056909997
 20
29.3408735459999
 30
0.0
 10
48.4540760525
 20
29.46359237219997
 30
0.0
 10
48.39630752549999
 20
29.5966207777999
 30
0.0
 10
48.37285567699996
 20
29.66464121029992
 30
0.0
1001
ACAD
1000
RTMaterial
1005
0
  0
LINE
  5
60860
330
1F
100
AcDbEntity
  8
1
100
AcDbLine
 10
47.6462249337
 20
30.99087332499994
 30
0.0
 11
47.64245781409999
 21
30.9602096701999
 31
0.0
1001
ACAD
1000
RTMaterial
1005
0
  0
SPLINE
  5
60861
330
1F
100
AcDbEntity
  8
1
100
AcDbSpline
210
0.0
220
0.0
230
1.0
 70
     8
 71
     3
 72
     9
 73
     5
 74
     0
 42
0.0000000001
 43
0.0000000001
 40
0.0
 40
0.0
 40
0.0
 40
0.0
 40
0.2493217228
 40
1.0
 40
1.0
 40
1.0
 40
1.0
 10
47.69825798469997
 20
31.22346492549991
 30
0.0
 10
47.69226998809995
 20
31.20456927729987
 30
0.0
 10
47.66991019659997
 20
31.1282652409999
 30
0.0
 10
47.65418734199994
 20
31.05002071429993
 30
0.0
 10
47.6462247732
 20
30.99087333999995
 30
0.0
1001
ACAD
1000
RTMaterial
1005
0
  0
SPLINE
  5
60862
330
1F
100
AcDbEntity
  8
1
100
AcDbSpline
210
0.0
220
0.0
230
1.0
 70
     8
 71
     3
 72
     9
 73
     5
 74
     0
 42
0.0000000001
 43
0.0000000001
 40
0.0
 40
0.0
 40
0.0
 40
0.0
 40
0.2491658341
 40
1.0
 40
1.0
 40
1.0
 40
1.0
 10
47.72961805529996
 20
31.31266113739992
 30
0.0
 10
47.72678348309995
 20
31.30533704519991
 30
0.0
 10
47.71563486339999
 20
31.27585502019992
 30
0.0
 10
47.70540534539998
 20
31.24602532529991
 30
0.0
 10
47.69825614920001
 20
31.22346540889993
 30
0.0
1001
ACAD
1000
RTMaterial
1005
0
  0
SPLINE
  5
60863
330
1F
100
AcDbEntity
  8
1
100
AcDbSpline
210
0.0
220
0.0
230
1.0
 70
     8
 71
     3
 72
    11
 73
     7
 74
     0
 42
0.0000000001
 43
0.0000000001
 40
0.0
 40
0.0
 40
0.0
 40
0.0
 40
0.2482991202
 40
0.4971764117000001
 40
0.7476319500000001
 40
1.0
 40
1.0
 40
1.0
 40
1.0
 10
47.6405071813
 20
30.92976580589988
 30
0.0
 10
47.63630294569998
 20
30.84999067709992
 30
0.0
 10
47.64135545219994
 20
30.68921380439991
 30
0.0
 10
47.68997944429997
 20
30.45244609709994
 30
0.0
 10
47.77954739079996
 20
30.2265253784999
 30
0.0
 10
47.86445032339997
 20
30.08774299179993
 30
0.0
 10
47.91250562349995
 20
30.02229601549988
 30
0.0
1001
ACAD
1000
RTMaterial
1005
0
  0
LINE
  5
60864
330
1F
100
AcDbEntity
  8
1
100
AcDbLine
 10
47.64245781409999
 20
30.9602096701999
 30
0.0
 11
47.6405071813
 21
30.92976580589988
 31
0.0
1001
ACAD
1000
RTMaterial
1005
0
  0
SPLINE
  5
60865
330
1F
100
AcDbEntity
  8
1
100
AcDbSpline
210
0.0
220
0.0
230
1.0
 70
     8
 71
     3
 72
     9
 73
     5
 74
     0
 42
0.0000000001
 43
0.0000000001
 40
0.0
 40
0.0
 40
0.0
 40
0.0
 40
0.4973933731000001
 40
1.0
 40
1.0
 40
1.0
 40
1.0
 10
60.71710645109994
 20
22.72331132199992
 30
0.0
 10
60.63205807059995
 20
22.68254475039993
 30
0.0
 10
60.45195815029996
 20
22.61836541849993
 30
0.0
 10
60.26241613839999
 20
22.5933582415999
 30
0.0
 10
60.16715117370001
 20
22.59068118459993
 30
0.0
1001
ACAD
1000
RTMaterial
1005
0
  0
SPLINE
  5
60866
330
1F
100
AcDbEntity
  8
1
100
AcDbSpline
210
0.0
220
0.0
230
1.0
 70
     8
 71
     3
 72
     9
 73
     5
 74
     0
 42
0.0000000001
 43
0.0000000001
 40
0.0
 40
0.0
 40
0.0
 40
0.0
 40
0.2490451083
 40
1.0
 40
1.0
 40
1.0
 40
1.0
 10
60.95844602759996
 20
22.88550990489989
 30
0.0
 10
60.94383643409997
 20
22.87301201619988
 30
0.0
 10
60.88405202199999
 20
22.82415408029994
 30
0.0
 10
60.81989695559997
 20
22.78065474309989
 30
0.0
 10
60.76987463949996
 20
22.75135275899987
 30
0.0
1001
ACAD
1000
RTMaterial
1005
0
  0
SPLINE
  5
60867
330
1F
100
AcDbEntity
  8
1
100
AcDbSpline
210
0.0
220
0.0
230
1.0
 70
     8
 71
     3
 72
     9
 73
     5
 74
     0
 42
0.0000000001
 43
0.0000000001
 40
0.0
 40
0.0
 40
0.0
 40
0.0
 40
0.5012706207000001
 40
1.0
 40
1.0
 40
1.0
 40
1.0
 10
61.36426486189998
 20
23.44386752169993
 30
0.0
 10
61.31807793399997
 20
23.33737130719993
 30
0.0
 10
61.20380292409999
 20
23.13370245049987
 30
0.0
 10
61.04620827189996
 20
22.96058427159989
 30
0.0
 10
60.95844717839998
 20
22.88550837439988
 30
0.0
1001
ACAD
1000
RTMaterial
1005
0
  0
SPLINE
  5
60868
330
1F
100
AcDbEntity
  8
1
100
AcDbSpline
210
0.0
220
0.0
230
1.0
 70
     8
 71
     3
 72
     9
 73
     5
 74
     0
 42
0.0000000001
 43
0.0000000001
 40
0.0
 40
0.0
 40
0.0
 40
0.0
 40
0.4987360353
 40
1.0
 40
1.0
 40
1.0
 40
1.0
 10
60.96780067929995
 20
37.2825719766999
 30
0.0
 10
61.10100722699996
 20
37.19105955859993
 30
0.0
 10
61.33939949719996
 20
36.96135762839992
 30
0.0
 10
61.48616411109998
 20
36.66436248719993
 30
0.0
 10
61.53271046769998
 20
36.50874312139996
 30
0.0
1001
ACAD
1000
RTMaterial
1005
0
  0
SPLINE
  5
60869
330
1F
100
AcDbEntity
  8
1
100
AcDbSpline
210
0.0
220
0.0
230
1.0
 70
     8
 71
     3
 72
     9
 73
     5
 74
     0
 42
0.0000000001
 43
0.0000000001
 40
0.0
 40
0.0
 40
0.0
 40
0.0
 40
0.2492241108
 40
1.0
 40
1.0
 40
1.0
 40
1.0
 10
60.69643344129997
 20
37.41801532479991
 30
0.0
 10
60.71527568589999
 20
37.41109286539995
 30
0.0
 10
60.7902741501
 20
37.38169497249993
 30
0.0
 10
60.86275393749997
 20
37.34588411079989
 30
0.0
 10
60.91516481739995
 20
37.31572080319995
 30
0.0
1001
ACAD
1000
RTMaterial
1005
0
  0
SPLINE
  5
6086A
330
1F
100
AcDbEntity
  8
1
100
AcDbSpline
210
0.0
220
0.0
230
1.0
 70
     8
 71
     3
 72
     9
 73
     5
 74
     0
 42
0.0000000001
 43
0.0000000001
 40
0.0
 40
0.0
 40
0.0
 40
0.0
 40
0.4950561726
 40
1.0
 40
1.0
 40
1.0
 40
1.0
 10
59.99789239619997
 20
37.50077227429995
 30
0.0
 10
60.11401482439999
 20
37.51394917429997
 30
0.0
 10
60.35236368609997
 20
37.51412783969994
 30
0.0
 10
60.58454456879997
 20
37.45912427019988
 30
0.0
 10
60.69643414749998
 20
37.41801711339991
 30
0.0
1001
ACAD
1000
RTMaterial
1005
0
  0
SPLINE
  5
6086B
330
1F
100
AcDbEntity
  8
1
100
AcDbSpline
210
0.0
220
0.0
230
1.0
 70
     8
 71
     3
 72
     9
 73
     5
 74
     0
 42
0.0000000001
 43
0.0000000001
 40
0.0
 40
0.0
 40
0.0
 40
0.0
 40
0.7496191467000001
 40
1.0
 40
1.0
 40
1.0
 40
1.0
 10
63.46355001009996
 20
28.31383672499993
 30
0.0
 10
63.45165067369996
 20
28.24718217669994
 30
0.0
 10
63.42725769289993
 20
28.15951083089988
 30
0.0
 10
63.39316787789991
 20
28.0758555866999
 30
0.0
 10
63.38404129859995
 20
28.05516359869989
 30
0.0
1001
ACAD
1000
RTMaterial
1005
0
  0
SPLINE
  5
6086C
330
1F
100
AcDbEntity
  8
1
100
AcDbSpline
210
0.0
220
0.0
230
1.0
 70
     8
 71
     3
 72
     8
 73
     4
 74
     0
 42
0.0000000001
 43
0.0000000001
 40
0.0
 40
0.0
 40
0.0
 40
0.0
 40
1.0
 40
1.0
 40
1.0
 40
1.0
 10
63.47199999999995
 20
28.36993095509991
 30
0.0
 10
63.46969744879996
 20
28.35116263279991
 30
0.0
 10
63.46687315899996
 20
28.33245145969994
 30
0.0
 10
63.46355001009996
 20
28.31383672499993
 30
0.0
1001
ACAD
1000
RTMaterial
1005
0
  0
LINE
  5
6086D
330
1F
100
AcDbEntity
  8
1
100
AcDbLine
 10
63.47384042669992
 20
28.40163691009991
 30
0.0
 11
63.47199999999995
 21
28.36993095509991
 31
0.0
1001
ACAD
1000
RTMaterial
1005
0
  0
SPLINE
  5
6086E
330
1F
100
AcDbEntity
  8
1
100
AcDbSpline
210
0.0
220
0.0
230
1.0
 70
     8
 71
     3
 72
     9
 73
     5
 74
     0
 42
0.0000000001
 43
0.0000000001
 40
0.0
 40
0.0
 40
0.0
 40
0.0
 40
0.2434504122
 40
1.0
 40
1.0
 40
1.0
 40
1.0
 10
63.50058650459996
 20
29.70869782379992
 30
0.0
 10
63.50229583499995
 20
29.60260812129991
 30
0.0
 10
63.50547568559992
 20
29.16677915929995
 30
0.0
 10
63.49255661039993
 20
28.73083380799989
 30
0.0
 10
63.47384150749994
 20
28.40163686789992
 30
0.0
1001
ACAD
1000
RTMaterial
1005
0
  0
LINE
  5
6086F
330
1F
100
AcDbEntity
  8
1
100
AcDbLine
 10
63.49999999999997
 20
29.74188473969997
 30
0.0
 11
63.50058541809992
 21
29.70869779229992
 31
0.0
1001
ACAD
1000
RTMaterial
1005
0
  0
SPLINE
  5
60870
330
1F
100
AcDbEntity
  8
1
100
AcDbSpline
210
0.0
220
0.0
230
1.0
 70
     8
 71
     3
 72
     9
 73
     5
 74
     0
 42
0.0000000001
 43
0.0000000001
 40
0.0
 40
0.0
 40
0.0
 40
0.0
 40
0.2584941647
 40
1.0
 40
1.0
 40
1.0
 40
1.0
 10
63.43637431879992
 20
30.14418729429997
 30
0.0
 10
63.44644869079994
 20
30.11050544279993
 30
0.0
 10
63.48104092609995
 20
29.97894031709996
 30
0.0
 10
63.49806803989995
 20
29.8427139508999
 30
0.0
 10
63.50000046889997
 20
29.74188475419993
 30
0.0
1001
ACAD
1000
RTMaterial
1005
0
  0
SPLINE
  5
60871
330
1F
100
AcDbEntity
  8
1
100
AcDbSpline
210
0.0
220
0.0
230
1.0
 70
     8
 71
     3
 72
     9
 73
     5
 74
     0
 42
0.0000000001
 43
0.0000000001
 40
0.0
 40
0.0
 40
0.0
 40
0.0
 40
0.2463724036
 40
1.0
 40
1.0
 40
1.0
 40
1.0
 10
52.92457528839998
 20
36.24159075409989
 30
0.0
 10
52.89770421909998
 20
36.23077240349994
 30
0.0
 10
52.78874376279998
 20
36.18659810679992
 30
0.0
 10
52.68023285309999
 20
36.14131380699991
 30
0.0
 10
52.59873706999997
 20
36.10653330979989
 30
0.0
1001
ACAD
1000
RTMaterial
1005
0
  0
LINE
  5
60872
330
1F
100
AcDbEntity
  8
1
100
AcDbLine
 10
52.95491898159998
 20
36.25376215519992
 30
0.0
 11
52.924575688
 21
36.24158973379991
 31
0.0
1001
ACAD
1000
RTMaterial
1005
0
  0
SPLINE
  5
60873
330
1F
100
AcDbEntity
  8
1
100
AcDbSpline
210
0.0
220
0.0
230
1.0
 70
     8
 71
     3
 72
     9
 73
     5
 74
     0
 42
0.0000000001
 43
0.0000000001
 40
0.0
 40
0.0
 40
0.0
 40
0.0
 40
0.2504623937
 40
1.0
 40
1.0
 40
1.0
 40
1.0
 10
54.77121399869997
 20
36.88374818889992
 30
0.0
 10
54.79190550999999
 20
36.89165233029991
 30
0.0
 10
54.87552444309995
 20
36.9205340550999
 30
0.0
 10
54.96270392689996
 20
36.93892376449992
 30
0.0
 10
55.02850853960001
 20
36.94689674839992
 30
0.0
1001
ACAD
1000
RTMaterial
1005
0
  0
SPLINE
  5
60874
330
1F
100
AcDbEntity
  8
1
100
AcDbSpline
210
0.0
220
0.0
230
1.0
 70
     8
 71
     3
 72
     9
 73
     5
 74
     0
 42
0.0000000001
 43
0.0000000001
 40
0.0
 40
0.0
 40
0.0
 40
0.0
 40
0.2578430942
 40
1.0
 40
1.0
 40
1.0
 40
1.0
 10
51.83845683909999
 20
24.67550442179993
 30
0.0
 10
51.85924828549997
 20
24.64718835119987
 30
0.0
 10
51.94353830459999
 20
24.54010233469996
 30
0.0
 10
52.04208941629997
 20
24.44422101129993
 30
0.0
 10
52.12142139669999
 20
24.3815269939999
 30
0.0
1001
ACAD
1000
RTMaterial
1005
0
  0
SPLINE
  5
60875
330
1F
100
AcDbEntity
  8
1
100
AcDbSpline
210
0.0
220
0.0
230
1.0
 70
     8
 71
     3
 72
    10
 73
     6
 74
     0
 42
0.0000000001
 43
0.0000000001
 40
0.0
 40
0.0
 40
0.0
 40
0.0
 40
0.241996592
 40
0.6212439231
 40
1.0
 40
1.0
 40
1.0
 40
1.0
 10
52.14764154529996
 20
24.36086189979989
 30
0.0
 10
52.2182367483
 20
24.30537803579989
 30
0.0
 10
52.40049626449996
 20
24.16424687679995
 30
0.0
 10
52.6983593942
 20
23.94295562789995
 30
0.0
 10
52.92783043459997
 20
23.78029414349993
 30
0.0
 10
53.04345523219996
 20
23.70041810799989
 30
0.0
1001
ACAD
1000
RTMaterial
1005
0
  0
LINE
  5
60876
330
1F
100
AcDbEntity
  8
1
100
AcDbLine
 10
52.12142168919996
 20
24.38152736289993
 30
0.0
 11
52.14764222319996
 21
24.36086275849993
 31
0.0
1001
ACAD
1000
RTMaterial
1005
0
  0
SPLINE
  5
60877
330
1F
100
AcDbEntity
  8
1
100
AcDbSpline
210
0.0
220
0.0
230
1.0
 70
     8
 71
     3
 72
     9
 73
     5
 74
     0
 42
0.0000000001
 43
0.0000000001
 40
0.0
 40
0.0
 40
0.0
 40
0.0
 40
0.2503103162
 40
1.0
 40
1.0
 40
1.0
 40
1.0
 10
51.73627813190001
 20
25.02954351359995
 30
0.0
 10
51.71869121009996
 20
25.0438623300999
 30
0.0
 10
51.65024611090001
 20
25.10327261779992
 30
0.0
 10
51.58909065039996
 20
25.17098873969997
 30
0.0
 10
51.54799209059996
 20
25.22506806029992
 30
0.0
1001
ACAD
1000
RTMaterial
1005
0
  0
SPLINE
  5
60878
330
1F
100
AcDbEntity
  8
1
100
AcDbSpline
210
0.0
220
0.0
230
1.0
 70
     8
 71
     3
 72
     8
 73
     4
 74
     0
 42
0.0000000001
 43
0.0000000001
 40
0.0
 40
0.0
 40
0.0
 40
0.0
 40
1.0
 40
1.0
 40
1.0
 40
1.0
 10
60.91516606919999
 20
37.31572288699994
 30
0.0
 10
60.93313719399998
 20
37.30538020809991
 30
0.0
 10
60.95071064329999
 20
37.29431346009989
 30
0.0
 10
60.96780117589998
 20
37.28257267529995
 30
0.0
1001
ACAD
1000
RTMaterial
1005
0
  0
SPLINE
  5
60879
330
1F
100
AcDbEntity
  8
1
100
AcDbSpline
210
0.0
220
0.0
230
1.0
 70
     8
 71
     3
 72
     8
 73
     4
 74
     0
 42
0.0000000001
 43
0.0000000001
 40
0.0
 40
0.0
 40
0.0
 40
0.0
 40
1.0
 40
1.0
 40
1.0
 40
1.0
 10
60.76987577539995
 20
22.75135060789995
 30
0.0
 10
60.75268869019999
 20
22.74128279389993
 30
0.0
 10
60.73506855169995
 20
22.7319205332999
 30
0.0
 10
60.71710679509999
 20
22.72331053469998
 30
0.0
1001
ACAD
1000
RTMaterial
1005
0
  0
SPLINE
  5
6087A
330
1F
100
AcDbEntity
  8
1
100
AcDbSpline
210
0.0
220
0.0
230
1.0
 70
     8
 71
     3
 72
    11
 73
     7
 74
     0
 42
0.0000000001
 43
0.0000000001
 40
0.0
 40
0.0
 40
0.0
 40
0.0
 40
0.2476310057
 40
0.4970906347
 40
0.7482928707
 40
1.0
 40
1.0
 40
1.0
 40
1.0
 10
48.30283568390001
 20
30.22124497419992
 30
0.0
 10
48.31162964009997
 20
30.30101841029995
 30
0.0
 10
48.34276209550001
 20
30.45996528139994
 30
0.0
 10
48.42783437199995
 20
30.68818193509986
 30
0.0
 10
48.54928781659999
 20
30.9007816836999
 30
0.0
 10
48.65164705949997
 20
31.02860352319993
 30
0.0
 10
48.7073913731
 20
31.08816441419993
 30
0.0
1001
ACAD
1000
RTMaterial
1005
0
  0
LINE
  5
6087B
330
1F
100
AcDbEntity
  8
1
100
AcDbLine
 10
48.29980660219996
 20
30.1908657484999
 30
0.0
 11
48.30283568390001
 21
30.22124497419992
 31
0.0
1001
ACAD
1000
RTMaterial
1005
0
  0
LINE
  5
6087C
330
1F
100
AcDbEntity
  8
1
100
AcDbLine
 10
48.29850311460001
 20
30.16005443199992
 30
0.0
 11
48.29980660219996
 21
30.1908657484999
 31
0.0
1001
ACAD
1000
RTMaterial
1005
0
  0
SPLINE
  5
6087D
330
1F
100
AcDbEntity
  8
1
100
AcDbSpline
210
0.0
220
0.0
230
1.0
 70
     8
 71
     3
 72
     9
 73
     5
 74
     0
 42
0.0000000001
 43
0.0000000001
 40
0.0
 40
0.0
 40
0.0
 40
0.0
 40
0.2484673022
 40
1.0
 40
1.0
 40
1.0
 40
1.0
 10
48.31086564909998
 20
29.92360317939989
 30
0.0
 10
48.30817961619999
 20
29.94304183049991
 30
0.0
 10
48.29905462219994
 20
30.02150090299989
 30
0.0
 10
48.29662982019994
 20
30.10072975049991
 30
0.0
 10
48.29850295049999
 20
30.16005443649988
 30
0.0
1001
ACAD
1000
RTMaterial
1005
0
  0
SPLINE
  5
6087E
330
1F
100
AcDbEntity
  8
1
100
AcDbSpline
210
0.0
220
0.0
230
1.0
 70
     8
 71
     3
 72
     9
 73
     5
 74
     0
 42
0.0000000001
 43
0.0000000001
 40
0.0
 40
0.0
 40
0.0
 40
0.0
 40
0.2304774491
 40
1.0
 40
1.0
 40
1.0
 40
1.0
 10
48.19711073090002
 20
30.42952332809989
 30
0.0
 10
48.19497854209998
 20
30.43447837639991
 30
0.0
 10
48.18470989369996
 20
30.4555414612999
 30
0.0
 10
48.17082357149996
 20
30.47469713039993
 30
0.0
 10
48.15912382729999
 20
30.48839020669993
 30
0.0
1001
ACAD
1000
RTMaterial
1005
0
  0
SPLINE
  5
6087F
330
1F
100
AcDbEntity
  8
1
100
AcDbSpline
210
0.0
220
0.0
230
1.0
 70
     8
 71
     3
 72
     9
 73
     5
 74
     0
 42
0.0000000001
 43
0.0000000001
 40
0.0
 40
0.0
 40
0.0
 40
0.0
 40
0.2714774794
 40
1.0
 40
1.0
 40
1.0
 40
1.0
 10
47.95852006529997
 20
30.7087636364999
 30
0.0
 10
47.96475475969998
 20
30.70380357199991
 30
0.0
 10
47.98737015879999
 20
30.6851119129999
 30
0.0
 10
48.00856869039995
 20
30.66459602249995
 30
0.0
 10
48.02245709429996
 20
30.64834139579989
 30
0.0
1001
ACAD
1000
RTMaterial
1005
0
  0
SPLINE
  5
60880
330
1F
100
AcDbEntity
  8
1
100
AcDbSpline
210
0.0
220
0.0
230
1.0
 70
     8
 71
     3
 72
     9
 73
     5
 74
     0
 42
0.0000000001
 43
0.0000000001
 40
0.0
 40
0.0
 40
0.0
 40
0.0
 40
0.248159661
 40
1.0
 40
1.0
 40
1.0
 40
1.0
 10
60.16715117370001
 20
22.59068118459993
 30
0.0
 10
60.13563663859997
 20
22.58979558929997
 30
0.0
 10
60.0085498066
 20
22.59050099879988
 30
0.0
 10
59.88163570579996
 20
22.60819596739992
 30
0.0
 10
59.78869359489999
 20
22.63022087179996
 30
0.0
1001
ACAD
1000
RTMaterial
1005
0
  0
SPLINE
  5
60881
330
1F
100
AcDbEntity
  8
1
100
AcDbSpline
210
0.0
220
0.0
230
1.0
 70
     8
 71
     3
 72
     9
 73
     5
 74
     0
 42
0.0000000001
 43
0.0000000001
 40
0.0
 40
0.0
 40
0.0
 40
0.0
 40
0.2485144324
 40
1.0
 40
1.0
 40
1.0
 40
1.0
 10
48.37285567699996
 20
29.66464121029992
 30
0.0
 10
48.3656595603
 20
29.68551303939989
 30
0.0
 10
48.33869749410002
 20
29.77017329869989
 30
0.0
 10
48.32000185679993
 20
29.85747079949994
 30
0.0
 10
48.31086372099997
 20
29.92360292159992
 30
0.0
1001
ACAD
1000
RTMaterial
1005
0
  0
SPLINE
  5
60882
330
1F
100
AcDbEntity
  8
1
100
AcDbSpline
210
0.0
220
0.0
230
1.0
 70
     8
 71
     3
 72
     9
 73
     5
 74
     0
 42
0.0000000001
 43
0.0000000001
 40
0.0
 40
0.0
 40
0.0
 40
0.0
 40
0.2594039192
 40
1.0
 40
1.0
 40
1.0
 40
1.0
 10
53.23723186859997
 20
35.92814467319994
 30
0.0
 10
53.26118534879999
 20
35.9537381461999
 30
0.0
 10
53.3566434955
 20
36.04942843349994
 30
0.0
 10
53.46415774129997
 20
36.13315079969993
 30
0.0
 10
53.54884130669995
 20
36.18648536669991
 30
0.0
1001
ACAD
1000
RTMaterial
1005
0
  0
SPLINE
  5
60883
330
1F
100
AcDbEntity
  8
1
100
AcDbSpline
210
0.0
220
0.0
230
1.0
 70
     8
 71
     3
 72
     9
 73
     5
 74
     0
 42
0.0000000001
 43
0.0000000001
 40
0.0
 40
0.0
 40
0.0
 40
0.0
 40
0.2436363991
 40
1.0
 40
1.0
 40
1.0
 40
1.0
 10
53.57656657529997
 20
36.20391712839989
 30
0.0
 10
53.6651784975
 20
36.25953016699992
 30
0.0
 10
54.030907184
 20
36.48455305249996
 30
0.0
 10
54.40503022939998
 20
36.69593306789995
 30
0.0
 10
54.69209441639998
 20
36.84784915759991
 30
0.0
1001
ACAD
1000
RTMaterial
1005
0
  0
LINE
  5
60884
330
1F
100
AcDbEntity
  8
1
100
AcDbLine
 10
53.54884157179998
 20
36.18648493639995
 30
0.0
 11
53.57656714839999
 21
36.20391619469996
 31
0.0
1001
ACAD
1000
RTMaterial
1005
0
  0
SPLINE
  5
60885
330
1F
100
AcDbEntity
  8
1
100
AcDbSpline
210
0.0
220
0.0
230
1.0
 70
     8
 71
     3
 72
     9
 73
     5
 74
     0
 42
0.0000000001
 43
0.0000000001
 40
0.0
 40
0.0
 40
0.0
 40
0.0
 40
0.2435088423
 40
1.0
 40
1.0
 40
1.0
 40
1.0
 10
52.94436609569999
 20
24.3145134552999
 30
0.0
 10
52.85026151059998
 20
24.36497218379992
 30
0.0
 10
52.46562405419997
 20
24.57555476819994
 30
0.0
 10
52.08868685939996
 20
24.80020088599991
 30
0.0
 10
51.80840824269996
 20
24.97763748739993
 30
0.0
1001
ACAD
1000
RTMaterial
1005
0
  0
LINE
  5
60886
330
1F
100
AcDbEntity
  8
1
100
AcDbLine
 10
52.9738076273
 20
24.29875873129993
 30
0.0
 11
52.94436661429995
 21
24.31451442039997
 31
0.0
1001
ACAD
1000
RTMaterial
1005
0
  0
SPLINE
  5
60887
330
1F
100
AcDbEntity
  8
1
100
AcDbSpline
210
0.0
220
0.0
230
1.0
 70
     8
 71
     3
 72
     9
 73
     5
 74
     0
 42
0.0000000001
 43
0.0000000001
 40
0.0
 40
0.0
 40
0.0
 40
0.0
 40
0.2574460055999999
 40
1.0
 40
1.0
 40
1.0
 40
1.0
 10
53.35518922359995
 20
24.15479646329988
 30
0.0
 10
53.3210956835
 20
24.16287576129992
 30
0.0
 10
53.18972424519995
 20
24.19857279449991
 30
0.0
 10
53.06294843289999
 20
24.25114582579988
 30
0.0
 10
52.973807405
 20
24.29875831559991
 30
0.0
1001
ACAD
1000
RTMaterial
1005
0
  0
SPLINE
  5
60888
330
1F
100
AcDbEntity
  8
1
100
AcDbSpline
210
0.0
220
0.0
230
1.0
 70
     8
 71
     3
 72
     8
 73
     4
 74
     0
 42
0.0000000001
 43
0.0000000001
 40
0.0
 40
0.0
 40
0.0
 40
0.0
 40
1.0
 40
1.0
 40
1.0
 40
1.0
 10
51.80840893859993
 20
24.97763858649989
 30
0.0
 10
51.80123127689995
 20
24.98218256449991
 30
0.0
 10
51.79412964369999
 20
24.98684893479993
 30
0.0
 10
51.7871104523
 20
24.99163406939988
 30
0.0
1001
ACAD
1000
RTMaterial
1005
0
  0
SPLINE
  5
60889
330
1F
100
AcDbEntity
  8
1
100
AcDbSpline
210
0.0
220
0.0
230
1.0
 70
     8
 71
     3
 72
    20
 73
    16
 74
     0
 42
0.0000000001
 43
0.0000000001
 40
0.0
 40
0.0
 40
0.0
 40
0.0
 40
0.2275639112999999
 40
0.4259900192
 40
0.5949211109000001
 40
0.7342292719
 40
0.7927673761000001
 40
0.8438955268
 40
0.8876235904000001
 40
0.9239763029
 40
0.9530150206
 40
0.9748940018999999
 40
0.9832756190999999
 40
0.990089099
 40
1.0
 40
1.0
 40
1.0
 40
1.0
 10
51.89571372
 20
36.39530954079987
 30
0.0
 10
51.83535427729998
 20
36.40172462699991
 30
0.0
 10
51.72247020549997
 20
36.41477072859994
 30
0.0
 10
51.56523101519997
 20
36.43624929679993
 30
0.0
 10
51.43177890959998
 20
36.45765412179992
 30
0.0
 10
51.3356289358
 20
36.47583389289997
 30
0.0
 10
51.27077521690001
 20
36.49015045469997
 30
0.0
 10
51.2310405755
 20
36.49993251169991
 30
0.0
 10
51.19732604289999
 20
36.50934701189988
 30
0.0
 10
51.16962717569998
 20
36.51833300649986
 30
0.0
 10
51.14795699399997
 20
36.52687759269992
 30
0.0
 10
51.1337962449
 20
36.53402290229991
 30
0.0
 10
51.12570458849996
 20
36.53980232129993
 30
0.0
 10
51.12086293189998
 20
36.54434293619988
 30
0.0
 10
51.11849105250001
 20
36.54864503909988
 30
0.0
 10
51.1184879864
 20
36.55128862699991
 30
0.0
1001
ACAD
1000
RTMaterial
1005
0
  0
SPLINE
  5
6088A
330
1F
100
AcDbEntity
  8
1
100
AcDbSpline
210
0.0
220
0.0
230
1.0
 70
     8
 71
     3
 72
     9
 73
     5
 74
     0
 42
0.0000000001
 43
0.0000000001
 40
0.0
 40
0.0
 40
0.0
 40
0.0
 40
0.2587697181
 40
1.0
 40
1.0
 40
1.0
 40
1.0
 10
33.24484255949994
 20
27.55405222499997
 30
0.0
 10
33.20628832659997
 20
27.5611342380999
 30
0.0
 10
33.05764800769998
 20
27.59034008049991
 30
0.0
 10
32.91044303939998
 20
27.62711603139991
 30
0.0
 10
32.80290174099997
 20
27.65940477259988
 30
0.0
1001
ACAD
1000
RTMaterial
1005
0
  0
SPLINE
  5
6088B
330
1F
100
AcDbEntity
  8
1
100
AcDbSpline
210
0.0
220
0.0
230
1.0
 70
     8
 71
     3
 72
    11
 73
     7
 74
     0
 42
0.0000000001
 43
0.0000000001
 40
0.0
 40
0.0
 40
0.0
 40
0.0
 40
0.2836564975
 40
0.5451028248
 40
0.7836434653000001
 40
1.0
 40
1.0
 40
1.0
 40
1.0
 10
32.80290174099997
 20
27.65940477259988
 30
0.0
 10
32.69682142649998
 20
27.69125486059994
 30
0.0
 10
32.49583275499998
 20
27.76282080129994
 30
0.0
 10
32.22104489289995
 20
27.8993253372999
 30
0.0
 10
31.98945128949998
 20
28.05791844789997
 30
0.0
 10
31.86094378159999
 20
28.18237046589991
 30
0.0
 10
31.8069956315
 20
28.24738193609994
 30
0.0
1001
ACAD
1000
RTMaterial
1005
0
  0
SPLINE
  5
6088C
330
1F
100
AcDbEntity
  8
1
100
AcDbSpline
210
0.0
220
0.0
230
1.0
 70
     8
 71
     3
 72
     9
 73
     5
 74
     0
 42
0.0000000001
 43
0.0000000001
 40
0.0
 40
0.0
 40
0.0
 40
0.0
 40
0.256942581
 40
1.0
 40
1.0
 40
1.0
 40
1.0
 10
59.58584119749997
 20
22.28959755059992
 30
0.0
 10
59.58412508279997
 20
22.2833897884999
 30
0.0
 10
59.57754337419999
 20
22.25920297099992
 30
0.0
 10
59.57133403969999
 20
22.23491418499992
 30
0.0
 10
59.56696934179996
 20
22.21680710349994
 30
0.0
1001
ACAD
1000
RTMaterial
1005
0
  0
SPLINE
  5
6088D
330
1F
100
AcDbEntity
  8
1
100
AcDbSpline
210
0.0
220
0.0
230
1.0
 70
     8
 71
     3
 72
     8
 73
     4
 74
     0
 42
0.0000000001
 43
0.0000000001
 40
0.0
 40
0.0
 40
0.0
 40
0.0
 40
1.0
 40
1.0
 40
1.0
 40
1.0
 10
59.62985034869996
 20
22.44571181809994
 30
0.0
 10
59.61491729009998
 20
22.39374868609997
 30
0.0
 10
59.60024729559996
 20
22.34170923509987
 30
0.0
 10
59.58584119749997
 20
22.28959755059992
 30
0.0
1001
ACAD
1000
RTMaterial
1005
0
  0
SPLINE
  5
6088E
330
1F
100
AcDbEntity
  8
1
100
AcDbSpline
210
0.0
220
0.0
230
1.0
 70
     8
 71
     3
 72
     9
 73
     5
 74
     0
 42
0.0000000001
 43
0.0000000001
 40
0.0
 40
0.0
 40
0.0
 40
0.0
 40
0.2634579124
 40
1.0
 40
1.0
 40
1.0
 40
1.0
 10
60.1667596103
 20
22.07643438729991
 30
0.0
 10
60.16776449819997
 20
22.0674035022999
 30
0.0
 10
60.17198116309998
 20
22.03317355459995
 30
0.0
 10
60.17787452269994
 20
21.99913226199993
 30
0.0
 10
60.18345244119996
 20
21.97434899479987
 30
0.0
1001
ACAD
1000
RTMaterial
1005
0
  0
LINE
  5
6088F
330
1F
100
AcDbEntity
  8
1
100
AcDbLine
 10
51.23625621029998
 20
24.50876111129992
 30
0.0
 11
51.23493412689999
 21
24.51184195629992
 31
0.0
1001
ACAD
1000
RTMaterial
1005
0
  0
SPLINE
  5
60890
330
1F
100
AcDbEntity
  8
1
100
AcDbSpline
210
0.0
220
0.0
230
1.0
 70
     8
 71
     3
 72
     9
 73
     5
 74
     0
 42
0.0000000001
 43
0.0000000001
 40
0.0
 40
0.0
 40
0.0
 40
0.0
 40
0.2298995019
 40
1.0
 40
1.0
 40
1.0
 40
1.0
 10
53.1077454128
 20
23.68655495899986
 30
0.0
 10
53.12481266509997
 20
23.69150227609992
 30
0.0
 10
53.19849111239995
 20
23.71489581929996
 30
0.0
 10
53.26976767000002
 20
23.74594528529991
 30
0.0
 10
53.32227448570001
 20
23.77398368399986
 30
0.0
1001
ACAD
1000
RTMaterial
1005
0
  0
SPLINE
  5
60891
330
1F
100
AcDbEntity
  8
1
100
AcDbSpline
210
0.0
220
0.0
230
1.0
 70
     8
 71
     3
 72
    11
 73
     7
 74
     0
 42
0.0000000001
 43
0.0000000001
 40
0.0
 40
0.0
 40
0.0
 40
0.0
 40
0.27049286
 40
0.5192781208000001
 40
0.7574427354000001
 40
1.0
 40
1.0
 40
1.0
 40
1.0
 10
51.46618079699999
 20
24.3892690283999
 30
0.0
 10
51.43645157049997
 20
24.42976353229989
 30
0.0
 10
51.38268490899998
 20
24.51014500839989
 30
0.0
 10
51.32357734840002
 20
24.63875154699991
 30
0.0
 10
51.29551932419997
 20
24.77265064859995
 30
0.0
 10
51.30033070339999
 20
24.86295362839991
 30
0.0
 10
51.3080786191
 20
24.90732990959993
 30
0.0
1001
ACAD
1000
RTMaterial
1005
0
  0
SPLINE
  5
60892
330
1F
100
AcDbEntity
  8
1
100
AcDbSpline
210
0.0
220
0.0
230
1.0
 70
     8
 71
     3
 72
    11
 73
     7
 74
     0
 42
0.0000000001
 43
0.0000000001
 40
0.0
 40
0.0
 40
0.0
 40
0.0
 40
0.2753727122
 40
0.540105771
 40
0.7867664345000001
 40
1.0
 40
1.0
 40
1.0
 40
1.0
 10
51.32950651750002
 20
24.34035709759991
 30
0.0
 10
51.31515650429998
 20
24.38883887319992
 30
0.0
 10
51.29220804719995
 20
24.48556366169993
 30
0.0
 10
51.27457400769998
 20
24.62922776519992
 30
0.0
 10
51.27276277419998
 20
24.76250573349995
 30
0.0
 10
51.28055047419997
 20
24.84678976889995
 30
0.0
 10
51.28658685419998
 20
24.88547322829987
 30
0.0
1001
ACAD
1000
RTMaterial
1005
0
  0
SPLINE
  5
60893
330
1F
100
AcDbEntity
  8
1
100
AcDbSpline
210
0.0
220
0.0
230
1.0
 70
     8
 71
     3
 72
     9
 73
     5
 74
     0
 42
0.0000000001
 43
0.0000000001
 40
0.0
 40
0.0
 40
0.0
 40
0.0
 40
0.2483452671
 40
1.0
 40
1.0
 40
1.0
 40
1.0
 10
51.16769512079997
 20
24.5880444744999
 30
0.0
 10
51.17156087619997
 20
24.58073038109996
 30
0.0
 10
51.18735233159998
 20
24.55139879579986
 30
0.0
 10
51.20405141219999
 20
24.52255555089988
 30
0.0
 10
51.21710200649999
 20
24.50118652499992
 30
0.0
1001
ACAD
1000
RTMaterial
1005
0
  0
SPLINE
  5
60894
330
1F
100
AcDbEntity
  8
1
100
AcDbSpline
210
0.0
220
0.0
230
1.0
 70
     8
 71
     3
 72
     9
 73
     5
 74
     0
 42
0.0000000001
 43
0.0000000001
 40
0.0
 40
0.0
 40
0.0
 40
0.0
 40
0.4943022722000001
 40
1.0
 40
1.0
 40
1.0
 40
1.0
 10
51.21710200649999
 20
24.50118652499992
 30
0.0
 10
51.25535434859995
 20
24.4385521902999
 30
0.0
 10
51.34155867449999
 20
24.31700125629993
 30
0.0
 10
51.44450944819999
 20
24.20914666389996
 30
0.0
 10
51.50027770599996
 20
24.15887328029993
 30
0.0
1001
ACAD
1000
RTMaterial
1005
0
  0
SPLINE
  5
60895
330
1F
100
AcDbEntity
  8
1
100
AcDbSpline
210
0.0
220
0.0
230
1.0
 70
     8
 71
     3
 72
     9
 73
     5
 74
     0
 42
0.0000000001
 43
0.0000000001
 40
0.0
 40
0.0
 40
0.0
 40
0.0
 40
0.252004669
 40
1.0
 40
1.0
 40
1.0
 40
1.0
 10
47.59309303509996
 20
29.5449395812999
 30
0.0
 10
47.57803853249998
 20
29.56255877069992
 30
0.0
 10
47.52032429949998
 20
29.63417912319994
 30
0.0
 10
47.4709884975
 20
29.71255684749991
 30
0.0
 10
47.43965006679997
 20
29.77379061909989
 30
0.0
1001
ACAD
1000
RTMaterial
1005
0
  0
SPLINE
  5
60896
330
1F
100
AcDbEntity
  8
1
100
AcDbSpline
210
0.0
220
0.0
230
1.0
 70
     8
 71
     3
 72
     9
 73
     5
 74
     0
 42
0.0000000001
 43
0.0000000001
 40
0.0
 40
0.0
 40
0.0
 40
0.0
 40
0.4608549331000001
 40
1.0
 40
1.0
 40
1.0
 40
1.0
 10
51.8675519317
 20
36.59999998419994
 30
0.0
 10
52.02590536239995
 20
36.59999998429993
 30
0.0
 10
52.36951062929995
 20
36.59818032789997
 30
0.0
 10
52.71311429140002
 20
36.59652644479991
 30
0.0
 10
52.89836821519998
 20
36.59604664199992
 30
0.0
1001
ACAD
1000
RTMaterial
1005
0
  0
SPLINE
  5
60897
330
1F
100
AcDbEntity
  8
1
100
AcDbSpline
210
0.0
220
0.0
230
1.0
 70
     8
 71
     3
 72
    18
 73
    14
 74
     0
 42
0.0000000001
 43
0.0000000001
 40
0.0
 40
0.0
 40
0.0
 40
0.0
 40
0.1469204039
 40
0.2103095358
 40
0.2676261698
 40
0.3200703389
 40
0.3693938256
 40
0.4176891961
 40
0.4670041437
 40
0.5744013798
 40
0.6988991245000001
 40
0.8413139338
 40
1.0
 40
1.0
 40
1.0
 40
1.0
 10
48.34298012059997
 20
23.28812087129989
 30
0.0
 10
48.32059585519994
 20
23.29894886889992
 30
0.0
 10
48.28930889750001
 20
23.31650157399986
 30
0.0
 10
48.25420365869996
 20
23.34530281009989
 30
0.0
 10
48.23437824929993
 20
23.36705663589993
 30
0.0
 10
48.21996742009997
 20
23.38999971129994
 30
0.0
 10
48.21113929759997
 20
23.4140291537999
 30
0.0
 10
48.20790615809994
 20
23.43888942499996
 30
0.0
 10
48.21081756979999
 20
23.4736960955999
 30
0.0
 10
48.22817327019999
 20
23.51890898169989
 30
0.0
 10
48.26422567519995
 20
23.57134216779991
 30
0.0
 10
48.31329543239997
 20
23.62430805289995
 30
0.0
 10
48.35141621989999
 20
23.65821287039995
 30
0.0
 10
48.37203891179996
 20
23.67541752289992
 30
0.0
1001
ACAD
1000
RTMaterial
1005
0
  0
SPLINE
  5
60898
330
1F
100
AcDbEntity
  8
1
100
AcDbSpline
210
0.0
220
0.0
230
1.0
 70
     8
 71
     3
 72
    11
 73
     7
 74
     0
 42
0.0000000001
 43
0.0000000001
 40
0.0
 40
0.0
 40
0.0
 40
0.0
 40
0.2325180321
 40
0.4730818615
 40
0.7277668692
 40
1.0
 40
1.0
 40
1.0
 40
1.0
 10
53.71293628389998
 20
23.57522515549988
 30
0.0
 10
53.61661485050001
 20
23.50106705559989
 30
0.0
 10
53.40693923759999
 20
23.36718236669992
 30
0.0
 10
53.05539243789997
 20
23.2178958419999
 30
0.0
 10
52.66669573429993
 20
23.1142404682999
 30
0.0
 10
52.39395524959997
 20
23.07248634859996
 30
0.0
 10
52.25255509179993
 20
23.0562880016999
 30
0.0
1001
ACAD
1000
RTMaterial
1005
0
  0
SPLINE
  5
60899
330
1F
100
AcDbEntity
  8
1
100
AcDbSpline
210
0.0
220
0.0
230
1.0
 70
     8
 71
     3
 72
     9
 73
     5
 74
     0
 42
0.0000000001
 43
0.0000000001
 40
0.0
 40
0.0
 40
0.0
 40
0.0
 40
0.2484385864
 40
1.0
 40
1.0
 40
1.0
 40
1.0
 10
55.11773692269997
 20
23.25607156249993
 30
0.0
 10
55.00138076709998
 20
23.28241080189991
 30
0.0
 10
54.5330552666
 20
23.38853714269993
 30
0.0
 10
54.06481414759998
 20
23.49503563859997
 30
0.0
 10
53.71293628389998
 20
23.57522515549988
 30
0.0
1001
ACAD
1000
RTMaterial
1005
0
  0
SPLINE
  5
6089A
330
1F
100
AcDbEntity
  8
1
100
AcDbSpline
210
0.0
220
0.0
230
1.0
 70
     8
 71
     3
 72
    11
 73
     7
 74
     0
 42
0.0000000001
 43
0.0000000001
 40
0.0
 40
0.0
 40
0.0
 40
0.0
 40
0.2405825232
 40
0.4909968092
 40
0.7458596635000001
 40
1.0
 40
1.0
 40
1.0
 40
1.0
 10
50.99814921309996
 20
25.39552480409992
 30
0.0
 10
50.75967971479997
 20
25.69291883229988
 30
0.0
 10
50.2778202371
 20
26.30373790599993
 30
0.0
 10
49.55792463199998
 20
27.24099709379994
 30
0.0
 10
48.83640148439997
 20
28.20398448359993
 30
0.0
 10
48.36052918389999
 20
28.85516117639992
 30
0.0
 10
48.12507892799999
 20
29.18183118739989
 30
0.0
1001
ACAD
1000
RTMaterial
1005
0
  0
SPLINE
  5
6089B
330
1F
100
AcDbEntity
  8
1
100
AcDbSpline
210
0.0
220
0.0
230
1.0
 70
     8
 71
     3
 72
     9
 73
     5
 74
     0
 42
0.0000000001
 43
0.0000000001
 40
0.0
 40
0.0
 40
0.0
 40
0.0
 40
0.2540475198999999
 40
1.0
 40
1.0
 40
1.0
 40
1.0
 10
55.89357154199996
 20
23.07743291779991
 30
0.0
 10
55.82793268629996
 20
23.09282243649989
 30
0.0
 10
55.56949489949994
 20
23.15312057989991
 30
0.0
 10
55.31081187090001
 20
23.21236569029992
 30
0.0
 10
55.11773692269997
 20
23.25607156249993
 30
0.0
1001
ACAD
1000
RTMaterial
1005
0
  0
SPLINE
  5
6089C
330
1F
100
AcDbEntity
  8
1
100
AcDbSpline
210
0.0
220
0.0
230
1.0
 70
     8
 71
     3
 72
     8
 73
     4
 74
     0
 42
0.0000000001
 43
0.0000000001
 40
0.0
 40
0.0
 40
0.0
 40
0.0
 40
1.0
 40
1.0
 40
1.0
 40
1.0
 10
60.1667596103
 20
22.07643438729991
 30
0.0
 10
58.74228543019995
 20
22.40976673999995
 30
0.0
 10
57.31790223519993
 20
22.74348797679994
 30
0.0
 10
55.89357154199996
 20
23.07743291779991
 30
0.0
1001
ACAD
1000
RTMaterial
1005
0
  0
SPLINE
  5
6089D
330
1F
100
AcDbEntity
  8
1
100
AcDbSpline
210
0.0
220
0.0
230
1.0
 70
     8
 71
     3
 72
    15
 73
    11
 74
     0
 42
0.0000000001
 43
0.0000000001
 40
0.0
 40
0.0
 40
0.0
 40
0.0
 40
0.1250136693
 40
0.2500216736
 40
0.3750229843
 40
0.5000187114
 40
0.6250109088000001
 40
0.7500028658
 40
0.8749984965999999
 40
1.0
 40
1.0
 40
1.0
 40
1.0
 10
47.43965006679997
 20
29.77379061909989
 30
0.0
 10
47.3884315057
 20
29.87145422799989
 30
0.0
 10
47.31106538689999
 20
30.08113729119987
 30
0.0
 10
47.28028588349997
 20
30.41417649049987
 30
0.0
 10
47.33717223469994
 20
30.74403233389995
 30
0.0
 10
47.47873499669998
 20
31.0473606583999
 30
0.0
 10
47.69551450079996
 20
31.30247025739993
 30
0.0
 10
47.97231624599999
 20
31.49085905839991
 30
0.0
 10
48.28889864129997
 20
31.59915965979991
 30
0.0
 10
48.51206121640001
 20
31.61310462759991
 30
0.0
 10
48.62206552449999
 20
31.60547528939986
 30
0.0
1001
ACAD
1000
RTMaterial
1005
0
  0
SPLINE
  5
6089E
330
1F
100
AcDbEntity
  8
1
100
AcDbSpline
210
0.0
220
0.0
230
1.0
 70
     8
 71
     3
 72
     9
 73
     5
 74
     0
 42
0.0000000001
 43
0.0000000001
 40
0.0
 40
0.0
 40
0.0
 40
0.0
 40
0.2557103234
 40
1.0
 40
1.0
 40
1.0
 40
1.0
 10
47.66330061009995
 20
29.87118820829989
 30
0.0
 10
47.65552798989995
 20
29.87344286309991
 30
0.0
 10
47.62521217399995
 20
29.88253511199991
 30
0.0
 10
47.59521754479999
 20
29.89269625619988
 30
0.0
 10
47.57311173729999
 20
29.9008342283999
 30
0.0
1001
ACAD
1000
RTMaterial
1005
0
  0
SPLINE
  5
6089F
330
1F
100
AcDbEntity
  8
1
100
AcDbSpline
210
0.0
220
0.0
230
1.0
 70
     8
 71
     3
 72
     9
 73
     5
 74
     0
 42
0.0000000001
 43
0.0000000001
 40
0.0
 40
0.0
 40
0.0
 40
0.0
 40
0.2479518119
 40
1.0
 40
1.0
 40
1.0
 40
1.0
 10
47.72739124409997
 20
29.85392189869987
 30
0.0
 10
47.72206755269997
 20
29.85524722339988
 30
0.0
 10
47.70062241369998
 20
29.86069433099994
 30
0.0
 10
47.67928164509998
 20
29.8665524848999
 30
0.0
 10
47.66330061009995
 20
29.87118820829989
 30
0.0
1001
ACAD
1000
RTMaterial
1005
0
  0
SPLINE
  5
608A0
330
1F
100
AcDbEntity
  8
1
100
AcDbSpline
210
0.0
220
0.0
230
1.0
 70
     8
 71
     3
 72
    10
 73
     6
 74
     0
 42
0.0000000001
 43
0.0000000001
 40
0.0
 40
0.0
 40
0.0
 40
0.0
 40
0.445467048
 40
0.6993155181000001
 40
1.0
 40
1.0
 40
1.0
 40
1.0
 10
48.12507892799999
 20
29.18183118739989
 30
0.0
 10
48.0253146055
 20
29.25308369389995
 30
0.0
 10
47.87071068219995
 20
29.36785232159991
 30
0.0
 10
47.65662602769999
 20
29.54083336489992
 30
0.0
 10
47.54198493309996
 20
29.64173361489992
 30
0.0
 10
47.48184906379998
 20
29.69857888629992
 30
0.0
1001
ACAD
1000
RTMaterial
1005
0
  0
SPLINE
  5
608A1
330
1F
100
AcDbEntity
  8
1
100
AcDbSpline
210
0.0
220
0.0
230
1.0
 70
     8
 71
     3
 72
     9
 73
     5
 74
     0
 42
0.0000000001
 43
0.0000000001
 40
0.0
 40
0.0
 40
0.0
 40
0.0
 40
0.2552810602
 40
1.0
 40
1.0
 40
1.0
 40
1.0
 10
47.43171729489995
 20
29.97375854569992
 30
0.0
 10
47.42219191139997
 20
29.98022091029992
 30
0.0
 10
47.3856504414
 20
30.0066467897999
 30
0.0
 10
47.3523767021
 20
30.03765439059993
 30
0.0
 10
47.33029349449998
 20
30.06295087259986
 30
0.0
1001
ACAD
1000
RTMaterial
1005
0
  0
SPLINE
  5
608A2
330
1F
100
AcDbEntity
  8
1
100
AcDbSpline
210
0.0
220
0.0
230
1.0
 70
     8
 71
     3
 72
     9
 73
     5
 74
     0
 42
0.0000000001
 43
0.0000000001
 40
0.0
 40
0.0
 40
0.0
 40
0.0
 40
0.2495983853
 40
1.0
 40
1.0
 40
1.0
 40
1.0
 10
47.57310774640001
 20
29.90081993619987
 30
0.0
 10
47.56066827949996
 20
29.90539885509986
 30
0.0
 10
47.51140445070001
 20
29.92528191969995
 30
0.0
 10
47.46469595399998
 20
29.9513853000999
 30
0.0
 10
47.43171729489995
 20
29.97375854569992
 30
0.0
1001
ACAD
1000
RTMaterial
1005
0
  0
SPLINE
  5
608A3
330
1F
100
AcDbEntity
  8
1
100
AcDbSpline
210
0.0
220
0.0
230
1.0
 70
     8
 71
     3
 72
    10
 73
     6
 74
     0
 42
0.0000000001
 43
0.0000000001
 40
0.0
 40
0.0
 40
0.0
 40
0.0
 40
0.2957735418
 40
0.5510639614000001
 40
1.0
 40
1.0
 40
1.0
 40
1.0
 10
51.23493412689999
 20
24.51184195629992
 30
0.0
 10
51.20306918119997
 20
24.59633111879993
 30
0.0
 10
51.14957607719998
 20
24.75600102879992
 30
0.0
 10
51.06833496899998
 20
25.05036011039994
 30
0.0
 10
51.02305628959999
 20
25.26074874719995
 30
0.0
 10
50.99814921309996
 20
25.39552480409992
 30
0.0
1001
ACAD
1000
RTMaterial
1005
0
  0
SPLINE
  5
608A4
330
1F
100
AcDbEntity
  8
1
100
AcDbSpline
210
0.0
220
0.0
230
1.0
 70
     8
 71
     3
 72
     8
 73
     4
 74
     0
 42
0.0000000001
 43
0.0000000001
 40
0.0
 40
0.0
 40
0.0
 40
0.0
 40
1.0
 40
1.0
 40
1.0
 40
1.0
 10
53.46146544419998
 20
23.85880833569996
 30
0.0
 10
53.52846476469995
 20
23.90503411209994
 30
0.0
 10
53.59185832089997
 20
23.95697382729992
 30
0.0
 10
53.65033969429998
 20
24.01359237829991
 30
0.0
1001
ACAD
1000
RTMaterial
1005
0
  0
SPLINE
  5
608A5
330
1F
100
AcDbEntity
  8
1
100
AcDbSpline
210
0.0
220
0.0
230
1.0
 70
     8
 71
     3
 72
     9
 73
     5
 74
     0
 42
0.0000000001
 43
0.0000000001
 40
0.0
 40
0.0
 40
0.0
 40
0.0
 40
0.2495208058
 40
1.0
 40
1.0
 40
1.0
 40
1.0
 10
53.32227448570001
 20
23.77398368399986
 30
0.0
 10
53.33423720539997
 20
23.78037172139995
 30
0.0
 10
53.38181322039997
 20
23.80665412139996
 30
0.0
 10
53.42789227009996
 20
23.83564472719996
 30
0.0
 10
53.46146544419998
 20
23.85880833569996
 30
0.0
1001
ACAD
1000
RTMaterial
1005
0
  0
SPLINE
  5
608A6
330
1F
100
AcDbEntity
  8
1
100
AcDbSpline
210
0.0
220
0.0
230
1.0
 70
     8
 71
     3
 72
    11
 73
     7
 74
     0
 42
0.0000000001
 43
0.0000000001
 40
0.0
 40
0.0
 40
0.0
 40
0.0
 40
0.2533422429
 40
0.5050140913000001
 40
0.7533585603000001
 40
1.0
 40
1.0
 40
1.0
 40
1.0
 10
51.50027770599996
 20
24.15887328029993
 30
0.0
 10
51.57654987929999
 20
24.09011624209995
 30
0.0
 10
51.74333148789997
 20
23.96839485729987
 30
0.0
 10
52.02450944369997
 20
23.84360584779995
 30
0.0
 10
52.32297132789994
 20
23.78157927699994
 30
0.0
 10
52.52525925359998
 20
23.78244218679993
 30
0.0
 10
52.62468305739997
 20
23.7929034551999
 30
0.0
1001
ACAD
1000
RTMaterial
1005
0
  0
SPLINE
  5
608A7
330
1F
100
AcDbEntity
  8
1
100
AcDbSpline
210
0.0
220
0.0
230
1.0
 70
     8
 71
     3
 72
     9
 73
     5
 74
     0
 42
0.0000000001
 43
0.0000000001
 40
0.0
 40
0.0
 40
0.0
 40
0.0
 40
0.248603284
 40
1.0
 40
1.0
 40
1.0
 40
1.0
 10
52.89836821519998
 20
36.59604664199992
 30
0.0
 10
52.91510354679997
 20
36.59600329789993
 30
0.0
 10
52.98239972129994
 20
36.59375382789995
 30
0.0
 10
53.04941339409999
 20
36.58308326129992
 30
0.0
 10
53.09840339840002
 20
36.57049182429995
 30
0.0
1001
ACAD
1000
RTMaterial
1005
0
  0
SPLINE
  5
608A8
330
1F
100
AcDbEntity
  8
1
100
AcDbSpline
210
0.0
220
0.0
230
1.0
 70
     8
 71
     3
 72
     9
 73
     5
 74
     0
 42
0.0000000001
 43
0.0000000001
 40
0.0
 40
0.0
 40
0.0
 40
0.0
 40
0.2559840296
 40
1.0
 40
1.0
 40
1.0
 40
1.0
 10
53.09840339840002
 20
36.57049182429995
 30
0.0
 10
53.14831126849998
 20
36.55766447699989
 30
0.0
 10
53.34330403519993
 20
36.50766334409991
 30
0.0
 10
53.53839906359997
 20
36.45806204619987
 30
0.0
 10
53.68357119079997
 20
36.42123062979988
 30
0.0
1001
ACAD
1000
RTMaterial
1005
0
  0
SPLINE
  5
608A9
330
1F
100
AcDbEntity
  8
1
100
AcDbSpline
210
0.0
220
0.0
230
1.0
 70
     8
 71
     3
 72
     9
 73
     5
 74
     0
 42
0.0000000001
 43
0.0000000001
 40
0.0
 40
0.0
 40
0.0
 40
0.0
 40
0.2559755473
 40
1.0
 40
1.0
 40
1.0
 40
1.0
 10
51.3080786191
 20
24.90732990959993
 30
0.0
 10
51.30960354379999
 20
24.91606393459995
 30
0.0
 10
51.31613522599997
 20
24.95008005819995
 30
0.0
 10
51.32502315689999
 20
24.98365657889991
 30
0.0
 10
51.33307705189998
 20
25.00813628779992
 30
0.0
1001
ACAD
1000
RTMaterial
1005
0
  0
SPLINE
  5
608AA
330
1F
100
AcDbEntity
  8
1
100
AcDbSpline
210
0.0
220
0.0
230
1.0
 70
     8
 71
     3
 72
     9
 73
     5
 74
     0
 42
0.0000000001
 43
0.0000000001
 40
0.0
 40
0.0
 40
0.0
 40
0.0
 40
0.2527648587
 40
1.0
 40
1.0
 40
1.0
 40
1.0
 10
51.33307705189998
 20
25.00813628779992
 30
0.0
 10
51.33438575709999
 20
25.01211408039996
 30
0.0
 10
51.33971423029999
 20
25.02780104259989
 30
0.0
 10
51.3456524481
 20
25.04328177529993
 30
0.0
 10
51.35044168949997
 20
25.05469725329988
 30
0.0
1001
ACAD
1000
RTMaterial
1005
0
  0
SPLINE
  5
608AB
330
1F
100
AcDbEntity
  8
1
100
AcDbSpline
210
0.0
220
0.0
230
1.0
 70
     8
 71
     3
 72
     9
 73
     5
 74
     0
 42
0.0000000001
 43
0.0000000001
 40
0.0
 40
0.0
 40
0.0
 40
0.0
 40
0.2978919932
 40
1.0
 40
1.0
 40
1.0
 40
1.0
 10
51.41149328989996
 20
25.32786241249994
 30
0.0
 10
51.41080516619997
 20
25.32951973929994
 30
0.0
 10
51.40857344549999
 20
25.33511071629994
 30
0.0
 10
51.40659640019999
 20
25.3408348825999
 30
0.0
 10
51.40568974519993
 20
25.34496606869988
 30
0.0
1001
ACAD
1000
RTMaterial
1005
0
  0
SPLINE
  5
608AC
330
1F
100
AcDbEntity
  8
1
100
AcDbSpline
210
0.0
220
0.0
230
1.0
 70
     8
 71
     3
 72
     9
 73
     5
 74
     0
 42
0.0000000001
 43
0.0000000001
 40
0.0
 40
0.0
 40
0.0
 40
0.0
 40
0.2603198596
 40
1.0
 40
1.0
 40
1.0
 40
1.0
 10
51.38988450689999
 20
25.14860362399986
 30
0.0
 10
51.39017887419999
 20
25.16428465049989
 30
0.0
 10
51.39273143689996
 20
25.22447645529991
 30
0.0
 10
51.40122085349998
 20
25.28449815239992
 30
0.0
 10
51.41149328989996
 20
25.32786241249994
 30
0.0
1001
ACAD
1000
RTMaterial
1005
0
  0
SPLINE
  5
608AD
330
1F
100
AcDbEntity
  8
1
100
AcDbSpline
210
0.0
220
0.0
230
1.0
 70
     8
 71
     3
 72
     9
 73
     5
 74
     0
 42
0.0000000001
 43
0.0000000001
 40
0.0
 40
0.0
 40
0.0
 40
0.0
 40
0.2432143088
 40
1.0
 40
1.0
 40
1.0
 40
1.0
 10
51.28658685419998
 20
24.88547322829987
 30
0.0
 10
51.28839788439996
 20
24.8970813000999
 30
0.0
 10
51.29729741449995
 20
24.94457588659992
 30
0.0
 10
51.31184802219997
 20
24.99097081299988
 30
0.0
 10
51.32551118609995
 20
25.02487810789995
 30
0.0
1001
ACAD
1000
RTMaterial
1005
0
  0
SPLINE
  5
608AE
330
1F
100
AcDbEntity
  8
1
100
AcDbSpline
210
0.0
220
0.0
230
1.0
 70
     8
 71
     3
 72
    19
 73
    15
 74
     0
 42
0.0000000001
 43
0.0000000001
 40
0.0
 40
0.0
 40
0.0
 40
0.0
 40
0.0223396481
 40
0.0316221416
 40
0.0426263904
 40
0.070022313
 40
0.1048432976
 40
0.1472605227
 40
0.1973871142
 40
0.2553030947
 40
0.3946936925
 40
0.5655799213
 40
0.7676491848
 40
1.0
 40
1.0
 40
1.0
 40
1.0
 10
51.1184879864
 20
36.55128862699991
 30
0.0
 10
51.1184814453
 20
36.55692830919992
 30
0.0
 10
51.12709615539995
 20
36.56281146349994
 30
0.0
 10
51.13662693980001
 20
36.56683823909992
 30
0.0
 10
51.14815389659998
 20
36.57074877079987
 30
0.0
 10
51.16609584589998
 20
36.57499190219994
 30
0.0
 10
51.19217602169999
 20
36.57943214239992
 30
0.0
 10
51.22408192809996
 20
36.58339191499994
 30
0.0
 10
51.26191025779997
 20
36.58690927379991
 30
0.0
 10
51.32422644029998
 20
36.5912559023999
 30
0.0
 10
51.41710626929995
 20
36.59524187749992
 30
0.0
 10
51.54641797769994
 20
36.59821327909992
 30
0.0
 10
51.69922409169998
 20
36.59976116709993
 30
0.0
 10
51.80889453349999
 20
36.5999999840999
 30
0.0
 10
51.8675519317
 20
36.59999998419994
 30
0.0
1001
ACAD
1000
RTMaterial
1005
0
  0
SPLINE
  5
608AF
330
1F
100
AcDbEntity
  8
1
100
AcDbSpline
210
0.0
220
0.0
230
1.0
 70
     8
 71
     3
 72
    19
 73
    15
 74
     0
 42
0.0000000001
 43
0.0000000001
 40
0.0
 40
0.0
 40
0.0
 40
0.0
 40
0.1056125624
 40
0.1554410025
 40
0.20435495
 40
0.2533837549
 40
0.3035784562
 40
0.410969609
 40
0.4698262163000001
 40
0.5326887063
 40
0.5998097145
 40
0.6712997851000001
 40
0.8273197706999999
 40
1.0
 40
1.0
 40
1.0
 40
1.0
 10
31.8069956315
 20
28.24738193609994
 30
0.0
 10
31.74902714029997
 20
28.31723821139991
 30
0.0
 10
31.67512626399997
 20
28.43130615029992
 30
0.0
 10
31.61618913199999
 20
28.59742510119992
 30
0.0
 10
31.59356420119997
 20
28.72301407249995
 30
0.0
 10
31.59198861189998
 20
28.85090666089991
 30
0.0
 10
31.61834386819999
 20
29.02720870339988
 30
0.0
 10
31.68795159939998
 20
29.20255312019992
 30
0.0
 10
31.7901411853
 20
29.37104630829987
 30
0.0
 10
31.88754087519999
 20
29.50121820119989
 30
0.0
 10
32.00238427919999
 20
29.63102413619987
 30
0.0
 10
32.18286800269999
 20
29.80890001809991
 30
0.0
 10
32.44839916749999
 20
30.02848391429996
 30
0.0
 10
32.67945783649998
 20
30.19137272179995
 30
0.0
 10
32.80290174099997
 20
30.27377765649987
 30
0.0
1001
ACAD
1000
RTMaterial
1005
0
  0
SPLINE
  5
608B0
330
1F
100
AcDbEntity
  8
1
100
AcDbSpline
210
0.0
220
0.0
230
1.0
 70
     8
 71
     3
 72
    16
 73
    12
 74
     0
 42
0.0000000001
 43
0.0000000001
 40
0.0
 40
0.0
 40
0.0
 40
0.0
 40
0.047079469
 40
0.0986608539
 40
0.1536968083
 40
0.2114218893
 40
0.3328459257
 40
0.4599949291
 40
0.5911738831000001
 40
0.7253308379000001
 40
1.0
 40
1.0
 40
1.0
 40
1.0
 10
48.37203891179996
 20
23.67541752289992
 30
0.0
 10
48.40772461709997
 20
23.70518861979991
 30
0.0
 10
48.48587448039996
 20
23.76353435609997
 30
0.0
 10
48.61285153979998
 20
23.84664829809992
 30
0.0
 10
48.75218642739998
 20
23.92980845559993
 30
0.0
 10
48.9540984898
 20
24.04241905209995
 30
0.0
 10
49.22284251509996
 20
24.18111411829989
 30
0.0
 10
49.56017816299999
 20
24.3446412900999
 30
0.0
 10
49.91159625059998
 20
24.50780016909988
 30
0.0
 10
50.39766414739995
 20
24.72664419369988
 30
0.0
 10
50.76776166140001
 20
24.88759788399989
 30
0.0
 10
51.01695541649997
 20
24.99444396999996
 30
0.0
1001
ACAD
1000
RTMaterial
1005
0
  0
SPLINE
  5
608B1
330
1F
100
AcDbEntity
  8
1
100
AcDbSpline
210
0.0
220
0.0
230
1.0
 70
     8
 71
     3
 72
     9
 73
     5
 74
     0
 42
0.0000000001
 43
0.0000000001
 40
0.0
 40
0.0
 40
0.0
 40
0.0
 40
0.5000010241
 40
1.0
 40
1.0
 40
1.0
 40
1.0
 10
46.07079296629996
 20
35.16949963439987
 30
0.0
 10
46.5424224134
 20
35.31802697969994
 30
0.0
 10
47.5096776707
 20
35.54370877019989
 30
0.0
 10
48.5000479798
 20
35.6195140614999
 30
0.0
 10
48.99451001349996
 20
35.61955711989992
 30
0.0
1001
ACAD
1000
RTMaterial
1005
0
  0
SPLINE
  5
608B2
330
1F
100
AcDbEntity
  8
1
100
AcDbSpline
210
0.0
220
0.0
230
1.0
 70
     8
 71
     3
 72
    14
 73
    10
 74
     0
 42
0.0000000001
 43
0.0000000001
 40
0.0
 40
0.0
 40
0.0
 40
0.0
 40
0.1274935733
 40
0.2546491446
 40
0.3811856303
 40
0.5069048987000001
 40
0.6316946534000002
 40
0.7555017193000002
 40
1.0
 40
1.0
 40
1.0
 40
1.0
 10
40.70416334319998
 20
30.12939176939989
 30
0.0
 10
40.49832714339999
 20
30.12404118879994
 30
0.0
 10
40.08632338099999
 20
30.13319773629991
 30
0.0
 10
39.47466545719999
 20
30.21310207869988
 30
0.0
 10
38.87854969069997
 20
30.36039725849992
 30
0.0
 10
38.30549717709999
 20
30.56944717239992
 30
0.0
 10
37.7592514703
 20
30.83033975079991
 30
0.0
 10
37.07065110199994
 20
31.23162314239994
 30
0.0
 10
36.58886477250002
 20
31.58373876899986
 30
0.0
 10
36.28251540559995
 20
31.83288467379993
 30
0.0
1001
ACAD
1000
RTMaterial
1005
0
  0
SPLINE
  5
608B3
330
1F
100
AcDbEntity
  8
1
100
AcDbSpline
210
0.0
220
0.0
230
1.0
 70
     8
 71
     3
 72
     9
 73
     5
 74
     0
 42
0.0000000001
 43
0.0000000001
 40
0.0
 40
0.0
 40
0.0
 40
0.0
 40
0.5000064151000001
 40
1.0
 40
1.0
 40
1.0
 40
1.0
 10
41.80403781489997
 20
30.10787937869987
 30
0.0
 10
41.62096935049999
 20
30.11873199119987
 30
0.0
 10
41.25441809
 20
30.13381364979989
 30
0.0
 10
40.88748657459996
 20
30.13415713969994
 30
0.0
 10
40.70416334319998
 20
30.12939176939989
 30
0.0
1001
ACAD
1000
RTMaterial
1005
0
  0
SPLINE
  5
608B4
330
1F
100
AcDbEntity
  8
1
100
AcDbSpline
210
0.0
220
0.0
230
1.0
 70
     8
 71
     3
 72
     9
 73
     5
 74
     0
 42
0.0000000001
 43
0.0000000001
 40
0.0
 40
0.0
 40
0.0
 40
0.0
 40
0.2034137283
 40
1.0
 40
1.0
 40
1.0
 40
1.0
 10
47.46187651679997
 20
29.73265510319993
 30
0.0
 10
47.47830269969995
 20
29.72063593239994
 30
0.0
 10
47.56087652279996
 20
29.66406187689989
 30
0.0
 10
47.65141861399996
 20
29.61928862039997
 30
0.0
 10
47.72567226399996
 20
29.59031120489994
 30
0.0
1001
ACAD
1000
RTMaterial
1005
0
  0
SPLINE
  5
608B5
330
1F
100
AcDbEntity
  8
1
100
AcDbSpline
210
0.0
220
0.0
230
1.0
 70
     8
 71
     3
 72
     8
 73
     4
 74
     0
 42
0.0000000001
 43
0.0000000001
 40
0.0
 40
0.0
 40
0.0
 40
0.0
 40
1.0
 40
1.0
 40
1.0
 40
1.0
 10
46.07079296629996
 20
35.16949963439987
 30
0.0
 10
44.34911116559999
 20
34.62730103129991
 30
0.0
 10
42.6276358851
 20
34.08444607329989
 30
0.0
 10
40.90639954759995
 20
33.54083498229988
 30
0.0
1001
ACAD
1000
RTMaterial
1005
0
  0
SPLINE
  5
608B6
330
1F
100
AcDbEntity
  8
1
100
AcDbSpline
210
0.0
220
0.0
230
1.0
 70
     8
 71
     3
 72
    11
 73
     7
 74
     0
 42
0.0000000001
 43
0.0000000001
 40
0.0
 40
0.0
 40
0.0
 40
0.0
 40
0.2432260405
 40
0.4921267625
 40
0.7450131164
 40
1.0
 40
1.0
 40
1.0
 40
1.0
 10
36.28251540559995
 20
31.83288467379993
 30
0.0
 10
36.6491151285
 20
31.99241100439991
 30
0.0
 10
37.39637197500002
 20
32.30263572759986
 30
0.0
 10
38.54047768649997
 20
32.73972735109993
 30
0.0
 10
39.71339912529998
 20
33.15441274939991
 30
0.0
 10
40.50672200229996
 20
33.41460644429992
 30
0.0
 10
40.90639954759995
 20
33.54083498229988
 30
0.0
1001
ACAD
1000
RTMaterial
1005
0
  0
SPLINE
  5
608B7
330
1F
100
AcDbEntity
  8
1
100
AcDbSpline
210
0.0
220
0.0
230
1.0
 70
     8
 71
     3
 72
     9
 73
     5
 74
     0
 42
0.0000000001
 43
0.0000000001
 40
0.0
 40
0.0
 40
0.0
 40
0.0
 40
0.5023619303000001
 40
1.0
 40
1.0
 40
1.0
 40
1.0
 10
48.12507892799999
 20
29.18183118739989
 30
0.0
 10
48.02246813889997
 20
29.21797328919991
 30
0.0
 10
47.82664585359998
 20
29.3167144677999
 30
0.0
 10
47.663098918
 20
29.46300748729988
 30
0.0
 10
47.59309303509996
 20
29.5449395812999
 30
0.0
1001
ACAD
1000
RTMaterial
1005
0
  0
SPLINE
  5
608B8
330
1F
100
AcDbEntity
  8
1
100
AcDbSpline
210
0.0
220
0.0
230
1.0
 70
     8
 71
     3
 72
     9
 73
     5
 74
     0
 42
0.0000000001
 43
0.0000000001
 40
0.0
 40
0.0
 40
0.0
 40
0.0
 40
0.4933464343
 40
1.0
 40
1.0
 40
1.0
 40
1.0
 10
51.01695541649997
 20
24.99444396999996
 30
0.0
 10
51.00417396209997
 20
25.05940481049987
 30
0.0
 10
50.98800907369997
 20
25.19316635399986
 30
0.0
 10
50.99147942649995
 20
25.3278606232999
 30
0.0
 10
50.99814921309996
 20
25.39552480409992
 30
0.0
1001
ACAD
1000
RTMaterial
1005
0
  0
SPLINE
  5
608B9
330
1F
100
AcDbEntity
  8
1
100
AcDbSpline
210
0.0
220
0.0
230
1.0
 70
     8
 71
     3
 72
     9
 73
     5
 74
     0
 42
0.0000000001
 43
0.0000000001
 40
0.0
 40
0.0
 40
0.0
 40
0.0
 40
0.2486538661
 40
1.0
 40
1.0
 40
1.0
 40
1.0
 10
47.39226496340001
 20
30.85142410319992
 30
0.0
 10
47.39456867379999
 20
30.85439971009987
 30
0.0
 10
47.40389538079995
 20
30.86631847689989
 30
0.0
 10
47.41346764579998
 20
30.8780449622999
 30
0.0
 10
47.42078952139997
 20
30.8867448819999
 30
0.0
1001
ACAD
1000
RTMaterial
1005
0
  0
SPLINE
  5
608BA
330
1F
100
AcDbEntity
  8
1
100
AcDbSpline
210
0.0
220
0.0
230
1.0
 70
     8
 71
     3
 72
    13
 73
     9
 74
     0
 42
0.0000000001
 43
0.0000000001
 40
0.0
 40
0.0
 40
0.0
 40
0.0
 40
0.1086731613
 40
0.2238816094
 40
0.3447081442
 40
0.4701896119
 40
0.7313064630000001
 40
1.0
 40
1.0
 40
1.0
 40
1.0
 10
32.80290174099997
 20
30.27377765649987
 30
0.0
 10
32.91809070309995
 20
30.35067200729992
 30
0.0
 10
33.16045673069999
 20
30.50156762209991
 30
0.0
 10
33.5446580519
 20
30.71487198889992
 30
0.0
 10
33.95656320209997
 20
30.92154285599992
 30
0.0
 10
34.5445616705
 20
31.19096303359993
 30
0.0
 10
35.3193940539
 20
31.50371635419992
 30
0.0
 10
35.95701851280001
 20
31.72653218719995
 30
0.0
 10
36.28251540559995
 20
31.83288467379993
 30
0.0
1001
ACAD
1000
RTMaterial
1005
0
  0
SPLINE
  5
608BB
330
1F
100
AcDbEntity
  8
1
100
AcDbSpline
210
0.0
220
0.0
230
1.0
 70
     8
 71
     3
 72
     9
 73
     5
 74
     0
 42
0.0000000001
 43
0.0000000001
 40
0.0
 40
0.0
 40
0.0
 40
0.0
 40
0.2430575989
 40
1.0
 40
1.0
 40
1.0
 40
1.0
 10
47.72567226399996
 20
29.59031120489994
 30
0.0
 10
47.74825050959998
 20
29.5815000662999
 30
0.0
 10
47.84224330309996
 20
29.54812866679993
 30
0.0
 10
47.94038465459999
 20
29.52648670989993
 30
0.0
 10
48.01526521279999
 20
29.51700169429995
 30
0.0
1001
ACAD
1000
RTMaterial
1005
0
  0
SPLINE
  5
608BC
330
1F
100
AcDbEntity
  8
1
100
AcDbSpline
210
0.0
220
0.0
230
1.0
 70
     8
 71
     3
 72
     9
 73
     5
 74
     0
 42
0.0000000001
 43
0.0000000001
 40
0.0
 40
0.0
 40
0.0
 40
0.0
 40
0.2432539502
 40
1.0
 40
1.0
 40
1.0
 40
1.0
 10
47.42078952139997
 20
30.8867448819999
 30
0.0
 10
47.43821658779995
 20
30.90745188229988
 30
0.0
 10
47.51288204829996
 20
30.99000829129989
 30
0.0
 10
47.59873604109998
 20
31.06225301459995
 30
0.0
 10
47.66772752579998
 20
31.11051332479991
 30
0.0
1001
ACAD
1000
RTMaterial
1005
0
  0
SPLINE
  5
608BD
330
1F
100
AcDbEntity
  8
1
100
AcDbSpline
210
0.0
220
0.0
230
1.0
 70
     8
 71
     3
 72
     9
 73
     5
 74
     0
 42
0.0000000001
 43
0.0000000001
 40
0.0
 40
0.0
 40
0.0
 40
0.0
 40
0.2401319779
 40
1.0
 40
1.0
 40
1.0
 40
1.0
 10
51.01695541649997
 20
24.99444396999996
 30
0.0
 10
51.02479374199998
 20
24.96059193969995
 30
0.0
 10
51.06162835359999
 20
24.82063835179991
 30
0.0
 10
51.11631526129997
 20
24.68525628859993
 30
0.0
 10
51.16769512079997
 20
24.5880444744999
 30
0.0
1001
ACAD
1000
RTMaterial
1005
0
  0
SPLINE
  5
608BE
330
1F
100
AcDbEntity
  8
1
100
AcDbSpline
210
0.0
220
0.0
230
1.0
 70
     8
 71
     3
 72
    10
 73
     6
 74
     0
 42
0.0000000001
 43
0.0000000001
 40
0.0
 40
0.0
 40
0.0
 40
0.0
 40
0.5729574674000001
 40
0.812426622
 40
1.0
 40
1.0
 40
1.0
 40
1.0
 10
51.1803614666
 20
24.87164292749992
 30
0.0
 10
51.18279217319997
 20
24.80541479349995
 30
0.0
 10
51.19192351999998
 20
24.71154583269993
 30
0.0
 10
51.2139422308
 20
24.59794870079986
 30
0.0
 10
51.22581924509995
 20
24.54998643499994
 30
0.0
 10
51.23133359149995
 20
24.52900270299989
 30
0.0
1001
ACAD
1000
RTMaterial
1005
0
  0
SPLINE
  5
608BF
330
1F
100
AcDbEntity
  8
1
100
AcDbSpline
210
0.0
220
0.0
230
1.0
 70
     8
 71
     3
 72
    11
 73
     7
 74
     0
 42
0.0000000001
 43
0.0000000001
 40
0.0
 40
0.0
 40
0.0
 40
0.0
 40
0.4053537886
 40
0.7286430769
 40
0.9409802871
 40
1.0
 40
1.0
 40
1.0
 40
1.0
 10
51.23133359149995
 20
24.52900270299989
 30
0.0
 10
51.23204985960001
 20
24.5262770894999
 30
0.0
 10
51.23327694169995
 20
24.5217095605999
 30
0.0
 10
51.23515421629997
 20
24.51427323359997
 30
0.0
 10
51.23573743239996
 20
24.51232636719993
 30
0.0
 10
51.23651598079999
 20
24.50844348589988
 30
0.0
 10
51.23625621029998
 20
24.50876111129992
 30
0.0
1001
ACAD
1000
RTMaterial
1005
0
  0
SPLINE
  5
608C0
330
1F
100
AcDbEntity
  8
1
100
AcDbSpline
210
0.0
220
0.0
230
1.0
 70
     8
 71
     3
 72
     9
 73
     5
 74
     0
 42
0.0000000001
 43
0.0000000001
 40
0.0
 40
0.0
 40
0.0
 40
0.0
 40
0.5032947191
 40
1.0
 40
1.0
 40
1.0
 40
1.0
 10
51.31349662369996
 20
25.54824019249992
 30
0.0
 10
51.26552207089997
 20
25.44212504059994
 30
0.0
 10
51.1945291289
 20
25.21944310089992
 30
0.0
 10
51.17614609649996
 20
24.98649681399985
 30
0.0
 10
51.1803614666
 20
24.87164292749992
 30
0.0
1001
ACAD
1000
RTMaterial
1005
0
  0
SPLINE
  5
608C1
330
1F
100
AcDbEntity
  8
1
100
AcDbSpline
210
0.0
220
0.0
230
1.0
 70
     8
 71
     3
 72
     9
 73
     5
 74
     0
 42
0.0000000001
 43
0.0000000001
 40
0.0
 40
0.0
 40
0.0
 40
0.0
 40
0.2447969462
 40
1.0
 40
1.0
 40
1.0
 40
1.0
 10
51.32551118609995
 20
25.02487810789995
 30
0.0
 10
51.3297683312
 20
25.03544288459995
 30
0.0
 10
51.34822297979997
 20
25.07816644769992
 30
0.0
 10
51.3708549635
 20
25.11906323019991
 30
0.0
 10
51.38988450689999
 20
25.14860362399986
 30
0.0
1001
ACAD
1000
RTMaterial
1005
0
  0
SPLINE
  5
608C2
330
1F
100
AcDbEntity
  8
1
100
AcDbSpline
210
0.0
220
0.0
230
1.0
 70
     8
 71
     3
 72
     8
 73
     4
 74
     0
 42
0.0000000001
 43
0.0000000001
 40
0.0
 40
0.0
 40
0.0
 40
0.0
 40
1.0
 40
1.0
 40
1.0
 40
1.0
 10
52.49811366789998
 20
24.09223215609995
 30
0.0
 10
52.48344246120002
 20
24.08709668239993
 30
0.0
 10
52.46861785419998
 20
24.0823789422999
 30
0.0
 10
52.453672998
 20
24.07810475579987
 30
0.0
1001
ACAD
1000
RTMaterial
1005
0
  0
SPLINE
  5
608C3
330
1F
100
AcDbEntity
  8
1
100
AcDbSpline
210
0.0
220
0.0
230
1.0
 70
     8
 71
     3
 72
    13
 73
     9
 74
     0
 42
0.0000000001
 43
0.0000000001
 40
0.0
 40
0.0
 40
0.0
 40
0.0
 40
0.2694790262
 40
0.525660453
 40
0.6485853436
 40
0.7681679726000001
 40
0.8850153565999999
 40
1.0
 40
1.0
 40
1.0
 40
1.0
 10
52.45367167569998
 20
24.07810308889992
 30
0.0
 10
52.36645079199996
 20
24.05315654509991
 30
0.0
 10
52.1898118176
 20
24.02421335429995
 30
0.0
 10
51.96954304849999
 20
24.0456219036999
 30
0.0
 10
51.80951709739997
 20
24.09824121319991
 30
0.0
 10
51.7013073137
 20
24.15349366769988
 30
0.0
 10
51.60564048959997
 20
24.22396481699991
 30
0.0
 10
51.55123413629997
 20
24.28055502649988
 30
0.0
 10
51.52693421769999
 20
24.31068617499994
 30
0.0
1001
ACAD
1000
RTMaterial
1005
0
  0
SPLINE
  5
608C4
330
1F
100
AcDbEntity
  8
1
100
AcDbSpline
210
0.0
220
0.0
230
1.0
 70
     8
 71
     3
 72
     9
 73
     5
 74
     0
 42
0.0000000001
 43
0.0000000001
 40
0.0
 40
0.0
 40
0.0
 40
0.0
 40
0.2556435584
 40
1.0
 40
1.0
 40
1.0
 40
1.0
 10
51.52693421769999
 20
24.31068617499994
 30
0.0
 10
51.52161989870001
 20
24.31727466979987
 30
0.0
 10
51.50094284939996
 20
24.34313549939986
 30
0.0
 10
51.48076643969995
 20
24.36940176539997
 30
0.0
 10
51.46618079699999
 20
24.3892690283999
 30
0.0
1001
ACAD
1000
RTMaterial
1005
0
  0
ELLIPSE
  5
608C5
330
1F
100
AcDbEntity
  8
1
100
AcDbEllipse
 10
25.28641007459999
 20
-0.0000000000000568
 30
0.0
 11
-42.2915850626
 21
-28.1731173955
 31
0.0
210
0.0
220
0.0
230
1.0
 40
0.5524295597
 41
-2.5629558053
 42
-2.5550669872
1001
ACAD
1000
RTMaterial
1005
0
  0
ELLIPSE
  5
608C6
330
1F
100
AcDbEntity
  8
1
100
AcDbEllipse
 10
45.97515844199995
 20
-0.0000000000000568
 30
0.0
 11
5.542055702400002
 21
36.5754525729
 31
0.0
210
0.0
220
0.0
230
1.0
 40
0.2418325815
 41
-0.1487150551
 42
-0.0770715803
1001
ACAD
1000
RTMaterial
1005
0
  0
ELLIPSE
  5
608C7
330
1F
100
AcDbEntity
  8
1
100
AcDbEllipse
 10
51.58391395289999
 20
24.07596978249995
 30
0.0
 11
-2.129612932899999
 21
0.5021186927000001
 31
0.0
210
0.0
220
0.0
230
1.0
 40
0.0192584756
 41
2.0859450218
 42
3.081003412099999
1001
ACAD
1000
RTMaterial
1005
0
  0
ELLIPSE
  5
608C8
330
1F
100
AcDbEntity
  8
1
100
AcDbEllipse
 10
51.14691301219995
 20
31.25340141819993
 30
0.0
 11
-2.522367721899999
 21
0.3806746899000002
 31
0.0
210
0.0
220
0.0
230
1.0
 40
0.0812499867
 41
-0.46007086
 42
-0.1994716665
1001
ACAD
1000
RTMaterial
1005
0
  0
ELLIPSE
  5
608C9
330
1F
100
AcDbEntity
  8
1
100
AcDbEllipse
 10
54.01374261809997
 20
27.6828020829999
 30
0.0
 11
5.666870391600002
 21
12.5653026789
 31
0.0
210
0.0
220
0.0
230
1.0
 40
0.1010410836
 41
1.819195403
 42
1.826823477399999
1001
ACAD
1000
RTMaterial
1005
0
  0
ELLIPSE
  5
608CA
330
1F
100
AcDbEntity
  8
1
100
AcDbEllipse
 10
52.57731129709998
 20
32.77108303559993
 30
0.0
 11
0.5612192389000003
 21
3.5976554455
 31
0.0
210
0.0
220
0.0
230
1.0
 40
0.137316117
 41
0.5927524476000001
 42
0.6014719655
1001
ACAD
1000
RTMaterial
1005
0
  0
ELLIPSE
  5
608CB
330
1F
100
AcDbEntity
  8
1
100
AcDbEllipse
 10
48.69192175399996
 20
29.25427486079986
 30
0.0
 11
-2.3701875655
 21
0.3525254196000001
 31
0.0
210
0.0
220
0.0
230
1.0
 40
0.0700311318
 41
-1.464172001699999
 42
-1.270882900699999
1001
ACAD
1000
RTMaterial
1005
0
  0
ELLIPSE
  5
608CC
330
1F
100
AcDbEntity
  8
1
100
AcDbEllipse
 10
66.09476796769993
 20
-0.0000000000000568
 30
0.0
 11
-12.8364984418
 21
36.1678993685
 31
0.0
210
0.0
220
0.0
230
1.0
 40
0.4368333600000001
 41
0.0315283552
 42
0.0781394955
1001
ACAD
1000
RTMaterial
1005
0
  0
ELLIPSE
  5
608CD
330
1F
100
AcDbEntity
  8
1
100
AcDbEllipse
 10
53.03308663929994
 20
33.25466992589992
 30
0.0
 11
-0.3684395063999998
 21
2.542851898999999
 31
0.0
210
0.0
220
0.0
230
1.0
 40
0.3760865682
 41
-0.1049020823
 42
0.3663439441
1001
ACAD
1000
RTMaterial
1005
0
  0
LINE
  5
608CE
330
1F
100
AcDbEntity
  8
nocut
100
AcDbLine
 10
0.0
 20
0.0
 30
0.0
 11
62.19999999999998
 21
0.0
 31
0.0
  0
DIMENSION
  5
608D8
330
1F
100
AcDbEntity
  8
2
100
AcDbDimension
  2
*D84
 10
83.60438141794569
 20
-30.36500000000005
 30
0.0
 11
79.55438141794569
 21
-1.750000000000047
 31
0.0
 70
    32
  1
%%C<>
 71
     5
 42
60.72999999999999
  3
\M+18352\M+18373\M+1815B - ISO-25
100
AcDbAlignedDimension
 13
63.37032789066009
 23
30.36499999999994
 33
0.0
 14
63.37032789066009
 24
-30.36500000000005
 34
0.0
 50
90.0
100
AcDbRotatedDimension
1001
ACAD
1000
DSTYLE
1002
{
1070
     4
1000
%%C[]"
1070
    40
1040
1.0
1070
    76
1070
     1
1070
   143
1040
0.0393700787401575
1070
   170
1070
     1
1070
   171
1070
     3
1070
   173
1070
     1
1070
   271
1070
     8
1070
   285
1070
     4
1070
   344
1005
32F1
1002
}
  0
DIMENSION
  5
608F0
330
1F
100
AcDbEntity
  8
2
100
AcDbDimension
  2
*D85
 10
95.56961267679028
 20
-38.10000000000006
 30
0.0
 11
91.5196126767903
 21
-1.750000000000047
 31
0.0
 70
    32
  1
%%C<>
 71
     5
 42
76.19999999999999
  3
\M+18352\M+18373\M+1815B - ISO-25
100
AcDbAlignedDimension
 13
60.11389173679998
 23
38.09999999999994
 33
0.0
 14
60.11389173679998
 24
-38.10000000000005
 34
0.0
 50
90.0
100
AcDbRotatedDimension
1001
ACAD
1000
DSTYLE
1002
{
1070
     4
1000
%%C[]"
1070
    40
1040
1.0
1070
    76
1070
     1
1070
   143
1040
0.0393700787401575
1070
   170
1070
     1
1070
   171
1070
     3
1070
   173
1070
     1
1070
   271
1070
     8
1070
   285
1070
     4
1070
   344
1005
32F1
1002
}
  0
DIMENSION
  5
60908
102
{ACAD_XDICTIONARY
360
60915
102
}
102
{ACAD_REACTORS
330
6091F
102
}
330
1F
100
AcDbEntity
  8
sk2
100
AcDbDimension
  2
*D86
 10
-15.47663592289016
 20
-15.87500000000005
 30
0.0
 11
-15.47663592289015
 21
-0.0000000000000523
 31
0.0
 70
   160
  1
%%C<>
 71
     5
 42
31.75
  3
\M+18352\M+18373\M+1815B - ISO-25
100
AcDbAlignedDimension
 13
6.0
 23
15.87499999999994
 33
0.0
 14
5.999999999999971
 24
-15.87500000000005
 34
0.0
 50
90.0
100
AcDbRotatedDimension
1001
ACAD
1000
DSTYLE
1002
{
1070
     4
1000
%%c[]"
1070
    40
1040
1.0
1070
   143
1040
0.0393700787401575
1070
   170
1070
     1
1070
   171
1070
     3
1070
   271
1070
     8
1070
   285
1070
     4
1002
}
  0
DIMENSION
  5
60920
102
{ACAD_XDICTIONARY
360
6092D
102
}
102
{ACAD_REACTORS
330
60937
102
}
330
1F
100
AcDbEntity
  8
sk2
100
AcDbDimension
  2
*D87
 10
-27.81909173704728
 20
-36.51250000000004
 30
0.0
 11
-31.86909173704727
 21
-0.0000000000000546
 31
0.0
 70
    32
  1
%%C<>
 71
     5
 42
73.02499999999998
  3
\M+18352\M+18373\M+1815B - ISO-25
100
AcDbAlignedDimension
 13
2.0
 23
36.51249999999993
 33
0.0
 14
1.999999999999971
 24
-36.51250000000004
 34
0.0
 50
90.0
100
AcDbRotatedDimension
1001
ACAD
1000
DSTYLE
1002
{
1070
     4
1000
%%c[]"
1070
    40
1040
1.0
1070
   143
1040
0.0393700787401575
1070
   170
1070
     1
1070
   171
1070
     3
1070
   271
1070
     8
1070
   285
1070
     4
1002
}
  0
DIMENSION
  5
60938
102
{ACAD_XDICTIONARY
360
60945
102
}
102
{ACAD_REACTORS
330
6094F
102
}
330
1F
100
AcDbEntity
  8
sk2
100
AcDbDimension
  2
*D88
 10
31.99999999999997
 20
-57.04396838913408
 30
0.0
 11
15.99999999999997
 21
-57.04396838913408
 31
0.0
 70
   160
 71
     5
 42
32.0
  3
\M+18352\M+18373\M+1815B - ISO-25
100
AcDbAlignedDimension
 13
-0.0000000000000284
 23
-34.51250000000005
 33
0.0
 14
31.99999999999997
 24
-15.69999959600011
 34
0.0
100
AcDbRotatedDimension
1001
ACAD
1000
DSTYLE
1002
{
1070
     4
1000
[]"
1070
    40
1040
1.0
1070
   143
1040
0.0393700787401575
1070
   170
1070
     1
1070
   171
1070
     3
1070
   271
1070
     8
1070
   285
1070
     4
1002
}
  0
DIMENSION
  5
60950
330
1F
100
AcDbEntity
  8
2
100
AcDbDimension
  2
*D89
 10
61.40000000000003
 20
-57.04396838913408
 30
0.0
 11
94.09166666666667
 21
-57.04396838913408
 31
0.0
 70
   160
  1
<>(MAX)
 71
     5
 42
2.099999999999965
  3
\M+18352\M+18373\M+1815B - ISO-25
100
AcDbAlignedDimension
 13
63.5
 23
30.4645806656227
 33
0.0
 14
61.40000000000004
 24
23.52626515562807
 34
0.0
100
AcDbRotatedDimension
1001
ACAD
1000
DSTYLE
1002
{
1070
     4
1000
"
1070
    40
1040
1.0
1070
   143
1040
0.0393700787401575
1070
   170
1070
     1
1070
   171
1070
     3
1070
   271
1070
     8
1070
   285
1070
     4
1002
}
  0
DIMENSION
  5
6096A
330
1F
100
AcDbEntity
  8
2
100
AcDbDimension
  2
*D90
 10
61.5
 20
55.75939886565539
 30
0.0
 11
-5.258333333333325
 21
59.80939886565538
 31
0.0
 70
    32
  1
<>(APMX AT HIGH FEED PROCESS)
 71
     5
 42
2.0
  3
\M+18352\M+18373\M+1815B - ISO-25
100
AcDbAlignedDimension
 13
63.5
 23
30.4645806656227
 33
0.0
 14
61.5
 24
36.60539624667467
 34
0.0
100
AcDbRotatedDimension
1001
ACAD
1000
DSTYLE
1002
{
1070
     4
1000
"
1070
    40
1040
1.0
1070
   143
1040
0.0393700787401575
1070
   170
1070
     1
1070
   171
1070
     3
1070
   271
1070
     8
1070
   285
1070
     4
1002
}
  0
DIMENSION
  5
60984
330
1F
100
AcDbEntity
  8
2
100
AcDbDimension
  2
*D91
 10
60.5
 20
66.55214122297298
 30
0.0
 11
33.11666666666667
 21
70.60214122297297
 31
0.0
 70
    32
  1
APMX<>
 71
     5
 42
3.0
  3
\M+18352\M+18373\M+1815B - ISO-25
100
AcDbAlignedDimension
 13
63.5
 23
30.4645806656227
 33
0.0
 14
60.5
 24
37.47530722166611
 34
0.0
100
AcDbRotatedDimension
1001
ACAD
1000
DSTYLE
1002
{
1070
     4
1000
"
1070
    40
1040
1.0
1070
   143
1040
0.0393700787401575
1070
   170
1070
     1
1070
   171
1070
     3
1070
   271
1070
     8
1070
   285
1070
     4
1002
}
  0
DIMENSION
  5
6099E
102
{ACAD_XDICTIONARY
360
609AB
102
}
102
{ACAD_REACTORS
330
609B5
102
}
330
1F
100
AcDbEntity
  8
2
100
AcDbDimension
  2
*D92
 10
0.0000000000000026
 20
77.42771461007999
 30
0.0
 11
31.75
 21
81.47771461007998
 31
0.0
 70
    32
 71
     5
 42
63.5
  3
\M+18352\M+18373\M+1815B - ISO-25
100
AcDbAlignedDimension
 13
63.5
 23
30.4645806656227
 33
0.0
 14
0.0
 24
34.51249999999993
 34
0.0
100
AcDbRotatedDimension
1001
ACAD
1000
DSTYLE
1002
{
1070
     4
1000
"
1070
    40
1040
1.0
1070
   143
1040
0.0393700787401575
1070
   170
1070
     1
1070
   171
1070
     3
1070
   271
1070
     8
1070
   285
1070
     4
1002
}
  0
DIMENSION
  5
609B7
330
1F
100
AcDbEntity
  8
2
100
AcDbDimension
  2
*D93
 10
60.12112939384318
 20
36.03845476528117
 30
0.0
 11
82.93789359872009
 21
52.77955709846531
 31
0.0
 70
    36
 71
     5
 42
1.499999999999744
  3
\M+18352\M+18373\M+1815B - ISO-25
100
AcDbRadialDimension
 15
61.44505526716041
 25
36.74359324952409
 35
0.0
 40
0.0
1001
ACAD
1000
DSTYLE
1002
{
1070
     4
1000
"
1070
    40
1040
1.0
1070
   143
1040
0.0393700787401575
1070
   170
1070
     1
1070
   171
1070
     3
1070
   271
1070
     8
1070
   285
1070
     4
1002
}
  0
VIEWPORT
  5
6B
102
{ACAD_XDICTIONARY
360
60C87
102
}
330
50
100
AcDbEntity
 67
     1
  8
0
100
AcDbViewport
 10
155.3592437148233
 20
160.4455827878762
 30
0.0
 40
349.5854424261001
 41
282.2272140146125
 68
     1
 69
     1
 12
155.3592437148233
 22
160.4455827878762
 13
0.0
 23
0.0
 14
10.0
 24
10.0
 15
10.0
 25
10.0
 16
0.0
 26
0.0
 36
1.0
 17
0.0
 27
0.0
 37
0.0
 42
50.0
 43
0.0
 44
0.0
 45
282.2272140146125
 50
0.0
 51
0.0
 72
  1000
 90
    32864
  1

281
     0
 71
     1
 74
     0
110
0.0
120
0.0
130
0.0
111
1.0
121
0.0
131
0.0
112
0.0
122
1.0
132
0.0
 79
     0
146
0.0
  0
VIEWPORT
  5
6D
102
{ACAD_XDICTIONARY
360
60C89
102
}
330
50
100
AcDbEntity
 67
     1
  8
0
100
AcDbViewport
 10
133.3499939441681
 20
101.5999939441681
 30
0.0
 40
213.3599903106689
 41
162.5599903106689
 68
     2
 69
     2
 12
210.0
 22
148.5
 13
0.0
 23
0.0
 14
10.0
 24
10.0
 15
10.0
 25
10.0
 16
0.0
 26
0.0
 36
1.0
 17
0.0
 27
0.0
 37
0.0
 42
50.0
 43
0.0
 44
0.0
 45
324.0677920111345
 50
0.0
 51
0.0
 72
   100
 90
    32864
  1

281
     0
 71
     1
 74
     0
110
0.0
120
0.0
130
0.0
111
1.0
121
0.0
131
0.0
112
0.0
122
1.0
132
0.0
 79
     0
146
0.0
  0
ENDSEC
  0
SECTION
  2
OBJECTS
  0
DICTIONARY
  5
C
330
0
100
AcDbDictionary
281
     1
  3
ACAD_COLOR
350
85
  3
ACAD_GROUP
350
D
  3
ACAD_LAYOUT
350
1A
  3
ACAD_MATERIAL
350
84
  3
ACAD_MLINESTYLE
350
17
  3
ACAD_PLOTSETTINGS
350
19
  3
ACAD_PLOTSTYLENAME
350
E
  3
ACAD_TABLESTYLE
350
A1
  3
ACDBHEADERROUNDTRIPXREC
350
60C82
  3
AcDbVariableDictionary
350
5E
  3
ASE_INDEX_DICTIONARY
350
349E9
  3
DWGPROPS
350
60C81
  0
DICTIONARY
  5
E2
330
2
100
AcDbDictionary
280
     1
281
     1
  3
ACAD_LAYERFILTERS
360
60C0A
  3
ACAD_LAYERSTATES
360
3759A
  3
ACLYDICTIONARY
360
60C09
  0
DICTIONARY
  5
31EE
330
1F
100
AcDbDictionary
280
     1
281
     1
  3
ACAD_SORTENTS
360
31EF
  0
DICTIONARY
  5
43668
330
680
100
AcDbDictionary
280
     1
281
     1
  3
ACAD_SORTENTS
360
43669
  0
DICTIONARY
  5
60C8B
330
71
100
AcDbDictionary
280
     1
281
     1
  3
ACAD_XREC_ROUNDTRIP
360
60C8C
  0
DICTIONARY
  5
60C8D
330
73
100
AcDbDictionary
280
     1
281
     1
  3
ACAD_XREC_ROUNDTRIP
360
60C8E
  0
DICTIONARY
  5
60915
330
60908
100
AcDbDictionary
280
     1
281
     1
  3
ACAD_DIMASSOC
360
6091F
  0
DICTIONARY
  5
6092D
330
60920
100
AcDbDictionary
280
     1
281
     1
  3
ACAD_DIMASSOC
360
60937
  0
DICTIONARY
  5
60945
330
60938
100
AcDbDictionary
280
     1
281
     1
  3
ACAD_DIMASSOC
360
6094F
  0
DICTIONARY
  5
609AB
330
6099E
100
AcDbDictionary
280
     1
281
     1
  3
ACAD_DIMASSOC
360
609B5
  0
DICTIONARY
  5
60C87
330
6B
100
AcDbDictionary
280
     1
281
     1
  3
ACAD_XREC_ROUNDTRIP
360
60C88
  0
DICTIONARY
  5
60C89
330
6D
100
AcDbDictionary
280
     1
281
     1
  3
ACAD_XREC_ROUNDTRIP
360
60C8A
  0
DICTIONARY
  5
85
102
{ACAD_REACTORS
330
C
102
}
330
C
100
AcDbDictionary
281
     1
  0
DICTIONARY
  5
D
102
{ACAD_REACTORS
330
C
102
}
330
C
100
AcDbDictionary
281
     1
  0
DICTIONARY
  5
1A
102
{ACAD_REACTORS
330
C
102
}
330
C
100
AcDbDictionary
281
     1
  3
\M+1838C\M+18343\M+18341\M+18345\M+183671
350
51
  3
\M+1838C\M+18343\M+18341\M+18345\M+183672
350
56
  3
Model
350
22
  0
DICTIONARY
  5
84
102
{ACAD_REACTORS
330
C
102
}
330
C
100
AcDbDictionary
281
     1
  0
DICTIONARY
  5
17
102
{ACAD_REACTORS
330
C
102
}
330
C
100
AcDbDictionary
281
     1
  3
Standard
350
18
  0
DICTIONARY
  5
19
102
{ACAD_REACTORS
330
C
102
}
330
C
100
AcDbDictionary
281
     1
  0
ACDBDICTIONARYWDFLT
  5
E
102
{ACAD_REACTORS
330
C
102
}
330
C
100
AcDbDictionary
281
     1
  3
Normal
350
F
100
AcDbDictionaryWithDefault
340
F
  0
DICTIONARY
  5
A1
102
{ACAD_REACTORS
330
C
102
}
330
C
100
AcDbDictionary
281
     1
  3
Standard
350
A2
  0
DICTIONARY
  5
60C82
102
{ACAD_REACTORS
330
C
102
}
330
C
100
AcDbDictionary
281
     1
  0
DICTIONARY
  5
5E
102
{ACAD_REACTORS
330
C
102
}
330
C
100
AcDbDictionary
281
     1
  3
CTABLESTYLE
350
B8
  3
DIMASSOC
350
5F
  3
HIDETEXT
350
63
  3
PROJECTNAME
350
31CE
  0
DICTIONARY
  5
349E9
102
{ACAD_REACTORS
330
C
102
}
330
C
100
AcDbDictionary
281
     1
  3
ASEBlockHierarchyIndexRecord
350
349EA
1001
DCO15
1040
1842496176.844
  0
XRECORD
  5
60C81
102
{ACAD_REACTORS
330
C
102
}
330
C
100
AcDbXrecord
280
     1
  1
DWGPROPS COOKIE
  2

  3

  4

  6

  7

  8

  9

300
=
301
=
302
=
303
=
304
=
305
=
306
=
307
=
308
=
309
=
 40
2.010014594907407
 41
2455489.391063368
 42
2458416.649214213
  1

 90
        0
  0
DICTIONARY
  5
60C0A
102
{ACAD_REACTORS
330
E2
102
}
330
E2
100
AcDbDictionary
281
     1
  0
DICTIONARY
  5
3759A
102
{ACAD_REACTORS
330
E2
102
}
330
E2
100
AcDbDictionary
281
     1
  0
DICTIONARY
  5
60C09
102
{ACAD_REACTORS
330
E2
102
}
330
E2
100
AcDbDictionary
281
     1
1001
ACAD
1000
<All
  0
SORTENTSTABLE
  5
31EF
102
{ACAD_REACTORS
330
31EE
102
}
330
31EE
100
AcDbSortentsTable
330
1F
331
60802
  5
60808
331
607E0
  5
607E2
331
60824
  5
6082A
331
6083E
  5
60844
331
60860
  5
60866
331
60882
  5
60888
331
608A4
  5
608AA
331
60793
  5
60793
331
607B5
  5
607B7
331
608BE
  5
608C4
331
607CF
  5
607D1
331
60813
  5
60819
331
607F1
  5
607F7
331
60835
  5
6083B
331
6084F
  5
60855
331
60871
  5
60877
331
60893
  5
60899
331
60782
  5
60782
331
607A4
  5
607A6
331
60800
  5
60806
331
6083C
  5
60842
331
60822
  5
60828
331
6085E
  5
60864
331
60880
  5
60886
331
60791
  5
60791
331
608A2
  5
608A8
331
607B3
  5
607B5
331
608BC
  5
608C2
331
607CD
  5
607CF
331
60811
  5
60817
331
607EF
  5
607F5
331
60833
  5
60839
331
6084D
  5
60853
331
6086F
  5
60875
331
60891
  5
60897
331
60780
  5
60780
331
607A2
  5
607A4
331
608CD
  5
608D3
331
607DE
  5
607E0
331
60820
  5
60826
331
6083A
  5
60840
331
6085C
  5
60862
331
6087E
  5
60884
331
6078F
  5
6078F
331
608A0
  5
608A6
331
607B1
  5
607B3
331
608BA
  5
608C0
331
607CB
  5
607CD
331
607ED
  5
607F3
331
6080F
  5
60815
331
60831
  5
60837
331
6084B
  5
60851
331
6086D
  5
60873
331
6077E
  5
6077E
331
6088F
  5
60895
331
607A0
  5
607A2
331
608CB
  5
608D1
331
607DC
  5
607DE
331
607FE
  5
60804
331
60838
  5
6083E
331
6085A
  5
60860
331
6087C
  5
60882
331
6078D
  5
6078D
331
6089E
  5
608A4
331
607AF
  5
607B1
331
608B8
  5
608BE
331
607C9
  5
607CB
331
607EB
  5
607F1
331
6080D
  5
60813
331
6082F
  5
60835
331
60849
  5
6084F
331
6086B
  5
60871
331
6088D
  5
60893
331
6079E
  5
607A0
331
608AF
  5
608B5
331
608C9
  5
608CF
331
607DA
  5
607DC
331
6081E
  5
60824
331
607FC
  5
60802
331
60858
  5
6085E
331
6087A
  5
60880
331
6078B
  5
6078B
331
6089C
  5
608A2
331
607AD
  5
607AF
331
608B6
  5
608BC
331
607C7
  5
607C9
331
607E9
  5
607EF
331
6080B
  5
60811
331
60847
  5
6084D
331
6082D
  5
60833
331
60869
  5
6086F
331
6088B
  5
60891
331
6079C
  5
6079C
331
608AD
  5
608B3
331
607BE
  5
607C0
331
608C7
  5
608CD
331
607D8
  5
607DA
331
6081C
  5
60822
331
607FA
  5
60800
331
60878
  5
6087E
331
60789
  5
60789
331
6089A
  5
608A0
331
607AB
  5
607AD
331
608B4
  5
608BA
331
607C5
  5
607C7
331
607E7
  5
607E9
331
60809
  5
6080F
331
6082B
  5
60831
331
60845
  5
6084B
331
60867
  5
6086D
331
60889
  5
6088F
331
6079A
  5
6079A
331
608AB
  5
608B1
331
607BC
  5
607BE
331
608C5
  5
608CB
331
607D6
  5
607D8
331
6081A
  5
60820
331
607F8
  5
607FE
331
5CD11
  5
5CD11
331
60856
  5
6085C
331
60898
  5
6089E
331
607A9
  5
607AB
331
608B2
  5
608B8
331
607C3
  5
607C5
331
60807
  5
6080D
331
607E5
  5
607E7
331
60829
  5
6082F
331
60843
  5
60849
331
60865
  5
6086B
331
60887
  5
6088D
331
60798
  5
60798
331
608A9
  5
608AF
331
607BA
  5
607BC
331
608C3
  5
608C9
331
607D4
  5
607D6
331
60818
  5
6081E
331
607F6
  5
607FC
331
60854
  5
6085A
331
60876
  5
6087C
331
60787
  5
60787
331
608B0
  5
608B6
331
607C1
  5
607C3
331
607E3
  5
607E5
331
60805
  5
6080B
331
60827
  5
6082D
331
60841
  5
60847
331
60863
  5
60869
331
60885
  5
6088B
331
60796
  5
60796
331
608A7
  5
608AD
331
607B8
  5
607BA
331
608C1
  5
608C7
331
607D2
  5
607D4
331
60816
  5
6081C
331
607F4
  5
607FA
331
60852
  5
60858
331
60874
  5
6087A
331
60896
  5
6089C
331
60785
  5
60785
331
607A7
  5
607A9
331
60803
  5
60809
331
607E1
  5
607E3
331
60825
  5
6082B
331
6083F
  5
60845
331
60861
  5
60867
331
60883
  5
60889
331
60794
  5
60794
331
608A5
  5
608AB
331
607B6
  5
607B8
331
608BF
  5
608C5
331
607D0
  5
607D2
331
60814
  5
6081A
331
607F2
  5
607F8
331
60836
  5
6083C
331
60850
  5
60856
331
60872
  5
60878
331
60894
  5
6089A
331
60783
  5
60783
331
607A5
  5
607A7
331
60801
  5
60807
331
60823
  5
60829
331
6083D
  5
60843
331
6085F
  5
60865
331
60881
  5
60887
331
608A3
  5
608A9
331
60792
  5
60792
331
607B4
  5
607B6
331
608BD
  5
608C3
331
607CE
  5
607D0
331
60812
  5
60818
331
607F0
  5
607F6
331
60834
  5
6083A
331
6084E
  5
60854
331
60870
  5
60876
331
60892
  5
60898
331
60781
  5
60781
331
607A3
  5
607A5
331
608CE
  5
608D4
331
607DF
  5
607E1
331
60821
  5
60827
331
6083B
  5
60841
331
6085D
  5
60863
331
6087F
  5
60885
331
608A1
  5
608A7
331
60790
  5
60790
331
607B2
  5
607B4
331
608BB
  5
608C1
331
607CC
  5
607CE
331
60810
  5
60816
331
607EE
  5
607F4
331
6084C
  5
60852
331
60832
  5
60838
331
6086E
  5
60874
331
6077F
  5
6077F
331
60890
  5
60896
331
607A1
  5
607A3
331
608CC
  5
608D2
331
607DD
  5
607DF
331
607FF
  5
60805
331
60839
  5
6083F
331
6085B
  5
60861
331
6087D
  5
60883
331
6078E
  5
6078E
331
6089F
  5
608A5
331
607B0
  5
607B2
331
608B9
  5
608BF
331
607CA
  5
607CC
331
607EC
  5
607F2
331
6080E
  5
60814
331
60830
  5
60836
331
6084A
  5
60850
331
6086C
  5
60872
331
6088E
  5
60894
331
6079F
  5
607A1
331
608CA
  5
608D0
331
607DB
  5
607DD
331
6081F
  5
60825
331
607FD
  5
60803
331
60859
  5
6085F
331
6087B
  5
60881
331
6078C
  5
6078C
331
6089D
  5
608A3
331
607AE
  5
607B0
331
608B7
  5
608BD
331
607C8
  5
607CA
331
607EA
  5
607F0
331
6080C
  5
60812
331
6082E
  5
60834
331
60848
  5
6084E
331
6086A
  5
60870
331
6088C
  5
60892
331
6079D
  5
6079D
331
608AE
  5
608B4
331
607BF
  5
607C1
331
608C8
  5
608CE
331
607D9
  5
607DB
331
607FB
  5
60801
331
6081D
  5
60823
331
68C
  5
435D5
331
60879
  5
6087F
331
6078A
  5
6078A
331
6089B
  5
608A1
331
607AC
  5
607AE
331
608B5
  5
608BB
331
607C6
  5
607C8
331
607E8
  5
607EE
331
6080A
  5
60810
331
6082C
  5
60832
331
60846
  5
6084C
331
60868
  5
6086E
331
6088A
  5
60890
331
6079B
  5
6079B
331
608AC
  5
608B2
331
607BD
  5
607BF
331
608C6
  5
608CC
331
607D7
  5
607D9
331
6081B
  5
60821
331
607F9
  5
607FF
331
60857
  5
6085D
331
60788
  5
60788
331
60899
  5
6089F
331
607AA
  5
607AC
331
608B3
  5
608B9
331
607C4
  5
607C6
331
60808
  5
6080E
331
607E6
  5
607E8
331
6082A
  5
60830
331
60844
  5
6084A
331
60866
  5
6086C
331
60888
  5
6088E
331
60799
  5
60799
331
608AA
  5
608B0
331
607BB
  5
607BD
331
608C4
  5
608CA
331
607D5
  5
607D7
331
60819
  5
6081F
331
607F7
  5
607FD
331
60855
  5
6085B
331
60877
  5
6087D
331
607A8
  5
607AA
331
608B1
  5
608B7
331
607C2
  5
607C4
331
60806
  5
6080C
331
607E4
  5
607E6
331
60828
  5
6082E
331
60842
  5
60848
331
60864
  5
6086A
331
60886
  5
6088C
331
60797
  5
60797
331
608A8
  5
608AE
331
607B9
  5
607BB
331
608C2
  5
608C8
331
607D3
  5
607D5
331
60817
  5
6081D
331
607F5
  5
607FB
331
60853
  5
60859
331
60875
  5
6087B
331
60786
  5
60786
331
60897
  5
6089D
331
607C0
  5
607C2
331
60804
  5
6080A
331
607E2
  5
607E4
331
60826
  5
6082C
331
60840
  5
60846
331
60862
  5
60868
331
60884
  5
6088A
331
608A6
  5
608AC
331
60795
  5
60795
331
607B7
  5
607B9
331
608C0
  5
608C6
331
607D1
  5
607D3
331
60815
  5
6081B
331
607F3
  5
607F9
331
60837
  5
6083D
331
60851
  5
60857
331
60873
  5
60879
331
60895
  5
6089B
331
60784
  5
60784
331
607A6
  5
607A8
  0
SORTENTSTABLE
  5
43669
102
{ACAD_REACTORS
330
43668
102
}
330
43668
100
AcDbSortentsTable
330
680
  0
XRECORD
  5
60C8C
102
{ACAD_REACTORS
330
60C8B
102
}
330
60C8B
100
AcDbXrecord
280
     1
102
SHADEPLOT
 70
     0
  0
XRECORD
  5
60C8E
102
{ACAD_REACTORS
330
60C8D
102
}
330
60C8D
100
AcDbXrecord
280
     1
102
SHADEPLOT
 70
     0
  0
DIMASSOC
  5
6091F
102
{ACAD_REACTORS
330
60915
102
}
330
60915
100
AcDbDimAssoc
330
60908
 90
        3
 70
     0
 71
     0
  1
AcDbOsnapPointRef
 72
     1
331
607AA
 73
     2
 91
        0
 40
1.0
 10
0.0
 20
0.0
 30
2.000000000000000E+50
 75
     0
  1
AcDbOsnapPointRef
 72
     1
331
6078F
 73
     2
 91
        0
 40
1.0
 10
0.0
 20
0.0
 30
2.000000000000000E+50
 75
     0
  0
DIMASSOC
  5
60937
102
{ACAD_REACTORS
330
6092D
102
}
330
6092D
100
AcDbDimAssoc
330
60920
 90
        3
 70
     0
 71
     0
  1
AcDbOsnapPointRef
 72
    13
331
607FC
 73
     2
 91
        0
 40
1.570796326794896
 10
0.0
 20
0.0
 30
2.000000000000000E+50
 75
     0
  1
AcDbOsnapPointRef
 72
     1
331
607FD
 73
     2
 91
        0
 40
4.712388980384689
 10
0.0
 20
0.0
 30
2.000000000000000E+50
 75
     0
  0
DIMASSOC
  5
6094F
102
{ACAD_REACTORS
330
60945
102
}
330
60945
100
AcDbDimAssoc
330
60938
 90
        3
 70
     0
 71
     0
  1
AcDbOsnapPointRef
 72
    13
331
607FD
 73
     2
 91
        0
 40
3.141592653589793
 10
0.0
 20
0.0
 30
2.000000000000000E+50
 75
     0
  1
AcDbOsnapPointRef
 72
    13
331
607A6
 73
     2
 91
        0
 40
0.0
 10
0.0
 20
0.0
 30
2.000000000000000E+50
 75
     0
  0
DIMASSOC
  5
609B5
102
{ACAD_REACTORS
330
609AB
102
}
330
609AB
100
AcDbDimAssoc
330
6099E
 90
        2
 70
     0
 71
     0
  1
AcDbOsnapPointRef
 72
     1
331
607FC
 73
     2
 91
        0
 40
3.141592653589793
 10
0.0
 20
0.0
 30
2.000000000000000E+50
 75
     0
  0
XRECORD
  5
60C88
102
{ACAD_REACTORS
330
60C87
102
}
330
60C87
100
AcDbXrecord
280
     1
102
SHADEPLOT
 70
     0
  0
XRECORD
  5
60C8A
102
{ACAD_REACTORS
330
60C89
102
}
330
60C89
100
AcDbXrecord
280
     1
102
SHADEPLOT
 70
     0
  0
LAYOUT
  5
51
102
{ACAD_XDICTIONARY
360
B2
102
}
102
{ACAD_REACTORS
330
1A
102
}
330
1A
100
AcDbPlotSettings
  1

  2
none_device
  4
Letter_(8.50_x_11.00_Inches)
  6

 40
6.349999904632567
 41
6.349999904632567
 42
6.350006103515625
 43
6.350006103515625
 44
215.8999938964844
 45
279.3999938964844
 46
0.0
 47
0.0
 48
0.0
 49
0.0
140
0.0
141
0.0
142
1.0
143
1.0
 70
   688
 72
     1
 73
     1
 74
     5
  7

 75
    16
147
1.0
148
0.0
149
0.0
100
AcDbLayout
  1
\M+1838C\M+18343\M+18341\M+18345\M+183671
 70
     1
 71
     1
 10
-6.350006103515625
 20
-6.349999904632567
 11
273.0499877929688
 21
209.5499939918518
 12
0.0
 22
0.0
 32
0.0
 14
26.66999878883364
 24
20.31999878883365
 34
0.0
 15
240.0299890995025
 25
182.8799890995025
 35
0.0
146
0.0
 13
0.0
 23
0.0
 33
0.0
 16
1.0
 26
0.0
 36
0.0
 17
0.0
 27
1.0
 37
0.0
 76
     0
330
50
331
6B
  0
LAYOUT
  5
56
102
{ACAD_XDICTIONARY
360
B5
102
}
102
{ACAD_REACTORS
330
1A
102
}
330
1A
100
AcDbPlotSettings
  1

  2
none_device
  4
Letter_(8.50_x_11.00_Inches)
  6

 40
6.349999904632567
 41
6.349999904632567
 42
6.350006103515625
 43
6.350006103515625
 44
215.8999938964844
 45
279.3999938964844
 46
0.0
 47
0.0
 48
0.0
 49
0.0
140
0.0
141
0.0
142
1.0
143
1.0
 70
   688
 72
     1
 73
     1
 74
     5
  7

 75
    16
147
1.0
148
0.0
149
0.0
100
AcDbLayout
  1
\M+1838C\M+18343\M+18341\M+18345\M+183672
 70
     1
 71
     2
 10
-6.350006103515625
 20
-6.349999904632567
 11
273.0499877929688
 21
209.5499939918518
 12
0.0
 22
0.0
 32
0.0
 14
26.66999878883363
 24
20.31999878883363
 34
0.0
 15
240.0299890995026
 25
182.8799890995025
 35
0.0
146
0.0
 13
0.0
 23
0.0
 33
0.0
 16
1.0
 26
0.0
 36
0.0
 17
0.0
 27
1.0
 37
0.0
 76
     0
330
55
331
71
  0
LAYOUT
  5
22
102
{ACAD_XDICTIONARY
360
60C83
102
}
102
{ACAD_REACTORS
330
1A
102
}
330
1A
100
AcDbPlotSettings
  1

  2
none_device
  4
ANSI_A_(8.50_x_11.00_Inches)
  6

 40
6.349999904632567
 41
19.04999923706055
 42
6.350006103515625
 43
19.04998779296875
 44
215.8999938964844
 45
279.3999938964844
 46
0.0
 47
0.0
 48
0.0
 49
0.0
140
0.0
141
0.0
142
1.0
143
78.436453180766
 70
 11952
 72
     0
 73
     1
 74
     0
  7

 75
     0
147
0.0127491741332998
148
0.0
149
0.0
100
AcDbLayout
  1
Model
 70
     1
 71
     0
 10
0.0
 20
0.0
 11
12.0
 21
9.0
 12
0.0
 22
0.0
 32
0.0
 14
0.0
 24
0.0
 34
0.0
 15
0.0
 25
0.0
 35
0.0
146
0.0
 13
0.0
 23
0.0
 33
0.0
 16
1.0
 26
0.0
 36
0.0
 17
0.0
 27
1.0
 37
0.0
 76
     0
330
1F
  0
MLINESTYLE
  5
18
102
{ACAD_REACTORS
330
17
102
}
330
17
100
AcDbMlineStyle
  2
STANDARD
 70
     0
  3

 62
   256
 51
90.0
 52
90.0
 71
     2
 49
0.5
 62
   256
  6
BYLAYER
 49
-0.5
 62
   256
  6
BYLAYER
  0
ACDBPLACEHOLDER
  5
F
102
{ACAD_REACTORS
330
E
102
}
330
E
  0
TABLESTYLE
  5
A2
102
{ACAD_REACTORS
330
A1
102
}
330
A1
100
AcDbTableStyle
  3
Standard
 70
     0
 71
     0
 40
1.5
 41
1.5
280
     0
281
     0
  7
Standard
140
4.5
170
     2
 62
     0
 63
     7
283
     0
274
    -2
284
     1
 64
     0
275
    -2
285
     1
 65
     0
276
    -2
286
     1
 66
     0
277
    -2
287
     1
 67
     0
278
    -2
288
     1
 68
     0
279
    -2
289
     1
 69
     0
  7
Standard
140
6.0
170
     5
 62
     0
 63
     7
283
     0
274
    -2
284
     1
 64
     0
275
    -2
285
     1
 65
     0
276
    -2
286
     1
 66
     0
277
    -2
287
     1
 67
     0
278
    -2
288
     1
 68
     0
279
    -2
289
     1
 69
     0
  7
Standard
140
4.5
170
     5
 62
     0
 63
     7
283
     0
274
    -2
284
     1
 64
     0
275
    -2
285
     1
 65
     0
276
    -2
286
     1
 66
     0
277
    -2
287
     1
 67
     0
278
    -2
288
     1
 68
     0
279
    -2
289
     1
 69
     0
  0
DICTIONARYVAR
  5
B8
102
{ACAD_REACTORS
330
5E
102
}
330
5E
100
DictionaryVariables
280
     0
  1
STANDARD
  0
DICTIONARYVAR
  5
5F
102
{ACAD_REACTORS
330
5E
102
}
330
5E
100
DictionaryVariables
280
     0
  1
2
  0
DICTIONARYVAR
  5
63
102
{ACAD_REACTORS
330
5E
102
}
330
5E
100
DictionaryVariables
280
     0
  1
1
  0
DICTIONARYVAR
  5
31CE
102
{ACAD_REACTORS
330
5E
102
}
330
5E
100
DictionaryVariables
280
     0
  1

  0
XRECORD
  5
349EA
102
{ACAD_REACTORS
330
349E9
102
}
330
349E9
100
AcDbXrecord
280
     1
330
68C
330
431D
330
431E
330
4329
330
4334
330
4335
330
4B09
330
4B0A
330
5153
330
5154
330
515D
330
515E
330
516A
330
516B
330
5177
330
5178
330
85B4
330
85B5
330
8620
330
8621
330
862A
330
862B
330
8637
330
8638
330
8644
330
8645
330
9773
330
9774
330
977D
330
977E
330
978A
330
978B
330
9797
330
9798
330
BD86
330
BD87
330
BD8F
330
BD90
330
BD98
330
BDA0
330
BDA1
330
BDDD
330
BDDE
330
BDE7
330
BDE8
330
BDF4
330
BDF5
330
BE01
330
BE02
330
E473
330
E474
330
E48D
330
E48E
330
E485
330
E47C
330
E47D
330
E4CC
330
E4CD
330
E4D7
330
E4D8
330
1C63B
330
1C63C
330
1C705
330
1C706
330
1C719
330
1C71A
330
1C72E
330
1C72F
330
1C738
330
1C739
330
27043
330
27044
330
2703A
330
2703B
330
2CF2C
330
2CF2D
330
2CF38
330
2CF39
330
2CF42
330
2CF43
330
2CF4F
330
2CF50
330
2CF59
330
2CF5A
330
2FA31
330
2FA32
330
2FA3D
330
2FA3E
330
2FA4A
330
2FA4B
330
2FA54
330
2FA55
330
329D8
330
329D9
330
329E1
330
329E2
330
329EA
330
329EB
330
329F3
330
329F4
330
32E63
330
32E64
330
32E6F
330
32E70
330
32E79
330
32E7A
330
32E88
330
32E89
330
32E92
330
32E93
  0
DICTIONARY
  5
B2
330
51
100
AcDbDictionary
280
     1
281
     1
  3
ACAD_XREC_ROUNDTRIP
360
60C85
  3
ADSK_XREC_LAYOUTTHUMBNAIL
360
B3
  0
DICTIONARY
  5
B5
330
56
100
AcDbDictionary
280
     1
281
     1
  3
ACAD_XREC_ROUNDTRIP
360
60C86
  3
ADSK_XREC_LAYOUTTHUMBNAIL
360
B6
  0
DICTIONARY
  5
60C83
330
22
100
AcDbDictionary
280
     1
281
     1
  3
ACAD_XREC_ROUNDTRIP
360
60C84
  0
XRECORD
  5
60C85
102
{ACAD_REACTORS
330
B2
102
}
330
B2
100
AcDbXrecord
280
     1
102
SHADEPLOT
 70
     0
102
SHADEPLOTRESLEVEL
 70
     2
102
SHADEPLOTCUSTOMDPI
 70
   300
  0
XRECORD
  5
B3
102
{ACAD_REACTORS
330
B2
102
}
330
B2
100
AcDbXrecord
280
     1
310
28000000B40000008B0000000100080000000000BC61000000000000000000000001000000000000FFFFFF0000000000FFFFFF000000000000000000000000000000000000000000000000000000000000000000330000006600000099000000CC000000FF00000000330000333300006633000099330000CC330000FF3300
310
0000660000336600006666000099660000CC660000FF66000000990000339900006699000099990000CC990000FF99000000CC000033CC000066CC000099CC0000CCCC0000FFCC000000FF000033FF000066FF000099FF0000CCFF0000FFFF000000003300330033006600330099003300CC003300FF003300003333003333
310
33006633330099333300CC333300FF33330000663300336633006666330099663300CC663300FF66330000993300339933006699330099993300CC993300FF99330000CC330033CC330066CC330099CC3300CCCC3300FFCC330000FF330033FF330066FF330099FF3300CCFF3300FFFF330000006600330066006600660099
310
006600CC006600FF00660000336600333366006633660099336600CC336600FF33660000666600336666006666660099666600CC666600FF66660000996600339966006699660099996600CC996600FF99660000CC660033CC660066CC660099CC6600CCCC6600FFCC660000FF660033FF660066FF660099FF6600CCFF6600
310
FFFF660000009900330099006600990099009900CC009900FF00990000339900333399006633990099339900CC339900FF33990000669900336699006666990099669900CC669900FF66990000999900339999006699990099999900CC999900FF99990000CC990033CC990066CC990099CC9900CCCC9900FFCC990000FF99
310
0033FF990066FF990099FF9900CCFF9900FFFF99000000CC003300CC006600CC009900CC00CC00CC00FF00CC000033CC003333CC006633CC009933CC00CC33CC00FF33CC000066CC003366CC006666CC009966CC00CC66CC00FF66CC000099CC003399CC006699CC009999CC00CC99CC00FF99CC0000CCCC0033CCCC0066CC
310
CC0099CCCC00CCCCCC00FFCCCC0000FFCC0033FFCC0066FFCC0099FFCC00CCFFCC00FFFFCC000000FF003300FF006600FF009900FF00CC00FF00FF00FF000033FF003333FF006633FF009933FF00CC33FF00FF33FF000066FF003366FF006666FF009966FF00CC66FF00FF66FF000099FF003399FF006699FF009999FF00CC
310
99FF00FF99FF0000CCFF0033CCFF0066CCFF0099CCFF00CCCCFF00FFCCFF0000FFFF0033FFFF0066FFFF0099FFFF00CCFFFF00FFFFFF00000000000D0D0D001A1A1A00282828003535350043434300505050005D5D5D006B6B6B00787878008686860093939300A1A1A100AEAEAE00BBBBBB00C9C9C900D6D6D600E4E4E400
310
F1F1F100FFFFFF0000000000000000000000000000000000000000000000000000000000000000000000000000000000EFEFEFE2E2E2E2E2E2E2E2E2E2E2E2E2E2E2E2E2E2E2E2E2E2E2E2E2E2E2E2E2E2E2E2E2E2E2E2E2E2E2E2E2E2E2E2E2E2E2E2E2E2E2E2E2E2E2E2E2E2E2E2E2E2E2E2E2E2E2E2E2E2E2E2E2E2E2E2
310
E2E2E2E2E2E2E2E2E2E2E2E2E2E2E2E2E2E2E2E2E2E2E2E2E2E2E2E2E2E2E2E2E2E2E2E2E2E2E2E2E2E2E2E2E2E2E2E2E2E2E2E2E2E2E2E2E2E2E2E2E2E2E2E2E2E2E2E2E2E2E2E2E2E2E2E2E2E2E2E2E2E2E2E2E2E2E2E2E2E2E2E2E2E2E2E2E2E2E2E2E2E2E2E2E2E2E2E2E2E2E2E2E2E2E2E2E2E2E2E2E2E2E2E2E2E2E2
310
E2E2E2E2E2E2E2E2E2E2E2E2E2E2E2E2E2E2E2E2E2E2E2E2E2E2E2E2E2E2E2E2E2E2E2E2E2E2E2E2E2E2E2E2E2E2E2E2E2E2E2E2E2E2E2E2E2E2E2E2E2E2E2E2E2E2E2E2E2E2E2E2E2E2E2E2E2E2E2E2E2E2E2E2E2E2E2E2E2E2E2E2E2E2E2E2E2E2E2E2E2E2E2E2E2E2E2E2E2E2E2E2E2E2E2E2E2E2E2E2E2E2E2E2E2E2E2
310
E2E2E2E2E2E2E2E2E2E2E2E2E2E2E2E2E2E2E2E2E2E2E2E2E2E2E2E2F5F5F5F5F5F5F5F5F5F5F5F5F5F5F5F5F5F5F5F5F5F5F5F5F5F5F5F5F5F5F5F5F5F5F5F5F5F5F5F5F5F5F5F5F5F5F5F5F5F5F5F5F5F5F5F5F5F5F5F5F5F5F5F5F5F5F5F5F5F5F5F5F5F5F5F5F5F5F5F5F5F5F5F5F5F5F5F5F5F5F5F5F5F5F5F5F5F5F5
310
F5F5F5F5F5F5F5F5F5F5F5F5F5F5F5F5F5F5F5F5F5F5F5F5F5F5F5F5F5F5F5F5F5F5F5F5F5F5F5F5F5F5F5F5F5F5F5F5F5F5F5F5F5F5F5F5F5F5F5F5F5F5F5F5F5F5F5F5F5F5F5F5F5F5F5F5F5F5F5E2E2F5F5F5F5F5F5F5F5F5F5F5F5F5F5F5F5F5F5F5F5F5F5F5F5F5F5F5F5F5F5F5F5F5F5F5F5F5F5F5F5F5F5F5F5F5F5
310
F5F5F5F5F5F5F5F5F5F5F5F5F5F5F5F5F5F5F5F5F5F5F5F5F5F5F5F5F5F5F5F5F5F5F5F5F5F5F5F5F5F5F5F5F5F5F5F5F5F5F5F5F5F5F5F5F5F5F5F5F5F5F5F5F5F5F5F5F5F5F5F5F5F5F5F5F5F5F5F5F5F5F5F5F5F5F5F5F5F5F5F5F5F5F5F5F5F5F5F5F5F5F5F5F5F5F5F5F5F5F5F5F5F5F5F5F5F5F5F5F5F5F5F5F5F5F5
310
F5F5F5F5F5E2E2F5F5F5F5F5F5F5F5F5F5F5F5F5F5F5F5F5F5F5F5F5F5F5F5F5F5F5F5F5F5F5F5F5F5F5F5F5F5F5F5F5F5F5F5F5F5F5F5F5F5F5F5F5F5F5F5F5F5F5F5F5F5F5F5F5F5F5F5F5F5F5F5F5F5F5F5F5F5F5F5F5F5F5F5F5F5F5F5F5F5F5F5F5F5F5F5F5F5F5F5F5F5F5F5F5F5F5F5F5F5F5F5F5F5F5F5F5F5F5F5
310
F5F5F5F5F5F5F5F5F5F5F5F5F5F5F5F5F5F5F5F5F5F5F5F5F5F5F5F5F5F5F5F5F5F5F5F5F5F5F5F5F5F5F5F5F5F5F5F5F5F5F5F5F5F5F5F5F5F5E2E2F5F5F5F5E2E2E2E2E2E2E2E2F5F5F5F5F5F5F5F5F5E2E2E2E2E2E2E2E2E2E2E2E2E2E2E2F5F5F5F5F5F5F5F5F5E2E2E2E2E2E2E2E2E2E2E2E2E2E2E2E2F5F5F5F5F5F5
310
F5F5E2E2E2E2E2E2E2E2E2E2E2E2E2E2E2E2F5F5F5F5F5F5F5F5E2E2E2E2E2E2E2E2E2E2E2E2E2E2E2E2F5F5F5F5F5F5F5F5E2E2E2E2E2E2E2E2E2E2E2E2E2E2E2E2F5F5F5F5F5F5F5F5F5E2E2E2E2E2E2E2E2E2E2E2E2E2E2E2F5F5F5F5F5F5F5F5F5E2E2E2E2E2E2E2E2F5F5F5F5E2E2F5F5F5F5E2F5F5F5F5F5F5F5F5F5
310
F5F5F5F5F5F5F5F5F5F5F5F5F5F5F5F5F5F5F5F5F5F5F5F5F5F5F5F5F5F5F5F5F5F5F5F5F5F5F5F5F5F5F5F5F5F5F5F5F5F5F5F5F5F5F5F5F5F5F5F5F5F5F5F5F5F5F5F5F5F5F5F5F5F5F5F5F5F5F5F5F5F5F5F5F5F5F5F5F5F5F5F5F5F5F5F5F5F5F5F5F5F5F5F5F5F5F5F5F5F5F5F5F5F5F5F5F5F5F5F5F5F5F5F5F5F5F5
310
F5F5F5F5F5F5F5F5F5F5F5F5F5F5F5F5F5F5F5F5F5F5F5F5F5F5F5F5F5F5F5F5E2F5F5F5F5E2E2F5F5F5F5E2F5F5F5F5F5F5F5F5F5F5F5F5F5F5F5F5F5F5F5F5F5F5F5F5F5F5F5F5F5F5F5F5F5F5F5F5F5F5F5F5F5F5F5F5F5F5F5F5F5F5F5F5F5F5F5F5F5F5F5F5F5F5F5F5F5F5F5F5F5F5F5F5F5F5F5F5F5F5F5F5F5F5F5
310
F5F5F5F5F5F5F5F5F5F5F5F5F5F5F5F5F5F5F5F5F5F5F5F5F5F5F5F5F5F5F5F5F5F5F5F5F5F5F5F5F5F5F5F5F5F5F5F5F5F5F5F5F5F5F5F5F5F5F5F5F5F5F5F5F5F5F5F5F5F5F5F5F5F5F5F5F5F5F5F5F5F5F5F5F5E2F5F5F5F5E2E2F5F5F5F5E2F5F5F5F5F5F5F5F5F5F5F5F5F5F5F5F5F5F5F5F5F5F5F5F5F5F5F5F5F5F5
310
F5F5F5F5F5F5F5F5F5F5F5F5F5F5F5F5F5F5F5F5F5F5F5F5F5F5F5F5F5F5F5F5F5F5F5F5F5F5F5F5F5F5F5F5F5F5F5F5F5F5F5F5F5F5F5F5F5F5F5F5F5F5F5F5F5F5F5F5F5F5F5F5F5F5F5F5F5F5F5F5F5F5F5F5F5F5F5F5F5F5F5F5F5F5F5F5F5F5F5F5F5F5F5F5F5F5F5F5F5F5F5F5F5F5F5F5F5F5F5F5F5F5F5F5F5F5F5
310
F5F5F5F5F5F5F5F5F5F5F5E2F5F5F5F5E2E2F5F5F5F5E2F5F5F5F5F5F5F5F5F5F5F5F5F5F5F5F5F5F5F5F5F5F5F5F5F5F5F5F5F5F5F5F5F5F5F5F5F5F5F5F5F5F5F5F5F5F5F5F5F5F5F5F5F5F5F5F5F5F5F5F5F5F5F5F5F5F5F5F5F5F5F5F5F5F5F5F5F5F5F5F5F5F5F5F5F5F5F5F5F5F5F5F5F5F5F5F5F5F5F5F5F5F5F5F5
310
F5F5F5F5F5F5F5F5F5F5F5F5F5F5F5F5F5F5F5F5F5F5F5F5F5F5F5F5F5F5F5F5F5F5F5F5F5F5F5F5F5F5F5F5F5F5F5F5F5F5F5F5F5F5F5F5F5F5F5F5F5F5F5F5E2F5F5F5F5E2E2F5F5F5F5E2F5F5F5F5F5F5F5F5F5F5F5F5F5F5F5F5F5F5F5F5F5F5F5F5F5F5F5F5F5F5F5F5F5F5F5F5F5F5F5F5F5F5F5F5F5F5F5F5F5F5F5
310
F5F5F5F5F5F5F5F5F5F5F5F5F5F5F5F5F5F5F5F5F5F5F5F5F5F5F5F5F5F5F5F5F5F5F5F5F5F5F5F5F5F5F5F5F5F5F5F5F5F5F5F5F5F5F5F5F5F5F5F5F5F5F5F5F5F5F5F5F5F5F5F5F5F5F5F5F5F5F5F5F5F5F5F5F5F5F5F5F5F5F5F5F5F5F5F5F5F5F5F5F5F5F5F5F5F5F5F5F5F5F5F5F5F5F5F5F5E2F5F5F5F5E2E2F5F5F5
310
F5E2F5F5F5F5F5F5F5F5F5F5F5F5F5F5F5F5F5F5F5F5F5F5F5F5F5F5F5F5F5F5F5F5F5F5F5F5F5F5F5F5F5F5F5F5F5F5F5F5F5F5F5F5F5F5F5F5F5F5F5F5F5F5F5F5F5F5F5F5F5F5F5F5F5F5F5F5F5F5F5F5F5F5F5F5F5F5F5F5F5F5F5F5F5F5F5F5F5F5F5F5F5F5F5F5F5F5F5F5F5F5F5F5F5F5F5F5F5F5F5F5F5F5F5F5F5
310
F5F5F5F5F5F5F5F5F5F5F5F5F5F5F5F5F5F5F5F5F5F5F5F5F5F5F5F5F5F5F5F5F5F5F5F5F5F5F5F5F5F5F5E2F5F5F5F5E2E2F5F5F5F5E2F5F5F5F5F5F5F5F5F5F5F5F5F5F5F5F5F5F5F5F5F5F5F5F5F5F5F5F5F5F5F5F5F5F5F5F5F5F5F5F5F5F5F5F5F5F5F5F5F5F5F5F5F5F5F5F5F5F5F5F5F5F5F5F5F5F5F5F5F5F5F5F5
310
F5F5F5F5F5F5F5F5F5F5F5F5F5F5F5F5F5F5F5F5F5F5F5F5F5F5F5F5F5F5F5F5F5F5F5F5F5F5F5F5F5F5F5F5F5F5F5F5F5F5F5F5F5F5F5F5F5F5F5F5F5F5F5F5F5F5F5F5F5F5F5F5F5F5F5F5F5F5F5F5F5F5F5F5F5F5F5F5F5F5F5F5F5F5F5F5E2F5F5F5F5E2E2F5F5F5F5E2F5F5F5F5F5F5F5F5F5F5F5F5F5F5F5F5F5F5F5
310
F5F5F5F5F5F5F5F5F5F5F5F5F5F5F5F5F5F5F5F5F5F5F5F5F5F5F5F5F5F5F5F5F5F5F5F5F5F5F5F5F5F5F5F5F5F5F5F5F5F5F5F5F5F5F5F5F5F5F5F5F5F5F5F5F5F5F5F5F5F5F5F5F5F5F5F5F5F5F5F5F5F5F5F5F5F5F5F5F5F5F5F5F5F5F5F5F5F5F5F5F5F5F5F5F5F5F5F5F5F5F5F5F5F5F5F5F5F5F5F5F5F5F5F5F5F5F5
310
F5F5F5F5F5F5F5F5F5F5F5F5F5F5F5F5F5F5F5F5F5F5E2F5F5F5F5E2E2F5F5F5F5F5F5F5F5F5F5F5F5F5F5F5F5F5F5F5F5F5F5F5F5F5F5F5F5F5F5F5F5F5F5F5F5F5F5F5F5F5F5F5F5F5F5F5F5F5F5F5F5F5F5F5F5F5F5F5F5F5F5F5F5F5F5F5F5F5F5F5F5F5F5F5F5F5F5F5F5F5F5F5F5F5F5F5F5F5F5F5F5F5F5F5F5F5F5
310
F5F5F5F5F5F5F5F5F5F5F5F5F5F5F5F5F5F5F5F5F5F5F5F5F5F5F5F5F5F5F5F5F5F5F5F5F5F5F5F5F5F5F5F5F5F5F5F5F5F5F5F5F5F5F5F5F5F5F5F5F5F5F5F5F5F5F5F5F5F5F5F5F5F5F5F5F5F5F5F5E2E2F5F5F5F5F5F5F5F5F5F5F5F5F5F5F5F5F5F5F5F5F5F5F5F5F5F5F5F5F5F5F5F5F5F5F5F5F5F5F5F5F5F5F5F5F5
310
F5F5F5F5F5F5F5F5F5F5F5F5F5F5F5F5F5F5F5F5F5F5F5F5F5F5F5F5F5F5F5F5F5F5F5F5F5F5F5F5F5F5F5F5F5F5F5F5F5F5F5F5F5F5F5F5F5F5F5F5F5F5F5F5F5F5F5F5F5F5F5F5F5F5F5F5F5F5F5F5F5F5F5F5F5F5F5F5F5F5F5F5F5F5F5F5F5F5F5F5F5F5F5F5F5F5F5F5F5F5F5F5F5F5F5F5F5F5F5F5F5F5F5F5F5F5F5
310
F5F5F5F5F5F5E2E2F5F5F5F5F5F5F5F5F5F5F5F5F5F5F5F5F5F5F5F5F5F5F5F5F5F5F5F5F5F5F5F5F5F5F5F5F5F5F5F5F5F5F5F5F5F5F5F5F5F5F5F5F5F5F5F5F5F5F5F5F5F5F5F5F5F5F5F5F5F5F5F5F5F5F5F5F5F5F5F5F5F5F5F5F5F5F5F5F5F5F5F5F5F5F5F5F5F5F5F5F5F5F5F5F5F5F5F5F5F5F5F5F5F5F5F5F5F5F5
310
F5F5F5F5F5F5F5F5F5F5F5F5F5F5F5F5F5F5F5F5F5F5F5F5F5F5F5F5F5F5F5F5F5F5F5F5F5F5F5F5F5F5F5F5F5F5F5F5F5F5F5F5F5F5F5F5F5F5F5E2E2F5F5F5F5F5F5F5F5F5F5F5F5F5F5F5F5F5F5F5F5F5F5F5F5F5F5F5F5F5F5F5F5F5F5F5F5F5F5F5F5F5F5F5F5F5F5F5F5F5F5F5F5F5F5F5F5F5F5F5F5F5F5F5F5F5F5
310
F5F5F5F5F5F5F5F5F5F5F5F5F5F5F5F5F5F5F5F5F5F5F5F5F5F5F5F5F5F5F5F5F5F5F5F5F5F5F5F5F5F5F5F5F5F5F5F5F5F5F5F5F5F5F5F5F5F5F5F5F5F5F5F5F5F5F5F5F5F5F5F5F5F5F5F5F5F5F5F5F5F5F5F5F5F5F5F5F5F5F5F5F5F5F5F5F5F5F5F5F5F5F5F5F5F5F5F5F5F5F5F5E2E2F5F5F5F5F5F5F5F5F5F5F5F5F5
310
F5F5F5F5F5F5F5F5E2E2E2E2E2E2E2E2E2E2E2E2E2E2E2E2E2E2E2E2E2E2E2E2E2E2E2E2E2E2E2E2E2E2E2E2E2E2E2E2E2E2E2E2E2E2E2E2E2E2E2E2E2E2E2E2E2E2E2E2E2E2E2E2E2E2E2E2E2E2E2E2E2E2E2E2E2E2E2E2E2E2E2E2E2E2E2E2E2E2E2E2E2E2E2E2E2E2E2E2E2E2E2E2E2E2E2E2E2E2E2E2E2E2E2E2E2E2E2
310
E2E2E2E2E2E2E2E2E2E2E2E2E2E2E2E2E2F5F5F5F5F5F5F5F5F5F5F5F5F5F5F5F5F5F5F5F5F5E2E2F5F5F5F5F5F5F5F5F5F5F5F5F5F5F5F5F5F5F5F5F5E22D2D2D2DF5F5F5F5E2F5F5F5F5F5F5F52DF5F5F5F5F5F5F5F5F5F5F5F5F5F5F5F5F5F5E2F5F5F5F5F5F5F5F5F5F5F5F5F5F5F5F5F5F5F5F5F5F5F5F5F5F5F5F5F5
310
F5F5F5F5F5F5F5F5F5F5F5F5F5F5F5F5F5F5F5F5F5F5F5F5F5F5F5F5F5F5F5F5F5F5F5F5F5F5F5F5F5F5F5F5F5F5F5F5F5F5F5F5F5F5F5F5F5F5F5F5F5F5F5F5F5F5F5F5F5E2F5F5F5F5F5F5F5F5F5F5F5F5F5F5F5F5F5F5F5F5F5E2E2F5F5F5F5F5F5F5F5F5F5F5F5F5F5F5F5F5F5F5F5F5E2DCF5F52DF5F5F5F5E2F5F5F5
310
F5F5F5F52DF5F5F5F5F5F5F5F5F5F5F5F5F5F5F5F5F5F5E2F5F5F5F5F5F5F5F5F5F5F5F5F5F5F5F5F5F5F5F5F5F5F5F5F5F5F5F5F5F5F5F5F5F5F5F5F5F5F5F5F5F5F5F5F5F5F5F5F5F5F5F5F5F5F5F5F5F5F5F5F5F5F5F5F5F5F5F5F5F5F5F5F5F5F5F5F5F5F5F5F5F5F5F5F5F5F5F5F5F5F5F5F5F5F5F5F5F5E2F5F5F5F5
310
F5F5F5F5F5F5F5F5F5F5F5F5F5F5F5F5F5E2E2F5F5F5F5F5F5F5F5F5F5F5F5F5F5F5F5F5F5F5F5F5E2DCF5F52DF5F5F5F5E2F5F5F5F5F5F5F52DF5F5F5F5F5F5F5F5F5F5F5F5F5F5F5F5F5F5E2E2F5F5F5F5F5F5F5F5F5F5F5F5F5F5F5F5F5F5F5F5F5F5F5F5F5F5F5F5F5F5F5F5F5F5F5F5F5F5F5F5F5F5F5F5F5F5F5F5F5
310
F5F5F5F5F5F5F5F5F5F5F5F5F5F5F5F5F5F5F5F5F5F5F5F5F5F5F5F5F5F5F5F5F5F5F5F5F5F5F5F5F5F5F5F5F5F5F5F5E2F5F5F5F5F5F5F5F5F5F5F5F5F5F5F5F5F5F5F5F5F5E2E2F5F5F5F5F5F5F5F5F5F5F5F5F5F5F5F5F5F5F5F5F5E2BEF5F52D2D2D2D2D2D2D2D2D2D2D2D2D2DE2E2E2E2E2E2E2E2E2E2E2E2E2E2E2E2
310
E2E2E2E2F5F5F5F5F5F5F5F5F5F5F5F5F5F5F5F5F5F5F5F5F5F5F5F5F5F5F5F5F5F5F5F5F5F5F5F5F5F5F5F5F5F5F5F5F5F5F5F5F5F5F5F5F5F5F5F5F5F5F5F5F5F5F5F5F5F5F5F5F5F5F5F5F5F5F5F5F5F5F5F5F5F5F5F5F5F5F5F5F5F5F5F5F5F5F5F5F5E2F5F5F5F5F5F5F5F5F5F5F5F5F5F5F5F5F5F5F5F5F5E2E2F5F5
310
F5F5E2F5F5F5F5F5F5F5F5F5F5F5F5F5F5F5F5E2DCF5F5F5F5F5F5F5E2F5F5F5F5F5F5F5E2F5F5F5F5F5F5F5F5F5F5F5F5F5F5F5F5F5F5F5F5F5F5F5F5F5F5F5F5F5F5F5F5F5F5F5F5F5F5F5F5F5F5F5F5F5F5F5F5F5F5F5F5F5F5F5F5F5F5F5F5F5F5F5F5F5F5F5F5F5F5F5F5F5F5F5F5F5F5F5F5F5F5F5F5F5F5F5F5F5F5
310
F5F5F5F5F5F5F5F5F5F5F5F5F5F5F5F5F5F5F5F5F5F5F5F5F5F5F5E2F5F5F5F5F5F5F5F5F5F5F5F5F5F5F5F5E2F5F5F5F5E2E2F5F5F5F5E2F5F5F5F5F5F5F5F5F5F5F5F5F5F5F5F5E2F5F5F5F5F5F5F5F5E2F5F5F5F5F5F5F5E2F5F5F5F5F5F5F5F5F5F5F5F5F5F5F5F5F5F5F5F5F5F5F5F5F5F5F5F5F5F5F5F5F5F5F5F5F5
310
F5F5F5F5F5F5F5F5F5F5F5F5F5F5F5F5F5F5F5F5F5F5F5F5F5F5F5F5F5F5F5F5F5F5F5F5F5F5F5F5F5F5F5F5F5F5F5F5F5F5F5F5F5F5F5F5F5F5F5F5F5F5F5F5F5F5F5F5F5F5F5F5F5F5F5F5F5F5F5F5E2F5F5F5F5F5F5F5F5F5F5F5F5F5F5F5F5E2F5F5F5F5E2E2F5F5F5F5E2F5F5F5F5F5F5F5F5F5F5F5F5F5F5F5F5E2E2
310
E2E2E2E2E2E2E2E2F5F5F5F5F5F5F5E2F5F5F5F5F5F5F5F5F5F5F5F5F5F5F5F5F5F5F5F5F5F5F5F5F5F5F5F5F5F5F5F5F5F5F5F5F5F5F5F5F5F5F5F5F5F5F5F5F5F5F5F5F5F5F5F5F5F5F5F5F5F5F5F5F5F5F5F5F5F5F5F5F5F5F5F5F5F5F5F5F5F5F5F5F5F5F5F5F5F5F5F5F5F5F5F5F5F5F5F5F5F5F5F5F5F5F5F5F5F5F5
310
F5F5F5F5F5F5E2F5F5F5F5F5F5F5F5F5F5F5F5F5F5F5F5E2F5F5F5F5E2E2F5F5F5F5E2F5F5F5F5F5F5F5F5F5F5F5F5F5F5F5F5E2E2E2E2F5F5F5F5F5F5F5F5F5F5F5F5F5E2F5F5F5F5F5F5F5F5F5F5F5F5F5F5F5F5F5F5F5F5F5F5F5F5F5F5F5F5F5F5F5F5F5F5F5F5F5F5F5F5F5F5F5F5F5F5F5F5F5F5F5F5F5F5F5F5F5F5
310
F5F5F5F5F5F5F5F5F5F5F5F5F5F5F5F5F5F5F5F5F5F5F5F5F5F5F5F5F5F5F5F5F5F5F5F5F5F5F5F5F5F5F5F5F5F5F5F5F5F5F5F5F5F5F5F5F5F5F5E2F5F5F5F5F5F5F5F5F5F5F5F5F5F5F5F5E2F5F5F5F5E2E2F5F5F5F5E2F5F5F5F5F5F5F5F5F5F5F5F5F5F5F5F5E2E2E2E2F5F5F5F5F5F5F5F5F5F5F5F5F5E2F5F5F5F5F5
310
F5F5F5F5F5F5F5F5F5F5F5F5F5F5F5F5F5F5F5F5F5F5F5F5F5F5F5F5F5F5F5F5F5F5F5F5F5F5F5F5F5F5F5F5F5F5F5F5F5F5F5F5F5F5F5F5F5F5F5F5F5F5F5F5F5F5F5F5F5F5F5F5F5F5F5F5F5F5F5F5F5F5F5F5F5F5F5F5F5F5F5F5F5F5F5F5F5F5F5F5F5F5F5F5F5F5F5F5F5F5F5F5E2F5F5F5F5F5F5F5F5F5F5F5F5F5F5
310
F5F5E2F5F5F5F5E2E2F5F5F5F5E2F5F5F5F5F5F5F5F5F5F5F5F5F5F5F5F5E2F5F5F5F5F5F5F5F5F5F5F5F5F5F5F5F5E2F5F5F5F5F5F5F5F5F5F5F5F5F5F5F5F5F5F5F5F5F5F5F5F5F5F5F5F5F5F5F5F5F5F5F5F5F5F5F5F5F5F5F5F5F5F5F5F5F5F5F5F5F5F5F5F5F5F5F5F5F5F5F5F5F5F5F5F5F5F5F5F5F5F5F5F5F5F5F5
310
F5F5F5F5F5F5F5F5F5F5F5F5F5F5F5F5F5F5F5F5F5F5F5F5F5F5F5F5F5F5F5F5F5F5F5F5F5F5E2F5F5F5F5F5F5F5F5F5F5F5F5F5F5F5F5E2F5F5F5F5E2E2F5F5F5F5E2F5F5F5F5F5F5F5F5F5F5F5F5F5F5F5F5E2E2E2E2E2E2E2E2E2E2E2E2E2E2E2E2E2E2F5F5F5F5F5F5F5F5F5F5F5F5F5F5F5F5F5F5F5F5F5F5F5F5F5F5
310
F5F5F5F5F5F5F5F5F5F5F5F5F5F5F5F5F5F5F5F5F5F5F5F5F5F5F5F5F5F5F5F5F5F5F5F5F5F5F5F5F5F5F5F5F5F5F5F5F5F5F5F5F5F5F5F5F5F5F5F5F5F5F5F5F5F5F5F5F5F5F5F5F5F5F5F5F5F5F5F5F5F5F5F5F5F5F5F5F5F5F5E2F5F5F5F5F5F5F5F5F5F5F5F5F5F5F5F5E2F5F5F5F5E2E2F5F5F5F5E2F5F5F5F5F5F5F5
310
F5F5F5F5F5F5F5F5F5E2E2E2F5F5F5F5F5F5F5F5F5F5F5F5F5F5F5F5F5F5F5F5F5F5F5F5F5F5F5F5F5F5F5F5F5F5F5F5F5F5F5F5F5F5F5F5F5F5F5F5F5F5F5F5F5F5F5F5F5F5F5F5F5F5F5F5F5F5F5F5F5F5F5F5F5F5F5F5F5F5F5F5F5F5F5F5F5F5F5F5F5F5F5F5F5F5F5F5F5F5F5F5F5F5F5F5F5F5F5F5F5F5F5F5F5F5F5
310
F5F5F5F5F5F5F5F5F5F5F5F5F5F5F5F5F5E2F5F5F5F5F5F5F5F5F5F5F5F5F5F5F5F5E2F5F5F5F5E2E2F5F5F5F5E2F5F5F5F5F5F5F5F5F5F5F5F5F5F5F5F5E2E2E2F5F5F5F5F5F5F5F5F5F5F5F5F5F5F5F5F5F5F5F5F5F5F5F5F5F5F5F5F5F5F5F5F5F5F5F5F5F5F5F5F5F5F5F5F5F5F5F5F5F5F5F5F5F5F5F5F5F5F5F5F5F5
310
F5F5F5F5F5F5F5F5F5F5F5F5F5F5F5F5F5F5F5F5F5F5F5F5F5F5F5F5F5F5F5F5F5F5F5F5F5F5F5F5F5F5F5F5F5F5F5F5F5F5F5F5F5F5F5F5F5F5F5F5F5F5F5F5F5F5F5F5F5F5E2F5F5F5F5F5F5F5F5F5F5F5F5F5F5F5F5E2F5F5F5F5E2E2F5F5F5F5E2F5F5F5F5F5F5F5F5F5F5F5F5F5F5F5F5E2F5F5F5F5F5F5F5F5F5F5F5
310
F5F5F5F5F5F5F5F5F5F5F5F5F5F5F5F5F5F5F5F5F5F5F5F5F5F5F5F5F5F5F5F5F5F5F5F5F5F5F5F5F5F5F5F5F5F5F5F5F5F5F5F5F5F5F5F5F5F5F5F5F5F5F5F5F5F5F5F5F5F5F5F5F5F5F5F5F5F5F5F5F5F5F5F5F5F5F5F5F5F5F5F5F5F5F5F5F5F5F5F5F5F5F5F5F5F5F5F5F5F5F5F5F5F5F5F5F5F5F5F5F5F5F5E2F5F5F5
310
F5F5F5F5F5F5F5F5F5F5F5F5F5E2F5F5F5F5E2E2F5F5F5F5E2F5F5F5F5F5F5F5F5F5F5F5F5F5F5F5F5E20F0F0F0F0F0F0F0F0F0F0FF5F5F5F5F5F5F5F5F5F5F5F5F5F5F5F5F5F5F5F5F5F5F5F5F5F5F5F5F5F5F5F5F5F5F5F5F5F5F5F5F5F5F5F5F5F5F5F5F5F5F5F5F5F5F5F5F5F5F5F5F5F5F5F5F5F5F5F5F5F5F5F5F5F5
310
F5F5F5F5F5F5F5F5F5F5F5F5F5F5F5F5F5F5F5F5F5F5F5F5F5F5F5F5F5F5F5F5F5F5F5F5F5F5F5F5F5F5F5F5F5F5F5F5F5E2F5F5F5F5F5F5F5F5F5F5F5F5F5F5F5F5E2F5F5F5F5E2E2F5F5F5F5E2F5F5F5F5F5F5F5F5F5F5F5F5F5F5F5F5E20F0F0F0F0F0F0F0F0F0FF5F5F5F5F5F5F5F5F5F5F5F5F5F5F5F5F5F5F5F5F5F5
310
F5F5F5F5F5F5F5F5F5F5F5F5F5F5F5F5F5F5F5F5F5F5F5F5F5F5F5F5F5F5F5F5F5F5F5F5F5F5F5F5F5F5F5F5F5F5F5F5F5F5F5F5F5F5F5F5F5F5F5F5F5F5F5F5F5F5F5F5F5F5F5F5F5F5F5F5F5F5F5F5F5F5F5F5F5F5F5F5F5F5F5F5F5F5F5F5F5F5F5F5F5F5E2F5F5F5F5F5F5F5F5F5F5F5F5F5F5F5F5E2F5F5F5F5E2E2F5
310
F5F5F5E2F5F5F5F5F5F5F5F5F5F5F5F5F5F5F5F5E2F5F5F5F5F5F5F5F5F5F5F5F5F5F5F5F5F5F5F5F5F5F5F5F5F5F5F5F5F5F5F5F5F5F5F5F5F5F5F5F5F5F5F5F5F5F5F5F5F5F5F5F5F5F5F5F5F5F5F5F5F5F5F5F5F5F5F5F5F5F5F5F5F5F5F5F5F5F5F5F5F5F5F5F5F5F5F5F5F5F5F5F5F5F5F5F5F5F5F5F5F5F5F5F5F5F5
310
F5F5F5F5F5F5F5F5F5F5F5F5F5F5F5F5F5F5F5F5F5F5F5F5F5F5F5F5E2F5F5F5F5F5F5F5F5F5F5F5F5F5F5F5F5E2F5F5F5F5E2E2F5F5F5F5E2F5F5F5F5F5F5F5F5F5F5F5F5F5F5F5F5E2F5F5F5F5F5F5F5F5F5F5F5F5F5F5F5F5F5F5F5F5F5F5F5F5F5F5F5F5F5F5F5F5F5F5F5F5F5F5F5F5F5F5F5F5F5F5F5F5F5F5F5F5F5
310
F5F5F5F5F5F5F5F5F5F5F5F5F5F5F5F5F5F5F5F5F5F5F5F5F5F5F5F5F5F5F5F5F5F5F5F5F5F5F5F5F5F5F5F5F5F5F5F5F5F5F5F5F5F5F5F5F5F5F5F5F5F5F5F5F5F5F5F5F5F5F5F5F5F5F5F5F5F5F5F5F5E2F5F5F5F5F5F5F5F5F5F5F5F5F5F5F5F5E2F5F5F5F5E2E2F5F5F5F5E2F5F5F5F5F5F5F5F5F5F5F5F5F5F5F5F5E2
310
F5F5F5F5F5F5F5F5F5F5F5F5F5F5F5F5F5F5F5F5F5F5F5F5F5F5F5F5F5F5F5F5F5F5F5F5F5F5F5F5F5F5F5F5F5F5F5F5F5F5F5F5F5F5F5F5F5F5F5F5F5F5F5F5F5F5F5F5F5F5F5F5F5F5F5F5F5F5F5F5F5F5F5F5F5F5F5F5F5F5F5F5F5F5F5F5F5F5F5F5F5F5F5F5F5F5F5F5F5F5F5F5F5F5F5F5F5F5F5F5F5F5F5F5F5F5F5
310
F5F5F5F5F5F5F5E2F5F5F5F5F5F5F5F5F5F5F5F5F5F5F5F5E2F5F5F5F5E2E2F5F5F5F5E2F5F5F5F5F5F5F5F5F5F5F5F5F5F5F5F5E2F5F5F5F5F5F5F5F5F5F5F5F5F5F5F5F5F5F5F5F5F5F5F5F5F5F5F5F5F5F5F5F5F5F5F5F5F5F5F5F5F5F5F5F5F5F5F5F5F5F5F5F5F5F5F5F5F5F5F5F5F5F5F5F5F5F5F5F5F5F5F5F5F5F5
310
F5F5F5F5F5F5F5F5F5F5F5F5F5F5F5F5F5F5F5F5F5F5F5F5F5F5F5F5F5F5F5F5F5F5F5F5F5F5F5F5F5F5F5F5F5F5F5F5F5F5F5F5F5F5F5F5F5F5F5F5E2F5F5F5F5F5F5F5F5F5F5F5F5F5F5F5F5E2F5F5F5F5E2E2F5F5F5F5F5F5F5F5F5F5F5F5F5F5F5F5F5F5F5F5F5E2F5F5F5F5F5F5F5F5F5F5F5F5F5F5F5F5F5F5F5F5F5
310
F5F5F5F5F5F5F5F5F5F5F5F5F5F5F5F5F5F5F5F5F5F5F5F5F5F5F5F5F5F5F5F5F5F5F5F5F5F5F5F5F5F5F5F5F5F5F5F5F5F5F5F5F5F5F5F5F5F5F5F5F5F5F5F5F5F5F5F5F5F5F5F5F5F5F5F5F5F5F5F5F5F5F5F5F5F5F5F5F5F5F5F5F5F5F5F5F5F5F5F5F5F5F5F5F5F5F5F5F5F5F5F5F5E2F5F5F5F5F5F5F5F5F5F5F5F5F5
310
F5F5F5F5F5F5F5F5E2E2F5F5F5F5F5F5F5F5F5F5F5F5F5F5F5F5F5F5F5F5F5E2F5F5F5F5F5F5F5F5F5F5F5F5F5F5F5F5F5F5F5F5F5F5F5F5F5F5F5F5F5F5F5F5F5F5F5F5F5F5F5F5F5F5F5F5F5F5F5F5F5F5F5F5F5F5F5F5F5F5F5F5F5F5F5F5F5F5F5F5F5F5F5F5F5F5F5F5F5F5F5F5F5F5F5F5F5F5F5F5F5F5F5F5F5F5F5
310
F5F5F5F5F5F5F5F5F5F5F5F5F5F5F5F5F5F5F5F5F5F5F5F5F5F5F5F5F5F5F5F5F5F5F5F5F5F5F5E2F5F5F5F5F5F5F5F5F5F5F5F5F5F5F5F5F5F5F5F5F5E2E2F5F5F5F5F5F5F5F5F5F5F5F5F5F5F5F5F5F5F5F5F5E2F5F5F5F5F5F5F5F5F5F5F5F5F5F5F5F5F5F5F5F5F5F5F5F5F5F5F5F5F5F5F5F5F5F5F5F5F5F5F5F5F5F5
310
F5F5F5F5F5F5F5F5F5F5F5F5F5F5F5F5F5F5F5F5F5F5F5F5F5F5F5F5F5F5F5F5F5F5F5F5F5F5F5F5F5F5F5F5F5F5F5F5F5F5F5F5F5F5F5F5F5F5F5F5F5F5F5F5F5F5F5F5F5F5F5F5F5F5F5F5F5F5F5F5F5F5F5F5F5F5F5F5F5F5F5F5E2F5F5F5F5F5F5F5F5F5F5F5F5F5F5F5F5F5F5F5F5F5E2E2F5F5F5F5F5F5F5F5F5F5F5
310
F5F5F5F5F5F5F5F5F5F5E2F5F5F5F5F5F5F5F5F5F5F5F5F5F5F5F5F5F5F5F5F5F5F5F5F5F5F5F5F5F5F5F5F5F5F5F5F5F5F5F5F5F5F5F5F5F5F5F5F5F5F5F5F5F5F5F5F5F5F5F5F5F5F5F5F5F5F5F5F5F5F5F5F5F5F5F5F5F5F5F5F5F5F5F5F5F5F5F5F5F5F5F5F5F5F5F5F5F5F5F5F5F5F5F5F5F5F5F5F5F5F5F5F5F5F5F5
310
F5F5F5F5F5F5F5F5F5F5F5F5F5F5F5F5F5F5E2F5F5F5F5F5F5F5F5F5F5F5F5F5F5F5F5F5F5F5F5F5E2E2F5F5F5F5F5F5F5F5F5F5F5F5F5F5F5F5F5F5F5F5F5E2F5F5F5F5F5F5F5F5F5F5F5F5F5F5F5F5F5F5F5F5F5F5F5F5F5F5F5F5F5F5F5F5F5F5F5F5F5F5F5F5F5F5F5F5F5F5F5F5F5F5F5F5F5F5F5F5F5F5F5F5F5F5F5
310
F5F5F5F5F5F5F5F5F5F5F5F5F5F5F5F5F5F5F5F5F5F5F5F5F5F5F5F5F5F5F5F5F5F5F5F5F5F5F5F5F5F5F5F5F5F5F5F5F5F5F5F5F5F5F5F5F5F5F5F5F5F5F5F5F5F5F5F5F5F5F5E2F5F5F5F5F5F5F5F5F5F5F5F5F5F5F5F5F5F5F5F5F5E2E2F5F5F5F5F5F5F5F5F5F5F5F5F5F5F5F5F5F5F5F5F5E2F5F5F5F5F5F5F5F5F5F5
310
F5F5F5F5F5F5F5F5F5F5F5F5F5F5F5F5F5F5F5F5F5F5F5F5F5F5F5F5F5F5F5F5F5F5F5F5F5F5F5F5F5F5F5F5F5F5F5F5F5F5F5F5F5F5F5F5F5F5F5F5F5F5F5F5F5F5F5F5F5F5F5F5F5F5F5F5F5F5F5F5F5F5F5F5F5F5F5F5F5F5F5F5F5F5F5F5F5F5F5F5F5F5F5F5F5F5F5F5F5F5F5F5F5F5F5F5F5F5F5F5F5F5F5F5E2F5F5
310
F5F5F5F5F5F5F5F5F5F5F5F5F5F5F5F5F5F5F5E2E2F5F5F5F5F5F5F5F5F5F5F5F5F5F5F5F5F5F5F5F5F5E2F5F5F5F5F5F5F5F5F5F5F5F5F5F5F5F5F5F5F5F5F5F5F5F5F5F5F5F5F5F5F5F5F5F5F5F5F5F5F5F5F5F5F5F5F5F5F5F5F5F5F5F5F5F5F5F5F5F5F5F5F5F5F5F5F5F5F5F5F5F5F5F5F5F5F5F5F5F5F5F5F5F5F5F5
310
F5F5F5F5F5F5F5F5F5F5F5F5F5F5F5F5F5F5F5F5F5F5F5F5F5F5F5F5F5F5F5F5F5F5F5F5F5F5F5F5F5F5F5F5F5F5F5F5F5F5E2F5F5F5F5F5F5F5F5F5F5F5F5F5F5F5F5F5F5F5F5F5E2E2F5F5F5F5F5F5F5F5F5F5F5F5F5F5F5F5F5F5F5F5F5E2F5F5F5F5F5F5F5F5F5F5F5F5F5F5F5F5F5F5F5F5F5F5F5F5F5F5F5F5F5F5F5
310
F5F5F5F5F5F5F5F5F5F5F5F5F5F5F5F5F5F5F5F5F5F5F5F5F5F5F5F5F5F5F5F5F5F5F5F5F5F5F5F5F5F5F5F5F5F5F5F5F5F5F5F5F5F5F5F5F5F5F5F5F5F5F5F5F5F5F5F5F5F5F5F5F5F5F5F5F5F5F5F5F5F5F5F5F5F5F5F5F5F5F5F5F5F5F5F5F5F5F5F5F5F5F5E2F5F5F5F5F5F5F5F5F5F5F5F5F5F5F5F5F5F5F5F5F5E2E2
310
F5F5F5F5F5F5F5F5F5F5F5F5F5F5F5F5F5F5F5F5F5E2F5F5F5F5F5F5F5F5F5F5F5F5F5F5F5F5F5F5F5F5F5F5F5F5F5F5F5F5F5F5F5F5F5F5F5F5F5F5F5F5F5F5F5F5F5F5F5F5F5F5F5F5F5F5F5F5F5F5F5F5F5F5F5F5F5F5F5F5F5F5F5F5F5F5F5F5F5F5F5F5F5F5F5F5F5F5F5F5F5F5F5F5F5F5F5F5F5F5F5F5F5F5F5F5F5
310
F5F5F5F5F5F5F5F5F5F5F5F5F5F5F5F5F5F5F5F5F5F5F5F5F5F5F5F5F5E2F5F5F5F5F5F5F5F5F5F5F5F5F5F5F5F5F5F5F5F5F5E2E2F5F5F5F5F5F5F5F5F5F5F5F5F5F5F5F5F5F5F5F5F5E2F5F5F5F5F5F5F5F5F5F5F5F5F5F5F5F5F5F5F5F5F5F5F5F5F5F5F5F5F5F5F5F5F5F5F5F5F5F5F5F5F5F5F5F5F5F5F5F5F5F5F5F5
310
F5F5F5F5F5F5F5F5F5F5F5F5F5F5F5F5F5F5F5F5F5F5F5F5F5F5F5F5F5F5F5F5F5F5F5F5F5F5F5F5F5F5F5F5F5F5F5F5F5F5F5F5F5F5F5F5F5F5F5F5F5F5F5F5F5F5F5F5F5F5F5F5F5F5F5F5F5F5F5F5F5F5E2F5F5F5F5F5F5F5F5F5F5F5F5F5F5F5F5F5F5F5F5F5E2E2F5F5F5F5E2F5F5F5F5F5F5F5F5F5F5F5F5F5F5F5F5
310
E2F5F5F5F5F5F5F5F5F5F5F5F5F5F5F5F5F5F5F5F5F5F5F5F5F5F5F5F5F5F5F5F5F5F5F5F5F5F5F5F5F5F5F5F5F5F5F5F5F5F5F5F5F5F5F5F5F5F5F5F5F5F5F5F5F5F5F5F5F5F5F5F5F5F5F5F5F5F5F5F5F5F5F5F5F5F5F5F5F5F5F5F5F5F5F5F5F5F5F5F5F5F5F5F5F5F5F5F5F5F5F5F5F5F5F5F5F5F5F5F5F5F5F5F5F5F5
310
F5F5F5F5F5F5F5F5E2F5F5F5F5F5F5F5F5F5F5F5F5F5F5F5F5E2F5F5F5F5E2E2F5F5F5F5E2F5F5F5F5F5F5F5F5F5F5F5F5F5F5F5F5E2F5F5F5F5F5F5F5F5F5F5F5F5F5F5F5F5F5F5F5F5F5F5F5F5F5F5F5F5F5F5F5F5F5F5F5F5F5F5F5F5F5F5F5F5F5F5F5F5F5F5F5F5F5F5F5F5F5F5F5F5F5F5F5F5F5F5F5F5F5F5F5F5F5
310
F5F5F5F5F5F5F5F5F5F5F5F5F5F5F5F5F5F5F5F5F5F5F5F5F5F5F5F5F5F5F5F5F5F5F5F5F5F5F5F5F5F5F5F5F5F5F5F5F5F5F5F5F5F5F5F5F5F5F5F5F5E2F5F5F5F5F5F5F5F5F5F5F5F5F5F5F5F5E2F5F5F5F5E2E2F5F5F5F5E2F5F5F5F5F5F5F5F5F5F5F5F5F5F5F5F5E2F5F5F5F5F5F5F5F5F5F5F5F5F5F5F5F5F5F5F5F5
310
F5F5F5F5F5F5F5F5F5F5F5F5F5F5F5F5F5F5F5F5F5F5F5F5F5F5F5F5F5F5F5F5F5F5F5F5F5F5F5F5F5F5F5F5F5F5F5F5F5F5F5F5F5F5F5F5F5F5F5F5F5F5F5F5F5F5F5F5F5F5F5F5F5F5F5F5F5F5F5F5F5F5F5F5F5F5F5F5F5F5F5F5F5F5F5F5F5F5F5F5F5F5F5F5F5F5F5F5F5F5F5F5F5F5E2F5F5F5F5F5F5F5F5F5F5F5F5
310
F5F5F5F5E2F5F5F5F5E2E2F5F5F5F5E2F5F5F5F5F5F5F5F5F5F5F5F5F5F5F5F5E2F5F5F5F5F5F5F5F5F5F5F5F5F5F5F5F5F5F5F5F5F5F5F5F5F5F5F5F5F5F5F5F5F5F5F5F5F5F5F5F5F5F5F5F5F5F5F5F5F5F5F5F5F5F5F5F5F5F5F5F5F5F5F5F5F5F5F5F5F5F5F5F5F5F5F5F5F5F5F5F5F5F5F5F5F5F5F5F5F5F5F5F5F5F5
310
F5F5F5F5F5F5F5F5F5F5F5F5F5F5F5F5F5F5F5F5F5F5F5F5F5F5F5F5F5F5F5F5F5F5F5F5F5F5F5F5E2F5F5F5F5F5F5F5F5F5F5F5F5F5F5F5F5E2F5F5F5F5E2E2F5F5F5F5E2F5F5F5F5F5F5F5F5F5F5F5F5F5F5F5F5E2F5F5F5F5F5F5F5F5F5F5F5F5F5F5F5F5F5F5F5F5F5F5F5F5F5F5F5F5F5F5F5F5F5F5F5F5F5F5F5F5F5
310
F5F5F5F5F5F5F5F5F5F5F5F5F5F5F5F5F5F5F5F5F5F5F5F5F5F5F5F5F5F5F5F5F5F5F5F5F5F5F5F5F5F5F5F5F5F5F5F5F5F5F5F5F5F5F5F5F5F5F5F5F5F5F5F5F5F5F5F5F5F5F5F5F5F5F5F5F5F5F5F5F5F5F5F5F5F5F5F5F5F5F5F5F5E2F5F5F5F5F5F5F5F5F5F5F5F5F5F5F5F5E2F5F5F5F5E2E2F5F5F5F5E2F5F5F5F5F5
310
F5F5F5F5F5F5F5F5F5F5F5E2F5F5F5F5F5F5F5F5F5F5F5F5F5F5F5F5F5F5F5F5F5F5F5F5F5F5F5F5F5F5F5F5F5F5F5F5F5F5F5F5F5F5F5F5F5F5F5F5F5F5F5F5F5F5F5F5F5F5F5F5F5F5F5F5F5F5F5F5F5F5F5F5F5F5F5F5F5F5F5F5F5F5F5F5F5F5F5F5F5F5F5F5F5F5F5F5F5F5F5F5F5F5F5F5F5F5F5F5F5F5F5F5F5F5F5
310
F5F5F5F5F5F5F5F5F5F5F5F5F5F5F5F5F5F5F5E2F5F5F5F5F5F5F5F5F5F5F5F5F5F5F5F5E2F5F5F5F5E2E2F5F5F5F5E2F5F5F5F5F5F5F5F5F5F5F5F5F5F5F5F5E2F5F5F5F5F5F5F5F5F5F5F5F5F5F5F5F5F5F5F5F5F5F5F5F5F5F5F5F5F5F5F5F5F5F5F5F5F5F5F5F5F5F5F5F5F5F5F5F5F5F5F5F5F5F5F5F5F5F5F5F5F5F5
310
F5F5F5F5F5F5F5F5F5F5F5F5F5F5F5F5F5F5F5F5F5F5F5F5F5F5F5F5F5F5F5F5F5F5F5F5F5F5F5F5F5F5F5F5F5F5F5F5F5F5F5F5F5F5F5F5F5F5F5F5F5F5F5F5F5F5F5F5F5F5F5F5E2F5F5F5F5F5F5F5F5F5F5F5F5F5F5F5F5E2F5F5F5F5E2E2F5F5F5F5E2F5F5F5F5F5F5F5F5F5F5F5F5F5F5F5F5E2F5F5F5F5F5F5F5F5F5
310
F5F5F5F5F5F5F5F5F5F5F5F5F5F5F5F5F5F5F5F5F5F5F5F5F5F5F5F5F5F5F5F5F5F5F5F5F5F5F5F5F5F5F5F5F5F5F5F5F5F5F5F5F5F5F5F5F5F5F5F5F5F5F5F5F5F5F5F5F5F5F5F5F5F5F5F5F5F5F5F5F5F5F5F5F5F5F5F5F5F5F5F5F5F5F5F5F5F5F5F5F5F5F5F5F5F5F5F5F5F5F5F5F5F5F5F5F5F5F5F5F5F5F5F5F5E2F5
310
F5F5F5F5F5F5F5F5F5F5F5F5F5F5F5E2F5F5F5F5E2E2F5F5F5F5E2F5F5F5F5F5F5F5F5F5F5F5F5F5F5F5F5E2F5F5F5F5F5F5F5F5F5F5F5F5F5F5F5F5F5F5F5F5F5F5F5F5F5F5F5F5F5F5F5F5F5F5F5F5F5F5F5F5F5F5F5F5F5F5F5F5F5F5F5F5F5F5F5F5F5F5F5F5F5F5F5F5F5F5F5F5F5F5F5F5F5F5F5F5F5F5F5F5F5F5F5
310
F5F5F5F5F5F5F5F5F5F5F5F5F5F5F5F5F5F5F5F5F5F5F5F5F5F5F5F5F5F5F5F5F5F5F5F5F5F5F5F5F5F5F5F5F5F5F5F5F5F5F5E2F5F5F5F5F5F5F5F5F5F5F5F5F5F5F5F5E2F5F5F5F5E2E2F5F5F5F5E2F5F5F5F5F5F5F5F5F5F5F5F5F5F5F5F5E2F5F5F5F5F5F5F5F5F5F5F5F5F5F5F5F5F5F5F5F5F5F5F5F5F5F5F5F5F5F5
310
F5F5F5F5F5F5F5F5F5F5F5F5F5F5F5F5F5F5F5F5F5F5F5F5F5F5F5F5F5F5F5F5F5F5F5F5F5F5F5F5F5F5F5F5F5F5F5F5F5F5F5F5F5F5F5F5F5F5F5F5F5F5F5F5F5F5F5F5F5F5F5F5F5F5F5F5F5F5F5F5F5F5F5F5F5F5F5F5F5F5F5F5F5F5F5F5F5F5F5F5F5F5F5F5E2F5F5F5F5F5F5F5F5F5F5F5F5F5F5F5F5E2F5F5F5F5E2
310
E2F5F5F5F5E2F5F5F5F5F5F5F5F5F5F5F5F5F5F5F5F5E2F5F5F5F5F5F5F5F5F5F5F5F5F5F5F5F5F5F5F5F5F5F5F5F5F5F5F5F5F5F5F5F5F5F5F5F5F5F5F5F5F5F5F5F5F5F5F5F5F5F5F5F5F5F5F5F5F5F5F5F5F5F5F5F5F5F5F5F5F5F5F5F5F5F5F5F5F5F5F5F5F5F5F5F5F5F5F5F5F5F5F5F5F5F5F5F5F5F5F5F5F5F5F5F5
310
F5F5F5F5F5F5F5F5F5F5F5F5F5F5F5F5F5F5F5F5F5F5F5F5F5F5F5F5F5F5E2F5F5F5F5F5F5F5F5F5F5F5F5F5F5F5F5E2F5F5F5F5E2E2F5F5F5F5E2F5F5F5F5F5F5F5F5F5F5F5F5F5F5F5F5E2F5F5F5F5F5F5F5F5F5F5F5F5F5F5F5F5F5F5F5F5F5F5F5F5F5F5F5F5F5F5F5F5F5F5F5F5F5F5F5F5F5F5F5F5F5F5F5F5F5F5F5
310
F5F5F5F5F5F5F5F5F5F5F5F5F5F5F5F5F5F5F5F5F5F5F5F5F5F5F5F5F5F5F5F5F5F5F5F5F5F5F5F5F5F5F5F5F5F5F5F5F5F5F5F5F5F5F5F5F5F5F5F5F5F5F5F5F5F5F5F5F5F5F5F5F5F5F5F5F5F5F5F5F5F5F5E2F5F5F5F5F5F5F5F5F5F5F5F5F5F5F5F5E2F5F5F5F5E2E2F5F5F5F5E2F5F5F5F5F5F5F5F5F5F5F5F5F5F5F5
310
F5E2F5F5F5F5F5F5F5F5F5F5F5F5F5F5F5F5F5F5F5F5F5F5F5F5F5F5F5F5F5F5F5F5F5F5F5F5F5F5F5F5F5F5F5F5F5F5F5F5F5F5F5F5F5F5F5F5F5F5F5F5F5F5F5F5F5F5F5F5F5F5F5F5F5F5F5F5F5F5F5F5F5F5F5F5F5F5F5F5F5F5F5F5F5F5F5F5F5F5F5F5F5F5F5F5F5F5F5F5F5F5F5F5F5F5F5F5F5F5F5F5F5F5F5F5F5
310
F5F5F5F5F5F5F5F5F5E2F5F5F5F5F5F5F5F5F5F5F5F5F5F5F5F5E2F5F5F5F5E2E2F5F5F5F5E2F5F5F5F5F5F5F5F5F5F5F5F5F5F5F5F5E2F5F5F5F5F5F5F5F5F5F5F5F5F5F5F5F5F5F5F5F5F5F5F5F5F5F5F5F5F5F5F5F5F5F5F5F5F5F5F5F5F5F5F5F5F5F5F5F5F5F5F5F5F5F5F5F5F5F5F5F5F5F5F5F5F5F5F5F5F5F5F5F5
310
F5F5F5F5F5F5F5F5F5F5F5F5F5F5F5F5F5F5F5F5F5F5F5F5F5F5F5F5F5F5F5F5F5F5F5F5F5F5F5F5F5F5F5F5F5F5F5F5F5F5F5F5F5F5F5F5F5F5F5F5F5F5E2F5F5F5F5F5F5F5F5F5F5F5F5F5F5F5F5E2F5F5F5F5E2E2F5F5F5F5E2F5F5F5F5F5F5F5F5F5F5F5F5F5F5F5F5E2F5F5F5F5F5F5F5F5F5F5F5F5F5F5F5F5F5F5F5
310
F5F5F5F5F5F5F5F5F5F5F5F5F5F5F5F5F5F5F5F5F5F5F5F5F5F5F5F5F5F5F5F5F5F5F5F5F5F5F5F5F5F5F5F5F5F5F5F5F5F5F5F5F5F5F5F5F5F5F5F5F5F5F5F5F5F5F5F5F5F5F5F5F5F5F5F5F5F5F5F5F5F5F5F5F5F5F5F5F5F5F5F5F5F5F5F5F5F5F5F5F5F5F5F5F5F5F5F5F5F5F5F5F5F5F5E2F5F5F5F5F5F5F5F5F5F5F5
310
F5F5F5F5F5E2F5F5F5F5E2E2F5F5F5F5E2F5F5F5F5F5F5F5F5F5F5F5F5F5F5F5F5E2F5F5F5F5F5F5F5F5F5F5F5F5F5F5F5F5F5F5F5F5F5F5F5F5F5F5F5F5F5F5F5F5F5F5F5F5F5F5F5F5F5F5F5F5F5F5F5F5F5F5F5F5F5F5F5F5F5F5F5F5F5F5F5F5F5F5F5F5F5F5F5F5F5F5F5F5F5F5F5F5F5F5F5F5F5F5F5F5F5F5F5F5F5
310
F5F5F5F5F5F5F5F5F5F5F5F5F5F5F5F5F5F5F5F5F5F5F5F5F5F5F5F5F5F5F5F5F5F5F5F5F5F5F5F5F5E2F5F5F5F5F5F5F5F5F5F5F5F5F5F5F5F5E2F5F5F5F5E2E2F5F5F5F5F5F5F5F5F5F5F5F5F5F5F5F5F5F5F5F5F5E2F5F5F5F5F5F5F5F5F5F5F5F5F5F5F5F5F5F5F5F5F5F5F5F5F5F5F5F5F5F5F5F5F5F5F5F5F5F5F5F5
310
F5F5F5F5F5F5F5F5F5F5F5F5F5F5F5F5F5F5F5F5F5F5F5F5F5F5F5F5F5F5F5F5F5F5F5F5F5F5F5F5F5F5F5F5F5F5F5F5F5F5F5F5F5F5F5F5F5F5F5F5F5F5F5F5F5F5F5F5F5F5F5F5F5F5F5F5F5F5F5F5F5F5F5F5F5F5F5F5F5F5F5F5F5F5E2F5F5F5F5F5F5F5F5F5F5F5F5F5F5F5F5F5F5F5F5F5E2E2F5F5F5F5F5F5F5F5F5
310
F5F5F5F5F5F5F5F5F5F5F5F5E2F5F5F5F5F5F5F5F5F5F5F5F5F5F5F5F5F5F5F5F5F5F5F5F5F5F5F5F5F5F5F5F5F5F5F5F5F5F5F5F5F5F5F5F5F5F5F5F5F5F5F5F5F5F5F5F5F5F5F5F5F5F5F5F5F5F5F5F5F5F5F5F5F5F5F5F5F5F5F5F5F5F5F5F5F5F5F5F5F5F5F5F5F5F5F5F5F5F5F5F5F5F5F5F5F5F5F5F5F5F5F5F5F5F5
310
F5F5F5F5F5F5F5F5F5F5F5F5F5F5F5F5F5F5F5F5E2F5F5F5F5F5F5F5F5F5F5F5F5F5F5F5F5F5F5F5F5F5E2E2F5F5F5F5F5F5F5F5F5F5F5F5F5F5F5F5F5F5F5F5F5E2F5F5F5F5F5F5F5F5F5F5F5F5F5F5F5F5F5F5F5F5F5F5F5F5F5F5F5F5F5F5F5F5F5F5F5F5F5F5F5F5F5F5F5F5F5F5F5F5F5F5F5F5F5F5F5F5F5F5F5F5F5
310
F5F5F5F5F5F5F5F5F5F5F5F5F5F5F5F5F5F5F5F5F5F5F5F5F5F5F5F5F5F5F5F5F5F5F5F5F5F5F5F5F5F5F5F5F5F5F5F5F5F5F5F5F5F5F5F5F5F5F5F5F5F5F5F5F5F5F5F5F5F5F5F5F5E2F5F5F5F5F5F5F5F5F5F5F5F5F5F5F5F5F5F5F5F5F5E2E2F5F5F5F5F5F5F5F5F5F5F5F5F5F5F5F5F5F5F5F5F5E2F5F5F5F5F5F5F5F5
310
F5F5F5F5F5F5F5F5F5F5F5F5F5F5F5F5F5F5F5F5F5F5F5F5F5F5F5F5F5F5F5F5F5F5F5F5F5F5F5F5F5F5F5F5F5F5F5F5F5F5F5F5F5F5F5F5F5F5F5F5F5F5F5F5F5F5F5F5F5F5F5F5F5F5F5F5F5F5F5F5F5F5F5F5F5F5F5F5F5F5F5F5F5F5F5F5F5F5DCF5F5F5F5F5F5F5F5F5F5F5F5F5F5F5F5F5F5F5F5F5F5F5F5F5F5F5E2
310
F5F5F5F5F5F5F5F5F5F5F5F5F5F5F5F5F5F5F5F5F5E2E2F5F5F5F5F5F5F5F5F5F5F5F5F5F5F5F5F5F5F5F5F5E2F5F5F5F5F5F5F5F5F5F5F5F5F5F5F5F5F5F5F5F5F5F5F5F5F5F5F5F5F5F5F5F5F5F5F5F5F5F5F5F5F5F5F5F5F5F5F5F5F5F5F5F5F5F5F5F5F5F5F5F5F5F5F5F5F5F5F5F5F5F5F5F5F5F5F5F5F5F5F5F5F5E2
310
ECE2E2E2E2E2E2E2E2E2E2E2E2E2E2E2E2E2E2E2E2E2E2E2DCE2E2E2E2E2E2E2E2E2E2E2E2E2E2E2E2E2E2E2E2E2E2E2ECE2F5F5E2F5F5F5F5F5F5F5F5F5F5F5F5F5F5F5F5F5F5F5F5F5E2E2F5F5F5F5F5F5F5F5F5F5F5F5F5F5F5F5F5F5F5F5F5E2F5F5F5F5F5F5F5F5F5F5F5F5F5F5F5F5F5F5F5F5F5F5F5F5F5F5F5F5F5
310
F5F5F5F5F5F5F5F5F5F5F5F5F5F5F5F5F5F5F5F5F5F5F5F5F5F5F5F5F5F5F5F5F5F5F5F5F5F5F5F5F5F5F5F5F5F5F5F5F5F5F5E2F5F5ECF5F5F5F5F5F5F5F5F5F5F5F5F5F5F5F5F5F5F5F5F5F5DCF5F5F5F5F5F5F5F5F5F5F5F5F5F5F5F5F5F5F5F5F5F5ECF5F5E2F5E2F5F5F5F5F5F5F5F5F5F5F5F5F5F5F5F5F5F5F5F5F5
310
E2E2F5F5F5F5F5F5F5F5F5F5F5F5F5F5F5F5F5F5F5F5F5E2F5F5F5F5F5F5F5F5F5F5F5F5F5F5F5F5F5F5F5F5F5F5F5F5F5F5F5F5F5F5F5F5F5F5F5F5F5F5F5F5F5F5F5F5F5F5F5F5F5F5F5F5F5F5F5F5F5F5F5F5F5F5F5F5F5F5F5F5F5F5F5F5F5F5F5F5F5F5F5E2F5F5F5F5ECF5F5F5F5F5F5F5F5F5F5F5F5F5F5F5F5F5F5
310
F5F5F5DCF5F5F5F5F5F5F5F5F5F5F5F5F5F5F5F5F5F5F5F5F5ECF5F5F5F5E2E2F5F5F5F5F5F5F5F5F5F5F5F5F5F5F5F5F5F5F5F5F5E2E2F5F5F5F5F5F5F5F5F5F5F5F5F5F5F5F5F5F5F5F5F5E2F5F5F5F5F5F5F5F5F5F5F5F5F5F5F5F5F5F5F5F5F5F5F5F5F5F5F5F5F5F5F5F5F5F5F5F5F5F5F5F5F5F5F5F5F5F5F5F5F5F5
310
F5F5F5F5F5F5F5F5F5F5F5F5F5F5F5F5F5F5F5F5F5F5F5F5F5F5F5F5E2E2E2E2E2E2ECE2E2E2E2E2E2E2E2E2ECECECECECECE2ECECECECECDCECECECECECE2ECECECECECECE2E2E2E2E2E2E2E2ECE2E2E2E2E2E2E2F5F5F5F5F5F5F5F5F5F5F5F5F5F5F5F5F5F5F5F5F5E2E2F5F5F5F5F5F5F5F5F5F5F5F5F5F5F5F5F5F5F5
310
F5F5E2F5F5F5F5F5F5F5F5F5F5F5F5F5F5F5F5F5F5F5F5F5F5F5F5F5F5F5F5F5F5F5F5F5F5F5F5F5F5F5F5F5F5F5F5F5F5F5F5F5F5F5F5F5F5F5F5F5F5F5F5F5F5F5F5F5F5F5F5F5F5F5F5F5F5F5F5F5F5E2F5F5F5F5F5F5F5F5F5F5F5F5F5F5F5ECF5F5F5F5F5F5F5F5F5F5F5DCF5F5F5F5F5F5F5F5F5F5ECF5F5F5F5F5F5
310
F5F5F5F5F5F5F5F5F5E2E2F5F5F5F5F5F5F5F5F5F5F5F5F5F5F5F5F5F5F5F5F5E2E2F5F5F5F5E2F5F5F5F5F5F5F5F5F5F5F5F5F5F5F5F5E2F5F5F5F5F5F5F5F5F5F5F5F5F5F5F5F5F5F5F5F5F5F5F5F5F5F5F5F5F5F5F5F5F5F5F5F5F5F5F5F5F5F5F5F5F5F5F5F5F5F5F5F5F5F5F5F5F5F5F5F5F5F5F5F5F5F5F5F5F5F5F5
310
F5F5F5F5F5F5F5E2F5F5F5F5F5F5F5F5F5F5F5F5F5F5F5ECECECECECECECECECECECECECECECECECECECECECECECECF5F5F5F5F5F5F5F5F5F5F5F5F5F5F5E2E2F5F5F5F5F5F5F5F5F5F5F5F5F5F5F5F5E2F5F5F5F5E2E2F5F5F5F5E2F5F5F5F5F5F5F5F5F5F5F5F5F5F5F5F5E2F5F5F5F5F5F5F5F5F5F5F5F5F5F5F5F5F5F5
310
F5F5F5F5F5F5F5F5F5F5F5F5F5F5F5F5F5F5F5F5F5F5F5F5F5F5F5F5F5F5F5F5F5F5F5F5F5F5F5F5F5F5F5F5F5F5F5F5F5F5F5F5F5F5F5F5F5F5F5F5F5E2F5F5F5F5F5F5F5F5F5F5F5F5F5F5F5F5F5F5F5ECF5F5F5F5F5F5DCF5F5F5F5F5ECF5F5F5F5F5F5F5F5F5F5F5F5F5F5F5F5F5F5F5F5E2E2F5F5F5F5F5F5F5F5F5F5
310
F5F5F5F5F5F5E2F5F5F5F5E2E2F5F5F5F5E2F5F5F5F5F5F5F5F5F5F5F5F5F5F5F5F5E2F5F5F5F5F5F5F5F5F5F5F5F5F5F5F5F5F5F5F5F5F5F5F5F5F5F5F5F5F5F5F5F5F5F5F5F5F5F5F5F5F5F5F5F5F5F5F5F5F5F5F5F5F5F5F5F5F5F5F5F5F5F5F5F5F5F5F5F5F5F5F5F5F5F5F5F5F5F5F5F5E2F5F5F5F5F5F5F5F5F5F5F5
310
F5F5F5F5F5ECECECECECECF5ECECECECECF5ECECECECECF5F5F5F5F5F5F5F5F5F5F5F5F5F5F5F5F5E2F5E2F5F5F5F5F5F5F5F5F5F5F5F5F5F5F5F5E2F5F5F5F5E2E2F5F5F5F5E2F5F5F5F5F5F5F5F5F5F5F5F5F5F5F5F5E2F5F5F5F5F5F5F5F5F5F5F5F5F5F5F5F5F5F5F5F5F5F5F5F5F5F5F5F5F5F5F5F5F5F5F5F5F5F5F5
310
F5F5F5F5F5F5F5F5F5F5F5F5F5F5F5F5F5F5F5F5F5F5F5F5F5F5F5F5F5F5F5F5F5F5F5F5F5F5F5F5F5F5E2E2F5F5F5F5F5F5F5F5F5F5F5F5F5F5ECF5F5F5F5F5F5F5F5DCF5F5F5F5F5F5F5ECF5F5F5F5F5F5F5F5F5F5F5F5F5F5F5E2E2F5F5E2F5F5F5F5F5F5F5F5F5F5F5F5F5F5F5F5E2F5F5F5F5E2E2F5F5F5F5E2F5F5F5
310
F5F5F5F5F5F5F5F5F5F5F5F5F5E2F5F5F5F5F5F5F5F5F5F5F5F5F5F5F5F5F5F5F5F5F5F5F5F5F5F5F5F5F5F5F5F5F5F5F5F5F5F5F5F5F5F5F5F5F5F5F5F5F5F5F5F5F5F5F5F5F5F5F5F5F5F5F5F5F5F5F5F5F5F5F5F5F5F5F5F5F5F5F5F5F5F5F5E2F5F5F5F5F5F5F5F5F5F5F5F5F5ECF5F5F5F5F5F5F5F5DCF5F5F5F5F5F5
310
F5ECF5F5F5F5F5F5F5F5F5F5F5F5F5E2E2F5F5F5F5E2F5F5F5F5F5F5F5F5F5F5F5F5F5F5F5F5E2F5F5F5F5E2E2F5F5F5F5E2F5F5F5F5F5F5F5F5F5F5F5F5F5F5F5F5E2F5F5F5F5F5F5F5F5F5F5F5F5F5F5F5F5F5F5F5F5F5F5F5F5F5F5F5F5F5F5F5F5F5F5F5F5F5F5F5F5F5F5F5F5F5F5F5F5F5F5F5F5F5F5F5F5F5F5F5F5
310
F5F5F5F5F5F5F5F5F5F5F5F5F5F5F5F5F5F5F5F5F5F5F5F5E2E2F5F5F5F5F5F5F5F5F5F5F5ECF5F5F5F5F5F5F5F5DCF5F5F5F5F5F5F5ECF5F5F5F5F5F5F5F5F5F5F5F5E2F5F5F5F5F5F5E2F5F5F5F5F5F5F5F5F5F5F5F5F5F5F5F5E2F5F5F5F5E2E2F5F5F5F5E2F5F5F5F5F5F5F5F5F5F5F5F5F5F5F5F5E2F5F5F5F5F5F5F5
310
F5F5F5F5F5F5F5F5F5F5F5F5F5F5F5F5F5F5F5F5F5F5F5F5F5F5F5F5F5F5F5F5F5F5F5F5F5F5F5F5F5F5F5F5F5F5F5F5F5F5F5F5F5F5F5F5F5F5F5F5F5F5F5F5F5F5F5F5F5F5F5F5F5F5F5F5F5F5F5E2F5F5F5F5F5F5F5F5F5F5ECF5F5F5F5F5F5F5F5DCF5F5F5F5F5F5F5ECF5F5F5F5F5F5F5F5F5F5E2E2F5F5F5F5F5F5F5
310
E2F5F5F5F5F5F5F5F5F5F5F5F5F5F5F5F5E2F5F5F5F5E2E2F5F5F5F5E2F5F5F5F5F5F5F5F5F5F5F5F5F5F5F5F5E2F5F5F5F5F5F5F5F5F5F5F5F5F5F5F5F5F5F5F5F5F5F5F5F5F5F5F5F5F5F5F5F5F5F5F5F5F5F5F5F5F5F5F5F5F5F5F5F5F5F5F5F5F5F5F5F5F5F5F5F5F5F5F5F5F5F5F5F5F5F5F5F5F5F5F5F5F5F5F5F5F5
310
F5F5F5F5F5F5E2E2F5F5F5F5F5F5F5F5F5ECECECECECF5ECECECECECF5ECECECECECF5F5F5F5F5F5F5F5E2E2F5F5F5F5F5F5F5F5F5E2F5F5F5F5F5F5F5F5F5F5F5F5F5F5F5F5E2F5F5F5F5E2E2F5F5F5F5E2F5F5F5F5F5F5F5F5F5F5F5F5F5F5F5F5E2F5F5F5F5F5F5F5F5F5F5F5F5F5F5F5F5F5F5F5F5F5F5F5F5F5F5F5F5
310
F5F5F5F5F5F5F5F5F5F5F5F5F5F5F5F5F5F5F5F5F5F5F5F5F5F5F5F5F5F5F5F5F5F5F5F5F5F5F5F5F5F5F5F5F5F5F5F5F5F5F5F5F5F5F5F5F5F5F5F5F5E2E2F5F5F5F5F5F5F5ECF5F5F5F5F5F5F5DCF5F5F5F5F5F5F5ECF5F5F5F5F5F5F5E2F5F5F5F5F5F5F5F5F5F5F5E2F5F5F5F5F5F5F5F5F5F5F5F5F5F5F5F5E2F5F5F5
310
F5E2E2F5F5F5F5E2F5F5F5F5F5F5F5F5F5F5F5F5F5F5F5F5E2F5F5F5F5F5F5F5F5F5F5F5F5F5F5F5F5F5F5F5F5F5F5F5F5F5F5F5F5F5F5F5F5F5F5F5F5F5F5F5F5F5F5F5F5F5F5F5F5F5F5F5F5F5F5F5F5F5F5F5F5F5F5F5F5F5F5F5F5F5F5F5F5F5F5F5F5F5F5F5F5F5F5F5F5F5F5F5F5F5F5E2F5F5F5F5F5F5F5ECF5F5F5
310
F5F5F5F5DCF5F5F5F5F5F5F5ECF5F5F5F5F5F5F5E2F5F5F5F5F5F5F5F5F5F5F5E2F5F5F5F5F5F5F5F5F5F5F5F5F5F5F5F5E2F5F5F5F5E2E2F5F5F5F5E2F5F5F5F5F5F5F5F5F5F5F5F5F5F5F5F5E2F5F5F5F5F5F5F5F5F5F5F5F5F5F5F5F5F5F5F5F5F5F5F5F5F5F5F5F5F5F5F5F5F5F5F5F5F5F5F5F5F5F5F5F5F5F5F5F5F5
310
F5F5F5F5F5F5F5F5F5F5F5F5F5F5F5F5F5F5F5F5F5F5F5F5F5F5F5F5F5F5F5F5F5F5F5F5F5F5F5F5F5E2F5F5F5F5F5F5F5ECF5F5F5F5F5F5F5DCF5F5F5F5F5F5F5ECF5F5F5F5F5F5F5E2F5F5F5F5F5F5F5F5F5F5F5E2F5F5F5F5F5F5F5F5F5F5F5F5F5F5F5F5E2F5F5F5F5E2E2F5F5F5F5E2F5F5F5F5F5F5F5F5F5F5F5F5F5
310
F5F5F5E2F5F5F5F5F5F5F5F5F5F5F5F5F5F5F5F5F5F5F5F5F5F5F5F5F5F5F5F5F5F5F5F5F5F5F5F5F5F5F5F5F5F5F5F5F5F5F5F5F5F5F5F5F5F5F5F5F5F5F5F5F5F5F5F5F5F5F5F5F5F5F5F5F5F5F5F5F5F5F5F5F5F5F5F5F5F5F5F5F5F5E2F5F5F5F5F5F5F5ECF5F5F5F5E2E2E2E2E2E2E2F5F5F5F5ECF5F5F5F5F5F5F5E2
310
F5F5F5F5F5F5F5F5F5F5F5E2F5F5F5F5F5F5F5F5F5F5F5F5F5F5F5F5E2F5F5F5F5E2E2F5F5F5F5E2F5F5F5F5F5F5F5F5F5F5F5F5F5F5F5F5E2F5F5F5F5F5F5F5F5F5F5F5F5F5F5F5F5F5F5F5F5F5F5F5F5F5F5F5F5F5F5F5F5F5F5F5F5F5F5F5F5F5F5F5F5F5F5F5F5F5F5F5F5F5F5F5F5F5F5F5F5F5F5F5F5F5F5F5F5F5F5
310
F5F5F5F5F5F5F5F5F5F5F5F5F5F5F5F5F5F5F5F5E2F5F5F5F5F5F5F5ECECECECECECF5F5DCF5F5ECECECECECECF5F5F5F5F5F5F5E2F5F5F5F5F5F5F5F5F5F5F5E2F5F5F5F5F5F5F5F5F5F5F5F5F5F5F5F5E2F5F5F5F5E2E2F5F5F5F5E2F5F5F5F5F5F5F5F5F5F5F5F5F5F5F5F5E2F5F5F5F5F5F5F5F5F5F5F5F5F5F5F5F5F5
310
F5F5F5F5F5F5F5F5F5F5F5F5F5F5F5F5F5F5F5F5F5F5F5F5F5F5F5F5F5F5F5F5F5F5F5F5F5F5F5F5F5F5F5F5F5F5F5F5F5F5F5F5F5F5F5F5F5F5F5F5F5F5F5F5F5F5F5F5F5F5F5F5F5E2F5F5F5F5F5F5F5ECF5F5F5F5E2F5F5DCF5F5E2F5F5F5F5ECF5F5F5F5F5F5F5E2F5F5F5F5F5F5F5F5F5F5F5E2F5F5F5F5F5F5F5F5F5
310
F5F5F5F5F5F5F5E2F5F5F5F5E2E2F5F5F5F5E2F5F5F5F5F5F5F5F5F5F5F5F5F5F5F5F5E2F5F5F5F5F5F5F5F5F5F5F5F5F5F5F5F5F5F5F5F5F5F5F5F5F5F5F5F5F5F5F5F5F5F5F5F5F5F5F5F5F5F5F5F5F5F5F5F5F5F5F5F5F5F5F5F5F5F5F5F5F5F5F5F5F5F5F5F5F5F5F5F5F5F5F5F5F5F5F5F5F5F5F5F5F5F5F5F5F5F5E2
310
E2E2E2E2E2E2E2E2E2E2E2E2ECF5F5DCF5F5E2E2E2E2E2E2E2E2E2E2E2E2E2E2F5F5F5F5F5F5F5F5F5F5F5E2F5F5F5F5F5F5F5F5F5F5F5F5F5F5F5F5E2F5F5F5F5E2E2F5F5F5F5E2F5F5F5F5F5F5F5F5F5F5F5F5F5F5F5F5E2F5F5F5F5F5F5F5F5F5F5F5F5F5F5F5F5F5F5F5F5F5F5F5F5F5F5F5F5F5F5F5F5F5F5F5F5F5F5
310
F5F5F5F5F5F5F5F5F5F5F5F5F5F5F5F5F5F5F5F5F5F5F5F5F5F5F5F5F5F5F5F5F5F5F5F5F5F5F5F5F5F5F5F5F5F5F5F5F5F5F5F5F5F5F5F5F5F5F5F5F5F5F5F5F5F5F5F5DCF5F5F5F5F5F5F5F5F5F5F5F5F5F5F5F5F5F5F5F5F5F5F5F5F5F5F5E2F5F5F5F5F5F5F5F5F5F5F5F5F5F5F5F5E2F5F5F5F5E2E2F5F5F5F5F5F5F5
310
F5F5F5F5F5F5F5F5F5F5F5F5F5F5E2F5F5F5F5F5F5F5F5F5F5F5F5F5F5F5F5F5F5F5F5F5F5F5F5F5F5F5F5F5F5F5F5F5F5F5F5F5F5F5F5F5F5F5F5F5F5F5F5F5F5F5F5F5F5F5F5F5F5F5F5F5F5F5F5F5F5F5F5F5F5F5F5F5F5F5F5F5F5F5F5F5F5F5F5F5F5F5F5F5F5F5F5F5F5F5F5F5F5F5F5F5F5F5F5F5F5F5F5F5F5F5F5
310
F5F5F5F5F5F5F5F5F5F5F5F5F5F5F5F5F5F5F5F5F5F5E2F5F5F5F5F5F5F5F5F5F5F5F5F5F5F5F5F5F5F5F5F5E2E2F5F5F5F5F5F5F5F5F5F5F5F5F5F5F5F5F5F5F5F5F5E2F5F5F5F5F5F5F5F5F5F5F5F5F5F5F5F5F5F5F5F5F5F5F5F5F5F5F5F5F5F5F5F5F5F5F5F5F5F5F5F5F5F5F5F5F5F5F5F5F5F5F5F5F5F5F5F5F5F5F5
310
F5F5F5F5F5F5F5F5F5F5F5F5F5F5F5F5F5F5F5F5F5F5F5F5F5F5F5F5F5F5F5F5F5F5F5F5F5F5F5F5F5F5F5F5F5F5F5F5F5F5F5F5F5F5F5F5F5F5F5F5F5F5F5F5F5F5F5F5F5F5F5F5F5F5F5E2F5F5F5F5F5F5F5F5F5F5F5F5F5F5F5F5F5F5F5F5F5E2E2F5F5F5F5F5F5F5F5F5F5F5F5F5F5F5F5F5F5F5F5F5E2F5F5F5F5F5F5
310
F5F5F5F5F5F5F5F5F5F5F5F5F5F5F5F5F5F5F5F5F5F5F5F5F5F5F5F5F5F5F5F5F5F5F5F5F5F5F5F5F5F5F5F5F5F5F5F5F5F5F5F5F5F5F5F5F5F5F5F5F5F5F5F5F5F5F5F5F5F5F5F5F5F5F5F5F5F5F5F5F5F5F5F5F5F5F5F5F5F5F5F5F5F5F5F5F5F5F5F5F5F5F5F5F5F5F5F5F5F5F5F5F5F5F5F5F5F5F5F5F5F5F5F5F5F5F5
310
F5E2F5F5F5F5F5F5F5F5F5F5F5F5F5F5F5F5F5F5F5F5F5E2E2F5F5F5F5F5F5F5F5F5F5F5F5F5F5F5F5F5F5F5F5F5E2F5F5F5F5F5F5F5F5F5F5F5F5F5F5F5F5F5F5F5F5F5F5F5F5F5F5F5F5F5F5F5F5F5F5F5F5F5F5F5F5F5F5F5F5F5F5F5F5F5F5F5F5F5F5F5F5F5F5F5F5F5F5F5F5F5F5F5F5F5F5F5F5F5F5F5F5F5F5F5F5
310
F5F5F5F5F5F5F5F5F5F5F5F5F5F5F5F5F5F5F5F5F5F5F5F5F5F5F5F5F5F5F5F5F5F5F5F5F5F5F5F5F5F5F5F5F5F5F5F5F5F5F5F5F5F5E2F5F5F5F5F5F5F5F5F5F5F5F5F5F5F5F5F5F5F5F5F5E2E2F5F5F5F5F5F5F5F5F5F5F5F5F5F5F5F5F5F5F5F5F5E2F5F5F5F5F5F5F5F5F5F5F5F5F5F5F5F5F5F5F5F5F5F5F5F5F5F5F5
310
F5F5F5F5F5F5F5F5F5F5F5F5F5F5F5F5F5F5F5F5F5F5F5F5F5F5F5F5F5F5F5F5F5F5F5F5F5F5F5F5F5F5F5F5F5F5F5F5F5F5F5F5F5F5F5F5F5F5F5F5F5F5F5F5F5F5F5F5F5F5F5F5F5F5F5F5F5F5F5F5F5F5F5F5F5F5F5F5F5F5F5F5F5F5F5F5F5F5F5F5F5F5F5F5F5F5F5E2F5F5F5F5F5F5F5F5F5F5F5F5F5F5F5F5F5F5F5
310
F5F5E2E2F5F5F5F5F5F5F5F5F5F5F5F5F5F5F5F5F5F5F5F5F5E2F5F5F5F5F5F5F5F5F5F5F5F5F5F5F5F5F5F5F5F5F5F5F5F5F5F5F5F5F5F5F5F5F5F5F5F5F5F5F5F5F5F5F5F5F5F5F5F5F5F5F5F5F5F5F5F5F5F5F5F5F5F5F5F5F5F5F5F5F5F5F5F5F5F5F5F5F5F5F5F5F5F5F5F5F5F5F5F5F5F5F5F5F5F5F5F5F5F5F5F5F5
310
F5F5F5F5F5F5F5F5F5F5F5F5F5F5F5F5F5F5F5F5F5F5F5F5F5F5F5F5F5F5F5F5F5E2F5F5F5F5F5F5F5F5F5F5F5F5F5F5F5F5F5F5F5F5F5E2E2F5F5F5F5F5F5F5F5F5F5F5F5F5F5F5F5F5F5F5F5F5E2F5F5F5F5F5F5F5F5F5F5F5F5F5F5F5F5F5F5F5F5F5F5F5F5F5F5F5F5F5F5F5F5F5F5F5F5F5F5F5F5F5F5F5F5F5F5F5F5
310
F5F5F5F5F5F5F5F5F5F5F5F5F5F5F5F5F5F5F5F5F5F5F5F5F5F5F5F5F5F5F5F5F5F5F5F5F5F5F5F5F5F5F5F5F5F5F5F5F5F5F5F5F5F5F5F5F5F5F5F5F5F5F5F5F5F5F5F5F5F5F5F5F5F5F5F5F5F5F5F5F5F5F5F5F5F5E2F5F5F5F5F5F5F5F5F5F5F5F5F5F5F5F5F5F5F5F5F5E2E2F5F5F5F5F5F5F5F5F5F5F5F5F5F5F5F5F5
310
F5F5F5F5E2F5F5F5F5F5F5F5F5F5F5F5F5F5F5F5F5F5F5F5F5F5F5F5F5F5F5F5F5F5F5F5F5F5F5F5F5F5F5F5F5F5F5F5F5F5F5F5F5F5F5F5F5F5F5F5F5F5F5F5F5F5F5F5F5F5F5F5F5F5F5F5F5F5F5F5F5F5F5F5F5F5F5F5F5F5F5F5F5F5F5F5F5F5F5F5F5F5F5F5F5F5F5F5F5F5F5F5F5F5F5F5F5F5F5F5F5F5F5F5F5F5F5
310
F5F5F5F5F5F5F5F5F5F5F5F5E2F5F5F5F5F5F5F5F5F5F5F5F5F5F5F5F5F5F5F5F5F5E2E2F5F5F5F5F5F5F5F5F5F5F5F5F5F5F5F5F5F5F5F5F5E2F5F5F5F5F5F5F5F5F5F5F5F5F5F5F5F5F5F5F5F5F5F5F5F5F5F5F5F5F5F5F5F5F5F5F5F5F5F5F5F5F5F5F5F5F5F5F5F5F5F5F5F5F5F5F5F5F5F5F5F5F5F5F5F5F5F5F5F5F5
310
F5F5F5F5F5F5F5F5F5F5F5F5F5F5F5F5F5F5F5F5F5F5F5F5F5F5F5F5F5F5F5F5F5F5F5F5F5F5F5F5F5F5F5F5F5F5F5F5F5F5F5F5F5F5F5F5F5F5F5F5F5F5F5F5F5E2F5F5F5F5F5F5F5F5F5F5F5F5F5F5F5F5F5F5F5F5F5E2E2F5F5F5F5F5F5F5F5F5F5F5F5F5F5F5F5F5F5F5F5F5E2F5F5F5F5F5F5F5F5F5F5F5F5F5F5F5F5
310
F5F5F5F5F5F5F5F5F5F5F5F5F5F5F5F5F5F5F5F5F5F5F5F5F5F5F5F5F5F5F5F5F5F5F5F5F5F5F5F5F5F5F5F5F5F5F5F5F5F5F5F5F5F5F5F5F5F5F5F5F5F5F5F5F5F5F5F5F5F5F5F5F5F5F5F5F5F5F5F5F5F5F5F5F5F5F5F5F5F5F5F5F5F5F5F5F5F5F5F5F5F5F5F5F5F5F5F5F5F5F5F5F5F5F5F5F5F5E2F5F5F5F5F5F5F5F5
310
F5F5F5F5F5F5F5F5F5F5F5F5F5E2E2F5F5F5F5E2F5F5F5F5F5F5F5F5F5F5F5F5F5F5F5F5E2F5F5F5F5F5F5F5F5F5F5F5F5F5F5F5F5F5F5F5F5F5F5F5F5F5F5F5F5F5F5F5F5F5F5F5F5F5F5F5F5F5F5F5F5F5F5F5F5F5F5F5F5F5F5F5F5F5F5F5F5F5F5F5F5F5F5F5F5F5F5F5F5F5F5F5F5F5F5F5F5F5F5F5F5F5F5F5F5F5F5
310
F5F5F5F5F5F5F5F5F5F5F5F5F5F5F5F5F5F5F5F5F5F5F5F5F5F5F5F5F5F5F5F5F5F5F5F5F5F5F5F5F5F5F5F5E2F5F5F5F5F5F5F5F5F5F5F5F5F5F5F5F5E2F5F5F5F5E2E2F5F5F5F5E2F5F5F5F5F5F5F5F5F5F5F5F5F5F5F5F5E2F5F5F5F5F5F5F5F5F5F5F5F5F5F5F5F5F5F5F5F5F5F5F5F5F5F5F5F5F5F5F5F5F5F5F5F5F5
310
F5F5F5F5F5F5F5F5F5F5F5F5F5F5F5F5F5F5F5F5F5F5F5F5F5F5F5F5F5F5F5F5F5F5F5F5F5F5F5F5F5F5F5F5F5F5F5F5F5F5F5F5F5F5F5F5F5F5F5F5F5F5F5F5F5F5F5F5F5F5F5F5F5F5F5F5F5F5F5F5F5F5F5F5F5F5F5F5F5F5F5F5F5F5F5F5F5E2F5F5F5F5F5F5F5F5F5F5F5F5F5F5F5F5E2F5F5F5F5E2E2F5F5F5F5E2F5
310
F5F5F5F5F5F5F5F5F5F5F5F5F5F5F5E2F5F5F5F5F5F5F5F5F5F5F5F5F5F5F5F5F5F5F5F5F5F5F5F5F5F5F5F5F5F5F5F5F5F5F5F5F5F5F5F5F5F5F5F5F5F5F5F5F5F5F5F5F5F5F5F5F5F5F5F5F5F5F5F5F5F5F5F5F5F5F5F5F5F5F5F5F5F5F5F5F5F5F5F5F5F5F5F5F5F5F5F5F5F5F5F5F5F5F5F5F5F5F5F5F5F5F5F5F5F5F5
310
F5F5F5F5F5F5F5F5F5F5F5F5F5F5F5F5F5F5F5F5F5F5F5E2F5F5F5F5F5F5F5F5F5F5F5F5F5F5F5F5E2F5F5F5F5E2E2F5F5F5F5E2F5F5F5F5F5F5F5F5F5F5F5F5F5F5F5F5E2F5F5F5F5F5F5F5F5F5F5F5F5F5F5F5F5F5F5F5F5F5F5F5F5F5F5F5F5F5F5F5F5F5F5F5F5F5F5F5F5F5F5F5F5F5F5F5F5F5F5F5F5F5F5F5F5F5F5
310
F5F5F5F5F5F5F5F5F5F5F5F5F5F5F5F5F5F5F5F5F5F5F5F5F5F5F5F5F5F5F5F5F5F5F5F5F5F5F5F5F5F5F5F5F5F5F5F5F5F5F5F5F5F5F5F5F5F5F5F5F5F5F5F5F5F5F5F5F5F5F5F5F5F5F5F5E2F5F5F5F5F5F5F5F5F5F5F5F5F5F5F5F5E2F5F5F5F5E2E2F5F5F5F5E2F5F5F5F5F5F5F5F5F5F5F5F5F5F5F5F5E2F5F5F5F5F5
310
F5F5F5F5F5F5F5F5F5F5F5F5F5F5F5F5F5F5F5F5F5F5F5F5F5F5F5F5F5F5F5F5F5F5F5F5F5F5F5F5F5F5F5F5F5F5F5F5F5F5F5F5F5F5F5F5F5F5F5F5F5F5F5F5F5F5F5F5F5F5F5F5F5F5F5F5F5F5F5F5F5F5F5F5F5F5F5F5F5F5F5F5F5F5F5F5F5F5F5F5F5F5F5F5F5F5F5F5F5F5F5F5F5F5F5F5F5F5F5F5F5F5F5F5F5F5F5
310
F5F5E2F5F5F5F5F5F5F5F5F5F5F5F5F5F5F5F5E2F5F5F5F5E2E2F5F5F5F5E2F5F5F5F5F5F5F5F5F5F5F5F5F5F5F5F5E2F5F5F5F5F5F5F5F5F5F5F5F5F5F5F5F5F5F5F5F5F5F5F5F5F5F5F5F5F5F5F5F5F5F5F5F5F5F5F5F5F5F5F5F5F5F5F5F5F5F5F5F5F5F5F5F5F5F5F5F5F5F5F5F5F5F5F5F5F5F5F5F5F5F5F5F5F5F5F5
310
F5F5F5F5F5F5F5F5F5F5F5F5F5F5F5F5F5F5F5F5F5F5F5F5F5F5F5F5F5F5F5F5F5F5F5F5F5F5F5F5F5F5F5F5F5F5F5F5F5F5F5F5F5F5F5E2F5F5F5F5F5F5F5F5F5F5F5F5F5F5F5F5E2F5F5F5F5E2E2F5F5F5F5E2F5F5F5F5F5F5F5F5F5F5F5F5F5F5F5F5E2F5F5F5F5F5F5F5F5F5F5F5F5F5F5F5F5F5F5F5F5F5F5F5F5F5F5
310
F5F5F5F5F5F5F5F5F5F5F5F5F5F5F5F5F5F5F5F5F5F5F5F5F5F5F5F5F5F5F5F5F5F5F5F5F5F5F5F5F5F5F5F5F5F5F5F5F5F5F5F5F5F5F5F5F5F5F5F5F5F5F5F5F5F5F5F5F5F5F5F5F5F5F5F5F5F5F5F5F5F5F5F5F5F5F5F5F5F5F5F5F5F5F5F5F5F5F5F5F5F5F5F5F5F5F5F5E2F5F5F5F5F5F5F5F5F5F5F5F5F5F5F5F5E2F5
310
F5F5F5E2E2F5F5F5F5E2F5F5F5F5F5F5F5F5F5F5F5F5F5F5F5F5E2F5F5F5F5F5F5F5F5F5F5F5F5F5F5F5F5F5F5F5F5F5F5F5F5F5F5F5F5F5F5F5F5F5F5F5F5F5F5F5F5F5F5F5F5F5F5F5F5F5F5F5F5F5F5F5F5F5F5F5F5F5F5F5F5F5F5F5F5F5F5F5F5F5F5F5F5F5F5F5F5F5F5F5F5F5F5F5F5F5F5F5F5F5F5F5F5F5F5F5F5
310
F5F5F5F5F5F5F5F5F5F5F5F5F5F5F5F5F5F5F5F5F5F5F5F5F5F5F5F5F5F5F5F5F5F5E2F5F5F5F5F5F5F5F5F5F5F5F5F5F5F5F5E2F5F5F5F5E2E2F5F5F5F5E2F5F5F5F5F5F5F5F5F5F5F5F5F5F5F5F5E2F5F5F5F5F5F5F5F5F5F5F5F5F5F5F5F5F5F5F5F5F5F5F5F5F5F5F5F5F5F5F5F5F5F5F5F5F5F5F5F5F5F5F5F5F5F5F5
310
F5F5F5F5F5F5F5F5F5F5F5F5F5F5F5F5F5F5F5F5F5F5F5F5F5F5F5F5F5F5F5F5F5F5F5F5F5F5F5F5F5F5F5F5F5F5F5F5F5F5F5F5F5F5F5F5F5F5F5F5F5F5F5F5F5F5F5F5F5F5F5F5F5F5F5F5F5F5F5F5F5F5F5F5F5F5F5E2F5F5F5F5F5F5F5F5F5F5F5F5F5F5F5F5E2F5F5F5F5E2E2F5F5F5F5E2F5F5F5F5F5F5F5F5F5F5F5
310
F5F5F5F5F5E2F5F5F5F5F5F5F5F5F5F5F5F5F5F5F5F5F5F5F5F5F5F5F5F5F5F5F5F5F5F5F5F5F5F5F5F5F5F5F5F5F5F5F5F5F5F5F5F5F5F5F5F5F5F5F5F5F5F5F5F5F5F5F5F5F5F5F5F5F5F5F5F5F5F5F5F5F5F5F5F5F5F5F5F5F5F5F5F5F5F5F5F5F5F5F5F5F5F5F5F5F5F5F5F5F5F5F5F5F5F5F5F5F5F5F5F5F5F5F5F5F5
310
F5F5F5F5F5F5F5F5F5F5F5F5F5E2F5F5F5F5F5F5F5F5F5F5F5F5F5F5F5F5E2F5F5F5F5E2E2F5F5F5F5E2F5F5F5F5F5F5F5F5F5F5F5F5F5F5F5F5E2F5F5F5F5F5F5F5F5F5F5F5F5F5F5F5F5F5F5F5F5F5F5F5F5F5F5F5F5F5F5F5F5F5F5F5F5F5F5F5F5F5F5F5F5F5F5F5F5F5F5F5F5F5F5F5F5F5F5F5F5F5F5F5F5F5F5F5F5
310
F5F5F5F5F5F5F5F5F5F5F5F5F5F5F5F5F5F5F5F5F5F5F5F5F5F5F5F5F5F5F5F5F5F5F5F5F5F5F5F5F5F5F5F5F5F5F5F5F5F5F5F5F5F5F5F5F5F5F5F5F5F5F5F5F5F5E2F5F5F5F5F5F5F5F5F5F5F5F5F5F5F5F5E2F5F5F5F5E2E2F5F5F5F5E2F5F5F5F5F5F5F5F5F5F5F5F5F5F5F5F5E2F5F5F5F5F5F5F5F5F5F5F5F5F5F5F5
310
F5F5F5F5F5F5F5F5F5F5F5F5F5F5F5F5F5F5F5F5F5F5F5F5F5F5F5F5F5F5F5F5F5F5F5F5F5F5F5F5F5F5F5F5F5F5F5F5F5F5F5F5F5F5F5F5F5F5F5F5F5F5F5F5F5F5F5F5F5F5F5F5F5F5F5F5F5F5F5F5F5F5F5F5F5F5F5F5F5F5F5F5F5F5F5F5F5F5F5F5F5F5F5F5F5F5F5F5F5F5F5F5F5F5F5F5F5F5F5E2F5F5F5F5F5F5F5
310
F5F5F5F5F5F5F5F5F5E2F5F5F5F5E2E2F5F5F5F5E2F5F5F5F5F5F5F5F5F5F5F5F5F5F5F5F5E2F5F5F5F5F5F5F5F5F5F5F5F5F5F5F5F5F5F5F5F5F5F5F5F5F5F5F5F5F5F5F5F5F5F5F5F5F5F5F5F5F5F5F5F5F5F5F5F5F5F5F5F5F5F5F5F5F5F5F5F5F5F5F5F5F5F5F5F5F5F5F5F5F5F5F5F5F5F5F5F5F5F5F5F5F5F5F5F5F5
310
F5F5F5F5F5F5F5F5F5F5F5F5F5F5F5F5F5F5F5F5F5F5F5F5F5F5F5F5F5F5F5F5F5F5F5F5F5F5F5F5F5F5F5F5F5E2F5F5F5F5F5F5F5F5F5F5F5F5F5F5F5F5E2F5F5F5F5E2E2F5F5F5F5E2F5F5F5F5F5F5F5F5F5F5F5F5F5F5F5F5E2F5F5F5F5F5F5F5F5F5F5F5F5F5F5F5F5F5F5F5F5F5F5F5F5F5F5F5F5F5F5F5F5F5F5F5F5
310
F5F5F5F5F5F5F5F5F5F5F5F5F5F5F5F5F5F5F5F5F5F5F5F5F5F5F5F5F5F5F5F5F5F5F5F5F5F5F5F5F5F5F5F5F5F5F5F5F5F5F5F5F5F5F5F5F5F5F5F5F5F5F5F5F5F5F5F5F5F5F5F5F5F5F5F5F5F5F5F5F5F5F5F5F5F5F5F5F5F5F5F5F5F5F5F5F5F5E2F5F5F5F5F5F5F5F5F5F5F5F5F5F5F5F5E2F5F5F5F5E2E2F5F5F5F5E2
310
F5F5F5F5F5F5F5F5F5F5F5F5F5F5F5F5E2F5F5F5F5F5F5F5F5F5F5F5F5F5F5F5F5F5F5F5F5F5F5F5F5F5F5F5F5F5F5F5F5F5F5F5F5F5F5F5F5F5F5F5F5F5F5F5F5F5F5F5F5F5F5F5F5F5F5F5F5F5F5F5F5F5F5F5F5F5F5F5F5F5F5F5F5F5F5F5F5F5F5F5F5F5F5F5F5F5F5F5F5F5F5F5F5F5F5F5F5F5F5F5F5F5F5F5F5F5F5
310
F5F5F5F5F5F5F5F5F5F5F5F5F5F5F5F5F5F5F5F5F5F5F5F5E2F5F5F5F5F5F5F5F5F5F5F5F5F5F5F5F5E2F5F5F5F5E2E2F5F5F5F5E2F5F5F5F5F5F5F5F5F5F5F5F5F5F5F5F5E2F5F5F5F5F5F5F5F5F5F5F5F5F5F5F5F5F5F5F5F5F5F5F5F5F5F5F5F5F5F5F5F5F5F5F5F5F5F5F5F5F5F5F5F5F5F5F5F5F5F5F5F5F5F5F5F5F5
310
F5F5F5F5F5F5F5F5F5F5F5F5F5F5F5F5F5F5F5F5F5F5F5F5F5F5F5F5F5F5F5F5F5F5F5F5F5F5F5F5F5F5F5F5F5F5F5F5F5F5F5F5F5F5F5F5F5F5F5F5F5F5F5F5F5F5F5F5F5F5F5F5F5F5F5F5F5E2F5F5F5F5F5F5F5F5F5F5F5F5F5F5F5F5E2F5F5F5F5E2E2F5F5F5F5F5F5F5F5F5F5F5F5F5F5F5F5F5F5F5F5F5E2F5F5F5F5
310
F5F5F5F5F5F5F5F5F5F5F5F5F5F5F5F5F5F5F5F5F5F5F5F5F5F5F5F5F5F5F5F5F5F5F5F5F5F5F5F5F5F5F5F5F5F5F5F5F5F5F5F5F5F5F5F5F5F5F5F5F5F5F5F5F5F5F5F5F5F5F5F5F5F5F5F5F5F5F5F5F5F5F5F5F5F5F5F5F5F5F5F5F5F5F5F5F5F5F5F5F5F5F5F5F5F5F5F5F5F5F5F5F5F5F5F5F5F5F5F5F5F5F5F5F5F5F5
310
F5F5F5E2F5F5F5F5F5F5F5F5F5F5F5F5F5F5F5F5F5F5F5F5F5E2E2F5F5F5F5F5F5F5F5F5F5F5F5F5F5F5F5F5F5F5F5F5E2F5F5F5F5F5F5F5F5F5F5F5F5F5F5F5F5F5F5F5F5F5F5F5F5F5F5F5F5F5F5F5F5F5F5F5F5F5F5F5F5F5F5F5F5F5F5F5F5F5F5F5F5F5F5F5F5F5F5F5F5F5F5F5F5F5F5F5F5F5F5F5F5F5F5F5F5F5F5
310
F5F5F5F5F5F5F5F5F5F5F5F5F5F5F5F5F5F5F5F5F5F5F5F5F5F5F5F5F5F5F5F5F5F5F5F5F5F5F5F5F5F5F5F5F5F5F5F5F5F5F5F5F5F5F5F5E2F5F5F5F5F5F5F5F5F5F5F5F5F5F5F5F5F5F5F5F5F5E2E2F5F5F5F5F5F5F5F5F5F5F5F5F5F5F5F5F5F5F5F5F5E2F5F5F5F5F5F5F5F5F5F5F5F5F5F5F5F5F5F5F5F5F5F5F5F5F5
310
F5F5F5F5F5F5F5F5F5F5F5F5F5F5F5F5F5F5F5F5F5F5F5F5F5F5F5F5F5F5F5F5F5F5F5F5F5F5F5F5F5F5F5F5F5F5F5F5F5F5F5F5F5F5F5F5F5F5F5F5F5F5F5F5F5F5F5F5F5F5F5F5F5F5F5F5F5F5F5F5F5F5F5F5F5F5F5F5F5F5F5F5F5F5F5F5F5F5F5F5F5F5F5F5F5F5F5F5F5E2F5F5F5F5F5F5F5F5F5F5F5F5F5F5F5F5F5
310
F5F5F5F5E2E2F5F5F5F5F5F5F5F5F5F5F5F5F5F5F5F5F5F5F5F5F5E2F5F5F5F5F5F5F5F5F5F5F5F5F5F5F5F5F5F5F5F5F5F5F5F5F5F5F5F5F5F5F5F5F5F5F5F5F5F5F5F5F5F5F5F5F5F5F5F5F5F5F5F5F5F5F5F5F5F5F5F5F5F5F5F5F5F5F5F5F5F5F5F5F5F5F5F5F5F5F5F5F5F5F5F5F5F5F5F5F5F5F5F5F5F5F5F5F5F5F5
310
F5F5F5F5F5F5F5F5F5F5F5F5F5F5F5F5F5F5F5F5F5F5F5F5F5F5F5F5F5F5F5F5F5F5F5E2F5F5F5F5F5F5F5F5F5F5F5F5F5F5F5F5F5F5F5F5F5E2E2F5F5F5F5F5F5F5F5F5F5F5F5F5F5F5F5F5F5F5F5F5E2E2E2E2E2E2E2E2E2E2E2E2E2E2E2E2E2E2E2E2E2E2E2E2E2E2E2E2E2E2E2E2E2E2E2E2E2E2E2E2E2E2E2E2E2E2E2
310
E2E2E2E2E2E2E2E2E2E2E2E2E2E2E2E2E2E2E2E2E2E2E2E2E2E2E2E2E2E2E2E2E2E2E2E2E2E2E2E2E2E2E2E2E2E2E2E2E2E2E2E2E2E2E2E2E2E2E2E2E2E2E2E2E2E2E2E2E2E2E2E2E2E2E2E2E2E2E2E2E2E2E2E2E2E2E2E2E2F5F5F5F5F5F5F5F5F5F5F5F5F5F5F5F5F5F5F5F5F5E2E2F5F5F5F5F5F5F5F5F5F5F5F5F5F5F5
310
F5F5F5F5F5F5F5F5F5F5F5F5F5F5F5F5F5F5F5F5F5F5F5F5F5F5F5F5F5F5F5F5F5F5F5F5F5F5F5F5F5F5F5F5F5F5F5F5F5F5F5F5F5F5F5F5F5F5F5F5F5F5F5F5F5F5F5F5F5F5F5F5F5F5F5F5F5F5F5F5F5F5F5F5F5F5F5F5F5F5F5F5F5F5F5F5F5F5F5F5F5F5F5F5F5F5F5F5F5F5F5F5F5F5F5F5F5F5F5F5F5F5F5F5F5F5F5
310
F5F5F5F5F5F5F5F5F5F5F5F5F5F5F5F5F5F5F5F5F5F5F5F5F5F5F5F5F5F5F5F5F5F5F5F5E2E2F5F5F5F5F5F5F5F5F5F5F5F5F5F5F5F5F5F5F5F5F5F5F5F5F5F5F5F5F5F5F5F5F5F5F5F5F5F5F5F5F5F5F5F5F5F5F5F5F5F5F5F5F5F5F5F5F5F5F5F5F5F5F5F5F5F5F5F5F5F5F5F5F5F5F5F5F5F5F5F5F5F5F5F5F5F5F5F5F5
310
F5F5F5F5F5F5F5F5F5F5F5F5F5F5F5F5F5F5F5F5F5F5F5F5F5F5F5F5F5F5F5F5F5F5F5F5F5F5F5F5F5F5F5F5F5F5F5F5F5F5F5F5F5F5F5F5F5F5F5F5F5F5F5F5F5F5F5F5F5F5F5F5F5F5F5F5F5F5F5F5F5F5F5F5F5F5F5F5F5E2E2F5F5F5F5F5F5F5F5F5F5F5F5F5F5F5F5F5F5F5F5F5F5F5F5F5F5F5F5F5F5F5F5F5F5F5F5
310
F5F5F5F5F5F5F5F5F5F5F5F5F5F5F5F5F5F5F5F5F5F5F5F5F5F5F5F5F5F5F5F5F5F5F5F5F5F5F5F5F5F5F5F5F5F5F5F5F5F5F5F5F5F5F5F5F5F5F5F5F5F5F5F5F5F5F5F5F5F5F5F5F5F5F5F5F5F5F5F5F5F5F5F5F5F5F5F5F5F5F5F5F5F5F5F5F5F5F5F5F5F5F5F5F5F5F5F5F5F5F5F5F5F5F5F5F5F5F5F5F5F5F5F5F5F5F5
310
F5F5F5F5F5F5F5F5F5F5F5F5F5F5F5E2E2F5F5F5F5F5F5F5F5F5F5F5F5F5F5F5F5F5F5F5F5F5F5F5F5F5F5F5F5F5F5F5F5F5F5F5F5F5F5F5F5F5F5F5F5F5F5F5F5F5F5F5F5F5F5F5F5F5F5F5F5F5F5F5F5F5F5F5F5F5F5F5F5F5F5F5F5F5F5F5F5F5F5F5F5F5F5F5F5F5F5F5F5F5F5F5F5F5F5F5F5F5F5F5F5F5F5F5F5F5F5
310
F5F5F5F5F5F5F5F5F5F5F5F5F5F5F5F5F5F5F5F5F5F5F5F5F5F5F5F5F5F5F5F5F5F5F5F5F5F5F5F5F5F5F5F5F5F5F5F5F5F5F5F5F5F5F5F5F5F5F5F5F5F5F5F5F5F5F5F5E2E2F5F5F5F5E2F5F5F5F5F5F5F5F5F5F5F5F5F5F5F5F5F5F5F5F5F5F5F5F5F5F5F5F5F5F5F5F5F5F5F5F5F5F5F5F5F5F5F5F5F5F5F5F5F5F5F5F5
310
F5F5F5F5F5F5F5F5F5F5F5F5F5F5F5F5F5F5F5F5F5F5F5F5F5F5F5F5F5F5F5F5F5F5F5F5F5F5F5F5F5F5F5F5F5F5F5F5F5F5F5F5F5F5F5F5F5F5F5F5F5F5F5F5F5F5F5F5F5F5F5F5F5F5F5F5F5F5F5F5F5F5F5F5F5F5F5F5F5F5F5F5F5F5F5F5F5F5F5F5F5F5F5F5F5F5F5F5F5F5F5F5F5F5F5F5E2F5F5F5F5E2E2F5F5F5F5
310
E2F5F5F5F5F5F5F5F5F5F5F5F5F5F5F5F5F5F5F5F5F5F5F5F5F5F5F5F5F5F5F5F5F5F5F5F5F5F5F5F5F5F5F5F5F5F5F5F5F5F5F5F5F5F5F5F5F5F5F5F5F5F5F5F5F5F5F5F5F5F5F5F5F5F5F5F5F5F5F5F5F5F5F5F5F5F5F5F5F5F5F5F5F5F5F5F5F5F5F5F5F5F5F5F5F5F5F5F5F5F5F5F5F5F5F5F5F5F5F5F5F5F5F5F5F5F5
310
F5F5F5F5F5F5F5F5F5F5F5F5F5F5F5F5F5F5F5F5F5F5F5F5F5F5F5F5F5F5F5F5F5F5F5F5F5F5F5F5F5F5E2F5F5F5F5E2E2F5F5F5F5E2F5F5F5F5F5F5F5F5F5F5F5F5F5F5F5F5F5F5F5F5F5F5F5F5F5F5F5F5F5F5F5F5F5F5F5F5F5F5F5F5F5F5F5F5F5F5F5F5F5F5F5F5F5F5F5F5F5F5F5F5F5F5F5F5F5F5F5F5F5F5F5F5F5
310
F5F5F5F5F5F5F5F5F5F5F5F5F5F5F5F5F5F5F5F5F5F5F5F5F5F5F5F5F5F5F5F5F5F5F5F5F5F5F5F5F5F5F5F5F5F5F5F5F5F5F5F5F5F5F5F5F5F5F5F5F5F5F5F5F5F5F5F5F5F5F5F5F5F5F5F5F5F5F5F5F5F5F5F5F5F5F5F5F5F5F5F5F5F5F5E2F5F5F5F5E2E2F5F5F5F5E2F5F5F5F5F5F5F5F5F5F5F5F5F5F5F5F5F5F5F5F5
310
F5F5F5F5F5F5F5F5F5F5F5F5F5F5F5F5F5F5F5F5F5F5F5F5F5F5F5F5F5F5F5F5F5F5F5F5F5F5F5F5F5F5F5F5F5F5F5F5F5F5F5F5F5F5F5F5F5F5F5F5F5F5F5F5F5F5F5F5F5F5F5F5F5F5F5F5F5F5F5F5F5F5F5F5F5F5F5F5F5F5F5F5F5F5F5F5F5F5F5F5F5F5F5F5F5F5F5F5F5F5F5F5F5F5F5F5F5F5F5F5F5F5F5F5F5F5F5
310
F5F5F5F5F5F5F5F5F5F5F5F5F5F5F5F5F5F5F5F5F5E2F5F5F5F5E2E2F5F5F5F5E2F5F5F5F5F5F5F5F5F5F5F5F5F5F5F5F5F5F5F5F5F5F5F5F5F5F5F5F5F5F5F5F5F5F5F5F5F5F5F5F5F5F5F5F5F5F5F5F5F5F5F5F5F5F5F5F5F5F5F5F5F5F5F5F5F5F5F5F5F5F5F5F5F5F5F5F5F5F5F5F5F5F5F5F5F5F5F5F5F5F5F5F5F5F5
310
F5F5F5F5F5F5F5F5F5F5F5F5F5F5F5F5F5F5F5F5F5F5F5F5F5F5F5F5F5F5F5F5F5F5F5F5F5F5F5F5F5F5F5F5F5F5F5F5F5F5F5F5F5F5F5F5F5F5F5F5F5F5F5F5F5F5F5F5F5F5F5F5F5F5E2F5F5F5F5E2E2F5F5F5F5E2F5F5F5F5F5F5F5F5F5F5F5F5F5F5F5F5F5F5F5F5F5F5F5F5F5F5F5F5F5F5F5F5F5F5F5F5F5F5F5F5F5
310
F5F5F5F5F5F5F5F5F5F5F5F5F5F5F5F5F5F5F5F5F5F5F5F5F5F5F5F5F5F5F5F5F5F5F5F5F5F5F5F5F5F5F5F5F5F5F5F5F5F5F5F5F5F5F5F5F5F5F5F5F5F5F5F5F5F5F5F5F5F5F5F5F5F5F5F5F5F5F5F5F5F5F5F5F5F5F5F5F5F5F5F5F5F5F5F5F5F5F5F5F5F5F5F5F5F5F5F5F5F5F5F5F5F5F5F5F5F5F5F5F5F5F5F5F5F5F5
310
E2F5F5F5F5E2E2F5F5F5F5E2F5F5F5F5F5F5F5F5F5F5F5F5F5F5F5F5F5F5F5F5F5F5F5F5F5F5F5F5F5F5F5F5F5F5F5F5F5F5F5F5F5F5F5F5F5F5F5F5F5F5F5F5F5F5F5F5F5F5F5F5F5F5F5F5F5F5F5F5F5F5F5F5F5F5F5F5F5F5F5F5F5F5F5F5F5F5F5F5F5F5F5F5F5F5F5F5F5F5F5F5F5F5F5F5F5F5F5F5F5F5F5F5F5F5F5
310
F5F5F5F5F5F5F5F5F5F5F5F5F5F5F5F5F5F5F5F5F5F5F5F5F5F5F5F5F5F5F5F5F5F5F5F5F5F5F5F5F5F5F5F5F5F5F5F5F5F5F5F5F5E2F5F5F5F5E2E2F5F5F5F5E2F5F5F5F5F5F5F5F5F5F5F5F5F5F5F5F5F5F5F5F5F5F5F5F5F5F5F5F5F5F5F5F5F5F5F5F5F5F5F5F5F5F5F5F5F5F5F5F5F5F5F5F5F5F5F5F5F5F5F5F5F5F5
310
F5F5F5F5F5F5F5F5F5F5F5F5F5F5F5F5F5F5F5F5F5F5F5F5F5F5F5F5F5F5F5F5F5F5F5F5F5F5F5F5F5F5F5F5F5F5F5F5F5F5F5F5F5F5F5F5F5F5F5F5F5F5F5F5F5F5F5F5F5F5F5F5F5F5F5F5F5F5F5F5F5F5F5F5F5F5F5F5F5F5F5F5F5F5F5F5F5F5F5F5F5F5F5F5F5F5E2F5F5F5F5E2E2F5F5F5F5E2E2E2E2E2E2E2E2F5F5
310
F5F5F5F5F5F5F5E2E2E2E2E2E2E2E2E2E2E2E2E2E2E2F5F5F5F5F5F5F5F5F5E2E2E2E2E2E2E2E2E2E2E2E2E2E2E2E2F5F5F5F5F5F5F5F5E2E2E2E2E2E2E2E2E2E2E2E2E2E2E2E2F5F5F5F5F5F5F5F5E2E2E2E2E2E2E2E2E2E2E2E2E2E2E2E2F5F5F5F5F5F5F5F5E2E2E2E2E2E2E2E2E2E2E2E2E2E2E2E2F5F5F5F5F5F5F5F5
310
F5E2E2E2E2E2E2E2E2E2E2E2E2E2E2E2F5F5F5F5F5F5F5F5F5E2E2E2E2E2E2E2E2F5F5F5F5E2E2F5F5F5F5F5F5F5F5F5F5F5F5F5F5F5F5F5F5F5F5F5F5F5F5F5F5F5F5F5F5F5F5F5F5F5F5F5F5F5F5F5F5F5F5F5F5F5F5F5F5F5F5F5F5F5F5F5F5F5F5F5F5F5F5F5F5F5F5F5F5F5F5F5F5F5F5F5F5F5F5F5F5F5F5F5F5F5F5
310
F5F5F5F5F5F5F5F5F5F5F5F5F5F5F5F5F5F5F5F5F5F5F5F5F5F5F5F5F5F5F5F5F5F5F5F5F5F5F5F5F5F5F5F5F5F5F5F5F5F5F5F5F5F5F5F5F5F5F5F5F5F5F5F5F5F5F5F5F5F5F5F5F5F5F5F5F5F5F5F5F5F5F5F5F5F5F5F5F5F5E2E2F5F5F5F5F5F5F5F5F5F5F5F5F5F5F5F5F5F5F5F5F5F5F5F5F5F5F5F5F5F5F5F5F5F5F5
310
F5F5F5F5F5F5F5F5F5F5F5F5F5F5F5F5F5F5F5F5F5F5F5F5F5F5F5F5F5F5F5F5F5F5F5F5F5F5F5F5F5F5F5F5F5F5F5F5F5F5F5F5F5F5F5F5F5F5F5F5F5F5F5F5F5F5F5F5F5F5F5F5F5F5F5F5F5F5F5F5F5F5F5F5F5F5F5F5F5F5F5F5F5F5F5F5F5F5F5F5F5F5F5F5F5F5F5F5F5F5F5F5F5F5F5F5F5F5F5F5F5F5F5F5F5F5F5
310
F5F5F5F5F5F5F5F5F5F5F5F5F5F5F5F5E2E2F5F5F5F5F5F5F5F5F5F5F5F5F5F5F5F5F5F5F5F5F5F5F5F5F5F5F5F5F5F5F5F5F5F5F5F5F5F5F5F5F5F5F5F5F5F5F5F5F5F5F5F5F5F5F5F5F5F5F5F5F5F5F5F5F5F5F5F5F5F5F5F5F5F5F5F5F5F5F5F5F5F5F5F5F5F5F5F5F5F5F5F5F5F5F5F5F5F5F5F5F5F5F5F5F5F5F5F5F5
310
F5F5F5F5F5F5F5F5F5F5F5F5F5F5F5F5F5F5F5F5F5F5F5F5F5F5F5F5F5F5F5F5F5F5F5F5F5F5F5F5F5F5F5F5F5F5F5F5F5F5F5F5F5F5F5F5F5F5F5F5F5F5F5F5F5F5F5F5F5E2E2E2E2E2E2E2E2E2E2E2E2E2E2E2E2E2E2E2E2E2E2E2E2E2E2E2E2E2E2E2E2E2E2E2E2E2E2E2E2E2E2E2E2E2E2E2E2E2E2E2E2E2E2E2E2E2E2
310
E2E2E2E2E2E2E2E2E2E2E2E2E2E2E2E2E2E2E2E2E2E2E2E2E2E2E2E2E2E2E2E2E2E2E2E2E2E2E2E2E2E2E2E2E2E2E2E2E2E2E2E2E2E2E2E2E2E2E2E2E2E2E2E2E2E2E2E2E2E2E2E2E2E2E2E2E2E2E2E2E2E2E2E2E2E2E2E2E2E2E2E2E2E2E2E2E2E2E2E2E2E2E2E2E2E2E2E2E2E2E2E2E2E2E2E2E2E2E2E2E2E2E2EFEFEFEF
310
EFEFEFEFEFEFEFEFEFEFEFEFEFEFEFEFEFEFEFEFEFEFEFEFEFEFEFEFEFEFEFEFEFEFEFEFEFEFEFEFEFEFEFEFEFEFEFEFEFEFEFEFEFEFEFEFEFEFEFEFEFEFEFEFEFEFEFEFEFEFEFEFEFEFEFEFEFEFEFEFEFEFEFEFEFEFEFEFEFEFEFEFEFEFEFEFEFEFEFEFEFEFEFEFEFEFEFEFEFEFEFEFEFEFEFEFEFEFEFEFEFEFEFEFEFEFEF
310
EFEFEFEFEFEFEFEFEFEFEFEFEFEFEFEFEFEFEFEFEFEFEFEFEFEFEFEFEFEFEFEFEFEFEFEFEFEFEFEFEFEFEFEFEFEFEFEFEF
  0
XRECORD
  5
60C86
102
{ACAD_REACTORS
330
B5
102
}
330
B5
100
AcDbXrecord
280
     1
102
SHADEPLOT
 70
     0
102
SHADEPLOTRESLEVEL
 70
     2
102
SHADEPLOTCUSTOMDPI
 70
   300
  0
XRECORD
  5
B6
102
{ACAD_REACTORS
330
B5
102
}
330
B5
100
AcDbXrecord
280
     1
310
28000000B40000008B0000000100080000000000BC610000000000000000000000010000000000000000000000000000FFFFFF000000000000000000000000000000000000000000000000000000000000000000330000006600000099000000CC000000FF00000000330000333300006633000099330000CC330000FF3300
310
0000660000336600006666000099660000CC660000FF66000000990000339900006699000099990000CC990000FF99000000CC000033CC000066CC000099CC0000CCCC0000FFCC000000FF000033FF000066FF000099FF0000CCFF0000FFFF000000003300330033006600330099003300CC003300FF003300003333003333
310
33006633330099333300CC333300FF33330000663300336633006666330099663300CC663300FF66330000993300339933006699330099993300CC993300FF99330000CC330033CC330066CC330099CC3300CCCC3300FFCC330000FF330033FF330066FF330099FF3300CCFF3300FFFF330000006600330066006600660099
310
006600CC006600FF00660000336600333366006633660099336600CC336600FF33660000666600336666006666660099666600CC666600FF66660000996600339966006699660099996600CC996600FF99660000CC660033CC660066CC660099CC6600CCCC6600FFCC660000FF660033FF660066FF660099FF6600CCFF6600
310
FFFF660000009900330099006600990099009900CC009900FF00990000339900333399006633990099339900CC339900FF33990000669900336699006666990099669900CC669900FF66990000999900339999006699990099999900CC999900FF99990000CC990033CC990066CC990099CC9900CCCC9900FFCC990000FF99
310
0033FF990066FF990099FF9900CCFF9900FFFF99000000CC003300CC006600CC009900CC00CC00CC00FF00CC000033CC003333CC006633CC009933CC00CC33CC00FF33CC000066CC003366CC006666CC009966CC00CC66CC00FF66CC000099CC003399CC006699CC009999CC00CC99CC00FF99CC0000CCCC0033CCCC0066CC
310
CC0099CCCC00CCCCCC00FFCCCC0000FFCC0033FFCC0066FFCC0099FFCC00CCFFCC00FFFFCC000000FF003300FF006600FF009900FF00CC00FF00FF00FF000033FF003333FF006633FF009933FF00CC33FF00FF33FF000066FF003366FF006666FF009966FF00CC66FF00FF66FF000099FF003399FF006699FF009999FF00CC
310
99FF00FF99FF0000CCFF0033CCFF0066CCFF0099CCFF00CCCCFF00FFCCFF0000FFFF0033FFFF0066FFFF0099FFFF00CCFFFF00FFFFFF00000000000D0D0D001A1A1A00282828003535350043434300505050005D5D5D006B6B6B00787878008686860093939300A1A1A100AEAEAE00BBBBBB00C9C9C900D6D6D600E4E4E400
310
F1F1F100FFFFFF0000000000000000000000000000000000000000000000000000000000000000000000000000000000F5F5F5F5F5F5F5F5F5F5F5F5F5F5F5F5F5F5F5F5F5F5F5F5F5F5F5F5F5F5F5F5F5F5F5F5F5F5F5F5F5F5F5F5F5F5F5F5F5F5F5F5F5F5F5F5F5F5F5F5F5F5F5F5F5F5F5F5F5F5F5F5F5F5F5F5F5F5F5
310
F5F5F5F5F5F5F5F5F5F5F5F5F5F5F5F5F5F5F5F5F5F5F5F5F5F5F5F5F5F5F5F5F5F5F5F5F5F5F5F5F5F5F5F5F5F5F5F5F5F5F5F5F5F5F5F5F5F5F5F5F5F5F5F5F5F5F5F5F5F5F5F5F5F5F5F5F5F5F5F5F5F5F5F5F5F5F5F5F5F5F5F5F5F5F5F5F5F5F5F5F5F5E2E2E2E2E2E2E2E2E2E2E2E2E2E2E2E2E2E2E2E2E2E2E2E2E2
310
E2E2E2E2E2E2E2E2E2E2E2E2E2E2E2E2E2E2E2E2E2E2E2E2E2E2E2E2E2E2E2E2E2E2E2E2E2E2E2E2E2E2E2E2E2E2E2E2E2E2E2E2E2E2E2E2E2E2E2E2E2E2E2E2E2E2E2E2E2E2E2E2E2E2E2E2E2E2E2E2E2E2E2E2E2E2E2E2E2E2E2E2E2E2E2E2E2E2E2E2E2E2E2E2E2E2E2E2E2E2E2E2E2E2E2E2E2E2E2E2E2E2E2E2E2E2E2
310
E2E2E2E2E2E2E2E2E2E2E2E2E2E2E2E2E2E2E2E2E2E2E2E2E2E2F5F5E2E2E2E2E2E2E2E2E2E2E2E2E2E2E2E2E2E2E2E2E2E2E2E2E2E2E2E2E2E2E2E2E2E2E2E2E2E2E2E2E2E2E2E2E2E2E2E2E2E2E2E2E2E2E2E2E2E2E2E2E2E2E2E2E2E2E2E2E2E2E2E2E2E2E2E2E2E2E2E2E2E2E2E2E2E2E2E2E2E2E2E2E2E2E2E2E2E2E2
310
E2E2E2E2E2E2E2E2E2E2E2E2E2E2E2E2E2E2E2E2E2E2E2E2E2E2E2E2E2E2E2E2E2E2E2E2E2E2E2E2E2E2E2E2E2E2E2E2E2E2E2E2E2E2E2E2E2E2E2E2E2E2E2E2E2E2E2E2E2E2E2E2E2E2E2E2E2E2E2F5F5E2E2E2E2E2E2E2E2E2E2E2E2E2E2E2E2E2E2E2E2E2E2E2E2E2E2E2E2E2E2E2E2E2E2E2E2E2E2E2E2E2E2E2E2E2E2
310
E2E2E2E2E2E2E2E2E2E2E2E2E2E2E2E2E2E2E2E2E2E2E2E2E2E2E2E2E2E2E2E2E2E2E2E2E2E2E2E2E2E2E2E2E2E2E2E2E2E2E2E2E2E2E2E2E2E2E2E2E2E2E2E2E2E2E2E2E2E2E2E2E2E2E2E2E2E2E2E2E2E2E2E2E2E2E2E2E2E2E2E2E2E2E2E2E2E2E2E2E2E2E2E2E2E2E2E2E2E2E2E2E2E2E2E2E2E2E2E2E2E2E2E2E2E2E2
310
E2E2E2E2E2F5F5E2E2E2E2E2E2E2E2E2E2E2E2E2E2E2E2E2E2E2E2E2E2E2E2E2E2E2E2E2E2E2E2E2E2E2E2E2E2E2E2E2E2E2E2E2E2E2E2E2E2E2E2E2E2E2E2E2E2E2E2E2E2E2E2E2E2E2E2E2E2E2E2E2E2E2E2E2E2E2E2E2E2E2E2E2E2E2E2E2E2E2E2E2E2E2E2E2E2E2E2E2E2E2E2E2E2E2E2E2E2E2E2E2E2E2E2E2E2E2E2
310
E2E2E2E2E2E2E2E2E2E2E2E2E2E2E2E2E2E2E2E2E2E2E2E2E2E2E2E2E2E2E2E2E2E2E2E2E2E2E2E2E2E2E2E2E2E2E2E2E2E2E2E2E2E2E2E2E2E2F5F5E2E2E2F5F5F5F5F5F5F5F5E2E2E2E2E2E2E2E2E2F5F5F5F5F5F5F5F5F5F5F5F5F5F5F5F5E2E2E2E2E2E2E2E2E2F5F5F5F5F5F5F5F5F5F5F5F5F5F5F5E2E2E2E2E2E2E2
310
E2E2F5F5F5F5F5F5F5F5F5F5F5F5F5F5F5F5E2E2E2E2E2E2E2E2F5F5F5F5F5F5F5F5F5F5F5F5F5F5F5F5E2E2E2E2E2E2E2E2E2F5F5F5F5F5F5F5F5F5F5F5F5F5F5F5E2E2E2E2E2E2E2E2E2F5F5F5F5F5F5F5F5F5F5F5F5F5F5F5F5E2E2E2E2E2E2E2E2E2F5F5F5F5F5F5F5F5E2E2E2F5F5E2E2E2F5E2E2E2E2E2E2E2E2E2E2
310
E2E2E2E2E2E2E2E2E2E2E2E2E2E2E2E2E2E2E2E2E2E2E2E2E2E2E2E2E2E2E2E2E2E2E2E2E2E2E2E2E2E2E2E2E2E2E2E2E2E2E2E2E2E2E2E2E2E2E2E2E2E2E2E2E2E2E2E2E2E2E2E2E2E2E2E2E2E2E2E2E2E2E2E2E2E2E2E2E2E2E2E2E2E2E2E2E2E2E2E2E2E2E2E2E2E2E2E2E2E2E2E2E2E2E2E2E2E2E2E2E2E2E2E2E2E2E2
310
E2E2E2E2E2E2E2E2E2E2E2E2E2E2E2E2E2E2E2E2E2E2E2E2E2E2E2E2E2E2E2E2E2F5E2E2E2F5F5E2E2E2F5E2E2E2E2E2E2E2E2E2E2E2E2E2E2E2E2E2E2E2E2E2E2E2E2E2E2E2E2E2E2E2E2E2E2E2E2E2E2E2E2E2E2E2E2E2E2E2E2E2E2E2E2E2E2E2E2E2E2E2E2E2E2E2E2E2E2E2E2E2E2E2E2E2E2E2E2E2E2E2E2E2E2E2E2
310
E2E2E2E2E2E2E2E2E2E2E2E2E2E2E2E2E2E2E2E2E2E2E2E2E2E2E2E2E2E2E2E2E2E2E2E2E2E2E2E2E2E2E2E2E2E2E2E2E2E2E2E2E2E2E2E2E2E2E2E2E2E2E2E2E2E2E2E2E2E2E2E2E2E2E2E2E2E2E2E2E2E2E2E2E2E2F5E2E2E2F5F5E2E2E2F5E2E2E2E2E2E2E2E2E2E2E2E2E2E2E2E2E2E2E2E2E2E2E2E2E2E2E2E2E2E2E2
310
E2E2E2E2E2E2E2E2E2E2E2E2E2E2E2E2E2E2E2E2E2E2E2E2E2E2E2E2E2E2E2E2E2E2E2E2E2E2E2E2E2E2E2E2E2E2E2E2E2E2E2E2E2E2E2E2E2E2E2E2E2E2E2E2E2E2E2E2E2E2E2E2E2E2E2E2E2E2E2E2E2E2E2E2E2E2E2E2E2E2E2E2E2E2E2E2E2E2E2E2E2E2E2E2E2E2E2E2E2E2E2E2E2E2E2E2E2E2E2E2E2E2E2E2E2E2E2
310
E2E2E2E2E2E2E2E2E2E2E2E2F5E2E2E2F5F5E2E2E2F5E2E2E2E2E2E2E2E2E2E2E2E2E2E2E2E2E2E2E2E2E2E2E2E2E2E2E2E2E2E2E2E2E2E2E2E2E2E2E2E2E2E2E2E2E2E2E2E2E2E2E2E2E2E2E2E2E2E2E2E2E2E2E2E2E2E2E2E2E2E2E2E2E2E2E2E2E2E2E2E2E2E2E2E2E2E2E2E2E2E2E2E2E2E2E2E2E2E2E2E2E2E2E2E2E2
310
E2E2E2E2E2E2E2E2E2E2E2E2E2E2E2E2E2E2E2E2E2E2E2E2E2E2E2E2E2E2E2E2E2E2E2E2E2E2E2E2E2E2E2E2E2E2E2E2E2E2E2E2E2E2E2E2E2E2E2E2E2E2E2E2E2F5E2E2E2F5F5E2E2E2F5E2E2E2E2E2E2E2E2E2E2E2E2E2E2E2E2E2E2E2E2E2E2E2E2E2E2E2E2E2E2E2E2E2E2E2E2E2E2E2E2E2E2E2E2E2E2E2E2E2E2E2E2
310
E2E2E2E2E2E2E2E2E2E2E2E2E2E2E2E2E2E2E2E2E2E2E2E2E2E2E2E2E2E2E2E2E2E2E2E2E2E2E2E2E2E2E2E2E2E2E2E2E2E2E2E2E2E2E2E2E2E2E2E2E2E2E2E2E2E2E2E2E2E2E2E2E2E2E2E2E2E2E2E2E2E2E2E2E2E2E2E2E2E2E2E2E2E2E2E2E2E2E2E2E2E2E2E2E2E2E2E2E2E2E2E2E2E2E2E2E2E2F5E2E2E2F5F5E2E2E2
310
F5E2E2E2E2E2E2E2E2E2E2E2E2E2E2E2E2E2E2E2E2E2E2E2E2E2E2E2E2E2E2E2E2E2E2E2E2E2E2E2E2E2E2E2E2E2E2E2E2E2E2E2E2E2E2E2E2E2E2E2E2E2E2E2E2E2E2E2E2E2E2E2E2E2E2E2E2E2E2E2E2E2E2E2E2E2E2E2E2E2E2E2E2E2E2E2E2E2E2E2E2E2E2E2E2E2E2E2E2E2E2E2E2E2E2E2E2E2E2E2E2E2E2E2E2E2E2
310
E2E2E2E2E2E2E2E2E2E2E2E2E2E2E2E2E2E2E2E2E2E2E2E2E2E2E2E2E2E2E2E2E2E2E2E2E2E2E2E2E2E2E2E2F5E2E2E2F5F5E2E2E2F5E2E2E2E2E2E2E2E2E2E2E2E2E2E2E2E2E2E2E2E2E2E2E2E2E2E2E2E2E2E2E2E2E2E2E2E2E2E2E2E2E2E2E2E2E2E2E2E2E2E2E2E2E2E2E2E2E2E2E2E2E2E2E2E2E2E2E2E2E2E2E2E2E2
310
E2E2E2E2E2E2E2E2E2E2E2E2E2E2E2E2E2E2E2E2E2E2E2E2E2E2E2E2E2E2E2E2E2E2E2E2E2E2E2E2E2E2E2E2E2E2E2E2E2E2E2E2E2E2E2E2E2E2E2E2E2E2E2E2E2E2E2E2E2E2E2E2E2E2E2E2E2E2E2E2E2E2E2E2E2E2E2E2E2E2E2E2E2E2E2E2E2F5E2E2E2F5F5E2E2E2F5E2E2E2E2E2E2E2E2E2E2E2E2E2E2E2E2E2E2E2E2
310
E2E2E2E2E2E2E2E2E2E2E2E2E2E2E2E2E2E2E2E2E2E2E2E2E2E2E2E2E2E2E2E2E2E2E2E2E2E2E2E2E2E2E2E2E2E2E2E2E2E2E2E2E2E2E2E2E2E2E2E2E2E2E2E2E2E2E2E2E2E2E2E2E2E2E2E2E2E2E2E2E2E2E2E2E2E2E2E2E2E2E2E2E2E2E2E2E2E2E2E2E2E2E2E2E2E2E2E2E2E2E2E2E2E2E2E2E2E2E2E2E2E2E2E2E2E2E2
310
E2E2E2E2E2E2E2E2E2E2E2E2E2E2E2E2E2E2E2E2E2E2E2F5E2E2E2F5F5E2E2E2E2E2E2E2E2E2E2E2E2E2E2E2E2E2E2E2E2E2E2E2E2E2E2E2E2E2E2E2E2E2E2E2E2E2E2E2E2E2E2E2E2E2E2E2E2E2E2E2E2E2E2E2E2E2E2E2E2E2E2E2E2E2E2E2E2E2E2E2E2E2E2E2E2E2E2E2E2E2E2E2E2E2E2E2E2E2E2E2E2E2E2E2E2E2E2
310
E2E2E2E2E2E2E2E2E2E2E2E2E2E2E2E2E2E2E2E2E2E2E2E2E2E2E2E2E2E2E2E2E2E2E2E2E2E2E2E2E2E2E2E2E2E2E2E2E2E2E2E2E2E2E2E2E2E2E2E2E2E2E2E2E2E2E2E2E2E2E2E2E2E2E2E2E2E2E2E2F5F5E2E2E2E2E2E2E2E2E2E2E2E2E2E2E2E2E2E2E2E2E2E2E2E2E2E2E2E2E2E2E2E2E2E2E2E2E2E2E2E2E2E2E2E2E2
310
E2E2E2E2E2E2E2E2E2E2E2E2E2E2E2E2E2E2E2E2E2E2E2E2E2E2E2E2E2E2E2E2E2E2E2E2E2E2E2E2E2E2E2E2E2E2E2E2E2E2E2E2E2E2E2E2E2E2E2E2E2E2E2E2E2E2E2E2E2E2E2E2E2E2E2E2E2E2E2E2E2E2E2E2E2E2E2E2E2E2E2E2E2E2E2E2E2E2E2E2E2E2E2E2E2E2E2E2E2E2E2E2E2E2E2E2E2E2E2E2E2E2E2E2E2E2E2
310
E2E2E2E2E2E2F5F5E2E2E2E2E2E2E2E2E2E2E2E2E2E2E2E2E2E2E2E2E2E2E2E2E2E2E2E2E2E2E2E2E2E2E2E2E2E2E2E2E2E2E2E2E2E2E2E2E2E2E2E2E2E2E2E2E2E2E2E2E2E2E2E2E2E2E2E2E2E2E2E2E2E2E2E2E2E2E2E2E2E2E2E2E2E2E2E2E2E2E2E2E2E2E2E2E2E2E2E2E2E2E2E2E2E2E2E2E2E2E2E2E2E2E2E2E2E2E2
310
E2E2E2E2E2E2E2E2E2E2E2E2E2E2E2E2E2E2E2E2E2E2E2E2E2E2E2E2E2E2E2E2E2E2E2E2E2E2E2E2E2E2E2E2E2E2E2E2E2E2E2E2E2E2E2E2E2E2E2F5F5E2E2E2E2E2E2E2E2E2E2E2E2E2E2E2E2E2E2E2E2E2E2E2E2E2E2E2E2E2E2E2E2E2E2E2E2E2E2E2E2E2E2E2E2E2E2E2E2E2E2E2E2E2E2E2E2E2E2E2E2E2E2E2E2E2E2
310
E2E2E2E2E2E2E2E2E2E2E2E2E2E2E2E2E2E2E2E2E2E2E2E2E2E2E2E2E2E2E2E2E2E2E2E2E2E2E2E2E2E2E2E2E2E2E2E2E2E2E2E2E2E2E2E2E2E2E2E2E2E2E2E2E2E2E2E2E2E2E2E2E2E2E2E2E2E2E2E2E2E2E2E2E2E2E2E2E2E2E2E2E2E2E2E2E2E2E2E2E2E2E2E2E2E2E2E2E2E2E2E2F5F5E2E2E2E2E2E2E2E2E2E2E2E2E2
310
E2E2E2E2E2E2E2F5F5F5F5F5F5F5F5F5F5F5F5F5F5F5F5F5F5F5F5F5F5F5F5F5F5F5F5F5F5F5F5F5F5F5F5F5F5F5F5F5F5F5F5F5F5F5F5F5F5F5F5F5F5F5F5F5F5F5F5F5F5F5F5F5F5F5F5F5F5F5F5F5F5F5F5F5F5F5F5F5F5F5F5F5F5F5F5F5F5F5F5F5F5F5F5F5F5F5F5F5F5F5F5F5F5F5F5F5F5F5F5F5F5F5F5F5F5F5F5
310
F5F5F5F5F5F5F5F5F5F5F5F5F5F5F5F5F5F5E2E2E2E2E2E2E2E2E2E2E2E2E2E2E2E2E2E2E2E2F5F5E2E2E2E2E2E2E2E2E2E2E2E2E2E2E2E2E2E2E2E2F5E2E2E2E2E2E2E2E2E2E2E2E2E2E2E2E2E2E2E2E2E2E2E2E2E2E2E2E2E2E2E2E2E2E2E2E2E2E2E2E2E2E2E2E2E2E2E2E2E2E2E2E2E2E2E2E2E2E2E2E2E2E2E2E2E2E2
310
E2E2E2E2E2E2E2E2E2E2E2E2E2E2E2E2E2E2E2E2E2E2E2E2E2E2E2E2E2E2E2E2E2E2E2E2E2E2E2E2E2E2E2E2E2E2E2E2E2E2E2E2E2E2E2E2E2E2E2E2E2E2E2E2E2E2E2E2E2E2F5E2E2E2E2E2E2E2E2E2E2E2E2E2E2E2E2E2E2E2E2F5F5E2E2E2E2E2E2E2E2E2E2E2E2E2E2E2E2E2E2E2E2F5E2E2E2E2E2E2E2E2E2E2E2E2E2
310
E2E2E2E2E2E2E2E2E2E2E2E2E2E2E2E2E2E2E2E2E2E2E2E2E2E2E2E2E2E2E2E2E2E2E2E2E2E2E2E2E2E2E2E2E2E2E2E2E2E2E2E2E2E2E2E2E2E2E2E2E2E2E2E2E2E2E2E2E2E2E2E2E2E2E2E2E2E2E2E2E2E2E2E2E2E2E2E2E2E2E2E2E2E2E2E2E2E2E2E2E2E2E2E2E2E2E2E2E2E2E2E2E2E2E2E2E2E2E2E2E2E2E2F5E2E2E2
310
E2E2E2E2E2E2E2E2E2E2E2E2E2E2E2E2E2F5F5E2E2E2E2E2E2E2E2E2E2E2E2E2E2E2E2E2E2E2E2F5E2E2E2E2E2E2E2E2E2E2E2E2E2E2E2E2E2E2E2E2E2E2E2E2E2E2E2E2E2E2E2E2E2E2E2E2E2E2E2E2E2E2E2E2E2E2E2E2E2E2E2E2E2E2E2E2E2E2E2E2E2E2E2E2E2E2E2E2E2E2E2E2E2E2E2E2E2E2E2E2E2E2E2E2E2E2E2
310
E2E2E2E2E2E2E2E2E2E2E2E2E2E2E2E2E2E2E2E2E2E2E2E2E2E2E2E2E2E2E2E2E2E2E2E2E2E2E2E2E2E2E2E2E2E2E2E2E2F5E2E2E2E2E2E2E2E2E2E2E2E2E2E2E2E2E2E2E2E2F5F5E2E2E2E2E2E2E2E2E2E2E2E2E2E2E2E2E2E2E2E2F5E2E2E2E2E2E2E2E2E2E2E2E2E2E2E2E2E2E2E2E2E2E2E2E2E2E2E2E2E2E2E2E2E2E2
310
E2E2E2E2E2E2E2E2E2E2E2E2E2E2E2E2E2E2E2E2E2E2E2E2E2E2E2E2E2E2E2E2E2E2E2E2E2E2E2E2E2E2E2E2E2E2E2E2E2E2E2E2E2E2E2E2E2E2E2E2E2E2E2E2E2E2E2E2E2E2E2E2E2E2E2E2E2E2E2E2E2E2E2E2E2E2E2E2E2E2E2E2E2E2E2E2E2E2E2E2E2E2F5E2E2E2E2E2E2E2E2E2E2E2E2E2E2E2E2E2E2E2E2F5F5E2E2
310
E2F5E2E2E2E2E2E2E2E2E2E2E2E2E2E2E2E2F5E2E2E2E2E2E2E2E2E2E2E2E2E2E2E2E2E2E2E2E2E2E2E2E2E2E2E2E2E2E2E2E2E2E2E2E2E2E2E2E2E2E2E2E2E2E2E2E2E2E2E2E2E2E2E2E2E2E2E2E2E2E2E2E2E2E2E2E2E2E2E2E2E2E2E2E2E2E2E2E2E2E2E2E2E2E2E2E2E2E2E2E2E2E2E2E2E2E2E2E2E2E2E2E2E2E2E2E2
310
E2E2E2E2E2E2E2E2E2E2E2E2E2E2E2E2E2E2E2E2E2E2E2E2E2E2E2E2F5E2E2E2E2E2E2E2E2E2E2E2E2E2E2E2E2F5E2E2E2F5F5E2E2E2F5E2E2E2E2E2E2E2E2E2E2E2E2E2E2E2E2F5E2E2E2E2E2E2E2E2E2E2E2E2E2E2E2E2E2E2E2E2E2E2E2E2E2E2E2E2E2E2E2E2E2E2E2E2E2E2E2E2E2E2E2E2E2E2E2E2E2E2E2E2E2E2E2
310
E2E2E2E2E2E2E2E2E2E2E2E2E2E2E2E2E2E2E2E2E2E2E2E2E2E2E2E2E2E2E2E2E2E2E2E2E2E2E2E2E2E2E2E2E2E2E2E2E2E2E2E2E2E2E2E2E2E2E2E2E2E2E2E2E2E2E2E2E2E2E2E2E2E2E2E2E2E2E2E2E2F5E2E2E2E2E2E2E2E2E2E2E2E2E2E2E2E2F5E2E2E2F5F5E2E2E2F5E2E2E2E2E2E2E2E2E2E2E2E2E2E2E2E2F5E2E2
310
E2E2E2E2E2E2E2E2E2E2E2E2E2E2E2E2E2E2E2E2E2E2E2E2E2E2E2E2E2E2E2E2E2E2E2E2E2E2E2E2E2E2E2E2E2E2E2E2E2E2E2E2E2E2E2E2E2E2E2E2E2E2E2E2E2E2E2E2E2E2E2E2E2E2E2E2E2E2E2E2E2E2E2E2E2E2E2E2E2E2E2E2E2E2E2E2E2E2E2E2E2E2E2E2E2E2E2E2E2E2E2E2E2E2E2E2E2E2E2E2E2E2E2E2E2E2E2
310
E2E2E2E2E2E2E2F5E2E2E2E2E2E2E2E2E2E2E2E2E2E2E2E2F5E2E2E2F5F5E2E2E2F5E2E2E2E2E2E2E2E2E2E2E2E2E2E2E2E2F5E2E2E2E2E2E2E2E2E2E2E2E2E2E2E2E2E2E2E2E2E2E2E2E2E2E2E2E2E2E2E2E2E2E2E2E2E2E2E2E2E2E2E2E2E2E2E2E2E2E2E2E2E2E2E2E2E2E2E2E2E2E2E2E2E2E2E2E2E2E2E2E2E2E2E2E2
310
E2E2E2E2E2E2E2E2E2E2E2E2E2E2E2E2E2E2E2E2E2E2E2E2E2E2E2E2E2E2E2E2E2E2E2E2E2E2E2E2E2E2E2E2E2E2E2E2E2E2E2E2E2E2E2E2E2E2E2E2F5E2E2E2E2E2E2E2E2E2E2E2E2E2E2E2E2F5E2E2E2F5F5E2E2E2F5E2E2E2E2E2E2E2E2E2E2E2E2E2E2E2E2F5E2E2E2E2E2E2E2E2E2E2E2E2E2E2E2E2E2E2E2E2E2E2E2
310
E2E2E2E2E2E2E2E2E2E2E2E2E2E2E2E2E2E2E2E2E2E2E2E2E2E2E2E2E2E2E2E2E2E2E2E2E2E2E2E2E2E2E2E2E2E2E2E2E2E2E2E2E2E2E2E2E2E2E2E2E2E2E2E2E2E2E2E2E2E2E2E2E2E2E2E2E2E2E2E2E2E2E2E2E2E2E2E2E2E2E2E2E2E2E2E2E2E2E2E2E2E2E2E2E2E2E2E2E2E2E2E2E2F5E2E2E2E2E2E2E2E2E2E2E2E2E2
310
E2E2E2F5E2E2E2F5F5E2E2E2F5E2E2E2E2E2E2E2E2E2E2E2E2E2E2E2E2F5E2E2E2E2E2E2E2E2E2E2E2E2E2E2E2E2E2E2E2E2E2E2E2E2E2E2E2E2E2E2E2E2E2E2E2E2E2E2E2E2E2E2E2E2E2E2E2E2E2E2E2E2E2E2E2E2E2E2E2E2E2E2E2E2E2E2E2E2E2E2E2E2E2E2E2E2E2E2E2E2E2E2E2E2E2E2E2E2E2E2E2E2E2E2E2E2E2
310
E2E2E2E2E2E2E2E2E2E2E2E2E2E2E2E2E2E2E2E2E2E2E2E2E2E2E2E2E2E2E2E2E2E2E2E2E2E2E2F5E2E2E2E2E2E2E2E2E2E2E2E2E2E2E2E2F5E2E2E2F5F5E2E2E2F5E2E2E2E2E2E2E2E2E2E2E2E2E2E2E2E2F5E2E2E2E2E2E2E2E2E2E2E2E2E2E2E2E2E2E2E2E2E2E2E2E2E2E2E2E2E2E2E2E2E2E2E2E2E2E2E2E2E2E2E2E2
310
E2E2E2E2E2E2E2E2E2E2E2E2E2E2E2E2E2E2E2E2E2E2E2E2E2E2E2E2E2E2E2E2E2E2E2E2E2E2E2E2E2E2E2E2E2E2E2E2E2E2E2E2E2E2E2E2E2E2E2E2E2E2E2E2E2E2E2E2E2E2E2E2E2E2E2E2E2E2E2E2E2E2E2E2E2E2E2E2E2E2E2E2F5E2E2E2E2E2E2E2E2E2E2E2E2E2E2E2E2F5E2E2E2F5F5E2E2E2F5E2E2E2E2E2E2E2E2
310
E2E2E2E2E2E2E2E2F5E2E2E2E2E2E2E2E2E2E2E2E2E2E2E2E2E2E2E2E2E2E2E2E2E2E2E2E2E2E2E2E2E2E2E2E2E2E2E2E2E2E2E2E2E2E2E2E2E2E2E2E2E2E2E2E2E2E2E2E2E2E2E2E2E2E2E2E2E2E2E2E2E2E2E2E2E2E2E2E2E2E2E2E2E2E2E2E2E2E2E2E2E2E2E2E2E2E2E2E2E2E2E2E2E2E2E2E2E2E2E2E2E2E2E2E2E2E2
310
E2E2E2E2E2E2E2E2E2E2E2E2E2E2E2E2E2E2F5E2E2E2E2E2E2E2E2E2E2E2E2E2E2E2E2F5E2E2E2F5F5E2E2E2F5E2E2E2E2E2E2E2E2E2E2E2E2E2E2E2E2F5E2E2E2E2E2E2E2E2E2E2E2E2E2E2E2E2E2E2E2E2E2E2E2E2E2E2E2E2E2E2E2E2E2E2E2E2E2E2E2E2E2E2E2E2E2E2E2E2E2E2E2E2E2E2E2E2E2E2E2E2E2E2E2E2E2
310
E2E2E2E2E2E2E2E2E2E2E2E2E2E2E2E2E2E2E2E2E2E2E2E2E2E2E2E2E2E2E2E2E2E2E2E2E2E2E2E2E2E2E2E2E2E2E2E2E2E2E2E2E2E2E2E2E2E2E2E2E2E2E2E2E2E2E2E2E2E2E2F5E2E2E2E2E2E2E2E2E2E2E2E2E2E2E2E2F5E2E2E2F5F5E2E2E2F5E2E2E2E2E2E2E2E2E2E2E2E2E2E2E2E2F5E2E2E2E2E2E2E2E2E2E2E2E2
310
E2E2E2E2E2E2E2E2E2E2E2E2E2E2E2E2E2E2E2E2E2E2E2E2E2E2E2E2E2E2E2E2E2E2E2E2E2E2E2E2E2E2E2E2E2E2E2E2E2E2E2E2E2E2E2E2E2E2E2E2E2E2E2E2E2E2E2E2E2E2E2E2E2E2E2E2E2E2E2E2E2E2E2E2E2E2E2E2E2E2E2E2E2E2E2E2E2E2E2E2E2E2E2E2E2E2E2E2E2E2E2E2E2E2E2E2E2E2E2E2E2E2E2E2F5E2E2
310
E2E2E2E2E2E2E2E2E2E2E2E2E2E2F5E2E2E2F5F5E2E2E2F5E2E2E2E2E2E2E2E2E2E2E2E2E2E2E2E2F5E2E2E2E2E2E2E2E2E2E2E2E2E2E2E2E2E2E2E2E2E2E2E2E2E2E2E2E2E2E2E2E2E2E2E2E2E2E2E2E2E2E2E2E2E2E2E2E2E2E2E2E2E2E2E2E2E2E2E2E2E2E2E2E2E2E2E2E2E2E2E2E2E2E2E2E2E2E2E2E2E2E2E2E2E2E2
310
E2E2E2E2E2E2E2E2E2E2E2E2E2E2E2E2E2E2E2E2E2E2E2E2E2E2E2E2E2E2E2E2E2E2E2E2E2E2E2E2E2E2E2E2E2E2E2E2E2E2F5E2E2E2E2E2E2E2E2E2E2E2E2E2E2E2E2F5E2E2E2F5F5E2E2E2F5E2E2E2E2E2E2E2E2E2E2E2E2E2E2E2E2F5E2E2E2E2E2E2E2E2E2E2E2E2E2E2E2E2E2E2E2E2E2E2E2E2E2E2E2E2E2E2E2E2E2
310
E2E2E2E2E2E2E2E2E2E2E2E2E2E2E2E2E2E2E2E2E2E2E2E2E2E2E2E2E2E2E2E2E2E2E2E2E2E2E2E2E2E2E2E2E2E2E2E2E2E2E2E2E2E2E2E2E2E2E2E2E2E2E2E2E2E2E2E2E2E2E2E2E2E2E2E2E2E2E2E2E2E2E2E2E2E2E2E2E2E2E2E2E2E2E2E2E2E2E2E2E2E2E2F5E2E2E2E2E2E2E2E2E2E2E2E2E2E2E2E2F5E2E2E2F5F5E2
310
E2E2F5E2E2E2E2E2E2E2E2E2E2E2E2E2E2E2E2F5E2E2E2E2E2E2E2E2E2E2E2E2E2E2E2E2E2E2E2E2E2E2E2E2E2E2E2E2E2E2E2E2E2E2E2E2E2E2E2E2E2E2E2E2E2E2E2E2E2E2E2E2E2E2E2E2E2E2E2E2E2E2E2E2E2E2E2E2E2E2E2E2E2E2E2E2E2E2E2E2E2E2E2E2E2E2E2E2E2E2E2E2E2E2E2E2E2E2E2E2E2E2E2E2E2E2E2
310
E2E2E2E2E2E2E2E2E2E2E2E2E2E2E2E2E2E2E2E2E2E2E2E2E2E2E2E2E2F5E2E2E2E2E2E2E2E2E2E2E2E2E2E2E2E2F5E2E2E2F5F5E2E2E2F5E2E2E2E2E2E2E2E2E2E2E2E2E2E2E2E2F5E2E2E2E2E2E2E2E2E2E2E2E2E2E2E2E2E2E2E2E2E2E2E2E2E2E2E2E2E2E2E2E2E2E2E2E2E2E2E2E2E2E2E2E2E2E2E2E2E2E2E2E2E2E2
310
E2E2E2E2E2E2E2E2E2E2E2E2E2E2E2E2E2E2E2E2E2E2E2E2E2E2E2E2E2E2E2E2E2E2E2E2E2E2E2E2E2E2E2E2E2E2E2E2E2E2E2E2E2E2E2E2E2E2E2E2E2E2E2E2E2E2E2E2E2E2E2E2E2E2E2E2E2E2E2E2E2E2F5E2E2E2E2E2E2E2E2E2E2E2E2E2E2E2E2F5E2E2E2F5F5E2E2E2F5E2E2E2E2E2E2E2E2E2E2E2E2E2E2E2E2F5E2
310
E2E2E2E2E2E2E2E2E2E2E2E2E2E2E2E2E2E2E2E2E2E2E2E2E2E2E2E2E2E2E2E2E2E2E2E2E2E2E2E2E2E2E2E2E2E2E2E2E2E2E2E2E2E2E2E2E2E2E2E2E2E2E2E2E2E2E2E2E2E2E2E2E2E2E2E2E2E2E2E2E2E2E2E2E2E2E2E2E2E2E2E2E2E2E2E2E2E2E2E2E2E2E2E2E2E2E2E2E2E2E2E2E2E2E2E2E2E2E2E2E2E2E2E2E2E2E2
310
E2E2E2E2E2E2E2E2F5E2E2E2E2E2E2E2E2E2E2E2E2E2E2E2E2F5E2E2E2F5F5E2E2E2F5E2E2E2E2E2E2E2E2E2E2E2E2E2E2E2E2F5E2E2E2E2E2E2E2E2E2E2E2E2E2E2E2E2E2E2E2E2E2E2E2E2E2E2E2E2E2E2E2E2E2E2E2E2E2E2E2E2E2E2E2E2E2E2E2E2E2E2E2E2E2E2E2E2E2E2E2E2E2E2E2E2E2E2E2E2E2E2E2E2E2E2E2
310
E2E2E2E2E2E2E2E2E2E2E2E2E2E2E2E2E2E2E2E2E2E2E2E2E2E2E2E2E2E2E2E2E2E2E2E2E2E2E2E2E2E2E2E2E2E2E2E2E2E2E2E2E2E2E2E2E2E2E2E2E2F5E2E2E2E2E2E2E2E2E2E2E2E2E2E2E2E2F5E2E2E2F5F5E2E2E2F5E2E2E2E2E2E2E2E2E2E2E2E2E2E2E2E2F5E2E2E2E2E2E2E2E2E2E2E2E2E2E2E2E2E2E2E2E2E2E2
310
E2E2E2E2E2E2E2E2E2E2E2E2E2E2E2E2E2E2E2E2E2E2E2E2E2E2E2E2E2E2E2E2E2E2E2E2E2E2E2E2E2E2E2E2E2E2E2E2E2E2E2E2E2E2E2E2E2E2E2E2E2E2E2E2E2E2E2E2E2E2E2E2E2E2E2E2E2E2E2E2E2E2E2E2E2E2E2E2E2E2E2E2E2E2E2E2E2E2E2E2E2E2E2E2E2E2E2E2E2E2E2E2E2E2F5E2E2E2E2E2E2E2E2E2E2E2E2
310
E2E2E2E2F5E2E2E2F5F5E2E2E2E2E2E2E2E2E2E2E2E2E2E2E2E2E2E2E2E2F5E2E2E2E2E2E2E2E2E2E2E2E2E2E2E2E2E2E2E2E2E2E2E2E2E2E2E2E2E2E2E2E2E2E2E2E2E2E2E2E2E2E2E2E2E2E2E2E2E2E2E2E2E2E2E2E2E2E2E2E2E2E2E2E2E2E2E2E2E2E2E2E2E2E2E2E2E2E2E2E2E2E2E2E2E2E2E2E2E2E2E2E2E2E2E2E2
310
E2E2E2E2E2E2E2E2E2E2E2E2E2E2E2E2E2E2E2E2E2E2E2E2E2E2E2E2E2E2E2E2E2E2E2E2E2E2E2E2F5E2E2E2E2E2E2E2E2E2E2E2E2E2E2E2E2E2E2E2E2F5F5E2E2E2E2E2E2E2E2E2E2E2E2E2E2E2E2E2E2E2E2F5E2E2E2E2E2E2E2E2E2E2E2E2E2E2E2E2E2E2E2E2E2E2E2E2E2E2E2E2E2E2E2E2E2E2E2E2E2E2E2E2E2E2E2
310
E2E2E2E2E2E2E2E2E2E2E2E2E2E2E2E2E2E2E2E2E2E2E2E2E2E2E2E2E2E2E2E2E2E2E2E2E2E2E2E2E2E2E2E2E2E2E2E2E2E2E2E2E2E2E2E2E2E2E2E2E2E2E2E2E2E2E2E2E2E2E2E2E2E2E2E2E2E2E2E2E2E2E2E2E2E2E2E2E2E2E2E2E2F5E2E2E2E2E2E2E2E2E2E2E2E2E2E2E2E2E2E2E2E2F5F5E2E2E2E2E2E2E2E2E2E2E2
310
E2E2E2E2E2E2E2E2E2F5E2E2E2E2E2E2E2E2E2E2E2E2E2E2E2E2E2E2E2E2E2E2E2E2E2E2E2E2E2E2E2E2E2E2E2E2E2E2E2E2E2E2E2E2E2E2E2E2E2E2E2E2E2E2E2E2E2E2E2E2E2E2E2E2E2E2E2E2E2E2E2E2E2E2E2E2E2E2E2E2E2E2E2E2E2E2E2E2E2E2E2E2E2E2E2E2E2E2E2E2E2E2E2E2E2E2E2E2E2E2E2E2E2E2E2E2E2
310
E2E2E2E2E2E2E2E2E2E2E2E2E2E2E2E2E2E2E2F5E2E2E2E2E2E2E2E2E2E2E2E2E2E2E2E2E2E2E2E2F5F5E2E2E2E2E2E2E2E2E2E2E2E2E2E2E2E2E2E2E2E2F5E2E2E2E2E2E2E2E2E2E2E2E2E2E2E2E2E2E2E2E2E2E2E2E2E2E2E2E2E2E2E2E2E2E2E2E2E2E2E2E2E2E2E2E2E2E2E2E2E2E2E2E2E2E2E2E2E2E2E2E2E2E2E2E2
310
E2E2E2E2E2E2E2E2E2E2E2E2E2E2E2E2E2E2E2E2E2E2E2E2E2E2E2E2E2E2E2E2E2E2E2E2E2E2E2E2E2E2E2E2E2E2E2E2E2E2E2E2E2E2E2E2E2E2E2E2E2E2E2E2E2E2E2E2E2E2E2E2F5E2E2E2E2E2E2E2E2E2E2E2E2E2E2E2E2E2E2E2E2F5F5E2E2E2E2E2E2E2E2E2E2E2E2E2E2E2E2E2E2E2E2F5E2E2E2E2E2E2E2E2E2E2E2
310
E2E2E2E2E2E2E2E2E2E2E2E2E2E2E2E2E2E2E2E2E2E2E2E2E2E2E2E2E2E2E2E2E2E2E2E2E2E2E2E2E2E2E2E2E2E2E2E2E2E2E2E2E2E2E2E2E2E2E2E2E2E2E2E2E2E2E2E2E2E2E2E2E2E2E2E2E2E2E2E2E2E2E2E2E2E2E2E2E2E2E2E2E2E2E2E2E2E2E2E2E2E2E2E2E2E2E2E2E2E2E2E2E2E2E2E2E2E2E2E2E2E2E2E2E2F5E2
310
E2E2E2E2E2E2E2E2E2E2E2E2E2E2E2E2E2E2E2F5F5E2E2E2E2E2E2E2E2E2E2E2E2E2E2E2E2E2E2E2E2F5E2E2E2E2E2E2E2E2E2E2E2E2E2E2E2E2E2E2E2E2E2E2E2E2E2E2E2E2E2E2E2E2E2E2E2E2E2E2E2E2E2E2E2E2E2E2E2E2E2E2E2E2E2E2E2E2E2E2E2E2E2E2E2E2E2E2E2E2E2E2E2E2E2E2E2E2E2E2E2E2E2E2E2E2E2
310
E2E2E2E2E2E2E2E2E2E2E2E2E2E2E2E2E2E2E2E2E2E2E2E2E2E2E2E2E2E2E2E2E2E2E2E2E2E2E2E2E2E2E2E2E2E2E2E2E2E2E2F5E2E2E2E2E2E2E2E2E2E2E2E2E2E2E2E2E2E2E2E2F5F5E2E2E2E2E2E2E2E2E2E2E2E2E2E2E2E2E2E2E2E2F5E2E2E2E2E2E2E2E2E2E2E2E2E2E2E2E2E2E2E2E2E2E2E2E2E2E2E2E2E2E2E2E2
310
E2E2E2E2E2E2E2E2E2E2E2E2E2E2E2E2E2E2E2E2E2E2E2E2E2E2E2E2E2E2E2E2E2E2E2E2E2E2E2E2E2E2E2E2E2E2E2E2E2E2E2E2E2E2E2E2E2E2E2E2E2E2E2E2E2E2E2E2E2E2E2E2E2E2E2E2E2E2E2E2E2E2E2E2E2E2E2E2E2E2E2E2E2E2E2E2E2E2E2E2E2E2E2E2F5E2E2E2E2E2E2E2E2E2E2E2E2E2E2E2E2E2E2E2E2F5F5
310
E2E2E2E2E2E2E2E2E2E2E2E2E2E2E2E2E2E2E2E2F5E2E2E2E2E2E2E2E2E2E2E2E2E2E2E2E2E2E2E2E2E2E2E2E2E2E2E2E2E2E2E2E2E2E2E2E2E2E2E2E2E2E2E2E2E2E2E2E2E2E2E2E2E2E2E2E2E2E2E2E2E2E2E2E2E2E2E2E2E2E2E2E2E2E2E2E2E2E2E2E2E2E2E2E2E2E2E2E2E2E2E2E2E2E2E2E2E2E2E2E2E2E2E2E2E2E2
310
E2E2E2E2E2E2E2E2E2E2E2E2E2E2E2E2E2E2E2E2E2E2E2E2E2E2E2E2E2E2F5E2E2E2E2E2E2E2E2E2E2E2E2E2E2E2E2E2E2E2E2F5F5E2E2E2E2E2E2E2E2E2E2E2E2E2E2E2E2E2E2E2E2F5E2E2E2E2E2E2E2E2E2E2E2E2E2E2E2E2E2E2E2E2E2E2E2E2E2E2E2E2E2E2E2E2E2E2E2E2E2E2E2E2E2E2E2E2E2E2E2E2E2E2E2E2E2
310
E2E2E2E2E2E2E2E2E2E2E2E2E2E2E2E2E2E2E2E2E2E2E2E2E2E2E2E2E2E2E2E2E2E2E2E2E2E2E2E2E2E2E2E2E2E2E2E2E2E2E2E2E2E2E2E2E2E2E2E2E2E2E2E2E2E2E2E2E2E2E2E2E2E2E2E2E2E2E2E2E2E2E2F5E2E2E2E2E2E2E2E2E2E2E2E2E2E2E2E2E2E2E2E2F5F5E2E2E2F5E2E2E2E2E2E2E2E2E2E2E2E2E2E2E2E2F5
310
E2E2E2E2E2E2E2E2E2E2E2E2E2E2E2E2E2E2E2E2E2E2E2E2E2E2E2E2E2E2E2E2E2E2E2E2E2E2E2E2E2E2E2E2E2E2E2E2E2E2E2E2E2E2E2E2E2E2E2E2E2E2E2E2E2E2E2E2E2E2E2E2E2E2E2E2E2E2E2E2E2E2E2E2E2E2E2E2E2E2E2E2E2E2E2E2E2E2E2E2E2E2E2E2E2E2E2E2E2E2E2E2E2E2E2E2E2E2E2E2E2E2E2E2E2E2E2
310
E2E2E2E2E2E2E2E2E2F5E2E2E2E2E2E2E2E2E2E2E2E2E2E2E2E2F5E2E2E2F5F5E2E2E2F5E2E2E2E2E2E2E2E2E2E2E2E2E2E2E2E2F5E2E2E2E2E2E2E2E2E2E2E2E2E2E2E2E2E2E2E2E2E2E2E2E2E2E2E2E2E2E2E2E2E2E2E2E2E2E2E2E2E2E2E2E2E2E2E2E2E2E2E2E2E2E2E2E2E2E2E2E2E2E2E2E2E2E2E2E2E2E2E2E2E2E2
310
E2E2E2E2E2E2E2E2E2E2E2E2E2E2E2E2E2E2E2E2E2E2E2E2E2E2E2E2E2E2E2E2E2E2E2E2E2E2E2E2E2E2E2E2E2E2E2E2E2E2E2E2E2E2E2E2E2E2E2E2E2E2F5E2E2E2E2E2E2E2E2E2E2E2E2E2E2E2E2F5E2E2E2F5F5E2E2E2F5E2E2E2E2E2E2E2E2E2E2E2E2E2E2E2E2F5E2E2E2E2E2E2E2E2E2E2E2E2E2E2E2E2E2E2E2E2E2
310
E2E2E2E2E2E2E2E2E2E2E2E2E2E2E2E2E2E2E2E2E2E2E2E2E2E2E2E2E2E2E2E2E2E2E2E2E2E2E2E2E2E2E2E2E2E2E2E2E2E2E2E2E2E2E2E2E2E2E2E2E2E2E2E2E2E2E2E2E2E2E2E2E2E2E2E2E2E2E2E2E2E2E2E2E2E2E2E2E2E2E2E2E2E2E2E2E2E2E2E2E2E2E2E2E2E2E2E2E2E2E2E2E2E2E2F5E2E2E2E2E2E2E2E2E2E2E2
310
E2E2E2E2E2F5E2E2E2F5F5E2E2E2F5E2E2E2E2E2E2E2E2E2E2E2E2E2E2E2E2F5E2E2E2E2E2E2E2E2E2E2E2E2E2E2E2E2E2E2E2E2E2E2E2E2E2E2E2E2E2E2E2E2E2E2E2E2E2E2E2E2E2E2E2E2E2E2E2E2E2E2E2E2E2E2E2E2E2E2E2E2E2E2E2E2E2E2E2E2E2E2E2E2E2E2E2E2E2E2E2E2E2E2E2E2E2E2E2E2E2E2E2E2E2E2E2
310
E2E2E2E2E2E2E2E2E2E2E2E2E2E2E2E2E2E2E2E2E2E2E2E2E2E2E2E2E2E2E2E2E2E2E2E2E2E2E2E2E2F5E2E2E2E2E2E2E2E2E2E2E2E2E2E2E2E2F5E2E2E2F5F5E2E2E2F5E2E2E2E2E2E2E2E2E2E2E2E2E2E2E2E2F5E2E2E2E2E2E2E2E2E2E2E2E2E2E2E2E2E2E2E2E2E2E2E2E2E2E2E2E2E2E2E2E2E2E2E2E2E2E2E2E2E2E2
310
E2E2E2E2E2E2E2E2E2E2E2E2E2E2E2E2E2E2E2E2E2E2E2E2E2E2E2E2E2E2E2E2E2E2E2E2E2E2E2E2E2E2E2E2E2E2E2E2E2E2E2E2E2E2E2E2E2E2E2E2E2E2E2E2E2E2E2E2E2E2E2E2E2E2E2E2E2E2E2E2E2E2E2E2E2E2E2E2E2E2E2E2E2E2F5E2E2E2E2E2E2E2E2E2E2E2E2E2E2E2E2F5E2E2E2F5F5E2E2E2F5E2E2E2E2E2E2
310
E2E2E2E2E2E2E2E2E2E2F5E2E2E2E2E2E2E2E2E2E2E2E2E2E2E2E2E2E2E2E2E2E2E2E2E2E2E2E2E2E2E2E2E2E2E2E2E2E2E2E2E2E2E2E2E2E2E2E2E2E2E2E2E2E2E2E2E2E2E2E2E2E2E2E2E2E2E2E2E2E2E2E2E2E2E2E2E2E2E2E2E2E2E2E2E2E2E2E2E2E2E2E2E2E2E2E2E2E2E2E2E2E2E2E2E2E2E2E2E2E2E2E2E2E2E2E2
310
E2E2E2E2E2E2E2E2E2E2E2E2E2E2E2E2E2E2E2E2F5E2E2E2E2E2E2E2E2E2E2E2E2E2E2E2E2F5E2E2E2F5F5E2E2E2F5E2E2E2E2E2E2E2E2E2E2E2E2E2E2E2E2F5E2E2E2E2E2E2E2E2E2E2E2E2E2E2E2E2E2E2E2E2E2E2E2E2E2E2E2E2E2E2E2E2E2E2E2E2E2E2E2E2E2E2E2E2E2E2E2E2E2E2E2E2E2E2E2E2E2E2E2E2E2E2E2
310
E2E2E2E2E2E2E2E2E2E2E2E2E2E2E2E2E2E2E2E2E2E2E2E2E2E2E2E2E2E2E2E2E2E2E2E2E2E2E2E2E2E2E2E2E2E2E2E2E2E2E2E2E2E2E2E2E2E2E2E2E2E2E2E2E2E2E2E2E2E2E2E2E2F5E2E2E2E2E2E2E2E2E2E2E2E2E2E2E2E2F5E2E2E2F5F5E2E2E2F5E2E2E2E2E2E2E2E2E2E2E2E2E2E2E2E2F5E2E2E2E2E2E2E2E2E2E2
310
E2E2E2E2E2E2E2E2E2E2E2E2E2E2E2E2E2E2E2E2E2E2E2E2E2E2E2E2E2E2E2E2E2E2E2E2E2E2E2E2E2E2E2E2E2E2E2E2E2E2E2E2E2E2E2E2E2E2E2E2E2E2E2E2E2E2E2E2E2E2E2E2E2E2E2E2E2E2E2E2E2E2E2E2E2E2E2E2E2E2E2E2E2E2E2E2E2E2E2E2E2E2E2E2E2E2E2E2E2E2E2E2E2E2E2E2E2E2E2E2E2E2E2E2E2E2F5
310
E2E2E2E2E2E2E2E2E2E2E2E2E2E2E2E2F5E2E2E2F5F5E2E2E2F5E2E2E2E2E2E2E2E2E2E2E2E2E2E2E2E2F5E2E2E2E2E2E2E2E2E2E2E2E2E2E2E2E2E2E2E2E2E2E2E2E2E2E2E2E2E2E2E2E2E2E2E2E2E2E2E2E2E2E2E2E2E2E2E2E2E2E2E2E2E2E2E2E2E2E2E2E2E2E2E2E2E2E2E2E2E2E2E2E2E2E2E2E2E2E2E2E2E2E2E2E2
310
E2E2E2E2E2E2E2E2E2E2E2E2E2E2E2E2E2E2E2E2E2E2E2E2E2E2E2E2E2E2E2E2E2E2E2E2E2E2E2E2E2E2E2E2E2E2E2E2E2E2E2E2F5E2E2E2E2E2E2E2E2E2E2E2E2E2E2E2E2F5E2E2E2F5F5E2E2E2F5E2E2E2E2E2E2E2E2E2E2E2E2E2E2E2E2F5E2E2E2E2E2E2E2E2E2E2E2E2E2E2E2E2E2E2E2E2E2E2E2E2E2E2E2E2E2E2E2
310
E2E2E2E2E2E2E2E2E2E2E2E2E2E2E2E2E2E2E2E2E2E2E2E2E2E2E2E2E2E2E2E2E2E2E2E2E2E2E2E2E2E2E2E2E2E2E2E2E2E2E2E2E2E2E2E2E2E2E2E2E2E2E2E2E2E2E2E2E2E2E2E2E2E2E2E2E2E2E2E2E2E2E2E2E2E2E2E2E2E2E2E2E2E2E2E2E2E2E2E2E2E2E2E2E2F5E2E2E2E2E2E2E2E2E2E2E2E2E2E2E2E2F5E2E2E2F5
310
F5E2E2E2F5E2E2E2E2E2E2E2E2E2E2E2E2E2E2E2E2F5E2E2E2E2E2E2E2E2E2E2E2E2E2E2E2E2E2E2E2E2E2E2E2E2E2E2E2E2E2E2E2E2E2E2E2E2E2E2E2E2E2E2E2E2E2E2E2E2E2E2E2E2E2E2E2E2E2E2E2E2E2E2E2E2E2E2E2E2E2E2E2E2E2E2E2E2E2E2E2E2E2E2E2E2E2E2E2E2E2E2E2E2E2E2E2E2E2E2E2E2E2E2E2E2E2
310
E2E2E2E2E2E2E2E2E2E2E2E2E2E2E2E2E2E2E2E2E2E2E2E2E2E2E2E2E2E2E2F5E2E2E2E2E2E2E2E2E2E2E2E2E2E2E2E2F5E2E2E2F5F5E2E2E2F5E2E2E2E2E2E2E2E2E2E2E2E2E2E2E2E2F5E2E2E2E2E2E2E2E2E2E2E2E2E2E2E2E2E2E2E2E2E2E2E2E2E2E2E2E2E2E2E2E2E2E2E2E2E2E2E2E2E2E2E2E2E2E2E2E2E2E2E2E2
310
E2E2E2E2E2E2E2E2E2E2E2E2E2E2E2E2E2E2E2E2E2E2E2E2E2E2E2E2E2E2E2E2E2E2E2E2E2E2E2E2E2E2E2E2E2E2E2E2E2E2E2E2E2E2E2E2E2E2E2E2E2E2E2E2E2E2E2E2E2E2E2E2E2E2E2E2E2E2E2E2E2E2E2E2F5E2E2E2E2E2E2E2E2E2E2E2E2E2E2E2E2F5E2E2E2F5F5E2E2E2F5E2E2E2E2E2E2E2E2E2E2E2E2E2E2E2E2
310
F5E2E2E2E2E2E2E2E2E2E2E2E2E2E2E2E2E2E2E2E2E2E2E2E2E2E2E2E2E2E2E2E2E2E2E2E2E2E2E2E2E2E2E2E2E2E2E2E2E2E2E2E2E2E2E2E2E2E2E2E2E2E2E2E2E2E2E2E2E2E2E2E2E2E2E2E2E2E2E2E2E2E2E2E2E2E2E2E2E2E2E2E2E2E2E2E2E2E2E2E2E2E2E2E2E2E2E2E2E2E2E2E2E2E2E2E2E2E2E2E2E2E2E2E2E2E2
310
E2E2E2E2E2E2E2E2E2E2F5E2E2E2E2E2E2E2E2E2E2E2E2E2E2E2E2F5E2E2E2F5F5E2E2E2F5E2E2E2E2E2E2E2E2E2E2E2E2E2E2E2E2F5E2E2E2E2E2E2E2E2E2E2E2E2E2E2E2E2E2E2E2E2E2E2E2E2E2E2E2E2E2E2E2E2E2E2E2E2E2E2E2E2E2E2E2E2E2E2E2E2E2E2E2E2E2E2E2E2E2E2E2E2E2E2E2E2E2E2E2E2E2E2E2E2E2
310
E2E2E2E2E2E2E2E2E2E2E2E2E2E2E2E2E2E2E2E2E2E2E2E2E2E2E2E2E2E2E2E2E2E2E2E2E2E2E2E2E2E2E2E2E2E2E2E2E2E2E2E2E2E2E2E2E2E2E2E2E2E2E2F5E2E2E2E2E2E2E2E2E2E2E2E2E2E2E2E2F5E2E2E2F5F5E2E2E2F5E2E2E2E2E2E2E2E2E2E2E2E2E2E2E2E2F5E2E2E2E2E2E2E2E2E2E2E2E2E2E2E2E2E2E2E2E2
310
E2E2E2E2E2E2E2E2E2E2E2E2E2E2E2E2E2E2E2E2E2E2E2E2E2E2E2E2E2E2E2E2E2E2E2E2E2E2E2E2E2E2E2E2E2E2E2E2E2E2E2E2E2E2E2E2E2E2E2E2E2E2E2E2E2E2E2E2E2E2E2E2E2E2E2E2E2E2E2E2E2E2E2E2E2E2E2E2E2E2E2E2E2E2E2E2E2E2E2E2E2E2E2E2E2E2E2E2E2E2E2E2E2E2E2E2F5E2E2E2E2E2E2E2E2E2E2
310
E2E2E2E2E2E2F5E2E2E2F5F5E2E2E2F5E2E2E2E2E2E2E2E2E2E2E2E2E2E2E2E2F5E2E2E2E2E2E2E2E2E2E2E2E2E2E2E2E2E2E2E2E2E2E2E2E2E2E2E2E2E2E2E2E2E2E2E2E2E2E2E2E2E2E2E2E2E2E2E2E2E2E2E2E2E2E2E2E2E2E2E2E2E2E2E2E2E2E2E2E2E2E2E2E2E2E2E2E2E2E2E2E2E2E2E2E2E2E2E2E2E2E2E2E2E2E2
310
E2E2E2E2E2E2E2E2E2E2E2E2E2E2E2E2E2E2E2E2E2E2E2E2E2E2E2E2E2E2E2E2E2E2E2E2E2E2E2E2E2E2F5E2E2E2E2E2E2E2E2E2E2E2E2E2E2E2E2F5E2E2E2F5F5E2E2E2E2E2E2E2E2E2E2E2E2E2E2E2E2E2E2E2E2F5E2E2E2E2E2E2E2E2E2E2E2E2E2E2E2E2E2E2E2E2E2E2E2E2E2E2E2E2E2E2E2E2E2E2E2E2E2E2E2E2E2
310
E2E2E2E2E2E2E2E2E2E2E2E2E2E2E2E2E2E2E2E2E2E2E2E2E2E2E2E2E2E2E2E2E2E2E2E2E2E2E2E2E2E2E2E2E2E2E2E2E2E2E2E2E2E2E2E2E2E2E2E2E2E2E2E2E2E2E2E2E2E2E2E2E2E2E2E2E2E2E2E2E2E2E2E2E2E2E2E2E2E2E2E2E2E2E2F5E2E2E2E2E2E2E2E2E2E2E2E2E2E2E2E2E2E2E2E2F5F5E2E2E2E2E2E2E2E2E2
310
E2E2E2E2E2E2E2E2E2E2E2F5E2E2E2E2E2E2E2E2E2E2E2E2E2E2E2E2E2E2E2E2E2E2E2E2E2E2E2E2E2E2E2E2E2E2E2E2E2E2E2E2E2E2E2E2E2E2E2E2E2E2E2E2E2E2E2E2E2E2E2E2E2E2E2E2E2E2E2E2E2E2E2E2E2E2E2E2E2E2E2E2E2E2E2E2E2E2E2E2E2E2E2E2E2E2E2E2E2E2E2E2E2E2E2E2E2E2E2E2E2E2E2E2E2E2E2
310
E2E2E2E2E2E2E2E2E2E2E2E2E2E2E2E2E2E2E2E2E2F5E2E2E2E2E2E2E2E2E2E2E2E2E2E2E2E2E2E2E2E2F5F5E2E2E2E2E2E2E2E2E2E2E2E2E2E2E2E2E2E2E2E2F5E2E2E2E2E2E2E2E2E2E2E2E2E2E2E2E2E2E2E2E2E2E2E2E2E2E2E2E2E2E2E2E2E2E2E2E2E2E2E2E2E2E2E2E2E2E2E2E2E2E2E2E2E2E2E2E2E2E2E2E2E2E2
310
E2E2E2E2E2E2E2E2E2E2E2E2E2E2E2E2E2E2E2E2E2E2E2E2E2E2E2E2E2E2E2E2E2E2E2E2E2E2E2E2E2E2E2E2E2E2E2E2E2E2E2E2E2E2E2E2E2E2E2E2E2E2E2E2E2E2E2E2E2E2E2E2E2E2F5E2E2E2E2E2E2E2E2E2E2E2E2E2E2E2E2E2E2E2E2F5F5E2E2E2E2E2E2E2E2E2E2E2E2E2E2E2E2E2E2E2E2F5E2E2E2E2E2E2E2E2E2
310
E2E2E2E2E2E2E2E2E2E2E2E2E2E2E2E2E2E2E2E2E2E2E2E2E2E2E2E2E2E2E2E2E2E2E2E2E2E2E2E2E2E2E2E2E2E2E2E2E2E2E2E2E2E2E2E2E2E2E2E2E2E2E2E2E2E2E2E2E2E2E2E2E2E2E2E2E2E2E2E2E2E2E2E2E2E2E2E2E2E2E2E2E2E2E2E2E2E2E2E2E2E2E2E2E2E2E2E2E2E2E2E2E2E2E2E2E2E2E2E2E2E2E2E2E2E2E2
310
F5E2E2E2E2E2E2E2E2E2E2E2E2E2E2E2E2E2E2E2E2F5F5E2E2E2E2E2E2E2E2E2E2E2E2E2E2E2E2E2E2E2E2F5E2E2E2E2E2E2E2E2E2E2E2E2E2E2E2E2E2E2E2E2E2E2E2E2E2E2E2E2E2E2E2E2E2E2E2E2E2E2E2E2E2E2E2E2E2E2E2E2E2E2E2E2E2E2E2E2E2E2E2E2E2E2E2E2E2E2E2E2E2E2E2E2E2E2E2E2E2E2E2E2E2E2E2
310
E2E2E2E2E2E2E2E2E2E2E2E2E2E2E2E2E2E2E2E2E2E2E2E2E2E2E2E2E2E2E2E2E2E2E2E2E2E2E2E2E2E2E2E2E2E2E2E2E2E2E2E2E2F5E2E2E2E2E2E2E2E2E2E2E2E2E2E2E2E2E2E2E2E2F5F5E2E2E2E2E2E2E2E2E2E2E2E2E2E2E2E2E2E2E2E2F5E2E2E2E2E2E2E2E2E2E2E2E2E2E2E2E2E2E2E2E2E2E2E2E2E2E2E2E2E2E2
310
E2E2E2E2E2E2E2E2E2E2E2E2E2E2E2E2E2E2E2E2E2E2E2E2E2E2E2E2E2E2E2E2E2E2E2E2E2E2E2E2E2E2E2E2E2E2E2E2E2E2E2E2E2E2E2E2E2E2E2E2E2E2E2E2E2E2E2E2E2E2E2E2E2E2E2E2E2E2E2E2E2E2E2E2E2E2E2E2E2E2E2E2E2E2E2E2E2E2E2E2E2E2E2E2E2E2F5E2E2E2E2E2E2E2E2E2E2E2E2E2E2E2E2E2E2E2E2
310
F5F5E2E2E2E2E2E2E2E2E2E2E2E2E2E2E2E2E2E2E2E2F5E2E2E2E2E2E2E2E2E2E2E2E2E2E2E2E2E2E2E2E2E2E2E2E2E2E2E2E2E2E2E2E2E2E2E2E2E2E2E2E2E2E2E2E2E2E2E2E2E2E2E2E2E2E2E2E2E2E2E2E2E2E2E2E2E2E2E2E2E2E2E2E2E2E2E2E2E2E2E2E2E2E2E2E2E2E2E2E2E2E2E2E2E2E2E2E2E2E2E2E2E2E2E2E2
310
E2E2E2E2E2E2E2E2E2E2E2E2E2E2E2E2E2E2E2E2E2E2E2E2E2E2E2E2E2E2E2E2F5E2E2E2E2E2E2E2E2E2E2E2E2E2E2E2E2E2E2E2E2F5F5E2E2E2E2E2E2E2E2E2E2E2E2E2E2E2E2E2E2E2E2F5E2E2E2E2E2E2E2E2E2E2E2E2E2E2E2E2E2E2E2E2E2E2E2E2E2E2E2E2E2E2E2E2E2E2E2E2E2E2E2E2E2E2E2E2E2E2E2E2E2E2E2
310
E2E2E2E2E2E2E2E2E2E2E2E2E2E2E2E2E2E2E2E2E2E2E2E2E2E2E2E2E2E2E2E2E2E2E2E2E2E2E2E2E2E2E2E2E2E2E2E2E2E2E2E2E2E2E2E2E2E2E2E2E2E2E2E2E2E2E2E2E2E2E2E2E2E2E2E2E2E2E2E2E2E2E2E2E2F5E2E2E2E2E2E2E2E2E2E2E2E2E2E2E2E2E2E2E2E2F5F5E2E2E2E2E2E2E2E2E2E2E2E2E2E2E2E2E2E2E2
310
E2F5E2E2E2E2E2E2E2E2E2E2E2E2E2E2E2E2E2E2E2E2E2E2E2E2E2E2E2E2E2E2E2E2E2E2E2E2E2E2E2E2E2E2E2E2E2E2E2E2E2E2E2E2E2E2E2E2E2E2E2E2E2E2E2E2E2E2E2E2E2E2E2E2E2E2E2E2E2E2E2E2E2E2E2E2E2E2E2E2E2E2E2E2E2E2E2E2E2E2E2E2E2E2E2E2E2E2E2E2E2E2E2E2E2E2E2E2E2E2E2E2E2E2E2E2E2
310
E2E2E2E2E2E2E2E2E2E2E2F5E2E2E2E2E2E2E2E2E2E2E2E2E2E2E2E2E2E2E2E2F5F5E2E2E2E2E2E2E2E2E2E2E2E2E2E2E2E2E2E2E2E2F5E2E2E2E2E2E2E2E2E2E2E2E2E2E2E2E2E2E2E2E2E2E2E2E2E2E2E2E2E2E2E2E2E2E2E2E2E2E2E2E2E2E2E2E2E2E2E2E2E2E2E2E2E2E2E2E2E2E2E2E2E2E2E2E2E2E2E2E2E2E2E2E2
310
E2E2E2E2E2E2E2E2E2E2E2E2E2E2E2E2E2E2E2E2E2E2E2E2E2E2E2E2E2E2E2E2E2E2E2E2E2E2E2E2E2E2E2E2E2E2E2E2E2E2E2E2E2E2E2E2E2E2E2E2E2E2E2E2F5E2E2E2E2E2E2E2E2E2E2E2E2E2E2E2E2E2E2E2E2F5F5E2E2E2F5E2E2E2E2E2E2E2E2E2E2E2E2E2E2E2E2F5E2E2E2E2E2E2E2E2E2E2E2E2E2E2E2E2E2E2E2
310
E2E2E2E2E2E2E2E2E2E2E2E2E2E2E2E2E2E2E2E2E2E2E2E2E2E2E2E2E2E2E2E2E2E2E2E2E2E2E2E2E2E2E2E2E2E2E2E2E2E2E2E2E2E2E2E2E2E2E2E2E2E2E2E2E2E2E2E2E2E2E2E2E2E2E2E2E2E2E2E2E2E2E2E2E2E2E2E2E2E2E2E2E2E2E2E2E2E2E2E2E2E2E2E2E2E2E2E2E2E2E2E2E2E2E2E2E2F5E2E2E2E2E2E2E2E2E2
310
E2E2E2E2E2E2E2F5E2E2E2F5F5E2E2E2F5E2E2E2E2E2E2E2E2E2E2E2E2E2E2E2E2F5E2E2E2E2E2E2E2E2E2E2E2E2E2E2E2E2E2E2E2E2E2E2E2E2E2E2E2E2E2E2E2E2E2E2E2E2E2E2E2E2E2E2E2E2E2E2E2E2E2E2E2E2E2E2E2E2E2E2E2E2E2E2E2E2E2E2E2E2E2E2E2E2E2E2E2E2E2E2E2E2E2E2E2E2E2E2E2E2E2E2E2E2E2
310
E2E2E2E2E2E2E2E2E2E2E2E2E2E2E2E2E2E2E2E2E2E2E2E2E2E2E2E2E2E2E2E2E2E2E2E2E2E2E2E2E2E2E2F5E2E2E2E2E2E2E2E2E2E2E2E2E2E2E2E2F5E2E2E2F5F5E2E2E2F5E2E2E2E2E2E2E2E2E2E2E2E2E2E2E2E2F5E2E2E2E2E2E2E2E2E2E2E2E2E2E2E2E2E2E2E2E2E2E2E2E2E2E2E2E2E2E2E2E2E2E2E2E2E2E2E2E2
310
E2E2E2E2E2E2E2E2E2E2E2E2E2E2E2E2E2E2E2E2E2E2E2E2E2E2E2E2E2E2E2E2E2E2E2E2E2E2E2E2E2E2E2E2E2E2E2E2E2E2E2E2E2E2E2E2E2E2E2E2E2E2E2E2E2E2E2E2E2E2E2E2E2E2E2E2E2E2E2E2E2E2E2E2E2E2E2E2E2E2E2E2E2E2E2E2F5E2E2E2E2E2E2E2E2E2E2E2E2E2E2E2E2F5E2E2E2F5F5E2E2E2F5E2E2E2E2
310
E2E2E2E2E2E2E2E2E2E2E2E2F5E2E2E2E2E2E2E2E2E2E2E2E2E2E2E2E2E2E2E2E2E2E2E2E2E2E2E2E2E2E2E2E2E2E2E2E2E2E2E2E2E2E2E2E2E2E2E2E2E2E2E2E2E2E2E2E2E2E2E2E2E2E2E2E2E2E2E2E2E2E2E2E2E2E2E2E2E2E2E2E2E2E2E2E2E2E2E2E2E2E2E2E2E2E2E2E2E2E2E2E2E2E2E2E2E2E2E2E2E2E2E2E2E2E2
310
E2E2E2E2E2E2E2E2E2E2E2E2E2E2E2E2E2E2E2E2E2E2F5E2E2E2E2E2E2E2E2E2E2E2E2E2E2E2E2F5E2E2E2F5F5E2E2E2F5E2E2E2E2E2E2E2E2E2E2E2E2E2E2E2E2F5E2E2E2E2E2E2E2E2E2E2E2E2E2E2E2E2E2E2E2E2E2E2E2E2E2E2E2E2E2E2E2E2E2E2E2E2E2E2E2E2E2E2E2E2E2E2E2E2E2E2E2E2E2E2E2E2E2E2E2E2E2
310
E2E2E2E2E2E2E2E2E2E2E2E2E2E2E2E2E2E2E2E2E2E2E2E2E2E2E2E2E2E2E2E2E2E2E2E2E2E2E2E2E2E2E2E2E2E2E2E2E2E2E2E2E2E2E2E2E2E2E2E2E2E2E2E2E2E2E2E2E2E2E2E2E2E2E2F5E2E2E2E2E2E2E2E2E2E2E2E2E2E2E2E2F5E2E2E2F5F5E2E2E2F5E2E2E2E2E2E2E2E2E2E2E2E2E2E2E2E2F5E2E2E2E2E2E2E2E2
310
E2E2E2E2E2E2E2E2E2E2E2E2E2E2E2E2E2E2E2E2E2E2E2E2E2E2E2E2E2E2E2E2E2E2E2E2E2E2E2E2E2E2E2E2E2E2E2E2E2E2E2E2E2E2E2E2E2E2E2E2E2E2E2E2E2E2E2E2E2E2E2E2E2E2E2E2E2E2E2E2E2E2E2E2E2E2E2E2E2E2E2E2E2E2E2E2E2E2E2E2E2E2E2E2E2E2E2E2E2E2E2E2E2E2E2E2E2E2E2E2E2E2E2E2E2E2E2
310
E2F5E2E2E2E2E2E2E2E2E2E2E2E2E2E2E2E2F5E2E2E2F5F5E2E2E2F5E2E2E2E2E2E2E2E2E2E2E2E2E2E2E2E2F5E2E2E2E2E2E2E2E2E2E2E2E2E2E2E2E2E2E2E2E2E2E2E2E2E2E2E2E2E2E2E2E2E2E2E2E2E2E2E2E2E2E2E2E2E2E2E2E2E2E2E2E2E2E2E2E2E2E2E2E2E2E2E2E2E2E2E2E2E2E2E2E2E2E2E2E2E2E2E2E2E2E2
310
E2E2E2E2E2E2E2E2E2E2E2E2E2E2E2E2E2E2E2E2E2E2E2E2E2E2E2E2E2E2E2E2E2E2E2E2E2E2E2E2E2E2E2E2E2E2E2E2E2E2E2E2E2E2F5E2E2E2E2E2E2E2E2E2E2E2E2E2E2E2E2F5E2E2E2F5F5E2E2E2F5E2E2E2E2E2E2E2E2E2E2E2E2E2E2E2E2F5E2E2E2E2E2E2E2E2E2E2E2E2E2E2E2E2E2E2E2E2E2E2E2E2E2E2E2E2E2
310
E2E2E2E2E2E2E2E2E2E2E2E2E2E2E2E2E2E2E2E2E2E2E2E2E2E2E2E2E2E2E2E2E2E2E2E2E2E2E2E2E2E2E2E2E2E2E2E2E2E2E2E2E2E2E2E2E2E2E2E2E2E2E2E2E2E2E2E2E2E2E2E2E2E2E2E2E2E2E2E2E2E2E2E2E2E2E2E2E2E2E2E2E2E2E2E2E2E2E2E2E2E2E2E2E2E2E2F5E2E2E2E2E2E2E2E2E2E2E2E2E2E2E2E2F5E2E2
310
E2F5F5E2E2E2F5E2E2E2E2E2E2E2E2E2E2E2E2E2E2E2E2F5E2E2E2E2E2E2E2E2E2E2E2E2E2E2E2E2E2E2E2E2E2E2E2E2E2E2E2E2E2E2E2E2E2E2E2E2E2E2E2E2E2E2E2E2E2E2E2E2E2E2E2E2E2E2E2E2E2E2E2E2E2E2E2E2E2E2E2E2E2E2E2E2E2E2E2E2E2E2E2E2E2E2E2E2E2E2E2E2E2E2E2E2E2E2E2E2E2E2E2E2E2E2E2
310
E2E2E2E2E2E2E2E2E2E2E2E2E2E2E2E2E2E2E2E2E2E2E2E2E2E2E2E2E2E2E2E2E2F5E2E2E2E2E2E2E2E2E2E2E2E2E2E2E2E2F5E2E2E2F5F5E2E2E2F5E2E2E2E2E2E2E2E2E2E2E2E2E2E2E2E2F5E2E2E2E2E2E2E2E2E2E2E2E2E2E2E2E2E2E2E2E2E2E2E2E2E2E2E2E2E2E2E2E2E2E2E2E2E2E2E2E2E2E2E2E2E2E2E2E2E2E2
310
E2E2E2E2E2E2E2E2E2E2E2E2E2E2E2E2E2E2E2E2E2E2E2E2E2E2E2E2E2E2E2E2E2E2E2E2E2E2E2E2E2E2E2E2E2E2E2E2E2E2E2E2E2E2E2E2E2E2E2E2E2E2E2E2E2E2E2E2E2E2E2E2E2E2E2E2E2E2E2E2E2E2E2E2E2E2F5E2E2E2E2E2E2E2E2E2E2E2E2E2E2E2E2F5E2E2E2F5F5E2E2E2F5E2E2E2E2E2E2E2E2E2E2E2E2E2E2
310
E2E2F5E2E2E2E2E2E2E2E2E2E2E2E2E2E2E2E2E2E2E2E2E2E2E2E2E2E2E2E2E2E2E2E2E2E2E2E2E2E2E2E2E2E2E2E2E2E2E2E2E2E2E2E2E2E2E2E2E2E2E2E2E2E2E2E2E2E2E2E2E2E2E2E2E2E2E2E2E2E2E2E2E2E2E2E2E2E2E2E2E2E2E2E2E2E2E2E2E2E2E2E2E2E2E2E2E2E2E2E2E2E2E2E2E2E2E2E2E2E2E2E2E2E2E2E2
310
E2E2E2E2E2E2E2E2E2E2E2E2F5E2E2E2E2E2E2E2E2E2E2E2E2E2E2E2E2F5E2E2E2F5F5E2E2E2F5E2E2E2E2E2E2E2E2E2E2E2E2E2E2E2E2F5E2E2E2E2E2E2E2E2E2E2E2E2E2E2E2E2E2E2E2E2E2E2E2E2E2E2E2E2E2E2E2E2E2E2E2E2E2E2E2E2E2E2E2E2E2E2E2E2E2E2E2E2E2E2E2E2E2E2E2E2E2E2E2E2E2E2E2E2E2E2E2
310
E2E2E2E2E2E2E2E2E2E2E2E2E2E2E2E2E2E2E2E2E2E2E2E2E2E2E2E2E2E2E2E2E2E2E2E2E2E2E2E2E2E2E2E2E2E2E2E2E2E2E2E2E2E2E2E2E2E2E2E2E2E2E2E2E2F5E2E2E2E2E2E2E2E2E2E2E2E2E2E2E2E2F5E2E2E2F5F5E2E2E2F5E2E2E2E2E2E2E2E2E2E2E2E2E2E2E2E2F5E2E2E2E2E2E2E2E2E2E2E2E2E2E2E2E2E2E2
310
E2E2E2E2E2E2E2E2E2E2E2E2E2E2E2E2E2E2E2E2E2E2E2E2E2E2E2E2E2E2E2E2E2E2E2E2E2E2E2E2E2E2E2E2E2E2E2E2E2E2E2E2E2E2E2E2E2E2E2E2E2E2E2E2E2E2E2E2E2E2E2E2E2E2E2E2E2E2E2E2E2E2E2E2E2E2E2E2E2E2E2E2E2E2E2E2E2E2E2E2E2E2E2E2E2E2E2E2E2E2E2E2E2E2E2E2E2E2F5E2E2E2E2E2E2E2E2
310
E2E2E2E2E2E2E2E2F5E2E2E2F5F5E2E2E2F5E2E2E2E2E2E2E2E2E2E2E2E2E2E2E2E2F5E2E2E2E2E2E2E2E2E2E2E2E2E2E2E2E2E2E2E2E2E2E2E2E2E2E2E2E2E2E2E2E2E2E2E2E2E2E2E2E2E2E2E2E2E2E2E2E2E2E2E2E2E2E2E2E2E2E2E2E2E2E2E2E2E2E2E2E2E2E2E2E2E2E2E2E2E2E2E2E2E2E2E2E2E2E2E2E2E2E2E2E2
310
E2E2E2E2E2E2E2E2E2E2E2E2E2E2E2E2E2E2E2E2E2E2E2E2E2E2E2E2E2E2E2E2E2E2E2E2E2E2E2E2E2E2E2E2F5E2E2E2E2E2E2E2E2E2E2E2E2E2E2E2E2F5E2E2E2F5F5E2E2E2F5E2E2E2E2E2E2E2E2E2E2E2E2E2E2E2E2F5E2E2E2E2E2E2E2E2E2E2E2E2E2E2E2E2E2E2E2E2E2E2E2E2E2E2E2E2E2E2E2E2E2E2E2E2E2E2E2
310
E2E2E2E2E2E2E2E2E2E2E2E2E2E2E2E2E2E2E2E2E2E2E2E2E2E2E2E2E2E2E2E2E2E2E2E2E2E2E2E2E2E2E2E2E2E2E2E2E2E2E2E2E2E2E2E2E2E2E2E2E2E2E2E2E2E2E2E2E2E2E2E2E2E2E2E2E2E2E2E2E2E2E2E2E2E2E2E2E2E2E2E2E2E2E2E2E2F5E2E2E2E2E2E2E2E2E2E2E2E2E2E2E2E2F5E2E2E2F5F5E2E2E2F5E2E2E2
310
E2E2E2E2E2E2E2E2E2E2E2E2E2F5E2E2E2E2E2E2E2E2E2E2E2E2E2E2E2E2E2E2E2E2E2E2E2E2E2E2E2E2E2E2E2E2E2E2E2E2E2E2E2E2E2E2E2E2E2E2E2E2E2E2E2E2E2E2E2E2E2E2E2E2E2E2E2E2E2E2E2E2E2E2E2E2E2E2E2E2E2E2E2E2E2E2E2E2E2E2E2E2E2E2E2E2E2E2E2E2E2E2E2E2E2E2E2E2E2E2E2E2E2E2E2E2E2
310
E2E2E2E2E2E2E2E2E2E2E2E2E2E2E2E2E2E2E2E2E2E2E2F5E2E2E2E2E2E2E2E2E2E2E2E2E2E2E2E2F5E2E2E2F5F5E2E2E2E2E2E2E2E2E2E2E2E2E2E2E2E2E2E2E2E2F5E2E2E2E2E2E2E2E2E2E2E2E2E2E2E2E2E2E2E2E2E2E2E2E2E2E2E2E2E2E2E2E2E2E2E2E2E2E2E2E2E2E2E2E2E2E2E2E2E2E2E2E2E2E2E2E2E2E2E2E2
310
E2E2E2E2E2E2E2E2E2E2E2E2E2E2E2E2E2E2E2E2E2E2E2E2E2E2E2E2E2E2E2E2E2E2E2E2E2E2E2E2E2E2E2E2E2E2E2E2E2E2E2E2E2E2E2E2E2E2E2E2E2E2E2E2E2E2E2E2E2E2E2E2E2E2E2E2F5E2E2E2E2E2E2E2E2E2E2E2E2E2E2E2E2E2E2E2E2F5F5E2E2E2E2E2E2E2E2E2E2E2E2E2E2E2E2E2E2E2E2F5E2E2E2E2E2E2E2
310
E2E2E2E2E2E2E2E2E2E2E2E2E2E2E2E2E2E2E2E2E2E2E2E2E2E2E2E2E2E2E2E2E2E2E2E2E2E2E2E2E2E2E2E2E2E2E2E2E2E2E2E2E2E2E2E2E2E2E2E2E2E2E2E2E2E2E2E2E2E2E2E2E2E2E2E2E2E2E2E2E2E2E2E2E2E2E2E2E2E2E2E2E2E2E2E2E2E2E2E2E2E2E2E2E2E2E2E2E2E2E2E2E2E2E2E2E2E2E2E2E2E2E2E2E2E2E2
310
E2E2F5E2E2E2E2E2E2E2E2E2E2E2E2E2E2E2E2E2E2E2E2F5F5E2E2E2E2E2E2E2E2E2E2E2E2E2E2E2E2E2E2E2E2F5E2E2E2E2E2E2E2E2E2E2E2E2E2E2E2E2E2E2E2E2E2E2E2E2E2E2E2E2E2E2E2E2E2E2E2E2E2E2E2E2E2E2E2E2E2E2E2E2E2E2E2E2E2E2E2E2E2E2E2E2E2E2E2E2E2E2E2E2E2E2E2E2E2E2E2E2E2E2E2E2E2
310
E2E2E2E2E2E2E2E2E2E2E2E2E2E2E2E2E2E2E2E2E2E2E2E2E2E2E2E2E2E2E2E2E2E2E2E2E2E2E2E2E2E2E2E2E2E2E2E2E2E2E2E2E2E2E2F5E2E2E2E2E2E2E2E2E2E2E2E2E2E2E2E2E2E2E2E2F5F5E2E2E2E2E2E2E2E2E2E2E2E2E2E2E2E2E2E2E2E2F5E2E2E2E2E2E2E2E2E2E2E2E2E2E2E2E2E2E2E2E2E2E2E2E2E2E2E2E2
310
E2E2E2E2E2E2E2E2E2E2E2E2E2E2E2E2E2E2E2E2E2E2E2E2E2E2E2E2E2E2E2E2E2E2E2E2E2E2E2E2E2E2E2E2E2E2E2E2E2E2E2E2E2E2E2E2E2E2E2E2E2E2E2E2E2E2E2E2E2E2E2E2E2E2E2E2E2E2E2E2E2E2E2E2E2E2E2E2E2E2E2E2E2E2E2E2E2E2E2E2E2E2E2E2E2E2E2E2F5E2E2E2E2E2E2E2E2E2E2E2E2E2E2E2E2E2E2
310
E2E2F5F5E2E2E2E2E2E2E2E2E2E2E2E2E2E2E2E2E2E2E2E2F5E2E2E2E2E2E2E2E2E2E2E2E2E2E2E2E2E2E2E2E2E2E2E2E2E2E2E2E2E2E2E2E2E2E2E2E2E2E2E2E2E2E2E2E2E2E2E2E2E2E2E2E2E2E2E2E2E2E2E2E2E2E2E2E2E2E2E2E2E2E2E2E2E2E2E2E2E2E2E2E2E2E2E2E2E2E2E2E2E2E2E2E2E2E2E2E2E2E2E2E2E2E2
310
E2E2E2E2E2E2E2E2E2E2E2E2E2E2E2E2E2E2E2E2E2E2E2E2E2E2E2E2E2E2E2E2E2E2F5E2E2E2E2E2E2E2E2E2E2E2E2E2E2E2E2E2E2E2E2F5F5E2E2E2E2E2E2E2E2E2E2E2E2E2E2E2E2E2E2E2E2F5E2E2E2E2E2E2E2E2E2E2E2E2E2E2E2E2E2E2E2E2E2E2E2E2E2E2E2E2E2E2E2E2E2E2E2E2E2E2E2E2E2E2E2E2E2E2E2E2E2
310
E2E2E2E2E2E2E2E2E2E2E2E2E2E2E2E2E2E2E2E2E2E2E2E2E2E2E2E2E2E2E2E2E2E2E2E2E2E2E2E2E2E2E2E2E2E2E2E2E2E2E2E2E2E2E2E2E2E2E2E2E2E2E2E2E2E2E2E2E2E2E2E2E2E2E2E2E2E2E2E2E2E2E2E2E2E2E2F5E2E2E2E2E2E2E2E2E2E2E2E2E2E2E2E2E2E2E2E2F5F5E2E2E2E2E2E2E2E2E2E2E2E2E2E2E2E2E2
310
E2E2E2F5E2E2E2E2E2E2E2E2E2E2E2E2E2E2E2E2E2E2E2E2E2E2E2E2E2E2E2E2E2E2E2E2E2E2E2E2E2E2E2E2E2E2E2E2E2E2E2E2E2E2E2E2E2E2E2E2E2E2E2E2E2E2E2E2E2E2E2E2E2E2E2E2E2E2E2E2E2E2E2E2E2E2E2E2E2E2E2E2E2E2E2E2E2E2E2E2E2E2E2E2E2E2E2E2E2E2E2E2E2E2E2E2E2E2E2E2E2E2E2E2E2E2E2
310
E2E2E2E2E2E2E2E2E2E2E2E2E2F5E2E2E2E2E2E2E2E2E2E2E2E2E2E2E2E2E2E2E2E2F5F5E2E2E2E2E2E2E2E2E2E2E2E2E2E2E2E2E2E2E2E2F5E2E2E2E2E2E2E2E2E2E2E2E2E2E2E2E2E2E2E2E2E2E2E2E2E2E2E2E2E2E2E2E2E2E2E2E2E2E2E2E2E2E2E2E2E2E2E2E2E2E2E2E2E2E2E2E2E2E2E2E2E2E2E2E2E2E2E2E2E2E2
310
E2E2E2E2E2E2E2E2E2E2E2E2E2E2E2E2E2E2E2E2E2E2E2E2E2E2E2E2E2E2E2E2E2E2E2E2E2E2E2E2E2E2E2E2E2E2E2E2E2E2E2E2E2E2E2E2E2E2E2E2E2E2E2E2E2E2F5E2E2E2E2E2E2E2E2E2E2E2E2E2E2E2E2E2E2E2E2F5F5E2E2E2E2E2E2E2E2E2E2E2E2E2E2E2E2E2E2E2E2F5E2E2E2E2E2E2E2E2E2E2E2E2E2E2E2E2E2
310
E2E2E2E2E2E2E2E2E2E2E2E2E2E2E2E2E2E2E2E2E2E2E2E2E2E2E2E2E2E2E2E2E2E2E2E2E2E2E2E2E2E2E2E2E2E2E2E2E2E2E2E2E2E2E2E2E2E2E2E2E2E2E2E2E2E2E2E2E2E2E2E2E2E2E2E2E2E2E2E2E2E2E2E2E2E2E2E2E2E2E2E2E2E2E2E2E2E2E2E2E2E2E2E2E2E2E2E2E2E2E2E2E2E2E2E2E2E2E2F5E2E2E2E2E2E2E2
310
E2E2E2E2E2E2E2E2E2E2E2E2E2F5F5E2E2E2F5E2E2E2E2E2E2E2E2E2E2E2E2E2E2E2E2F5E2E2E2E2E2E2E2E2E2E2E2E2E2E2E2E2E2E2E2E2E2E2E2E2E2E2E2E2E2E2E2E2E2E2E2E2E2E2E2E2E2E2E2E2E2E2E2E2E2E2E2E2E2E2E2E2E2E2E2E2E2E2E2E2E2E2E2E2E2E2E2E2E2E2E2E2E2E2E2E2E2E2E2E2E2E2E2E2E2E2E2
310
E2E2E2E2E2E2E2E2E2E2E2E2E2E2E2E2E2E2E2E2E2E2E2E2E2E2E2E2E2E2E2E2E2E2E2E2E2E2E2E2E2E2E2E2E2F5E2E2E2E2E2E2E2E2E2E2E2E2E2E2E2E2F5E2E2E2F5F5E2E2E2F5E2E2E2E2E2E2E2E2E2E2E2E2E2E2E2E2F5E2E2E2E2E2E2E2E2E2E2E2E2E2E2E2E2E2E2E2E2E2E2E2E2E2E2E2E2E2E2E2E2E2E2E2E2E2E2
310
E2E2E2E2E2E2E2E2E2E2E2E2E2E2E2E2E2E2E2E2E2E2E2E2E2E2E2E2E2E2E2E2E2E2E2E2E2E2E2E2E2E2E2E2E2E2E2E2E2E2E2E2E2E2E2E2E2E2E2E2E2E2E2E2E2E2E2E2E2E2E2E2E2E2E2E2E2E2E2E2E2E2E2E2E2E2E2E2E2E2E2E2E2E2E2E2E2E2F5E2E2E2E2E2E2E2E2E2E2E2E2E2E2E2E2F5E2E2E2F5F5E2E2E2F5E2E2
310
E2E2E2E2E2E2E2E2E2E2E2E2E2E2F5E2E2E2E2E2E2E2E2E2E2E2E2E2E2E2E2E2E2E2E2E2E2E2E2E2E2E2E2E2E2E2E2E2E2E2E2E2E2E2E2E2E2E2E2E2E2E2E2E2E2E2E2E2E2E2E2E2E2E2E2E2E2E2E2E2E2E2E2E2E2E2E2E2E2E2E2E2E2E2E2E2E2E2E2E2E2E2E2E2E2E2E2E2E2E2E2E2E2E2E2E2E2E2E2E2E2E2E2E2E2E2E2
310
E2E2E2E2E2E2E2E2E2E2E2E2E2E2E2E2E2E2E2E2E2E2E2E2F5E2E2E2E2E2E2E2E2E2E2E2E2E2E2E2E2F5E2E2E2F5F5E2E2E2F5E2E2E2E2E2E2E2E2E2E2E2E2E2E2E2E2F5E2E2E2E2E2E2E2E2E2E2E2E2E2E2E2E2E2E2E2E2E2E2E2E2E2E2E2E2E2E2E2E2E2E2E2E2E2E2E2E2E2E2E2E2E2E2E2E2E2E2E2E2E2E2E2E2E2E2E2
310
E2E2E2E2E2E2E2E2E2E2E2E2E2E2E2E2E2E2E2E2E2E2E2E2E2E2E2E2E2E2E2E2E2E2E2E2E2E2E2E2E2E2E2E2E2E2E2E2E2E2E2E2E2E2E2E2E2E2E2E2E2E2E2E2E2E2E2E2E2E2E2E2E2E2E2E2E2F5E2E2E2E2E2E2E2E2E2E2E2E2E2E2E2E2F5E2E2E2F5F5E2E2E2F5E2E2E2E2E2E2E2E2E2E2E2E2E2E2E2E2F5E2E2E2E2E2E2
310
E2E2E2E2E2E2E2E2E2E2E2E2E2E2E2E2E2E2E2E2E2E2E2E2E2E2E2E2E2E2E2E2E2E2E2E2E2E2E2E2E2E2E2E2E2E2E2E2E2E2E2E2E2E2E2E2E2E2E2E2E2E2E2E2E2E2E2E2E2E2E2E2E2E2E2E2E2E2E2E2E2E2E2E2E2E2E2E2E2E2E2E2E2E2E2E2E2E2E2E2E2E2E2E2E2E2E2E2E2E2E2E2E2E2E2E2E2E2E2E2E2E2E2E2E2E2E2
310
E2E2E2F5E2E2E2E2E2E2E2E2E2E2E2E2E2E2E2E2F5E2E2E2F5F5E2E2E2F5E2E2E2E2E2E2E2E2E2E2E2E2E2E2E2E2F5E2E2E2E2E2E2E2E2E2E2E2E2E2E2E2E2E2E2E2E2E2E2E2E2E2E2E2E2E2E2E2E2E2E2E2E2E2E2E2E2E2E2E2E2E2E2E2E2E2E2E2E2E2E2E2E2E2E2E2E2E2E2E2E2E2E2E2E2E2E2E2E2E2E2E2E2E2E2E2E2
310
E2E2E2E2E2E2E2E2E2E2E2E2E2E2E2E2E2E2E2E2E2E2E2E2E2E2E2E2E2E2E2E2E2E2E2E2E2E2E2E2E2E2E2E2E2E2E2E2E2E2E2E2E2E2E2E2F5E2E2E2E2E2E2E2E2E2E2E2E2E2E2E2E2F5E2E2E2F5F5E2E2E2F5E2E2E2E2E2E2E2E2E2E2E2E2E2E2E2E2F5E2E2E2E2E2E2E2E2E2E2E2E2E2E2E2E2E2E2E2E2E2E2E2E2E2E2E2
310
E2E2E2E2E2E2E2E2E2E2E2E2E2E2E2E2E2E2E2E2E2E2E2E2E2E2E2E2E2E2E2E2E2E2E2E2E2E2E2E2E2E2E2E2E2E2E2E2E2E2E2E2E2E2E2E2E2E2E2E2E2E2E2E2E2E2E2E2E2E2E2E2E2E2E2E2E2E2E2E2E2E2E2E2E2E2E2E2E2E2E2E2E2E2E2E2E2E2E2E2E2E2E2E2E2E2E2E2E2F5E2E2E2E2E2E2E2E2E2E2E2E2E2E2E2E2F5
310
E2E2E2F5F5E2E2E2F5E2E2E2E2E2E2E2E2E2E2E2E2E2E2E2E2F5E2E2E2E2E2E2E2E2E2E2E2E2E2E2E2E2E2E2E2E2E2E2E2E2E2E2E2E2E2E2E2E2E2E2E2E2E2E2E2E2E2E2E2E2E2E2E2E2E2E2E2E2E2E2E2E2E2E2E2E2E2E2E2E2E2E2E2E2E2E2E2E2E2E2E2E2E2E2E2E2E2E2E2E2E2E2E2E2E2E2E2E2E2E2E2E2E2E2E2E2E2
310
E2E2E2E2E2E2E2E2E2E2E2E2E2E2E2E2E2E2E2E2E2E2E2E2E2E2E2E2E2E2E2E2E2E2E2F5E2E2E2E2E2E2E2E2E2E2E2E2E2E2E2E2F5E2E2E2F5F5E2E2E2F5E2E2E2E2E2E2E2E2E2E2E2E2E2E2E2E2F5E2E2E2E2E2E2E2E2E2E2E2E2E2E2E2E2E2E2E2E2E2E2E2E2E2E2E2E2E2E2E2E2E2E2E2E2E2E2E2E2E2E2E2E2E2E2E2E2
310
E2E2E2E2E2E2E2E2E2E2E2E2E2E2E2E2E2E2E2E2E2E2E2E2E2E2E2E2E2E2E2E2E2E2E2E2E2E2E2E2E2E2E2E2E2E2E2E2E2E2E2E2E2E2E2E2E2E2E2E2E2E2E2E2E2E2E2E2E2E2E2E2E2E2E2E2E2E2E2E2E2E2E2E2E2E2E2E2F5E2E2E2E2E2E2E2E2E2E2E2E2E2E2E2E2F5E2E2E2F5F5E2E2E2F5E2E2E2E2E2E2E2E2E2E2E2E2
310
E2E2E2E2F5E2E2E2E2E2E2E2E2E2E2E2E2E2E2E2E2E2E2E2E2E2E2E2E2E2E2E2E2E2E2E2E2E2E2E2E2E2E2E2E2E2E2E2E2E2E2E2E2E2E2E2E2E2E2E2E2E2E2E2E2E2E2E2E2E2E2E2E2E2E2E2E2E2E2E2E2E2E2E2E2E2E2E2E2E2E2E2E2E2E2E2E2E2E2E2E2E2E2E2E2E2E2E2E2E2E2E2E2E2E2E2E2E2E2E2E2E2E2E2E2E2E2
310
E2E2E2E2E2E2E2E2E2E2E2E2E2E2F5E2E2E2E2E2E2E2E2E2E2E2E2E2E2E2E2F5E2E2E2F5F5E2E2E2F5E2E2E2E2E2E2E2E2E2E2E2E2E2E2E2E2F5E2E2E2E2E2E2E2E2E2E2E2E2E2E2E2E2E2E2E2E2E2E2E2E2E2E2E2E2E2E2E2E2E2E2E2E2E2E2E2E2E2E2E2E2E2E2E2E2E2E2E2E2E2E2E2E2E2E2E2E2E2E2E2E2E2E2E2E2E2
310
E2E2E2E2E2E2E2E2E2E2E2E2E2E2E2E2E2E2E2E2E2E2E2E2E2E2E2E2E2E2E2E2E2E2E2E2E2E2E2E2E2E2E2E2E2E2E2E2E2E2E2E2E2E2E2E2E2E2E2E2E2E2E2E2E2E2E2F5E2E2E2E2E2E2E2E2E2E2E2E2E2E2E2E2F5E2E2E2F5F5E2E2E2F5E2E2E2E2E2E2E2E2E2E2E2E2E2E2E2E2F5E2E2E2E2E2E2E2E2E2E2E2E2E2E2E2E2
310
E2E2E2E2E2E2E2E2E2E2E2E2E2E2E2E2E2E2E2E2E2E2E2E2E2E2E2E2E2E2E2E2E2E2E2E2E2E2E2E2E2E2E2E2E2E2E2E2E2E2E2E2E2E2E2E2E2E2E2E2E2E2E2E2E2E2E2E2E2E2E2E2E2E2E2E2E2E2E2E2E2E2E2E2E2E2E2E2E2E2E2E2E2E2E2E2E2E2E2E2E2E2E2E2E2E2E2E2E2E2E2E2E2E2E2E2E2E2E2E2F5E2E2E2E2E2E2
310
E2E2E2E2E2E2E2E2E2E2F5E2E2E2F5F5E2E2E2F5E2E2E2E2E2E2E2E2E2E2E2E2E2E2E2E2F5E2E2E2E2E2E2E2E2E2E2E2E2E2E2E2E2E2E2E2E2E2E2E2E2E2E2E2E2E2E2E2E2E2E2E2E2E2E2E2E2E2E2E2E2E2E2E2E2E2E2E2E2E2E2E2E2E2E2E2E2E2E2E2E2E2E2E2E2E2E2E2E2E2E2E2E2E2E2E2E2E2E2E2E2E2E2E2E2E2E2
310
E2E2E2E2E2E2E2E2E2E2E2E2E2E2E2E2E2E2E2E2E2E2E2E2E2E2E2E2E2E2E2E2E2E2E2E2E2E2E2E2E2E2E2E2E2E2F5E2E2E2E2E2E2E2E2E2E2E2E2E2E2E2E2F5E2E2E2F5F5E2E2E2F5E2E2E2E2E2E2E2E2E2E2E2E2E2E2E2E2F5E2E2E2E2E2E2E2E2E2E2E2E2E2E2E2E2E2E2E2E2E2E2E2E2E2E2E2E2E2E2E2E2E2E2E2E2E2
310
E2E2E2E2E2E2E2E2E2E2E2E2E2E2E2E2E2E2E2E2E2E2E2E2E2E2E2E2E2E2E2E2E2E2E2E2E2E2E2E2E2E2E2E2E2E2E2E2E2E2E2E2E2E2E2E2E2E2E2E2E2E2E2E2E2E2E2E2E2E2E2E2E2E2E2E2E2E2E2E2E2E2E2E2E2E2E2E2E2E2E2E2E2E2E2E2E2E2E2F5E2E2E2E2E2E2E2E2E2E2E2E2E2E2E2E2F5E2E2E2F5F5E2E2E2F5E2
310
E2E2E2E2E2E2E2E2E2E2E2E2E2E2E2F5E2E2E2E2E2E2E2E2E2E2E2E2E2E2E2E2E2E2E2E2E2E2E2E2E2E2E2E2E2E2E2E2E2E2E2E2E2E2E2E2E2E2E2E2E2E2E2E2E2E2E2E2E2E2E2E2E2E2E2E2E2E2E2E2E2E2E2E2E2E2E2E2E2E2E2E2E2E2E2E2E2E2E2E2E2E2E2E2E2E2E2E2E2E2E2E2E2E2E2E2E2E2E2E2E2E2E2E2E2E2E2
310
E2E2E2E2E2E2E2E2E2E2E2E2E2E2E2E2E2E2E2E2E2E2E2E2E2F5E2E2E2E2E2E2E2E2E2E2E2E2E2E2E2E2F5E2E2E2F5F5E2E2E2F5E2E2E2E2E2E2E2E2E2E2E2E2E2E2E2E2F5E2E2E2E2E2E2E2E2E2E2E2E2E2E2E2E2E2E2E2E2E2E2E2E2E2E2E2E2E2E2E2E2E2E2E2E2E2E2E2E2E2E2E2E2E2E2E2E2E2E2E2E2E2E2E2E2E2E2
310
E2E2E2E2E2E2E2E2E2E2E2E2E2E2E2E2E2E2E2E2E2E2E2E2E2E2E2E2E2E2E2E2E2E2E2E2E2E2E2E2E2E2E2E2E2E2E2E2E2E2E2E2E2E2E2E2E2E2E2E2E2E2E2E2E2E2E2E2E2E2E2E2E2E2E2E2E2E2F5E2E2E2E2E2E2E2E2E2E2E2E2E2E2E2E2F5E2E2E2F5F5E2E2E2F5E2E2E2E2E2E2E2E2E2E2E2E2E2E2E2E2F5E2E2E2E2E2
310
E2E2E2E2E2E2E2E2E2E2E2E2E2E2E2E2E2E2E2E2E2E2E2E2E2E2E2E2E2E2E2E2E2E2E2E2E2E2E2E2E2E2E2E2E2E2E2E2E2E2E2E2E2E2E2E2E2E2E2E2E2E2E2E2E2E2E2E2E2E2E2E2E2E2E2E2E2E2E2E2E2E2E2E2E2E2E2E2E2E2E2E2E2E2E2E2E2E2E2E2E2E2E2E2E2E2E2E2E2E2E2E2E2E2E2E2E2E2E2E2E2E2E2E2E2E2E2
310
E2E2E2E2F5E2E2E2E2E2E2E2E2E2E2E2E2E2E2E2E2F5E2E2E2F5F5E2E2E2E2E2E2E2E2E2E2E2E2E2E2E2E2E2E2E2E2F5E2E2E2E2E2E2E2E2E2E2E2E2E2E2E2E2E2E2E2E2E2E2E2E2E2E2E2E2E2E2E2E2E2E2E2E2E2E2E2E2E2E2E2E2E2E2E2E2E2E2E2E2E2E2E2E2E2E2E2E2E2E2E2E2E2E2E2E2E2E2E2E2E2E2E2E2E2E2E2
310
E2E2E2E2E2E2E2E2E2E2E2E2E2E2E2E2E2E2E2E2E2E2E2E2E2E2E2E2E2E2E2E2E2E2E2E2E2E2E2E2E2E2E2E2E2E2E2E2E2E2E2E2E2E2E2E2E2F5E2E2E2E2E2E2E2E2E2E2E2E2E2E2E2E2E2E2E2E2F5F5E2E2E2E2E2E2E2E2E2E2E2E2E2E2E2E2E2E2E2E2F5E2E2E2E2E2E2E2E2E2E2E2E2E2E2E2E2E2E2E2E2E2E2E2E2E2E2
310
E2E2E2E2E2E2E2E2E2E2E2E2E2E2E2E2E2E2E2E2E2E2E2E2E2E2E2E2E2E2E2E2E2E2E2E2E2E2E2E2E2E2E2E2E2E2E2E2E2E2E2E2E2E2E2E2E2E2E2E2E2E2E2E2E2E2E2E2E2E2E2E2E2E2E2E2E2E2E2E2E2E2E2E2E2E2E2E2E2E2E2E2E2E2E2E2E2E2E2E2E2E2E2E2E2E2E2E2E2E2F5E2E2E2E2E2E2E2E2E2E2E2E2E2E2E2E2
310
E2E2E2E2F5F5E2E2E2E2E2E2E2E2E2E2E2E2E2E2E2E2E2E2E2E2F5E2E2E2E2E2E2E2E2E2E2E2E2E2E2E2E2E2E2E2E2E2E2E2E2E2E2E2E2E2E2E2E2E2E2E2E2E2E2E2E2E2E2E2E2E2E2E2E2E2E2E2E2E2E2E2E2E2E2E2E2E2E2E2E2E2E2E2E2E2E2E2E2E2E2E2E2E2E2E2E2E2E2E2E2E2E2E2E2E2E2E2E2E2E2E2E2E2E2E2E2
310
E2E2E2E2E2E2E2E2E2E2E2E2E2E2E2E2E2E2E2E2E2E2E2E2E2E2E2E2E2E2E2E2E2E2E2E2F5E2E2E2E2E2E2E2E2E2E2E2E2E2E2E2E2E2E2E2E2F5F5E2E2E2E2E2E2E2E2E2E2E2E2E2E2E2E2E2E2E2E2F5E2E2E2E2E2E2E2E2E2E2E2E2E2E2E2E2E2E2E2E2E2E2E2E2E2E2E2E2E2E2E2E2E2E2E2E2E2E2E2E2E2E2E2E2E2E2E2
310
E2E2E2E2E2E2E2E2E2E2E2E2E2E2E2E2E2E2E2E2E2E2E2E2E2E2E2E2E2E2E2E2E2E2E2E2E2E2E2E2E2E2E2E2E2E2E2E2E2E2E2E2E2E2E2E2E2E2E2E2E2E2E2E2E2E2E2E2E2E2E2E2E2E2E2E2E2E2E2E2E2E2E2E2E2E2E2E2E2F5E2E2E2E2E2E2E2E2E2E2E2E2E2E2E2E2E2E2E2E2F5F5E2E2E2E2E2E2E2E2E2E2E2E2E2E2E2
310
E2E2E2E2E2F5F5F5F5F5F5F5F5F5F5F5F5F5F5F5F5F5F5F5F5F5F5F5F5F5F5F5F5F5F5F5F5F5F5F5F5F5F5F5F5F5F5F5F5F5F5F5F5F5F5F5F5F5F5F5F5F5F5F5F5F5F5F5F5F5F5F5F5F5F5F5F5F5F5F5F5F5F5F5F5F5F5F5F5F5F5F5F5F5F5F5F5F5F5F5F5F5F5F5F5F5F5F5F5F5F5F5F5F5F5F5F5F5F5F5F5F5F5F5F5F5F5
310
F5F5F5F5F5F5F5F5F5F5F5F5F5F5F5F5E2E2E2E2E2E2E2E2E2E2E2E2E2E2E2E2E2E2E2E2F5F5E2E2E2E2E2E2E2E2E2E2E2E2E2E2E2E2E2E2E2E2E2E2E2E2E2E2E2E2E2E2E2E2E2E2E2E2E2E2E2E2E2E2E2E2E2E2E2E2E2E2E2E2E2E2E2E2E2E2E2E2E2E2E2E2E2E2E2E2E2E2E2E2E2E2E2E2E2E2E2E2E2E2E2E2E2E2E2E2E2
310
E2E2E2E2E2E2E2E2E2E2E2E2E2E2E2E2E2E2E2E2E2E2E2E2E2E2E2E2E2E2E2E2E2E2E2E2E2E2E2E2E2E2E2E2E2E2E2E2E2E2E2E2E2E2E2E2E2E2E2E2E2E2E2E2E2E2E2E2E2E2E2E2E2E2E2E2E2E2E2E2E2E2E2E2E2E2E2E2E2F5F5E2E2E2E2E2E2E2E2E2E2E2E2E2E2E2E2E2E2E2E2E2E2E2E2E2E2E2E2E2E2E2E2E2E2E2E2
310
E2E2E2E2E2E2E2E2E2E2E2E2E2E2E2E2E2E2E2E2E2E2E2E2E2E2E2E2E2E2E2E2E2E2E2E2E2E2E2E2E2E2E2E2E2E2E2E2E2E2E2E2E2E2E2E2E2E2E2E2E2E2E2E2E2E2E2E2E2E2E2E2E2E2E2E2E2E2E2E2E2E2E2E2E2E2E2E2E2E2E2E2E2E2E2E2E2E2E2E2E2E2E2E2E2E2E2E2E2E2E2E2E2E2E2E2E2E2E2E2E2E2E2E2E2E2E2
310
E2E2E2E2E2E2E2E2E2E2E2E2E2E2E2F5F5E2E2E2E2E2E2E2E2E2E2E2E2E2E2E2E2E2E2E2E2E2E2E2E2E2E2E2E2E2E2E2E2E2E2E2E2E2E2E2E2E2E2E2E2E2E2E2E2E2E2E2E2E2E2E2E2E2E2E2E2E2E2E2E2E2E2E2E2E2E2E2E2E2E2E2E2E2E2E2E2E2E2E2E2E2E2E2E2E2E2E2E2E2E2E2E2E2E2E2E2E2E2E2E2E2E2E2E2E2E2
310
E2E2E2E2E2E2E2E2E2E2E2E2E2E2E2E2E2E2E2E2E2E2E2E2E2E2E2E2E2E2E2E2E2E2E2E2E2E2E2E2E2E2E2E2E2E2E2E2E2E2E2E2E2E2E2E2E2E2E2E2E2E2E2E2E2E2E2E2F5F5E2E2E2E2E2E2E2E2E2E2E2E2E2E2E2E2E2E2E2E2E2E2E2E2E2E2E2E2E2E2E2E2E2E2E2E2E2E2E2E2E2E2E2E2E2E2E2E2E2E2E2E2E2E2E2E2E2
310
E2E2E2E2E2E2E2E2E2E2E2E2E2E2E2E2E2E2E2E2E2E2E2E2E2E2E2E2E2E2E2E2E2E2E2E2E2E2E2E2E2E2E2E2E2E2E2E2E2E2E2E2E2E2E2E2E2E2E2E2E2E2E2E2E2E2E2E2E2E2E2E2E2E2E2E2E2E2E2E2E2E2E2E2E2E2E2E2E2E2E2E2E2E2E2E2E2E2E2E2E2E2E2E2E2E2E2E2E2E2E2E2E2E2E2E2E2E2E2E2E2F5F5E2E2E2F5
310
E2E2E2E2E2E2E2E2E2E2E2E2E2E2E2E2E2E2E2E2E2E2E2E2E2E2E2E2E2E2E2E2E2E2E2E2E2E2E2E2E2E2E2E2E2E2E2E2E2E2E2E2E2E2E2E2E2E2E2E2E2E2E2E2E2E2E2E2E2E2E2E2E2E2E2E2E2E2E2E2E2E2E2E2E2E2E2E2E2E2E2E2E2E2E2E2E2E2E2E2E2E2E2E2E2E2E2E2E2E2E2E2E2E2E2E2E2E2E2E2E2E2E2E2E2E2E2
310
E2E2E2E2E2E2E2E2E2E2E2E2E2E2E2E2E2E2E2E2E2E2E2E2E2E2E2E2E2E2E2E2E2E2E2E2E2E2E2E2E2E2E2F5E2E2E2F5F5E2E2E2F5E2E2E2E2E2E2E2E2E2E2E2E2E2E2E2E2E2E2E2E2E2E2E2E2E2E2E2E2E2E2E2E2E2E2E2E2E2E2E2E2E2E2E2E2E2E2E2E2E2E2E2E2E2E2E2E2E2E2E2E2E2E2E2E2E2E2E2E2E2E2E2E2E2E2
310
E2E2E2E2E2E2E2E2E2E2E2E2E2E2E2E2E2E2E2E2E2E2E2E2E2E2E2E2E2E2E2E2E2E2E2E2E2E2E2E2E2E2E2E2E2E2E2E2E2E2E2E2E2E2E2E2E2E2E2E2E2E2E2E2E2E2E2E2E2E2E2E2E2E2E2E2E2E2E2E2E2E2E2E2E2E2E2E2E2E2E2E2E2E2E2E2F5E2E2E2F5F5E2E2E2F5E2E2E2E2E2E2E2E2E2E2E2E2E2E2E2E2E2E2E2E2E2
310
E2E2E2E2E2E2E2E2E2E2E2E2E2E2E2E2E2E2E2E2E2E2E2E2E2E2E2E2E2E2E2E2E2E2E2E2E2E2E2E2E2E2E2E2E2E2E2E2E2E2E2E2E2E2E2E2E2E2E2E2E2E2E2E2E2E2E2E2E2E2E2E2E2E2E2E2E2E2E2E2E2E2E2E2E2E2E2E2E2E2E2E2E2E2E2E2E2E2E2E2E2E2E2E2E2E2E2E2E2E2E2E2E2E2E2E2E2E2E2E2E2E2E2E2E2E2E2
310
E2E2E2E2E2E2E2E2E2E2E2E2E2E2E2E2E2E2E2E2E2E2F5E2E2E2F5F5E2E2E2F5E2E2E2E2E2E2E2E2E2E2E2E2E2E2E2E2E2E2E2E2E2E2E2E2E2E2E2E2E2E2E2E2E2E2E2E2E2E2E2E2E2E2E2E2E2E2E2E2E2E2E2E2E2E2E2E2E2E2E2E2E2E2E2E2E2E2E2E2E2E2E2E2E2E2E2E2E2E2E2E2E2E2E2E2E2E2E2E2E2E2E2E2E2E2E2
310
E2E2E2E2E2E2E2E2E2E2E2E2E2E2E2E2E2E2E2E2E2E2E2E2E2E2E2E2E2E2E2E2E2E2E2E2E2E2E2E2E2E2E2E2E2E2E2E2E2E2E2E2E2E2E2E2E2E2E2E2E2E2E2E2E2E2E2E2E2E2E2E2E2E2E2F5E2E2E2F5F5E2E2E2F5E2E2E2E2E2E2E2E2E2E2E2E2E2E2E2E2E2E2E2E2E2E2E2E2E2E2E2E2E2E2E2E2E2E2E2E2E2E2E2E2E2E2
310
E2E2E2E2E2E2E2E2E2E2E2E2E2E2E2E2E2E2E2E2E2E2E2E2E2E2E2E2E2E2E2E2E2E2E2E2E2E2E2E2E2E2E2E2E2E2E2E2E2E2E2E2E2E2E2E2E2E2E2E2E2E2E2E2E2E2E2E2E2E2E2E2E2E2E2E2E2E2E2E2E2E2E2E2E2E2E2E2E2E2E2E2E2E2E2E2E2E2E2E2E2E2E2E2E2E2E2E2E2E2E2E2E2E2E2E2E2E2E2E2E2E2E2E2E2E2E2
310
E2F5E2E2E2F5F5E2E2E2F5E2E2E2E2E2E2E2E2E2E2E2E2E2E2E2E2E2E2E2E2E2E2E2E2E2E2E2E2E2E2E2E2E2E2E2E2E2E2E2E2E2E2E2E2E2E2E2E2E2E2E2E2E2E2E2E2E2E2E2E2E2E2E2E2E2E2E2E2E2E2E2E2E2E2E2E2E2E2E2E2E2E2E2E2E2E2E2E2E2E2E2E2E2E2E2E2E2E2E2E2E2E2E2E2E2E2E2E2E2E2E2E2E2E2E2E2
310
E2E2E2E2E2E2E2E2E2E2E2E2E2E2E2E2E2E2E2E2E2E2E2E2E2E2E2E2E2E2E2E2E2E2E2E2E2E2E2E2E2E2E2E2E2E2E2E2E2E2E2E2E2E2F5E2E2E2F5F5E2E2E2F5E2E2E2E2E2E2E2E2E2E2E2E2E2E2E2E2E2E2E2E2E2E2E2E2E2E2E2E2E2E2E2E2E2E2E2E2E2E2E2E2E2E2E2E2E2E2E2E2E2E2E2E2E2E2E2E2E2E2E2E2E2E2E2
310
E2E2E2E2E2E2E2E2E2E2E2E2E2E2E2E2E2E2E2E2E2E2E2E2E2E2E2E2E2E2E2E2E2E2E2E2E2E2E2E2E2E2E2E2E2E2E2E2E2E2E2E2E2E2E2E2E2E2E2E2E2E2E2E2E2E2E2E2E2E2E2E2E2E2E2E2E2E2E2E2E2E2E2E2E2E2E2E2E2E2E2E2E2E2E2E2E2E2E2E2E2E2E2E2E2E2E2F5E2E2E2F5F5E2E2E2F5E2E2E2E2E2E2E2E2E2E2
310
E2E2E2E2E2E2E2E2E2E2E2E2E2E2E2E2E2E2E2E2E2E2E2E2E2E2E2E2E2E2E2E2E2E2E2E2E2E2E2E2E2E2E2E2E2E2E2E2E2E2E2E2E2E2E2E2E2E2E2E2E2E2E2E2E2E2E2E2E2E2E2E2E2E2E2E2E2E2E2E2E2E2E2E2E2E2E2E2E2E2E2E2E2E2E2E2E2E2E2E2E2E2E2E2E2E2E2E2E2E2E2E2E2E2E2E2E2E2E2E2E2E2E2E2E2E2E2
310
E2E2E2E2E2E2E2E2E2E2E2E2E2E2E2E2E2E2E2E2E2E2E2E2E2E2E2E2E2E2E2E2E2F5E2E2E2F5F5E2E2E2F5F5F5F5F5F5F5F5E2E2E2E2E2E2E2E2E2F5F5F5F5F5F5F5F5F5F5F5F5F5F5F5F5E2E2E2E2E2E2E2E2E2F5F5F5F5F5F5F5F5F5F5F5F5F5F5F5E2E2E2E2E2E2E2E2E2F5F5F5F5F5F5F5F5F5F5F5F5F5F5F5F5E2E2E2
310
E2E2E2E2E2F5F5F5F5F5F5F5F5F5F5F5F5F5F5F5F5E2E2E2E2E2E2E2E2E2F5F5F5F5F5F5F5F5F5F5F5F5F5F5F5E2E2E2E2E2E2E2E2E2F5F5F5F5F5F5F5F5F5F5F5F5F5F5F5F5E2E2E2E2E2E2E2E2E2F5F5F5F5F5F5F5F5E2E2E2F5F5E2E2E2E2E2E2E2E2E2E2E2E2E2E2E2E2E2E2E2E2E2E2E2E2E2E2E2E2E2E2E2E2E2E2E2
310
E2E2E2E2E2E2E2E2E2E2E2E2E2E2E2E2E2E2E2E2E2E2E2E2E2E2E2E2E2E2E2E2E2E2E2E2E2E2E2E2E2E2E2E2E2E2E2E2E2E2E2E2E2E2E2E2E2E2E2E2E2E2E2E2E2E2E2E2E2E2E2E2E2E2E2E2E2E2E2E2E2E2E2E2E2E2E2E2E2E2E2E2E2E2E2E2E2E2E2E2E2E2E2E2E2E2E2E2E2E2E2E2E2E2E2E2E2E2E2E2E2E2E2E2E2E2E2
310
E2E2E2E2E2E2E2E2E2E2E2E2E2E2E2E2F5F5E2E2E2E2E2E2E2E2E2E2E2E2E2E2E2E2E2E2E2E2E2E2E2E2E2E2E2E2E2E2E2E2E2E2E2E2E2E2E2E2E2E2E2E2E2E2E2E2E2E2E2E2E2E2E2E2E2E2E2E2E2E2E2E2E2E2E2E2E2E2E2E2E2E2E2E2E2E2E2E2E2E2E2E2E2E2E2E2E2E2E2E2E2E2E2E2E2E2E2E2E2E2E2E2E2E2E2E2E2
310
E2E2E2E2E2E2E2E2E2E2E2E2E2E2E2E2E2E2E2E2E2E2E2E2E2E2E2E2E2E2E2E2E2E2E2E2E2E2E2E2E2E2E2E2E2E2E2E2E2E2E2E2E2E2E2E2E2E2E2E2E2E2E2E2E2E2E2E2E2F5F5E2E2E2E2E2E2E2E2E2E2E2E2E2E2E2E2E2E2E2E2E2E2E2E2E2E2E2E2E2E2E2E2E2E2E2E2E2E2E2E2E2E2E2E2E2E2E2E2E2E2E2E2E2E2E2E2
310
E2E2E2E2E2E2E2E2E2E2E2E2E2E2E2E2E2E2E2E2E2E2E2E2E2E2E2E2E2E2E2E2E2E2E2E2E2E2E2E2E2E2E2E2E2E2E2E2E2E2E2E2E2E2E2E2E2E2E2E2E2E2E2E2E2E2E2E2E2E2E2E2E2E2E2E2E2E2E2E2E2E2E2E2E2E2E2E2E2E2E2E2E2E2E2E2E2E2E2E2E2E2E2E2E2E2E2E2E2E2E2E2E2E2E2E2E2E2E2E2E2E2F5F5E2E2E2
310
E2E2E2E2E2E2E2E2E2E2E2E2E2E2E2E2E2E2E2E2E2E2E2E2E2E2E2E2E2E2E2E2E2E2E2E2E2E2E2E2E2E2E2E2E2E2E2E2E2E2E2E2E2E2E2E2E2E2E2E2E2E2E2E2E2E2E2E2E2E2E2E2E2E2E2E2E2E2E2E2E2E2E2E2E2E2E2E2E2E2E2E2E2E2E2E2E2E2E2E2E2E2E2E2E2E2E2E2E2E2E2E2E2E2E2E2E2E2E2E2E2E2E2E2E2E2E2
310
E2E2E2E2E2E2E2E2E2E2E2E2E2E2E2E2E2E2E2E2E2E2E2E2E2E2E2E2E2E2E2E2E2E2E2E2E2E2E2E2E2E2E2E2E2E2E2E2F5
  0
XRECORD
  5
60C84
102
{ACAD_REACTORS
330
60C83
102
}
330
60C83
100
AcDbXrecord
280
     1
102
SHADEPLOT
 70
     0
102
SHADEPLOTRESLEVEL
 70
     2
102
SHADEPLOTCUSTOMDPI
 70
   300
  0
ENDSEC
  0
EOF
