  0
SECTION
  2
HEADER
  9
$ACADVER
  1
AC1015
  9
$ACADMAINTVER
 70
    20
  9
$DWGCODEPAGE
  3
ANSI_936
  9
$INSBASE
 10
0.0
 20
0.0
 30
0.0
  9
$EXTMIN
 10
-65.01666666666671
 20
-174.5931599028394
 30
0.0
  9
$EXTMAX
 10
375.2179730839513
 20
125.2043569669982
 30
0.0
  9
$LIMMIN
 10
0.0
 20
0.0
  9
$LIMMAX
 10
420.0
 20
297.0
  9
$ORTHOMODE
 70
     0
  9
$REGENMODE
 70
     1
  9
$FILLMODE
 70
     1
  9
$QTEXTMODE
 70
     0
  9
$MIRRTEXT
 70
     1
  9
$LTSCALE
 40
1.0
  9
$ATTMODE
 70
     1
  9
$TEXTSIZE
 40
3.5
  9
$TRACEWID
 40
1.0
  9
$TEXTSTYLE
  7
simplex
  9
$CLAYER
  8
0
  9
$CELTYPE
  6
ByLayer
  9
$CECOLOR
 62
   256
  9
$CELTSCALE
 40
1.0
  9
$DISPSILH
 70
     0
  9
$DIMSCALE
 40
0.0
  9
$DIMASZ
 40
3.5
  9
$DIMEXO
 40
0.0
  9
$DIMDLI
 40
0.38
  9
$DIMRND
 40
0.0
  9
$DIMDLE
 40
0.0
  9
$DIMEXE
 40
1.5
  9
$DIMTP
 40
0.0
  9
$DIMTM
 40
0.0
  9
$DIMTXT
 40
3.5
  9
$DIMCEN
 40
0.09
  9
$DIMTSZ
 40
0.0
  9
$DIMTOL
 70
     0
  9
$DIMLIM
 70
     0
  9
$DIMTIH
 70
     0
  9
$DIMTOH
 70
     0
  9
$DIMSE1
 70
     0
  9
$DIMSE2
 70
     0
  9
$DIMTAD
 70
     1
  9
$DIMZIN
 70
     8
  9
$DIMBLK
  1

  9
$DIMASO
 70
     1
  9
$DIMSHO
 70
     1
  9
$DIMPOST
  1

  9
$DIMAPOST
  1

  9
$DIMALT
 70
     0
  9
$DIMALTD
 70
     2
  9
$DIMALTF
 40
25.4
  9
$DIMLFAC
 40
1.0
  9
$DIMTOFL
 70
     0
  9
$DIMTVP
 40
0.0
  9
$DIMTIX
 70
     0
  9
$DIMSOXD
 70
     0
  9
$DIMSAH
 70
     0
  9
$DIMBLK1
  1

  9
$DIMBLK2
  1

  9
$DIMSTYLE
  2
\M+18352\M+18373\M+1815B - ISO-25
  9
$DIMCLRD
 70
   256
  9
$DIMCLRE
 70
   256
  9
$DIMCLRT
 70
   256
  9
$DIMTFAC
 40
1.0
  9
$DIMGAP
 40
2.299999999999998
  9
$DIMJUST
 70
     0
  9
$DIMSD1
 70
     0
  9
$DIMSD2
 70
     0
  9
$DIMTOLJ
 70
     1
  9
$DIMTZIN
 70
     8
  9
$DIMALTZ
 70
     0
  9
$DIMALTTZ
 70
     0
  9
$DIMUPT
 70
     0
  9
$DIMDEC
 70
     2
  9
$DIMTDEC
 70
     2
  9
$DIMALTU
 70
     2
  9
$DIMALTTD
 70
     2
  9
$DIMTXSTY
  7
simplex
  9
$DIMAUNIT
 70
     0
  9
$DIMADEC
 70
     0
  9
$DIMALTRND
 40
0.0
  9
$DIMAZIN
 70
     0
  9
$DIMDSEP
 70
    46
  9
$DIMATFIT
 70
     3
  9
$DIMFRAC
 70
     0
  9
$DIMLDRBLK
  1

  9
$DIMLUNIT
 70
     2
  9
$DIMLWD
 70
    -1
  9
$DIMLWE
 70
    -1
  9
$DIMTMOVE
 70
     0
  9
$LUNITS
 70
     2
  9
$LUPREC
 70
     4
  9
$SKETCHINC
 40
1.0
  9
$FILLETRAD
 40
1.5
  9
$AUNITS
 70
     0
  9
$AUPREC
 70
     0
  9
$MENU
  1
.
  9
$ELEVATION
 40
0.0
  9
$PELEVATION
 40
0.0
  9
$THICKNESS
 40
0.0
  9
$LIMCHECK
 70
     0
  9
$CHAMFERA
 40
10.0
  9
$CHAMFERB
 40
10.0
  9
$CHAMFERC
 40
20.0
  9
$CHAMFERD
 40
0.0
  9
$SKPOLY
 70
     0
  9
$TDCREATE
 40
2455489.391063368
  9
$TDUCREATE
 40
2455489.057730035
  9
$TDUPDATE
 40
2458416.654684699
  9
$TDUUPDATE
 40
2458416.321351366
  9
$TDINDWG
 40
2.0154906713
  9
$TDUSRTIMER
 40
2.0154389583
  9
$USRTIMER
 70
     1
  9
$ANGBASE
 50
0.0
  9
$ANGDIR
 70
     0
  9
$PDMODE
 70
     0
  9
$PDSIZE
 40
0.0
  9
$PLINEWID
 40
0.0
  9
$SPLFRAME
 70
     0
  9
$SPLINETYPE
 70
     6
  9
$SPLINESEGS
 70
     8
  9
$HANDSEED
  5
60F93
  9
$SURFTAB1
 70
     6
  9
$SURFTAB2
 70
     6
  9
$SURFTYPE
 70
     6
  9
$SURFU
 70
     6
  9
$SURFV
 70
     6
  9
$UCSBASE
  2

  9
$UCSNAME
  2

  9
$UCSORG
 10
0.0
 20
0.0
 30
0.0
  9
$UCSXDIR
 10
1.0
 20
0.0
 30
0.0
  9
$UCSYDIR
 10
0.0
 20
1.0
 30
0.0
  9
$UCSORTHOREF
  2

  9
$UCSORTHOVIEW
 70
     0
  9
$UCSORGTOP
 10
0.0
 20
0.0
 30
0.0
  9
$UCSORGBOTTOM
 10
0.0
 20
0.0
 30
0.0
  9
$UCSORGLEFT
 10
0.0
 20
0.0
 30
0.0
  9
$UCSORGRIGHT
 10
0.0
 20
0.0
 30
0.0
  9
$UCSORGFRONT
 10
0.0
 20
0.0
 30
0.0
  9
$UCSORGBACK
 10
0.0
 20
0.0
 30
0.0
  9
$PUCSBASE
  2

  9
$PUCSNAME
  2

  9
$PUCSORG
 10
0.0
 20
0.0
 30
0.0
  9
$PUCSXDIR
 10
1.0
 20
0.0
 30
0.0
  9
$PUCSYDIR
 10
0.0
 20
1.0
 30
0.0
  9
$PUCSORTHOREF
  2

  9
$PUCSORTHOVIEW
 70
     0
  9
$PUCSORGTOP
 10
0.0
 20
0.0
 30
0.0
  9
$PUCSORGBOTTOM
 10
0.0
 20
0.0
 30
0.0
  9
$PUCSORGLEFT
 10
0.0
 20
0.0
 30
0.0
  9
$PUCSORGRIGHT
 10
0.0
 20
0.0
 30
0.0
  9
$PUCSORGFRONT
 10
0.0
 20
0.0
 30
0.0
  9
$PUCSORGBACK
 10
0.0
 20
0.0
 30
0.0
  9
$USERI1
 70
     0
  9
$USERI2
 70
     0
  9
$USERI3
 70
     0
  9
$USERI4
 70
     0
  9
$USERI5
 70
     0
  9
$USERR1
 40
0.0
  9
$USERR2
 40
0.0
  9
$USERR3
 40
0.0
  9
$USERR4
 40
0.0
  9
$USERR5
 40
0.0
  9
$WORLDVIEW
 70
     1
  9
$SHADEDGE
 70
     3
  9
$SHADEDIF
 70
    70
  9
$TILEMODE
 70
     1
  9
$MAXACTVP
 70
    64
  9
$PINSBASE
 10
0.0
 20
0.0
 30
0.0
  9
$PLIMCHECK
 70
     0
  9
$PEXTMIN
 10
26.66999878883364
 20
20.31999878883365
 30
0.0
  9
$PEXTMAX
 10
240.0299890995025
 20
182.8799890995025
 30
0.0
  9
$PLIMMIN
 10
-6.350006103515625
 20
-6.349999904632567
  9
$PLIMMAX
 10
273.0499877929688
 20
209.5499939918518
  9
$UNITMODE
 70
     0
  9
$VISRETAIN
 70
     1
  9
$PLINEGEN
 70
     0
  9
$PSLTSCALE
 70
     1
  9
$TREEDEPTH
 70
  3020
  9
$CMLSTYLE
  2
Standard
  9
$CMLJUST
 70
     0
  9
$CMLSCALE
 40
20.0
  9
$PROXYGRAPHICS
 70
     1
  9
$MEASUREMENT
 70
     1
  9
$CELWEIGHT
370
    -1
  9
$ENDCAPS
280
     0
  9
$JOINSTYLE
280
     0
  9
$LWDISPLAY
290
     0
  9
$INSUNITS
 70
     4
  9
$HYPERLINKBASE
  1

  9
$STYLESHEET
  1

  9
$XEDIT
290
     1
  9
$CEPSNTYPE
380
     0
  9
$PSTYLEMODE
290
     1
  9
$FINGERPRINTGUID
  2
{601DDA01-5B13-4A4C-8F56-1333B78D855B}
  9
$VERSIONGUID
  2
{6AACB9C7-CD5A-448F-87DE-54EBD3E7CB78}
  9
$EXTNAMES
290
     1
  9
$PSVPSCALE
 40
0.0
  9
$OLESTARTUP
290
     0
  0
ENDSEC
  0
SECTION
  2
CLASSES
  0
CLASS
  1
ACDBDICTIONARYWDFLT
  2
AcDbDictionaryWithDefault
  3
ObjectDBX Classes
 90
        0
280
     0
281
     0
  0
CLASS
  1
ACDBPLACEHOLDER
  2
AcDbPlaceHolder
  3
ObjectDBX Classes
 90
        0
280
     0
281
     0
  0
CLASS
  1
LAYOUT
  2
AcDbLayout
  3
ObjectDBX Classes
 90
        0
280
     0
281
     0
  0
CLASS
  1
DICTIONARYVAR
  2
AcDbDictionaryVar
  3
ObjectDBX Classes
 90
        0
280
     0
281
     0
  0
CLASS
  1
TABLESTYLE
  2
AcDbTableStyle
  3
ObjectDBX Classes
 90
     2047
280
     0
281
     0
  0
CLASS
  1
SORTENTSTABLE
  2
AcDbSortentsTable
  3
ObjectDBX Classes
 90
        0
280
     0
281
     0
  0
CLASS
  1
DIMASSOC
  2
AcDbDimAssoc
  3
"AcDbDimAssoc|Product Desc:     AcDim ARX App For Dimension|Company:          Autodesk, Inc.|WEB Address:      www.autodesk.com"
 90
        0
280
     0
281
     0
  0
CLASS
  1
ACAD_EVALUATION_GRAPH
  2
AcDbEvalGraph
  3
ObjectDBX Classes
 90
    33921
280
     0
281
     0
  0
CLASS
  1
ACAECUSTOBJ
  2
AcAeEditorObj
  3
AcAeEditorObj
 90
    33792
280
     0
281
     0
  0
CLASS
  1
ACDB_DYNAMICBLOCKPURGEPREVENTER_VERSION
  2
AcDbDynamicBlockPurgePreventer
  3
ObjectDBX Classes
 90
    33921
280
     0
281
     0
  0
ENDSEC
  0
SECTION
  2
TABLES
  0
TABLE
  2
VPORT
  5
8
330
0
100
AcDbSymbolTable
 70
    32
  0
VPORT
  5
60F84
330
8
100
AcDbSymbolTableRecord
100
AcDbViewportTableRecord
  2
*Active
 70
     0
 10
0.0
 20
0.0
 11
1.0
 21
1.0
 12
49.98438212458996
 22
16.96460733920315
 13
0.0
 23
0.0
 14
10.0
 24
10.0
 15
10.0
 25
10.0
 16
0.0
 26
0.0
 36
1.0
 17
0.0
 27
0.0
 37
0.0
 40
273.4868820134896
 41
1.381443298969072
 42
50.0
 43
0.0
 44
0.0
 50
0.0
 51
0.0
 71
     0
 72
  1000
 73
     1
 74
     1
 75
     0
 76
     0
 77
     0
 78
     0
281
     0
 65
     1
110
0.0
120
0.0
130
0.0
111
1.0
121
0.0
131
0.0
112
0.0
122
1.0
132
0.0
 79
     0
146
0.0
  0
ENDTAB
  0
TABLE
  2
LTYPE
  5
5
330
0
100
AcDbSymbolTable
 70
     4
  0
LTYPE
  5
14
330
5
100
AcDbSymbolTableRecord
100
AcDbLinetypeTableRecord
  2
ByBlock
 70
     0
  3

 72
    65
 73
     0
 40
0.0
  0
LTYPE
  5
15
330
5
100
AcDbSymbolTableRecord
100
AcDbLinetypeTableRecord
  2
ByLayer
 70
     0
  3

 72
    65
 73
     0
 40
0.0
  0
LTYPE
  5
16
330
5
100
AcDbSymbolTableRecord
100
AcDbLinetypeTableRecord
  2
Continuous
 70
     0
  3
Solid line
 72
    65
 73
     0
 40
0.0
  0
LTYPE
  5
D7
330
5
100
AcDbSymbolTableRecord
100
AcDbLinetypeTableRecord
  2
HIDDEN
 70
     0
  3
Hidden __ __ __ __ __ __ __ __ __ __ __ __ __ _
 72
    65
 73
     2
 40
9.524999999999996
 49
6.349999999999997
 74
     0
 49
-3.174999999999998
 74
     0
  0
LTYPE
  5
D9
330
5
100
AcDbSymbolTableRecord
100
AcDbLinetypeTableRecord
  2
CENTER
 70
     0
  3
Center ____ _ ____ _ ____ _ ____ _ ____ _ ____
 72
    65
 73
     4
 40
50.8
 49
31.75
 74
     0
 49
-6.349999999999997
 74
     0
 49
6.349999999999997
 74
     0
 49
-6.349999999999997
 74
     0
  0
LTYPE
  5
35815
330
5
100
AcDbSymbolTableRecord
100
AcDbLinetypeTableRecord
  2
PHANTOM
 70
     0
  3
_____ _ _ _____ _ _ _____ _ _ _____
 72
    65
 73
     6
 40
0.8
 49
0.45
 74
     0
 49
-0.05
 74
     0
 49
0.1
 74
     0
 49
-0.05
 74
     0
 49
0.1
 74
     0
 49
-0.05
 74
     0
  0
ENDTAB
  0
TABLE
  2
LAYER
  5
2
102
{ACAD_XDICTIONARY
360
E2
102
}
330
0
100
AcDbSymbolTable
 70
    40
  0
LAYER
  5
10
330
2
100
AcDbSymbolTableRecord
100
AcDbLayerTableRecord
  2
0
 70
     0
 62
     7
  6
Continuous
370
    -3
390
F
  0
LAYER
  5
D1
330
2
100
AcDbSymbolTableRecord
100
AcDbLayerTableRecord
  2
1
 70
     0
 62
     4
  6
Continuous
370
    50
390
F
1001
AcAecLayerStandard
1000

1000

  0
LAYER
  5
D3
330
2
100
AcDbSymbolTableRecord
100
AcDbLayerTableRecord
  2
2
 70
     0
 62
     7
  6
Continuous
370
    25
390
F
1001
AcAecLayerStandard
1000

1000

  0
LAYER
  5
D4
330
2
100
AcDbSymbolTableRecord
100
AcDbLayerTableRecord
  2
3
 70
     0
 62
     1
  6
HIDDEN
370
    35
390
F
1001
AcAecLayerStandard
1000

1000

  0
LAYER
  5
D8
330
2
100
AcDbSymbolTableRecord
100
AcDbLayerTableRecord
  2
4
 70
     0
 62
     2
  6
CENTER
370
    25
390
F
1001
AcAecLayerStandard
1000

1000

  0
LAYER
  5
DA
330
2
100
AcDbSymbolTableRecord
100
AcDbLayerTableRecord
  2
6
 70
     0
 62
     5
  6
Continuous
370
    35
390
F
1001
AcAecLayerStandard
1000

1000

  0
LAYER
  5
DB
330
2
100
AcDbSymbolTableRecord
100
AcDbLayerTableRecord
  2
cut
 70
     0
 62
     1
  6
Continuous
370
    25
390
F
1001
AcAecLayerStandard
1000

1000

  0
LAYER
  5
DC
330
2
100
AcDbSymbolTableRecord
100
AcDbLayerTableRecord
  2
nocut
 70
     0
 62
     7
  6
Continuous
370
    25
390
F
1001
AcAecLayerStandard
1000

1000

  0
LAYER
  5
DD
330
2
100
AcDbSymbolTableRecord
100
AcDbLayerTableRecord
  2
sk1
 70
     0
 62
     4
  6
Continuous
370
    50
390
F
1001
AcAecLayerStandard
1000

1000

  0
LAYER
  5
DE
330
2
100
AcDbSymbolTableRecord
100
AcDbLayerTableRecord
  2
sk2
 70
     0
 62
     7
  6
Continuous
370
    25
390
F
1001
AcAecLayerStandard
1000

1000

  0
LAYER
  5
DF
330
2
100
AcDbSymbolTableRecord
100
AcDbLayerTableRecord
  2
sk3
 70
     0
 62
     1
  6
HIDDEN
370
    35
390
F
1001
AcAecLayerStandard
1000

1000

  0
LAYER
  5
E0
330
2
100
AcDbSymbolTableRecord
100
AcDbLayerTableRecord
  2
sk4
 70
     0
 62
     2
  6
CENTER
370
    25
390
F
1001
AcAecLayerStandard
1000

1000

  0
LAYER
  5
E1
330
2
100
AcDbSymbolTableRecord
100
AcDbLayerTableRecord
  2
sk6
 70
     0
 62
     5
  6
Continuous
370
    35
390
F
1001
AcAecLayerStandard
1000

1000

  0
LAYER
  5
31B6
330
2
100
AcDbSymbolTableRecord
100
AcDbLayerTableRecord
  2
Defpoints
 70
     0
 62
     7
  6
Continuous
290
     0
370
    -3
390
F
  0
ENDTAB
  0
TABLE
  2
STYLE
  5
3
330
0
100
AcDbSymbolTable
 70
    11
  0
STYLE
  5
11
330
3
100
AcDbSymbolTableRecord
100
AcDbTextStyleTableRecord
  2
Standard
 70
     0
 40
0.0
 41
1.0
 50
0.0
 71
     0
 42
2.5
  3
txt.shx
  4
@extfont2.shx
  0
STYLE
  5
D6
330
3
100
AcDbSymbolTableRecord
100
AcDbTextStyleTableRecord
  2

 70
     1
 40
0.0
 41
1.0
 50
0.0
 71
     0
 42
2.5
  3
ltypeshp.shx
  4

  0
STYLE
  5
24A
330
3
100
AcDbSymbolTableRecord
100
AcDbTextStyleTableRecord
  2
simplex
 70
     0
 40
3.5
 41
1.0
 50
0.0
 71
     0
 42
3.5
  3
txt.shx
  4

  0
STYLE
  5
69E
330
3
100
AcDbSymbolTableRecord
100
AcDbTextStyleTableRecord
  2
MX_NOTE_STANDARD
 70
     0
 40
0.0
 41
1.0
 50
0.0
 71
     0
 42
4.2
  3
txt.shx
  4
extfont.shx
  0
STYLE
  5
3524
330
3
100
AcDbSymbolTableRecord
100
AcDbTextStyleTableRecord
  2
TEXTSTYLE_2
 70
     0
 40
0.0
 41
0.775
 50
0.0
 71
     0
 42
0.2
  3
gdt
  4

  0
STYLE
  5
3525
330
3
100
AcDbSymbolTableRecord
100
AcDbTextStyleTableRecord
  2
TEXTSTYLE_3
 70
     0
 40
0.0
 41
0.75
 50
0.0
 71
     0
 42
0.2
  3
txt
  4

  0
STYLE
  5
3526
330
3
100
AcDbSymbolTableRecord
100
AcDbTextStyleTableRecord
  2
TEXTSTYLE_13
 70
     0
 40
0.0
 41
1.0
 50
0.0
 71
     0
 42
0.2
  3
txt
  4

  0
STYLE
  5
519A
330
3
100
AcDbSymbolTableRecord
100
AcDbTextStyleTableRecord
  2
TEXTSTYLE_14
 70
     0
 40
0.0
 41
1.0
 50
0.0
 71
     0
 42
0.2
  3
txt
  4

  0
STYLE
  5
6F72
330
3
100
AcDbSymbolTableRecord
100
AcDbTextStyleTableRecord
  2
TEXTSTYLE_4
 70
     0
 40
0.0
 41
0.75
 50
0.0
 71
     0
 42
0.2
  3
txt
  4

  0
STYLE
  5
6F73
330
3
100
AcDbSymbolTableRecord
100
AcDbTextStyleTableRecord
  2
TEXTSTYLE_17
 70
     0
 40
0.0
 41
1.0
 50
0.0
 71
     0
 42
0.2
  3
txt
  4

  0
STYLE
  5
FE12
330
3
100
AcDbSymbolTableRecord
100
AcDbTextStyleTableRecord
  2
TEXTSTYLE_12
 70
     0
 40
0.0
 41
1.0
 50
0.0
 71
     0
 42
0.2
  3
txt
  4

  0
ENDTAB
  0
TABLE
  2
VIEW
  5
6
330
0
100
AcDbSymbolTable
 70
     0
  0
ENDTAB
  0
TABLE
  2
UCS
  5
7
330
0
100
AcDbSymbolTable
 70
     0
  0
ENDTAB
  0
TABLE
  2
APPID
  5
9
330
0
100
AcDbSymbolTable
 70
    11
  0
APPID
  5
12
330
9
100
AcDbSymbolTableRecord
100
AcDbRegAppTableRecord
  2
ACAD
 70
     0
  0
APPID
  5
D2
330
9
100
AcDbSymbolTableRecord
100
AcDbRegAppTableRecord
  2
AcAecLayerStandard
 70
     0
  0
APPID
  5
E6
330
9
100
AcDbSymbolTableRecord
100
AcDbRegAppTableRecord
  2
ACAD_DSTYLE_DIMTEXT_FILL
 70
     0
  0
APPID
  5
4C84
330
9
100
AcDbSymbolTableRecord
100
AcDbRegAppTableRecord
  2
ACAD_EXEMPT_FROM_CAD_STANDARDS
 70
     0
  0
APPID
  5
3493E
330
9
100
AcDbSymbolTableRecord
100
AcDbRegAppTableRecord
  2
DCO15
 70
     0
  0
APPID
  5
4366A
330
9
100
AcDbSymbolTableRecord
100
AcDbRegAppTableRecord
  2
ACAUTHENVIRON
 70
     0
  0
APPID
  5
4366D
330
9
100
AcDbSymbolTableRecord
100
AcDbRegAppTableRecord
  2
AcDbDynamicBlockTrueName
 70
     0
  0
APPID
  5
4366E
330
9
100
AcDbSymbolTableRecord
100
AcDbRegAppTableRecord
  2
AcDbDynamicBlockGUID
 70
     0
  0
APPID
  5
43670
330
9
100
AcDbSymbolTableRecord
100
AcDbRegAppTableRecord
  2
AcDbBlockRepETag
 70
     0
  0
APPID
  5
45C9F
330
9
100
AcDbSymbolTableRecord
100
AcDbRegAppTableRecord
  2
ACAD_DSTYLE_DIMEXT_ENABLED
 70
     0
  0
APPID
  5
45CA0
330
9
100
AcDbSymbolTableRecord
100
AcDbRegAppTableRecord
  2
ACAD_DSTYLE_DIMEXT_LENGTH
 70
     0
  0
ENDTAB
  0
TABLE
  2
DIMSTYLE
  5
A
330
0
100
AcDbSymbolTable
 70
    10
100
AcDbDimStyleTable
 71
     2
340
1BF
340
27
  0
DIMSTYLE
105
27
330
A
100
AcDbSymbolTableRecord
100
AcDbDimStyleTableRecord
  2
ISO-25
 70
     0
 41
2.5
 42
0.625
 43
3.75
 44
1.25
 73
     0
 74
     0
 77
     1
 78
     8
140
2.5
141
2.5
143
0.03937007874016
147
0.625
171
     3
172
     1
271
     2
272
     2
274
     3
278
    44
283
     0
284
     8
340
11
  0
DIMSTYLE
105
1BF
102
{ACAD_REACTORS
330
6099E
330
60984
330
6096A
330
60950
330
60920
330
60908
330
60938
330
608F0
330
608D8
330
609B7
102
}
330
A
100
AcDbSymbolTableRecord
100
AcDbDimStyleTableRecord
  2
\M+18352\M+18373\M+1815B - ISO-25
 70
     0
 40
0.0
 41
3.5
 42
0.0
 44
1.5
 73
     0
 74
     0
 77
     1
 78
     8
140
3.5
147
2.299999999999998
176
   256
177
   256
178
   256
271
     2
272
     2
284
     8
340
24A
371
    -1
372
    -1
  0
DIMSTYLE
105
69F
330
A
100
AcDbSymbolTableRecord
100
AcDbDimStyleTableRecord
  2
MXDIMSTYLE
 70
     0
 41
2.5
 42
0.5
 43
3.75
 44
1.5
 73
     0
 74
     0
 77
     1
 78
     8
140
4.2
141
2.5
143
0.03937
147
1.0
171
     4
172
     1
173
     1
271
     2
272
     2
274
     4
283
     0
288
     1
340
69E
341
697
343
697
344
697
  0
DIMSTYLE
105
3527
330
A
100
AcDbSymbolTableRecord
100
AcDbDimStyleTableRecord
  2
STANDARD
 70
     0
 41
3.0
 47
0.001
 48
0.001
 71
     1
 73
     0
 74
     0
 77
     1
 78
     8
140
4.0
271
     3
272
     3
284
     8
340
11
341
34B1
342
34B1
343
34B1
344
34B1
  0
DIMSTYLE
105
3528
330
A
100
AcDbSymbolTableRecord
100
AcDbDimStyleTableRecord
  2
DIMSTYLE_1
 70
     0
 41
3.0
 73
     0
 74
     0
 77
     1
 78
     8
140
4.0
271
     3
272
     3
284
     8
340
11
341
34B1
342
34B1
343
34B1
344
34B1
  0
DIMSTYLE
105
3529
330
A
100
AcDbSymbolTableRecord
100
AcDbDimStyleTableRecord
  2
DIMSTYLE_2
 70
     0
 41
3.0
 47
0.001
 48
0.001
 73
     0
 74
     0
 77
     1
 78
     8
140
4.0
271
     3
272
     3
284
     8
340
11
341
34B1
342
34B1
343
34B1
344
34B1
  0
DIMSTYLE
105
352A
330
A
100
AcDbSymbolTableRecord
100
AcDbDimStyleTableRecord
  2
DIMSTYLE_3
 70
     0
 41
3.0
 47
-0.1
 48
0.3
 71
     1
 73
     0
 74
     0
 77
     1
 78
     8
140
4.0
146
0.5
271
     3
272
     3
284
     8
340
11
341
34B1
342
34B1
343
34B1
344
34B1
  0
DIMSTYLE
105
352B
330
A
100
AcDbSymbolTableRecord
100
AcDbDimStyleTableRecord
  2
DIMSTYLE_4
 70
     0
 41
3.0
 47
0.1
 48
0.1
 71
     1
 73
     0
 74
     0
 77
     1
 78
     8
140
4.0
271
     3
272
     3
284
     8
340
11
341
34B1
342
34B1
343
34B1
344
34B1
  0
DIMSTYLE
105
27245
330
A
100
AcDbSymbolTableRecord
100
AcDbDimStyleTableRecord
  2
DIMSTYLE_5
 70
     0
 41
3.0
 47
0.001
 48
0.001
 73
     0
 74
     0
 77
     1
 78
     8
140
4.0
271
     3
272
     3
284
     8
340
11
341
34B1
342
34B1
343
34B1
344
34B1
  0
DIMSTYLE
105
4771C
330
A
100
AcDbSymbolTableRecord
100
AcDbDimStyleTableRecord
  2
\M+18352\M+18373\M+1815B_-_ISO-25
 70
     0
 40
0.0
 41
3.5
 42
0.0
 44
1.5
 73
     0
 74
     0
 77
     1
 78
     8
140
3.5
147
2.299999999999998
176
   256
177
   256
178
   256
279
     2
284
     8
285
     8
286
     8
340
24A
  0
ENDTAB
  0
TABLE
  2
BLOCK_RECORD
  5
1
330
0
100
AcDbSymbolTable
 70
    95
  0
BLOCK_RECORD
  5
1F
102
{ACAD_XDICTIONARY
360
31EE
102
}
330
1
100
AcDbSymbolTableRecord
100
AcDbBlockTableRecord
  2
*Model_Space
340
22
  0
BLOCK_RECORD
  5
50
330
1
100
AcDbSymbolTableRecord
100
AcDbBlockTableRecord
  2
*Paper_Space
340
51
  0
BLOCK_RECORD
  5
55
330
1
100
AcDbSymbolTableRecord
100
AcDbBlockTableRecord
  2
*Paper_Space0
340
56
  0
BLOCK_RECORD
  5
680
102
{ACAD_XDICTIONARY
360
43668
102
}
330
1
100
AcDbSymbolTableRecord
100
AcDbBlockTableRecord
  2
zero block
340
0
102
{BLKREFS
331
68C
102
}
1001
ACAD
1000
DesignCenter Data
1002
{
1070
     1
1070
     4
1002
}
1001
AcDbDynamicBlockGUID
1000
{A89DF4EB-B2CB-439E-AC69-1EAC9F242D1C}
1001
AcDbBlockRepETag
1070
     1
1071
        7
  0
BLOCK_RECORD
  5
697
330
1
100
AcDbSymbolTableRecord
100
AcDbBlockTableRecord
  2
_OPEN30
340
0
  0
BLOCK_RECORD
  5
32F1
330
1
100
AcDbSymbolTableRecord
100
AcDbBlockTableRecord
  2
_None
340
0
102
{BLKREFS
331
5CE0B
331
5F1BF
102
}
  0
BLOCK_RECORD
  5
34B1
330
1
100
AcDbSymbolTableRecord
100
AcDbBlockTableRecord
  2
_OPEN
340
0
102
{BLKREFS
331
5CDDE
331
5CDDF
331
5CDE8
331
5CDE9
331
5CDF2
331
5CDF3
331
5CDFC
331
5CDFD
331
5CE03
331
5CE0C
331
5EDB1
331
5EDB8
331
5EDC0
331
5EDC1
331
5EDC9
331
5EDCA
331
5EDD2
331
5EDD3
331
5EDDB
331
5EDDC
331
5F1B0
331
5F1B1
331
5F1B7
331
5F1C0
331
5F192
331
5F193
331
5F19C
331
5F19D
331
5F1A6
331
5F1A7
331
5F61C
331
5F61D
331
5F625
331
5F626
331
5F62E
331
5F62F
331
5F637
331
5F638
331
5F64F
331
5F657
102
}
  0
BLOCK_RECORD
  5
45B07
330
1
100
AcDbSymbolTableRecord
100
AcDbBlockTableRecord
  2
*D7
340
0
  0
BLOCK_RECORD
  5
45B1F
330
1
100
AcDbSymbolTableRecord
100
AcDbBlockTableRecord
  2
*D8
340
0
  0
BLOCK_RECORD
  5
608D9
330
1
100
AcDbSymbolTableRecord
100
AcDbBlockTableRecord
  2
*D84
340
0
  0
BLOCK_RECORD
  5
608F1
330
1
100
AcDbSymbolTableRecord
100
AcDbBlockTableRecord
  2
*D85
340
0
  0
BLOCK_RECORD
  5
60909
330
1
100
AcDbSymbolTableRecord
100
AcDbBlockTableRecord
  2
*D86
340
0
  0
BLOCK_RECORD
  5
60921
330
1
100
AcDbSymbolTableRecord
100
AcDbBlockTableRecord
  2
*D87
340
0
  0
BLOCK_RECORD
  5
60939
330
1
100
AcDbSymbolTableRecord
100
AcDbBlockTableRecord
  2
*D88
340
0
  0
BLOCK_RECORD
  5
60951
330
1
100
AcDbSymbolTableRecord
100
AcDbBlockTableRecord
  2
*D89
340
0
  0
BLOCK_RECORD
  5
6096B
330
1
100
AcDbSymbolTableRecord
100
AcDbBlockTableRecord
  2
*D90
340
0
  0
BLOCK_RECORD
  5
60985
330
1
100
AcDbSymbolTableRecord
100
AcDbBlockTableRecord
  2
*D91
340
0
  0
BLOCK_RECORD
  5
6099F
330
1
100
AcDbSymbolTableRecord
100
AcDbBlockTableRecord
  2
*D92
340
0
  0
BLOCK_RECORD
  5
609B8
330
1
100
AcDbSymbolTableRecord
100
AcDbBlockTableRecord
  2
*D93
340
0
  0
ENDTAB
  0
ENDSEC
  0
SECTION
  2
BLOCKS
  0
BLOCK
  5
20
330
1F
100
AcDbEntity
  8
0
100
AcDbBlockBegin
  2
*Model_Space
 70
     0
 10
0.0
 20
0.0
 30
0.0
  3
*Model_Space
  1

  0
ENDBLK
  5
21
330
1F
100
AcDbEntity
  8
0
100
AcDbBlockEnd
  0
BLOCK
  5
52
330
50
100
AcDbEntity
 67
     1
  8
0
100
AcDbBlockBegin
  2
*Paper_Space
 70
     0
 10
0.0
 20
0.0
 30
0.0
  3
*Paper_Space
  1

  0
ENDBLK
  5
53
330
50
100
AcDbEntity
 67
     1
  8
0
100
AcDbBlockEnd
  0
BLOCK
  5
57
330
55
100
AcDbEntity
 67
     1
  8
0
100
AcDbBlockBegin
  2
*Paper_Space0
 70
     0
 10
0.0
 20
0.0
 30
0.0
  3
*Paper_Space0
  1

  0
VIEWPORT
  5
71
102
{ACAD_XDICTIONARY
360
60F8F
102
}
330
55
100
AcDbEntity
 67
     1
  8
0
100
AcDbViewport
 10
150.1652135264906
 20
101.599997546291
 30
0.0
 40
339.1973820494347
 41
164.5360435314421
 68
     0
 69
     0
 12
150.1652135264906
 22
101.599997546291
 13
0.0
 23
0.0
 14
10.0
 24
10.0
 15
10.0
 25
10.0
 16
0.0
 26
0.0
 36
1.0
 17
0.0
 27
0.0
 37
0.0
 42
50.0
 43
0.0
 44
0.0
 45
164.5360435314421
 50
0.0
 51
0.0
 72
  1000
 90
    32864
  1

281
     0
 71
     1
 74
     0
110
0.0
120
0.0
130
0.0
111
1.0
121
0.0
131
0.0
112
0.0
122
1.0
132
0.0
 79
     0
146
0.0
  0
VIEWPORT
  5
73
102
{ACAD_XDICTIONARY
360
60F91
102
}
330
55
100
AcDbEntity
 67
     1
  8
0
100
AcDbViewport
 10
133.3499939441681
 20
101.5999939441681
 30
0.0
 40
213.3599903106689
 41
162.5599903106689
 68
     0
 69
     0
 12
210.0
 22
148.5
 13
0.0
 23
0.0
 14
10.0
 24
10.0
 15
10.0
 25
10.0
 16
0.0
 26
0.0
 36
1.0
 17
0.0
 27
0.0
 37
0.0
 42
50.0
 43
0.0
 44
0.0
 45
324.0677920111345
 50
0.0
 51
0.0
 72
   100
 90
    32864
  1

281
     0
 71
     1
 74
     0
110
0.0
120
0.0
130
0.0
111
1.0
121
0.0
131
0.0
112
0.0
122
1.0
132
0.0
 79
     0
146
0.0
  0
ENDBLK
  5
58
330
55
100
AcDbEntity
 67
     1
  8
0
100
AcDbBlockEnd
  0
BLOCK
  5
68A
330
680
100
AcDbEntity
  8
0
100
AcDbBlockBegin
  2
zero block
 70
     0
 10
0.0
 20
0.0
 30
0.0
  3
zero block
  1

  0
HATCH
  5
43661
330
680
100
AcDbEntity
  8
0
 62
     7
100
AcDbHatch
 10
0.0
 20
0.0
 30
0.0
210
0.0
220
0.0
230
1.0
  2
SOLID
 70
     1
 71
     0
 91
        2
 92
        7
 72
     1
 73
     1
 93
        3
 10
0.0
 20
0.9999999999999875
 42
0.4142135623730915
 10
-1.0
 20
0.0
 42
0.0
 10
0.0
 20
0.0
 42
0.0
 97
        0
 92
        7
 72
     1
 73
     1
 93
        3
 10
1.000000000000007
 20
0.0
 42
0.0
 10
0.0
 20
0.0
 42
0.0
 10
0.0
 20
-1.0
 42
0.4142135623730974
 97
        0
 75
     0
 76
     1
 47
0.0090601366782909
 98
        2
 10
-0.380591363650975
 20
0.4885804701532896
 10
0.4350764810977559
 20
-0.4536738423704725
1001
AcDbBlockRepETag
1070
     1
1071
        0
1005
43661
  0
LINE
  5
43662
330
680
100
AcDbEntity
  8
0
 62
     7
 48
0.2
100
AcDbLine
 10
-1.0
 20
0.0
 30
0.0
 11
1.000000000000007
 21
0.0
 31
0.0
1001
AcDbBlockRepETag
1070
     1
1071
        1
1005
43662
  0
LINE
  5
43663
330
680
100
AcDbEntity
  8
0
 62
     7
 48
0.2
100
AcDbLine
 10
0.0
 20
-1.0
 30
0.0
 11
0.0
 21
0.9999999999999875
 31
0.0
1001
AcDbBlockRepETag
1070
     1
1071
        2
1005
43663
  0
ARC
  5
43664
330
680
100
AcDbEntity
  8
0
 62
     7
 48
0.2
100
AcDbCircle
 10
0.0
 20
0.0
 30
0.0
 40
1.0
100
AcDbArc
 50
270.0
 51
0.0
1001
AcDbBlockRepETag
1070
     1
1071
        3
1005
43664
  0
ARC
  5
43665
330
680
100
AcDbEntity
  8
0
 62
     7
 48
0.2
100
AcDbCircle
 10
0.0
 20
0.0
 30
0.0
 40
1.0
100
AcDbArc
 50
0.0
 51
90.0
1001
AcDbBlockRepETag
1070
     1
1071
        4
1005
43665
  0
ARC
  5
43666
330
680
100
AcDbEntity
  8
0
 62
     7
 48
0.2
100
AcDbCircle
 10
0.0
 20
0.0
 30
0.0
 40
1.0
100
AcDbArc
 50
180.0
 51
270.0
1001
AcDbBlockRepETag
1070
     1
1071
        5
1005
43666
  0
ARC
  5
43667
330
680
100
AcDbEntity
  8
0
 62
     7
 48
0.2
100
AcDbCircle
 10
0.0
 20
0.0
 30
0.0
 40
1.0
100
AcDbArc
 50
90.0
 51
180.0
1001
AcDbBlockRepETag
1070
     1
1071
        6
1005
43667
  0
ENDBLK
  5
68B
330
680
100
AcDbEntity
  8
0
100
AcDbBlockEnd
  0
BLOCK
  5
698
330
697
100
AcDbEntity
  8
0
  6
ByBlock
 62
     0
370
    -2
100
AcDbBlockBegin
  2
_OPEN30
 70
     2
 10
0.0
 20
0.0
 30
0.0
  3
_OPEN30
  1

  0
LINE
  5
699
330
697
100
AcDbEntity
  8
0
  6
ByBlock
 62
     0
370
    -2
100
AcDbLine
 10
-1.0
 20
0.267949
 30
0.0
 11
0.0
 21
0.0
 31
0.0
  0
LINE
  5
69A
330
697
100
AcDbEntity
  8
0
  6
ByBlock
 62
     0
370
    -2
100
AcDbLine
 10
0.0
 20
0.0
 30
0.0
 11
-1.0
 21
-0.267949
 31
0.0
  0
LINE
  5
69B
330
697
100
AcDbEntity
  8
0
  6
ByBlock
 62
     0
370
    -2
100
AcDbLine
 10
0.0
 20
0.0
 30
0.0
 11
-1.0
 21
0.0
 31
0.0
  0
ENDBLK
  5
69C
330
697
100
AcDbEntity
  8
0
  6
ByBlock
 62
     0
370
    -2
100
AcDbBlockEnd
  0
BLOCK
  5
32F2
330
32F1
100
AcDbEntity
  8
0
100
AcDbBlockBegin
  2
_None
 70
     0
 10
0.0
 20
0.0
 30
0.0
  3
_None
  1

  0
ENDBLK
  5
32F3
330
32F1
100
AcDbEntity
  8
0
100
AcDbBlockEnd
  0
BLOCK
  5
34B2
330
34B1
100
AcDbEntity
  8
0
100
AcDbBlockBegin
  2
_OPEN
 70
     0
 10
0.0
 20
0.0
 30
0.0
  3
_OPEN
  1

  0
LINE
  5
34B3
330
34B1
100
AcDbEntity
  8
0
  6
ByBlock
 62
     0
100
AcDbLine
 10
0.0
 20
0.0
 30
0.0
 11
-1.0
 21
0.1766666667
 31
0.0
  0
LINE
  5
34B4
330
34B1
100
AcDbEntity
  8
0
  6
ByBlock
 62
     0
100
AcDbLine
 10
-1.0
 20
-0.1766666667
 30
0.0
 11
0.0
 21
0.0
 31
0.0
  0
LINE
  5
34B5
330
34B1
100
AcDbEntity
  8
0
  6
ByBlock
 62
     0
100
AcDbLine
 10
-1.0
 20
0.0
 30
0.0
 11
0.0
 21
0.0
 31
0.0
  0
ENDBLK
  5
34B6
330
34B1
100
AcDbEntity
  8
0
  6
ByBlock
 62
     0
100
AcDbBlockEnd
  0
BLOCK
  5
45B11
330
45B07
100
AcDbEntity
  8
0
100
AcDbBlockBegin
  2
*D7
 70
     1
 10
0.0
 20
0.0
 30
0.0
  3
*D7
  1

  0
LINE
  5
5CCE5
330
45B07
100
AcDbEntity
  8
sk2
100
AcDbLine
 10
-0.0000000000000526
 20
-28.49999999999995
 30
0.0
 11
-0.0000000000000538
 21
-48.51991747839992
 31
0.0
  0
LINE
  5
5CCE6
330
45B07
100
AcDbEntity
  8
sk2
100
AcDbLine
 10
30.99999999999995
 20
-8.099999999999972
 30
0.0
 11
30.99999999999994
 21
-48.51991747839992
 31
0.0
  0
LINE
  5
5CCE7
330
45B07
100
AcDbEntity
  8
sk2
100
AcDbLine
 10
3.499999999999946
 20
-47.01991747839993
 30
0.0
 11
27.49999999999995
 21
-47.01991747839993
 31
0.0
  0
SOLID
  5
5CCE8
330
45B07
100
AcDbEntity
  8
sk2
100
AcDbTrace
 10
3.499999999999946
 20
-46.43658414506659
 30
0.0
 11
3.499999999999946
 21
-47.60325081173324
 31
0.0
 12
-0.0000000000000537
 22
-47.01991747839993
 32
0.0
 13
-0.0000000000000537
 23
-47.01991747839993
 33
0.0
  0
SOLID
  5
5CCE9
330
45B07
100
AcDbEntity
  8
sk2
100
AcDbTrace
 10
27.49999999999995
 20
-46.43658414506659
 30
0.0
 11
27.49999999999995
 21
-47.60325081173324
 31
0.0
 12
30.99999999999994
 22
-47.01991747839993
 32
0.0
 13
30.99999999999994
 23
-47.01991747839993
 33
0.0
  0
MTEXT
  5
5CCEA
330
45B07
100
AcDbEntity
  8
sk2
100
AcDbMText
 10
15.49999999999994
 20
-42.96991747839992
 30
0.0
 40
3.5
 41
0.0
 71
     5
 72
     1
  1
\A1;31
  7
simplex
 73
     1
 44
1.0
1001
ACAD
1000
MTEXTBEGIN
1070
    73
1070
     1
1070
    44
1040
1.0
1070
    74
1070
     0
1000
MTEXTEND
  0
POINT
  5
5CCEB
330
45B07
100
AcDbEntity
  8
Defpoints
 62
     0
100
AcDbPoint
 10
-0.0000000000000526
 20
-28.49999999999995
 30
0.0
  0
POINT
  5
5CCEC
330
45B07
100
AcDbEntity
  8
Defpoints
 62
     0
100
AcDbPoint
 10
30.99999999999995
 20
-8.099999999999972
 30
0.0
  0
POINT
  5
5CCED
330
45B07
100
AcDbEntity
  8
Defpoints
 62
     0
100
AcDbPoint
 10
30.99999999999994
 20
-47.01991747839993
 30
0.0
  0
ENDBLK
  5
45B12
330
45B07
100
AcDbEntity
  8
0
100
AcDbBlockEnd
  0
BLOCK
  5
45B29
330
45B1F
100
AcDbEntity
  8
0
100
AcDbBlockBegin
  2
*D8
 70
     1
 10
0.0
 20
0.0
 30
0.0
  3
*D8
  1

  0
LINE
  5
475A2
330
45B1F
100
AcDbEntity
  8
2
100
AcDbLine
 10
46.67862375679994
 20
31.50000000000006
 30
0.0
 11
83.68825656423609
 21
31.50000000000004
 31
0.0
  0
LINE
  5
475A3
330
45B1F
100
AcDbEntity
  8
2
100
AcDbLine
 10
82.18825656423609
 20
-31.49999999999995
 30
0.0
 11
82.18825656423609
 21
28.00000000000004
 31
0.0
  0
SOLID
  5
475A4
330
45B1F
100
AcDbEntity
  8
2
100
AcDbTrace
 10
81.60492323090277
 20
28.00000000000004
 30
0.0
 11
82.77158989756944
 21
28.00000000000004
 31
0.0
 12
82.18825656423609
 22
31.50000000000004
 32
0.0
 13
82.18825656423609
 23
31.50000000000004
 33
0.0
  0
MTEXT
  5
475A5
330
45B1F
100
AcDbEntity
  8
2
100
AcDbMText
 10
78.1382565642361
 20
-1.749999999999953
 30
0.0
 40
3.5
 41
0.0
 71
     5
 72
     1
  1
\A1;%%C63
  7
simplex
 11
0.0000000000000001
 21
1.0
 31
0.0
 73
     1
 44
1.0
1001
ACAD
1000
MTEXTBEGIN
1070
    73
1070
     1
1070
    44
1040
1.0
1070
    74
1070
     0
1000
MTEXTEND
  0
POINT
  5
475A6
330
45B1F
100
AcDbEntity
  8
Defpoints
 62
     0
100
AcDbPoint
 10
82.95119073979995
 20
-31.49999999999995
 30
0.0
  0
POINT
  5
475A7
330
45B1F
100
AcDbEntity
  8
Defpoints
 62
     0
100
AcDbPoint
 10
46.67862375679994
 20
31.50000000000006
 30
0.0
  0
POINT
  5
475A8
330
45B1F
100
AcDbEntity
  8
Defpoints
 62
     0
100
AcDbPoint
 10
82.18825656423609
 20
31.50000000000004
 30
0.0
  0
ENDBLK
  5
45B2A
330
45B1F
100
AcDbEntity
  8
0
100
AcDbBlockEnd
  0
BLOCK
  5
608E3
330
608D9
100
AcDbEntity
  8
0
100
AcDbBlockBegin
  2
*D84
 70
     1
 10
0.0
 20
0.0
 30
0.0
  3
*D84
  1

  0
LINE
  5
60C0B
330
608D9
100
AcDbEntity
  8
2
100
AcDbLine
 10
63.37032789066009
 20
30.36499999999994
 30
0.0
 11
85.10438141794569
 21
30.36499999999993
 31
0.0
  0
LINE
  5
60C0C
330
608D9
100
AcDbEntity
  8
2
100
AcDbLine
 10
83.60438141794569
 20
26.86499999999993
 30
0.0
 11
83.60438141794569
 21
-30.36500000000005
 31
0.0
  0
SOLID
  5
60C0D
330
608D9
100
AcDbEntity
  8
2
100
AcDbTrace
 10
83.02104808461235
 20
26.86499999999993
 30
0.0
 11
84.18771475127902
 21
26.86499999999993
 31
0.0
 12
83.60438141794569
 22
30.36499999999993
 32
0.0
 13
83.60438141794569
 23
30.36499999999993
 33
0.0
  0
MTEXT
  5
60C0E
330
608D9
100
AcDbEntity
  8
2
100
AcDbMText
 10
79.55438141794569
 20
-1.750000000000047
 30
0.0
 40
3.5
 41
0.0
 71
     5
 72
     1
  1
\A1;%%C60.73 [%%C2.391"]
  7
simplex
 11
0.0000000000000001
 21
1.0
 31
0.0
 73
     1
 44
1.0
1001
ACAD
1000
MTEXTBEGIN
1070
    73
1070
     1
1070
    44
1040
1.0
1070
    74
1070
     0
1000
MTEXTEND
  0
POINT
  5
60C0F
330
608D9
100
AcDbEntity
  8
Defpoints
 62
     0
100
AcDbPoint
 10
63.37032789066009
 20
30.36499999999994
 30
0.0
  0
POINT
  5
60C10
330
608D9
100
AcDbEntity
  8
Defpoints
 62
     0
100
AcDbPoint
 10
63.37032789066009
 20
-30.36500000000005
 30
0.0
  0
POINT
  5
60C11
330
608D9
100
AcDbEntity
  8
Defpoints
 62
     0
100
AcDbPoint
 10
83.60438141794569
 20
-30.36500000000005
 30
0.0
  0
ENDBLK
  5
608E4
330
608D9
100
AcDbEntity
  8
0
100
AcDbBlockEnd
  0
BLOCK
  5
608FB
330
608F1
100
AcDbEntity
  8
0
100
AcDbBlockBegin
  2
*D85
 70
     1
 10
0.0
 20
0.0
 30
0.0
  3
*D85
  1

  0
LINE
  5
60C12
330
608F1
100
AcDbEntity
  8
2
100
AcDbLine
 10
60.11389173679998
 20
38.09999999999994
 30
0.0
 11
97.06961267679032
 21
38.09999999999993
 31
0.0
  0
LINE
  5
60C13
330
608F1
100
AcDbEntity
  8
2
100
AcDbLine
 10
95.56961267679032
 20
34.59999999999993
 30
0.0
 11
95.56961267679028
 21
-38.10000000000006
 31
0.0
  0
SOLID
  5
60C14
330
608F1
100
AcDbEntity
  8
2
100
AcDbTrace
 10
94.98627934345698
 20
34.59999999999993
 30
0.0
 11
96.15294601012365
 21
34.59999999999993
 31
0.0
 12
95.56961267679032
 22
38.09999999999993
 32
0.0
 13
95.56961267679032
 23
38.09999999999993
 33
0.0
  0
MTEXT
  5
60C15
330
608F1
100
AcDbEntity
  8
2
100
AcDbMText
 10
91.5196126767903
 20
-1.750000000000047
 30
0.0
 40
3.5
 41
0.0
 71
     5
 72
     1
  1
\A1;%%C76.2 [%%C3.000"]
  7
simplex
 11
0.0000000000000001
 21
1.0
 31
0.0
 73
     1
 44
1.0
1001
ACAD
1000
MTEXTBEGIN
1070
    73
1070
     1
1070
    44
1040
1.0
1070
    74
1070
     0
1000
MTEXTEND
  0
POINT
  5
60C16
330
608F1
100
AcDbEntity
  8
Defpoints
 62
     0
100
AcDbPoint
 10
60.11389173679998
 20
38.09999999999994
 30
0.0
  0
POINT
  5
60C17
330
608F1
100
AcDbEntity
  8
Defpoints
 62
     0
100
AcDbPoint
 10
60.11389173679998
 20
-38.10000000000005
 30
0.0
  0
POINT
  5
60C18
330
608F1
100
AcDbEntity
  8
Defpoints
 62
     0
100
AcDbPoint
 10
95.56961267679028
 20
-38.10000000000006
 30
0.0
  0
ENDBLK
  5
608FC
330
608F1
100
AcDbEntity
  8
0
100
AcDbBlockEnd
  0
BLOCK
  5
60913
330
60909
100
AcDbEntity
  8
0
100
AcDbBlockBegin
  2
*D86
 70
     1
 10
0.0
 20
0.0
 30
0.0
  3
*D86
  1

  0
LINE
  5
60C19
330
60909
100
AcDbEntity
  8
sk2
100
AcDbLine
 10
6.0
 20
15.87499999999994
 30
0.0
 11
-16.97663592289015
 21
15.87499999999995
 31
0.0
  0
LINE
  5
60C1A
330
60909
100
AcDbEntity
  8
sk2
100
AcDbLine
 10
5.999999999999971
 20
-15.87500000000005
 30
0.0
 11
-16.97663592289015
 21
-15.87500000000005
 31
0.0
  0
LINE
  5
60C1B
330
60909
100
AcDbEntity
  8
sk2
100
AcDbLine
 10
-15.47663592289015
 20
12.37499999999995
 30
0.0
 11
-15.47663592289016
 21
-12.37500000000005
 31
0.0
  0
SOLID
  5
60C1C
330
60909
100
AcDbEntity
  8
sk2
100
AcDbTrace
 10
-16.05996925622348
 20
12.37499999999995
 30
0.0
 11
-14.89330258955681
 21
12.37499999999995
 31
0.0
 12
-15.47663592289015
 22
15.87499999999995
 32
0.0
 13
-15.47663592289015
 23
15.87499999999995
 33
0.0
  0
SOLID
  5
60C1D
330
60909
100
AcDbEntity
  8
sk2
100
AcDbTrace
 10
-16.05996925622349
 20
-12.37500000000005
 30
0.0
 11
-14.89330258955682
 21
-12.37500000000005
 31
0.0
 12
-15.47663592289016
 22
-15.87500000000005
 32
0.0
 13
-15.47663592289016
 23
-15.87500000000005
 33
0.0
  0
MTEXT
  5
60C1E
330
60909
100
AcDbEntity
  8
sk2
100
AcDbMText
 10
-19.52663592289015
 20
-0.0000000000000518
 30
0.0
 40
3.5
 41
0.0
 71
     5
 72
     1
  1
\A1;%%C31.75 [%%c1.250"]
  7
simplex
 11
0.0000000000000001
 21
1.0
 31
0.0
 73
     1
 44
1.0
1001
ACAD
1000
MTEXTBEGIN
1070
    73
1070
     1
1070
    44
1040
1.0
1070
    74
1070
     0
1000
MTEXTEND
  0
POINT
  5
60C1F
330
60909
100
AcDbEntity
  8
Defpoints
 62
     0
100
AcDbPoint
 10
6.0
 20
15.87499999999994
 30
0.0
  0
POINT
  5
60C20
330
60909
100
AcDbEntity
  8
Defpoints
 62
     0
100
AcDbPoint
 10
5.999999999999971
 20
-15.87500000000005
 30
0.0
  0
POINT
  5
60C21
330
60909
100
AcDbEntity
  8
Defpoints
 62
     0
100
AcDbPoint
 10
-15.47663592289016
 20
-15.87500000000005
 30
0.0
  0
ENDBLK
  5
60914
330
60909
100
AcDbEntity
  8
0
100
AcDbBlockEnd
  0
BLOCK
  5
6092B
330
60921
100
AcDbEntity
  8
0
100
AcDbBlockBegin
  2
*D87
 70
     1
 10
0.0
 20
0.0
 30
0.0
  3
*D87
  1

  0
LINE
  5
60C22
330
60921
100
AcDbEntity
  8
sk2
100
AcDbLine
 10
2.0
 20
36.51249999999993
 30
0.0
 11
-29.31909173704726
 21
36.51249999999994
 31
0.0
  0
LINE
  5
60C23
330
60921
100
AcDbEntity
  8
sk2
100
AcDbLine
 10
1.999999999999971
 20
-36.51250000000004
 30
0.0
 11
-29.31909173704728
 21
-36.51250000000004
 31
0.0
  0
LINE
  5
60C24
330
60921
100
AcDbEntity
  8
sk2
100
AcDbLine
 10
-27.81909173704726
 20
33.01249999999994
 30
0.0
 11
-27.81909173704728
 21
-33.01250000000004
 31
0.0
  0
SOLID
  5
60C25
330
60921
100
AcDbEntity
  8
sk2
100
AcDbTrace
 10
-28.40242507038059
 20
33.01249999999994
 30
0.0
 11
-27.23575840371393
 21
33.01249999999994
 31
0.0
 12
-27.81909173704726
 22
36.51249999999994
 32
0.0
 13
-27.81909173704726
 23
36.51249999999994
 33
0.0
  0
SOLID
  5
60C26
330
60921
100
AcDbEntity
  8
sk2
100
AcDbTrace
 10
-28.40242507038061
 20
-33.01250000000004
 30
0.0
 11
-27.23575840371394
 21
-33.01250000000004
 31
0.0
 12
-27.81909173704728
 22
-36.51250000000004
 32
0.0
 13
-27.81909173704728
 23
-36.51250000000004
 33
0.0
  0
MTEXT
  5
60C27
330
60921
100
AcDbEntity
  8
sk2
100
AcDbMText
 10
-31.86909173704727
 20
-0.0000000000000546
 30
0.0
 40
3.5
 41
0.0
 71
     5
 72
     1
  1
\A1;%%C73.025 [%%c2.875"]
  7
simplex
 11
0.0000000000000001
 21
1.0
 31
0.0
 73
     1
 44
1.0
1001
ACAD
1000
MTEXTBEGIN
1070
    73
1070
     1
1070
    44
1040
1.0
1070
    74
1070
     0
1000
MTEXTEND
  0
POINT
  5
60C28
330
60921
100
AcDbEntity
  8
Defpoints
 62
     0
100
AcDbPoint
 10
2.0
 20
36.51249999999993
 30
0.0
  0
POINT
  5
60C29
330
60921
100
AcDbEntity
  8
Defpoints
 62
     0
100
AcDbPoint
 10
1.999999999999971
 20
-36.51250000000004
 30
0.0
  0
POINT
  5
60C2A
330
60921
100
AcDbEntity
  8
Defpoints
 62
     0
100
AcDbPoint
 10
-27.81909173704728
 20
-36.51250000000004
 30
0.0
  0
ENDBLK
  5
6092C
330
60921
100
AcDbEntity
  8
0
100
AcDbBlockEnd
  0
BLOCK
  5
60943
330
60939
100
AcDbEntity
  8
0
100
AcDbBlockBegin
  2
*D88
 70
     1
 10
0.0
 20
0.0
 30
0.0
  3
*D88
  1

  0
LINE
  5
60C2B
330
60939
100
AcDbEntity
  8
sk2
100
AcDbLine
 10
-0.0000000000000284
 20
-34.51250000000005
 30
0.0
 11
-0.0000000000000299
 21
-58.54396838913408
 31
0.0
  0
LINE
  5
60C2C
330
60939
100
AcDbEntity
  8
sk2
100
AcDbLine
 10
31.99999999999997
 20
-15.69999959600011
 30
0.0
 11
31.99999999999997
 21
-58.54396838913408
 31
0.0
  0
LINE
  5
60C2D
330
60939
100
AcDbEntity
  8
sk2
100
AcDbLine
 10
3.49999999999997
 20
-57.04396838913408
 30
0.0
 11
28.49999999999997
 21
-57.04396838913408
 31
0.0
  0
SOLID
  5
60C2E
330
60939
100
AcDbEntity
  8
sk2
100
AcDbTrace
 10
3.49999999999997
 20
-56.46063505580074
 30
0.0
 11
3.49999999999997
 21
-57.62730172246741
 31
0.0
 12
-0.0000000000000298
 22
-57.04396838913408
 32
0.0
 13
-0.0000000000000298
 23
-57.04396838913408
 33
0.0
  0
SOLID
  5
60C2F
330
60939
100
AcDbEntity
  8
sk2
100
AcDbTrace
 10
28.49999999999997
 20
-56.46063505580074
 30
0.0
 11
28.49999999999997
 21
-57.62730172246741
 31
0.0
 12
31.99999999999997
 22
-57.04396838913408
 32
0.0
 13
31.99999999999997
 23
-57.04396838913408
 33
0.0
  0
MTEXT
  5
60C30
330
60939
100
AcDbEntity
  8
sk2
100
AcDbMText
 10
15.99999999999997
 20
-52.99396838913408
 30
0.0
 40
3.5
 41
0.0
 71
     5
 72
     1
  1
\A1;32 [1.260"]
  7
simplex
 73
     1
 44
1.0
1001
ACAD
1000
MTEXTBEGIN
1070
    73
1070
     1
1070
    44
1040
1.0
1070
    74
1070
     0
1000
MTEXTEND
  0
POINT
  5
60C31
330
60939
100
AcDbEntity
  8
Defpoints
 62
     0
100
AcDbPoint
 10
-0.0000000000000284
 20
-34.51250000000005
 30
0.0
  0
POINT
  5
60C32
330
60939
100
AcDbEntity
  8
Defpoints
 62
     0
100
AcDbPoint
 10
31.99999999999997
 20
-15.69999959600011
 30
0.0
  0
POINT
  5
60C33
330
60939
100
AcDbEntity
  8
Defpoints
 62
     0
100
AcDbPoint
 10
31.99999999999997
 20
-57.04396838913408
 30
0.0
  0
ENDBLK
  5
60944
330
60939
100
AcDbEntity
  8
0
100
AcDbBlockEnd
  0
BLOCK
  5
6095C
330
60951
100
AcDbEntity
  8
0
100
AcDbBlockBegin
  2
*D89
 70
     1
 10
0.0
 20
0.0
 30
0.0
  3
*D89
  1

  0
LINE
  5
60C34
330
60951
100
AcDbEntity
  8
2
100
AcDbLine
 10
63.5
 20
30.4645806656227
 30
0.0
 11
63.49999999999999
 21
-58.54396838913407
 31
0.0
  0
LINE
  5
60C35
330
60951
100
AcDbEntity
  8
2
100
AcDbLine
 10
61.40000000000004
 20
23.52626515562807
 30
0.0
 11
61.40000000000003
 21
-58.54396838913407
 31
0.0
  0
LINE
  5
60C36
330
60951
100
AcDbEntity
  8
2
100
AcDbLine
 10
57.90000000000002
 20
-57.04396838913408
 30
0.0
 11
54.40000000000003
 21
-57.04396838913408
 31
0.0
  0
LINE
  5
60C37
330
60951
100
AcDbEntity
  8
2
100
AcDbLine
 10
67.0
 20
-57.04396838913408
 30
0.0
 11
117.6833333333333
 21
-57.04396838913408
 31
0.0
  0
SOLID
  5
60C38
330
60951
100
AcDbEntity
  8
2
100
AcDbTrace
 10
57.90000000000002
 20
-56.46063505580074
 30
0.0
 11
57.90000000000002
 21
-57.62730172246741
 31
0.0
 12
61.40000000000003
 22
-57.04396838913408
 32
0.0
 13
61.40000000000003
 23
-57.04396838913408
 33
0.0
  0
SOLID
  5
60C39
330
60951
100
AcDbEntity
  8
2
100
AcDbTrace
 10
67.0
 20
-56.46063505580074
 30
0.0
 11
67.0
 21
-57.62730172246741
 31
0.0
 12
63.49999999999999
 22
-57.04396838913408
 32
0.0
 13
63.49999999999999
 23
-57.04396838913408
 33
0.0
  0
MTEXT
  5
60C3A
330
60951
100
AcDbEntity
  8
2
100
AcDbMText
 10
94.09166666666667
 20
-52.99396838913408
 30
0.0
 40
3.5
 41
0.0
 71
     5
 72
     1
  1
\A1;2.1 [.083"](MAX)
  7
simplex
 73
     1
 44
1.0
1001
ACAD
1000
MTEXTBEGIN
1070
    73
1070
     1
1070
    44
1040
1.0
1070
    74
1070
     0
1000
MTEXTEND
  0
POINT
  5
60C3B
330
60951
100
AcDbEntity
  8
Defpoints
 62
     0
100
AcDbPoint
 10
63.5
 20
30.4645806656227
 30
0.0
  0
POINT
  5
60C3C
330
60951
100
AcDbEntity
  8
Defpoints
 62
     0
100
AcDbPoint
 10
61.40000000000004
 20
23.52626515562807
 30
0.0
  0
POINT
  5
60C3D
330
60951
100
AcDbEntity
  8
Defpoints
 62
     0
100
AcDbPoint
 10
61.40000000000003
 20
-57.04396838913408
 30
0.0
  0
ENDBLK
  5
6095D
330
60951
100
AcDbEntity
  8
0
100
AcDbBlockEnd
  0
BLOCK
  5
60976
330
6096B
100
AcDbEntity
  8
0
100
AcDbBlockBegin
  2
*D90
 70
     1
 10
0.0
 20
0.0
 30
0.0
  3
*D90
  1

  0
LINE
  5
60C3E
330
6096B
100
AcDbEntity
  8
2
100
AcDbLine
 10
63.5
 20
30.4645806656227
 30
0.0
 11
63.5
 21
57.25939886565538
 31
0.0
  0
LINE
  5
60C3F
330
6096B
100
AcDbEntity
  8
2
100
AcDbLine
 10
61.5
 20
36.60539624667467
 30
0.0
 11
61.5
 21
57.25939886565538
 31
0.0
  0
LINE
  5
60C40
330
6096B
100
AcDbEntity
  8
2
100
AcDbLine
 10
67.0
 20
55.75939886565539
 30
0.0
 11
70.5
 21
55.75939886565539
 31
0.0
  0
LINE
  5
60C41
330
6096B
100
AcDbEntity
  8
2
100
AcDbLine
 10
58.0
 20
55.75939886565539
 30
0.0
 11
-65.01666666666665
 21
55.75939886565539
 31
0.0
  0
SOLID
  5
60C42
330
6096B
100
AcDbEntity
  8
2
100
AcDbTrace
 10
67.0
 20
56.34273219898872
 30
0.0
 11
67.0
 21
55.17606553232205
 31
0.0
 12
63.5
 22
55.75939886565539
 32
0.0
 13
63.5
 23
55.75939886565539
 33
0.0
  0
SOLID
  5
60C43
330
6096B
100
AcDbEntity
  8
2
100
AcDbTrace
 10
58.0
 20
56.34273219898872
 30
0.0
 11
58.0
 21
55.17606553232205
 31
0.0
 12
61.5
 22
55.75939886565539
 32
0.0
 13
61.5
 23
55.75939886565539
 33
0.0
  0
MTEXT
  5
60C44
330
6096B
100
AcDbEntity
  8
2
100
AcDbMText
 10
-5.258333333333325
 20
59.80939886565538
 30
0.0
 40
3.5
 41
0.0
 71
     5
 72
     1
  1
\A1;2 [.079"](APMX AT HIGH FEED PROCESS)
  7
simplex
 73
     1
 44
1.0
1001
ACAD
1000
MTEXTBEGIN
1070
    73
1070
     1
1070
    44
1040
1.0
1070
    74
1070
     0
1000
MTEXTEND
  0
POINT
  5
60C45
330
6096B
100
AcDbEntity
  8
Defpoints
 62
     0
100
AcDbPoint
 10
63.5
 20
30.4645806656227
 30
0.0
  0
POINT
  5
60C46
330
6096B
100
AcDbEntity
  8
Defpoints
 62
     0
100
AcDbPoint
 10
61.5
 20
36.60539624667467
 30
0.0
  0
POINT
  5
60C47
330
6096B
100
AcDbEntity
  8
Defpoints
 62
     0
100
AcDbPoint
 10
61.5
 20
55.75939886565539
 30
0.0
  0
ENDBLK
  5
60977
330
6096B
100
AcDbEntity
  8
0
100
AcDbBlockEnd
  0
BLOCK
  5
60990
330
60985
100
AcDbEntity
  8
0
100
AcDbBlockBegin
  2
*D91
 70
     1
 10
0.0
 20
0.0
 30
0.0
  3
*D91
  1

  0
LINE
  5
60C48
330
60985
100
AcDbEntity
  8
2
100
AcDbLine
 10
63.5
 20
30.4645806656227
 30
0.0
 11
63.5
 21
68.05214122297297
 31
0.0
  0
LINE
  5
60C49
330
60985
100
AcDbEntity
  8
2
100
AcDbLine
 10
60.5
 20
37.47530722166611
 30
0.0
 11
60.5
 21
68.05214122297297
 31
0.0
  0
LINE
  5
60C4A
330
60985
100
AcDbEntity
  8
2
100
AcDbLine
 10
67.0
 20
66.55214122297298
 30
0.0
 11
70.5
 21
66.55214122297298
 31
0.0
  0
LINE
  5
60C4B
330
60985
100
AcDbEntity
  8
2
100
AcDbLine
 10
57.0
 20
66.55214122297298
 30
0.0
 11
12.73333333333334
 21
66.55214122297298
 31
0.0
  0
SOLID
  5
60C4C
330
60985
100
AcDbEntity
  8
2
100
AcDbTrace
 10
67.0
 20
67.13547455630631
 30
0.0
 11
67.0
 21
65.96880788963964
 31
0.0
 12
63.5
 22
66.55214122297298
 32
0.0
 13
63.5
 23
66.55214122297298
 33
0.0
  0
SOLID
  5
60C4D
330
60985
100
AcDbEntity
  8
2
100
AcDbTrace
 10
57.0
 20
67.13547455630631
 30
0.0
 11
57.0
 21
65.96880788963964
 31
0.0
 12
60.5
 22
66.55214122297298
 32
0.0
 13
60.5
 23
66.55214122297298
 33
0.0
  0
MTEXT
  5
60C4E
330
60985
100
AcDbEntity
  8
2
100
AcDbMText
 10
33.11666666666667
 20
70.60214122297297
 30
0.0
 40
3.5
 41
0.0
 71
     5
 72
     1
  1
\A1;APMX3 [.118"]
  7
simplex
 73
     1
 44
1.0
1001
ACAD
1000
MTEXTBEGIN
1070
    73
1070
     1
1070
    44
1040
1.0
1070
    74
1070
     0
1000
MTEXTEND
  0
POINT
  5
60C4F
330
60985
100
AcDbEntity
  8
Defpoints
 62
     0
100
AcDbPoint
 10
63.5
 20
30.4645806656227
 30
0.0
  0
POINT
  5
60C50
330
60985
100
AcDbEntity
  8
Defpoints
 62
     0
100
AcDbPoint
 10
60.5
 20
37.47530722166611
 30
0.0
  0
POINT
  5
60C51
330
60985
100
AcDbEntity
  8
Defpoints
 62
     0
100
AcDbPoint
 10
60.5
 20
66.55214122297298
 30
0.0
  0
ENDBLK
  5
60991
330
60985
100
AcDbEntity
  8
0
100
AcDbBlockEnd
  0
BLOCK
  5
609A9
330
6099F
100
AcDbEntity
  8
0
100
AcDbBlockBegin
  2
*D92
 70
     1
 10
0.0
 20
0.0
 30
0.0
  3
*D92
  1

  0
LINE
  5
60C52
330
6099F
100
AcDbEntity
  8
2
100
AcDbLine
 10
63.5
 20
30.4645806656227
 30
0.0
 11
63.5
 21
78.92771461007999
 31
0.0
  0
LINE
  5
60C53
330
6099F
100
AcDbEntity
  8
2
100
AcDbLine
 10
0.0
 20
34.51249999999993
 30
0.0
 11
0.0000000000000027
 21
78.92771461007999
 31
0.0
  0
LINE
  5
60C54
330
6099F
100
AcDbEntity
  8
2
100
AcDbLine
 10
60.0
 20
77.42771461007999
 30
0.0
 11
3.500000000000002
 21
77.42771461007999
 31
0.0
  0
SOLID
  5
60C55
330
6099F
100
AcDbEntity
  8
2
100
AcDbTrace
 10
60.0
 20
78.01104794341331
 30
0.0
 11
60.0
 21
76.84438127674666
 31
0.0
 12
63.5
 22
77.42771461007999
 32
0.0
 13
63.5
 23
77.42771461007999
 33
0.0
  0
SOLID
  5
60C56
330
6099F
100
AcDbEntity
  8
2
100
AcDbTrace
 10
3.500000000000002
 20
78.01104794341331
 30
0.0
 11
3.500000000000002
 21
76.84438127674666
 31
0.0
 12
0.0000000000000026
 22
77.42771461007999
 32
0.0
 13
0.0000000000000026
 23
77.42771461007999
 33
0.0
  0
MTEXT
  5
60C57
330
6099F
100
AcDbEntity
  8
2
100
AcDbMText
 10
31.75
 20
81.47771461007998
 30
0.0
 40
3.5
 41
0.0
 71
     5
 72
     1
  1
\A1;63.5 [2.500"]
  7
simplex
 73
     1
 44
1.0
1001
ACAD
1000
MTEXTBEGIN
1070
    73
1070
     1
1070
    44
1040
1.0
1070
    74
1070
     0
1000
MTEXTEND
  0
POINT
  5
60C58
330
6099F
100
AcDbEntity
  8
Defpoints
 62
     0
100
AcDbPoint
 10
63.5
 20
30.4645806656227
 30
0.0
  0
POINT
  5
60C59
330
6099F
100
AcDbEntity
  8
Defpoints
 62
     0
100
AcDbPoint
 10
0.0
 20
34.51249999999993
 30
0.0
  0
POINT
  5
60C5A
330
6099F
100
AcDbEntity
  8
Defpoints
 62
     0
100
AcDbPoint
 10
0.0000000000000026
 20
77.42771461007999
 30
0.0
  0
ENDBLK
  5
609AA
330
6099F
100
AcDbEntity
  8
0
100
AcDbBlockEnd
  0
BLOCK
  5
609C0
330
609B8
100
AcDbEntity
  8
0
100
AcDbBlockBegin
  2
*D93
 70
     1
 10
0.0
 20
0.0
 30
0.0
  3
*D93
  1

  0
LINE
  5
60C5B
330
609B8
100
AcDbEntity
  8
2
100
AcDbLine
 10
102.060159003044
 20
58.37567497169132
 30
0.0
 11
64.53421563823451
 21
38.38891637942454
 31
0.0
  0
MTEXT
  5
60C5C
330
609B8
100
AcDbEntity
  8
2
100
AcDbMText
 10
82.93789359872009
 20
52.77955709846531
 30
0.0
 40
3.5
 41
0.0
 71
     5
 72
     1
  1
\A1;R1.5 [R.059"]
  7
simplex
 11
0.8826172488783116
 21
0.4700923228286977
 31
0.0
 73
     1
 44
1.0
1001
ACAD
1000
MTEXTBEGIN
1070
    73
1070
     1
1070
    44
1040
1.0
1070
    74
1070
     0
1000
MTEXTEND
  0
SOLID
  5
60C5D
330
609B8
100
AcDbEntity
  8
2
100
AcDbTrace
 10
64.25999511658443
 20
38.90377644127022
 30
0.0
 11
64.80843615988459
 21
37.87405631757886
 31
0.0
 12
61.44505526716041
 22
36.74359324952409
 32
0.0
 13
61.44505526716041
 23
36.74359324952409
 33
0.0
  0
LINE
  5
60C5E
330
609B8
100
AcDbEntity
  8
2
100
AcDbLine
 10
60.03112939384317
 20
36.03845476528118
 30
0.0
 11
60.21112939384317
 21
36.03845476528117
 31
0.0
  0
LINE
  5
60C5F
330
609B8
100
AcDbEntity
  8
2
100
AcDbLine
 10
60.12112939384317
 20
35.94845476528116
 30
0.0
 11
60.12112939384318
 21
36.12845476528117
 31
0.0
  0
POINT
  5
60C60
330
609B8
100
AcDbEntity
  8
Defpoints
 62
     0
100
AcDbPoint
 10
61.44505526716041
 20
36.74359324952409
 30
0.0
  0
POINT
  5
60C61
330
609B8
100
AcDbEntity
  8
Defpoints
 62
     0
100
AcDbPoint
 10
60.12112939384318
 20
36.03845476528117
 30
0.0
  0
ENDBLK
  5
609C1
330
609B8
100
AcDbEntity
  8
0
100
AcDbBlockEnd
  0
ENDSEC
  0
SECTION
  2
ENTITIES
  0
INSERT
  5
68C
330
1F
100
AcDbEntity
  8
0
100
AcDbBlockReference
  2
zero block
 10
0.0000000000000072
 20
0.0
 30
0.0
 50
180.0
  0
MTEXT
  5
5CD11
330
1F
100
AcDbEntity
  8
sk6
100
AcDbMText
 10
-4.313683593221639
 20
99.85505536519804
 30
0.0
 40
5.0
 41
85.25075165579854
 71
     1
 72
     5
  1
WJX14UR3_0005DA
  7
simplex
 73
     1
 44
1.0
1001
ACAD
1000
ACAD_MTEXT_DEFINED_HEIGHT_BEGIN
1070
    46
1040
0.0
1000
ACAD_MTEXT_DEFINED_HEIGHT_END
1000
MTEXTBEGIN
1070
    73
1070
     1
1070
    44
1040
1.0
1070
    74
1070
     0
1000
MTEXTEND
  0
LINE
  5
6077F
330
1F
100
AcDbEntity
  8
cut
100
AcDbLine
 10
63.43637431679994
 20
30.86310458309993
 30
0.0
 11
61.54834887070001
 21
37.03855755709992
 31
0.0
1001
ACAD
1000
RTMaterial
1005
0
  0
LINE
  5
60781
330
1F
100
AcDbEntity
  8
cut
100
AcDbLine
 10
59.97441482979997
 20
38.09350131989993
 30
0.0
 11
56.24838147419996
 21
37.74553001179993
 31
0.0
1001
ACAD
1000
RTMaterial
1005
0
  0
LINE
  5
60784
330
1F
100
AcDbEntity
  8
1
100
AcDbLine
 10
53.0984033984
 20
-36.57458758410007
 30
0.0
 11
54.36712948139998
 21
-36.2469424479001
 31
0.0
1001
ACAD
1000
RTMaterial
1005
0
  0
LINE
  5
60785
330
1F
100
AcDbEntity
  8
1
100
AcDbLine
 10
48.99451001349993
 20
-36.60000000000008
 30
0.0
 11
52.89836821519995
 21
-36.60000000000008
 31
0.0
1001
ACAD
1000
RTMaterial
1005
0
  0
LINE
  5
60786
330
1F
100
AcDbEntity
  8
1
100
AcDbLine
 10
9.028098454299907
 20
-36.51250000000004
 30
0.0
 11
1.999999999999971
 21
-36.51250000000004
 31
0.0
1001
ACAD
1000
RTMaterial
1005
0
  0
LINE
  5
60787
330
1F
100
AcDbEntity
  8
1
100
AcDbLine
 10
54.63671017479995
 20
-36.22455862600015
 30
0.0
 11
59.49538781609996
 21
-36.64853772060013
 31
0.0
1001
ACAD
1000
RTMaterial
1005
0
  0
LINE
  5
60788
330
1F
100
AcDbEntity
  8
1
100
AcDbLine
 10
32.80290174099994
 20
-32.1066461338001
 30
0.0
 11
46.07079296629993
 21
-36.16304755960005
 31
0.0
1001
ACAD
1000
RTMaterial
1005
0
  0
LINE
  5
60789
330
1F
100
AcDbEntity
  8
1
100
AcDbLine
 10
60.75069842699995
 20
-35.7925163494001
 30
0.0
 11
62.19999999999996
 21
-30.87808091760007
 31
0.0
1001
ACAD
1000
RTMaterial
1005
0
  0
LINE
  5
6078A
330
1F
100
AcDbEntity
  8
1
100
AcDbLine
 10
19.46333577819999
 20
-32.68906416170012
 30
0.0
 11
10.90113142139998
 21
-36.14841927280003
 31
0.0
1001
ACAD
1000
RTMaterial
1005
0
  0
LINE
  5
6078B
330
1F
100
AcDbEntity
  8
sk3
100
AcDbLine
 10
17.83926112069994
 20
-16.42504622960007
 30
0.0
 11
16.65968317469995
 21
-15.87500000000005
 31
0.0
1001
ACAD
1000
RTMaterial
1005
0
  0
LINE
  5
6078D
330
1F
100
AcDbEntity
  8
sk3
100
AcDbLine
 10
31.19999999999996
 20
-16.50000000000005
 30
0.0
 11
18.17735573009995
 21
-16.50000000000005
 31
0.0
1001
ACAD
1000
RTMaterial
1005
0
  0
LINE
  5
6078E
330
1F
100
AcDbEntity
  8
sk3
100
AcDbLine
 10
1.19999999999996
 20
-16.37500000000005
 30
0.0
 11
5.999999999999971
 21
-16.37500000000005
 31
0.0
1001
ACAD
1000
RTMaterial
1005
0
  0
LINE
  5
6078F
102
{ACAD_REACTORS
330
6091F
102
}
330
1F
100
AcDbEntity
  8
sk3
100
AcDbLine
 10
16.65968317469995
 20
-15.87500000000005
 30
0.0
 11
5.999999999999971
 21
-15.87500000000005
 31
0.0
1001
ACAD
1000
RTMaterial
1005
0
  0
LINE
  5
60790
330
1F
100
AcDbEntity
  8
1
100
AcDbLine
 10
-0.0000000000000284
 20
7.349999999999965
 30
0.0
 11
0.9999999999999715
 21
6.349999999999965
 31
0.0
1001
ACAD
1000
RTMaterial
1005
0
  0
LINE
  5
60792
330
1F
100
AcDbEntity
  8
sk3
100
AcDbLine
 10
59.0
 20
18.89230957209992
 30
0.0
 11
58.99999999999997
 21
-18.89230957210003
 31
0.0
1001
ACAD
1000
RTMaterial
1005
0
  0
LINE
  5
60793
330
1F
100
AcDbEntity
  8
sk3
100
AcDbLine
 10
58.0
 20
12.99999999999994
 30
0.0
 11
57.99999999999997
 21
-13.00000000000006
 31
0.0
1001
ACAD
1000
RTMaterial
1005
0
  0
LINE
  5
60794
330
1F
100
AcDbEntity
  8
sk3
100
AcDbLine
 10
57.99999999999997
 20
-13.00000000000006
 30
0.0
 11
40.39999999999994
 21
-13.00000000000006
 31
0.0
1001
ACAD
1000
RTMaterial
1005
0
  0
LINE
  5
60795
330
1F
100
AcDbEntity
  8
1
100
AcDbLine
 10
6.139999999999957
 20
6.349999999999965
 30
0.0
 11
7.139999999999957
 21
5.349999999999965
 31
0.0
1001
ACAD
1000
RTMaterial
1005
0
  0
LINE
  5
60797
330
1F
100
AcDbEntity
  8
sk3
100
AcDbLine
 10
39.49999999999997
 20
-8.500000000000056
 30
0.0
 11
32.39999999999998
 21
-8.500000000000056
 31
0.0
1001
ACAD
1000
RTMaterial
1005
0
  0
LINE
  5
60798
330
1F
100
AcDbEntity
  8
sk3
100
AcDbLine
 10
1.199999999999988
 20
16.37499999999994
 30
0.0
 11
0.0
 21
17.57499999999993
 31
0.0
1001
ACAD
1000
RTMaterial
1005
0
  0
LINE
  5
6079B
330
1F
100
AcDbEntity
  8
1
100
AcDbLine
 10
6.139999999999957
 20
-6.350000000000079
 30
0.0
 11
0.9999999999999715
 21
-6.350000000000079
 31
0.0
1001
ACAD
1000
RTMaterial
1005
0
  0
LINE
  5
6079C
330
1F
100
AcDbEntity
  8
sk3
100
AcDbLine
 10
59.0
 20
13.99999999999994
 30
0.0
 11
58.0
 21
12.99999999999994
 31
0.0
1001
ACAD
1000
RTMaterial
1005
0
  0
LINE
  5
6079D
330
1F
100
AcDbEntity
  8
4
100
AcDbLine
 10
67.10243534269991
 20
-0.0000000000000568
 30
0.0
 11
-4.217102988800064
 21
-0.0000000000000568
 31
0.0
1001
ACAD
1000
RTMaterial
1005
0
  0
LINE
  5
6079E
330
1F
100
AcDbEntity
  8
sk3
100
AcDbLine
 10
39.49999999999997
 20
-8.500000000000056
 30
0.0
 11
39.99999999999997
 21
-9.000000000000056
 31
0.0
1001
ACAD
1000
RTMaterial
1005
0
  0
LINE
  5
6079F
330
1F
100
AcDbEntity
  8
sk3
100
AcDbLine
 10
40.0
 20
12.59999999999996
 30
0.0
 11
39.99999999999997
 21
-12.60000000000008
 31
0.0
1001
ACAD
1000
RTMaterial
1005
0
  0
LINE
  5
607A0
330
1F
100
AcDbEntity
  8
sk3
100
AcDbLine
 10
39.5
 20
8.499999999999943
 30
0.0
 11
39.49999999999997
 21
-8.500000000000056
 31
0.0
1001
ACAD
1000
RTMaterial
1005
0
  0
LINE
  5
607A2
330
1F
100
AcDbEntity
  8
1
100
AcDbLine
 10
0.9999999999999715
 20
6.349999999999965
 30
0.0
 11
6.139999999999957
 21
6.349999999999965
 31
0.0
1001
ACAD
1000
RTMaterial
1005
0
  0
LINE
  5
607A3
330
1F
100
AcDbEntity
  8
sk3
100
AcDbLine
 10
39.5
 20
8.499999999999943
 30
0.0
 11
32.39999999999998
 21
8.499999999999943
 31
0.0
1001
ACAD
1000
RTMaterial
1005
0
  0
LINE
  5
607A4
330
1F
100
AcDbEntity
  8
sk3
100
AcDbLine
 10
39.5
 20
8.499999999999943
 30
0.0
 11
40.0
 21
8.999999999999943
 31
0.0
1001
ACAD
1000
RTMaterial
1005
0
  0
LINE
  5
607A5
330
1F
100
AcDbEntity
  8
sk3
100
AcDbLine
 10
58.99999999999997
 20
-14.00000000000005
 30
0.0
 11
57.99999999999997
 21
-13.00000000000006
 31
0.0
1001
ACAD
1000
RTMaterial
1005
0
  0
LINE
  5
607A6
102
{ACAD_REACTORS
330
6094F
102
}
330
1F
100
AcDbEntity
  8
sk3
100
AcDbLine
 10
31.99999999999997
 20
-15.69999959600011
 30
0.0
 11
32.0
 21
15.69577211779995
 31
0.0
1001
ACAD
1000
RTMaterial
1005
0
  0
LINE
  5
607A9
330
1F
100
AcDbEntity
  8
sk3
100
AcDbLine
 10
58.0
 20
12.99999999999994
 30
0.0
 11
40.39999999999998
 21
12.99999999999994
 31
0.0
1001
ACAD
1000
RTMaterial
1005
0
  0
LINE
  5
607AA
102
{ACAD_REACTORS
330
6091F
102
}
330
1F
100
AcDbEntity
  8
sk3
100
AcDbLine
 10
16.65968317469998
 20
15.87499999999994
 30
0.0
 11
6.0
 21
15.87499999999994
 31
0.0
1001
ACAD
1000
RTMaterial
1005
0
  0
LINE
  5
607AB
330
1F
100
AcDbEntity
  8
sk3
100
AcDbLine
 10
1.199999999999988
 20
16.37499999999994
 30
0.0
 11
6.0
 21
16.37499999999994
 31
0.0
1001
ACAD
1000
RTMaterial
1005
0
  0
LINE
  5
607AC
330
1F
100
AcDbEntity
  8
sk3
100
AcDbLine
 10
31.19999999999999
 20
16.49999999999994
 30
0.0
 11
18.17735573009997
 21
16.49999999999994
 31
0.0
1001
ACAD
1000
RTMaterial
1005
0
  0
LINE
  5
607B0
330
1F
100
AcDbEntity
  8
sk3
100
AcDbLine
 10
1.19999999999996
 20
-16.37500000000005
 30
0.0
 11
-0.0000000000000284
 21
-17.57500000000004
 31
0.0
1001
ACAD
1000
RTMaterial
1005
0
  0
LINE
  5
607B1
330
1F
100
AcDbEntity
  8
sk3
100
AcDbLine
 10
60.34743411329995
 20
-25.10579850410011
 30
0.0
 11
62.19999999999996
 21
-29.1763421399001
 31
0.0
1001
ACAD
1000
RTMaterial
1005
0
  0
LINE
  5
607B2
330
1F
100
AcDbEntity
  8
1
100
AcDbLine
 10
7.139999999999957
 20
-5.350000000000079
 30
0.0
 11
6.139999999999957
 21
-6.350000000000079
 31
0.0
1001
ACAD
1000
RTMaterial
1005
0
  0
LINE
  5
607B6
330
1F
100
AcDbEntity
  8
1
100
AcDbLine
 10
0.9999999999999715
 20
-6.350000000000079
 30
0.0
 11
-0.0000000000000284
 21
-7.350000000000079
 31
0.0
1001
ACAD
1000
RTMaterial
1005
0
  0
LINE
  5
607B9
330
1F
100
AcDbEntity
  8
sk3
100
AcDbLine
 10
17.83926112069997
 20
16.42504622959996
 30
0.0
 11
16.65968317469998
 21
15.87499999999994
 31
0.0
1001
ACAD
1000
RTMaterial
1005
0
  0
LINE
  5
607C0
330
1F
100
AcDbEntity
  8
sk3
100
AcDbLine
 10
16.65968317469998
 20
15.87499999999994
 30
0.0
 11
16.65968317469995
 21
-15.87500000000005
 31
0.0
1001
ACAD
1000
RTMaterial
1005
0
  0
LINE
  5
607DE
330
1F
100
AcDbEntity
  8
1
100
AcDbLine
 10
9.028098454299936
 20
36.51249999999993
 30
0.0
 11
2.0
 21
36.51249999999993
 31
0.0
1001
ACAD
1000
RTMaterial
1005
0
  0
LINE
  5
607E0
330
1F
100
AcDbEntity
  8
1
100
AcDbLine
 10
7.139999999999957
 20
5.349999999999965
 30
0.0
 11
7.139999999999957
 21
-5.350000000000079
 31
0.0
1001
ACAD
1000
RTMaterial
1005
0
  0
LINE
  5
607E1
330
1F
100
AcDbEntity
  8
sk3
100
AcDbLine
 10
5.999999999999971
 20
-16.37499762160007
 30
0.0
 11
5.999999999999971
 21
-6.350000000000079
 31
0.0
1001
ACAD
1000
RTMaterial
1005
0
  0
LINE
  5
607E2
330
1F
100
AcDbEntity
  8
sk3
100
AcDbLine
 10
5.999999999999971
 20
6.349999999999965
 30
0.0
 11
6.0
 21
16.37499762149986
 31
0.0
1001
ACAD
1000
RTMaterial
1005
0
  0
LINE
  5
607E4
330
1F
100
AcDbEntity
  8
sk3
100
AcDbLine
 10
1.199999999999988
 20
16.37499999999994
 30
0.0
 11
1.19999999999996
 21
6.349999999999965
 31
0.0
1001
ACAD
1000
RTMaterial
1005
0
  0
LINE
  5
607E5
330
1F
100
AcDbEntity
  8
sk3
100
AcDbLine
 10
1.19999999999996
 20
-6.350000000000079
 30
0.0
 11
1.19999999999996
 21
-16.37500000000005
 31
0.0
1001
ACAD
1000
RTMaterial
1005
0
  0
LINE
  5
607E6
330
1F
100
AcDbEntity
  8
1
100
AcDbLine
 10
-0.0000000000000284
 20
-34.51250000000005
 30
0.0
 11
-0.0000000000000284
 21
-7.350000000000079
 31
0.0
1001
ACAD
1000
RTMaterial
1005
0
  0
LINE
  5
607E7
330
1F
100
AcDbEntity
  8
1
100
AcDbLine
 10
-0.0000000000000284
 20
7.349999999999965
 30
0.0
 11
0.0
 21
34.51249999999993
 31
0.0
1001
ACAD
1000
RTMaterial
1005
0
  0
ARC
  5
607ED
330
1F
100
AcDbEntity
  8
cut
100
AcDbCircle
 10
60.11389173679998
 20
36.59999999999997
 30
0.0
 40
1.5
100
AcDbArc
 50
16.99999999999887
 51
95.33533266130111
1001
ACAD
1000
RTMaterial
1005
0
  0
ARC
  5
607F2
330
1F
100
AcDbEntity
  8
1
100
AcDbCircle
 10
26.95546764649995
 20
-51.23274125310013
 30
0.0
 40
20.0
100
AcDbArc
 50
72.99999999999982
 51
111.9999999999996
1001
ACAD
1000
RTMaterial
1005
0
  0
ARC
  5
607F3
330
1F
100
AcDbEntity
  8
sk3
100
AcDbCircle
 10
73.99999999999997
 20
-18.89230957210003
 30
0.0
 40
15.0
100
AcDbArc
 50
180.0
 51
204.4709986590996
1001
ACAD
1000
RTMaterial
1005
0
  0
ARC
  5
607F4
330
1F
100
AcDbEntity
  8
sk3
100
AcDbCircle
 10
73.99999999999997
 20
18.89230957209992
 30
0.0
 40
15.0
100
AcDbArc
 50
170.4253833899008
 51
180.0
1001
ACAD
1000
RTMaterial
1005
0
  0
ARC
  5
607F8
330
1F
100
AcDbEntity
  8
1
100
AcDbCircle
 10
48.99451001349993
 20
-26.60000000000008
 30
0.0
 40
10.0
100
AcDbArc
 50
252.9999999999998
 51
270.0
1001
ACAD
1000
RTMaterial
1005
0
  0
ARC
  5
607FB
330
1F
100
AcDbEntity
  8
1
100
AcDbCircle
 10
9.028098454299907
 20
-31.51250000000004
 30
0.0
 40
5.0
100
AcDbArc
 50
270.0
 51
291.9999999999996
1001
ACAD
1000
RTMaterial
1005
0
  0
ARC
  5
607FC
102
{ACAD_REACTORS
330
60937
330
609B5
102
}
330
1F
100
AcDbEntity
  8
1
100
AcDbCircle
 10
2.0
 20
34.51249999999993
 30
0.0
 40
2.0
100
AcDbArc
 50
90.0
 51
180.0
1001
ACAD
1000
RTMaterial
1005
0
  0
ARC
  5
607FD
102
{ACAD_REACTORS
330
60937
330
6094F
102
}
330
1F
100
AcDbEntity
  8
1
100
AcDbCircle
 10
1.999999999999971
 20
-34.51250000000005
 30
0.0
 40
2.0
100
AcDbArc
 50
180.0
 51
270.0
1001
ACAD
1000
RTMaterial
1005
0
  0
ARC
  5
607FE
330
1F
100
AcDbEntity
  8
1
100
AcDbCircle
 10
59.59970608129996
 20
-35.45308061150007
 30
0.0
 40
1.199999999999999
100
AcDbArc
 50
265.0128748182994
 51
343.5688410675002
1001
ACAD
1000
RTMaterial
1005
0
  0
ARC
  5
607FF
330
1F
100
AcDbEntity
  8
sk3
100
AcDbCircle
 10
31.19999999999999
 20
15.69999999999993
 30
0.0
 40
0.8
100
AcDbArc
 50
0.0
 51
90.0
1001
ACAD
1000
RTMaterial
1005
0
  0
ARC
  5
60800
330
1F
100
AcDbEntity
  8
sk3
100
AcDbCircle
 10
31.19999999999999
 20
-15.70000000000004
 30
0.0
 40
0.8
100
AcDbArc
 50
270.0
 51
0.0
1001
ACAD
1000
RTMaterial
1005
0
  0
ARC
  5
60801
330
1F
100
AcDbEntity
  8
sk3
100
AcDbCircle
 10
18.17735573009995
 20
-15.70000000000004
 30
0.0
 40
0.8
100
AcDbArc
 50
245.0000000000003
 51
270.0
1001
ACAD
1000
RTMaterial
1005
0
  0
ARC
  5
60802
330
1F
100
AcDbEntity
  8
sk3
100
AcDbCircle
 10
18.17735573009997
 20
15.69999999999993
 30
0.0
 40
0.8
100
AcDbArc
 50
90.0
 51
114.9999999999996
1001
ACAD
1000
RTMaterial
1005
0
  0
ARC
  5
60803
330
1F
100
AcDbEntity
  8
1
100
AcDbCircle
 10
52.89836821519995
 20
-35.80000000000007
 30
0.0
 40
0.8
100
AcDbArc
 50
270.0
 51
284.4801146541998
1001
ACAD
1000
RTMaterial
1005
0
  0
ARC
  5
60804
330
1F
100
AcDbEntity
  8
1
100
AcDbCircle
 10
54.56716466469996
 20
-37.0215300320001
 30
0.0
 40
0.8
100
AcDbArc
 50
85.01287481829939
 51
104.4801146541998
1001
ACAD
1000
RTMaterial
1005
0
  0
ARC
  5
60805
330
1F
100
AcDbEntity
  8
sk3
100
AcDbCircle
 10
40.39999999999994
 20
-12.60000000000008
 30
0.0
 40
0.4
100
AcDbArc
 50
180.0
 51
270.0
1001
ACAD
1000
RTMaterial
1005
0
  0
ARC
  5
60806
330
1F
100
AcDbEntity
  8
sk3
100
AcDbCircle
 10
40.39999999999998
 20
12.59999999999996
 30
0.0
 40
0.4
100
AcDbArc
 50
90.0
 51
180.0
1001
ACAD
1000
RTMaterial
1005
0
  0
ARC
  5
60807
330
1F
100
AcDbEntity
  8
sk3
100
AcDbCircle
 10
32.39999999999998
 20
-8.900000000000034
 30
0.0
 40
0.4
100
AcDbArc
 50
90.0
 51
180.0
1001
ACAD
1000
RTMaterial
1005
0
  0
ARC
  5
60808
330
1F
100
AcDbEntity
  8
sk3
100
AcDbCircle
 10
32.39999999999998
 20
8.89999999999992
 30
0.0
 40
0.4
100
AcDbArc
 50
180.0
 51
270.0
1001
ACAD
1000
RTMaterial
1005
0
  0
SPLINE
  5
6080D
330
1F
100
AcDbEntity
  8
cut
100
AcDbSpline
210
0.0
220
0.0
230
1.0
 70
     8
 71
     3
 72
    22
 73
    18
 74
     0
 42
0.0000000001
 43
0.0000000001
 40
0.0
 40
0.0
 40
0.0
 40
0.0
 40
0.0666666667
 40
0.1333333333
 40
0.2
 40
0.2666666667
 40
0.3333333333
 40
0.4
 40
0.4666666667000001
 40
0.5333333333
 40
0.6
 40
0.6666666667
 40
0.7333333333
 40
0.8
 40
0.8666666667000001
 40
0.9333333333
 40
1.0
 40
1.0
 40
1.0
 40
1.0
 10
63.47384048889998
 20
29.12352037469998
 30
0.0
 10
63.47543857349993
 20
29.15162778679997
 30
0.0
 10
63.47848044639997
 20
29.20735566669993
 30
0.0
 10
63.48254018119994
 20
29.28851025539996
 30
0.0
 10
63.48626014599997
 20
29.3701543782999
 30
0.0
 10
63.48969429749999
 20
29.45431966849992
 30
0.0
 10
63.49287311769993
 20
29.54290839459992
 30
0.0
 10
63.49569643959998
 20
29.63455877479987
 30
0.0
 10
63.49809824679991
 20
29.72814019079988
 30
0.0
 10
63.50003925849993
 20
29.82244159449994
 30
0.0
 10
63.50149764219995
 20
29.91634778639991
 30
0.0
 10
63.50245862449995
 20
30.00851030679996
 30
0.0
 10
63.50292858479995
 20
30.09775307449991
 30
0.0
 10
63.50294665999999
 20
30.1825991062999
 30
0.0
 10
63.50256796569997
 20
30.26491902689986
 30
0.0
 10
63.50181652639995
 20
30.3466624516999
 30
0.0
 10
63.50104374289995
 20
30.40295722529993
 30
0.0
 10
63.50058650509996
 20
30.43137236649989
 30
0.0
1001
ACAD
1000
RTMaterial
1005
0
  0
SPLINE
  5
6080E
330
1F
100
AcDbEntity
  8
cut
100
AcDbSpline
210
0.0
220
0.0
230
1.0
 70
     8
 71
     3
 72
    11
 73
     7
 74
     0
 42
0.0000000001
 43
0.0000000001
 40
0.0
 40
0.0
 40
0.0
 40
0.0
 40
0.25
 40
0.5
 40
0.75
 40
1.0
 40
1.0
 40
1.0
 40
1.0
 10
63.50000023459998
 20
30.46456969769991
 30
0.0
 10
63.49923314469996
 20
30.50043459559993
 30
0.0
 10
63.49532418119995
 20
30.57090358159991
 30
0.0
 10
63.48193963689997
 20
30.67334052329989
 30
0.0
 10
63.46231182319994
 20
30.77096512989994
 30
0.0
 10
63.44556327279994
 20
30.83289136489992
 30
0.0
 10
63.43637431679994
 20
30.86310458309993
 30
0.0
1001
ACAD
1000
RTMaterial
1005
0
  0
LINE
  5
6080F
330
1F
100
AcDbEntity
  8
cut
100
AcDbLine
 10
63.50058650509996
 20
30.43137236649989
 30
0.0
 11
63.50000023459998
 21
30.46456969769991
 31
0.0
1001
ACAD
1000
RTMaterial
1005
0
  0
SPLINE
  5
60810
330
1F
100
AcDbEntity
  8
cut
100
AcDbSpline
210
0.0
220
0.0
230
1.0
 70
     8
 71
     3
 72
    11
 73
     7
 74
     0
 42
0.0000000001
 43
0.0000000001
 40
0.0
 40
0.0
 40
0.0
 40
0.0
 40
0.25
 40
0.5
 40
0.75
 40
1.0
 40
1.0
 40
1.0
 40
1.0
 10
56.24838147419996
 20
37.74553001179993
 30
0.0
 10
56.16717542009997
 20
37.73808013429994
 30
0.0
 10
55.99447261239999
 20
37.72289865049987
 30
0.0
 10
55.70309949529996
 20
37.69998871009989
 30
0.0
 10
55.38344146229997
 20
37.6781381191999
 30
0.0
 10
55.15012178989997
 20
37.66484985429992
 30
0.0
 10
55.02850851789998
 20
37.65873348349993
 30
0.0
1001
ACAD
1000
RTMaterial
1005
0
  0
SPLINE
  5
60811
330
1F
100
AcDbEntity
  8
cut
100
AcDbSpline
210
0.0
220
0.0
230
1.0
 70
     8
 71
     3
 72
    10
 73
     6
 74
     0
 42
0.0000000001
 43
0.0000000001
 40
0.0
 40
0.0
 40
0.0
 40
0.0
 40
0.3333333333
 40
0.6666666667
 40
1.0
 40
1.0
 40
1.0
 40
1.0
 10
55.02850851789998
 20
37.65873348349993
 30
0.0
 10
54.99727832799999
 20
37.65644581049992
 30
0.0
 10
54.93659523989999
 20
37.64941686619989
 30
0.0
 10
54.85030599899999
 20
37.63226527369989
 30
0.0
 10
54.79697084209999
 20
37.6170478311999
 30
0.0
 10
54.7712139848
 20
37.60859568109993
 30
0.0
1001
ACAD
1000
RTMaterial
1005
0
  0
SPLINE
  5
60812
330
1F
100
AcDbEntity
  8
cut
100
AcDbSpline
210
0.0
220
0.0
230
1.0
 70
     8
 71
     3
 72
    10
 73
     6
 74
     0
 42
0.0000000001
 43
0.0000000001
 40
0.0
 40
0.0
 40
0.0
 40
0.0
 40
0.3333333333
 40
0.6666666667
 40
1.0
 40
1.0
 40
1.0
 40
1.0
 10
54.7712139848
 20
37.60859568109993
 30
0.0
 10
54.76218789799998
 20
37.60563375769988
 30
0.0
 10
54.74429113989998
 20
37.59935342759991
 30
0.0
 10
54.71788279509997
 20
37.58883390799991
 30
0.0
 10
54.70063622509997
 20
37.58112026269993
 30
0.0
 10
54.69209503649995
 20
37.5770898525999
 30
0.0
1001
ACAD
1000
RTMaterial
1005
0
  0
SPLINE
  5
60813
330
1F
100
AcDbEntity
  8
cut
100
AcDbSpline
210
0.0
220
0.0
230
1.0
 70
     8
 71
     3
 72
    22
 73
    18
 74
     0
 42
0.0000000001
 43
0.0000000001
 40
0.0
 40
0.0
 40
0.0
 40
0.0
 40
0.0666666667
 40
0.1333333333
 40
0.2
 40
0.2666666667
 40
0.3333333333
 40
0.4
 40
0.4666666667000001
 40
0.5333333333
 40
0.6
 40
0.6666666667
 40
0.7333333333
 40
0.8
 40
0.8666666667000001
 40
0.9333333333
 40
1.0
 40
1.0
 40
1.0
 40
1.0
 10
54.69209503649995
 20
37.5770898525999
 30
0.0
 10
54.66765639089999
 20
37.56555776149986
 30
0.0
 10
54.61926157449994
 20
37.54258843659989
 30
0.0
 10
54.54896404980002
 20
37.50883238779994
 30
0.0
 10
54.47840474559995
 20
37.47456522959993
 30
0.0
 10
54.40584415269995
 20
37.43890026569995
 30
0.0
 10
54.32965746230002
 20
37.40098800169994
 30
0.0
 10
54.25104251639999
 20
37.36136958949993
 30
0.0
 10
54.17098663619999
 20
37.32050903909988
 30
0.0
 10
54.09053481069998
 20
37.27893103579987
 30
0.0
 10
54.0106391942
 20
37.23712884079987
 30
0.0
 10
53.93244368789999
 20
37.19570695829987
 30
0.0
 10
53.85693849609999
 20
37.15520918819994
 30
0.0
 10
53.78535229649997
 20
37.11634490529991
 30
0.0
 10
53.71608033039996
 20
37.07830253109995
 30
0.0
 10
53.64746567739996
 20
37.04020854199991
 30
0.0
 10
53.60032865059998
 20
37.01375759389993
 30
0.0
 10
53.57656661949994
 20
37.00034937539994
 30
0.0
1001
ACAD
1000
RTMaterial
1005
0
  0
SPLINE
  5
60814
330
1F
100
AcDbEntity
  8
cut
100
AcDbSpline
210
0.0
220
0.0
230
1.0
 70
     8
 71
     3
 72
    11
 73
     7
 74
     0
 42
0.0000000001
 43
0.0000000001
 40
0.0
 40
0.0
 40
0.0
 40
0.0
 40
0.25
 40
0.5
 40
0.75
 40
1.0
 40
1.0
 40
1.0
 40
1.0
 10
53.54884158419998
 20
36.98464286289993
 30
0.0
 10
53.52126802989999
 20
36.96896296539995
 30
0.0
 10
53.46680217250002
 20
36.93538981109993
 30
0.0
 10
53.38662163599997
 20
36.87768210749994
 30
0.0
 10
53.31000178439996
 20
36.81392998609994
 30
0.0
 10
53.2610890107
 20
36.76726711099991
 30
0.0
 10
53.23723186559999
 20
36.74286692069995
 30
0.0
1001
ACAD
1000
RTMaterial
1005
0
  0
LINE
  5
60815
330
1F
100
AcDbEntity
  8
cut
100
AcDbLine
 10
53.57656661949994
 20
37.00034937539994
 30
0.0
 11
53.54884158419998
 21
36.98464286289993
 31
0.0
1001
ACAD
1000
RTMaterial
1005
0
  0
SPLINE
  5
60816
330
1F
100
AcDbEntity
  8
cut
100
AcDbSpline
210
0.0
220
0.0
230
1.0
 70
     8
 71
     3
 72
    21
 73
    17
 74
     0
 42
0.0000000001
 43
0.0000000001
 40
0.0
 40
0.0
 40
0.0
 40
0.0
 40
0.0714285714
 40
0.1428571429
 40
0.2142857143
 40
0.2857142857
 40
0.3571428571
 40
0.4285714286
 40
0.5
 40
0.5714285714000001
 40
0.6428571429
 40
0.7142857143000001
 40
0.7857142857
 40
0.8571428570999998
 40
0.9285714285999999
 40
1.0
 40
1.0
 40
1.0
 40
1.0
 10
53.23723186559999
 20
36.74286692069995
 30
0.0
 10
53.17861014449994
 20
36.6829108300999
 30
0.0
 10
53.05630493299998
 20
36.55785039869988
 30
0.0
 10
52.85848256139996
 20
36.35568491379991
 30
0.0
 10
52.64377342669996
 20
36.13639346409991
 30
0.0
 10
52.4109832437
 20
35.89879363819995
 30
0.0
 10
52.15887598359995
 20
35.64166761999997
 30
0.0
 10
51.88641569129998
 20
35.3640094125999
 30
0.0
 10
51.5905156064
 20
35.06273736969996
 30
0.0
 10
51.26966483579997
 20
34.73639121589992
 30
0.0
 10
50.92192077359993
 20
34.38308902469993
 30
0.0
 10
50.54541259230001
 20
34.00104459009987
 30
0.0
 10
50.13825927039994
 20
33.58848714689987
 30
0.0
 10
49.69850713019997
 20
33.14360396019992
 30
0.0
 10
49.22446610989999
 20
32.66488530589993
 30
0.0
 10
48.8837800892
 20
32.3215290414999
 30
0.0
 10
48.70739137969997
 20
32.14396685349993
 30
0.0
1001
ACAD
1000
RTMaterial
1005
0
  0
SPLINE
  5
60817
330
1F
100
AcDbEntity
  8
cut
100
AcDbSpline
210
0.0
220
0.0
230
1.0
 70
     8
 71
     3
 72
    15
 73
    11
 74
     0
 42
0.0000000001
 43
0.0000000001
 40
0.0
 40
0.0
 40
0.0
 40
0.0
 40
0.125
 40
0.25
 40
0.375
 40
0.5
 40
0.625
 40
0.75
 40
0.875
 40
1.0
 40
1.0
 40
1.0
 40
1.0
 10
48.70739137969997
 20
32.14396685349993
 30
0.0
 10
48.67985080899996
 20
32.11624306099992
 30
0.0
 10
48.62703140799999
 20
32.05831623749992
 30
0.0
 10
48.55397353419999
 20
31.9627225372999
 30
0.0
 10
48.48950490379997
 20
31.86165006449988
 30
0.0
 10
48.43319510279997
 20
31.75440432909989
 30
0.0
 10
48.38594524669997
 20
31.64210117409988
 30
0.0
 10
48.3480296587
 20
31.52592491029992
 30
0.0
 10
48.31954768109994
 20
31.40569539739994
 30
0.0
 10
48.30728950849999
 20
31.32429514689988
 30
0.0
 10
48.30283569309995
 20
31.28315876329987
 30
0.0
1001
ACAD
1000
RTMaterial
1005
0
  0
LINE
  5
60818
330
1F
100
AcDbEntity
  8
cut
100
AcDbLine
 10
48.30283569309995
 20
31.28315876329987
 30
0.0
 11
48.29980660149999
 21
31.25218573439986
 31
0.0
1001
ACAD
1000
RTMaterial
1005
0
  0
LINE
  5
60819
330
1F
100
AcDbEntity
  8
cut
100
AcDbLine
 10
48.29980660149999
 20
31.25218573439986
 30
0.0
 11
48.29850311519994
 21
31.2206836769999
 31
0.0
1001
ACAD
1000
RTMaterial
1005
0
  0
SPLINE
  5
6081A
330
1F
100
AcDbEntity
  8
cut
100
AcDbSpline
210
0.0
220
0.0
230
1.0
 70
     8
 71
     3
 72
    10
 73
     6
 74
     0
 42
0.0000000001
 43
0.0000000001
 40
0.0
 40
0.0
 40
0.0
 40
0.0
 40
0.3333333333
 40
0.6666666667
 40
1.0
 40
1.0
 40
1.0
 40
1.0
 10
48.29850311519994
 20
31.2206836769999
 30
0.0
 10
48.2976538085
 20
31.19316042469995
 30
0.0
 10
48.29749291410002
 20
31.13842079659992
 30
0.0
 10
48.30166347219995
 20
31.05695687349993
 30
0.0
 10
48.30733635249998
 20
31.00364193009989
 30
0.0
 10
48.31086566739998
 20
30.97718145539995
 30
0.0
1001
ACAD
1000
RTMaterial
1005
0
  0
SPLINE
  5
6081B
330
1F
100
AcDbEntity
  8
cut
100
AcDbSpline
210
0.0
220
0.0
230
1.0
 70
     8
 71
     3
 72
    15
 73
    11
 74
     0
 42
0.0000000001
 43
0.0000000001
 40
0.0
 40
0.0
 40
0.0
 40
0.0
 40
0.125
 40
0.25
 40
0.375
 40
0.5
 40
0.625
 40
0.75
 40
0.875
 40
1.0
 40
1.0
 40
1.0
 40
1.0
 10
48.31086566739998
 20
30.97718145539995
 30
0.0
 10
48.31472989119999
 20
30.94821005419993
 30
0.0
 10
48.32418445159999
 20
30.89058315099993
 30
0.0
 10
48.34380645269994
 20
30.80451659649987
 30
0.0
 10
48.36861944999998
 20
30.72061692499995
 30
0.0
 10
48.39867824969997
 20
30.63783517589991
 30
0.0
 10
48.43401555999998
 20
30.55690804709991
 30
0.0
 10
48.47494322149998
 20
30.47771121019991
 30
0.0
 10
48.52142776599999
 20
30.4004683039999
 30
0.0
 10
48.55593767469997
 20
30.35075207939991
 30
0.0
 10
48.57413048299997
 20
30.32633061079986
 30
0.0
1001
ACAD
1000
RTMaterial
1005
0
  0
SPLINE
  5
6081C
330
1F
100
AcDbEntity
  8
cut
100
AcDbSpline
210
0.0
220
0.0
230
1.0
 70
     8
 71
     3
 72
    17
 73
    13
 74
     0
 42
0.0000000001
 43
0.0000000001
 40
0.0
 40
0.0
 40
0.0
 40
0.0
 40
0.1
 40
0.2
 40
0.3
 40
0.4
 40
0.5
 40
0.6
 40
0.7
 40
0.8
 40
0.9
 40
1.0
 40
1.0
 40
1.0
 40
1.0
 10
48.57413048299997
 20
30.32633061079986
 30
0.0
 10
48.62399046659999
 20
30.25940009609997
 30
0.0
 10
48.72810607079998
 20
30.1196550704999
 30
0.0
 10
48.89723523399999
 20
29.89270549439988
 30
0.0
 10
49.08003627879998
 20
29.64748091149989
 30
0.0
 10
49.27604044219998
 20
29.3846285100999
 30
0.0
 10
49.48757435629994
 20
29.10104873189988
 30
0.0
 10
49.71536862719995
 20
28.79579000239994
 30
0.0
 10
49.96061407359997
 20
28.46728788019987
 30
0.0
 10
50.22440072109998
 20
28.11412059059989
 30
0.0
 10
50.50765846359997
 20
27.73508902219993
 30
0.0
 10
50.71049698789995
 20
27.46383149089991
 30
0.0
 10
50.81533796629997
 20
27.32367582579986
 30
0.0
1001
ACAD
1000
RTMaterial
1005
0
  0
SPLINE
  5
6081D
330
1F
100
AcDbEntity
  8
cut
100
AcDbSpline
210
0.0
220
0.0
230
1.0
 70
     8
 71
     3
 72
    11
 73
     7
 74
     0
 42
0.0000000001
 43
0.0000000001
 40
0.0
 40
0.0
 40
0.0
 40
0.0
 40
0.25
 40
0.5
 40
0.75
 40
1.0
 40
1.0
 40
1.0
 40
1.0
 10
50.81533796629997
 20
27.32367582579986
 30
0.0
 10
50.86399729289997
 20
27.25862606779993
 30
0.0
 10
50.96744490759999
 20
27.1207505633999
 30
0.0
 10
51.14207573409998
 20
26.88972787619992
 30
0.0
 10
51.33401936370001
 20
26.63794088309993
 30
0.0
 10
51.47456577609995
 20
26.45535594729989
 30
0.0
 10
51.54799208899999
 20
26.36052812789996
 30
0.0
1001
ACAD
1000
RTMaterial
1005
0
  0
SPLINE
  5
6081E
330
1F
100
AcDbEntity
  8
cut
100
AcDbSpline
210
0.0
220
0.0
230
1.0
 70
     8
 71
     3
 72
    10
 73
     6
 74
     0
 42
0.0000000001
 43
0.0000000001
 40
0.0
 40
0.0
 40
0.0
 40
0.0
 40
0.3333333333
 40
0.6666666667
 40
1.0
 40
1.0
 40
1.0
 40
1.0
 10
51.54799208899999
 20
26.36052812789996
 30
0.0
 10
51.56727415699998
 20
26.33683110119989
 30
0.0
 10
51.60707708299998
 20
26.29179439159992
 30
0.0
 10
51.67040046609997
 20
26.23054906469997
 30
0.0
 10
51.71406693279999
 20
26.19450690689991
 30
0.0
 10
51.73627815449998
 20
26.17754923029992
 30
0.0
1001
ACAD
1000
RTMaterial
1005
0
  0
SPLINE
  5
6081F
330
1F
100
AcDbEntity
  8
cut
100
AcDbSpline
210
0.0
220
0.0
230
1.0
 70
     8
 71
     3
 72
    10
 73
     6
 74
     0
 42
0.0000000001
 43
0.0000000001
 40
0.0
 40
0.0
 40
0.0
 40
0.0
 40
0.3333333333
 40
0.6666666667
 40
1.0
 40
1.0
 40
1.0
 40
1.0
 10
51.73627815449998
 20
26.17754923029992
 30
0.0
 10
51.74389108669998
 20
26.17173695919991
 30
0.0
 10
51.75938004639999
 20
26.16037006429997
 30
0.0
 10
51.78344894759999
 20
26.14409947209992
 30
0.0
 10
51.80000189789996
 20
26.13381413809992
 30
0.0
 10
51.80840894259995
 20
26.12880782779991
 30
0.0
1001
ACAD
1000
RTMaterial
1005
0
  0
SPLINE
  5
60820
330
1F
100
AcDbEntity
  8
cut
100
AcDbSpline
210
0.0
220
0.0
230
1.0
 70
     8
 71
     3
 72
    22
 73
    18
 74
     0
 42
0.0000000001
 43
0.0000000001
 40
0.0
 40
0.0
 40
0.0
 40
0.0
 40
0.0666666667
 40
0.1333333333
 40
0.2
 40
0.2666666667
 40
0.3333333333
 40
0.4
 40
0.4666666667000001
 40
0.5333333333
 40
0.6
 40
0.6666666667
 40
0.7333333333
 40
0.8
 40
0.8666666667000001
 40
0.9333333333
 40
1.0
 40
1.0
 40
1.0
 40
1.0
 10
51.80840894259995
 20
26.12880782779991
 30
0.0
 10
51.83237155339998
 20
26.11453833499997
 30
0.0
 10
51.87993791349999
 20
26.08635416189986
 30
0.0
 10
51.94937383449996
 20
26.04562498099995
 30
0.0
 10
52.01938737649999
 20
26.00496159839992
 30
0.0
 10
52.09173941149998
 20
25.96338301819992
 30
0.0
 10
52.16808521829995
 20
25.9199899887999
 30
0.0
 10
52.24727397699997
 20
25.87549260269992
 30
0.0
 10
52.32834271079997
 20
25.8304654765999
 30
0.0
 10
52.41024831609997
 20
25.7854966477999
 30
0.0
 10
52.49202047239998
 20
25.74111731479991
 30
0.0
 10
52.57247982109999
 20
25.69796010429997
 30
0.0
 10
52.65058981329997
 20
25.6565599070999
 30
0.0
 10
52.72503490929995
 20
25.61756262039995
 30
0.0
 10
52.79743479929994
 20
25.58006057649988
 30
0.0
 10
52.8694917816
 20
25.5431365222999
 30
0.0
 10
52.91923035909997
 20
25.5179206247999
 30
0.0
 10
52.94436606729999
 20
25.50524885259989
 30
0.0
1001
ACAD
1000
RTMaterial
1005
0
  0
LINE
  5
60821
330
1F
100
AcDbEntity
  8
cut
100
AcDbLine
 10
52.94436606729999
 20
25.50524885259989
 30
0.0
 11
52.97380764000002
 21
25.49038993459993
 31
0.0
1001
ACAD
1000
RTMaterial
1005
0
  0
SPLINE
  5
60822
330
1F
100
AcDbEntity
  8
cut
100
AcDbSpline
210
0.0
220
0.0
230
1.0
 70
     8
 71
     3
 72
    10
 73
     6
 74
     0
 42
0.0000000001
 43
0.0000000001
 40
0.0
 40
0.0
 40
0.0
 40
0.0
 40
0.3333333333
 40
0.6666666667
 40
1.0
 40
1.0
 40
1.0
 40
1.0
 10
52.97380764000002
 20
25.49038993459993
 30
0.0
 10
53.01421187619997
 20
25.46997256909993
 30
0.0
 10
53.09635792069997
 20
25.43215437129993
 30
0.0
 10
53.2242142673
 20
25.38414747909991
 30
0.0
 10
53.31116365929995
 20
25.35835641249992
 30
0.0
 10
53.3551892328
 20
25.34701174919991
 30
0.0
1001
ACAD
1000
RTMaterial
1005
0
  0
SPLINE
  5
60823
330
1F
100
AcDbEntity
  8
cut
100
AcDbSpline
210
0.0
220
0.0
230
1.0
 70
     8
 71
     3
 72
    21
 73
    17
 74
     0
 42
0.0000000001
 43
0.0000000001
 40
0.0
 40
0.0
 40
0.0
 40
0.0
 40
0.0714285714
 40
0.1428571429
 40
0.2142857143
 40
0.2857142857
 40
0.3571428571
 40
0.4285714286
 40
0.5
 40
0.5714285714000001
 40
0.6428571429
 40
0.7142857143000001
 40
0.7857142857
 40
0.8571428570999998
 40
0.9285714285999999
 40
1.0
 40
1.0
 40
1.0
 40
1.0
 10
53.3551892328
 20
25.34701174919991
 30
0.0
 10
53.43913052889996
 20
25.32538146329989
 30
0.0
 10
53.61460564699996
 20
25.28016585439991
 30
0.0
 10
53.89958754819997
 20
25.20673396499996
 30
0.0
 10
54.20936204049997
 20
25.12691711799988
 30
0.0
 10
54.54529226429997
 20
25.04036435799992
 30
0.0
 10
54.90858571119997
 20
24.94676558979989
 30
0.0
 10
55.30048529480001
 20
24.84580187719996
 30
0.0
 10
55.7249061183
 20
24.73646534099993
 30
0.0
 10
56.18355600209998
 20
24.61831789769991
 30
0.0
 10
56.67877036250001
 20
24.49075980749995
 30
0.0
 10
57.21274695579996
 20
24.35322687679997
 30
0.0
 10
57.78769033189997
 20
24.20515365879993
 30
0.0
 10
58.40586653949998
 20
24.04595946239993
 30
0.0
 10
59.06919932279999
 20
23.87515224939989
 30
0.0
 10
59.54361271769994
 20
23.75300386349994
 30
0.0
 10
59.7886935939
 20
23.68990588569994
 30
0.0
1001
ACAD
1000
RTMaterial
1005
0
  0
SPLINE
  5
60824
330
1F
100
AcDbEntity
  8
cut
100
AcDbSpline
210
0.0
220
0.0
230
1.0
 70
     8
 71
     3
 72
    15
 73
    11
 74
     0
 42
0.0000000001
 43
0.0000000001
 40
0.0
 40
0.0
 40
0.0
 40
0.0
 40
0.125
 40
0.25
 40
0.375
 40
0.5
 40
0.625
 40
0.75
 40
0.875
 40
1.0
 40
1.0
 40
1.0
 40
1.0
 10
59.7886935939
 20
23.68990588569994
 30
0.0
 10
59.83253143419995
 20
23.67861949269991
 30
0.0
 10
59.91937464239999
 20
23.65943885539997
 30
0.0
 10
60.04811211169999
 20
23.6404139711999
 30
0.0
 10
60.17204992759997
 20
23.63101728359993
 30
0.0
 10
60.29219234829998
 20
23.63085387849992
 30
0.0
 10
60.40715252309997
 20
23.63947439159989
 30
0.0
 10
60.51678748299997
 20
23.65616025769992
 30
0.0
 10
60.6208781894
 20
23.68041258499994
 30
0.0
 10
60.68570748289994
 20
23.70101253809992
 30
0.0
 10
60.71710647599997
 20
23.71232461129989
 30
0.0
1001
ACAD
1000
RTMaterial
1005
0
  0
SPLINE
  5
60825
330
1F
100
AcDbEntity
  8
cut
100
AcDbSpline
210
0.0
220
0.0
230
1.0
 70
     8
 71
     3
 72
    10
 73
     6
 74
     0
 42
0.0000000001
 43
0.0000000001
 40
0.0
 40
0.0
 40
0.0
 40
0.0
 40
0.3333333333
 40
0.6666666667
 40
1.0
 40
1.0
 40
1.0
 40
1.0
 10
60.71710647599997
 20
23.71232461129989
 30
0.0
 10
60.72316742509997
 20
23.71450818129989
 30
0.0
 10
60.73515708469995
 20
23.71901005029991
 30
0.0
 10
60.75275355090003
 20
23.72616914209993
 30
0.0
 10
60.76421214019996
 20
23.73119831449992
 30
0.0
 10
60.76987613169996
 20
23.73377458319993
 30
0.0
1001
ACAD
1000
RTMaterial
1005
0
  0
SPLINE
  5
60826
330
1F
100
AcDbEntity
  8
cut
100
AcDbSpline
210
0.0
220
0.0
230
1.0
 70
     8
 71
     3
 72
    10
 73
     6
 74
     0
 42
0.0000000001
 43
0.0000000001
 40
0.0
 40
0.0
 40
0.0
 40
0.0
 40
0.3333333333
 40
0.6666666667
 40
1.0
 40
1.0
 40
1.0
 40
1.0
 10
60.76987613169996
 20
23.73377458319993
 30
0.0
 10
60.79289018319997
 20
23.74424253299992
 30
0.0
 10
60.83750195599998
 20
23.76622175389991
 30
0.0
 10
60.900572028
 20
23.8021244814999
 30
0.0
 10
60.93960469109998
 20
23.82763127999993
 30
0.0
 10
60.95844612399997
 20
23.8407505461999
 30
0.0
1001
ACAD
1000
RTMaterial
1005
0
  0
SPLINE
  5
60827
330
1F
100
AcDbEntity
  8
cut
100
AcDbSpline
210
0.0
220
0.0
230
1.0
 70
     8
 71
     3
 72
    15
 73
    11
 74
     0
 42
0.0000000001
 43
0.0000000001
 40
0.0
 40
0.0
 40
0.0
 40
0.0
 40
0.125
 40
0.25
 40
0.375
 40
0.5
 40
0.625
 40
0.75
 40
0.875
 40
1.0
 40
1.0
 40
1.0
 40
1.0
 10
60.95844612399997
 20
23.8407505461999
 30
0.0
 10
60.98052606329997
 20
23.85612478029992
 30
0.0
 10
61.02348513639999
 20
23.88842806029993
 30
0.0
 10
61.08478147839997
 20
23.94199739749996
 30
0.0
 10
61.1415126709
 20
23.99939215229989
 30
0.0
 10
61.19449806019997
 20
24.06076020849992
 30
0.0
 10
61.24323192359998
 20
24.12559996919993
 30
0.0
 10
61.28780418129998
 20
24.19383348549991
 30
0.0
 10
61.32835336949995
 20
24.26518660679994
 30
0.0
 10
61.35273578899995
 20
24.31473909829987
 30
0.0
 10
61.36426485989995
 20
24.34001786859994
 30
0.0
1001
ACAD
1000
RTMaterial
1005
0
  0
SPLINE
  5
60828
330
1F
100
AcDbEntity
  8
cut
100
AcDbSpline
210
0.0
220
0.0
230
1.0
 70
     8
 71
     3
 72
    16
 73
    12
 74
     0
 42
0.0000000001
 43
0.0000000001
 40
0.0
 40
0.0
 40
0.0
 40
0.0
 40
0.1111111111
 40
0.2222222222
 40
0.3333333333
 40
0.4444444444000001
 40
0.5555555556
 40
0.6666666667
 40
0.7777777778
 40
0.8888888889
 40
1.0
 40
1.0
 40
1.0
 40
1.0
 10
61.36426485989995
 20
24.34001786859994
 30
0.0
 10
61.40142796300001
 20
24.42150210559993
 30
0.0
 10
61.47945978839999
 20
24.59268540469998
 30
0.0
 10
61.6074919316
 20
24.87387995319995
 30
0.0
 10
61.74680144659999
 20
25.18021634039997
 30
0.0
 10
61.89773977250002
 20
25.51254610039996
 30
0.0
 10
62.06199617499999
 20
25.87467812789993
 30
0.0
 10
62.24031276629995
 20
26.26835176639992
 30
0.0
 10
62.43375639679991
 20
26.69603211509991
 30
0.0
 10
62.64312546959994
 20
27.15960391289997
 30
0.0
 10
62.79422482909999
 20
27.49466541879991
 30
0.0
 10
62.87256837879997
 20
27.66853064749995
 30
0.0
1001
ACAD
1000
RTMaterial
1005
0
  0
SPLINE
  5
60829
330
1F
100
AcDbEntity
  8
cut
100
AcDbSpline
210
0.0
220
0.0
230
1.0
 70
     8
 71
     3
 72
    11
 73
     7
 74
     0
 42
0.0000000001
 43
0.0000000001
 40
0.0
 40
0.0
 40
0.0
 40
0.0
 40
0.25
 40
0.5
 40
0.75
 40
1.0
 40
1.0
 40
1.0
 40
1.0
 10
62.87256837879997
 20
27.66853064749995
 30
0.0
 10
62.90605444379995
 20
27.74284515559993
 30
0.0
 10
62.97749791849994
 20
27.90069458469998
 30
0.0
 10
63.09895552389995
 20
28.16625042879991
 30
0.0
 10
63.23329011469994
 20
28.4566773398999
 30
0.0
 10
63.33221927949992
 20
28.66800324169992
 30
0.0
 10
63.38404129409994
 20
28.77796159989993
 30
0.0
1001
ACAD
1000
RTMaterial
1005
0
  0
SPLINE
  5
6082A
330
1F
100
AcDbEntity
  8
cut
100
AcDbSpline
210
0.0
220
0.0
230
1.0
 70
     8
 71
     3
 72
    10
 73
     6
 74
     0
 42
0.0000000001
 43
0.0000000001
 40
0.0
 40
0.0
 40
0.0
 40
0.0
 40
0.3333333333
 40
0.6666666667
 40
1.0
 40
1.0
 40
1.0
 40
1.0
 10
63.38404129409994
 20
28.77796159989993
 30
0.0
 10
63.39697494249995
 20
28.80715032229989
 30
0.0
 10
63.41989210299996
 20
28.86526778559994
 30
0.0
 10
63.44629282719992
 20
28.95187566969998
 30
0.0
 10
63.45858638229995
 20
29.0080346613999
 30
0.0
 10
63.46355000899993
 20
29.03579369269989
 30
0.0
1001
ACAD
1000
RTMaterial
1005
0
  0
SPLINE
  5
6082B
330
1F
100
AcDbEntity
  8
cut
100
AcDbSpline
210
0.0
220
0.0
230
1.0
 70
     8
 71
     3
 72
    10
 73
     6
 74
     0
 42
0.0000000001
 43
0.0000000001
 40
0.0
 40
0.0
 40
0.0
 40
0.0
 40
0.3333333333
 40
0.6666666667
 40
1.0
 40
1.0
 40
1.0
 40
1.0
 10
63.46355000899993
 20
29.03579369269989
 30
0.0
 10
63.46467850579992
 20
29.04210479999995
 30
0.0
 10
63.46680680299996
 20
29.05466721649986
 30
0.0
 10
63.46959993659996
 20
29.07320383149988
 30
0.0
 10
63.47123908689994
 20
29.08560912589991
 30
0.0
 10
63.47199999949996
 20
29.09180255899986
 30
0.0
1001
ACAD
1000
RTMaterial
1005
0
  0
LINE
  5
6082C
330
1F
100
AcDbEntity
  8
cut
100
AcDbLine
 10
63.47199999949996
 20
29.09180255899986
 30
0.0
 11
63.47384048889998
 21
29.12352037469998
 31
0.0
1001
ACAD
1000
RTMaterial
1005
0
  0
DIMENSION
  5
608D8
330
1F
100
AcDbEntity
  8
2
100
AcDbDimension
  2
*D84
 10
83.60438141794569
 20
-30.36500000000005
 30
0.0
 11
79.55438141794569
 21
-1.750000000000047
 31
0.0
 70
    32
  1
%%C<>
 71
     5
 42
60.72999999999999
  3
\M+18352\M+18373\M+1815B - ISO-25
100
AcDbAlignedDimension
 13
63.37032789066009
 23
30.36499999999994
 33
0.0
 14
63.37032789066009
 24
-30.36500000000005
 34
0.0
 50
90.0
100
AcDbRotatedDimension
1001
ACAD
1000
DSTYLE
1002
{
1070
     4
1000
%%C[]"
1070
    40
1040
1.0
1070
    76
1070
     1
1070
   143
1040
0.0393700787401575
1070
   170
1070
     1
1070
   171
1070
     3
1070
   173
1070
     1
1070
   271
1070
     8
1070
   285
1070
     4
1070
   344
1005
32F1
1002
}
  0
DIMENSION
  5
608F0
330
1F
100
AcDbEntity
  8
2
100
AcDbDimension
  2
*D85
 10
95.56961267679028
 20
-38.10000000000006
 30
0.0
 11
91.5196126767903
 21
-1.750000000000047
 31
0.0
 70
    32
  1
%%C<>
 71
     5
 42
76.19999999999999
  3
\M+18352\M+18373\M+1815B - ISO-25
100
AcDbAlignedDimension
 13
60.11389173679998
 23
38.09999999999994
 33
0.0
 14
60.11389173679998
 24
-38.10000000000005
 34
0.0
 50
90.0
100
AcDbRotatedDimension
1001
ACAD
1000
DSTYLE
1002
{
1070
     4
1000
%%C[]"
1070
    40
1040
1.0
1070
    76
1070
     1
1070
   143
1040
0.0393700787401575
1070
   170
1070
     1
1070
   171
1070
     3
1070
   173
1070
     1
1070
   271
1070
     8
1070
   285
1070
     4
1070
   344
1005
32F1
1002
}
  0
DIMENSION
  5
60908
102
{ACAD_XDICTIONARY
360
60915
102
}
102
{ACAD_REACTORS
330
6091F
102
}
330
1F
100
AcDbEntity
  8
sk2
100
AcDbDimension
  2
*D86
 10
-15.47663592289016
 20
-15.87500000000005
 30
0.0
 11
-15.47663592289015
 21
-0.0000000000000523
 31
0.0
 70
   160
  1
%%C<>
 71
     5
 42
31.75
  3
\M+18352\M+18373\M+1815B - ISO-25
100
AcDbAlignedDimension
 13
6.0
 23
15.87499999999994
 33
0.0
 14
5.999999999999971
 24
-15.87500000000005
 34
0.0
 50
90.0
100
AcDbRotatedDimension
1001
ACAD
1000
DSTYLE
1002
{
1070
     4
1000
%%c[]"
1070
    40
1040
1.0
1070
   143
1040
0.0393700787401575
1070
   170
1070
     1
1070
   171
1070
     3
1070
   271
1070
     8
1070
   285
1070
     4
1002
}
  0
DIMENSION
  5
60920
102
{ACAD_XDICTIONARY
360
6092D
102
}
102
{ACAD_REACTORS
330
60937
102
}
330
1F
100
AcDbEntity
  8
sk2
100
AcDbDimension
  2
*D87
 10
-27.81909173704728
 20
-36.51250000000004
 30
0.0
 11
-31.86909173704727
 21
-0.0000000000000546
 31
0.0
 70
    32
  1
%%C<>
 71
     5
 42
73.02499999999998
  3
\M+18352\M+18373\M+1815B - ISO-25
100
AcDbAlignedDimension
 13
2.0
 23
36.51249999999993
 33
0.0
 14
1.999999999999971
 24
-36.51250000000004
 34
0.0
 50
90.0
100
AcDbRotatedDimension
1001
ACAD
1000
DSTYLE
1002
{
1070
     4
1000
%%c[]"
1070
    40
1040
1.0
1070
   143
1040
0.0393700787401575
1070
   170
1070
     1
1070
   171
1070
     3
1070
   271
1070
     8
1070
   285
1070
     4
1002
}
  0
DIMENSION
  5
60938
102
{ACAD_XDICTIONARY
360
60945
102
}
102
{ACAD_REACTORS
330
6094F
102
}
330
1F
100
AcDbEntity
  8
sk2
100
AcDbDimension
  2
*D88
 10
31.99999999999997
 20
-57.04396838913408
 30
0.0
 11
15.99999999999997
 21
-57.04396838913408
 31
0.0
 70
   160
 71
     5
 42
32.0
  3
\M+18352\M+18373\M+1815B - ISO-25
100
AcDbAlignedDimension
 13
-0.0000000000000284
 23
-34.51250000000005
 33
0.0
 14
31.99999999999997
 24
-15.69999959600011
 34
0.0
100
AcDbRotatedDimension
1001
ACAD
1000
DSTYLE
1002
{
1070
     4
1000
[]"
1070
    40
1040
1.0
1070
   143
1040
0.0393700787401575
1070
   170
1070
     1
1070
   171
1070
     3
1070
   271
1070
     8
1070
   285
1070
     4
1002
}
  0
DIMENSION
  5
60950
330
1F
100
AcDbEntity
  8
2
100
AcDbDimension
  2
*D89
 10
61.40000000000003
 20
-57.04396838913408
 30
0.0
 11
94.09166666666667
 21
-57.04396838913408
 31
0.0
 70
   160
  1
<>(MAX)
 71
     5
 42
2.099999999999965
  3
\M+18352\M+18373\M+1815B - ISO-25
100
AcDbAlignedDimension
 13
63.5
 23
30.4645806656227
 33
0.0
 14
61.40000000000004
 24
23.52626515562807
 34
0.0
100
AcDbRotatedDimension
1001
ACAD
1000
DSTYLE
1002
{
1070
     4
1000
"
1070
    40
1040
1.0
1070
   143
1040
0.0393700787401575
1070
   170
1070
     1
1070
   171
1070
     3
1070
   271
1070
     8
1070
   285
1070
     4
1002
}
  0
DIMENSION
  5
6096A
330
1F
100
AcDbEntity
  8
2
100
AcDbDimension
  2
*D90
 10
61.5
 20
55.75939886565539
 30
0.0
 11
-5.258333333333325
 21
59.80939886565538
 31
0.0
 70
    32
  1
<>(APMX AT HIGH FEED PROCESS)
 71
     5
 42
2.0
  3
\M+18352\M+18373\M+1815B - ISO-25
100
AcDbAlignedDimension
 13
63.5
 23
30.4645806656227
 33
0.0
 14
61.5
 24
36.60539624667467
 34
0.0
100
AcDbRotatedDimension
1001
ACAD
1000
DSTYLE
1002
{
1070
     4
1000
"
1070
    40
1040
1.0
1070
   143
1040
0.0393700787401575
1070
   170
1070
     1
1070
   171
1070
     3
1070
   271
1070
     8
1070
   285
1070
     4
1002
}
  0
DIMENSION
  5
60984
330
1F
100
AcDbEntity
  8
2
100
AcDbDimension
  2
*D91
 10
60.5
 20
66.55214122297298
 30
0.0
 11
33.11666666666667
 21
70.60214122297297
 31
0.0
 70
    32
  1
APMX<>
 71
     5
 42
3.0
  3
\M+18352\M+18373\M+1815B - ISO-25
100
AcDbAlignedDimension
 13
63.5
 23
30.4645806656227
 33
0.0
 14
60.5
 24
37.47530722166611
 34
0.0
100
AcDbRotatedDimension
1001
ACAD
1000
DSTYLE
1002
{
1070
     4
1000
"
1070
    40
1040
1.0
1070
   143
1040
0.0393700787401575
1070
   170
1070
     1
1070
   171
1070
     3
1070
   271
1070
     8
1070
   285
1070
     4
1002
}
  0
DIMENSION
  5
6099E
102
{ACAD_XDICTIONARY
360
609AB
102
}
102
{ACAD_REACTORS
330
609B5
102
}
330
1F
100
AcDbEntity
  8
2
100
AcDbDimension
  2
*D92
 10
0.0000000000000026
 20
77.42771461007999
 30
0.0
 11
31.75
 21
81.47771461007998
 31
0.0
 70
    32
 71
     5
 42
63.5
  3
\M+18352\M+18373\M+1815B - ISO-25
100
AcDbAlignedDimension
 13
63.5
 23
30.4645806656227
 33
0.0
 14
0.0
 24
34.51249999999993
 34
0.0
100
AcDbRotatedDimension
1001
ACAD
1000
DSTYLE
1002
{
1070
     4
1000
"
1070
    40
1040
1.0
1070
   143
1040
0.0393700787401575
1070
   170
1070
     1
1070
   171
1070
     3
1070
   271
1070
     8
1070
   285
1070
     4
1002
}
  0
DIMENSION
  5
609B7
330
1F
100
AcDbEntity
  8
2
100
AcDbDimension
  2
*D93
 10
60.12112939384318
 20
36.03845476528117
 30
0.0
 11
82.93789359872009
 21
52.77955709846531
 31
0.0
 70
    36
 71
     5
 42
1.499999999999744
  3
\M+18352\M+18373\M+1815B - ISO-25
100
AcDbRadialDimension
 15
61.44505526716041
 25
36.74359324952409
 35
0.0
 40
0.0
1001
ACAD
1000
DSTYLE
1002
{
1070
     4
1000
"
1070
    40
1040
1.0
1070
   143
1040
0.0393700787401575
1070
   170
1070
     1
1070
   171
1070
     3
1070
   271
1070
     8
1070
   285
1070
     4
1002
}
  0
LINE
  5
60E09
330
1F
100
AcDbEntity
  8
nocut
100
AcDbLine
 10
62.19999999999998
 20
30.87808091760002
 30
0.0
 11
62.20000000000005
 21
-0.0000000000000568
 31
0.0
1001
ACAD
1000
RTMaterial
1005
0
  0
LINE
  5
60E0A
330
1F
100
AcDbEntity
  8
nocut
100
AcDbLine
 10
60.75069842699997
 20
35.79251634940005
 30
0.0
 11
62.19999999999998
 21
30.87808091760002
 31
0.0
1001
ACAD
1000
RTMaterial
1005
0
  0
LINE
  5
60E0B
330
1F
100
AcDbEntity
  8
nocut
100
AcDbLine
 10
54.63671017479999
 20
36.22455862599998
 30
0.0
 11
59.49538781609999
 21
36.64853772059996
 31
0.0
1001
ACAD
1000
RTMaterial
1005
0
  0
LINE
  5
60E0C
330
1F
100
AcDbEntity
  8
nocut
100
AcDbLine
 10
53.09840339840002
 20
36.57458758410007
 30
0.0
 11
54.3671294815
 21
36.24694244790004
 31
0.0
1001
ACAD
1000
RTMaterial
1005
0
  0
LINE
  5
60E15
330
1F
100
AcDbEntity
  8
1
100
AcDbLine
 10
62.1999999999999
 20
-30.87808027160008
 30
0.0
 11
62.19999999999993
 21
25.37087738789995
 31
0.0
1001
ACAD
1000
RTMaterial
1005
0
  0
LINE
  5
60E1A
330
1F
100
AcDbEntity
  8
1
100
AcDbLine
 10
52.06672093769992
 20
35.62129539859995
 30
0.0
 11
52.15216012029992
 21
35.31342194289994
 31
0.0
1001
ACAD
1000
RTMaterial
1005
0
  0
LINE
  5
60E1F
330
1F
100
AcDbEntity
  8
1
100
AcDbLine
 10
51.40568974519993
 20
25.34496606879992
 30
0.0
 11
51.3819839704999
 21
25.45406501049991
 31
0.0
1001
ACAD
1000
RTMaterial
1005
0
  0
LINE
  5
60E25
330
1F
100
AcDbEntity
  8
1
100
AcDbLine
 10
52.76680988029994
 20
35.79805243919992
 30
0.0
 11
52.76660413729991
 21
35.97316158999996
 31
0.0
1001
ACAD
1000
RTMaterial
1005
0
  0
LINE
  5
60E26
330
1F
100
AcDbEntity
  8
1
100
AcDbLine
 10
62.87256838209993
 20
26.92166221859992
 30
0.0
 11
61.36426457389996
 21
23.44386765059988
 31
0.0
1001
ACAD
1000
RTMaterial
1005
0
  0
LINE
  5
60E33
330
1F
100
AcDbEntity
  8
1
100
AcDbLine
 10
52.76049625279989
 20
35.78097029019989
 30
0.0
 11
52.65694086589991
 21
35.49922491569993
 31
0.0
1001
ACAD
1000
RTMaterial
1005
0
  0
LINE
  5
60E39
330
1F
100
AcDbEntity
  8
1
100
AcDbLine
 10
52.15216012029992
 20
35.31342194289994
 30
0.0
 11
52.34653312839992
 21
35.57915166069995
 31
0.0
1001
ACAD
1000
RTMaterial
1005
0
  0
LINE
  5
60E3D
330
1F
100
AcDbEntity
  8
1
100
AcDbLine
 10
59.60852405459991
 20
22.52393484289996
 30
0.0
 11
59.6951980318999
 21
22.56921080809991
 31
0.0
1001
ACAD
1000
RTMaterial
1005
0
  0
LINE
  5
60E3E
330
1F
100
AcDbEntity
  8
1
100
AcDbLine
 10
59.54563416069993
 20
22.49108580359996
 30
0.0
 11
59.60852405459991
 21
22.52393484289996
 31
0.0
1001
ACAD
1000
RTMaterial
1005
0
  0
LINE
  5
60E41
330
1F
100
AcDbEntity
  8
1
100
AcDbLine
 10
48.70739137299995
 20
31.08816441429991
 30
0.0
 11
53.23723223529992
 21
35.9281443262999
 31
0.0
1001
ACAD
1000
RTMaterial
1005
0
  0
LINE
  5
60E42
330
1F
100
AcDbEntity
  8
1
100
AcDbLine
 10
49.0645051361999
 20
31.68757767999995
 30
0.0
 11
52.65694086589991
 21
35.49922491569993
 31
0.0
1001
ACAD
1000
RTMaterial
1005
0
  0
LINE
  5
60E43
330
1F
100
AcDbEntity
  8
1
100
AcDbLine
 10
52.15216012029992
 20
35.31342194289994
 30
0.0
 11
48.62205336599993
 21
31.60614904789992
 31
0.0
1001
ACAD
1000
RTMaterial
1005
0
  0
LINE
  5
60E45
330
1F
100
AcDbEntity
  8
1
100
AcDbLine
 10
61.84924271789992
 20
20.21524053289994
 30
0.0
 11
60.56556138289995
 21
20.17245300549991
 31
0.0
1001
ACAD
1000
RTMaterial
1005
0
  0
LINE
  5
60E4A
330
1F
100
AcDbEntity
  8
1
100
AcDbLine
 10
59.59645248379991
 20
22.54685413899989
 30
0.0
 11
59.73651331909991
 21
22.57857375349994
 31
0.0
1001
ACAD
1000
RTMaterial
1005
0
  0
LINE
  5
60E4B
330
1F
100
AcDbEntity
  8
1
100
AcDbLine
 10
59.65154868899992
 20
22.57619394979991
 30
0.0
 11
60.16715151889991
 21
22.59068227729989
 31
0.0
1001
ACAD
1000
RTMaterial
1005
0
  0
LINE
  5
60E4C
330
1F
100
AcDbEntity
  8
1
100
AcDbLine
 10
55.14953777229994
 20
21.09594111719997
 30
0.0
 11
45.70967279909996
 21
21.56122909639993
 31
0.0
1001
ACAD
1000
RTMaterial
1005
0
  0
LINE
  5
60E4F
330
1F
100
AcDbEntity
  8
1
100
AcDbLine
 10
56.53305254029993
 20
20.92269594569996
 30
0.0
 11
59.46427824199992
 21
20.32899392829989
 31
0.0
1001
ACAD
1000
RTMaterial
1005
0
  0
LINE
  5
60E50
330
1F
100
AcDbEntity
  8
1
100
AcDbLine
 10
19.46333577819996
 20
32.68906416179993
 30
0.0
 11
10.90113142139995
 21
36.14841927289996
 31
0.0
1001
ACAD
1000
RTMaterial
1005
0
  0
LINE
  5
60E51
330
1F
100
AcDbEntity
  8
1
100
AcDbLine
 10
48.26161378149993
 20
29.98702953789996
 30
0.0
 11
48.26198681129989
 21
29.98594802589991
 31
0.0
1001
ACAD
1000
RTMaterial
1005
0
  0
LINE
  5
60E52
330
1F
100
AcDbEntity
  8
1
100
AcDbLine
 10
48.26198754659992
 20
29.98592943829988
 30
0.0
 11
48.37284547899992
 21
29.6646378184999
 31
0.0
1001
ACAD
1000
RTMaterial
1005
0
  0
LINE
  5
60E54
330
1F
100
AcDbEntity
  8
1
100
AcDbLine
 10
53.81227027529991
 20
36.38983232739992
 30
0.0
 11
53.81630795049995
 21
36.39195258679996
 31
0.0
1001
ACAD
1000
RTMaterial
1005
0
  0
LINE
  5
60E55
330
1F
100
AcDbEntity
  8
1
100
AcDbLine
 10
54.6962188857999
 20
36.8500135276999
 30
0.0
 11
53.81631349809993
 21
36.39193983289994
 31
0.0
1001
ACAD
1000
RTMaterial
1005
0
  0
LINE
  5
60E56
330
1F
100
AcDbEntity
  8
1
100
AcDbLine
 10
53.81274123499991
 20
36.39007917399988
 30
0.0
 11
53.80328662629989
 21
36.38516970339992
 31
0.0
1001
ACAD
1000
RTMaterial
1005
0
  0
LINE
  5
60E57
330
1F
100
AcDbEntity
  8
1
100
AcDbLine
 10
53.80328662629989
 20
36.38516970339992
 30
0.0
 11
53.79330108399989
 21
36.3800681297999
 31
0.0
1001
ACAD
1000
RTMaterial
1005
0
  0
LINE
  5
60E58
330
1F
100
AcDbEntity
  8
1
100
AcDbLine
 10
53.79330108399989
 20
36.3800681297999
 30
0.0
 11
53.78302635099993
 21
36.37491926259986
 31
0.0
1001
ACAD
1000
RTMaterial
1005
0
  0
LWPOLYLINE
  5
60E59
330
1F
100
AcDbEntity
  8
1
100
AcDbPolyline
 90
        6
 70
     0
 43
0.0
 10
53.78302635099993
 20
36.37491926259986
 10
53.77258145219991
 20
36.3697909675999
 10
53.76188790399993
 20
36.3646523084999
 10
53.75067106549995
 20
36.35938403979992
 10
53.73883758699992
 20
36.35396054039996
 10
53.73632639539994
 20
36.35282721789997
1001
ACAD
1000
RTMaterial
1005
0
  0
LINE
  5
60E5A
330
1F
100
AcDbEntity
  8
1
100
AcDbLine
 10
49.0645051361999
 20
31.68757767999995
 30
0.0
 11
48.90055166589991
 21
31.68549072669993
 31
0.0
1001
ACAD
1000
RTMaterial
1005
0
  0
LINE
  5
60E5B
330
1F
100
AcDbEntity
  8
1
100
AcDbLine
 10
48.49156183489992
 20
28.70965648879991
 30
0.0
 11
41.80403781489991
 21
29.1061043819999
 31
0.0
1001
ACAD
1000
RTMaterial
1005
0
  0
LINE
  5
60E5C
330
1F
100
AcDbEntity
  8
1
100
AcDbLine
 10
56.92872555159993
 20
28.67065494999991
 30
0.0
 11
57.05688749199993
 21
28.65272010209992
 31
0.0
1001
ACAD
1000
RTMaterial
1005
0
  0
LINE
  5
60E5D
330
1F
100
AcDbEntity
  8
1
100
AcDbLine
 10
59.12989448209993
 20
22.71507796719993
 30
0.0
 11
53.65033969429993
 21
24.01359237829991
 31
0.0
1001
ACAD
1000
RTMaterial
1005
0
  0
LINE
  5
60E5E
330
1F
100
AcDbEntity
  8
1
100
AcDbLine
 10
59.78869359489994
 20
22.63022087189989
 30
0.0
 11
53.35518933129993
 21
24.15479692299988
 31
0.0
1001
ACAD
1000
RTMaterial
1005
0
  0
LINE
  5
60E5F
330
1F
100
AcDbEntity
  8
1
100
AcDbLine
 10
52.22955241329993
 20
24.68846679299986
 30
0.0
 11
52.29838530919995
 21
24.6416201740999
 31
0.0
1001
ACAD
1000
RTMaterial
1005
0
  0
LINE
  5
60E60
330
1F
100
AcDbEntity
  8
1
100
AcDbLine
 10
52.29697432659992
 20
24.64257826459994
 30
0.0
 11
52.29833980119991
 21
24.64164491899988
 31
0.0
1001
ACAD
1000
RTMaterial
1005
0
  0
LWPOLYLINE
  5
60E61
330
1F
100
AcDbEntity
  8
1
100
AcDbPolyline
 90
        3
 70
     0
 43
0.0
 10
51.80815019059991
 20
24.97725984039994
 10
51.98653713149991
 20
24.85488356889994
 10
52.22955241329993
 20
24.68846679299986
1001
ACAD
1000
RTMaterial
1005
0
  0
LINE
  5
60E62
330
1F
100
AcDbEntity
  8
1
100
AcDbLine
 10
52.29843071349989
 20
24.64158260399989
 30
0.0
 11
52.30014443919992
 21
24.64038200369987
 31
0.0
1001
ACAD
1000
RTMaterial
1005
0
  0
LINE
  5
60E63
330
1F
100
AcDbEntity
  8
1
100
AcDbLine
 10
48.49156183489992
 20
28.70965648879991
 30
0.0
 11
48.15827679609992
 21
29.15822420219996
 31
0.0
1001
ACAD
1000
RTMaterial
1005
0
  0
LINE
  5
60E64
330
1F
100
AcDbEntity
  8
1
100
AcDbLine
 10
47.91250562349989
 20
30.02229601549988
 30
0.0
 11
48.10519702049993
 21
29.75986774479992
 31
0.0
1001
ACAD
1000
RTMaterial
1005
0
  0
LINE
  5
60E65
330
1F
100
AcDbEntity
  8
1
100
AcDbLine
 10
51.4004973546999
 20
25.27196645959993
 30
0.0
 11
51.83845721689994
 21
24.67550470229992
 31
0.0
1001
ACAD
1000
RTMaterial
1005
0
  0
LINE
  5
60E66
330
1F
100
AcDbEntity
  8
1
100
AcDbLine
 10
50.81533797679992
 20
26.23016705759989
 30
0.0
 11
48.57413073359992
 21
29.28248880289994
 31
0.0
1001
ACAD
1000
RTMaterial
1005
0
  0
LINE
  5
60E67
330
1F
100
AcDbEntity
  8
1
100
AcDbLine
 10
48.29980660209992
 20
30.1908657484999
 30
0.0
 11
48.19711073079992
 21
30.42952332809989
 31
0.0
1001
ACAD
1000
RTMaterial
1005
0
  0
LINE
  5
60E6B
330
1F
100
AcDbEntity
  8
1
100
AcDbLine
 10
54.76708734609997
 20
29.1878344683999
 30
0.0
 11
54.89524928639991
 21
29.16989962059989
 31
0.0
1001
ACAD
1000
RTMaterial
1005
0
  0
LINE
  5
60E6C
330
1F
100
AcDbEntity
  8
1
100
AcDbLine
 10
57.5963086514999
 20
30.79090080299989
 30
0.0
 11
57.72447059179995
 21
30.77296595519988
 31
0.0
1001
ACAD
1000
RTMaterial
1005
0
  0
LINE
  5
60E6D
330
1F
100
AcDbEntity
  8
1
100
AcDbLine
 10
55.43467044589994
 20
31.30808032149986
 30
0.0
 11
55.56283238629993
 21
31.29014547359992
 31
0.0
1001
ACAD
1000
RTMaterial
1005
0
  0
LINE
  5
60E6E
330
1F
100
AcDbEntity
  8
1
100
AcDbLine
 10
48.16887527119991
 20
29.74401514439989
 30
0.0
 11
47.72739124409992
 21
29.85392189879991
 31
0.0
1001
ACAD
1000
RTMaterial
1005
0
  0
LINE
  5
60E6F
330
1F
100
AcDbEntity
  8
1
100
AcDbLine
 10
59.62985034869991
 20
22.44571181809994
 30
0.0
 11
59.12989448209993
 21
22.71507796719993
 31
0.0
1001
ACAD
1000
RTMaterial
1005
0
  0
LINE
  5
60E70
330
1F
100
AcDbEntity
  8
1
100
AcDbLine
 10
52.30014443919992
 20
24.64038200369987
 30
0.0
 11
52.30048519839994
 21
24.6401355729999
 31
0.0
1001
ACAD
1000
RTMaterial
1005
0
  0
LINE
  5
60E71
330
1F
100
AcDbEntity
  8
1
100
AcDbLine
 10
47.64245781409994
 20
30.9602096701999
 30
0.0
 11
47.95852006529992
 21
30.7087636364999
 31
0.0
1001
ACAD
1000
RTMaterial
1005
0
  0
LINE
  5
60E72
330
1F
100
AcDbEntity
  8
1
100
AcDbLine
 10
48.16887527119991
 20
29.74401514439989
 30
0.0
 11
48.42376048759991
 21
29.53773674399986
 31
0.0
1001
ACAD
1000
RTMaterial
1005
0
  0
LINE
  5
60E73
330
1F
100
AcDbEntity
  8
1
100
AcDbLine
 10
48.15912382729994
 20
30.48839020669993
 30
0.0
 11
48.02245709429996
 21
30.64834139579989
 31
0.0
1001
ACAD
1000
RTMaterial
1005
0
  0
LINE
  5
60E74
330
1F
100
AcDbEntity
  8
1
100
AcDbLine
 10
32.80290174099992
 20
32.10664613379993
 30
0.0
 11
46.0707929662999
 21
36.16304755969998
 31
0.0
1001
ACAD
1000
RTMaterial
1005
0
  0
LINE
  5
60E75
330
1F
100
AcDbEntity
  8
1
100
AcDbLine
 10
53.98364217839992
 20
36.4791517208999
 30
0.0
 11
53.22632773359993
 21
36.33302626459994
 31
0.0
1001
ACAD
1000
RTMaterial
1005
0
  0
LINE
  5
60E76
330
1F
100
AcDbEntity
  8
1
100
AcDbLine
 10
56.24838147059989
 20
37.07529917339992
 30
0.0
 11
59.99789243799995
 21
37.5007719539999
 31
0.0
1001
ACAD
1000
RTMaterial
1005
0
  0
LINE
  5
60E79
330
1F
100
AcDbEntity
  8
1
100
AcDbLine
 10
48.99451001349991
 20
35.62102809439989
 30
0.0
 11
52.06672093769992
 21
35.62129539859995
 31
0.0
1001
ACAD
1000
RTMaterial
1005
0
  0
LINE
  5
60E7C
330
1F
100
AcDbEntity
  8
1
100
AcDbLine
 10
48.99451001349991
 20
36.59999999999991
 30
0.0
 11
51.86755178849989
 21
36.59999999999991
 31
0.0
1001
ACAD
1000
RTMaterial
1005
0
  0
LINE
  5
60E88
330
1F
100
AcDbEntity
  8
1
100
AcDbLine
 10
61.53271046769993
 20
36.5087431213999
 30
0.0
 11
63.43637386899991
 21
30.14418715829987
 31
0.0
1001
ACAD
1000
RTMaterial
1005
0
  0
LINE
  5
60E8D
330
1F
100
AcDbEntity
  8
nocut
100
AcDbLine
 10
19.46333577819996
 20
32.6890641617
 30
0.0
 11
10.90113142139995
 21
36.14841927280003
 31
0.0
1001
ACAD
1000
RTMaterial
1005
0
  0
LINE
  5
60E8E
330
1F
100
AcDbEntity
  8
nocut
100
AcDbLine
 10
0.0
 20
0.0
 30
0.0
 11
0.0
 21
34.51249999999999
 31
0.0
1001
ACAD
1000
RTMaterial
1005
0
  0
LINE
  5
60E8F
330
1F
100
AcDbEntity
  8
nocut
100
AcDbLine
 10
46.07079296630002
 20
36.16304755959999
 30
0.0
 11
32.80290174100003
 21
32.10664613379999
 31
0.0
1001
ACAD
1000
RTMaterial
1005
0
  0
LINE
  5
60E90
330
1F
100
AcDbEntity
  8
nocut
100
AcDbLine
 10
9.028098454299993
 20
36.51249999999999
 30
0.0
 11
2.0
 21
36.51249999999999
 31
0.0
1001
ACAD
1000
RTMaterial
1005
0
  0
LINE
  5
60E91
330
1F
100
AcDbEntity
  8
nocut
100
AcDbLine
 10
52.89836821519998
 20
36.60000000000002
 30
0.0
 11
48.99451001349996
 21
36.60000000000002
 31
0.0
1001
ACAD
1000
RTMaterial
1005
0
  0
ARC
  5
60E92
330
1F
100
AcDbEntity
  8
nocut
100
AcDbCircle
 10
59.59970608129999
 20
35.45308061150001
 30
0.0
 40
1.199999999999999
100
AcDbArc
 50
16.43115893249984
 51
94.98712518170222
1001
ACAD
1000
RTMaterial
1005
0
  0
ARC
  5
60E93
330
1F
100
AcDbEntity
  8
nocut
100
AcDbCircle
 10
52.89836821519998
 20
35.80000000000001
 30
0.0
 40
0.8
100
AcDbArc
 50
75.51988534579855
 51
90.0
1001
ACAD
1000
RTMaterial
1005
0
  0
ARC
  5
60E94
330
1F
100
AcDbEntity
  8
nocut
100
AcDbCircle
 10
54.56716466469998
 20
37.02153003199999
 30
0.0
 40
0.8
100
AcDbArc
 50
255.5198853457986
 51
274.9871251817022
1001
ACAD
1000
RTMaterial
1005
0
  0
ARC
  5
60E95
330
1F
100
AcDbEntity
  8
1
100
AcDbCircle
 10
26.95546764649993
 20
51.2327412530999
 30
0.0
 40
20.0
100
AcDbArc
 50
248.0000000000004
 51
287.0000000000002
1001
ACAD
1000
RTMaterial
1005
0
  0
ARC
  5
60E99
330
1F
100
AcDbEntity
  8
1
100
AcDbCircle
 10
48.99451001349991
 20
26.59999999999991
 30
0.0
 40
10.0
100
AcDbArc
 50
90.0
 51
107.0000000000002
1001
ACAD
1000
RTMaterial
1005
0
  0
ARC
  5
60E9B
330
1F
100
AcDbEntity
  8
1
100
AcDbCircle
 10
9.028098454299936
 20
31.51249999999993
 30
0.0
 40
5.0
100
AcDbArc
 50
68.00000000000039
 51
90.0
1001
ACAD
1000
RTMaterial
1005
0
  0
ARC
  5
60EAA
330
1F
100
AcDbEntity
  8
nocut
100
AcDbCircle
 10
26.95546764649999
 20
51.23274125309996
 30
0.0
 40
20.0
100
AcDbArc
 50
247.9999999999989
 51
287.0000000000018
1001
ACAD
1000
RTMaterial
1005
0
  0
ARC
  5
60EAB
330
1F
100
AcDbEntity
  8
nocut
100
AcDbCircle
 10
48.99451001349996
 20
26.60000000000002
 30
0.0
 40
10.0
100
AcDbArc
 50
90.0
 51
107.0000000000017
1001
ACAD
1000
RTMaterial
1005
0
  0
ARC
  5
60EAC
330
1F
100
AcDbEntity
  8
nocut
100
AcDbCircle
 10
9.028098454299993
 20
31.51249999999999
 30
0.0
 40
5.0
100
AcDbArc
 50
67.99999999999889
 51
90.0
1001
ACAD
1000
RTMaterial
1005
0
  0
ARC
  5
60EAD
330
1F
100
AcDbEntity
  8
nocut
100
AcDbCircle
 10
2.0
 20
34.51249999999999
 30
0.0
 40
2.0
100
AcDbArc
 50
90.0
 51
180.0
1001
ACAD
1000
RTMaterial
1005
0
  0
SPLINE
  5
60EAE
330
1F
100
AcDbEntity
  8
1
100
AcDbSpline
210
0.0
220
0.0
230
1.0
 70
     8
 71
     3
 72
    15
 73
    11
 74
     0
 42
0.0000000001
 43
0.0000000001
 40
0.0
 40
0.0
 40
0.0
 40
0.0
 40
0.1248035261
 40
0.2496613061
 40
0.3746006319
 40
0.499629273
 40
0.6247274788000001
 40
0.7498557666
 40
0.8749517093000001
 40
1.0
 40
1.0
 40
1.0
 40
1.0
 10
55.17838032409992
 20
31.41582619659988
 30
0.0
 10
55.14783736549992
 20
31.42010060999997
 30
0.0
 10
55.08516764019993
 20
31.41997296149987
 30
0.0
 10
54.99520373149994
 20
31.3935851098999
 30
0.0
 10
54.91603561699992
 20
31.3431402679999
 30
0.0
 10
54.85400880539993
 20
31.27262210149985
 30
0.0
 10
54.8139886150999
 20
31.18760997379991
 30
0.0
 10
54.79915791939993
 20
31.09479756949992
 30
0.0
 10
54.81061583059989
 20
31.00158767639994
 30
0.0
 10
54.83532483519997
 20
30.94386983949988
 30
0.0
 10
54.8513478518999
 20
30.91744749499992
 30
0.0
1001
ACAD
1000
RTMaterial
1005
0
  0
SPLINE
  5
60EB0
330
1F
100
AcDbEntity
  8
1
100
AcDbSpline
210
0.0
220
0.0
230
1.0
 70
     8
 71
     3
 72
    15
 73
    11
 74
     0
 42
0.0000000001
 43
0.0000000001
 40
0.0
 40
0.0
 40
0.0
 40
0.0
 40
0.1249745627
 40
0.2500150505
 40
0.3751191411999999
 40
0.5002276074000001
 40
0.6252937521000001
 40
0.7502820067
 40
0.8751804444999999
 40
1.0
 40
1.0
 40
1.0
 40
1.0
 10
54.58167461649992
 20
29.78784660729991
 30
0.0
 10
54.55555894439993
 20
29.77160081799991
 30
0.0
 10
54.50763141389995
 20
29.73150367719995
 30
0.0
 10
54.45539850499995
 20
29.65397777419992
 30
0.0
 10
54.42656800509991
 20
29.5649523100999
 30
0.0
 10
54.42349063079991
 20
29.47143238689989
 30
0.0
 10
54.44637647569994
 20
29.38073273909987
 30
0.0
 10
54.49346557129991
 20
29.29994731789992
 30
0.0
 10
54.56098900879993
 20
29.23544044819994
 30
0.0
 10
54.61633388029992
 20
29.20657895599993
 30
0.0
 10
54.64529149139991
 20
29.19632880179995
 30
0.0
1001
ACAD
1000
RTMaterial
1005
0
  0
SPLINE
  5
60EB1
330
1F
100
AcDbEntity
  8
1
100
AcDbSpline
210
0.0
220
0.0
230
1.0
 70
     8
 71
     3
 72
     8
 73
     4
 74
     0
 42
0.0000000001
 43
0.0000000001
 40
0.0
 40
0.0
 40
0.0
 40
0.0
 40
1.0
 40
1.0
 40
1.0
 40
1.0
 10
54.64529149139991
 20
29.19632880179995
 30
0.0
 10
54.66601284099994
 20
29.18899404509989
 30
0.0
 10
54.68758188899989
 20
29.18372309699993
 30
0.0
 10
54.70935145059991
 20
29.18068020829986
 30
0.0
1001
ACAD
1000
RTMaterial
1005
0
  0
SPLINE
  5
60EB2
330
1F
100
AcDbEntity
  8
1
100
AcDbSpline
210
0.0
220
0.0
230
1.0
 70
     8
 71
     3
 72
    15
 73
    11
 74
     0
 42
0.0000000001
 43
0.0000000001
 40
0.0
 40
0.0
 40
0.0
 40
0.0
 40
0.1251602541
 40
0.2502837245
 40
0.3753592817
 40
0.5003790434000001
 40
0.6253432712000001
 40
0.7502586988
 40
0.8751367873999999
 40
1.0
 40
1.0
 40
1.0
 40
1.0
 10
55.60329743619991
 20
28.37936629939986
 30
0.0
 10
55.60179923499993
 20
28.4273951836999
 30
0.0
 10
55.59038183009994
 20
28.52338724159989
 30
0.0
 10
55.54853007959991
 20
28.66201817719997
 30
0.0
 10
55.48322607949995
 20
28.79125681219995
 30
0.0
 10
55.39646241219992
 20
28.90709703959993
 30
0.0
 10
55.29089286729993
 20
29.00601335149986
 30
0.0
 10
55.16972643919991
 20
29.08497944889996
 30
0.0
 10
55.0367215711999
 20
29.14157314059992
 30
0.0
 10
54.94272535219988
 20
29.16325924499995
 30
0.0
 10
54.89524918949996
 20
29.16989892699991
 30
0.0
1001
ACAD
1000
RTMaterial
1005
0
  0
SPLINE
  5
60EB3
330
1F
100
AcDbEntity
  8
1
100
AcDbSpline
210
0.0
220
0.0
230
1.0
 70
     8
 71
     3
 72
    11
 73
     7
 74
     0
 42
0.0000000001
 43
0.0000000001
 40
0.0
 40
0.0
 40
0.0
 40
0.0
 40
0.2502996486
 40
0.5003874572
 40
0.7502656923000001
 40
1.0
 40
1.0
 40
1.0
 40
1.0
 10
55.60329743619991
 20
28.37936629939986
 30
0.0
 10
55.60449150949995
 20
28.3410870566999
 30
0.0
 10
55.62045373079991
 20
28.26431796859992
 30
0.0
 10
55.68224356879989
 20
28.1648658229999
 30
0.0
 10
55.77424018249991
 20
28.09257000019989
 30
0.0
 10
55.84872234789992
 20
28.06839576099992
 30
0.0
 10
55.88656510419991
 20
28.06310106049989
 30
0.0
1001
ACAD
1000
RTMaterial
1005
0
  0
SPLINE
  5
60EB4
330
1F
100
AcDbEntity
  8
1
100
AcDbSpline
210
0.0
220
0.0
230
1.0
 70
     8
 71
     3
 72
     9
 73
     5
 74
     0
 42
0.0000000001
 43
0.0000000001
 40
0.0
 40
0.0
 40
0.0
 40
0.0
 40
0.5000427267000001
 40
1.0
 40
1.0
 40
1.0
 40
1.0
 10
57.33148275889994
 20
28.56295247989994
 30
0.0
 10
57.28889307849994
 20
28.5858239966999
 30
0.0
 10
57.19949889269992
 20
28.62410325839988
 30
0.0
 10
57.10475545709994
 20
28.64602335629991
 30
0.0
 10
57.05688746779992
 20
28.65271992919992
 30
0.0
1001
ACAD
1000
RTMaterial
1005
0
  0
SPLINE
  5
60EB5
330
1F
100
AcDbEntity
  8
1
100
AcDbSpline
210
0.0
220
0.0
230
1.0
 70
     8
 71
     3
 72
     9
 73
     5
 74
     0
 42
0.0000000001
 43
0.0000000001
 40
0.0
 40
0.0
 40
0.0
 40
0.0
 40
0.7495490479000001
 40
1.0
 40
1.0
 40
1.0
 40
1.0
 10
57.33148275889994
 20
28.56295247989994
 30
0.0
 10
57.35699841179997
 20
28.5492500600999
 30
0.0
 10
57.39374088409994
 20
28.53541210359992
 30
0.0
 10
57.43175567549991
 20
28.52838061979992
 30
0.0
 10
57.44133955419994
 20
28.52703937909991
 30
0.0
1001
ACAD
1000
RTMaterial
1005
0
  0
SPLINE
  5
60EB6
330
1F
100
AcDbEntity
  8
1
100
AcDbSpline
210
0.0
220
0.0
230
1.0
 70
     8
 71
     3
 72
    15
 73
    11
 74
     0
 42
0.0000000001
 43
0.0000000001
 40
0.0
 40
0.0
 40
0.0
 40
0.0
 40
0.1249035286
 40
0.2498597456
 40
0.3748744754
 40
0.4999215358
 40
0.6249805071
 40
0.7500291854000001
 40
0.8750362872
 40
1.0
 40
1.0
 40
1.0
 40
1.0
 10
54.58167461649992
 20
29.78784660729991
 30
0.0
 10
54.62712916259994
 20
29.81612253989993
 30
0.0
 10
54.71275478639995
 20
29.88176550999992
 30
0.0
 10
54.81950147219993
 20
30.00314272029994
 30
0.0
 10
54.90079789309993
 20
30.14298864089989
 30
0.0
 10
54.95348079569993
 20
30.29595925519988
 30
0.0
 10
54.9755797805999
 20
30.45624569209991
 30
0.0
 10
54.96623010359996
 20
30.61777494279994
 30
0.0
 10
54.92584054889994
 20
30.77434970619987
 30
0.0
 10
54.87911880779989
 20
30.87165251269988
 30
0.0
 10
54.8513478518999
 20
30.91744749499992
 30
0.0
1001
ACAD
1000
RTMaterial
1005
0
  0
SPLINE
  5
60EB7
330
1F
100
AcDbEntity
  8
1
100
AcDbSpline
210
0.0
220
0.0
230
1.0
 70
     8
 71
     3
 72
    11
 73
     7
 74
     0
 42
0.0000000001
 43
0.0000000001
 40
0.0
 40
0.0
 40
0.0
 40
0.0
 40
0.2497812734
 40
0.4996706779000001
 40
0.7497377359000001
 40
1.0
 40
1.0
 40
1.0
 40
1.0
 10
55.56283241039995
 20
31.29014564649987
 30
0.0
 10
55.64461745689993
 20
31.2787041897999
 30
0.0
 10
55.81279884979995
 20
31.28072592079985
 30
0.0
 10
56.05190969139994
 20
31.35888914799989
 30
0.0
 10
56.25713000749994
 20
31.5046406164999
 30
0.0
 10
56.35907260199997
 20
31.63866899789997
 30
0.0
 10
56.3987365262999
 20
31.71128279699991
 30
0.0
1001
ACAD
1000
RTMaterial
1005
0
  0
SPLINE
  5
60EB8
330
1F
100
AcDbEntity
  8
1
100
AcDbSpline
210
0.0
220
0.0
230
1.0
 70
     8
 71
     3
 72
    11
 73
     7
 74
     0
 42
0.0000000001
 43
0.0000000001
 40
0.0
 40
0.0
 40
0.0
 40
0.0
 40
0.2497807494
 40
0.499671638
 40
0.7497263809
 40
1.0
 40
1.0
 40
1.0
 40
1.0
 10
56.73315477409994
 20
31.8797645151999
 30
0.0
 10
56.70043538249996
 20
31.88434238939988
 30
0.0
 10
56.63315113739992
 20
31.88353502079986
 30
0.0
 10
56.53749256759994
 20
31.85226347829991
 30
0.0
 10
56.45538945779993
 20
31.79395505319991
 30
0.0
 10
56.41460549099992
 20
31.74033453199991
 30
0.0
 10
56.3987365262999
 20
31.71128279699991
 30
0.0
1001
ACAD
1000
RTMaterial
1005
0
  0
SPLINE
  5
60EB9
330
1F
100
AcDbEntity
  8
1
100
AcDbSpline
210
0.0
220
0.0
230
1.0
 70
     8
 71
     3
 72
     8
 73
     4
 74
     0
 42
0.0000000001
 43
0.0000000001
 40
0.0
 40
0.0
 40
0.0
 40
0.0
 40
1.0
 40
1.0
 40
1.0
 40
1.0
 10
57.7244706887999
 20
30.77296664869988
 30
0.0
 10
57.76837702969993
 20
30.76682621689986
 30
0.0
 10
57.81292691319993
 20
30.76423922789996
 30
0.0
 10
57.8572486134999
 20
30.76526808999995
 30
0.0
1001
ACAD
1000
RTMaterial
1005
0
  0
SPLINE
  5
60EBA
330
1F
100
AcDbEntity
  8
1
100
AcDbSpline
210
0.0
220
0.0
230
1.0
 70
     8
 71
     3
 72
     8
 73
     4
 74
     0
 42
0.0000000001
 43
0.0000000001
 40
0.0
 40
0.0
 40
0.0
 40
0.0
 40
1.0
 40
1.0
 40
1.0
 40
1.0
 10
57.91036842769995
 20
30.76218536739992
 30
0.0
 10
57.8928027968999
 20
30.76464064239991
 30
0.0
 10
57.8749802330999
 20
30.76567970299988
 30
0.0
 10
57.8572486134999
 20
30.76526808999995
 30
0.0
1001
ACAD
1000
RTMaterial
1005
0
  0
SPLINE
  5
60EBB
330
1F
100
AcDbEntity
  8
1
100
AcDbSpline
210
0.0
220
0.0
230
1.0
 70
     8
 71
     3
 72
    27
 73
    23
 74
     0
 42
0.0000000001
 43
0.0000000001
 40
0.0
 40
0.0
 40
0.0
 40
0.0
 40
0.0623947125
 40
0.0936232012
 40
0.1248550523
 40
0.1872761331
 40
0.249720486
 40
0.2809806853999999
 40
0.3122477685
 40
0.3747459269
 40
0.4372685048
 40
0.4998100351
 40
0.5623628903000001
 40
0.6249181621000001
 40
0.6874666821
 40
0.7187637134
 40
0.7500560675
 40
0.8125675237000001
 40
0.8750532600999999
 40
0.9063133248999999
 40
0.9375658356999998
 40
1.0
 40
1.0
 40
1.0
 40
1.0
 10
56.75950983129991
 20
33.39212474099992
 30
0.0
 10
56.95193629359994
 20
33.36519373679994
 30
0.0
 10
57.23800140949993
 20
33.30000096129993
 30
0.0
 10
57.60332863379989
 20
33.1659572243999
 30
0.0
 10
57.95614513949994
 20
33.00136939589987
 30
0.0
 10
58.36907798349995
 20
32.74022005089989
 30
0.0
 10
58.73192559789993
 20
32.4128899244999
 30
0.0
 10
58.98575905839994
 20
32.11735376759987
 30
0.0
 10
59.21377234729994
 20
31.80127187679995
 30
0.0
 10
59.44736887059992
 20
31.37141498659992
 30
0.0
 10
59.63655792029993
 20
30.81592809459994
 30
0.0
 10
59.72953893029995
 20
30.23627821119987
 30
0.0
 10
59.72356925229991
 20
29.64914786049991
 30
0.0
 10
59.61888284569994
 20
29.07144650599992
 30
0.0
 10
59.45167973289994
 20
28.61131054959992
 30
0.0
 10
59.27312204659995
 20
28.26448635319991
 30
0.0
 10
59.06597806759993
 20
27.93406677749994
 30
0.0
 10
58.75576966929992
 20
27.55582606889993
 30
0.0
 10
58.38621714079994
 20
27.23547909339988
 30
0.0
 10
58.06177618949994
 20
27.01963327949989
 30
0.0
 10
57.72046205699997
 20
26.83212912909989
 30
0.0
 10
57.44726564289994
 20
26.72460519399988
 30
0.0
 10
57.26095852049991
 20
26.66901170599994
 30
0.0
1001
ACAD
1000
RTMaterial
1005
0
  0
SPLINE
  5
60EBC
330
1F
100
AcDbEntity
  8
1
100
AcDbSpline
210
0.0
220
0.0
230
1.0
 70
     8
 71
     3
 72
     9
 73
     5
 74
     0
 42
0.0000000001
 43
0.0000000001
 40
0.0
 40
0.0
 40
0.0
 40
0.0
 40
0.4999358793999999
 40
1.0
 40
1.0
 40
1.0
 40
1.0
 10
55.8032491845999
 20
26.5587118782999
 30
0.0
 10
56.04590717469989
 20
26.52475073139993
 30
0.0
 10
56.54001451629989
 20
26.50891812539993
 30
0.0
 10
57.02610550959992
 20
26.59893227009991
 30
0.0
 10
57.26095852049991
 20
26.66901170599994
 30
0.0
1001
ACAD
1000
RTMaterial
1005
0
  0
SPLINE
  5
60EBD
330
1F
100
AcDbEntity
  8
1
100
AcDbSpline
210
0.0
220
0.0
230
1.0
 70
     8
 71
     3
 72
     9
 73
     5
 74
     0
 42
0.0000000001
 43
0.0000000001
 40
0.0
 40
0.0
 40
0.0
 40
0.0
 40
0.4999927562
 40
1.0
 40
1.0
 40
1.0
 40
1.0
 10
55.4346704141999
 20
31.30808005429992
 30
0.0
 10
55.38679942869993
 20
31.31477963549992
 30
0.0
 10
55.29205670419992
 20
31.33670065419995
 30
0.0
 10
55.20266179659995
 20
31.3749780716999
 30
0.0
 10
55.16007517899993
 20
31.3978479436999
 30
0.0
1001
ACAD
1000
RTMaterial
1005
0
  0
SPLINE
  5
60EBE
330
1F
100
AcDbEntity
  8
1
100
AcDbSpline
210
0.0
220
0.0
230
1.0
 70
     8
 71
     3
 72
    27
 73
    23
 74
     0
 42
0.0000000001
 43
0.0000000001
 40
0.0
 40
0.0
 40
0.0
 40
0.0
 40
0.0624341643
 40
0.0936866751
 40
0.1249467399
 40
0.1874324763
 40
0.2499439325
 40
0.2812362866
 40
0.3125333179
 40
0.3750818379
 40
0.4376371097
 40
0.5001899649000001
 40
0.5627314952
 40
0.6252540731
 40
0.6877522315000001
 40
0.7190193145999999
 40
0.750279514
 40
0.8127238669
 40
0.8751449476999999
 40
0.9063767988
 40
0.9376052875
 40
1.0
 40
1.0
 40
1.0
 40
1.0
 10
55.30180049539996
 20
33.28182491319996
 30
0.0
 10
55.11549337299993
 20
33.2262314251999
 30
0.0
 10
54.8422969588999
 20
33.11870749009989
 30
0.0
 10
54.50098282639993
 20
32.93120333969995
 30
0.0
 10
54.17654187509993
 20
32.7153575257999
 30
0.0
 10
53.80698934659995
 20
32.39501055039994
 30
0.0
 10
53.49678094829994
 20
32.01676984179994
 30
0.0
 10
53.28963696929992
 20
31.68635026599992
 30
0.0
 10
53.11107928289994
 20
31.33952606959991
 30
0.0
 10
52.94387617019992
 20
30.87939011329991
 30
0.0
 10
52.83918976349991
 20
30.30168875879991
 30
0.0
 10
52.83322008559991
 20
29.71455840809989
 30
0.0
 10
52.92620109559994
 20
29.13490852459995
 30
0.0
 10
53.1153901452999
 20
28.57942163259986
 30
0.0
 10
53.34898666859993
 20
28.14956474239989
 30
0.0
 10
53.57699995749993
 20
27.83348285159991
 30
0.0
 10
53.83083341799994
 20
27.53794669469994
 30
0.0
 10
54.19368103239992
 20
27.21061656829988
 30
0.0
 10
54.60661387639993
 20
26.94946722329991
 30
0.0
 10
54.95943038209992
 20
26.78487939489992
 30
0.0
 10
55.32475760639994
 20
26.65083565789996
 30
0.0
 10
55.61082272229993
 20
26.58564288249994
 30
0.0
 10
55.8032491845999
 20
26.5587118782999
 30
0.0
1001
ACAD
1000
RTMaterial
1005
0
  0
SPLINE
  5
60EBF
330
1F
100
AcDbEntity
  8
1
100
AcDbSpline
210
0.0
220
0.0
230
1.0
 70
     8
 71
     3
 72
     9
 73
     5
 74
     0
 42
0.0000000001
 43
0.0000000001
 40
0.0
 40
0.0
 40
0.0
 40
0.0
 40
0.5000641206000001
 40
1.0
 40
1.0
 40
1.0
 40
1.0
 10
55.30180049539996
 20
33.28182491319996
 30
0.0
 10
55.5366535062999
 20
33.35190434919991
 30
0.0
 10
56.02274449959992
 20
33.44191849389995
 30
0.0
 10
56.51685184119992
 20
33.42608588789995
 30
0.0
 10
56.75950983129991
 20
33.39212474099992
 30
0.0
1001
ACAD
1000
RTMaterial
1005
0
  0
SPLINE
  5
60EC0
330
1F
100
AcDbEntity
  8
1
100
AcDbSpline
210
0.0
220
0.0
230
1.0
 70
     8
 71
     3
 72
    27
 73
    23
 74
     0
 42
0.0000000001
 43
0.0000000001
 40
0.0
 40
0.0
 40
0.0
 40
0.0
 40
0.0624427899
 40
0.0937102059
 40
0.1249873065
 40
0.1874900014
 40
0.2500207912
 40
0.281332068
 40
0.3126473387
 40
0.3752087474
 40
0.4377679573
 40
0.5003130489000001
 40
0.562834304
 40
0.6253256282000001
 40
0.6877854148
 40
0.7190421229
 40
0.7502924867000001
 40
0.8127033279999999
 40
0.8751043047999999
 40
0.9063425463999999
 40
0.9375810863999999
 40
1.0
 40
1.0
 40
1.0
 40
1.0
 10
55.64232396629989
 20
32.22458982829988
 30
0.0
 10
55.49539277939993
 20
32.18074600159992
 30
0.0
 10
55.28060998639995
 20
32.09286814699993
 30
0.0
 10
55.01641399379991
 20
31.93597789109992
 30
0.0
 10
54.76862895769994
 20
31.75385856859993
 30
0.0
 10
54.49416869049992
 20
31.48180029529993
 30
0.0
 10
54.27804740949994
 20
31.16132559909988
 30
0.0
 10
54.14516016179994
 20
30.8837285557999
 30
0.0
 10
54.03998129079991
 20
30.59442217979989
 30
0.0
 10
53.96244809619992
 20
30.21545749699993
 30
0.0
 10
53.9597546062999
 20
29.75174573429996
 30
0.0
 10
54.0473127763999
 20
29.29638868099994
 30
0.0
 10
54.22185035139995
 20
28.86696817019993
 30
0.0
 10
54.47654965739991
 20
28.48001451629989
 30
0.0
 10
54.74784489589996
 20
28.20505532259989
 30
0.0
 10
54.99346524209994
 20
28.02039581789995
 30
0.0
 10
55.25590128239992
 20
27.86075097839989
 30
0.0
 10
55.6114428763999
 20
27.71082044489992
 30
0.0
 10
55.98943248539995
 20
27.63346611639992
 30
0.0
 10
56.29607913319995
 20
27.61680394029992
 30
0.0
 10
56.60282932409995
 20
27.63027192259989
 30
0.0
 10
56.83052090719991
 20
27.67444868539997
 30
0.0
 10
56.97739591189992
 20
27.71827574749995
 30
0.0
1001
ACAD
1000
RTMaterial
1005
0
  0
SPLINE
  5
60EC1
330
1F
100
AcDbEntity
  8
1
100
AcDbSpline
210
0.0
220
0.0
230
1.0
 70
     8
 71
     3
 72
     8
 73
     4
 74
     0
 42
0.0000000001
 43
0.0000000001
 40
0.0
 40
0.0
 40
0.0
 40
0.0
 40
1.0
 40
1.0
 40
1.0
 40
1.0
 10
55.16007517899993
 20
31.3978479436999
 30
0.0
 10
55.14521713369993
 20
31.40582701339992
 30
0.0
 10
55.12969427699994
 20
31.41267181549989
 30
0.0
 10
55.1137878616999
 20
31.41827654699989
 30
0.0
1001
ACAD
1000
RTMaterial
1005
0
  0
SPLINE
  5
60EC2
330
1F
100
AcDbEntity
  8
1
100
AcDbSpline
210
0.0
220
0.0
230
1.0
 70
     8
 71
     3
 72
    15
 73
    11
 74
     0
 42
0.0000000001
 43
0.0000000001
 40
0.0
 40
0.0
 40
0.0
 40
0.0
 40
0.1249035286
 40
0.2498597456
 40
0.3748744754
 40
0.4999215358
 40
0.6249805071
 40
0.7500291854000001
 40
0.8750362872
 40
1.0
 40
1.0
 40
1.0
 40
1.0
 10
58.03804526179994
 20
30.15501896839988
 30
0.0
 10
57.99259071559993
 20
30.12674303589989
 30
0.0
 10
57.90696509179992
 20
30.06110006579991
 30
0.0
 10
57.80021840609993
 20
29.9397228554999
 30
0.0
 10
57.71892198519992
 20
29.7998769347999
 30
0.0
 10
57.66623908259993
 20
29.64690632049991
 30
0.0
 10
57.64414009769996
 20
29.48661988359993
 30
0.0
 10
57.65348977469989
 20
29.32509063289996
 30
0.0
 10
57.69387932939991
 20
29.16851586949992
 30
0.0
 10
57.7406010704999
 20
29.0712130629999
 30
0.0
 10
57.76837202639995
 20
29.02541808079985
 30
0.0
1001
ACAD
1000
RTMaterial
1005
0
  0
SPLINE
  5
60EC3
330
1F
100
AcDbEntity
  8
1
100
AcDbSpline
210
0.0
220
0.0
230
1.0
 70
     8
 71
     3
 72
    11
 73
     7
 74
     0
 42
0.0000000001
 43
0.0000000001
 40
0.0
 40
0.0
 40
0.0
 40
0.0
 40
0.2502234889999999
 40
0.500298469
 40
0.7502309122
 40
1.0
 40
1.0
 40
1.0
 40
1.0
 10
56.8882605016999
 20
31.58143412419992
 30
0.0
 10
56.88738193159991
 20
31.60959905989989
 30
0.0
 10
56.87834669279993
 20
31.66595013459994
 30
0.0
 10
56.84383359439994
 20
31.74405113959995
 30
0.0
 10
56.79069112719992
 20
31.81082108329986
 30
0.0
 10
56.74499373169993
 20
31.84490510969994
 30
0.0
 10
56.72047704439989
 20
31.85869228649989
 30
0.0
1001
ACAD
1000
RTMaterial
1005
0
  0
SPLINE
  5
60EC4
330
1F
100
AcDbEntity
  8
1
100
AcDbSpline
210
0.0
220
0.0
230
1.0
 70
     8
 71
     3
 72
     8
 73
     4
 74
     0
 42
0.0000000001
 43
0.0000000001
 40
0.0
 40
0.0
 40
0.0
 40
0.0
 40
1.0
 40
1.0
 40
1.0
 40
1.0
 10
56.72047704439989
 20
31.85869228649989
 30
0.0
 10
56.70372534579991
 20
31.86811275299988
 30
0.0
 10
56.6860794330999
 20
31.87609441819996
 30
0.0
 10
56.6679388616999
 20
31.88244140659993
 30
0.0
1001
ACAD
1000
RTMaterial
1005
0
  0
SPLINE
  5
60EC5
330
1F
100
AcDbEntity
  8
1
100
AcDbSpline
210
0.0
220
0.0
230
1.0
 70
     8
 71
     3
 72
    15
 73
    11
 74
     0
 42
0.0000000001
 43
0.0000000001
 40
0.0
 40
0.0
 40
0.0
 40
0.0
 40
0.1248757498
 40
0.2497465242
 40
0.3746627943
 40
0.4996245048
 40
0.6246450574
 40
0.7497140269
 40
0.8748478632999999
 40
1.0
 40
1.0
 40
1.0
 40
1.0
 10
57.59630910689992
 20
30.7909040662999
 30
0.0
 10
57.54882795939995
 20
30.79754204729989
 30
0.0
 10
57.45482911739992
 20
30.81922791939991
 30
0.0
 10
57.32182602209991
 20
30.87583022499996
 30
0.0
 10
57.20066206239994
 20
30.95479248089993
 30
0.0
 10
57.09509324339996
 20
31.05370921289995
 30
0.0
 10
57.00833499619995
 20
31.16954846819993
 30
0.0
 10
56.94302363229991
 20
31.29878514959995
 30
0.0
 10
56.90117945899993
 20
31.43741656119988
 30
0.0
 10
56.88975860219989
 20
31.53340846709995
 30
0.0
 10
56.8882605016999
 20
31.58143412419992
 30
0.0
1001
ACAD
1000
RTMaterial
1005
0
  0
SPLINE
  5
60EC6
330
1F
100
AcDbEntity
  8
1
100
AcDbSpline
210
0.0
220
0.0
230
1.0
 70
     8
 71
     3
 72
    15
 73
    11
 74
     0
 42
0.0000000001
 43
0.0000000001
 40
0.0
 40
0.0
 40
0.0
 40
0.0
 40
0.1249712139
 40
0.2500063639
 40
0.3751077101
 40
0.5002138165
 40
0.6252813567000001
 40
0.7502739849
 40
0.8751788063999999
 40
1.0
 40
1.0
 40
1.0
 40
1.0
 10
57.90988332139995
 20
30.17295381629992
 30
0.0
 10
57.93561795599993
 20
30.18896257339992
 30
0.0
 10
57.98290616919991
 20
30.2283591220999
 30
0.0
 10
58.03482816359997
 20
30.30440694179993
 30
0.0
 10
58.06412539209993
 20
30.39180375169991
 30
0.0
 10
58.06848178279995
 20
30.48387214359997
 30
0.0
 10
58.04759910599995
 20
30.57362018679993
 30
0.0
 10
58.00302708269993
 20
30.65423197109993
 30
0.0
 10
57.93823356149994
 20
30.71953418869987
 30
0.0
 10
57.88462646999994
 20
30.74964146549991
 30
0.0
 10
57.85643963889993
 20
30.76068004649989
 30
0.0
1001
ACAD
1000
RTMaterial
1005
0
  0
LINE
  5
60EC7
330
1F
100
AcDbEntity
  8
1
100
AcDbLine
 10
57.85643963889993
 20
30.76068004649989
 30
0.0
 11
57.84295967389994
 21
30.76562235299991
 31
0.0
1001
ACAD
1000
RTMaterial
1005
0
  0
SPLINE
  5
60EC8
330
1F
100
AcDbEntity
  8
1
100
AcDbSpline
210
0.0
220
0.0
230
1.0
 70
     8
 71
     3
 72
    15
 73
    11
 74
     0
 42
0.0000000001
 43
0.0000000001
 40
0.0
 40
0.0
 40
0.0
 40
0.0
 40
0.1249599769
 40
0.2499720737
 40
0.3750190592
 40
0.5000784648
 40
0.6251259588
 40
0.7501389967000001
 40
0.8751002055
 40
1.0
 40
1.0
 40
1.0
 40
1.0
 10
57.64021008599991
 20
29.04335292859992
 30
0.0
 10
57.61243992879991
 20
29.08914659389996
 30
0.0
 10
57.5657193607999
 20
29.18645039299992
 30
0.0
 10
57.52532479969989
 20
29.34302401629992
 30
0.0
 10
57.5159776664999
 20
29.50455528509986
 30
0.0
 10
57.53807423669991
 20
29.66484186289995
 30
0.0
 10
57.59075935739992
 20
29.81781151199988
 30
0.0
 10
57.67205441959993
 20
29.95766038189987
 30
0.0
 10
57.77880505719991
 20
30.07903431129989
 30
0.0
 10
57.86443008249995
 20
30.14467869689986
 30
0.0
 10
57.90988332139995
 20
30.17295381629992
 30
0.0
1001
ACAD
1000
RTMaterial
1005
0
  0
SPLINE
  5
60EC9
330
1F
100
AcDbEntity
  8
1
100
AcDbSpline
210
0.0
220
0.0
230
1.0
 70
     8
 71
     3
 72
    15
 73
    11
 74
     0
 42
0.0000000001
 43
0.0000000001
 40
0.0
 40
0.0
 40
0.0
 40
0.0
 40
0.1249929242
 40
0.2500590293
 40
0.3751822011
 40
0.5002973722000001
 40
0.6253498794
 40
0.7503080916
 40
0.8751765463999999
 40
1.0
 40
1.0
 40
1.0
 40
1.0
 10
58.03804526179994
 20
30.15501896839988
 30
0.0
 10
58.06647647619991
 20
30.17270518829986
 30
0.0
 10
58.11825407459991
 20
30.21713364689987
 30
0.0
 10
58.17203307889991
 20
30.30381601639994
 30
0.0
 10
58.19736209089995
 20
30.4027491130999
 30
0.0
 10
58.19178386319993
 20
30.50469993439987
 30
0.0
 10
58.15585543509991
 20
30.6002290141999
 30
0.0
 10
58.09284854319992
 20
30.6804646226999
 30
0.0
 10
58.00873320319993
 20
30.73793786399989
 30
0.0
 10
57.94348446319992
 20
30.75755650019988
 30
0.0
 10
57.91036842769995
 20
30.76218536739992
 30
0.0
1001
ACAD
1000
RTMaterial
1005
0
  0
SPLINE
  5
60ECA
330
1F
100
AcDbEntity
  8
1
100
AcDbSpline
210
0.0
220
0.0
230
1.0
 70
     8
 71
     3
 72
    11
 73
     7
 74
     0
 42
0.0000000001
 43
0.0000000001
 40
0.0
 40
0.0
 40
0.0
 40
0.0
 40
0.2502689694
 40
0.5003316144
 40
0.7502220338
 40
1.0
 40
1.0
 40
1.0
 40
1.0
 10
56.09282141159991
 20
28.24951762659987
 30
0.0
 10
56.13248639769995
 20
28.32213336969994
 30
0.0
 10
56.23443080299995
 20
28.45616088129992
 30
0.0
 10
56.43965057929995
 20
28.6019164766999
 30
0.0
 10
56.6787613000999
 20
28.68006907579985
 30
0.0
 10
56.84694222859997
 20
28.68210086049987
 30
0.0
 10
56.92872558329992
 20
28.67065521719997
 30
0.0
1001
ACAD
1000
RTMaterial
1005
0
  0
SPLINE
  5
60ECB
330
1F
100
AcDbEntity
  8
1
100
AcDbSpline
210
0.0
220
0.0
230
1.0
 70
     8
 71
     3
 72
    15
 73
    11
 74
     0
 42
0.0000000001
 43
0.0000000001
 40
0.0
 40
0.0
 40
0.0
 40
0.0
 40
0.1251602541
 40
0.2502837245
 40
0.3753592817
 40
0.5003790434000001
 40
0.6253432712000001
 40
0.7502586988
 40
0.8751367873999999
 40
1.0
 40
1.0
 40
1.0
 40
1.0
 10
57.01642244199996
 20
31.56349927639991
 30
0.0
 10
57.01792064319994
 20
31.51547039209993
 30
0.0
 10
57.02933804819991
 20
31.41947833409989
 30
0.0
 10
57.07118979869995
 20
31.28084739859992
 30
0.0
 10
57.1364937987999
 20
31.15160876359994
 30
0.0
 10
57.22325746609993
 20
31.0357685361999
 30
0.0
 10
57.32882701099993
 20
30.93685222419992
 30
0.0
 10
57.44999343909995
 20
30.85788612679994
 30
0.0
 10
57.58299830709995
 20
30.80129243509987
 30
0.0
 10
57.67699452609992
 20
30.77960633079988
 30
0.0
 10
57.7244706887999
 20
30.77296664869988
 30
0.0
1001
ACAD
1000
RTMaterial
1005
0
  0
SPLINE
  5
60ECC
330
1F
100
AcDbEntity
  8
1
100
AcDbSpline
210
0.0
220
0.0
230
1.0
 70
     8
 71
     3
 72
     8
 73
     4
 74
     0
 42
0.0000000001
 43
0.0000000001
 40
0.0
 40
0.0
 40
0.0
 40
0.0
 40
1.0
 40
1.0
 40
1.0
 40
1.0
 10
54.64833787319992
 20
29.19573739249995
 30
0.0
 10
54.66901142689994
 20
29.19586207919991
 30
0.0
 10
54.6897043411999
 20
29.19520250219995
 30
0.0
 10
54.71032833999993
 20
29.19376652129989
 30
0.0
1001
ACAD
1000
RTMaterial
1005
0
  0
SPLINE
  5
60ECD
330
1F
100
AcDbEntity
  8
1
100
AcDbSpline
210
0.0
220
0.0
230
1.0
 70
     8
 71
     3
 72
     8
 73
     4
 74
     0
 42
0.0000000001
 43
0.0000000001
 40
0.0
 40
0.0
 40
0.0
 40
0.0
 40
1.0
 40
1.0
 40
1.0
 40
1.0
 10
54.71032833999993
 20
29.19376652129989
 30
0.0
 10
54.72930507679996
 20
29.1924452337999
 30
0.0
 10
54.74824742619995
 20
29.19046500859991
 30
0.0
 10
54.76708689059989
 20
29.18783120519993
 30
0.0
1001
ACAD
1000
RTMaterial
1005
0
  0
SPLINE
  5
60ECE
330
1F
100
AcDbEntity
  8
1
100
AcDbSpline
210
0.0
220
0.0
230
1.0
 70
     8
 71
     3
 72
    15
 73
    11
 74
     0
 42
0.0000000001
 43
0.0000000001
 40
0.0
 40
0.0
 40
0.0
 40
0.0
 40
0.1248035261
 40
0.2496613061
 40
0.3746006319
 40
0.499629273
 40
0.6247274788000001
 40
0.7498557666
 40
0.8749517093000001
 40
1.0
 40
1.0
 40
1.0
 40
1.0
 10
57.44133955419994
 20
28.52703937909991
 30
0.0
 10
57.47188251279993
 20
28.52276496579987
 30
0.0
 10
57.53455223809993
 20
28.52289261429996
 30
0.0
 10
57.62451614669993
 20
28.54928046589993
 30
0.0
 10
57.70368426119995
 20
28.59972530779993
 30
0.0
 10
57.76571107279995
 20
28.67024347419994
 30
0.0
 10
57.80573126319996
 20
28.75525560199992
 30
0.0
 10
57.82056195879988
 20
28.84806800619987
 30
0.0
 10
57.80910404769992
 20
28.94127789939989
 30
0.0
 10
57.7843950429999
 20
28.99899573629989
 30
0.0
 10
57.76837202639995
 20
29.02541808079985
 30
0.0
1001
ACAD
1000
RTMaterial
1005
0
  0
SPLINE
  5
60ECF
330
1F
100
AcDbEntity
  8
1
100
AcDbSpline
210
0.0
220
0.0
230
1.0
 70
     8
 71
     3
 72
    15
 73
    11
 74
     0
 42
0.0000000001
 43
0.0000000001
 40
0.0
 40
0.0
 40
0.0
 40
0.0
 40
0.1248198495
 40
0.2497009272
 40
0.3746642443
 40
0.4997044267000001
 40
0.6247961708
 40
0.7499053905
 40
0.8749776184999998
 40
1.0
 40
1.0
 40
1.0
 40
1.0
 10
57.37833385189992
 20
28.54239819569995
 30
0.0
 10
57.40643494079989
 20
28.54408625489993
 30
0.0
 10
57.46248083799992
 20
28.5547772898999
 30
0.0
 10
57.53949808409993
 20
28.59167328659987
 30
0.0
 10
57.60468423229991
 20
28.64699573369989
 30
0.0
 10
57.65367881609996
 20
28.71710456839992
 30
0.0
 10
57.68328990749996
 20
28.79738119689989
 30
0.0
 10
57.69154956699992
 20
28.88256342199992
 30
0.0
 10
57.67796580559991
 20
28.96699261039993
 30
0.0
 10
57.65483118169993
 20
29.01924238589987
 30
0.0
 10
57.64021008599991
 20
29.04335292859992
 30
0.0
1001
ACAD
1000
RTMaterial
1005
0
  0
SPLINE
  5
60ED0
330
1F
100
AcDbEntity
  8
1
100
AcDbSpline
210
0.0
220
0.0
230
1.0
 70
     8
 71
     3
 72
    11
 73
     7
 74
     0
 42
0.0000000001
 43
0.0000000001
 40
0.0
 40
0.0
 40
0.0
 40
0.0
 40
0.2497812734
 40
0.4996706779000001
 40
0.7497377359000001
 40
1.0
 40
1.0
 40
1.0
 40
1.0
 10
57.05688746779992
 20
28.65271992919992
 30
0.0
 10
56.97510242139992
 20
28.66416138589989
 30
0.0
 10
56.80692102849992
 20
28.66213965489993
 30
0.0
 10
56.56781018689992
 20
28.5839764276999
 30
0.0
 10
56.36258987079992
 20
28.43822495919994
 30
0.0
 10
56.2606472761999
 20
28.30419657789997
 30
0.0
 10
56.22098335199996
 20
28.23158277869988
 30
0.0
1001
ACAD
1000
RTMaterial
1005
0
  0
SPLINE
  5
60ED1
330
1F
100
AcDbEntity
  8
1
100
AcDbSpline
210
0.0
220
0.0
230
1.0
 70
     8
 71
     3
 72
    11
 73
     7
 74
     0
 42
0.0000000001
 43
0.0000000001
 40
0.0
 40
0.0
 40
0.0
 40
0.0
 40
0.2502996486
 40
0.5003874572
 40
0.7502656923000001
 40
1.0
 40
1.0
 40
1.0
 40
1.0
 10
57.01642244199996
 20
31.56349927639991
 30
0.0
 10
57.01522836869992
 20
31.60177851909992
 30
0.0
 10
56.99926614749995
 20
31.67854760709992
 30
0.0
 10
56.93747630949997
 20
31.77799975279993
 30
0.0
 10
56.8454796956999
 20
31.85029557559989
 30
0.0
 10
56.77099753039994
 20
31.87446981469992
 30
0.0
 10
56.73315477409994
 20
31.8797645151999
 30
0.0
1001
ACAD
1000
RTMaterial
1005
0
  0
SPLINE
  5
60ED2
330
1F
100
AcDbEntity
  8
1
100
AcDbSpline
210
0.0
220
0.0
230
1.0
 70
     8
 71
     3
 72
    11
 73
     7
 74
     0
 42
0.0000000001
 43
0.0000000001
 40
0.0
 40
0.0
 40
0.0
 40
0.0
 40
0.2497807494
 40
0.499671638
 40
0.7497263809
 40
1.0
 40
1.0
 40
1.0
 40
1.0
 10
55.88656510419991
 20
28.06310106049989
 30
0.0
 10
55.9192844957999
 20
28.05852318629991
 30
0.0
 10
55.98656874089994
 20
28.05933055499992
 30
0.0
 10
56.08222731069992
 20
28.09060209739994
 30
0.0
 10
56.16433042049994
 20
28.14891052249993
 30
0.0
 10
56.20511438729995
 20
28.20253104369988
 30
0.0
 10
56.22098335199996
 20
28.23158277869988
 30
0.0
1001
ACAD
1000
RTMaterial
1005
0
  0
SPLINE
  5
60ED3
330
1F
100
AcDbEntity
  8
1
100
AcDbSpline
210
0.0
220
0.0
230
1.0
 70
     8
 71
     3
 72
    11
 73
     7
 74
     0
 42
0.0000000001
 43
0.0000000001
 40
0.0
 40
0.0
 40
0.0
 40
0.0
 40
0.2497849674
 40
0.4997030093000001
 40
0.7497650819000001
 40
1.0
 40
1.0
 40
1.0
 40
1.0
 10
55.82350790329991
 20
28.07845351389995
 30
0.0
 10
55.85111596349992
 20
28.08010181359993
 30
0.0
 10
55.9061770136999
 20
28.09047345519991
 30
0.0
 10
55.98207024049992
 20
28.12618567759989
 30
0.0
 10
56.04668884999995
 20
28.17973773419993
 30
0.0
 10
56.07953928299991
 20
28.22520168099993
 30
0.0
 10
56.09282141159991
 20
28.24951762659987
 30
0.0
1001
ACAD
1000
RTMaterial
1005
0
  0
SPLINE
  5
60ED4
330
1F
100
AcDbEntity
  8
1
100
AcDbSpline
210
0.0
220
0.0
230
1.0
 70
     8
 71
     3
 72
     9
 73
     5
 74
     0
 42
0.0000000001
 43
0.0000000001
 40
0.0
 40
0.0
 40
0.0
 40
0.0
 40
0.5000427267000001
 40
1.0
 40
1.0
 40
1.0
 40
1.0
 10
55.28823711939992
 20
31.37991309579985
 30
0.0
 10
55.33082679979992
 20
31.35704157909987
 30
0.0
 10
55.42022098559994
 20
31.3187623172999
 30
0.0
 10
55.51496442119992
 20
31.29684221939988
 30
0.0
 10
55.56283241039995
 20
31.29014564649987
 30
0.0
1001
ACAD
1000
RTMaterial
1005
0
  0
SPLINE
  5
60ED5
330
1F
100
AcDbEntity
  8
1
100
AcDbSpline
210
0.0
220
0.0
230
1.0
 70
     8
 71
     3
 72
     9
 73
     5
 74
     0
 42
0.0000000001
 43
0.0000000001
 40
0.0
 40
0.0
 40
0.0
 40
0.0
 40
0.7495490479000001
 40
1.0
 40
1.0
 40
1.0
 40
1.0
 10
55.28823711939992
 20
31.37991309579985
 30
0.0
 10
55.2627214664999
 20
31.39361551569994
 30
0.0
 10
55.22597899419992
 20
31.40745347209992
 30
0.0
 10
55.18796420279994
 20
31.41448495589993
 30
0.0
 10
55.17838032409992
 20
31.41582619659988
 30
0.0
1001
ACAD
1000
RTMaterial
1005
0
  0
SPLINE
  5
60ED6
330
1F
100
AcDbEntity
  8
1
100
AcDbSpline
210
0.0
220
0.0
230
1.0
 70
     8
 71
     3
 72
     8
 73
     4
 74
     0
 42
0.0000000001
 43
0.0000000001
 40
0.0
 40
0.0
 40
0.0
 40
0.0
 40
1.0
 40
1.0
 40
1.0
 40
1.0
 10
54.89524918949996
 20
29.16989892699991
 30
0.0
 10
54.85134284849994
 20
29.17603935889991
 30
0.0
 10
54.80679296509993
 20
29.17862634789992
 30
0.0
 10
54.76247126479996
 20
29.17759748579988
 30
0.0
1001
ACAD
1000
RTMaterial
1005
0
  0
SPLINE
  5
60ED7
330
1F
100
AcDbEntity
  8
1
100
AcDbSpline
210
0.0
220
0.0
230
1.0
 70
     8
 71
     3
 72
    27
 73
    23
 74
     0
 42
0.0000000001
 43
0.0000000001
 40
0.0
 40
0.0
 40
0.0
 40
0.0
 40
0.0624189136
 40
0.0936574536
 40
0.1248956952
 40
0.187296672
 40
0.2497075133
 40
0.2809578771
 40
0.3122145852
 40
0.3746743718
 40
0.4371656960000001
 40
0.4996869511
 40
0.5622320427
 40
0.6247912526000001
 40
0.6873526613
 40
0.718667932
 40
0.7499792088
 40
0.8125099985999998
 40
0.8750126935
 40
0.9062897940999999
 40
0.9375572100999999
 40
1.0
 40
1.0
 40
1.0
 40
1.0
 10
55.64232396629989
 20
32.22458982829988
 30
0.0
 10
55.78919897109995
 20
32.26841689029993
 30
0.0
 10
56.01689055409991
 20
32.3125936530999
 30
0.0
 10
56.3236407450999
 20
32.32606163549991
 30
0.0
 10
56.63028739289996
 20
32.30939945929993
 30
0.0
 10
57.00827700189989
 20
32.23204513079986
 30
0.0
 10
57.36381859589994
 20
32.0821145972999
 30
0.0
 10
57.62625463619992
 20
31.92246975789994
 30
0.0
 10
57.8718749823999
 20
31.73781025319994
 30
0.0
 10
58.1431702207999
 20
31.4628510593999
 30
0.0
 10
58.39786952689991
 20
31.07589740549992
 30
0.0
 10
58.57240710179997
 20
30.64647689479989
 30
0.0
 10
58.65996527199996
 20
30.19111984149987
 30
0.0
 10
58.65727178199995
 20
29.7274080787999
 30
0.0
 10
58.57973858749994
 20
29.34844339589989
 30
0.0
 10
58.47455971649992
 20
29.05913701999992
 30
0.0
 10
58.34167246879991
 20
28.78153997669989
 30
0.0
 10
58.12555118779994
 20
28.46106528039996
 30
0.0
 10
57.85109092059991
 20
28.18900700719996
 30
0.0
 10
57.60330588449995
 20
28.00688768469996
 30
0.0
 10
57.33910989189991
 20
27.84999742879989
 30
0.0
 10
57.12432709889992
 20
27.76211957419992
 30
0.0
 10
56.97739591189992
 20
27.71827574749995
 30
0.0
1001
ACAD
1000
RTMaterial
1005
0
  0
SPLINE
  5
60ED8
330
1F
100
AcDbEntity
  8
1
100
AcDbSpline
210
0.0
220
0.0
230
1.0
 70
     8
 71
     3
 72
     8
 73
     4
 74
     0
 42
0.0000000001
 43
0.0000000001
 40
0.0
 40
0.0
 40
0.0
 40
0.0
 40
1.0
 40
1.0
 40
1.0
 40
1.0
 10
54.70935145059991
 20
29.18068020829986
 30
0.0
 10
54.7269170813999
 20
29.17822493339992
 30
0.0
 10
54.74473964519996
 20
29.17718587269991
 30
0.0
 10
54.76247126479996
 20
29.17759748579988
 30
0.0
1001
ACAD
1000
RTMaterial
1005
0
  0
SPLINE
  5
60EDB
330
1F
100
AcDbEntity
  8
1
100
AcDbSpline
210
0.0
220
0.0
230
1.0
 70
     8
 71
     3
 72
     9
 73
     5
 74
     0
 42
0.0000000001
 43
0.0000000001
 40
0.0
 40
0.0
 40
0.0
 40
0.0
 40
0.2479593616
 40
1.0
 40
1.0
 40
1.0
 40
1.0
 10
55.02850853959995
 20
36.94689674849991
 30
0.0
 10
55.12941804569994
 20
36.95669334309992
 30
0.0
 10
55.53629739959996
 20
36.99702663909989
 30
0.0
 10
55.94285298619991
 20
37.04062957109994
 30
0.0
 10
56.24838147059989
 20
37.07529917339992
 30
0.0
1001
ACAD
1000
RTMaterial
1005
0
  0
LINE
  5
60EDC
330
1F
100
AcDbEntity
  8
1
100
AcDbLine
 10
54.69621888409995
 20
36.85001331049989
 30
0.0
 11
54.70069532569993
 21
36.8523253480999
 31
0.0
1001
ACAD
1000
RTMaterial
1005
0
  0
LINE
  5
60EDD
330
1F
100
AcDbEntity
  8
1
100
AcDbLine
 10
54.70069532569993
 20
36.8523253480999
 30
0.0
 11
54.70934690439992
 21
36.85668194449988
 31
0.0
1001
ACAD
1000
RTMaterial
1005
0
  0
SPLINE
  5
60EDE
330
1F
100
AcDbEntity
  8
1
100
AcDbSpline
210
0.0
220
0.0
230
1.0
 70
     8
 71
     3
 72
     8
 73
     4
 74
     0
 42
0.0000000001
 43
0.0000000001
 40
0.0
 40
0.0
 40
0.0
 40
0.0
 40
1.0
 40
1.0
 40
1.0
 40
1.0
 10
54.70934690439992
 20
36.85668194449988
 30
0.0
 10
54.72951927929995
 20
36.86666968919991
 30
0.0
 10
54.75018650719988
 20
36.87571548679995
 30
0.0
 10
54.77121407219994
 20
36.8837480000999
 30
0.0
1001
ACAD
1000
RTMaterial
1005
0
  0
SPLINE
  5
60EDF
330
1F
100
AcDbEntity
  8
1
100
AcDbSpline
210
0.0
220
0.0
230
1.0
 70
     8
 71
     3
 72
     9
 73
     5
 74
     0
 42
0.0000000001
 43
0.0000000001
 40
0.0
 40
0.0
 40
0.0
 40
0.0
 40
0.2498748411
 40
1.0
 40
1.0
 40
1.0
 40
1.0
 10
51.54799209049992
 20
25.22506806039996
 30
0.0
 10
51.48725203449993
 20
25.30899071719995
 30
0.0
 10
51.24388887869992
 20
25.64464582199992
 30
0.0
 10
50.99940300069994
 20
25.9794871275999
 30
0.0
 10
50.81533797679992
 20
26.23016705759989
 30
0.0
1001
ACAD
1000
RTMaterial
1005
0
  0
SPLINE
  5
60EE0
330
1F
100
AcDbEntity
  8
1
100
AcDbSpline
210
0.0
220
0.0
230
1.0
 70
     8
 71
     3
 72
     8
 73
     4
 74
     0
 42
0.0000000001
 43
0.0000000001
 40
0.0
 40
0.0
 40
0.0
 40
0.0
 40
1.0
 40
1.0
 40
1.0
 40
1.0
 10
51.78711045229994
 20
24.99163406949993
 30
0.0
 10
51.76964549429993
 20
25.0035403089999
 30
0.0
 10
51.75266973609996
 20
25.01619815459992
 30
0.0
 10
51.73627825979991
 20
25.02954367079985
 30
0.0
1001
ACAD
1000
RTMaterial
1005
0
  0
SPLINE
  5
60EE1
330
1F
100
AcDbEntity
  8
1
100
AcDbSpline
210
0.0
220
0.0
230
1.0
 70
     8
 71
     3
 72
     9
 73
     5
 74
     0
 42
0.0000000001
 43
0.0000000001
 40
0.0
 40
0.0
 40
0.0
 40
0.0
 40
0.2496740753
 40
1.0
 40
1.0
 40
1.0
 40
1.0
 10
63.38404129859992
 20
28.05516359869989
 30
0.0
 10
63.34012359089996
 20
27.96144719169991
 30
0.0
 10
63.16555768109992
 20
27.58546880509988
 30
0.0
 10
62.99632321389992
 20
27.20701181409987
 30
0.0
 10
62.87256838209993
 20
26.92166221859992
 30
0.0
1001
ACAD
1000
RTMaterial
1005
0
  0
SPLINE
  5
60EE2
330
1F
100
AcDbEntity
  8
1
100
AcDbSpline
210
0.0
220
0.0
230
1.0
 70
     8
 71
     3
 72
     9
 73
     5
 74
     0
 42
0.0000000001
 43
0.0000000001
 40
0.0
 40
0.0
 40
0.0
 40
0.0
 40
0.2567257741
 40
1.0
 40
1.0
 40
1.0
 40
1.0
 10
53.22632737259993
 20
36.33302813159992
 30
0.0
 10
53.20254954019993
 20
36.32843945589991
 30
0.0
 10
53.11036415769996
 20
36.3083969002999
 30
0.0
 10
53.02002245249991
 20
36.2797856055999
 30
0.0
 10
52.95491881049992
 20
36.25376259459995
 30
0.0
1001
ACAD
1000
RTMaterial
1005
0
  0
SPLINE
  5
60EE3
330
1F
100
AcDbEntity
  8
1
100
AcDbSpline
210
0.0
220
0.0
230
1.0
 70
     8
 71
     3
 72
     9
 73
     5
 74
     0
 42
0.0000000001
 43
0.0000000001
 40
0.0
 40
0.0
 40
0.0
 40
0.0
 40
0.501675589
 40
1.0
 40
1.0
 40
1.0
 40
1.0
 10
48.57413047129989
 20
29.28248861259988
 30
0.0
 10
48.53126056899992
 20
29.34087354609994
 30
0.0
 10
48.4540760523999
 20
29.4635923722999
 30
0.0
 10
48.39630752549993
 20
29.5966207777999
 30
0.0
 10
48.37285567699996
 20
29.66464121039996
 30
0.0
1001
ACAD
1000
RTMaterial
1005
0
  0
LINE
  5
60EE4
330
1F
100
AcDbEntity
  8
1
100
AcDbLine
 10
47.6462249336999
 20
30.99087332509987
 30
0.0
 11
47.64245781409994
 21
30.9602096701999
 31
0.0
1001
ACAD
1000
RTMaterial
1005
0
  0
SPLINE
  5
60EE5
330
1F
100
AcDbEntity
  8
1
100
AcDbSpline
210
0.0
220
0.0
230
1.0
 70
     8
 71
     3
 72
     9
 73
     5
 74
     0
 42
0.0000000001
 43
0.0000000001
 40
0.0
 40
0.0
 40
0.0
 40
0.0
 40
0.2493217228
 40
1.0
 40
1.0
 40
1.0
 40
1.0
 10
47.69825798469992
 20
31.22346492549991
 30
0.0
 10
47.6922699879999
 20
31.20456927729987
 30
0.0
 10
47.66991019649992
 20
31.1282652409999
 30
0.0
 10
47.65418734199994
 20
31.05002071439987
 30
0.0
 10
47.64622477319995
 20
30.99087333999995
 30
0.0
1001
ACAD
1000
RTMaterial
1005
0
  0
SPLINE
  5
60EE6
330
1F
100
AcDbEntity
  8
1
100
AcDbSpline
210
0.0
220
0.0
230
1.0
 70
     8
 71
     3
 72
     9
 73
     5
 74
     0
 42
0.0000000001
 43
0.0000000001
 40
0.0
 40
0.0
 40
0.0
 40
0.0
 40
0.2491536927
 40
1.0
 40
1.0
 40
1.0
 40
1.0
 10
47.7303070664999
 20
31.31443812889995
 30
0.0
 10
47.72740616089993
 20
31.3069704351999
 30
0.0
 10
47.71599983419991
 20
31.27690679729989
 30
0.0
 10
47.70554953099991
 20
31.24648031579989
 30
0.0
 10
47.69825614919989
 20
31.22346540889993
 30
0.0
1001
ACAD
1000
RTMaterial
1005
0
  0
SPLINE
  5
60EE7
330
1F
100
AcDbEntity
  8
1
100
AcDbSpline
210
0.0
220
0.0
230
1.0
 70
     8
 71
     3
 72
    11
 73
     7
 74
     0
 42
0.0000000001
 43
0.0000000001
 40
0.0
 40
0.0
 40
0.0
 40
0.0
 40
0.2482991202
 40
0.4971764117000001
 40
0.7476319500000001
 40
1.0
 40
1.0
 40
1.0
 40
1.0
 10
47.64050718129988
 20
30.92976580599992
 30
0.0
 10
47.63630294569992
 20
30.84999067709992
 30
0.0
 10
47.64135545219988
 20
30.68921380439986
 30
0.0
 10
47.68997944429992
 20
30.45244609709994
 30
0.0
 10
47.77954739069992
 20
30.2265253784999
 30
0.0
 10
47.86445032339992
 20
30.08774299179993
 30
0.0
 10
47.91250562349989
 20
30.02229601549988
 30
0.0
1001
ACAD
1000
RTMaterial
1005
0
  0
LINE
  5
60EE8
330
1F
100
AcDbEntity
  8
1
100
AcDbLine
 10
47.64245781409994
 20
30.9602096701999
 30
0.0
 11
47.64050718129988
 21
30.92976580599992
 31
0.0
1001
ACAD
1000
RTMaterial
1005
0
  0
SPLINE
  5
60EE9
330
1F
100
AcDbEntity
  8
1
100
AcDbSpline
210
0.0
220
0.0
230
1.0
 70
     8
 71
     3
 72
     9
 73
     5
 74
     0
 42
0.0000000001
 43
0.0000000001
 40
0.0
 40
0.0
 40
0.0
 40
0.0
 40
0.4973933731000001
 40
1.0
 40
1.0
 40
1.0
 40
1.0
 10
60.71710645109994
 20
22.72331132199992
 30
0.0
 10
60.63205807049991
 20
22.68254475039993
 30
0.0
 10
60.4519581502999
 20
22.61836541849993
 30
0.0
 10
60.26241613839994
 20
22.5933582415999
 30
0.0
 10
60.16715117359996
 20
22.59068118469997
 30
0.0
1001
ACAD
1000
RTMaterial
1005
0
  0
SPLINE
  5
60EEA
330
1F
100
AcDbEntity
  8
1
100
AcDbSpline
210
0.0
220
0.0
230
1.0
 70
     8
 71
     3
 72
     9
 73
     5
 74
     0
 42
0.0000000001
 43
0.0000000001
 40
0.0
 40
0.0
 40
0.0
 40
0.0
 40
0.2490451083
 40
1.0
 40
1.0
 40
1.0
 40
1.0
 10
60.9584460275999
 20
22.88550990489989
 30
0.0
 10
60.94383643409992
 20
22.87301201619988
 30
0.0
 10
60.88405202189995
 20
22.82415408029994
 30
0.0
 10
60.81989695559991
 20
22.78065474309989
 30
0.0
 10
60.76987463949996
 20
22.75135275899987
 30
0.0
1001
ACAD
1000
RTMaterial
1005
0
  0
SPLINE
  5
60EEB
330
1F
100
AcDbEntity
  8
1
100
AcDbSpline
210
0.0
220
0.0
230
1.0
 70
     8
 71
     3
 72
     9
 73
     5
 74
     0
 42
0.0000000001
 43
0.0000000001
 40
0.0
 40
0.0
 40
0.0
 40
0.0
 40
0.5012706207000001
 40
1.0
 40
1.0
 40
1.0
 40
1.0
 10
61.36426486189993
 20
23.44386752169993
 30
0.0
 10
61.31807793389993
 20
23.33737130729992
 30
0.0
 10
61.20380292399989
 20
23.13370245049987
 30
0.0
 10
61.04620827189989
 20
22.96058427169993
 30
0.0
 10
60.95844717829994
 20
22.88550837439988
 30
0.0
1001
ACAD
1000
RTMaterial
1005
0
  0
SPLINE
  5
60EEC
330
1F
100
AcDbEntity
  8
1
100
AcDbSpline
210
0.0
220
0.0
230
1.0
 70
     8
 71
     3
 72
     9
 73
     5
 74
     0
 42
0.0000000001
 43
0.0000000001
 40
0.0
 40
0.0
 40
0.0
 40
0.0
 40
0.4987360353
 40
1.0
 40
1.0
 40
1.0
 40
1.0
 10
60.96780067919991
 20
37.28257197679994
 30
0.0
 10
61.10100722699996
 20
37.19105955859993
 30
0.0
 10
61.33939949719991
 20
36.96135762849991
 30
0.0
 10
61.48616411109992
 20
36.66436248729991
 30
0.0
 10
61.53271046769993
 20
36.5087431213999
 30
0.0
1001
ACAD
1000
RTMaterial
1005
0
  0
SPLINE
  5
60EED
330
1F
100
AcDbEntity
  8
1
100
AcDbSpline
210
0.0
220
0.0
230
1.0
 70
     8
 71
     3
 72
     9
 73
     5
 74
     0
 42
0.0000000001
 43
0.0000000001
 40
0.0
 40
0.0
 40
0.0
 40
0.0
 40
0.2492241108
 40
1.0
 40
1.0
 40
1.0
 40
1.0
 10
60.69643344129992
 20
37.4180153248999
 30
0.0
 10
60.71527568589994
 20
37.41109286549988
 30
0.0
 10
60.79027415009995
 20
37.38169497259986
 30
0.0
 10
60.86275393749992
 20
37.34588411089987
 30
0.0
 10
60.9151648173999
 20
37.31572080319995
 30
0.0
1001
ACAD
1000
RTMaterial
1005
0
  0
SPLINE
  5
60EEE
330
1F
100
AcDbEntity
  8
1
100
AcDbSpline
210
0.0
220
0.0
230
1.0
 70
     8
 71
     3
 72
     9
 73
     5
 74
     0
 42
0.0000000001
 43
0.0000000001
 40
0.0
 40
0.0
 40
0.0
 40
0.0
 40
0.4950561726
 40
1.0
 40
1.0
 40
1.0
 40
1.0
 10
59.99789239619992
 20
37.50077227439988
 30
0.0
 10
60.11401482429994
 20
37.5139491743999
 30
0.0
 10
60.35236368609992
 20
37.51412783979987
 30
0.0
 10
60.58454456879991
 20
37.45912427029992
 30
0.0
 10
60.69643414749993
 20
37.41801711339991
 30
0.0
1001
ACAD
1000
RTMaterial
1005
0
  0
SPLINE
  5
60EEF
330
1F
100
AcDbEntity
  8
1
100
AcDbSpline
210
0.0
220
0.0
230
1.0
 70
     8
 71
     3
 72
     9
 73
     5
 74
     0
 42
0.0000000001
 43
0.0000000001
 40
0.0
 40
0.0
 40
0.0
 40
0.0
 40
0.7496191467000001
 40
1.0
 40
1.0
 40
1.0
 40
1.0
 10
63.46355001009993
 20
28.31383672499993
 30
0.0
 10
63.45165067369993
 20
28.24718217669994
 30
0.0
 10
63.42725769289995
 20
28.15951083089988
 30
0.0
 10
63.39316787779989
 20
28.0758555866999
 30
0.0
 10
63.38404129859992
 20
28.05516359869989
 30
0.0
1001
ACAD
1000
RTMaterial
1005
0
  0
SPLINE
  5
60EF0
330
1F
100
AcDbEntity
  8
1
100
AcDbSpline
210
0.0
220
0.0
230
1.0
 70
     8
 71
     3
 72
     8
 73
     4
 74
     0
 42
0.0000000001
 43
0.0000000001
 40
0.0
 40
0.0
 40
0.0
 40
0.0
 40
1.0
 40
1.0
 40
1.0
 40
1.0
 10
63.47199999999992
 20
28.36993095519989
 30
0.0
 10
63.46969744869994
 20
28.35116263289996
 30
0.0
 10
63.46687315899993
 20
28.33245145969994
 30
0.0
 10
63.46355001009993
 20
28.31383672499993
 30
0.0
1001
ACAD
1000
RTMaterial
1005
0
  0
LINE
  5
60EF1
330
1F
100
AcDbEntity
  8
1
100
AcDbLine
 10
63.47384042659996
 20
28.40163691009986
 30
0.0
 11
63.47199999999992
 21
28.36993095519989
 31
0.0
1001
ACAD
1000
RTMaterial
1005
0
  0
SPLINE
  5
60EF2
330
1F
100
AcDbEntity
  8
1
100
AcDbSpline
210
0.0
220
0.0
230
1.0
 70
     8
 71
     3
 72
     9
 73
     5
 74
     0
 42
0.0000000001
 43
0.0000000001
 40
0.0
 40
0.0
 40
0.0
 40
0.0
 40
0.2434504122
 40
1.0
 40
1.0
 40
1.0
 40
1.0
 10
63.50058650459994
 20
29.70869782379992
 30
0.0
 10
63.50229583499992
 20
29.60260812129991
 30
0.0
 10
63.5054756854999
 20
29.16677915929995
 30
0.0
 10
63.49255661029991
 20
28.73083380799989
 30
0.0
 10
63.47384150749991
 20
28.40163686799991
 30
0.0
1001
ACAD
1000
RTMaterial
1005
0
  0
LINE
  5
60EF3
330
1F
100
AcDbEntity
  8
1
100
AcDbLine
 10
63.49999999999994
 20
29.74188473969997
 30
0.0
 11
63.50058541799995
 21
29.70869779229992
 31
0.0
1001
ACAD
1000
RTMaterial
1005
0
  0
SPLINE
  5
60EF4
330
1F
100
AcDbEntity
  8
1
100
AcDbSpline
210
0.0
220
0.0
230
1.0
 70
     8
 71
     3
 72
     9
 73
     5
 74
     0
 42
0.0000000001
 43
0.0000000001
 40
0.0
 40
0.0
 40
0.0
 40
0.0
 40
0.2584941647
 40
1.0
 40
1.0
 40
1.0
 40
1.0
 10
63.43637431879989
 20
30.14418729429991
 30
0.0
 10
63.44644869079991
 20
30.11050544279993
 30
0.0
 10
63.48104092609992
 20
29.9789403170999
 30
0.0
 10
63.49806803979993
 20
29.8427139509999
 30
0.0
 10
63.5000004687999
 20
29.74188475419993
 30
0.0
1001
ACAD
1000
RTMaterial
1005
0
  0
SPLINE
  5
60EF5
330
1F
100
AcDbEntity
  8
1
100
AcDbSpline
210
0.0
220
0.0
230
1.0
 70
     8
 71
     3
 72
     9
 73
     5
 74
     0
 42
0.0000000001
 43
0.0000000001
 40
0.0
 40
0.0
 40
0.0
 40
0.0
 40
0.2463724036
 40
1.0
 40
1.0
 40
1.0
 40
1.0
 10
52.92457528839992
 20
36.24159075409989
 30
0.0
 10
52.89770421909992
 20
36.23077240359993
 30
0.0
 10
52.78874376279993
 20
36.18659810689991
 30
0.0
 10
52.68023285309993
 20
36.14131380699991
 30
0.0
 10
52.59873706999991
 20
36.10653330979989
 30
0.0
1001
ACAD
1000
RTMaterial
1005
0
  0
LINE
  5
60EF6
330
1F
100
AcDbEntity
  8
1
100
AcDbLine
 10
52.95491898159991
 20
36.25376215529991
 30
0.0
 11
52.92457568789996
 21
36.24158973389996
 31
0.0
1001
ACAD
1000
RTMaterial
1005
0
  0
SPLINE
  5
60EF7
330
1F
100
AcDbEntity
  8
1
100
AcDbSpline
210
0.0
220
0.0
230
1.0
 70
     8
 71
     3
 72
     9
 73
     5
 74
     0
 42
0.0000000001
 43
0.0000000001
 40
0.0
 40
0.0
 40
0.0
 40
0.0
 40
0.2504623937
 40
1.0
 40
1.0
 40
1.0
 40
1.0
 10
54.77121399869992
 20
36.88374818889992
 30
0.0
 10
54.79190550989989
 20
36.89165233039995
 30
0.0
 10
54.87552444309989
 20
36.92053405519988
 30
0.0
 10
54.9627039268999
 20
36.93892376449992
 30
0.0
 10
55.02850853959995
 20
36.94689674849991
 30
0.0
1001
ACAD
1000
RTMaterial
1005
0
  0
SPLINE
  5
60EF8
330
1F
100
AcDbEntity
  8
1
100
AcDbSpline
210
0.0
220
0.0
230
1.0
 70
     8
 71
     3
 72
     9
 73
     5
 74
     0
 42
0.0000000001
 43
0.0000000001
 40
0.0
 40
0.0
 40
0.0
 40
0.0
 40
0.2578430942
 40
1.0
 40
1.0
 40
1.0
 40
1.0
 10
51.83845683899988
 20
24.67550442179993
 30
0.0
 10
51.85924828549992
 20
24.64718835129992
 30
0.0
 10
51.94353830459994
 20
24.54010233469996
 30
0.0
 10
52.04208941629992
 20
24.44422101129993
 30
0.0
 10
52.12142139669992
 20
24.3815269939999
 30
0.0
1001
ACAD
1000
RTMaterial
1005
0
  0
SPLINE
  5
60EF9
330
1F
100
AcDbEntity
  8
1
100
AcDbSpline
210
0.0
220
0.0
230
1.0
 70
     8
 71
     3
 72
    10
 73
     6
 74
     0
 42
0.0000000001
 43
0.0000000001
 40
0.0
 40
0.0
 40
0.0
 40
0.0
 40
0.241996601
 40
0.6212439616
 40
1.0
 40
1.0
 40
1.0
 40
1.0
 10
52.14764154529991
 20
24.36086189979989
 30
0.0
 10
52.21823684289995
 20
24.30537796149986
 30
0.0
 10
52.40049660939991
 20
24.16424661179991
 30
0.0
 10
52.69836013499991
 20
23.94295508489989
 30
0.0
 10
52.92783148259991
 20
23.78029340569992
 30
0.0
 10
53.04345642559991
 20
23.70041728359996
 30
0.0
1001
ACAD
1000
RTMaterial
1005
0
  0
LINE
  5
60EFA
330
1F
100
AcDbEntity
  8
1
100
AcDbLine
 10
52.12142168909991
 20
24.38152736289993
 30
0.0
 11
52.14764222319991
 21
24.36086275849993
 31
0.0
1001
ACAD
1000
RTMaterial
1005
0
  0
SPLINE
  5
60EFB
330
1F
100
AcDbEntity
  8
1
100
AcDbSpline
210
0.0
220
0.0
230
1.0
 70
     8
 71
     3
 72
     9
 73
     5
 74
     0
 42
0.0000000001
 43
0.0000000001
 40
0.0
 40
0.0
 40
0.0
 40
0.0
 40
0.2503103162
 40
1.0
 40
1.0
 40
1.0
 40
1.0
 10
51.73627813189995
 20
25.02954351359995
 30
0.0
 10
51.71869120999992
 20
25.0438623300999
 30
0.0
 10
51.65024611089996
 20
25.10327261789996
 30
0.0
 10
51.58909065039996
 20
25.17098873979989
 30
0.0
 10
51.54799209049992
 20
25.22506806039996
 30
0.0
1001
ACAD
1000
RTMaterial
1005
0
  0
SPLINE
  5
60EFC
330
1F
100
AcDbEntity
  8
1
100
AcDbSpline
210
0.0
220
0.0
230
1.0
 70
     8
 71
     3
 72
     8
 73
     4
 74
     0
 42
0.0000000001
 43
0.0000000001
 40
0.0
 40
0.0
 40
0.0
 40
0.0
 40
1.0
 40
1.0
 40
1.0
 40
1.0
 10
60.91516606919992
 20
37.31572288699988
 30
0.0
 10
60.93313719389993
 20
37.30538020809991
 30
0.0
 10
60.95071064329994
 20
37.29431346009989
 30
0.0
 10
60.96780117589992
 20
37.28257267539993
 30
0.0
1001
ACAD
1000
RTMaterial
1005
0
  0
SPLINE
  5
60EFD
330
1F
100
AcDbEntity
  8
1
100
AcDbSpline
210
0.0
220
0.0
230
1.0
 70
     8
 71
     3
 72
     8
 73
     4
 74
     0
 42
0.0000000001
 43
0.0000000001
 40
0.0
 40
0.0
 40
0.0
 40
0.0
 40
1.0
 40
1.0
 40
1.0
 40
1.0
 10
60.7698757752999
 20
22.75135060789995
 30
0.0
 10
60.75268869009994
 20
22.74128279389993
 30
0.0
 10
60.7350685516999
 20
22.7319205332999
 30
0.0
 10
60.71710679509994
 20
22.72331053479991
 30
0.0
1001
ACAD
1000
RTMaterial
1005
0
  0
SPLINE
  5
60EFE
330
1F
100
AcDbEntity
  8
1
100
AcDbSpline
210
0.0
220
0.0
230
1.0
 70
     8
 71
     3
 72
    11
 73
     7
 74
     0
 42
0.0000000001
 43
0.0000000001
 40
0.0
 40
0.0
 40
0.0
 40
0.0
 40
0.2476310057
 40
0.4970906347
 40
0.7482928707
 40
1.0
 40
1.0
 40
1.0
 40
1.0
 10
48.30283568389996
 20
30.22124497429997
 30
0.0
 10
48.3116296400999
 20
30.30101841039993
 30
0.0
 10
48.34276209549995
 20
30.45996528149988
 30
0.0
 10
48.4278343718999
 20
30.68818193509986
 30
0.0
 10
48.54928781659992
 20
30.90078168379989
 30
0.0
 10
48.65164705949997
 20
31.02860352329987
 30
0.0
 10
48.70739137299995
 20
31.08816441429991
 30
0.0
1001
ACAD
1000
RTMaterial
1005
0
  0
LINE
  5
60EFF
330
1F
100
AcDbEntity
  8
1
100
AcDbLine
 10
48.29980660209992
 20
30.1908657484999
 30
0.0
 11
48.30283568389996
 21
30.22124497429997
 31
0.0
1001
ACAD
1000
RTMaterial
1005
0
  0
LINE
  5
60F00
330
1F
100
AcDbEntity
  8
1
100
AcDbLine
 10
48.29850311459995
 20
30.16005443199992
 30
0.0
 11
48.29980660209992
 21
30.1908657484999
 31
0.0
1001
ACAD
1000
RTMaterial
1005
0
  0
SPLINE
  5
60F01
330
1F
100
AcDbEntity
  8
1
100
AcDbSpline
210
0.0
220
0.0
230
1.0
 70
     8
 71
     3
 72
     9
 73
     5
 74
     0
 42
0.0000000001
 43
0.0000000001
 40
0.0
 40
0.0
 40
0.0
 40
0.0
 40
0.2484673022
 40
1.0
 40
1.0
 40
1.0
 40
1.0
 10
48.31086564909992
 20
29.92360317949988
 30
0.0
 10
48.30817961619993
 20
29.94304183049991
 30
0.0
 10
48.29905462219989
 20
30.02150090299989
 30
0.0
 10
48.29662982009989
 20
30.10072975049991
 30
0.0
 10
48.29850295049993
 20
30.16005443649988
 30
0.0
1001
ACAD
1000
RTMaterial
1005
0
  0
SPLINE
  5
60F02
330
1F
100
AcDbEntity
  8
1
100
AcDbSpline
210
0.0
220
0.0
230
1.0
 70
     8
 71
     3
 72
     9
 73
     5
 74
     0
 42
0.0000000001
 43
0.0000000001
 40
0.0
 40
0.0
 40
0.0
 40
0.0
 40
0.2304774491
 40
1.0
 40
1.0
 40
1.0
 40
1.0
 10
48.19711073079992
 20
30.42952332809989
 30
0.0
 10
48.19497854209993
 20
30.43447837639991
 30
0.0
 10
48.1847098936999
 20
30.45554146139995
 30
0.0
 10
48.17082357139992
 20
30.47469713049987
 30
0.0
 10
48.15912382729994
 20
30.48839020669993
 30
0.0
1001
ACAD
1000
RTMaterial
1005
0
  0
SPLINE
  5
60F03
330
1F
100
AcDbEntity
  8
1
100
AcDbSpline
210
0.0
220
0.0
230
1.0
 70
     8
 71
     3
 72
     9
 73
     5
 74
     0
 42
0.0000000001
 43
0.0000000001
 40
0.0
 40
0.0
 40
0.0
 40
0.0
 40
0.2714774794
 40
1.0
 40
1.0
 40
1.0
 40
1.0
 10
47.95852006529992
 20
30.7087636364999
 30
0.0
 10
47.96475475959994
 20
30.70380357199991
 30
0.0
 10
47.98737015879993
 20
30.68511191309989
 30
0.0
 10
48.00856869039995
 20
30.66459602249995
 30
0.0
 10
48.02245709429996
 20
30.64834139579989
 30
0.0
1001
ACAD
1000
RTMaterial
1005
0
  0
SPLINE
  5
60F04
330
1F
100
AcDbEntity
  8
1
100
AcDbSpline
210
0.0
220
0.0
230
1.0
 70
     8
 71
     3
 72
     9
 73
     5
 74
     0
 42
0.0000000001
 43
0.0000000001
 40
0.0
 40
0.0
 40
0.0
 40
0.0
 40
0.248159661
 40
1.0
 40
1.0
 40
1.0
 40
1.0
 10
60.16715117359996
 20
22.59068118469997
 30
0.0
 10
60.13563663859992
 20
22.5897955893999
 30
0.0
 10
60.00854980659994
 20
22.59050099879988
 30
0.0
 10
59.88163570579991
 20
22.60819596739992
 30
0.0
 10
59.78869359489994
 20
22.63022087189989
 30
0.0
1001
ACAD
1000
RTMaterial
1005
0
  0
SPLINE
  5
60F05
330
1F
100
AcDbEntity
  8
1
100
AcDbSpline
210
0.0
220
0.0
230
1.0
 70
     8
 71
     3
 72
     9
 73
     5
 74
     0
 42
0.0000000001
 43
0.0000000001
 40
0.0
 40
0.0
 40
0.0
 40
0.0
 40
0.2485144324
 40
1.0
 40
1.0
 40
1.0
 40
1.0
 10
48.37285567699996
 20
29.66464121039996
 30
0.0
 10
48.36565956029994
 20
29.68551303949988
 30
0.0
 10
48.33869749409996
 20
29.77017329869989
 30
0.0
 10
48.32000185679993
 20
29.85747079949988
 30
0.0
 10
48.31086372089993
 20
29.92360292159992
 30
0.0
1001
ACAD
1000
RTMaterial
1005
0
  0
SPLINE
  5
60F06
330
1F
100
AcDbEntity
  8
1
100
AcDbSpline
210
0.0
220
0.0
230
1.0
 70
     8
 71
     3
 72
     9
 73
     5
 74
     0
 42
0.0000000001
 43
0.0000000001
 40
0.0
 40
0.0
 40
0.0
 40
0.0
 40
0.2594039192
 40
1.0
 40
1.0
 40
1.0
 40
1.0
 10
53.23723186859997
 20
35.92814467329987
 30
0.0
 10
53.26118534869994
 20
35.9537381461999
 30
0.0
 10
53.35664349539996
 20
36.04942843349994
 30
0.0
 10
53.46415774129991
 20
36.13315079969993
 30
0.0
 10
53.5488413066999
 20
36.18648536669991
 30
0.0
1001
ACAD
1000
RTMaterial
1005
0
  0
SPLINE
  5
60F07
330
1F
100
AcDbEntity
  8
1
100
AcDbSpline
210
0.0
220
0.0
230
1.0
 70
     8
 71
     3
 72
     9
 73
     5
 74
     0
 42
0.0000000001
 43
0.0000000001
 40
0.0
 40
0.0
 40
0.0
 40
0.0
 40
0.2436363991
 40
1.0
 40
1.0
 40
1.0
 40
1.0
 10
53.57656657529992
 20
36.20391712839989
 30
0.0
 10
53.66517849749993
 20
36.25953016709991
 30
0.0
 10
54.03090718399989
 20
36.48455305249996
 30
0.0
 10
54.40503022939992
 20
36.69593306799987
 30
0.0
 10
54.69209441639993
 20
36.84784915759986
 30
0.0
1001
ACAD
1000
RTMaterial
1005
0
  0
LINE
  5
60F08
330
1F
100
AcDbEntity
  8
1
100
AcDbLine
 10
53.54884157179992
 20
36.18648493649988
 30
0.0
 11
53.57656714839993
 21
36.20391619479989
 31
0.0
1001
ACAD
1000
RTMaterial
1005
0
  0
SPLINE
  5
60F09
330
1F
100
AcDbEntity
  8
1
100
AcDbSpline
210
0.0
220
0.0
230
1.0
 70
     8
 71
     3
 72
     9
 73
     5
 74
     0
 42
0.0000000001
 43
0.0000000001
 40
0.0
 40
0.0
 40
0.0
 40
0.0
 40
0.2435088423
 40
1.0
 40
1.0
 40
1.0
 40
1.0
 10
52.94436609569993
 20
24.3145134552999
 30
0.0
 10
52.85026151059992
 20
24.36497218379992
 30
0.0
 10
52.4656240541999
 20
24.57555476819994
 30
0.0
 10
52.08868685929991
 20
24.80020088599991
 30
0.0
 10
51.80840824269996
 20
24.97763748739993
 30
0.0
1001
ACAD
1000
RTMaterial
1005
0
  0
LINE
  5
60F0A
330
1F
100
AcDbEntity
  8
1
100
AcDbLine
 10
52.97380762729995
 20
24.29875873129993
 30
0.0
 11
52.94436661429995
 21
24.3145144204999
 31
0.0
1001
ACAD
1000
RTMaterial
1005
0
  0
SPLINE
  5
60F0B
330
1F
100
AcDbEntity
  8
1
100
AcDbSpline
210
0.0
220
0.0
230
1.0
 70
     8
 71
     3
 72
     9
 73
     5
 74
     0
 42
0.0000000001
 43
0.0000000001
 40
0.0
 40
0.0
 40
0.0
 40
0.0
 40
0.2574460055999999
 40
1.0
 40
1.0
 40
1.0
 40
1.0
 10
53.35518922359995
 20
24.15479646339992
 30
0.0
 10
53.32109568349995
 20
24.16287576129992
 30
0.0
 10
53.18972424519995
 20
24.19857279449991
 30
0.0
 10
53.06294843289993
 20
24.25114582579988
 30
0.0
 10
52.97380740499995
 20
24.29875831559991
 30
0.0
1001
ACAD
1000
RTMaterial
1005
0
  0
SPLINE
  5
60F0C
330
1F
100
AcDbEntity
  8
1
100
AcDbSpline
210
0.0
220
0.0
230
1.0
 70
     8
 71
     3
 72
     8
 73
     4
 74
     0
 42
0.0000000001
 43
0.0000000001
 40
0.0
 40
0.0
 40
0.0
 40
0.0
 40
1.0
 40
1.0
 40
1.0
 40
1.0
 10
51.80840893849989
 20
24.97763858649989
 30
0.0
 10
51.8012312768999
 20
24.98218256449991
 30
0.0
 10
51.79412964369993
 20
24.98684893479987
 30
0.0
 10
51.78711045229994
 20
24.99163406949993
 30
0.0
1001
ACAD
1000
RTMaterial
1005
0
  0
SPLINE
  5
60F0D
330
1F
100
AcDbEntity
  8
1
100
AcDbSpline
210
0.0
220
0.0
230
1.0
 70
     8
 71
     3
 72
     9
 73
     5
 74
     0
 42
0.0000000001
 43
0.0000000001
 40
0.0
 40
0.0
 40
0.0
 40
0.0
 40
0.4716743621
 40
1.0
 40
1.0
 40
1.0
 40
1.0
 10
60.34743411329992
 20
20.82975725679995
 30
0.0
 10
60.58074145979992
 20
20.72648658519989
 30
0.0
 10
61.07947563919992
 20
20.51680708639992
 30
0.0
 10
61.58265715039994
 20
20.31822386519991
 30
0.0
 10
61.84924271789992
 20
20.21524053289994
 30
0.0
1001
ACAD
1000
RTMaterial
1005
0
  0
SPLINE
  5
60F0E
330
1F
100
AcDbEntity
  8
1
100
AcDbSpline
210
0.0
220
0.0
230
1.0
 70
     8
 71
     3
 72
    20
 73
    16
 74
     0
 42
0.0000000001
 43
0.0000000001
 40
0.0
 40
0.0
 40
0.0
 40
0.0
 40
0.2275639225
 40
0.4259900405
 40
0.5949211370000001
 40
0.7342292968999999
 40
0.7927674015
 40
0.8438955535999999
 40
0.8876236184999999
 40
0.9239763282
 40
0.9530150387999999
 40
0.9748940109000001
 40
0.9832756243
 40
0.9900891015
 40
1.0
 40
1.0
 40
1.0
 40
1.0
 10
51.8957137198999
 20
36.39530954079987
 30
0.0
 10
51.83535427429996
 20
36.40172462729987
 30
0.0
 10
51.72247019679992
 20
36.41477072969997
 30
0.0
 10
51.56523099959992
 20
36.43624929909987
 30
0.0
 10
51.43177889029994
 20
36.45765412529994
 30
0.0
 10
51.33562891549991
 20
36.47583389679994
 30
0.0
 10
51.27077519659991
 20
36.49015045949989
 30
0.0
 10
51.2310405543999
 20
36.49993251719997
 30
0.0
 10
51.19732602189992
 20
36.5093470176999
 30
0.0
 10
51.1696271575999
 20
36.51833301359995
 30
0.0
 10
51.14795698069992
 20
36.52687759809993
 30
0.0
 10
51.13379623739991
 20
36.5340229073999
 30
0.0
 10
51.12570458499994
 20
36.53980232459992
 30
0.0
 10
51.12086293019996
 20
36.54434293819992
 30
0.0
 10
51.11849105219988
 20
36.54864503999994
 30
0.0
 10
51.11848798629989
 20
36.55128862729987
 30
0.0
1001
ACAD
1000
RTMaterial
1005
0
  0
SPLINE
  5
60F0F
330
1F
100
AcDbEntity
  8
1
100
AcDbSpline
210
0.0
220
0.0
230
1.0
 70
     8
 71
     3
 72
    11
 73
     7
 74
     0
 42
0.0000000001
 43
0.0000000001
 40
0.0
 40
0.0
 40
0.0
 40
0.0
 40
0.2886263549
 40
0.552053299
 40
0.7889222554000001
 40
1.0
 40
1.0
 40
1.0
 40
1.0
 10
32.5523626879999
 20
27.2034433584999
 30
0.0
 10
32.4085123834999
 20
27.24041986239991
 30
0.0
 10
32.13714934779995
 20
27.32755321879989
 30
0.0
 10
31.77012640599992
 20
27.50461630959995
 30
0.0
 10
31.46930029599992
 20
27.71634276529994
 30
0.0
 10
31.30988605009992
 20
27.88628914889995
 30
0.0
 10
31.24706319219991
 20
27.9748987033999
 30
0.0
1001
ACAD
1000
RTMaterial
1005
0
  0
SPLINE
  5
60F10
330
1F
100
AcDbEntity
  8
1
100
AcDbSpline
210
0.0
220
0.0
230
1.0
 70
     8
 71
     3
 72
    14
 73
    10
 74
     0
 42
0.0000000001
 43
0.0000000001
 40
0.0
 40
0.0
 40
0.0
 40
0.0
 40
0.1088133113
 40
0.2198984091
 40
0.4550178417000001
 40
0.5815646322
 40
0.7146753709999999
 40
0.8542909037000001
 40
1.0
 40
1.0
 40
1.0
 40
1.0
 10
52.52711661829994
 20
22.58381450499996
 30
0.0
 10
52.46898577379988
 20
22.53531671429994
 30
0.0
 10
52.34480837959996
 20
22.44505739139993
 30
0.0
 10
52.06649423369992
 20
22.29271973969998
 30
0.0
 10
51.75197604609997
 20
22.1875832895999
 30
0.0
 10
51.4144508332999
 20
22.11954737839989
 30
0.0
 10
51.13883536909992
 20
22.08315716129988
 30
0.0
 10
50.84851403829993
 20
22.06048074509988
 30
0.0
 10
50.65009090009993
 20
22.05310717599991
 30
0.0
 10
50.54874127239992
 20
22.05086315049988
 30
0.0
1001
ACAD
1000
RTMaterial
1005
0
  0
SPLINE
  5
60F11
330
1F
100
AcDbEntity
  8
1
100
AcDbSpline
210
0.0
220
0.0
230
1.0
 70
     8
 71
     3
 72
     9
 73
     5
 74
     0
 42
0.0000000001
 43
0.0000000001
 40
0.0
 40
0.0
 40
0.0
 40
0.0
 40
0.2664226918
 40
1.0
 40
1.0
 40
1.0
 40
1.0
 10
59.58584119749992
 20
22.28959755069991
 30
0.0
 10
59.58317973809989
 20
22.27997016029991
 30
0.0
 10
59.57342015439991
 20
22.24377212259986
 30
0.0
 10
59.56446646909995
 20
22.20734980129993
 30
0.0
 10
59.5586099489999
 20
22.18047793059992
 30
0.0
1001
ACAD
1000
RTMaterial
1005
0
  0
SPLINE
  5
60F12
330
1F
100
AcDbEntity
  8
1
100
AcDbSpline
210
0.0
220
0.0
230
1.0
 70
     8
 71
     3
 72
     8
 73
     4
 74
     0
 42
0.0000000001
 43
0.0000000001
 40
0.0
 40
0.0
 40
0.0
 40
0.0
 40
1.0
 40
1.0
 40
1.0
 40
1.0
 10
59.62985034869991
 20
22.44571181809994
 30
0.0
 10
59.61491729009992
 20
22.39374868609997
 30
0.0
 10
59.60024729559989
 20
22.34170923509987
 30
0.0
 10
59.58584119749992
 20
22.28959755069991
 30
0.0
1001
ACAD
1000
RTMaterial
1005
0
  0
LINE
  5
60F13
330
1F
100
AcDbEntity
  8
1
100
AcDbLine
 10
60.31490310519996
 20
20.84424405119989
 30
0.0
 11
60.34743411329992
 21
20.82975725679995
 31
0.0
1001
ACAD
1000
RTMaterial
1005
0
  0
SPLINE
  5
60F14
330
1F
100
AcDbEntity
  8
1
100
AcDbSpline
210
0.0
220
0.0
230
1.0
 70
     8
 71
     3
 72
    14
 73
    10
 74
     0
 42
0.0000000001
 43
0.0000000001
 40
0.0
 40
0.0
 40
0.0
 40
0.0
 40
0.3339700877
 40
0.4806075832000001
 40
0.6130880699
 40
0.7311651224000001
 40
0.8347500156
 40
0.9241069011
 40
1.0
 40
1.0
 40
1.0
 40
1.0
 10
59.91346793729992
 20
22.09698921579985
 30
0.0
 10
59.89120643019993
 20
21.96756549429995
 30
0.0
 10
59.86401577299995
 20
21.78036279269992
 30
0.0
 10
59.84276558319994
 20
21.54017012799989
 30
0.0
 10
59.83566021719991
 20
21.38408678979988
 30
0.0
 10
59.83656312969992
 20
21.2447591680999
 30
0.0
 10
59.8454961189999
 20
21.12265824889994
 30
0.0
 10
59.86249449069993
 20
21.01817304639991
 30
0.0
 10
59.88073263419995
 20
20.9554964754999
 30
0.0
 10
59.89174988959991
 20
20.92776176939986
 30
0.0
1001
ACAD
1000
RTMaterial
1005
0
  0
LINE
  5
60F15
330
1F
100
AcDbEntity
  8
1
100
AcDbLine
 10
51.23625621079992
 20
24.50876110949991
 30
0.0
 11
51.23493412689993
 21
24.51184195639991
 31
0.0
1001
ACAD
1000
RTMaterial
1005
0
  0
SPLINE
  5
60F16
330
1F
100
AcDbEntity
  8
1
100
AcDbSpline
210
0.0
220
0.0
230
1.0
 70
     8
 71
     3
 72
     9
 73
     5
 74
     0
 42
0.0000000001
 43
0.0000000001
 40
0.0
 40
0.0
 40
0.0
 40
0.0
 40
0.2298992151
 40
1.0
 40
1.0
 40
1.0
 40
1.0
 10
53.10774400199995
 20
23.68655454999993
 30
0.0
 10
53.12481134769996
 20
23.69150186839988
 30
0.0
 10
53.19849028899989
 20
23.71489546989989
 30
0.0
 10
53.2697673186999
 20
23.74594509769992
 30
0.0
 10
53.3222744855999
 20
23.77398368399986
 30
0.0
1001
ACAD
1000
RTMaterial
1005
0
  0
SPLINE
  5
60F17
330
1F
100
AcDbEntity
  8
1
100
AcDbSpline
210
0.0
220
0.0
230
1.0
 70
     8
 71
     3
 72
    11
 73
     7
 74
     0
 42
0.0000000001
 43
0.0000000001
 40
0.0
 40
0.0
 40
0.0
 40
0.0
 40
0.27049286
 40
0.5192781208000001
 40
0.7574427354000001
 40
1.0
 40
1.0
 40
1.0
 40
1.0
 10
51.46618079699994
 20
24.38926902849994
 30
0.0
 10
51.43645157049991
 20
24.42976353229989
 30
0.0
 10
51.38268490899992
 20
24.51014500849993
 30
0.0
 10
51.32357734839996
 20
24.63875154699991
 30
0.0
 10
51.29551932419992
 20
24.77265064859995
 30
0.0
 10
51.30033070339994
 20
24.8629536284999
 30
0.0
 10
51.30807861909994
 20
24.90732990959993
 30
0.0
1001
ACAD
1000
RTMaterial
1005
0
  0
SPLINE
  5
60F18
330
1F
100
AcDbEntity
  8
1
100
AcDbSpline
210
0.0
220
0.0
230
1.0
 70
     8
 71
     3
 72
    11
 73
     7
 74
     0
 42
0.0000000001
 43
0.0000000001
 40
0.0
 40
0.0
 40
0.0
 40
0.0
 40
0.2753674707
 40
0.5401053273
 40
0.7867640114
 40
1.0
 40
1.0
 40
1.0
 40
1.0
 10
51.32950977699994
 20
24.3403477830999
 30
0.0
 10
51.31515909809991
 20
24.38882931469994
 30
0.0
 10
51.29220674929996
 20
24.48555507809994
 30
0.0
 10
51.27457580609996
 20
24.62922181269988
 30
0.0
 10
51.27276195849993
 20
24.76250302329987
 30
0.0
 10
51.28055030549996
 20
24.84678869759989
 30
0.0
 10
51.28658686529991
 20
24.88547329819994
 30
0.0
1001
ACAD
1000
RTMaterial
1005
0
  0
SPLINE
  5
60F19
330
1F
100
AcDbEntity
  8
1
100
AcDbSpline
210
0.0
220
0.0
230
1.0
 70
     8
 71
     3
 72
    19
 73
    15
 74
     0
 42
0.0000000001
 43
0.0000000001
 40
0.0
 40
0.0
 40
0.0
 40
0.0
 40
0.1248459912
 40
0.2496877345
 40
0.3745213139
 40
0.4993460089
 40
0.5619275142
 40
0.6245083015999999
 40
0.6870895452
 40
0.7496704812
 40
0.8122521026999999
 40
0.8748341731999998
 40
0.9374163588
 40
1.0
 40
1.0
 40
1.0
 40
1.0
 10
47.59936055539992
 20
29.53760445559993
 30
0.0
 10
47.52001895429993
 20
29.63046381679993
 30
0.0
 10
47.38736519409991
 20
29.84030908589989
 30
0.0
 10
47.28640634279992
 20
30.19764035369991
 30
0.0
 10
47.29159140999991
 20
30.56915093939989
 30
0.0
 10
47.38559452869992
 20
30.86487100869988
 30
0.0
 10
47.5095068464999
 20
31.07658689509987
 30
0.0
 10
47.62509833479993
 20
31.22023104229987
 30
0.0
 10
47.76067992889994
 20
31.3451362301999
 30
0.0
 10
47.91331831909992
 20
31.44851719639991
 30
0.0
 10
48.07955717809988
 20
31.52820047809991
 30
0.0
 10
48.25578172049995
 20
31.58234882479991
 30
0.0
 10
48.43800306219993
 20
31.61003807829985
 30
0.0
 10
48.56097542539993
 20
31.61041439789995
 30
0.0
 10
48.62205336599993
 20
31.60614904789992
 30
0.0
1001
ACAD
1000
RTMaterial
1005
0
  0
SPLINE
  5
60F1A
330
1F
100
AcDbEntity
  8
1
100
AcDbSpline
210
0.0
220
0.0
230
1.0
 70
     8
 71
     3
 72
     9
 73
     5
 74
     0
 42
0.0000000001
 43
0.0000000001
 40
0.0
 40
0.0
 40
0.0
 40
0.0
 40
0.4608549329000001
 40
1.0
 40
1.0
 40
1.0
 40
1.0
 10
51.8675519316999
 20
36.59999998419994
 30
0.0
 10
52.0259053622999
 20
36.5999999844999
 30
0.0
 10
52.36951062929995
 20
36.59818032789997
 30
0.0
 10
52.71311429129991
 20
36.5965264448999
 30
0.0
 10
52.89836821509993
 20
36.59604664199992
 30
0.0
1001
ACAD
1000
RTMaterial
1005
0
  0
SPLINE
  5
60F1B
330
1F
100
AcDbEntity
  8
1
100
AcDbSpline
210
0.0
220
0.0
230
1.0
 70
     8
 71
     3
 72
     9
 73
     5
 74
     0
 42
0.0000000001
 43
0.0000000001
 40
0.0
 40
0.0
 40
0.0
 40
0.0
 40
0.4899391619
 40
1.0
 40
1.0
 40
1.0
 40
1.0
 10
32.5523626879999
 20
27.2034433584999
 30
0.0
 10
32.77770334529993
 20
26.87840337709991
 30
0.0
 10
33.28603199839995
 20
26.2473466662999
 30
0.0
 10
33.87964977999991
 20
25.6955697283999
 30
0.0
 10
34.20042861099995
 20
25.4374162330999
 30
0.0
1001
ACAD
1000
RTMaterial
1005
0
  0
SPLINE
  5
60F1C
330
1F
100
AcDbEntity
  8
1
100
AcDbSpline
210
0.0
220
0.0
230
1.0
 70
     8
 71
     3
 72
    11
 73
     7
 74
     0
 42
0.0000000001
 43
0.0000000001
 40
0.0
 40
0.0
 40
0.0
 40
0.0
 40
0.2456792137
 40
0.4941324348
 40
0.7456487130000001
 40
1.0
 40
1.0
 40
1.0
 40
1.0
 10
34.20042861099995
 20
25.4374162330999
 30
0.0
 10
34.70236399749996
 20
25.03347319849991
 30
0.0
 10
35.77490234019996
 20
24.29605505099994
 30
0.0
 10
37.54021552599994
 20
23.43858787139993
 30
0.0
 10
39.43571667669994
 20
22.84792592339988
 30
0.0
 10
40.75301961589992
 20
22.64686582269991
 30
0.0
 10
41.41810192659995
 20
22.59590325049988
 30
0.0
1001
ACAD
1000
RTMaterial
1005
0
  0
SPLINE
  5
60F1D
330
1F
100
AcDbEntity
  8
1
100
AcDbSpline
210
0.0
220
0.0
230
1.0
 70
     8
 71
     3
 72
    20
 73
    16
 74
     0
 42
0.0000000001
 43
0.0000000001
 40
0.0
 40
0.0
 40
0.0
 40
0.0
 40
0.1908649793
 40
0.3585235883
 40
0.4314276763000001
 40
0.4960447790999999
 40
0.5521680267
 40
0.6004537648000001
 40
0.6428149149
 40
0.6824582357
 40
0.7230498445000001
 40
0.7674357875
 40
0.8171269448
 40
0.8725936212999998
 40
1.0
 40
1.0
 40
1.0
 40
1.0
 10
47.47246200089995
 20
22.2336451679999
 30
0.0
 10
47.42344229379989
 20
22.24257645929993
 30
0.0
 10
47.33172000139996
 20
22.26135786399987
 30
0.0
 10
47.22306618169989
 20
22.29187734639993
 30
0.0
 10
47.14889221869992
 20
22.32117127509986
 30
0.0
 10
47.10371110789992
 20
22.34406616709993
 30
0.0
 10
47.06711966389991
 20
22.3690302597999
 30
0.0
 10
47.03975417229992
 20
22.39627655599992
 30
0.0
 10
47.0223151502999
 20
22.42605263129991
 30
0.0
 10
47.01561955949995
 20
22.45794659519993
 30
0.0
 10
47.01939434989992
 20
22.49072883609995
 30
0.0
 10
47.03222304539997
 20
22.52375291419992
 30
0.0
 10
47.05285509419991
 20
22.55707603429994
 30
0.0
 10
47.09137259959994
 20
22.60415214339992
 30
0.0
 10
47.12678269619994
 20
22.63652534919993
 30
0.0
 10
47.15232227359996
 20
22.65783219969995
 30
0.0
1001
ACAD
1000
RTMaterial
1005
0
  0
SPLINE
  5
60F1E
330
1F
100
AcDbEntity
  8
1
100
AcDbSpline
210
0.0
220
0.0
230
1.0
 70
     8
 71
     3
 72
     9
 73
     5
 74
     0
 42
0.0000000001
 43
0.0000000001
 40
0.0
 40
0.0
 40
0.0
 40
0.0
 40
0.2496341778
 40
1.0
 40
1.0
 40
1.0
 40
1.0
 10
55.11585227229994
 20
23.22428015209994
 30
0.0
 10
54.95310158869995
 20
23.26176248939987
 30
0.0
 10
54.30115809069992
 20
23.41196902649989
 30
0.0
 10
53.64926412029991
 20
23.56239050109997
 30
0.0
 10
53.16012878879991
 20
23.67536385749992
 30
0.0
1001
ACAD
1000
RTMaterial
1005
0
  0
LINE
  5
60F1F
330
1F
100
AcDbEntity
  8
1
100
AcDbLine
 10
41.70360981289997
 20
22.57648807969997
 30
0.0
 11
55.03050383329991
 21
21.7845708143999
 31
0.0
1001
ACAD
1000
RTMaterial
1005
0
  0
SPLINE
  5
60F20
330
1F
100
AcDbEntity
  8
1
100
AcDbSpline
210
0.0
220
0.0
230
1.0
 70
     8
 71
     3
 72
     9
 73
     5
 74
     0
 42
0.0000000001
 43
0.0000000001
 40
0.0
 40
0.0
 40
0.0
 40
0.0
 40
0.2495087952
 40
1.0
 40
1.0
 40
1.0
 40
1.0
 10
41.41810192659995
 20
22.59590325049988
 30
0.0
 10
41.4418329396999
 20
22.59408483879992
 30
0.0
 10
41.53695945299995
 20
22.58700167579986
 30
0.0
 10
41.6321467086999
 20
22.58073460969996
 30
0.0
 10
41.70360981289997
 20
22.57648807969997
 30
0.0
1001
ACAD
1000
RTMaterial
1005
0
  0
SPLINE
  5
60F21
330
1F
100
AcDbEntity
  8
1
100
AcDbSpline
210
0.0
220
0.0
230
1.0
 70
     8
 71
     3
 72
     9
 73
     5
 74
     0
 42
0.0000000001
 43
0.0000000001
 40
0.0
 40
0.0
 40
0.0
 40
0.0
 40
0.4998841651000001
 40
1.0
 40
1.0
 40
1.0
 40
1.0
 10
51.01373294289993
 20
25.31397124269989
 30
0.0
 10
50.58123281399992
 20
25.87054256859995
 30
0.0
 10
49.72872944259989
 20
26.99383764499993
 30
0.0
 10
48.89918947389992
 20
28.1342189822999
 30
0.0
 10
48.49156183489992
 20
28.70965648879991
 30
0.0
1001
ACAD
1000
RTMaterial
1005
0
  0
SPLINE
  5
60F22
330
1F
100
AcDbEntity
  8
1
100
AcDbSpline
210
0.0
220
0.0
230
1.0
 70
     8
 71
     3
 72
     9
 73
     5
 74
     0
 42
0.0000000001
 43
0.0000000001
 40
0.0
 40
0.0
 40
0.0
 40
0.0
 40
0.2503074811
 40
1.0
 40
1.0
 40
1.0
 40
1.0
 10
51.27464461479991
 20
24.41358694499996
 30
0.0
 10
51.26535457609993
 20
24.42652234799988
 30
0.0
 10
51.22912418879991
 20
24.4788295983999
 30
0.0
 10
51.19646421269994
 20
24.5336104166999
 30
0.0
 10
51.17417598529994
 20
24.57578183839991
 30
0.0
1001
ACAD
1000
RTMaterial
1005
0
  0
SPLINE
  5
60F23
330
1F
100
AcDbEntity
  8
1
100
AcDbSpline
210
0.0
220
0.0
230
1.0
 70
     8
 71
     3
 72
     9
 73
     5
 74
     0
 42
0.0000000001
 43
0.0000000001
 40
0.0
 40
0.0
 40
0.0
 40
0.0
 40
0.2508516687
 40
1.0
 40
1.0
 40
1.0
 40
1.0
 10
55.91343877459991
 20
23.03858957159992
 30
0.0
 10
55.84678558129991
 20
23.05428228919993
 30
0.0
 10
55.58103758569996
 20
23.11666837219997
 30
0.0
 10
55.31513250019992
 20
23.17838486879992
 30
0.0
 10
55.11585227229994
 20
23.22428015209994
 30
0.0
1001
ACAD
1000
RTMaterial
1005
0
  0
SPLINE
  5
60F24
330
1F
100
AcDbEntity
  8
1
100
AcDbSpline
210
0.0
220
0.0
230
1.0
 70
     8
 71
     3
 72
     9
 73
     5
 74
     0
 42
0.0000000001
 43
0.0000000001
 40
0.0
 40
0.0
 40
0.0
 40
0.0
 40
0.2506456002
 40
1.0
 40
1.0
 40
1.0
 40
1.0
 10
55.14953777229994
 20
21.77729274919995
 30
0.0
 10
55.22130866629993
 20
21.77278167679992
 30
0.0
 10
55.50743979079993
 20
21.75152183509988
 30
0.0
 10
55.79259878689993
 20
21.7173250086999
 30
0.0
 10
56.00510934739992
 20
21.68472403389996
 30
0.0
1001
ACAD
1000
RTMaterial
1005
0
  0
LINE
  5
60F25
330
1F
100
AcDbEntity
  8
1
100
AcDbLine
 10
55.03050383329991
 20
21.7845708143999
 30
0.0
 11
55.14953777229994
 21
21.77729274919995
 31
0.0
1001
ACAD
1000
RTMaterial
1005
0
  0
LINE
  5
60F26
330
1F
100
AcDbEntity
  8
1
100
AcDbLine
 10
59.91346793729992
 20
22.09698921579985
 30
0.0
 11
55.91343877459991
 21
23.03858957159992
 31
0.0
1001
ACAD
1000
RTMaterial
1005
0
  0
LINE
  5
60F27
330
1F
100
AcDbEntity
  8
1
100
AcDbLine
 10
56.53305254029993
 20
21.59214329569994
 30
0.0
 11
60.31490310519996
 21
20.84424405119989
 31
0.0
1001
ACAD
1000
RTMaterial
1005
0
  0
SPLINE
  5
60F28
330
1F
100
AcDbEntity
  8
1
100
AcDbSpline
210
0.0
220
0.0
230
1.0
 70
     8
 71
     3
 72
     9
 73
     5
 74
     0
 42
0.0000000001
 43
0.0000000001
 40
0.0
 40
0.0
 40
0.0
 40
0.0
 40
0.2492012895
 40
1.0
 40
1.0
 40
1.0
 40
1.0
 10
56.00510934739992
 20
21.68472403389996
 30
0.0
 10
56.04912029829989
 20
21.67797236989992
 30
0.0
 10
56.22558540789992
 20
21.64995658029994
 30
0.0
 10
56.4014529330999
 20
21.61816846839991
 30
0.0
 10
56.53305254029993
 20
21.59214329569994
 30
0.0
1001
ACAD
1000
RTMaterial
1005
0
  0
SPLINE
  5
60F29
330
1F
100
AcDbEntity
  8
1
100
AcDbSpline
210
0.0
220
0.0
230
1.0
 70
     8
 71
     3
 72
     9
 73
     5
 74
     0
 42
0.0000000001
 43
0.0000000001
 40
0.0
 40
0.0
 40
0.0
 40
0.0
 40
0.2557103234
 40
1.0
 40
1.0
 40
1.0
 40
1.0
 10
47.66330061009989
 20
29.87118820829989
 30
0.0
 10
47.65552798989989
 20
29.87344286309991
 30
0.0
 10
47.6252121739999
 20
29.88253511199991
 30
0.0
 10
47.59521754479993
 20
29.89269625619988
 30
0.0
 10
47.5731117371999
 20
29.9008342283999
 30
0.0
1001
ACAD
1000
RTMaterial
1005
0
  0
SPLINE
  5
60F2A
330
1F
100
AcDbEntity
  8
1
100
AcDbSpline
210
0.0
220
0.0
230
1.0
 70
     8
 71
     3
 72
     9
 73
     5
 74
     0
 42
0.0000000001
 43
0.0000000001
 40
0.0
 40
0.0
 40
0.0
 40
0.0
 40
0.2479518119
 40
1.0
 40
1.0
 40
1.0
 40
1.0
 10
47.72739124409992
 20
29.85392189879991
 30
0.0
 10
47.72206755269997
 20
29.85524722339988
 30
0.0
 10
47.70062241369993
 20
29.86069433099994
 30
0.0
 10
47.67928164509993
 20
29.8665524848999
 30
0.0
 10
47.66330061009989
 20
29.87118820829989
 30
0.0
1001
ACAD
1000
RTMaterial
1005
0
  0
SPLINE
  5
60F2B
330
1F
100
AcDbEntity
  8
1
100
AcDbSpline
210
0.0
220
0.0
230
1.0
 70
     8
 71
     3
 72
    10
 73
     6
 74
     0
 42
0.0000000001
 43
0.0000000001
 40
0.0
 40
0.0
 40
0.0
 40
0.0
 40
0.4447367510000001
 40
0.6984233470000002
 40
1.0
 40
1.0
 40
1.0
 40
1.0
 10
48.15827679609992
 20
29.15822420219996
 30
0.0
 10
48.05364239519992
 20
29.23230862399987
 30
0.0
 10
47.89143694829994
 20
29.35174582529993
 30
0.0
 10
47.66662835549993
 20
29.53224504769992
 30
0.0
 10
47.54616528519995
 20
29.63783658369988
 30
0.0
 10
47.48296039889993
 20
29.69752884299987
 30
0.0
1001
ACAD
1000
RTMaterial
1005
0
  0
SPLINE
  5
60F2C
330
1F
100
AcDbEntity
  8
1
100
AcDbSpline
210
0.0
220
0.0
230
1.0
 70
     8
 71
     3
 72
     9
 73
     5
 74
     0
 42
0.0000000001
 43
0.0000000001
 40
0.0
 40
0.0
 40
0.0
 40
0.0
 40
0.2552992155
 40
1.0
 40
1.0
 40
1.0
 40
1.0
 10
47.43171733489993
 20
29.97375851879991
 30
0.0
 10
47.42214244099995
 20
29.98025447229992
 30
0.0
 10
47.38541784109992
 20
30.00682167529993
 30
0.0
 10
47.3519959434999
 20
30.03801865719993
 30
0.0
 10
47.32983603309992
 20
30.06347554109993
 30
0.0
1001
ACAD
1000
RTMaterial
1005
0
  0
SPLINE
  5
60F2D
330
1F
100
AcDbEntity
  8
1
100
AcDbSpline
210
0.0
220
0.0
230
1.0
 70
     8
 71
     3
 72
     9
 73
     5
 74
     0
 42
0.0000000001
 43
0.0000000001
 40
0.0
 40
0.0
 40
0.0
 40
0.0
 40
0.2495983868
 40
1.0
 40
1.0
 40
1.0
 40
1.0
 10
47.57310774639996
 20
29.90081993619987
 30
0.0
 10
47.56066828319996
 20
29.90539885369987
 30
0.0
 10
47.51140446909994
 20
29.92528191209994
 30
0.0
 10
47.46469598489989
 20
29.95138528149988
 30
0.0
 10
47.43171733489993
 20
29.97375851879991
 30
0.0
1001
ACAD
1000
RTMaterial
1005
0
  0
SPLINE
  5
60F2E
330
1F
100
AcDbEntity
  8
1
100
AcDbSpline
210
0.0
220
0.0
230
1.0
 70
     8
 71
     3
 72
     9
 73
     5
 74
     0
 42
0.0000000001
 43
0.0000000001
 40
0.0
 40
0.0
 40
0.0
 40
0.0
 40
0.2471516294
 40
1.0
 40
1.0
 40
1.0
 40
1.0
 10
51.27464461479991
 20
24.41358694499996
 30
0.0
 10
51.2908219306999
 20
24.39065276339988
 30
0.0
 10
51.35873648999996
 20
24.29962241149985
 30
0.0
 10
51.43677928689993
 20
24.21611516849992
 30
0.0
 10
51.50027770589992
 20
24.15887328029993
 30
0.0
1001
ACAD
1000
RTMaterial
1005
0
  0
SPLINE
  5
60F2F
330
1F
100
AcDbEntity
  8
1
100
AcDbSpline
210
0.0
220
0.0
230
1.0
 70
     8
 71
     3
 72
     9
 73
     5
 74
     0
 42
0.0000000001
 43
0.0000000001
 40
0.0
 40
0.0
 40
0.0
 40
0.0
 40
0.5486813209000001
 40
1.0
 40
1.0
 40
1.0
 40
1.0
 10
51.23493412689993
 20
24.51184195639991
 30
0.0
 10
51.18118880959992
 20
24.65434641499996
 30
0.0
 10
51.09936280009993
 20
24.92022926599992
 30
0.0
 10
51.03800094179996
 20
25.19106752059992
 30
0.0
 10
51.01373294289993
 20
25.31397124269989
 30
0.0
1001
ACAD
1000
RTMaterial
1005
0
  0
SPLINE
  5
60F30
330
1F
100
AcDbEntity
  8
1
100
AcDbSpline
210
0.0
220
0.0
230
1.0
 70
     8
 71
     3
 72
     8
 73
     4
 74
     0
 42
0.0000000001
 43
0.0000000001
 40
0.0
 40
0.0
 40
0.0
 40
0.0
 40
1.0
 40
1.0
 40
1.0
 40
1.0
 10
53.46146544419991
 20
23.85880833579989
 30
0.0
 10
53.52846476469989
 20
23.90503411209994
 30
0.0
 10
53.59185832089991
 20
23.95697382729992
 30
0.0
 10
53.65033969429993
 20
24.01359237829991
 30
0.0
1001
ACAD
1000
RTMaterial
1005
0
  0
SPLINE
  5
60F31
330
1F
100
AcDbEntity
  8
1
100
AcDbSpline
210
0.0
220
0.0
230
1.0
 70
     8
 71
     3
 72
     9
 73
     5
 74
     0
 42
0.0000000001
 43
0.0000000001
 40
0.0
 40
0.0
 40
0.0
 40
0.0
 40
0.2495208058
 40
1.0
 40
1.0
 40
1.0
 40
1.0
 10
53.3222744855999
 20
23.77398368399986
 30
0.0
 10
53.33423720529992
 20
23.78037172139995
 30
0.0
 10
53.38181322029993
 20
23.8066541213999
 30
0.0
 10
53.42789227009991
 20
23.83564472719996
 30
0.0
 10
53.46146544419991
 20
23.85880833579989
 30
0.0
1001
ACAD
1000
RTMaterial
1005
0
  0
SPLINE
  5
60F32
330
1F
100
AcDbEntity
  8
1
100
AcDbSpline
210
0.0
220
0.0
230
1.0
 70
     8
 71
     3
 72
    11
 73
     7
 74
     0
 42
0.0000000001
 43
0.0000000001
 40
0.0
 40
0.0
 40
0.0
 40
0.0
 40
0.2533422429
 40
0.5050140913000001
 40
0.7533585603000001
 40
1.0
 40
1.0
 40
1.0
 40
1.0
 10
51.50027770589992
 20
24.15887328029993
 30
0.0
 10
51.57654987929993
 20
24.09011624219994
 30
0.0
 10
51.74333148789992
 20
23.96839485729987
 30
0.0
 10
52.02450944369991
 20
23.84360584779995
 30
0.0
 10
52.3229713277999
 20
23.78157927709992
 30
0.0
 10
52.52525925359993
 20
23.78244218679993
 30
0.0
 10
52.62468305739992
 20
23.79290345529995
 30
0.0
1001
ACAD
1000
RTMaterial
1005
0
  0
SPLINE
  5
60F33
330
1F
100
AcDbEntity
  8
1
100
AcDbSpline
210
0.0
220
0.0
230
1.0
 70
     8
 71
     3
 72
     9
 73
     5
 74
     0
 42
0.0000000001
 43
0.0000000001
 40
0.0
 40
0.0
 40
0.0
 40
0.0
 40
0.2559755473
 40
1.0
 40
1.0
 40
1.0
 40
1.0
 10
51.30807861909994
 20
24.90732990959993
 30
0.0
 10
51.30960354379993
 20
24.91606393459995
 30
0.0
 10
51.31613522589993
 20
24.95008005799991
 30
0.0
 10
51.3250231566999
 20
24.98365657849991
 30
0.0
 10
51.33307705169994
 20
25.00813628739991
 30
0.0
1001
ACAD
1000
RTMaterial
1005
0
  0
SPLINE
  5
60F34
330
1F
100
AcDbEntity
  8
1
100
AcDbSpline
210
0.0
220
0.0
230
1.0
 70
     8
 71
     3
 72
     9
 73
     5
 74
     0
 42
0.0000000001
 43
0.0000000001
 40
0.0
 40
0.0
 40
0.0
 40
0.0
 40
0.2527648587
 40
1.0
 40
1.0
 40
1.0
 40
1.0
 10
51.33307705169994
 20
25.00813628739991
 30
0.0
 10
51.33438575699995
 20
25.01211407999995
 30
0.0
 10
51.3397142300999
 20
25.02780104229987
 30
0.0
 10
51.34565244799995
 20
25.04328177519989
 30
0.0
 10
51.35044168949992
 20
25.05469725329988
 30
0.0
1001
ACAD
1000
RTMaterial
1005
0
  0
SPLINE
  5
60F35
330
1F
100
AcDbEntity
  8
1
100
AcDbSpline
210
0.0
220
0.0
230
1.0
 70
     8
 71
     3
 72
     9
 73
     5
 74
     0
 42
0.0000000001
 43
0.0000000001
 40
0.0
 40
0.0
 40
0.0
 40
0.0
 40
0.2978919932
 40
1.0
 40
1.0
 40
1.0
 40
1.0
 10
51.41149328989991
 20
25.32786241249994
 30
0.0
 10
51.4108051661999
 20
25.32951973929994
 30
0.0
 10
51.40857344549994
 20
25.33511071639992
 30
0.0
 10
51.40659640019993
 20
25.34083488269988
 30
0.0
 10
51.40568974519993
 20
25.34496606879992
 30
0.0
1001
ACAD
1000
RTMaterial
1005
0
  0
SPLINE
  5
60F36
330
1F
100
AcDbEntity
  8
1
100
AcDbSpline
210
0.0
220
0.0
230
1.0
 70
     8
 71
     3
 72
     9
 73
     5
 74
     0
 42
0.0000000001
 43
0.0000000001
 40
0.0
 40
0.0
 40
0.0
 40
0.0
 40
0.2603198596
 40
1.0
 40
1.0
 40
1.0
 40
1.0
 10
51.38988450689993
 20
25.14860362399986
 30
0.0
 10
51.39017887419993
 20
25.16428465049989
 30
0.0
 10
51.39273143679992
 20
25.22447645529991
 30
0.0
 10
51.40122085349992
 20
25.28449815249997
 30
0.0
 10
51.41149328989991
 20
25.32786241249994
 30
0.0
1001
ACAD
1000
RTMaterial
1005
0
  0
SPLINE
  5
60F37
330
1F
100
AcDbEntity
  8
1
100
AcDbSpline
210
0.0
220
0.0
230
1.0
 70
     8
 71
     3
 72
     9
 73
     5
 74
     0
 42
0.0000000001
 43
0.0000000001
 40
0.0
 40
0.0
 40
0.0
 40
0.0
 40
0.2432143065
 40
1.0
 40
1.0
 40
1.0
 40
1.0
 10
51.28658686529991
 20
24.88547329819994
 30
0.0
 10
51.28839789509993
 20
24.89708136429994
 30
0.0
 10
51.29729742759991
 20
24.94457592639992
 30
0.0
 10
51.31184802899992
 20
24.99097082949993
 30
0.0
 10
51.32551118609995
 20
25.02487810789995
 30
0.0
1001
ACAD
1000
RTMaterial
1005
0
  0
SPLINE
  5
60F38
330
1F
100
AcDbEntity
  8
1
100
AcDbSpline
210
0.0
220
0.0
230
1.0
 70
     8
 71
     3
 72
     9
 73
     5
 74
     0
 42
0.0000000001
 43
0.0000000001
 40
0.0
 40
0.0
 40
0.0
 40
0.0
 40
0.248603284
 40
1.0
 40
1.0
 40
1.0
 40
1.0
 10
52.89836821509993
 20
36.59604664199992
 30
0.0
 10
52.91510354679991
 20
36.59600329799991
 30
0.0
 10
52.98239972129988
 20
36.59375382799988
 30
0.0
 10
53.04941339399994
 20
36.58308326129992
 30
0.0
 10
53.09840339839997
 20
36.57049182439988
 30
0.0
1001
ACAD
1000
RTMaterial
1005
0
  0
SPLINE
  5
60F39
330
1F
100
AcDbEntity
  8
1
100
AcDbSpline
210
0.0
220
0.0
230
1.0
 70
     8
 71
     3
 72
     9
 73
     5
 74
     0
 42
0.0000000001
 43
0.0000000001
 40
0.0
 40
0.0
 40
0.0
 40
0.0
 40
0.2559840296
 40
1.0
 40
1.0
 40
1.0
 40
1.0
 10
53.09840339839997
 20
36.57049182439988
 30
0.0
 10
53.14831126849992
 20
36.55766447699989
 30
0.0
 10
53.34330403519993
 20
36.5076633441999
 30
0.0
 10
53.53839906349993
 20
36.45806204619987
 30
0.0
 10
53.68357119069992
 20
36.42123062989992
 30
0.0
1001
ACAD
1000
RTMaterial
1005
0
  0
SPLINE
  5
60F3A
330
1F
100
AcDbEntity
  8
1
100
AcDbSpline
210
0.0
220
0.0
230
1.0
 70
     8
 71
     3
 72
     9
 73
     5
 74
     0
 42
0.0000000001
 43
0.0000000001
 40
0.0
 40
0.0
 40
0.0
 40
0.0
 40
0.2485689244
 40
1.0
 40
1.0
 40
1.0
 40
1.0
 10
47.39056596209991
 20
30.84922372379992
 30
0.0
 10
47.39300180189991
 20
30.85238666749996
 30
0.0
 10
47.40287136159992
 20
30.86505715809989
 30
0.0
 10
47.41301849359996
 20
30.8775112754999
 30
0.0
 10
47.42078952129992
 20
30.88674488209995
 30
0.0
1001
ACAD
1000
RTMaterial
1005
0
  0
SPLINE
  5
60F3B
330
1F
100
AcDbEntity
  8
1
100
AcDbSpline
210
0.0
220
0.0
230
1.0
 70
     8
 71
     3
 72
    19
 73
    15
 74
     0
 42
0.0000000001
 43
0.0000000001
 40
0.0
 40
0.0
 40
0.0
 40
0.0
 40
0.0212311981
 40
0.0443953103
 40
0.0951841434
 40
0.1503343727
 40
0.2085652548
 40
0.2690579032
 40
0.3312727249
 40
0.4594950316
 40
0.5913430938000001
 40
0.7257583238
 40
0.8621059376999999
 40
1.0
 40
1.0
 40
1.0
 40
1.0
 10
47.15232227359996
 20
22.65783219969995
 30
0.0
 10
47.17673533669989
 20
22.67819923529993
 30
0.0
 10
47.2297596489999
 20
22.71842385589991
 30
0.0
 10
47.34821809539994
 20
22.79777501429993
 30
0.0
 10
47.51539388779991
 20
22.89518715719993
 30
0.0
 10
47.73318435069995
 20
23.00929350789994
 30
0.0
 10
47.96733442399989
 20
23.12324057549989
 30
0.0
 10
48.21337464729992
 20
23.23675527369989
 30
0.0
 10
48.55698388209993
 20
23.38886916139995
 30
0.0
 10
49.00179258249995
 20
23.57621678889996
 30
0.0
 10
49.55004547039994
 20
23.79623968739992
 30
0.0
 10
50.11302438119992
 20
24.01206666859991
 30
0.0
 10
50.68819672629991
 20
24.22110634759986
 30
0.0
 10
51.07754972739991
 20
24.35199781189988
 30
0.0
 10
51.27464461479991
 20
24.41358694499996
 30
0.0
1001
ACAD
1000
RTMaterial
1005
0
  0
SPLINE
  5
60F3C
330
1F
100
AcDbEntity
  8
1
100
AcDbSpline
210
0.0
220
0.0
230
1.0
 70
     8
 71
     3
 72
     9
 73
     5
 74
     0
 42
0.0000000001
 43
0.0000000001
 40
0.0
 40
0.0
 40
0.0
 40
0.0
 40
0.2447969385
 40
1.0
 40
1.0
 40
1.0
 40
1.0
 10
51.32551118609995
 20
25.02487810789995
 30
0.0
 10
51.32976833099991
 20
25.03544288429992
 30
0.0
 10
51.34822297979991
 20
25.07816644729991
 30
0.0
 10
51.37085496329991
 20
25.11906322999994
 30
0.0
 10
51.38988450689993
 20
25.14860362399986
 30
0.0
1001
ACAD
1000
RTMaterial
1005
0
  0
SPLINE
  5
60F3D
330
1F
100
AcDbEntity
  8
1
100
AcDbSpline
210
0.0
220
0.0
230
1.0
 70
     8
 71
     3
 72
     9
 73
     5
 74
     0
 42
0.0000000001
 43
0.0000000001
 40
0.0
 40
0.0
 40
0.0
 40
0.0
 40
0.5000010220000001
 40
1.0
 40
1.0
 40
1.0
 40
1.0
 10
46.0707929662999
 20
35.1709901463999
 30
0.0
 10
46.54242368589996
 20
35.31951139429992
 30
0.0
 10
47.5096796398999
 20
35.54518329739989
 30
0.0
 10
48.50004859339993
 20
35.62098506969994
 30
0.0
 10
48.99451001349991
 20
35.62102809439989
 30
0.0
1001
ACAD
1000
RTMaterial
1005
0
  0
SPLINE
  5
60F3E
330
1F
100
AcDbEntity
  8
1
100
AcDbSpline
210
0.0
220
0.0
230
1.0
 70
     8
 71
     3
 72
    11
 73
     7
 74
     0
 42
0.0000000001
 43
0.0000000001
 40
0.0
 40
0.0
 40
0.0
 40
0.0
 40
0.2293314984
 40
0.4718565070000001
 40
0.7288874159000001
 40
1.0
 40
1.0
 40
1.0
 40
1.0
 10
46.0707929662999
 20
21.18524483769988
 30
0.0
 10
46.25892510019991
 20
20.99362438619988
 30
0.0
 10
46.66509698899989
 20
20.6175740793999
 30
0.0
 10
47.34815700289994
 20
20.10321044559993
 30
0.0
 10
48.12660567969993
 20
19.64289599929992
 30
0.0
 10
48.69557944219991
 20
19.39523154889991
 30
0.0
 10
48.99451001349991
 20
19.28835854859994
 30
0.0
1001
ACAD
1000
RTMaterial
1005
0
  0
SPLINE
  5
60F3F
330
1F
100
AcDbEntity
  8
1
100
AcDbSpline
210
0.0
220
0.0
230
1.0
 70
     8
 71
     3
 72
     9
 73
     5
 74
     0
 42
0.0000000001
 43
0.0000000001
 40
0.0
 40
0.0
 40
0.0
 40
0.0
 40
0.2488552882
 40
1.0
 40
1.0
 40
1.0
 40
1.0
 10
45.70967279909996
 20
21.56122909639993
 30
0.0
 10
45.73927436199994
 20
21.52970366539995
 30
0.0
 10
45.8585918505999
 20
21.40336646249995
 30
0.0
 10
45.97934612869994
 20
21.27838726869987
 30
0.0
 10
46.0707929662999
 20
21.18524483769988
 30
0.0
1001
ACAD
1000
RTMaterial
1005
0
  0
SPLINE
  5
60F40
330
1F
100
AcDbEntity
  8
1
100
AcDbSpline
210
0.0
220
0.0
230
1.0
 70
     8
 71
     3
 72
     9
 73
     5
 74
     0
 42
0.0000000001
 43
0.0000000001
 40
0.0
 40
0.0
 40
0.0
 40
0.0
 40
0.4948621374
 40
1.0
 40
1.0
 40
1.0
 40
1.0
 10
51.17417598529994
 20
24.57578183839991
 30
0.0
 10
51.11541312369991
 20
24.68696669719992
 30
0.0
 10
51.0269350902999
 20
24.92894652539997
 30
0.0
 10
51.0067967679999
 20
25.18578913459993
 30
0.0
 10
51.01373294289993
 20
25.31397124269989
 30
0.0
1001
ACAD
1000
RTMaterial
1005
0
  0
SPLINE
  5
60F41
330
1F
100
AcDbEntity
  8
1
100
AcDbSpline
210
0.0
220
0.0
230
1.0
 70
     8
 71
     3
 72
     8
 73
     4
 74
     0
 42
0.0000000001
 43
0.0000000001
 40
0.0
 40
0.0
 40
0.0
 40
0.0
 40
1.0
 40
1.0
 40
1.0
 40
1.0
 10
46.0707929662999
 20
35.1709901463999
 30
0.0
 10
44.36932154089993
 20
34.63517971499994
 30
0.0
 10
42.66805150769994
 20
34.0987292079999
 30
0.0
 10
40.96701406979991
 20
33.56154258819993
 30
0.0
1001
ACAD
1000
RTMaterial
1005
0
  0
SPLINE
  5
60F42
330
1F
100
AcDbEntity
  8
1
100
AcDbSpline
210
0.0
220
0.0
230
1.0
 70
     8
 71
     3
 72
    11
 73
     7
 74
     0
 42
0.0000000001
 43
0.0000000001
 40
0.0
 40
0.0
 40
0.0
 40
0.0
 40
0.2406063525
 40
0.4890398864
 40
0.7430418121
 40
1.0
 40
1.0
 40
1.0
 40
1.0
 10
35.53658262689993
 20
31.49051658299987
 30
0.0
 10
35.95911516699994
 20
31.68806379619991
 30
0.0
 10
36.82719697839991
 20
32.0699217845999
 30
0.0
 10
38.16642594909996
 20
32.60099370719996
 30
0.0
 10
39.5512963725999
 20
33.10091399309994
 30
0.0
 10
40.49200636259991
 20
33.41153543439987
 30
0.0
 10
40.96701406979991
 20
33.56154258819993
 30
0.0
1001
ACAD
1000
RTMaterial
1005
0
  0
SPLINE
  5
60F43
330
1F
100
AcDbEntity
  8
1
100
AcDbSpline
210
0.0
220
0.0
230
1.0
 70
     8
 71
     3
 72
     9
 73
     5
 74
     0
 42
0.0000000001
 43
0.0000000001
 40
0.0
 40
0.0
 40
0.0
 40
0.0
 40
0.2035070709
 40
1.0
 40
1.0
 40
1.0
 40
1.0
 10
47.46216112219991
 20
29.73244693369986
 30
0.0
 10
47.47857992059988
 20
29.72044216779995
 30
0.0
 10
47.5610754702999
 20
29.66396103829988
 30
0.0
 10
47.65151410679993
 20
29.61925135449991
 30
0.0
 10
47.72567226399991
 20
29.59031120489994
 30
0.0
1001
ACAD
1000
RTMaterial
1005
0
  0
SPLINE
  5
60F44
330
1F
100
AcDbEntity
  8
1
100
AcDbSpline
210
0.0
220
0.0
230
1.0
 70
     8
 71
     3
 72
    15
 73
    11
 74
     0
 42
0.0000000001
 43
0.0000000001
 40
0.0
 40
0.0
 40
0.0
 40
0.0
 40
0.1282665362
 40
0.2560395149
 40
0.3829461268999999
 40
0.5087671109000001
 40
0.6334032022000001
 40
0.7568214902000001
 40
0.8790178709999999
 40
1.0
 40
1.0
 40
1.0
 40
1.0
 10
40.70416334319992
 20
29.12761677269993
 30
0.0
 10
40.45453143489993
 20
29.1211277505999
 30
0.0
 10
39.95478634989991
 20
29.13740471479992
 30
0.0
 10
39.21722043009993
 20
29.26068532189987
 30
0.0
 10
38.50775192909992
 20
29.4810998330999
 30
0.0
 10
37.83654724019994
 20
29.7835573701999
 30
0.0
 10
37.2058970368999
 20
30.14904005789992
 30
0.0
 10
36.61395918419993
 20
30.56158015689988
 30
0.0
 10
36.05772901489991
 20
31.0095231023999
 30
0.0
 10
35.70691337229994
 20
31.3278390989999
 30
0.0
 10
35.53658262689993
 20
31.49051658299987
 30
0.0
1001
ACAD
1000
RTMaterial
1005
0
  0
SPLINE
  5
60F45
330
1F
100
AcDbEntity
  8
1
100
AcDbSpline
210
0.0
220
0.0
230
1.0
 70
     8
 71
     3
 72
     9
 73
     5
 74
     0
 42
0.0000000001
 43
0.0000000001
 40
0.0
 40
0.0
 40
0.0
 40
0.0
 40
0.5000064151000001
 40
1.0
 40
1.0
 40
1.0
 40
1.0
 10
41.80403781489991
 20
29.1061043819999
 30
0.0
 10
41.62096935039994
 20
29.1169569944999
 30
0.0
 10
41.25441808999994
 20
29.13203865309993
 30
0.0
 10
40.8874865745999
 20
29.13238214299992
 30
0.0
 10
40.70416334319992
 20
29.12761677269993
 30
0.0
1001
ACAD
1000
RTMaterial
1005
0
  0
SPLINE
  5
60F46
330
1F
100
AcDbEntity
  8
1
100
AcDbSpline
210
0.0
220
0.0
230
1.0
 70
     8
 71
     3
 72
    11
 73
     7
 74
     0
 42
0.0000000001
 43
0.0000000001
 40
0.0
 40
0.0
 40
0.0
 40
0.0
 40
0.2685699717
 40
0.5220423233
 40
0.7640092059
 40
1.0
 40
1.0
 40
1.0
 40
1.0
 10
53.16012878879991
 20
23.67536385749992
 30
0.0
 10
53.13663440709991
 20
23.56285686609993
 30
0.0
 10
53.07226750219991
 20
23.34769289069993
 30
0.0
 10
52.93052647239989
 20
23.05163917649986
 30
0.0
 10
52.75029719089991
 20
22.79393576819996
 30
0.0
 10
52.60466425429996
 20
22.64851146659987
 30
0.0
 10
52.52711661829994
 20
22.58381450499996
 30
0.0
1001
ACAD
1000
RTMaterial
1005
0
  0
SPLINE
  5
60F47
330
1F
100
AcDbEntity
  8
1
100
AcDbSpline
210
0.0
220
0.0
230
1.0
 70
     8
 71
     3
 72
    11
 73
     7
 74
     0
 42
0.0000000001
 43
0.0000000001
 40
0.0
 40
0.0
 40
0.0
 40
0.0
 40
0.2330734563
 40
0.4803713539000001
 40
0.7374804445000001
 40
1.0
 40
1.0
 40
1.0
 40
1.0
 10
32.80290174099992
 20
30.31840114549988
 30
0.0
 10
33.00379995589992
 20
30.43327225379989
 30
0.0
 10
33.4269026232999
 20
30.6543373227999
 30
0.0
 10
34.09436544969992
 20
30.95615530169994
 30
0.0
 10
34.80228095629991
 20
31.23736096369987
 30
0.0
 10
35.28915409139995
 20
31.40853114189986
 30
0.0
 10
35.53658262689993
 20
31.49051658299987
 30
0.0
1001
ACAD
1000
RTMaterial
1005
0
  0
SPLINE
  5
60F48
330
1F
100
AcDbEntity
  8
1
100
AcDbSpline
210
0.0
220
0.0
230
1.0
 70
     8
 71
     3
 72
     9
 73
     5
 74
     0
 42
0.0000000001
 43
0.0000000001
 40
0.0
 40
0.0
 40
0.0
 40
0.0
 40
0.5229890406000001
 40
1.0
 40
1.0
 40
1.0
 40
1.0
 10
34.20042861099995
 20
25.18863767219995
 30
0.0
 10
33.92393128049992
 20
25.44022812219993
 30
0.0
 10
33.42567449069992
 20
25.95587072829989
 30
0.0
 10
32.99321728799993
 20
26.52707289379993
 30
0.0
 10
32.80290174099992
 20
26.80998083639992
 30
0.0
1001
ACAD
1000
RTMaterial
1005
0
  0
SPLINE
  5
60F49
330
1F
100
AcDbEntity
  8
1
100
AcDbSpline
210
0.0
220
0.0
230
1.0
 70
     8
 71
     3
 72
    21
 73
    17
 74
     0
 42
0.0000000001
 43
0.0000000001
 40
0.0
 40
0.0
 40
0.0
 40
0.0
 40
0.050713131
 40
0.0991012299
 40
0.1460661915
 40
0.1927002615
 40
0.2401703526
 40
0.2895951461
 40
0.341918627
 40
0.3978550756
 40
0.4579000989
 40
0.5223280454000001
 40
0.5912510154000001
 40
0.6646640849000001
 40
0.8243993040999999
 40
1.0
 40
1.0
 40
1.0
 40
1.0
 10
31.24706319219991
 20
27.9748987033999
 30
0.0
 10
31.21595848759995
 20
28.01877085609993
 30
0.0
 10
31.16092148819996
 20
28.10882965529993
 30
0.0
 10
31.10155200909992
 20
28.25263334229987
 30
0.0
 10
31.06859133499995
 20
28.4003682995999
 30
0.0
 10
31.06261068669994
 20
28.55065149079985
 30
0.0
 10
31.08351927219991
 20
28.7021771101999
 30
0.0
 10
31.13088723859994
 20
28.85384131119991
 30
0.0
 10
31.20374922339994
 20
29.00492251659989
 30
0.0
 10
31.30099814959994
 20
29.15505265239989
 30
0.0
 10
31.42152708729992
 20
29.30400731369991
 30
0.0
 10
31.56404623709994
 20
29.45177991829991
 30
0.0
 10
31.72725061069991
 20
29.59844176109994
 30
0.0
 10
31.97781491429993
 20
29.79825956559989
 30
0.0
 10
32.33586975989994
 20
30.04348015069991
 30
0.0
 10
32.64124296369994
 20
30.22596666119989
 30
0.0
 10
32.80290174099992
 20
30.31840114549988
 30
0.0
1001
ACAD
1000
RTMaterial
1005
0
  0
SPLINE
  5
60F4A
330
1F
100
AcDbEntity
  8
1
100
AcDbSpline
210
0.0
220
0.0
230
1.0
 70
     8
 71
     3
 72
    13
 73
     9
 74
     0
 42
0.0000000001
 43
0.0000000001
 40
0.0
 40
0.0
 40
0.0
 40
0.0
 40
0.1428651007
 40
0.2810176376
 40
0.4142308350000001
 40
0.5423129213
 40
0.7822554318000002
 40
1.0
 40
1.0
 40
1.0
 40
1.0
 10
41.70360981289997
 20
21.89426696449988
 30
0.0
 10
41.3079208234999
 20
21.92734999449988
 30
0.0
 10
40.53219221019992
 20
22.02974360289994
 30
0.0
 10
39.40841924539995
 20
22.28682255359996
 30
0.0
 10
38.35135241079991
 20
22.63105722609993
 30
0.0
 10
37.06737806399991
 20
23.17516688349991
 30
0.0
 10
35.6494156716999
 20
23.98939112869988
 30
0.0
 10
34.64804412689995
 20
24.7813433634999
 30
0.0
 10
34.20042861099995
 20
25.18863767219995
 30
0.0
1001
ACAD
1000
RTMaterial
1005
0
  0
SPLINE
  5
60F4B
330
1F
100
AcDbEntity
  8
1
100
AcDbSpline
210
0.0
220
0.0
230
1.0
 70
     8
 71
     3
 72
     9
 73
     5
 74
     0
 42
0.0000000001
 43
0.0000000001
 40
0.0
 40
0.0
 40
0.0
 40
0.0
 40
0.2493773707999999
 40
1.0
 40
1.0
 40
1.0
 40
1.0
 10
41.70360981289997
 20
21.89426696449988
 30
0.0
 10
42.03660386919989
 20
21.86642577449993
 30
0.0
 10
43.37191976239989
 20
21.75495135839992
 30
0.0
 10
44.70728895839994
 20
21.64411572709992
 30
0.0
 10
45.70967279909996
 20
21.56122909639993
 30
0.0
1001
ACAD
1000
RTMaterial
1005
0
  0
SPLINE
  5
60F4C
330
1F
100
AcDbEntity
  8
1
100
AcDbSpline
210
0.0
220
0.0
230
1.0
 70
     8
 71
     3
 72
     9
 73
     5
 74
     0
 42
0.0000000001
 43
0.0000000001
 40
0.0
 40
0.0
 40
0.0
 40
0.0
 40
0.2539149725
 40
1.0
 40
1.0
 40
1.0
 40
1.0
 10
32.80290174099992
 20
26.80998083639992
 30
0.0
 10
32.78086385119991
 20
26.84274060909991
 30
0.0
 10
32.69489911229994
 20
26.97231431509988
 30
0.0
 10
32.61219944319993
 20
27.10405279029993
 30
0.0
 10
32.5523626879999
 20
27.2034433584999
 30
0.0
1001
ACAD
1000
RTMaterial
1005
0
  0
SPLINE
  5
60F4D
330
1F
100
AcDbEntity
  8
1
100
AcDbSpline
210
0.0
220
0.0
230
1.0
 70
     8
 71
     3
 72
     9
 73
     5
 74
     0
 42
0.0000000001
 43
0.0000000001
 40
0.0
 40
0.0
 40
0.0
 40
0.0
 40
0.4999935017000001
 40
1.0
 40
1.0
 40
1.0
 40
1.0
 10
48.15827679609992
 20
29.15822420219996
 30
0.0
 10
48.05072325269993
 20
29.19479663089987
 30
0.0
 10
47.8445752241999
 20
29.29749420759987
 30
0.0
 10
47.67315808769995
 20
29.45123372929993
 30
0.0
 10
47.59936055539992
 20
29.53760445559993
 30
0.0
1001
ACAD
1000
RTMaterial
1005
0
  0
SPLINE
  5
60F4E
330
1F
100
AcDbEntity
  8
1
100
AcDbSpline
210
0.0
220
0.0
230
1.0
 70
     8
 71
     3
 72
    13
 73
     9
 74
     0
 42
0.0000000001
 43
0.0000000001
 40
0.0
 40
0.0
 40
0.0
 40
0.0
 40
0.1167866713
 40
0.2235871615
 40
0.3330127871
 40
0.4499256478
 40
0.7092619108
 40
1.0
 40
1.0
 40
1.0
 40
1.0
 10
60.9120618575999
 20
15.82371829349989
 30
0.0
 10
60.90504415739991
 20
15.82751125489989
 30
0.0
 10
60.89005042749994
 20
15.83239820279993
 30
0.0
 10
60.86694194909995
 20
15.83039331279991
 30
0.0
 10
60.84561597709996
 20
15.82185359459993
 30
0.0
 10
60.81772858769994
 20
15.80363416439991
 30
0.0
 10
60.78512912179991
 20
15.77131161249991
 30
0.0
 10
60.76218101889992
 20
15.74151842589992
 30
0.0
 10
60.75069842699992
 20
15.72531575129989
 30
0.0
1001
ACAD
1000
RTMaterial
1005
0
  0
SPLINE
  5
60F4F
330
1F
100
AcDbEntity
  8
1
100
AcDbSpline
210
0.0
220
0.0
230
1.0
 70
     8
 71
     3
 72
     9
 73
     5
 74
     0
 42
0.0000000001
 43
0.0000000001
 40
0.0
 40
0.0
 40
0.0
 40
0.0
 40
0.2430575989
 40
1.0
 40
1.0
 40
1.0
 40
1.0
 10
47.72567226399991
 20
29.59031120489994
 30
0.0
 10
47.74825050949994
 20
29.5815000662999
 30
0.0
 10
47.84224330299991
 20
29.54812866679993
 30
0.0
 10
47.94038465459993
 20
29.52648670989993
 30
0.0
 10
48.01526521279993
 20
29.51700169429995
 30
0.0
1001
ACAD
1000
RTMaterial
1005
0
  0
SPLINE
  5
60F50
330
1F
100
AcDbEntity
  8
1
100
AcDbSpline
210
0.0
220
0.0
230
1.0
 70
     8
 71
     3
 72
     9
 73
     5
 74
     0
 42
0.0000000001
 43
0.0000000001
 40
0.0
 40
0.0
 40
0.0
 40
0.0
 40
0.2432539502
 40
1.0
 40
1.0
 40
1.0
 40
1.0
 10
47.42078952129992
 20
30.88674488209995
 30
0.0
 10
47.43821658769997
 20
30.90745188229988
 30
0.0
 10
47.51288204819991
 20
30.99000829129989
 30
0.0
 10
47.59873604109992
 20
31.06225301469994
 30
0.0
 10
47.66772752579993
 20
31.11051332479991
 30
0.0
1001
ACAD
1000
RTMaterial
1005
0
  0
SPLINE
  5
60F51
330
1F
100
AcDbEntity
  8
1
100
AcDbSpline
210
0.0
220
0.0
230
1.0
 70
     8
 71
     3
 72
     9
 73
     5
 74
     0
 42
0.0000000001
 43
0.0000000001
 40
0.0
 40
0.0
 40
0.0
 40
0.0
 40
0.5026008741
 40
1.0
 40
1.0
 40
1.0
 40
1.0
 10
59.8307142930999
 20
15.73005888569992
 30
0.0
 10
59.77291990539993
 20
15.73293065289994
 30
0.0
 10
59.65828219929995
 20
15.7498328559999
 30
0.0
 10
59.5483690321999
 20
15.7857756805999
 30
0.0
 10
59.49538781609994
 20
15.8075122237999
 30
0.0
1001
ACAD
1000
RTMaterial
1005
0
  0
SPLINE
  5
60F52
330
1F
100
AcDbEntity
  8
1
100
AcDbSpline
210
0.0
220
0.0
230
1.0
 70
     8
 71
     3
 72
    17
 73
    13
 74
     0
 42
0.0000000001
 43
0.0000000001
 40
0.0
 40
0.0
 40
0.0
 40
0.0
 40
0.0329365935
 40
0.0661643587
 40
0.1408542663
 40
0.185597425
 40
0.236162012
 40
0.3548277711
 40
0.4946307654
 40
0.6515357086
 40
0.8213286499
 40
1.0
 40
1.0
 40
1.0
 40
1.0
 10
60.75069842699992
 20
15.72531575129989
 30
0.0
 10
60.74470720539995
 20
15.71686175289994
 30
0.0
 10
60.73091117219991
 20
15.70101858699991
 30
0.0
 10
60.69457364559991
 20
15.67496359429992
 30
0.0
 10
60.64704352979993
 20
15.66174512639992
 30
0.0
 10
60.59379004149992
 20
15.65746043049989
 30
0.0
 10
60.52636776199995
 20
15.65814020219994
 30
0.0
 10
60.42954388229992
 20
15.66777855849994
 30
0.0
 10
60.30000943469992
 20
15.68486776649985
 30
0.0
 10
60.15442274849994
 20
15.70346240909987
 30
0.0
 10
59.9962519968999
 20
15.71975779309991
 30
0.0
 10
59.88685420999991
 20
15.72726932799986
 30
0.0
 10
59.8307142930999
 20
15.73005888569992
 30
0.0
1001
ACAD
1000
RTMaterial
1005
0
  0
SPLINE
  5
60F53
330
1F
100
AcDbEntity
  8
1
100
AcDbSpline
210
0.0
220
0.0
230
1.0
 70
     8
 71
     3
 72
    10
 73
     6
 74
     0
 42
0.0000000001
 43
0.0000000001
 40
0.0
 40
0.0
 40
0.0
 40
0.0
 40
0.5729466260000001
 40
0.8124157641
 40
1.0
 40
1.0
 40
1.0
 40
1.0
 10
51.18036146659995
 20
24.87164292759991
 30
0.0
 10
51.18279204159995
 20
24.80541837899989
 30
0.0
 10
51.19192261049994
 20
24.71155398219997
 30
0.0
 10
51.21393964269993
 20
24.5979606823999
 30
0.0
 10
51.22581606879993
 20
24.54999876749992
 30
0.0
 10
51.23133047989989
 20
24.52901454409988
 30
0.0
1001
ACAD
1000
RTMaterial
1005
0
  0
SPLINE
  5
60F54
330
1F
100
AcDbEntity
  8
1
100
AcDbSpline
210
0.0
220
0.0
230
1.0
 70
     8
 71
     3
 72
    11
 73
     7
 74
     0
 42
0.0000000001
 43
0.0000000001
 40
0.0
 40
0.0
 40
0.0
 40
0.0
 40
0.4053342008
 40
0.7286199156000001
 40
0.9409673787999999
 40
1.0
 40
1.0
 40
1.0
 40
1.0
 10
51.23133047989989
 20
24.52901454409988
 30
0.0
 10
51.23204712559993
 20
24.52628746159991
 30
0.0
 10
51.2332748341999
 20
24.52171737449993
 30
0.0
 10
51.2351534012999
 20
24.51427685309989
 30
0.0
 10
51.23573669339993
 20
24.51232874819993
 30
0.0
 10
51.2365161900999
 20
24.50844322779995
 30
0.0
 10
51.23625621079992
 20
24.50876110949991
 30
0.0
1001
ACAD
1000
RTMaterial
1005
0
  0
SPLINE
  5
60F55
330
1F
100
AcDbEntity
  8
1
100
AcDbSpline
210
0.0
220
0.0
230
1.0
 70
     8
 71
     3
 72
     9
 73
     5
 74
     0
 42
0.0000000001
 43
0.0000000001
 40
0.0
 40
0.0
 40
0.0
 40
0.0
 40
0.5032947172
 40
1.0
 40
1.0
 40
1.0
 40
1.0
 10
51.3134966209999
 20
25.54824018659991
 30
0.0
 10
51.26552206929995
 20
25.44212503599994
 30
0.0
 10
51.19452912859992
 20
25.21944309809993
 30
0.0
 10
51.1761460964999
 20
24.98649681339993
 30
0.0
 10
51.18036146659995
 20
24.87164292759991
 30
0.0
1001
ACAD
1000
RTMaterial
1005
0
  0
SPLINE
  5
60F56
330
1F
100
AcDbEntity
  8
1
100
AcDbSpline
210
0.0
220
0.0
230
1.0
 70
     8
 71
     3
 72
     9
 73
     5
 74
     0
 42
0.0000000001
 43
0.0000000001
 40
0.0
 40
0.0
 40
0.0
 40
0.0
 40
0.4943042963
 40
1.0
 40
1.0
 40
1.0
 40
1.0
 10
62.19999999999993
 20
15.16084077719995
 30
0.0
 10
61.98505776329989
 20
15.26461878849994
 30
0.0
 10
61.55351856169994
 20
15.4814173883999
 30
0.0
 10
61.12687757349994
 20
15.7076136327999
 30
0.0
 10
60.9120618575999
 20
15.82371829349989
 30
0.0
1001
ACAD
1000
RTMaterial
1005
0
  0
SPLINE
  5
60F57
330
1F
100
AcDbEntity
  8
1
100
AcDbSpline
210
0.0
220
0.0
230
1.0
 70
     8
 71
     3
 72
     8
 73
     4
 74
     0
 42
0.0000000001
 43
0.0000000001
 40
0.0
 40
0.0
 40
0.0
 40
0.0
 40
1.0
 40
1.0
 40
1.0
 40
1.0
 10
52.49811366789993
 20
24.09223215619988
 30
0.0
 10
52.4834424611999
 20
24.08709668249992
 30
0.0
 10
52.46861785419992
 20
24.08237894239994
 30
0.0
 10
52.45367299799994
 20
24.07810475579987
 30
0.0
1001
ACAD
1000
RTMaterial
1005
0
  0
SPLINE
  5
60F58
330
1F
100
AcDbEntity
  8
1
100
AcDbSpline
210
0.0
220
0.0
230
1.0
 70
     8
 71
     3
 72
    13
 73
     9
 74
     0
 42
0.0000000001
 43
0.0000000001
 40
0.0
 40
0.0
 40
0.0
 40
0.0
 40
0.2694790347
 40
0.5256604689
 40
0.6485853625
 40
0.7681679855
 40
0.8850153484999999
 40
1.0
 40
1.0
 40
1.0
 40
1.0
 10
52.45367167569992
 20
24.07810308889992
 30
0.0
 10
52.36645078919991
 20
24.05315654429995
 30
0.0
 10
52.18981180929995
 20
24.02421335339989
 30
0.0
 10
51.96954303379993
 20
24.04562190599989
 30
0.0
 10
51.80951708249995
 20
24.09824121959991
 30
0.0
 10
51.70130730709991
 20
24.15349367249997
 30
0.0
 10
51.60564048889995
 20
24.22396481859994
 30
0.0
 10
51.55123413799993
 20
24.28055502449991
 30
0.0
 10
51.52693421769993
 20
24.31068617499994
 30
0.0
1001
ACAD
1000
RTMaterial
1005
0
  0
SPLINE
  5
60F59
330
1F
100
AcDbEntity
  8
1
100
AcDbSpline
210
0.0
220
0.0
230
1.0
 70
     8
 71
     3
 72
     9
 73
     5
 74
     0
 42
0.0000000001
 43
0.0000000001
 40
0.0
 40
0.0
 40
0.0
 40
0.0
 40
0.2556435584
 40
1.0
 40
1.0
 40
1.0
 40
1.0
 10
51.52693421769993
 20
24.31068617499994
 30
0.0
 10
51.52161989869995
 20
24.31727466989992
 30
0.0
 10
51.5009428493999
 20
24.34313549939986
 30
0.0
 10
51.48076643969989
 20
24.36940176539997
 30
0.0
 10
51.46618079699994
 20
24.38926902849994
 30
0.0
1001
ACAD
1000
RTMaterial
1005
0
  0
SPLINE
  5
60F5A
330
1F
100
AcDbEntity
  8
1
100
AcDbSpline
210
0.0
220
0.0
230
1.0
 70
     8
 71
     3
 72
    19
 73
    15
 74
     0
 42
0.0000000001
 43
0.0000000001
 40
0.0
 40
0.0
 40
0.0
 40
0.0
 40
0.022339647
 40
0.0316221382
 40
0.0426263847
 40
0.0700223055
 40
0.1048432923
 40
0.1472605174
 40
0.1973871069
 40
0.2553030843
 40
0.3946936835
 40
0.5655799147
 40
0.7676491809
 40
1.0
 40
1.0
 40
1.0
 40
1.0
 10
51.11848798629989
 20
36.55128862729987
 30
0.0
 10
51.11848144549992
 20
36.55692830919992
 30
0.0
 10
51.12709615449995
 20
36.56281146269993
 30
0.0
 10
51.13662693739991
 20
36.5668382383999
 30
0.0
 10
51.14815389239993
 20
36.57074877039992
 30
0.0
 10
51.16609584159994
 20
36.57499190029995
 30
0.0
 10
51.19217601719992
 20
36.57943214219995
 30
0.0
 10
51.22408192359995
 20
36.58339191459993
 30
0.0
 10
51.26191025209994
 20
36.58690927309994
 30
0.0
 10
51.32422643359996
 20
36.59125590259987
 30
0.0
 10
51.41710626269992
 20
36.59524187699992
 30
0.0
 10
51.54641797279992
 20
36.59821327919991
 30
0.0
 10
51.69922408899992
 20
36.59976116709993
 30
0.0
 10
51.80889453249995
 20
36.5999999840999
 30
0.0
 10
51.8675519316999
 20
36.59999998419994
 30
0.0
1001
ACAD
1000
RTMaterial
1005
0
  0
SPLINE
  5
60F5B
330
1F
100
AcDbEntity
  8
1
100
AcDbSpline
210
0.0
220
0.0
230
1.0
 70
     8
 71
     3
 72
     9
 73
     5
 74
     0
 42
0.0000000001
 43
0.0000000001
 40
0.0
 40
0.0
 40
0.0
 40
0.0
 40
0.4959378149
 40
1.0
 40
1.0
 40
1.0
 40
1.0
 10
53.09840339839997
 20
17.91704203109992
 30
0.0
 10
53.06487833439991
 20
17.91552624469995
 30
0.0
 10
52.99682918099989
 20
17.9193408047999
 30
0.0
 10
52.93074582219992
 20
17.93552029099993
 30
0.0
 10
52.89836821509993
 20
17.94624967409987
 30
0.0
1001
ACAD
1000
RTMaterial
1005
0
  0
SPLINE
  5
60F5C
330
1F
100
AcDbEntity
  8
1
100
AcDbSpline
210
0.0
220
0.0
230
1.0
 70
     8
 71
     3
 72
     9
 73
     5
 74
     0
 42
0.0000000001
 43
0.0000000001
 40
0.0
 40
0.0
 40
0.0
 40
0.0
 40
0.2499252281
 40
1.0
 40
1.0
 40
1.0
 40
1.0
 10
54.36712948139995
 20
17.97568070289992
 30
0.0
 10
54.26143899629988
 20
17.97068696949992
 30
0.0
 10
53.83854531919991
 20
17.95081741389992
 30
0.0
 10
53.41563111629989
 20
17.93138501499993
 30
0.0
 10
53.09840339839997
 20
17.91704203109992
 30
0.0
1001
ACAD
1000
RTMaterial
1005
0
  0
SPLINE
  5
60F5D
330
1F
100
AcDbEntity
  8
1
100
AcDbSpline
210
0.0
220
0.0
230
1.0
 70
     8
 71
     3
 72
     9
 73
     5
 74
     0
 42
0.0000000001
 43
0.0000000001
 40
0.0
 40
0.0
 40
0.0
 40
0.0
 40
0.4986895989000001
 40
1.0
 40
1.0
 40
1.0
 40
1.0
 10
54.63671017479993
 20
17.91856064389992
 30
0.0
 10
54.59483696869995
 20
17.93794371359996
 30
0.0
 10
54.50684805489993
 20
17.96892961899988
 30
0.0
 10
54.41346211899992
 20
17.97786985769988
 30
0.0
 10
54.36712948139995
 20
17.97568070289992
 30
0.0
1001
ACAD
1000
RTMaterial
1005
0
  0
ELLIPSE
  5
60F5E
330
1F
100
AcDbEntity
  8
1
100
AcDbEllipse
 10
472.0474704464999
 20
-775.0175725894998
 30
0.0
 11
-407.6968966571
 21
807.0719785917001
 31
0.0
210
0.0
220
0.0
230
1.0
 40
0.0580971883
 41
0.1446227551
 42
0.1656616997
1001
ACAD
1000
RTMaterial
1005
0
  0
ELLIPSE
  5
60F5F
330
1F
100
AcDbEntity
  8
1
100
AcDbEllipse
 10
25.28641007449994
 20
-0.0000000000000568
 30
0.0
 11
-42.2915850626
 21
-28.1731173955
 31
0.0
210
0.0
220
0.0
230
1.0
 40
0.5524295597
 41
-2.5629558053
 42
-2.5550669872
1001
ACAD
1000
RTMaterial
1005
0
  0
ELLIPSE
  5
60F60
330
1F
100
AcDbEntity
  8
1
100
AcDbEllipse
 10
45.97515844199995
 20
-0.0000000000000568
 30
0.0
 11
5.542055702400002
 21
36.5754525729
 31
0.0
210
0.0
220
0.0
230
1.0
 40
0.2418325815
 41
-0.1487150551
 42
-0.0770715803
1001
ACAD
1000
RTMaterial
1005
0
  0
ELLIPSE
  5
60F61
330
1F
100
AcDbEntity
  8
1
100
AcDbEllipse
 10
51.1469130120999
 20
31.25340141819993
 30
0.0
 11
-2.522367721899999
 21
0.3806746899000002
 31
0.0
210
0.0
220
0.0
230
1.0
 40
0.0812499867
 41
-0.46007086
 42
-0.1978005773
1001
ACAD
1000
RTMaterial
1005
0
  0
ELLIPSE
  5
60F62
330
1F
100
AcDbEntity
  8
1
100
AcDbEllipse
 10
51.58391395289993
 20
24.07596978259988
 30
0.0
 11
-2.129612932899999
 21
0.5021186927000001
 31
0.0
210
0.0
220
0.0
230
1.0
 40
0.0192584756
 41
-4.1972402854
 42
-3.874578902
1001
ACAD
1000
RTMaterial
1005
0
  0
ELLIPSE
  5
60F63
330
1F
100
AcDbEntity
  8
1
100
AcDbEllipse
 10
54.01374261809991
 20
27.6828020829999
 30
0.0
 11
5.666870391600002
 21
12.5653026789
 31
0.0
210
0.0
220
0.0
230
1.0
 40
0.1010410836
 41
1.819195403
 42
1.826823477399999
1001
ACAD
1000
RTMaterial
1005
0
  0
ELLIPSE
  5
60F64
330
1F
100
AcDbEntity
  8
1
100
AcDbEllipse
 10
52.57731129709992
 20
32.77108303559993
 30
0.0
 11
0.5612192389000003
 21
3.5976554455
 31
0.0
210
0.0
220
0.0
230
1.0
 40
0.137316117
 41
0.5927524476000001
 42
0.6014719655
1001
ACAD
1000
RTMaterial
1005
0
  0
ELLIPSE
  5
60F65
330
1F
100
AcDbEntity
  8
1
100
AcDbEllipse
 10
66.09476796769993
 20
-0.0000000000000568
 30
0.0
 11
-12.8364984418
 21
36.1678993685
 31
0.0
210
0.0
220
0.0
230
1.0
 40
0.4368333600000001
 41
0.0315283552
 42
0.0779645953
1001
ACAD
1000
RTMaterial
1005
0
  0
ELLIPSE
  5
60F66
330
1F
100
AcDbEntity
  8
1
100
AcDbEllipse
 10
268.1799416460999
 20
-0.0000000000000568
 30
0.0
 11
-235.8059012555
 21
29.65078699370001
 31
0.0
210
0.0
220
0.0
230
1.0
 40
0.0909931424
 41
0.3893033687
 42
0.4319014447
1001
ACAD
1000
RTMaterial
1005
0
  0
ELLIPSE
  5
60F67
330
1F
100
AcDbEntity
  8
1
100
AcDbEllipse
 10
54.55675739809993
 20
10.33057366779991
 30
0.0
 11
0.9702922644000004
 21
10.7390207547
 31
0.0
210
0.0
220
0.0
230
1.0
 40
0.9267898398999999
 41
-0.1017570238
 42
0.0378693163
1001
ACAD
1000
RTMaterial
1005
0
  0
ELLIPSE
  5
60F68
330
1F
100
AcDbEntity
  8
1
100
AcDbEllipse
 10
59.12237577809992
 20
20.54200312359995
 30
0.0
 11
-1.5316980355
 21
0.3450621169000001
 31
0.0
210
0.0
220
0.0
230
1.0
 40
0.0870865575
 41
-4.467702173999999
 42
-3.4641378541
1001
ACAD
1000
RTMaterial
1005
0
  0
ELLIPSE
  5
60F69
330
1F
100
AcDbEntity
  8
1
100
AcDbEllipse
 10
558.7822970927998
 20
-36.23372760670017
 30
0.0
 11
-516.8344162099999
 21
64.81421965940002
 31
0.0
210
0.0
220
0.0
230
1.0
 40
0.075251548
 41
0.2316796891
 42
0.2709296775
1001
ACAD
1000
RTMaterial
1005
0
  0
ELLIPSE
  5
60F6A
330
1F
100
AcDbEntity
  8
1
100
AcDbEllipse
 10
48.69192175399991
 20
29.2542748608999
 30
0.0
 11
-2.3701875655
 21
0.3525254196000001
 31
0.0
210
0.0
220
0.0
230
1.0
 40
0.0700311318
 41
-1.464172001699999
 42
-1.270882900699999
1001
ACAD
1000
RTMaterial
1005
0
  0
ELLIPSE
  5
60F6B
330
1F
100
AcDbEntity
  8
1
100
AcDbEllipse
 10
53.03308663929994
 20
33.25466992589992
 30
0.0
 11
-0.3684395063999998
 21
2.542851898999999
 31
0.0
210
0.0
220
0.0
230
1.0
 40
0.3760865682
 41
-0.1049020823
 42
0.3663439441
1001
ACAD
1000
RTMaterial
1005
0
  0
LINE
  5
60F6C
330
1F
100
AcDbEntity
  8
nocut
100
AcDbLine
 10
0.0
 20
0.0
 30
0.0
 11
62.19999999999998
 21
0.0
 31
0.0
  0
VIEWPORT
  5
6B
102
{ACAD_XDICTIONARY
360
60F8B
102
}
330
50
100
AcDbEntity
 67
     1
  8
0
100
AcDbViewport
 10
155.3592437148233
 20
160.4455827878762
 30
0.0
 40
349.5854424261001
 41
282.2272140146125
 68
     1
 69
     1
 12
155.3592437148233
 22
160.4455827878762
 13
0.0
 23
0.0
 14
10.0
 24
10.0
 15
10.0
 25
10.0
 16
0.0
 26
0.0
 36
1.0
 17
0.0
 27
0.0
 37
0.0
 42
50.0
 43
0.0
 44
0.0
 45
282.2272140146125
 50
0.0
 51
0.0
 72
  1000
 90
    32864
  1

281
     0
 71
     1
 74
     0
110
0.0
120
0.0
130
0.0
111
1.0
121
0.0
131
0.0
112
0.0
122
1.0
132
0.0
 79
     0
146
0.0
  0
VIEWPORT
  5
6D
102
{ACAD_XDICTIONARY
360
60F8D
102
}
330
50
100
AcDbEntity
 67
     1
  8
0
100
AcDbViewport
 10
133.3499939441681
 20
101.5999939441681
 30
0.0
 40
213.3599903106689
 41
162.5599903106689
 68
     2
 69
     2
 12
210.0
 22
148.5
 13
0.0
 23
0.0
 14
10.0
 24
10.0
 15
10.0
 25
10.0
 16
0.0
 26
0.0
 36
1.0
 17
0.0
 27
0.0
 37
0.0
 42
50.0
 43
0.0
 44
0.0
 45
324.0677920111345
 50
0.0
 51
0.0
 72
   100
 90
    32864
  1

281
     0
 71
     1
 74
     0
110
0.0
120
0.0
130
0.0
111
1.0
121
0.0
131
0.0
112
0.0
122
1.0
132
0.0
 79
     0
146
0.0
  0
ENDSEC
  0
SECTION
  2
OBJECTS
  0
DICTIONARY
  5
C
330
0
100
AcDbDictionary
281
     1
  3
ACAD_COLOR
350
85
  3
ACAD_GROUP
350
D
  3
ACAD_LAYOUT
350
1A
  3
ACAD_MATERIAL
350
84
  3
ACAD_MLINESTYLE
350
17
  3
ACAD_PLOTSETTINGS
350
19
  3
ACAD_PLOTSTYLENAME
350
E
  3
ACAD_TABLESTYLE
350
A1
  3
ACDBHEADERROUNDTRIPXREC
350
60F86
  3
AcDbVariableDictionary
350
5E
  3
ASE_INDEX_DICTIONARY
350
349E9
  3
DWGPROPS
350
60F85
  0
DICTIONARY
  5
E2
330
2
100
AcDbDictionary
280
     1
281
     1
  3
ACAD_LAYERFILTERS
360
60F74
  3
ACAD_LAYERSTATES
360
3759A
  3
ACLYDICTIONARY
360
60F73
  0
DICTIONARY
  5
31EE
330
1F
100
AcDbDictionary
280
     1
281
     1
  3
ACAD_SORTENTS
360
31EF
  0
DICTIONARY
  5
43668
330
680
100
AcDbDictionary
280
     1
281
     1
  3
ACAD_SORTENTS
360
43669
  0
DICTIONARY
  5
60F8F
330
71
100
AcDbDictionary
280
     1
281
     1
  3
ACAD_XREC_ROUNDTRIP
360
60F90
  0
DICTIONARY
  5
60F91
330
73
100
AcDbDictionary
280
     1
281
     1
  3
ACAD_XREC_ROUNDTRIP
360
60F92
  0
DICTIONARY
  5
60915
330
60908
100
AcDbDictionary
280
     1
281
     1
  3
ACAD_DIMASSOC
360
6091F
  0
DICTIONARY
  5
6092D
330
60920
100
AcDbDictionary
280
     1
281
     1
  3
ACAD_DIMASSOC
360
60937
  0
DICTIONARY
  5
60945
330
60938
100
AcDbDictionary
280
     1
281
     1
  3
ACAD_DIMASSOC
360
6094F
  0
DICTIONARY
  5
609AB
330
6099E
100
AcDbDictionary
280
     1
281
     1
  3
ACAD_DIMASSOC
360
609B5
  0
DICTIONARY
  5
60F8B
330
6B
100
AcDbDictionary
280
     1
281
     1
  3
ACAD_XREC_ROUNDTRIP
360
60F8C
  0
DICTIONARY
  5
60F8D
330
6D
100
AcDbDictionary
280
     1
281
     1
  3
ACAD_XREC_ROUNDTRIP
360
60F8E
  0
DICTIONARY
  5
85
102
{ACAD_REACTORS
330
C
102
}
330
C
100
AcDbDictionary
281
     1
  0
DICTIONARY
  5
D
102
{ACAD_REACTORS
330
C
102
}
330
C
100
AcDbDictionary
281
     1
  0
DICTIONARY
  5
1A
102
{ACAD_REACTORS
330
C
102
}
330
C
100
AcDbDictionary
281
     1
  3
\M+1838C\M+18343\M+18341\M+18345\M+183671
350
51
  3
\M+1838C\M+18343\M+18341\M+18345\M+183672
350
56
  3
Model
350
22
  0
DICTIONARY
  5
84
102
{ACAD_REACTORS
330
C
102
}
330
C
100
AcDbDictionary
281
     1
  0
DICTIONARY
  5
17
102
{ACAD_REACTORS
330
C
102
}
330
C
100
AcDbDictionary
281
     1
  3
Standard
350
18
  0
DICTIONARY
  5
19
102
{ACAD_REACTORS
330
C
102
}
330
C
100
AcDbDictionary
281
     1
  0
ACDBDICTIONARYWDFLT
  5
E
102
{ACAD_REACTORS
330
C
102
}
330
C
100
AcDbDictionary
281
     1
  3
Normal
350
F
100
AcDbDictionaryWithDefault
340
F
  0
DICTIONARY
  5
A1
102
{ACAD_REACTORS
330
C
102
}
330
C
100
AcDbDictionary
281
     1
  3
Standard
350
A2
  0
DICTIONARY
  5
60F86
102
{ACAD_REACTORS
330
C
102
}
330
C
100
AcDbDictionary
281
     1
  0
DICTIONARY
  5
5E
102
{ACAD_REACTORS
330
C
102
}
330
C
100
AcDbDictionary
281
     1
  3
CTABLESTYLE
350
B8
  3
DIMASSOC
350
5F
  3
HIDETEXT
350
63
  3
PROJECTNAME
350
31CE
  0
DICTIONARY
  5
349E9
102
{ACAD_REACTORS
330
C
102
}
330
C
100
AcDbDictionary
281
     1
  3
ASEBlockHierarchyIndexRecord
350
349EA
1001
DCO15
1040
1842496176.844
  0
XRECORD
  5
60F85
102
{ACAD_REACTORS
330
C
102
}
330
C
100
AcDbXrecord
280
     1
  1
DWGPROPS COOKIE
  2

  3

  4

  6

  7

  8

  9

300
=
301
=
302
=
303
=
304
=
305
=
306
=
307
=
308
=
309
=
 40
2.015485081018518
 41
2455489.391063368
 42
2458416.654684699
  1

 90
        0
  0
DICTIONARY
  5
60F74
102
{ACAD_REACTORS
330
E2
102
}
330
E2
100
AcDbDictionary
281
     1
  0
DICTIONARY
  5
3759A
102
{ACAD_REACTORS
330
E2
102
}
330
E2
100
AcDbDictionary
281
     1
  0
DICTIONARY
  5
60F73
102
{ACAD_REACTORS
330
E2
102
}
330
E2
100
AcDbDictionary
281
     1
1001
ACAD
1000
<All
  0
SORTENTSTABLE
  5
31EF
102
{ACAD_REACTORS
330
31EE
102
}
330
31EE
100
AcDbSortentsTable
330
1F
331
60802
  5
60808
331
607E0
  5
607E2
331
60824
  5
6082A
331
60793
  5
60793
331
60813
  5
60819
331
607A4
  5
607A6
331
60800
  5
60806
331
60822
  5
60828
331
60811
  5
60817
331
607A2
  5
607A4
331
607DE
  5
607E0
331
60820
  5
60826
331
6078F
  5
6078F
331
607B1
  5
607B3
331
607ED
  5
607F3
331
6080F
  5
60815
331
607A0
  5
607A2
331
607FE
  5
60804
331
6078D
  5
6078D
331
6080D
  5
60813
331
6079E
  5
607A0
331
6081E
  5
60824
331
607FC
  5
60802
331
6078B
  5
6078B
331
6079C
  5
6079C
331
6081C
  5
60822
331
60789
  5
60789
331
607AB
  5
607AD
331
607E7
  5
607E9
331
6082B
  5
60831
331
6081A
  5
60820
331
607F8
  5
607FE
331
5CD11
  5
5CD11
331
607A9
  5
607AB
331
60807
  5
6080D
331
607E5
  5
607E7
331
60829
  5
6082F
331
60798
  5
60798
331
60818
  5
6081E
331
60787
  5
60787
331
60805
  5
6080B
331
60827
  5
6082D
331
60816
  5
6081C
331
607F4
  5
607FA
331
60785
  5
60785
331
60803
  5
60809
331
607E1
  5
607E3
331
60825
  5
6082B
331
60794
  5
60794
331
607B6
  5
607B8
331
60814
  5
6081A
331
607F2
  5
607F8
331
607A5
  5
607A7
331
60801
  5
60807
331
60823
  5
60829
331
60792
  5
60792
331
60812
  5
60818
331
60781
  5
60781
331
607A3
  5
607A5
331
60821
  5
60827
331
60790
  5
60790
331
607B2
  5
607B4
331
60810
  5
60816
331
6077F
  5
6077F
331
607FF
  5
60805
331
6078E
  5
6078E
331
607B0
  5
607B2
331
6080E
  5
60814
331
6079F
  5
607A1
331
6081F
  5
60825
331
607FD
  5
60803
331
6079D
  5
6079D
331
607FB
  5
60801
331
6081D
  5
60823
331
68C
  5
435D5
331
6078A
  5
6078A
331
607AC
  5
607AE
331
6082C
  5
60832
331
6079B
  5
6079B
331
6081B
  5
60821
331
60788
  5
60788
331
607AA
  5
607AC
331
60808
  5
6080E
331
607E6
  5
607E8
331
6082A
  5
60830
331
60819
  5
6081F
331
60806
  5
6080C
331
607E4
  5
607E6
331
60828
  5
6082E
331
60797
  5
60797
331
607B9
  5
607BB
331
60817
  5
6081D
331
60786
  5
60786
331
607C0
  5
607C2
331
60804
  5
6080A
331
607E2
  5
607E4
331
60826
  5
6082C
331
60795
  5
60795
331
60815
  5
6081B
331
607F3
  5
607F9
331
60784
  5
60784
331
607A6
  5
607A8
  0
SORTENTSTABLE
  5
43669
102
{ACAD_REACTORS
330
43668
102
}
330
43668
100
AcDbSortentsTable
330
680
  0
XRECORD
  5
60F90
102
{ACAD_REACTORS
330
60F8F
102
}
330
60F8F
100
AcDbXrecord
280
     1
102
SHADEPLOT
 70
     0
  0
XRECORD
  5
60F92
102
{ACAD_REACTORS
330
60F91
102
}
330
60F91
100
AcDbXrecord
280
     1
102
SHADEPLOT
 70
     0
  0
DIMASSOC
  5
6091F
102
{ACAD_REACTORS
330
60915
102
}
330
60915
100
AcDbDimAssoc
330
60908
 90
        3
 70
     0
 71
     0
  1
AcDbOsnapPointRef
 72
     1
331
607AA
 73
     2
 91
        0
 40
1.0
 10
0.0
 20
0.0
 30
2.000000000000000E+50
 75
     0
  1
AcDbOsnapPointRef
 72
     1
331
6078F
 73
     2
 91
        0
 40
1.0
 10
0.0
 20
0.0
 30
2.000000000000000E+50
 75
     0
  0
DIMASSOC
  5
60937
102
{ACAD_REACTORS
330
6092D
102
}
330
6092D
100
AcDbDimAssoc
330
60920
 90
        3
 70
     0
 71
     0
  1
AcDbOsnapPointRef
 72
    13
331
607FC
 73
     2
 91
        0
 40
1.570796326794896
 10
0.0
 20
0.0
 30
2.000000000000000E+50
 75
     0
  1
AcDbOsnapPointRef
 72
     1
331
607FD
 73
     2
 91
        0
 40
4.712388980384689
 10
0.0
 20
0.0
 30
2.000000000000000E+50
 75
     0
  0
DIMASSOC
  5
6094F
102
{ACAD_REACTORS
330
60945
102
}
330
60945
100
AcDbDimAssoc
330
60938
 90
        3
 70
     0
 71
     0
  1
AcDbOsnapPointRef
 72
    13
331
607FD
 73
     2
 91
        0
 40
3.141592653589793
 10
0.0
 20
0.0
 30
2.000000000000000E+50
 75
     0
  1
AcDbOsnapPointRef
 72
    13
331
607A6
 73
     2
 91
        0
 40
0.0
 10
0.0
 20
0.0
 30
2.000000000000000E+50
 75
     0
  0
DIMASSOC
  5
609B5
102
{ACAD_REACTORS
330
609AB
102
}
330
609AB
100
AcDbDimAssoc
330
6099E
 90
        2
 70
     0
 71
     0
  1
AcDbOsnapPointRef
 72
     1
331
607FC
 73
     2
 91
        0
 40
3.141592653589793
 10
0.0
 20
0.0
 30
2.000000000000000E+50
 75
     0
  0
XRECORD
  5
60F8C
102
{ACAD_REACTORS
330
60F8B
102
}
330
60F8B
100
AcDbXrecord
280
     1
102
SHADEPLOT
 70
     0
  0
XRECORD
  5
60F8E
102
{ACAD_REACTORS
330
60F8D
102
}
330
60F8D
100
AcDbXrecord
280
     1
102
SHADEPLOT
 70
     0
  0
LAYOUT
  5
51
102
{ACAD_XDICTIONARY
360
B2
102
}
102
{ACAD_REACTORS
330
1A
102
}
330
1A
100
AcDbPlotSettings
  1

  2
none_device
  4
Letter_(8.50_x_11.00_Inches)
  6

 40
6.349999904632567
 41
6.349999904632567
 42
6.350006103515625
 43
6.350006103515625
 44
215.8999938964844
 45
279.3999938964844
 46
0.0
 47
0.0
 48
0.0
 49
0.0
140
0.0
141
0.0
142
1.0
143
1.0
 70
   688
 72
     1
 73
     1
 74
     5
  7

 75
    16
147
1.0
148
0.0
149
0.0
100
AcDbLayout
  1
\M+1838C\M+18343\M+18341\M+18345\M+183671
 70
     1
 71
     1
 10
-6.350006103515625
 20
-6.349999904632567
 11
273.0499877929688
 21
209.5499939918518
 12
0.0
 22
0.0
 32
0.0
 14
26.66999878883364
 24
20.31999878883365
 34
0.0
 15
240.0299890995025
 25
182.8799890995025
 35
0.0
146
0.0
 13
0.0
 23
0.0
 33
0.0
 16
1.0
 26
0.0
 36
0.0
 17
0.0
 27
1.0
 37
0.0
 76
     0
330
50
331
6B
  0
LAYOUT
  5
56
102
{ACAD_XDICTIONARY
360
B5
102
}
102
{ACAD_REACTORS
330
1A
102
}
330
1A
100
AcDbPlotSettings
  1

  2
none_device
  4
Letter_(8.50_x_11.00_Inches)
  6

 40
6.349999904632567
 41
6.349999904632567
 42
6.350006103515625
 43
6.350006103515625
 44
215.8999938964844
 45
279.3999938964844
 46
0.0
 47
0.0
 48
0.0
 49
0.0
140
0.0
141
0.0
142
1.0
143
1.0
 70
   688
 72
     1
 73
     1
 74
     5
  7

 75
    16
147
1.0
148
0.0
149
0.0
100
AcDbLayout
  1
\M+1838C\M+18343\M+18341\M+18345\M+183672
 70
     1
 71
     2
 10
-6.350006103515625
 20
-6.349999904632567
 11
273.0499877929688
 21
209.5499939918518
 12
0.0
 22
0.0
 32
0.0
 14
26.66999878883363
 24
20.31999878883363
 34
0.0
 15
240.0299890995026
 25
182.8799890995025
 35
0.0
146
0.0
 13
0.0
 23
0.0
 33
0.0
 16
1.0
 26
0.0
 36
0.0
 17
0.0
 27
1.0
 37
0.0
 76
     0
330
55
331
71
  0
LAYOUT
  5
22
102
{ACAD_XDICTIONARY
360
60F87
102
}
102
{ACAD_REACTORS
330
1A
102
}
330
1A
100
AcDbPlotSettings
  1

  2
none_device
  4
ANSI_A_(8.50_x_11.00_Inches)
  6

 40
6.349999904632567
 41
19.04999923706055
 42
6.350006103515625
 43
19.04998779296875
 44
215.8999938964844
 45
279.3999938964844
 46
0.0
 47
0.0
 48
0.0
 49
0.0
140
0.0
141
0.0
142
1.0
143
78.436453180766
 70
 11952
 72
     0
 73
     1
 74
     0
  7

 75
     0
147
0.0127491741332998
148
0.0
149
0.0
100
AcDbLayout
  1
Model
 70
     1
 71
     0
 10
0.0
 20
0.0
 11
12.0
 21
9.0
 12
0.0
 22
0.0
 32
0.0
 14
0.0
 24
0.0
 34
0.0
 15
0.0
 25
0.0
 35
0.0
146
0.0
 13
0.0
 23
0.0
 33
0.0
 16
1.0
 26
0.0
 36
0.0
 17
0.0
 27
1.0
 37
0.0
 76
     0
330
1F
  0
MLINESTYLE
  5
18
102
{ACAD_REACTORS
330
17
102
}
330
17
100
AcDbMlineStyle
  2
STANDARD
 70
     0
  3

 62
   256
 51
90.0
 52
90.0
 71
     2
 49
0.5
 62
   256
  6
BYLAYER
 49
-0.5
 62
   256
  6
BYLAYER
  0
ACDBPLACEHOLDER
  5
F
102
{ACAD_REACTORS
330
E
102
}
330
E
  0
TABLESTYLE
  5
A2
102
{ACAD_REACTORS
330
A1
102
}
330
A1
100
AcDbTableStyle
  3
Standard
 70
     0
 71
     0
 40
1.5
 41
1.5
280
     0
281
     0
  7
Standard
140
4.5
170
     2
 62
     0
 63
     7
283
     0
274
    -2
284
     1
 64
     0
275
    -2
285
     1
 65
     0
276
    -2
286
     1
 66
     0
277
    -2
287
     1
 67
     0
278
    -2
288
     1
 68
     0
279
    -2
289
     1
 69
     0
  7
Standard
140
6.0
170
     5
 62
     0
 63
     7
283
     0
274
    -2
284
     1
 64
     0
275
    -2
285
     1
 65
     0
276
    -2
286
     1
 66
     0
277
    -2
287
     1
 67
     0
278
    -2
288
     1
 68
     0
279
    -2
289
     1
 69
     0
  7
Standard
140
4.5
170
     5
 62
     0
 63
     7
283
     0
274
    -2
284
     1
 64
     0
275
    -2
285
     1
 65
     0
276
    -2
286
     1
 66
     0
277
    -2
287
     1
 67
     0
278
    -2
288
     1
 68
     0
279
    -2
289
     1
 69
     0
  0
DICTIONARYVAR
  5
B8
102
{ACAD_REACTORS
330
5E
102
}
330
5E
100
DictionaryVariables
280
     0
  1
STANDARD
  0
DICTIONARYVAR
  5
5F
102
{ACAD_REACTORS
330
5E
102
}
330
5E
100
DictionaryVariables
280
     0
  1
2
  0
DICTIONARYVAR
  5
63
102
{ACAD_REACTORS
330
5E
102
}
330
5E
100
DictionaryVariables
280
     0
  1
1
  0
DICTIONARYVAR
  5
31CE
102
{ACAD_REACTORS
330
5E
102
}
330
5E
100
DictionaryVariables
280
     0
  1

  0
XRECORD
  5
349EA
102
{ACAD_REACTORS
330
349E9
102
}
330
349E9
100
AcDbXrecord
280
     1
330
68C
330
431D
330
431E
330
4329
330
4334
330
4335
330
4B09
330
4B0A
330
5153
330
5154
330
515D
330
515E
330
516A
330
516B
330
5177
330
5178
330
85B4
330
85B5
330
8620
330
8621
330
862A
330
862B
330
8637
330
8638
330
8644
330
8645
330
9773
330
9774
330
977D
330
977E
330
978A
330
978B
330
9797
330
9798
330
BD86
330
BD87
330
BD8F
330
BD90
330
BD98
330
BDA0
330
BDA1
330
BDDD
330
BDDE
330
BDE7
330
BDE8
330
BDF4
330
BDF5
330
BE01
330
BE02
330
E473
330
E474
330
E48D
330
E48E
330
E485
330
E47C
330
E47D
330
E4CC
330
E4CD
330
E4D7
330
E4D8
330
1C63B
330
1C63C
330
1C705
330
1C706
330
1C719
330
1C71A
330
1C72E
330
1C72F
330
1C738
330
1C739
330
27043
330
27044
330
2703A
330
2703B
330
2CF2C
330
2CF2D
330
2CF38
330
2CF39
330
2CF42
330
2CF43
330
2CF4F
330
2CF50
330
2CF59
330
2CF5A
330
2FA31
330
2FA32
330
2FA3D
330
2FA3E
330
2FA4A
330
2FA4B
330
2FA54
330
2FA55
330
329D8
330
329D9
330
329E1
330
329E2
330
329EA
330
329EB
330
329F3
330
329F4
330
32E63
330
32E64
330
32E6F
330
32E70
330
32E79
330
32E7A
330
32E88
330
32E89
330
32E92
330
32E93
  0
DICTIONARY
  5
B2
330
51
100
AcDbDictionary
280
     1
281
     1
  3
ACAD_XREC_ROUNDTRIP
360
60F89
  3
ADSK_XREC_LAYOUTTHUMBNAIL
360
B3
  0
DICTIONARY
  5
B5
330
56
100
AcDbDictionary
280
     1
281
     1
  3
ACAD_XREC_ROUNDTRIP
360
60F8A
  3
ADSK_XREC_LAYOUTTHUMBNAIL
360
B6
  0
DICTIONARY
  5
60F87
330
22
100
AcDbDictionary
280
     1
281
     1
  3
ACAD_XREC_ROUNDTRIP
360
60F88
  0
XRECORD
  5
60F89
102
{ACAD_REACTORS
330
B2
102
}
330
B2
100
AcDbXrecord
280
     1
102
SHADEPLOT
 70
     0
102
SHADEPLOTRESLEVEL
 70
     2
102
SHADEPLOTCUSTOMDPI
 70
   300
  0
XRECORD
  5
B3
102
{ACAD_REACTORS
330
B2
102
}
330
B2
100
AcDbXrecord
280
     1
310
28000000B40000008B0000000100080000000000BC61000000000000000000000001000000000000FFFFFF0000000000FFFFFF000000000000000000000000000000000000000000000000000000000000000000330000006600000099000000CC000000FF00000000330000333300006633000099330000CC330000FF3300
310
0000660000336600006666000099660000CC660000FF66000000990000339900006699000099990000CC990000FF99000000CC000033CC000066CC000099CC0000CCCC0000FFCC000000FF000033FF000066FF000099FF0000CCFF0000FFFF000000003300330033006600330099003300CC003300FF003300003333003333
310
33006633330099333300CC333300FF33330000663300336633006666330099663300CC663300FF66330000993300339933006699330099993300CC993300FF99330000CC330033CC330066CC330099CC3300CCCC3300FFCC330000FF330033FF330066FF330099FF3300CCFF3300FFFF330000006600330066006600660099
310
006600CC006600FF00660000336600333366006633660099336600CC336600FF33660000666600336666006666660099666600CC666600FF66660000996600339966006699660099996600CC996600FF99660000CC660033CC660066CC660099CC6600CCCC6600FFCC660000FF660033FF660066FF660099FF6600CCFF6600
310
FFFF660000009900330099006600990099009900CC009900FF00990000339900333399006633990099339900CC339900FF33990000669900336699006666990099669900CC669900FF66990000999900339999006699990099999900CC999900FF99990000CC990033CC990066CC990099CC9900CCCC9900FFCC990000FF99
310
0033FF990066FF990099FF9900CCFF9900FFFF99000000CC003300CC006600CC009900CC00CC00CC00FF00CC000033CC003333CC006633CC009933CC00CC33CC00FF33CC000066CC003366CC006666CC009966CC00CC66CC00FF66CC000099CC003399CC006699CC009999CC00CC99CC00FF99CC0000CCCC0033CCCC0066CC
310
CC0099CCCC00CCCCCC00FFCCCC0000FFCC0033FFCC0066FFCC0099FFCC00CCFFCC00FFFFCC000000FF003300FF006600FF009900FF00CC00FF00FF00FF000033FF003333FF006633FF009933FF00CC33FF00FF33FF000066FF003366FF006666FF009966FF00CC66FF00FF66FF000099FF003399FF006699FF009999FF00CC
310
99FF00FF99FF0000CCFF0033CCFF0066CCFF0099CCFF00CCCCFF00FFCCFF0000FFFF0033FFFF0066FFFF0099FFFF00CCFFFF00FFFFFF00000000000D0D0D001A1A1A00282828003535350043434300505050005D5D5D006B6B6B00787878008686860093939300A1A1A100AEAEAE00BBBBBB00C9C9C900D6D6D600E4E4E400
310
F1F1F100FFFFFF0000000000000000000000000000000000000000000000000000000000000000000000000000000000EFEFEFE2E2E2E2E2E2E2E2E2E2E2E2E2E2E2E2E2E2E2E2E2E2E2E2E2E2E2E2E2E2E2E2E2E2E2E2E2E2E2E2E2E2E2E2E2E2E2E2E2E2E2E2E2E2E2E2E2E2E2E2E2E2E2E2E2E2E2E2E2E2E2E2E2E2E2E2
310
E2E2E2E2E2E2E2E2E2E2E2E2E2E2E2E2E2E2E2E2E2E2E2E2E2E2E2E2E2E2E2E2E2E2E2E2E2E2E2E2E2E2E2E2E2E2E2E2E2E2E2E2E2E2E2E2E2E2E2E2E2E2E2E2E2E2E2E2E2E2E2E2E2E2E2E2E2E2E2E2E2E2E2E2E2E2E2E2E2E2E2E2E2E2E2E2E2E2E2E2E2E2E2E2E2E2E2E2E2E2E2E2E2E2E2E2E2E2E2E2E2E2E2E2E2E2E2
310
E2E2E2E2E2E2E2E2E2E2E2E2E2E2E2E2E2E2E2E2E2E2E2E2E2E2E2E2E2E2E2E2E2E2E2E2E2E2E2E2E2E2E2E2E2E2E2E2E2E2E2E2E2E2E2E2E2E2E2E2E2E2E2E2E2E2E2E2E2E2E2E2E2E2E2E2E2E2E2E2E2E2E2E2E2E2E2E2E2E2E2E2E2E2E2E2E2E2E2E2E2E2E2E2E2E2E2E2E2E2E2E2E2E2E2E2E2E2E2E2E2E2E2E2E2E2E2
310
E2E2E2E2E2E2E2E2E2E2E2E2E2E2E2E2E2E2E2E2E2E2E2E2E2E2E2E2F5F5F5F5F5F5F5F5F5F5F5F5F5F5F5F5F5F5F5F5F5F5F5F5F5F5F5F5F5F5F5F5F5F5F5F5F5F5F5F5F5F5F5F5F5F5F5F5F5F5F5F5F5F5F5F5F5F5F5F5F5F5F5F5F5F5F5F5F5F5F5F5F5F5F5F5F5F5F5F5F5F5F5F5F5F5F5F5F5F5F5F5F5F5F5F5F5F5F5
310
F5F5F5F5F5F5F5F5F5F5F5F5F5F5F5F5F5F5F5F5F5F5F5F5F5F5F5F5F5F5F5F5F5F5F5F5F5F5F5F5F5F5F5F5F5F5F5F5F5F5F5F5F5F5F5F5F5F5F5F5F5F5F5F5F5F5F5F5F5F5F5F5F5F5F5F5F5F5F5E2E2F5F5F5F5F5F5F5F5F5F5F5F5F5F5F5F5F5F5F5F5F5F5F5F5F5F5F5F5F5F5F5F5F5F5F5F5F5F5F5F5F5F5F5F5F5F5
310
F5F5F5F5F5F5F5F5F5F5F5F5F5F5F5F5F5F5F5F5F5F5F5F5F5F5F5F5F5F5F5F5F5F5F5F5F5F5F5F5F5F5F5F5F5F5F5F5F5F5F5F5F5F5F5F5F5F5F5F5F5F5F5F5F5F5F5F5F5F5F5F5F5F5F5F5F5F5F5F5F5F5F5F5F5F5F5F5F5F5F5F5F5F5F5F5F5F5F5F5F5F5F5F5F5F5F5F5F5F5F5F5F5F5F5F5F5F5F5F5F5F5F5F5F5F5F5
310
F5F5F5F5F5E2E2F5F5F5F5F5F5F5F5F5F5F5F5F5F5F5F5F5F5F5F5F5F5F5F5F5F5F5F5F5F5F5F5F5F5F5F5F5F5F5F5F5F5F5F5F5F5F5F5F5F5F5F5F5F5F5F5F5F5F5F5F5F5F5F5F5F5F5F5F5F5F5F5F5F5F5F5F5F5F5F5F5F5F5F5F5F5F5F5F5F5F5F5F5F5F5F5F5F5F5F5F5F5F5F5F5F5F5F5F5F5F5F5F5F5F5F5F5F5F5F5
310
F5F5F5F5F5F5F5F5F5F5F5F5F5F5F5F5F5F5F5F5F5F5F5F5F5F5F5F5F5F5F5F5F5F5F5F5F5F5F5F5F5F5F5F5F5F5F5F5F5F5F5F5F5F5F5F5F5F5E2E2F5F5F5F5E2E2E2E2E2E2E2E2F5F5F5F5F5F5F5F5F5E2E2E2E2E2E2E2E2E2E2E2E2E2E2E2F5F5F5F5F5F5F5F5F5E2E2E2E2E2E2E2E2E2E2E2E2E2E2E2E2F5F5F5F5F5F5
310
F5F5E2E2E2E2E2E2E2E2E2E2E2E2E2E2E2E2F5F5F5F5F5F5F5F5E2E2E2E2E2E2E2E2E2E2E2E2E2E2E2E2F5F5F5F5F5F5F5F5E2E2E2E2E2E2E2E2E2E2E2E2E2E2E2E2F5F5F5F5F5F5F5F5F5E2E2E2E2E2E2E2E2E2E2E2E2E2E2E2F5F5F5F5F5F5F5F5F5E2E2E2E2E2E2E2E2F5F5F5F5E2E2F5F5F5F5E2F5F5F5F5F5F5F5F5F5
310
F5F5F5F5F5F5F5F5F5F5F5F5F5F5F5F5F5F5F5F5F5F5F5F5F5F5F5F5F5F5F5F5F5F5F5F5F5F5F5F5F5F5F5F5F5F5F5F5F5F5F5F5F5F5F5F5F5F5F5F5F5F5F5F5F5F5F5F5F5F5F5F5F5F5F5F5F5F5F5F5F5F5F5F5F5F5F5F5F5F5F5F5F5F5F5F5F5F5F5F5F5F5F5F5F5F5F5F5F5F5F5F5F5F5F5F5F5F5F5F5F5F5F5F5F5F5F5
310
F5F5F5F5F5F5F5F5F5F5F5F5F5F5F5F5F5F5F5F5F5F5F5F5F5F5F5F5F5F5F5F5E2F5F5F5F5E2E2F5F5F5F5E2F5F5F5F5F5F5F5F5F5F5F5F5F5F5F5F5F5F5F5F5F5F5F5F5F5F5F5F5F5F5F5F5F5F5F5F5F5F5F5F5F5F5F5F5F5F5F5F5F5F5F5F5F5F5F5F5F5F5F5F5F5F5F5F5F5F5F5F5F5F5F5F5F5F5F5F5F5F5F5F5F5F5F5
310
F5F5F5F5F5F5F5F5F5F5F5F5F5F5F5F5F5F5F5F5F5F5F5F5F5F5F5F5F5F5F5F5F5F5F5F5F5F5F5F5F5F5F5F5F5F5F5F5F5F5F5F5F5F5F5F5F5F5F5F5F5F5F5F5F5F5F5F5F5F5F5F5F5F5F5F5F5F5F5F5F5F5F5F5F5E2F5F5F5F5E2E2F5F5F5F5E2F5F5F5F5F5F5F5F5F5F5F5F5F5F5F5F5F5F5F5F5F5F5F5F5F5F5F5F5F5F5
310
F5F5F5F5F5F5F5F5F5F5F5F5F5F5F5F5F5F5F5F5F5F5F5F5F5F5F5F5F5F5F5F5F5F5F5F5F5F5F5F5F5F5F5F5F5F5F5F5F5F5F5F5F5F5F5F5F5F5F5F5F5F5F5F5F5F5F5F5F5F5F5F5F5F5F5F5F5F5F5F5F5F5F5F5F5F5F5F5F5F5F5F5F5F5F5F5F5F5F5F5F5F5F5F5F5F5F5F5F5F5F5F5F5F5F5F5F5F5F5F5F5F5F5F5F5F5F5
310
F5F5F5F5F5F5F5F5F5F5F5E2F5F5F5F5E2E2F5F5F5F5E2F5F5F5F5F5F5F5F5F5F5F5F5F5F5F5F5F5F5F5F5F5F5F5F5F5F5F5F5F5F5F5F5F5F5F5F5F5F5F5F5F5F5F5F5F5F5F5F5F5F5F5F5F5F5F5F5F5F5F5F5F5F5F5F5F5F5F5F5F5F5F5F5F5F5F5F5F5F5F5F5F5F5F5F5F5F5F5F5F5F5F5F5F5F5F5F5F5F5F5F5F5F5F5F5
310
F5F5F5F5F5F5F5F5F5F5F5F5F5F5F5F5F5F5F5F5F5F5F5F5F5F5F5F5F5F5F5F5F5F5F5F5F5F5F5F5F5F5F5F5F5F5F5F5F5F5F5F5F5F5F5F5F5F5F5F5F5F5F5F5E2F5F5F5F5E2E2F5F5F5F5E2F5F5F5F5F5F5F5F5F5F5F5F5F5F5F5F5F5F5F5F5F5F5F5F5F5F5F5F5F5F5F5F5F5F5F5F5F5F5F5F5F5F5F5F5F5F5F5F5F5F5F5
310
F5F5F5F5F5F5F5F5F5F5F5F5F5F5F5F5F5F5F5F5F5F5F5F5F5F5F5F5F5F5F5F5F5F5F5F5F5F5F5F5F5F5F5F5F5F5F5F5F5F5F5F5F5F5F5F5F5F5F5F5F5F5F5F5F5F5F5F5F5F5F5F5F5F5F5F5F5F5F5F5F5F5F5F5F5F5F5F5F5F5F5F5F5F5F5F5F5F5F5F5F5F5F5F5F5F5F5F5F5F5F5F5F5F5F5F5F5E2F5F5F5F5E2E2F5F5F5
310
F5E2F5F5F5F5F5F5F5F5F5F5F5F5F5F5F5F5F5F5F5F5F5F5F5F5F5F5F5F5F5F5F5F5F5F5F5F5F5F5F5F5F5F5F5F5F5F5F5F5F5F5F5F5F5F5F5F5F5F5F5F5F5F5F5F5F5F5F5F5F5F5F5F5F5F5F5F5F5F5F5F5F5F5F5F5F5F5F5F5F5F5F5F5F5F5F5F5F5F5F5F5F5F5F5F5F5F5F5F5F5F5F5F5F5F5F5F5F5F5F5F5F5F5F5F5F5
310
F5F5F5F5F5F5F5F5F5F5F5F5F5F5F5F5F5F5F5F5F5F5F5F5F5F5F5F5F5F5F5F5F5F5F5F5F5F5F5F5F5F5F5E2F5F5F5F5E2E2F5F5F5F5E2F5F5F5F5F5F5F5F5F5F5F5F5F5F5F5F5F5F5F5F5F5F5F5F5F5F5F5F5F5F5F5F5F5F5F5F5F5F5F5F5F5F5F5F5F5F5F5F5F5F5F5F5F5F5F5F5F5F5F5F5F5F5F5F5F5F5F5F5F5F5F5F5
310
F5F5F5F5F5F5F5F5F5F5F5F5F5F5F5F5F5F5F5F5F5F5F5F5F5F5F5F5F5F5F5F5F5F5F5F5F5F5F5F5F5F5F5F5F5F5F5F5F5F5F5F5F5F5F5F5F5F5F5F5F5F5F5F5F5F5F5F5F5F5F5F5F5F5F5F5F5F5F5F5F5F5F5F5F5F5F5F5F5F5F5F5F5F5F5F5E2F5F5F5F5E2E2F5F5F5F5E2F5F5F5F5F5F5F5F5F5F5F5F5F5F5F5F5F5F5F5
310
F5F5F5F5F5F5F5F5F5F5F5F5F5F5F5F5F5F5F5F5F5F5F5F5F5F5F5F5F5F5F5F5F5F5F5F5F5F5F5F5F5F5F5F5F5F5F5F5F5F5F5F5F5F5F5F5F5F5F5F5F5F5F5F5F5F5F5F5F5F5F5F5F5F5F5F5F5F5F5F5F5F5F5F5F5F5F5F5F5F5F5F5F5F5F5F5F5F5F5F5F5F5F5F5F5F5F5F5F5F5F5F5F5F5F5F5F5F5F5F5F5F5F5F5F5F5F5
310
F5F5F5F5F5F5F5F5F5F5F5F5F5F5F5F5F5F5F5F5F5F5E2F5F5F5F5E2E2F5F5F5F5F5F5F5F5F5F5F5F5F5F5F5F5F5F5F5F5F5F5F5F5F5F5F5F5F5F5F5F5F5F5F5F5F5F5F5F5F5F5F5F5F5F5F5F5F5F5F5F5F5F5F5F5F5F5F5F5F5F5F5F5F5F5F5F5F5F5F5F5F5F5F5F5F5F5F5F5F5F5F5F5F5F5F5F5F5F5F5F5F5F5F5F5F5F5
310
F5F5F5F5F5F5F5F5F5F5F5F5F5F5F5F5F5F5F5F5F5F5F5F5F5F5F5F5F5F5F5F5F5F5F5F5F5F5F5F5F5F5F5F5F5F5F5F5F5F5F5F5F5F5F5F5F5F5F5F5F5F5F5F5F5F5F5F5F5F5F5F5F5F5F5F5F5F5F5F5E2E2F5F5F5F5F5F5F5F5F5F5F5F5F5F5F5F5F5F5F5F5F5F5F5F5F5F5F5F5F5F5F5F5F5F5F5F5F5F5F5F5F5F5F5F5F5
310
F5F5F5F5F5F5F5F5F5F5F5F5F5F5F5F5F5F5F5F5F5F5F5F5F5F5F5F5F5F5F5F5F5F5F5F5F5F5F5F5F5F5F5F5F5F5F5F5F5F5F5F5F5F5F5F5F5F5F5F5F5F5F5F5F5F5F5F5F5F5F5F5F5F5F5F5F5F5F5F5F5F5F5F5F5F5F5F5F5F5F5F5F5F5F5F5F5F5F5F5F5F5F5F5F5F5F5F5F5F5F5F5F5F5F5F5F5F5F5F5F5F5F5F5F5F5F5
310
F5F5F5F5F5F5E2E2F5F5F5F5F5F5F5F5F5F5F5F5F5F5F5F5F5F5F5F5F5F5F5F5F5F5F5F5F5F5F5F5F5F5F5F5F5F5F5F5F5F5F5F5F5F5F5F5F5F5F5F5F5F5F5F5F5F5F5F5F5F5F5F5F5F5F5F5F5F5F5F5F5F5F5F5F5F5F5F5F5F5F5F5F5F5F5F5F5F5F5F5F5F5F5F5F5F5F5F5F5F5F5F5F5F5F5F5F5F5F5F5F5F5F5F5F5F5F5
310
F5F5F5F5F5F5F5F5F5F5F5F5F5F5F5F5F5F5F5F5F5F5F5F5F5F5F5F5F5F5F5F5F5F5F5F5F5F5F5F5F5F5F5F5F5F5F5F5F5F5F5F5F5F5F5F5F5F5F5E2E2F5F5F5F5F5F5F5F5F5F5F5F5F5F5F5F5F5F5F5F5F5F5F5F5F5F5F5F5F5F5F5F5F5F5F5F5F5F5F5F5F5F5F5F5F5F5F5F5F5F5F5F5F5F5F5F5F5F5F5F5F5F5F5F5F5F5
310
F5F5F5F5F5F5F5F5F5F5F5F5F5F5F5F5F5F5F5F5F5F5F5F5F5F5F5F5F5F5F5F5F5F5F5F5F5F5F5F5F5F5F5F5F5F5F5F5F5F5F5F5F5F5F5F5F5F5F5F5F5F5F5F5F5F5F5F5F5F5F5F5F5F5F5F5F5F5F5F5F5F5F5F5F5F5F5F5F5F5F5F5F5F5F5F5F5F5F5F5F5F5F5F5F5F5F5F5F5F5F5F5E2E2F5F5F5F5F5F5F5F5F5F5F5F5F5
310
F5F5F5F5F5F5F5F5E2E2E2E2E2E2E2E2E2E2E2E2E2E2E2E2E2E2E2E2E2E2E2E2E2E2E2E2E2E2E2E2E2E2E2E2E2E2E2E2E2E2E2E2E2E2E2E2E2E2E2E2E2E2E2E2E2E2E2E2E2E2E2E2E2E2E2E2E2E2E2E2E2E2E2E2E2E2E2E2E2E2E2E2E2E2E2E2E2E2E2E2E2E2E2E2E2E2E2E2E2E2E2E2E2E2E2E2E2E2E2E2E2E2E2E2E2E2E2
310
E2E2E2E2E2E2E2E2E2E2E2E2E2E2E2E2E2F5F5F5F5F5F5F5F5F5F5F5F5F5F5F5F5F5F5F5F5F5E2E2F5F5F5F5F5F5F5F5F5F5F5F5F5F5F5F5F5F5F5F5F5E22D2D2D2DF5F5F5F5E2F5F5F5F5F5F5F52DF5F5F5F5F5F5F5F5F5F5F5F5F5F5F5F5F5F5E2F5F5F5F5F5F5F5F5F5F5F5F5F5F5F5F5F5F5F5F5F5F5F5F5F5F5F5F5F5
310
F5F5F5F5F5F5F5F5F5F5F5F5F5F5F5F5F5F5F5F5F5F5F5F5F5F5F5F5F5F5F5F5F5F5F5F5F5F5F5F5F5F5F5F5F5F5F5F5F5F5F5F5F5F5F5F5F5F5F5F5F5F5F5F5F5F5F5F5F5E2F5F5F5F5F5F5F5F5F5F5F5F5F5F5F5F5F5F5F5F5F5E2E2F5F5F5F5F5F5F5F5F5F5F5F5F5F5F5F5F5F5F5F5F5E2DCF5F52DF5F5F5F5E2F5F5F5
310
F5F5F5F52DF5F5F5F5F5F5F5F5F5F5F5F5F5F5F5F5F5F5E2F5F5F5F5F5F5F5F5F5F5F5F5F5F5F5F5F5F5F5F5F5F5F5F5F5F5F5F5F5F5F5F5F5F5F5F5F5F5F5F5F5F5F5F5F5F5F5F5F5F5F5F5F5F5F5F5F5F5F5F5F5F5F5F5F5F5F5F5F5F5F5F5F5F5F5F5F5F5F5F5F5F5F5F5F5F5F5F5F5F5F5F5F5F5F5F5F5F5E2F5F5F5F5
310
F5F5F5F5F5F5F5F5F5F5F5F5F5F5F5F5F5E2E2F5F5F5F5F5F5F5F5F5F5F5F5F5F5F5F5F5F5F5F5F5E2DCF5F52DF5F5F5F5E2F5F5F5F5F5F5F52DF5F5F5F5F5F5F5F5F5F5F5F5F5F5F5F5F5F5E2E2F5F5F5F5F5F5F5F5F5F5F5F5F5F5F5F5F5F5F5F5F5F5F5F5F5F5F5F5F5F5F5F5F5F5F5F5F5F5F5F5F5F5F5F5F5F5F5F5F5
310
F5F5F5F5F5F5F5F5F5F5F5F5F5F5F5F5F5F5F5F5F5F5F5F5F5F5F5F5F5F5F5F5F5F5F5F5F5F5F5F5F5F5F5F5F5F5F5F5E2F5F5F5F5F5F5F5F5F5F5F5F5F5F5F5F5F5F5F5F5F5E2E2F5F5F5F5F5F5F5F5F5F5F5F5F5F5F5F5F5F5F5F5F5E2BEF5F52D2D2D2D2D2D2D2D2D2D2D2D2D2DE2E2E2E2E2E2E2E2E2E2E2E2E2E2E2E2
310
E2E2E2E2F5F5F5F5F5F5F5F5F5F5F5F5F5F5F5F5F5F5F5F5F5F5F5F5F5F5F5F5F5F5F5F5F5F5F5F5F5F5F5F5F5F5F5F5F5F5F5F5F5F5F5F5F5F5F5F5F5F5F5F5F5F5F5F5F5F5F5F5F5F5F5F5F5F5F5F5F5F5F5F5F5F5F5F5F5F5F5F5F5F5F5F5F5F5F5F5F5E2F5F5F5F5F5F5F5F5F5F5F5F5F5F5F5F5F5F5F5F5F5E2E2F5F5
310
F5F5E2F5F5F5F5F5F5F5F5F5F5F5F5F5F5F5F5E2DCF5F5F5F5F5F5F5E2F5F5F5F5F5F5F5E2F5F5F5F5F5F5F5F5F5F5F5F5F5F5F5F5F5F5F5F5F5F5F5F5F5F5F5F5F5F5F5F5F5F5F5F5F5F5F5F5F5F5F5F5F5F5F5F5F5F5F5F5F5F5F5F5F5F5F5F5F5F5F5F5F5F5F5F5F5F5F5F5F5F5F5F5F5F5F5F5F5F5F5F5F5F5F5F5F5F5
310
F5F5F5F5F5F5F5F5F5F5F5F5F5F5F5F5F5F5F5F5F5F5F5F5F5F5F5E2F5F5F5F5F5F5F5F5F5F5F5F5F5F5F5F5E2F5F5F5F5E2E2F5F5F5F5E2F5F5F5F5F5F5F5F5F5F5F5F5F5F5F5F5E2F5F5F5F5F5F5F5F5E2F5F5F5F5F5F5F5E2F5F5F5F5F5F5F5F5F5F5F5F5F5F5F5F5F5F5F5F5F5F5F5F5F5F5F5F5F5F5F5F5F5F5F5F5F5
310
F5F5F5F5F5F5F5F5F5F5F5F5F5F5F5F5F5F5F5F5F5F5F5F5F5F5F5F5F5F5F5F5F5F5F5F5F5F5F5F5F5F5F5F5F5F5F5F5F5F5F5F5F5F5F5F5F5F5F5F5F5F5F5F5F5F5F5F5F5F5F5F5F5F5F5F5F5F5F5F5E2F5F5F5F5F5F5F5F5F5F5F5F5F5F5F5F5E2F5F5F5F5E2E2F5F5F5F5E2F5F5F5F5F5F5F5F5F5F5F5F5F5F5F5F5E2E2
310
E2E2E2E2E2E2E2E2F5F5F5F5F5F5F5E2F5F5F5F5F5F5F5F5F5F5F5F5F5F5F5F5F5F5F5F5F5F5F5F5F5F5F5F5F5F5F5F5F5F5F5F5F5F5F5F5F5F5F5F5F5F5F5F5F5F5F5F5F5F5F5F5F5F5F5F5F5F5F5F5F5F5F5F5F5F5F5F5F5F5F5F5F5F5F5F5F5F5F5F5F5F5F5F5F5F5F5F5F5F5F5F5F5F5F5F5F5F5F5F5F5F5F5F5F5F5F5
310
F5F5F5F5F5F5E2F5F5F5F5F5F5F5F5F5F5F5F5F5F5F5F5E2F5F5F5F5E2E2F5F5F5F5E2F5F5F5F5F5F5F5F5F5F5F5F5F5F5F5F5E2E2E2E2F5F5F5F5F5F5F5F5F5F5F5F5F5E2F5F5F5F5F5F5F5F5F5F5F5F5F5F5F5F5F5F5F5F5F5F5F5F5F5F5F5F5F5F5F5F5F5F5F5F5F5F5F5F5F5F5F5F5F5F5F5F5F5F5F5F5F5F5F5F5F5F5
310
F5F5F5F5F5F5F5F5F5F5F5F5F5F5F5F5F5F5F5F5F5F5F5F5F5F5F5F5F5F5F5F5F5F5F5F5F5F5F5F5F5F5F5F5F5F5F5F5F5F5F5F5F5F5F5F5F5F5F5E2F5F5F5F5F5F5F5F5F5F5F5F5F5F5F5F5E2F5F5F5F5E2E2F5F5F5F5E2F5F5F5F5F5F5F5F5F5F5F5F5F5F5F5F5E2E2E2E2F5F5F5F5F5F5F5F5F5F5F5F5F5E2F5F5F5F5F5
310
F5F5F5F5F5F5F5F5F5F5F5F5F5F5F5F5F5F5F5F5F5F5F5F5F5F5F5F5F5F5F5F5F5F5F5F5F5F5F5F5F5F5F5F5F5F5F5F5F5F5F5F5F5F5F5F5F5F5F5F5F5F5F5F5F5F5F5F5F5F5F5F5F5F5F5F5F5F5F5F5F5F5F5F5F5F5F5F5F5F5F5F5F5F5F5F5F5F5F5F5F5F5F5F5F5F5F5F5F5F5F5F5E2F5F5F5F5F5F5F5F5F5F5F5F5F5F5
310
F5F5E2F5F5F5F5E2E2F5F5F5F5E2F5F5F5F5F5F5F5F5F5F5F5F5F5F5F5F5E2F5F5F5F5F5F5F5F5F5F5F5F5F5F5F5F5E2F5F5F5F5F5F5F5F5F5F5F5F5F5F5F5F5F5F5F5F5F5F5F5F5F5F5F5F5F5F5F5F5F5F5F5F5F5F5F5F5F5F5F5F5F5F5F5F5F5F5F5F5F5F5F5F5F5F5F5F5F5F5F5F5F5F5F5F5F5F5F5F5F5F5F5F5F5F5F5
310
F5F5F5F5F5F5F5F5F5F5F5F5F5F5F5F5F5F5F5F5F5F5F5F5F5F5F5F5F5F5F5F5F5F5F5F5F5F5E2F5F5F5F5F5F5F5F5F5F5F5F5F5F5F5F5E2F5F5F5F5E2E2F5F5F5F5E2F5F5F5F5F5F5F5F5F5F5F5F5F5F5F5F5E2E2E2E2E2E2E2E2E2E2E2E2E2E2E2E2E2E2F5F5F5F5F5F5F5F5F5F5F5F5F5F5F5F5F5F5F5F5F5F5F5F5F5F5
310
F5F5F5F5F5F5F5F5F5F5F5F5F5F5F5F5F5F5F5F5F5F5F5F5F5F5F5F5F5F5F5F5F5F5F5F5F5F5F5F5F5F5F5F5F5F5F5F5F5F5F5F5F5F5F5F5F5F5F5F5F5F5F5F5F5F5F5F5F5F5F5F5F5F5F5F5F5F5F5F5F5F5F5F5F5F5F5F5F5F5F5E2F5F5F5F5F5F5F5F5F5F5F5F5F5F5F5F5E2F5F5F5F5E2E2F5F5F5F5E2F5F5F5F5F5F5F5
310
F5F5F5F5F5F5F5F5F5E2E2E2F5F5F5F5F5F5F5F5F5F5F5F5F5F5F5F5F5F5F5F5F5F5F5F5F5F5F5F5F5F5F5F5F5F5F5F5F5F5F5F5F5F5F5F5F5F5F5F5F5F5F5F5F5F5F5F5F5F5F5F5F5F5F5F5F5F5F5F5F5F5F5F5F5F5F5F5F5F5F5F5F5F5F5F5F5F5F5F5F5F5F5F5F5F5F5F5F5F5F5F5F5F5F5F5F5F5F5F5F5F5F5F5F5F5F5
310
F5F5F5F5F5F5F5F5F5F5F5F5F5F5F5F5F5E2F5F5F5F5F5F5F5F5F5F5F5F5F5F5F5F5E2F5F5F5F5E2E2F5F5F5F5E2F5F5F5F5F5F5F5F5F5F5F5F5F5F5F5F5E2E2E2F5F5F5F5F5F5F5F5F5F5F5F5F5F5F5F5F5F5F5F5F5F5F5F5F5F5F5F5F5F5F5F5F5F5F5F5F5F5F5F5F5F5F5F5F5F5F5F5F5F5F5F5F5F5F5F5F5F5F5F5F5F5
310
F5F5F5F5F5F5F5F5F5F5F5F5F5F5F5F5F5F5F5F5F5F5F5F5F5F5F5F5F5F5F5F5F5F5F5F5F5F5F5F5F5F5F5F5F5F5F5F5F5F5F5F5F5F5F5F5F5F5F5F5F5F5F5F5F5F5F5F5F5F5E2F5F5F5F5F5F5F5F5F5F5F5F5F5F5F5F5E2F5F5F5F5E2E2F5F5F5F5E2F5F5F5F5F5F5F5F5F5F5F5F5F5F5F5F5E2F5F5F5F5F5F5F5F5F5F5F5
310
F5F5F5F5F5F5F5F5F5F5F5F5F5F5F5F5F5F5F5F5F5F5F5F5F5F5F5F5F5F5F5F5F5F5F5F5F5F5F5F5F5F5F5F5F5F5F5F5F5F5F5F5F5F5F5F5F5F5F5F5F5F5F5F5F5F5F5F5F5F5F5F5F5F5F5F5F5F5F5F5F5F5F5F5F5F5F5F5F5F5F5F5F5F5F5F5F5F5F5F5F5F5F5F5F5F5F5F5F5F5F5F5F5F5F5F5F5F5F5F5F5F5F5E2F5F5F5
310
F5F5F5F5F5F5F5F5F5F5F5F5F5E2F5F5F5F5E2E2F5F5F5F5E2F5F5F5F5F5F5F5F5F5F5F5F5F5F5F5F5E20F0F0F0F0F0F0F0F0F0F0FF5F5F5F5F5F5F5F5F5F5F5F5F5F5F5F5F5F5F5F5F5F5F5F5F5F5F5F5F5F5F5F5F5F5F5F5F5F5F5F5F5F5F5F5F5F5F5F5F5F5F5F5F5F5F5F5F5F5F5F5F5F5F5F5F5F5F5F5F5F5F5F5F5F5
310
F5F5F5F5F5F5F5F5F5F5F5F5F5F5F5F5F5F5F5F5F5F5F5F5F5F5F5F5F5F5F5F5F5F5F5F5F5F5F5F5F5F5F5F5F5F5F5F5F5E2F5F5F5F5F5F5F5F5F5F5F5F5F5F5F5F5E2F5F5F5F5E2E2F5F5F5F5E2F5F5F5F5F5F5F5F5F5F5F5F5F5F5F5F5E20F0F0F0F0F0F0F0F0F0FF5F5F5F5F5F5F5F5F5F5F5F5F5F5F5F5F5F5F5F5F5F5
310
F5F5F5F5F5F5F5F5F5F5F5F5F5F5F5F5F5F5F5F5F5F5F5F5F5F5F5F5F5F5F5F5F5F5F5F5F5F5F5F5F5F5F5F5F5F5F5F5F5F5F5F5F5F5F5F5F5F5F5F5F5F5F5F5F5F5F5F5F5F5F5F5F5F5F5F5F5F5F5F5F5F5F5F5F5F5F5F5F5F5F5F5F5F5F5F5F5F5F5F5F5F5E2F5F5F5F5F5F5F5F5F5F5F5F5F5F5F5F5E2F5F5F5F5E2E2F5
310
F5F5F5E2F5F5F5F5F5F5F5F5F5F5F5F5F5F5F5F5E2F5F5F5F5F5F5F5F5F5F5F5F5F5F5F5F5F5F5F5F5F5F5F5F5F5F5F5F5F5F5F5F5F5F5F5F5F5F5F5F5F5F5F5F5F5F5F5F5F5F5F5F5F5F5F5F5F5F5F5F5F5F5F5F5F5F5F5F5F5F5F5F5F5F5F5F5F5F5F5F5F5F5F5F5F5F5F5F5F5F5F5F5F5F5F5F5F5F5F5F5F5F5F5F5F5F5
310
F5F5F5F5F5F5F5F5F5F5F5F5F5F5F5F5F5F5F5F5F5F5F5F5F5F5F5F5E2F5F5F5F5F5F5F5F5F5F5F5F5F5F5F5F5E2F5F5F5F5E2E2F5F5F5F5E2F5F5F5F5F5F5F5F5F5F5F5F5F5F5F5F5E2F5F5F5F5F5F5F5F5F5F5F5F5F5F5F5F5F5F5F5F5F5F5F5F5F5F5F5F5F5F5F5F5F5F5F5F5F5F5F5F5F5F5F5F5F5F5F5F5F5F5F5F5F5
310
F5F5F5F5F5F5F5F5F5F5F5F5F5F5F5F5F5F5F5F5F5F5F5F5F5F5F5F5F5F5F5F5F5F5F5F5F5F5F5F5F5F5F5F5F5F5F5F5F5F5F5F5F5F5F5F5F5F5F5F5F5F5F5F5F5F5F5F5F5F5F5F5F5F5F5F5F5F5F5F5F5E2F5F5F5F5F5F5F5F5F5F5F5F5F5F5F5F5E2F5F5F5F5E2E2F5F5F5F5E2F5F5F5F5F5F5F5F5F5F5F5F5F5F5F5F5E2
310
F5F5F5F5F5F5F5F5F5F5F5F5F5F5F5F5F5F5F5F5F5F5F5F5F5F5F5F5F5F5F5F5F5F5F5F5F5F5F5F5F5F5F5F5F5F5F5F5F5F5F5F5F5F5F5F5F5F5F5F5F5F5F5F5F5F5F5F5F5F5F5F5F5F5F5F5F5F5F5F5F5F5F5F5F5F5F5F5F5F5F5F5F5F5F5F5F5F5F5F5F5F5F5F5F5F5F5F5F5F5F5F5F5F5F5F5F5F5F5F5F5F5F5F5F5F5F5
310
F5F5F5F5F5F5F5E2F5F5F5F5F5F5F5F5F5F5F5F5F5F5F5F5E2F5F5F5F5E2E2F5F5F5F5E2F5F5F5F5F5F5F5F5F5F5F5F5F5F5F5F5E2F5F5F5F5F5F5F5F5F5F5F5F5F5F5F5F5F5F5F5F5F5F5F5F5F5F5F5F5F5F5F5F5F5F5F5F5F5F5F5F5F5F5F5F5F5F5F5F5F5F5F5F5F5F5F5F5F5F5F5F5F5F5F5F5F5F5F5F5F5F5F5F5F5F5
310
F5F5F5F5F5F5F5F5F5F5F5F5F5F5F5F5F5F5F5F5F5F5F5F5F5F5F5F5F5F5F5F5F5F5F5F5F5F5F5F5F5F5F5F5F5F5F5F5F5F5F5F5F5F5F5F5F5F5F5F5E2F5F5F5F5F5F5F5F5F5F5F5F5F5F5F5F5E2F5F5F5F5E2E2F5F5F5F5F5F5F5F5F5F5F5F5F5F5F5F5F5F5F5F5F5E2F5F5F5F5F5F5F5F5F5F5F5F5F5F5F5F5F5F5F5F5F5
310
F5F5F5F5F5F5F5F5F5F5F5F5F5F5F5F5F5F5F5F5F5F5F5F5F5F5F5F5F5F5F5F5F5F5F5F5F5F5F5F5F5F5F5F5F5F5F5F5F5F5F5F5F5F5F5F5F5F5F5F5F5F5F5F5F5F5F5F5F5F5F5F5F5F5F5F5F5F5F5F5F5F5F5F5F5F5F5F5F5F5F5F5F5F5F5F5F5F5F5F5F5F5F5F5F5F5F5F5F5F5F5F5F5E2F5F5F5F5F5F5F5F5F5F5F5F5F5
310
F5F5F5F5F5F5F5F5E2E2F5F5F5F5F5F5F5F5F5F5F5F5F5F5F5F5F5F5F5F5F5E2F5F5F5F5F5F5F5F5F5F5F5F5F5F5F5F5F5F5F5F5F5F5F5F5F5F5F5F5F5F5F5F5F5F5F5F5F5F5F5F5F5F5F5F5F5F5F5F5F5F5F5F5F5F5F5F5F5F5F5F5F5F5F5F5F5F5F5F5F5F5F5F5F5F5F5F5F5F5F5F5F5F5F5F5F5F5F5F5F5F5F5F5F5F5F5
310
F5F5F5F5F5F5F5F5F5F5F5F5F5F5F5F5F5F5F5F5F5F5F5F5F5F5F5F5F5F5F5F5F5F5F5F5F5F5F5E2F5F5F5F5F5F5F5F5F5F5F5F5F5F5F5F5F5F5F5F5F5E2E2F5F5F5F5F5F5F5F5F5F5F5F5F5F5F5F5F5F5F5F5F5E2F5F5F5F5F5F5F5F5F5F5F5F5F5F5F5F5F5F5F5F5F5F5F5F5F5F5F5F5F5F5F5F5F5F5F5F5F5F5F5F5F5F5
310
F5F5F5F5F5F5F5F5F5F5F5F5F5F5F5F5F5F5F5F5F5F5F5F5F5F5F5F5F5F5F5F5F5F5F5F5F5F5F5F5F5F5F5F5F5F5F5F5F5F5F5F5F5F5F5F5F5F5F5F5F5F5F5F5F5F5F5F5F5F5F5F5F5F5F5F5F5F5F5F5F5F5F5F5F5F5F5F5F5F5F5F5E2F5F5F5F5F5F5F5F5F5F5F5F5F5F5F5F5F5F5F5F5F5E2E2F5F5F5F5F5F5F5F5F5F5F5
310
F5F5F5F5F5F5F5F5F5F5E2F5F5F5F5F5F5F5F5F5F5F5F5F5F5F5F5F5F5F5F5F5F5F5F5F5F5F5F5F5F5F5F5F5F5F5F5F5F5F5F5F5F5F5F5F5F5F5F5F5F5F5F5F5F5F5F5F5F5F5F5F5F5F5F5F5F5F5F5F5F5F5F5F5F5F5F5F5F5F5F5F5F5F5F5F5F5F5F5F5F5F5F5F5F5F5F5F5F5F5F5F5F5F5F5F5F5F5F5F5F5F5F5F5F5F5F5
310
F5F5F5F5F5F5F5F5F5F5F5F5F5F5F5F5F5F5E2F5F5F5F5F5F5F5F5F5F5F5F5F5F5F5F5F5F5F5F5F5E2E2F5F5F5F5F5F5F5F5F5F5F5F5F5F5F5F5F5F5F5F5F5E2F5F5F5F5F5F5F5F5F5F5F5F5F5F5F5F5F5F5F5F5F5F5F5F5F5F5F5F5F5F5F5F5F5F5F5F5F5F5F5F5F5F5F5F5F5F5F5F5F5F5F5F5F5F5F5F5F5F5F5F5F5F5F5
310
F5F5F5F5F5F5F5F5F5F5F5F5F5F5F5F5F5F5F5F5F5F5F5F5F5F5F5F5F5F5F5F5F5F5F5F5F5F5F5F5F5F5F5F5F5F5F5F5F5F5F5F5F5F5F5F5F5F5F5F5F5F5F5F5F5F5F5F5F5F5F5E2F5F5F5F5F5F5F5F5F5F5F5F5F5F5F5F5F5F5F5F5F5E2E2F5F5F5F5F5F5F5F5F5F5F5F5F5F5F5F5F5F5F5F5F5E2F5F5F5F5F5F5F5F5F5F5
310
F5F5F5F5F5F5F5F5F5F5F5F5F5F5F5F5F5F5F5F5F5F5F5F5F5F5F5F5F5F5F5F5F5F5F5F5F5F5F5F5F5F5F5F5F5F5F5F5F5F5F5F5F5F5F5F5F5F5F5F5F5F5F5F5F5F5F5F5F5F5F5F5F5F5F5F5F5F5F5F5F5F5F5F5F5F5F5F5F5F5F5F5F5F5F5F5F5F5F5F5F5F5F5F5F5F5F5F5F5F5F5F5F5F5F5F5F5F5F5F5F5F5F5F5E2F5F5
310
F5F5F5F5F5F5F5F5F5F5F5F5F5F5F5F5F5F5F5E2E2F5F5F5F5F5F5F5F5F5F5F5F5F5F5F5F5F5F5F5F5F5E2F5F5F5F5F5F5F5F5F5F5F5F5F5F5F5F5F5F5F5F5F5F5F5F5F5F5F5F5F5F5F5F5F5F5F5F5F5F5F5F5F5F5F5F5F5F5F5F5F5F5F5F5F5F5F5F5F5F5F5F5F5F5F5F5F5F5F5F5F5F5F5F5F5F5F5F5F5F5F5F5F5F5F5F5
310
F5F5F5F5F5F5F5F5F5F5F5F5F5F5F5F5F5F5F5F5F5F5F5F5F5F5F5F5F5F5F5F5F5F5F5F5F5F5F5F5F5F5F5F5F5F5F5F5F5F5E2F5F5F5F5F5F5F5F5F5F5F5F5F5F5F5F5F5F5F5F5F5E2E2F5F5F5F5F5F5F5F5F5F5F5F5F5F5F5F5F5F5F5F5F5E2F5F5F5F5F5F5F5F5F5F5F5F5F5F5F5F5F5F5F5F5F5F5F5F5F5F5F5F5F5F5F5
310
F5F5F5F5F5F5F5F5F5F5F5F5F5F5F5F5F5F5F5F5F5F5F5F5F5F5F5F5F5F5F5F5F5F5F5F5F5F5F5F5F5F5F5F5F5F5F5F5F5F5F5F5F5F5F5F5F5F5F5F5F5F5F5F5F5F5F5F5F5F5F5F5F5F5F5F5F5F5F5F5F5F5F5F5F5F5F5F5F5F5F5F5F5F5F5F5F5F5F5F5F5F5F5E2F5F5F5F5F5F5F5F5F5F5F5F5F5F5F5F5F5F5F5F5F5E2E2
310
F5F5F5F5F5F5F5F5F5F5F5F5F5F5F5F5F5F5F5F5F5E2F5F5F5F5F5F5F5F5F5F5F5F5F5F5F5F5F5F5F5F5F5F5F5F5F5F5F5F5F5F5F5F5F5F5F5F5F5F5F5F5F5F5F5F5F5F5F5F5F5F5F5F5F5F5F5F5F5F5F5F5F5F5F5F5F5F5F5F5F5F5F5F5F5F5F5F5F5F5F5F5F5F5F5F5F5F5F5F5F5F5F5F5F5F5F5F5F5F5F5F5F5F5F5F5F5
310
F5F5F5F5F5F5F5F5F5F5F5F5F5F5F5F5F5F5F5F5F5F5F5F5F5F5F5F5F5E2F5F5F5F5F5F5F5F5F5F5F5F5F5F5F5F5F5F5F5F5F5E2E2F5F5F5F5F5F5F5F5F5F5F5F5F5F5F5F5F5F5F5F5F5E2F5F5F5F5F5F5F5F5F5F5F5F5F5F5F5F5F5F5F5F5F5F5F5F5F5F5F5F5F5F5F5F5F5F5F5F5F5F5F5F5F5F5F5F5F5F5F5F5F5F5F5F5
310
F5F5F5F5F5F5F5F5F5F5F5F5F5F5F5F5F5F5F5F5F5F5F5F5F5F5F5F5F5F5F5F5F5F5F5F5F5F5F5F5F5F5F5F5F5F5F5F5F5F5F5F5F5F5F5F5F5F5F5F5F5F5F5F5F5F5F5F5F5F5F5F5F5F5F5F5F5F5F5F5F5F5E2F5F5F5F5F5F5F5F5F5F5F5F5F5F5F5F5F5F5F5F5F5E2E2F5F5F5F5E2F5F5F5F5F5F5F5F5F5F5F5F5F5F5F5F5
310
E2F5F5F5F5F5F5F5F5F5F5F5F5F5F5F5F5F5F5F5F5F5F5F5F5F5F5F5F5F5F5F5F5F5F5F5F5F5F5F5F5F5F5F5F5F5F5F5F5F5F5F5F5F5F5F5F5F5F5F5F5F5F5F5F5F5F5F5F5F5F5F5F5F5F5F5F5F5F5F5F5F5F5F5F5F5F5F5F5F5F5F5F5F5F5F5F5F5F5F5F5F5F5F5F5F5F5F5F5F5F5F5F5F5F5F5F5F5F5F5F5F5F5F5F5F5F5
310
F5F5F5F5F5F5F5F5E2F5F5F5F5F5F5F5F5F5F5F5F5F5F5F5F5E2F5F5F5F5E2E2F5F5F5F5E2F5F5F5F5F5F5F5F5F5F5F5F5F5F5F5F5E2F5F5F5F5F5F5F5F5F5F5F5F5F5F5F5F5F5F5F5F5F5F5F5F5F5F5F5F5F5F5F5F5F5F5F5F5F5F5F5F5F5F5F5F5F5F5F5F5F5F5F5F5F5F5F5F5F5F5F5F5F5F5F5F5F5F5F5F5F5F5F5F5F5
310
F5F5F5F5F5F5F5F5F5F5F5F5F5F5F5F5F5F5F5F5F5F5F5F5F5F5F5F5F5F5F5F5F5F5F5F5F5F5F5F5F5F5F5F5F5F5F5F5F5F5F5F5F5F5F5F5F5F5F5F5F5E2F5F5F5F5F5F5F5F5F5F5F5F5F5F5F5F5E2F5F5F5F5E2E2F5F5F5F5E2F5F5F5F5F5F5F5F5F5F5F5F5F5F5F5F5E2F5F5F5F5F5F5F5F5F5F5F5F5F5F5F5F5F5F5F5F5
310
F5F5F5F5F5F5F5F5F5F5F5F5F5F5F5F5F5F5F5F5F5F5F5F5F5F5F5F5F5F5F5F5F5F5F5F5F5F5F5F5F5F5F5F5F5F5F5F5F5F5F5F5F5F5F5F5F5F5F5F5F5F5F5F5F5F5F5F5F5F5F5F5F5F5F5F5F5F5F5F5F5F5F5F5F5F5F5F5F5F5F5F5F5F5F5F5F5F5F5F5F5F5F5F5F5F5F5F5F5F5F5F5F5F5E2F5F5F5F5F5F5F5F5F5F5F5F5
310
F5F5F5F5E2F5F5F5F5E2E2F5F5F5F5E2F5F5F5F5F5F5F5F5F5F5F5F5F5F5F5F5E2F5F5F5F5F5F5F5F5F5F5F5F5F5F5F5F5F5F5F5F5F5F5F5F5F5F5F5F5F5F5F5F5F5F5F5F5F5F5F5F5F5F5F5F5F5F5F5F5F5F5F5F5F5F5F5F5F5F5F5F5F5F5F5F5F5F5F5F5F5F5F5F5F5F5F5F5F5F5F5F5F5F5F5F5F5F5F5F5F5F5F5F5F5F5
310
F5F5F5F5F5F5F5F5F5F5F5F5F5F5F5F5F5F5F5F5F5F5F5F5F5F5F5F5F5F5F5F5F5F5F5F5F5F5F5F5E2F5F5F5F5F5F5F5F5F5F5F5F5F5F5F5F5E2F5F5F5F5E2E2F5F5F5F5E2F5F5F5F5F5F5F5F5F5F5F5F5F5F5F5F5E2F5F5F5F5F5F5F5F5F5F5F5F5F5F5F5F5F5F5F5F5F5F5F5F5F5F5F5F5F5F5F5F5F5F5F5F5F5F5F5F5F5
310
F5F5F5F5F5F5F5F5F5F5F5F5F5F5F5F5F5F5F5F5F5F5F5F5F5F5F5F5F5F5F5F5F5F5F5F5F5F5F5F5F5F5F5F5F5F5F5F5F5F5F5F5F5F5F5F5F5F5F5F5F5F5F5F5F5F5F5F5F5F5F5F5F5F5F5F5F5F5F5F5F5F5F5F5F5F5F5F5F5F5F5F5F5E2F5F5F5F5F5F5F5F5F5F5F5F5F5F5F5F5E2F5F5F5F5E2E2F5F5F5F5E2F5F5F5F5F5
310
F5F5F5F5F5F5F5F5F5F5F5E2F5F5F5F5F5F5F5F5F5F5F5F5F5F5F5F5F5F5F5F5F5F5F5F5F5F5F5F5F5F5F5F5F5F5F5F5F5F5F5F5F5F5F5F5F5F5F5F5F5F5F5F5F5F5F5F5F5F5F5F5F5F5F5F5F5F5F5F5F5F5F5F5F5F5F5F5F5F5F5F5F5F5F5F5F5F5F5F5F5F5F5F5F5F5F5F5F5F5F5F5F5F5F5F5F5F5F5F5F5F5F5F5F5F5F5
310
F5F5F5F5F5F5F5F5F5F5F5F5F5F5F5F5F5F5F5E2F5F5F5F5F5F5F5F5F5F5F5F5F5F5F5F5E2F5F5F5F5E2E2F5F5F5F5E2F5F5F5F5F5F5F5F5F5F5F5F5F5F5F5F5E2F5F5F5F5F5F5F5F5F5F5F5F5F5F5F5F5F5F5F5F5F5F5F5F5F5F5F5F5F5F5F5F5F5F5F5F5F5F5F5F5F5F5F5F5F5F5F5F5F5F5F5F5F5F5F5F5F5F5F5F5F5F5
310
F5F5F5F5F5F5F5F5F5F5F5F5F5F5F5F5F5F5F5F5F5F5F5F5F5F5F5F5F5F5F5F5F5F5F5F5F5F5F5F5F5F5F5F5F5F5F5F5F5F5F5F5F5F5F5F5F5F5F5F5F5F5F5F5F5F5F5F5F5F5F5F5E2F5F5F5F5F5F5F5F5F5F5F5F5F5F5F5F5E2F5F5F5F5E2E2F5F5F5F5E2F5F5F5F5F5F5F5F5F5F5F5F5F5F5F5F5E2F5F5F5F5F5F5F5F5F5
310
F5F5F5F5F5F5F5F5F5F5F5F5F5F5F5F5F5F5F5F5F5F5F5F5F5F5F5F5F5F5F5F5F5F5F5F5F5F5F5F5F5F5F5F5F5F5F5F5F5F5F5F5F5F5F5F5F5F5F5F5F5F5F5F5F5F5F5F5F5F5F5F5F5F5F5F5F5F5F5F5F5F5F5F5F5F5F5F5F5F5F5F5F5F5F5F5F5F5F5F5F5F5F5F5F5F5F5F5F5F5F5F5F5F5F5F5F5F5F5F5F5F5F5F5F5E2F5
310
F5F5F5F5F5F5F5F5F5F5F5F5F5F5F5E2F5F5F5F5E2E2F5F5F5F5E2F5F5F5F5F5F5F5F5F5F5F5F5F5F5F5F5E2F5F5F5F5F5F5F5F5F5F5F5F5F5F5F5F5F5F5F5F5F5F5F5F5F5F5F5F5F5F5F5F5F5F5F5F5F5F5F5F5F5F5F5F5F5F5F5F5F5F5F5F5F5F5F5F5F5F5F5F5F5F5F5F5F5F5F5F5F5F5F5F5F5F5F5F5F5F5F5F5F5F5F5
310
F5F5F5F5F5F5F5F5F5F5F5F5F5F5F5F5F5F5F5F5F5F5F5F5F5F5F5F5F5F5F5F5F5F5F5F5F5F5F5F5F5F5F5F5F5F5F5F5F5F5F5E2F5F5F5F5F5F5F5F5F5F5F5F5F5F5F5F5E2F5F5F5F5E2E2F5F5F5F5E2F5F5F5F5F5F5F5F5F5F5F5F5F5F5F5F5E2F5F5F5F5F5F5F5F5F5F5F5F5F5F5F5F5F5F5F5F5F5F5F5F5F5F5F5F5F5F5
310
F5F5F5F5F5F5F5F5F5F5F5F5F5F5F5F5F5F5F5F5F5F5F5F5F5F5F5F5F5F5F5F5F5F5F5F5F5F5F5F5F5F5F5F5F5F5F5F5F5F5F5F5F5F5F5F5F5F5F5F5F5F5F5F5F5F5F5F5F5F5F5F5F5F5F5F5F5F5F5F5F5F5F5F5F5F5F5F5F5F5F5F5F5F5F5F5F5F5F5F5F5F5F5F5E2F5F5F5F5F5F5F5F5F5F5F5F5F5F5F5F5E2F5F5F5F5E2
310
E2F5F5F5F5E2F5F5F5F5F5F5F5F5F5F5F5F5F5F5F5F5E2F5F5F5F5F5F5F5F5F5F5F5F5F5F5F5F5F5F5F5F5F5F5F5F5F5F5F5F5F5F5F5F5F5F5F5F5F5F5F5F5F5F5F5F5F5F5F5F5F5F5F5F5F5F5F5F5F5F5F5F5F5F5F5F5F5F5F5F5F5F5F5F5F5F5F5F5F5F5F5F5F5F5F5F5F5F5F5F5F5F5F5F5F5F5F5F5F5F5F5F5F5F5F5F5
310
F5F5F5F5F5F5F5F5F5F5F5F5F5F5F5F5F5F5F5F5F5F5F5F5F5F5F5F5F5F5E2F5F5F5F5F5F5F5F5F5F5F5F5F5F5F5F5E2F5F5F5F5E2E2F5F5F5F5E2F5F5F5F5F5F5F5F5F5F5F5F5F5F5F5F5E2F5F5F5F5F5F5F5F5F5F5F5F5F5F5F5F5F5F5F5F5F5F5F5F5F5F5F5F5F5F5F5F5F5F5F5F5F5F5F5F5F5F5F5F5F5F5F5F5F5F5F5
310
F5F5F5F5F5F5F5F5F5F5F5F5F5F5F5F5F5F5F5F5F5F5F5F5F5F5F5F5F5F5F5F5F5F5F5F5F5F5F5F5F5F5F5F5F5F5F5F5F5F5F5F5F5F5F5F5F5F5F5F5F5F5F5F5F5F5F5F5F5F5F5F5F5F5F5F5F5F5F5F5F5F5F5E2F5F5F5F5F5F5F5F5F5F5F5F5F5F5F5F5E2F5F5F5F5E2E2F5F5F5F5E2F5F5F5F5F5F5F5F5F5F5F5F5F5F5F5
310
F5E2F5F5F5F5F5F5F5F5F5F5F5F5F5F5F5F5F5F5F5F5F5F5F5F5F5F5F5F5F5F5F5F5F5F5F5F5F5F5F5F5F5F5F5F5F5F5F5F5F5F5F5F5F5F5F5F5F5F5F5F5F5F5F5F5F5F5F5F5F5F5F5F5F5F5F5F5F5F5F5F5F5F5F5F5F5F5F5F5F5F5F5F5F5F5F5F5F5F5F5F5F5F5F5F5F5F5F5F5F5F5F5F5F5F5F5F5F5F5F5F5F5F5F5F5F5
310
F5F5F5F5F5F5F5F5F5E2F5F5F5F5F5F5F5F5F5F5F5F5F5F5F5F5E2F5F5F5F5E2E2F5F5F5F5E2F5F5F5F5F5F5F5F5F5F5F5F5F5F5F5F5E2F5F5F5F5F5F5F5F5F5F5F5F5F5F5F5F5F5F5F5F5F5F5F5F5F5F5F5F5F5F5F5F5F5F5F5F5F5F5F5F5F5F5F5F5F5F5F5F5F5F5F5F5F5F5F5F5F5F5F5F5F5F5F5F5F5F5F5F5F5F5F5F5
310
F5F5F5F5F5F5F5F5F5F5F5F5F5F5F5F5F5F5F5F5F5F5F5F5F5F5F5F5F5F5F5F5F5F5F5F5F5F5F5F5F5F5F5F5F5F5F5F5F5F5F5F5F5F5F5F5F5F5F5F5F5F5E2F5F5F5F5F5F5F5F5F5F5F5F5F5F5F5F5E2F5F5F5F5E2E2F5F5F5F5E2F5F5F5F5F5F5F5F5F5F5F5F5F5F5F5F5E2F5F5F5F5F5F5F5F5F5F5F5F5F5F5F5F5F5F5F5
310
F5F5F5F5F5F5F5F5F5F5F5F5F5F5F5F5F5F5F5F5F5F5F5F5F5F5F5F5F5F5F5F5F5F5F5F5F5F5F5F5F5F5F5F5F5F5F5F5F5F5F5F5F5F5F5F5F5F5F5F5F5F5F5F5F5F5F5F5F5F5F5F5F5F5F5F5F5F5F5F5F5F5F5F5F5F5F5F5F5F5F5F5F5F5F5F5F5F5F5F5F5F5F5F5F5F5F5F5F5F5F5F5F5F5F5E2F5F5F5F5F5F5F5F5F5F5F5
310
F5F5F5F5F5E2F5F5F5F5E2E2F5F5F5F5E2F5F5F5F5F5F5F5F5F5F5F5F5F5F5F5F5E2F5F5F5F5F5F5F5F5F5F5F5F5F5F5F5F5F5F5F5F5F5F5F5F5F5F5F5F5F5F5F5F5F5F5F5F5F5F5F5F5F5F5F5F5F5F5F5F5F5F5F5F5F5F5F5F5F5F5F5F5F5F5F5F5F5F5F5F5F5F5F5F5F5F5F5F5F5F5F5F5F5F5F5F5F5F5F5F5F5F5F5F5F5
310
F5F5F5F5F5F5F5F5F5F5F5F5F5F5F5F5F5F5F5F5F5F5F5F5F5F5F5F5F5F5F5F5F5F5F5F5F5F5F5F5F5E2F5F5F5F5F5F5F5F5F5F5F5F5F5F5F5F5E2F5F5F5F5E2E2F5F5F5F5F5F5F5F5F5F5F5F5F5F5F5F5F5F5F5F5F5E2F5F5F5F5F5F5F5F5F5F5F5F5F5F5F5F5F5F5F5F5F5F5F5F5F5F5F5F5F5F5F5F5F5F5F5F5F5F5F5F5
310
F5F5F5F5F5F5F5F5F5F5F5F5F5F5F5F5F5F5F5F5F5F5F5F5F5F5F5F5F5F5F5F5F5F5F5F5F5F5F5F5F5F5F5F5F5F5F5F5F5F5F5F5F5F5F5F5F5F5F5F5F5F5F5F5F5F5F5F5F5F5F5F5F5F5F5F5F5F5F5F5F5F5F5F5F5F5F5F5F5F5F5F5F5F5E2F5F5F5F5F5F5F5F5F5F5F5F5F5F5F5F5F5F5F5F5F5E2E2F5F5F5F5F5F5F5F5F5
310
F5F5F5F5F5F5F5F5F5F5F5F5E2F5F5F5F5F5F5F5F5F5F5F5F5F5F5F5F5F5F5F5F5F5F5F5F5F5F5F5F5F5F5F5F5F5F5F5F5F5F5F5F5F5F5F5F5F5F5F5F5F5F5F5F5F5F5F5F5F5F5F5F5F5F5F5F5F5F5F5F5F5F5F5F5F5F5F5F5F5F5F5F5F5F5F5F5F5F5F5F5F5F5F5F5F5F5F5F5F5F5F5F5F5F5F5F5F5F5F5F5F5F5F5F5F5F5
310
F5F5F5F5F5F5F5F5F5F5F5F5F5F5F5F5F5F5F5F5E2F5F5F5F5F5F5F5F5F5F5F5F5F5F5F5F5F5F5F5F5F5E2E2F5F5F5F5F5F5F5F5F5F5F5F5F5F5F5F5F5F5F5F5F5E2F5F5F5F5F5F5F5F5F5F5F5F5F5F5F5F5F5F5F5F5F5F5F5F5F5F5F5F5F5F5F5F5F5F5F5F5F5F5F5F5F5F5F5F5F5F5F5F5F5F5F5F5F5F5F5F5F5F5F5F5F5
310
F5F5F5F5F5F5F5F5F5F5F5F5F5F5F5F5F5F5F5F5F5F5F5F5F5F5F5F5F5F5F5F5F5F5F5F5F5F5F5F5F5F5F5F5F5F5F5F5F5F5F5F5F5F5F5F5F5F5F5F5F5F5F5F5F5F5F5F5F5F5F5F5F5E2F5F5F5F5F5F5F5F5F5F5F5F5F5F5F5F5F5F5F5F5F5E2E2F5F5F5F5F5F5F5F5F5F5F5F5F5F5F5F5F5F5F5F5F5E2F5F5F5F5F5F5F5F5
310
F5F5F5F5F5F5F5F5F5F5F5F5F5F5F5F5F5F5F5F5F5F5F5F5F5F5F5F5F5F5F5F5F5F5F5F5F5F5F5F5F5F5F5F5F5F5F5F5F5F5F5F5F5F5F5F5F5F5F5F5F5F5F5F5F5F5F5F5F5F5F5F5F5F5F5F5F5F5F5F5F5F5F5F5F5F5F5F5F5F5F5F5F5F5F5F5F5F5DCF5F5F5F5F5F5F5F5F5F5F5F5F5F5F5F5F5F5F5F5F5F5F5F5F5F5F5E2
310
F5F5F5F5F5F5F5F5F5F5F5F5F5F5F5F5F5F5F5F5F5E2E2F5F5F5F5F5F5F5F5F5F5F5F5F5F5F5F5F5F5F5F5F5E2F5F5F5F5F5F5F5F5F5F5F5F5F5F5F5F5F5F5F5F5F5F5F5F5F5F5F5F5F5F5F5F5F5F5F5F5F5F5F5F5F5F5F5F5F5F5F5F5F5F5F5F5F5F5F5F5F5F5F5F5F5F5F5F5F5F5F5F5F5F5F5F5F5F5F5F5F5F5F5F5F5E2
310
ECE2E2E2E2E2E2E2E2E2E2E2E2E2E2E2E2E2E2E2E2E2E2E2DCE2E2E2E2E2E2E2E2E2E2E2E2E2E2E2E2E2E2E2E2E2E2E2ECE2F5F5E2F5F5F5F5F5F5F5F5F5F5F5F5F5F5F5F5F5F5F5F5F5E2E2F5F5F5F5F5F5F5F5F5F5F5F5F5F5F5F5F5F5F5F5F5E2F5F5F5F5F5F5F5F5F5F5F5F5F5F5F5F5F5F5F5F5F5F5F5F5F5F5F5F5F5
310
F5F5F5F5F5F5F5F5F5F5F5F5F5F5F5F5F5F5F5F5F5F5F5F5F5F5F5F5F5F5F5F5F5F5F5F5F5F5F5F5F5F5F5F5F5F5F5F5F5F5F5E2F5F5ECF5F5F5F5F5F5F5F5F5F5F5F5F5F5F5F5F5F5F5F5F5F5DCF5F5F5F5F5F5F5F5F5F5F5F5F5F5F5F5F5F5F5F5F5F5ECF5F5E2F5E2F5F5F5F5F5F5F5F5F5F5F5F5F5F5F5F5F5F5F5F5F5
310
E2E2F5F5F5F5F5F5F5F5F5F5F5F5F5F5F5F5F5F5F5F5F5E2F5F5F5F5F5F5F5F5F5F5F5F5F5F5F5F5F5F5F5F5F5F5F5F5F5F5F5F5F5F5F5F5F5F5F5F5F5F5F5F5F5F5F5F5F5F5F5F5F5F5F5F5F5F5F5F5F5F5F5F5F5F5F5F5F5F5F5F5F5F5F5F5F5F5F5F5F5F5F5E2F5F5F5F5ECF5F5F5F5F5F5F5F5F5F5F5F5F5F5F5F5F5F5
310
F5F5F5DCF5F5F5F5F5F5F5F5F5F5F5F5F5F5F5F5F5F5F5F5F5ECF5F5F5F5E2E2F5F5F5F5F5F5F5F5F5F5F5F5F5F5F5F5F5F5F5F5F5E2E2F5F5F5F5F5F5F5F5F5F5F5F5F5F5F5F5F5F5F5F5F5E2F5F5F5F5F5F5F5F5F5F5F5F5F5F5F5F5F5F5F5F5F5F5F5F5F5F5F5F5F5F5F5F5F5F5F5F5F5F5F5F5F5F5F5F5F5F5F5F5F5F5
310
F5F5F5F5F5F5F5F5F5F5F5F5F5F5F5F5F5F5F5F5F5F5F5F5F5F5F5F5E2E2E2E2E2E2ECE2E2E2E2E2E2E2E2E2ECECECECECECE2ECECECECECDCECECECECECE2ECECECECECECE2E2E2E2E2E2E2E2ECE2E2E2E2E2E2E2F5F5F5F5F5F5F5F5F5F5F5F5F5F5F5F5F5F5F5F5F5E2E2F5F5F5F5F5F5F5F5F5F5F5F5F5F5F5F5F5F5F5
310
F5F5E2F5F5F5F5F5F5F5F5F5F5F5F5F5F5F5F5F5F5F5F5F5F5F5F5F5F5F5F5F5F5F5F5F5F5F5F5F5F5F5F5F5F5F5F5F5F5F5F5F5F5F5F5F5F5F5F5F5F5F5F5F5F5F5F5F5F5F5F5F5F5F5F5F5F5F5F5F5F5E2F5F5F5F5F5F5F5F5F5F5F5F5F5F5F5ECF5F5F5F5F5F5F5F5F5F5F5DCF5F5F5F5F5F5F5F5F5F5ECF5F5F5F5F5F5
310
F5F5F5F5F5F5F5F5F5E2E2F5F5F5F5F5F5F5F5F5F5F5F5F5F5F5F5F5F5F5F5F5E2E2F5F5F5F5E2F5F5F5F5F5F5F5F5F5F5F5F5F5F5F5F5E2F5F5F5F5F5F5F5F5F5F5F5F5F5F5F5F5F5F5F5F5F5F5F5F5F5F5F5F5F5F5F5F5F5F5F5F5F5F5F5F5F5F5F5F5F5F5F5F5F5F5F5F5F5F5F5F5F5F5F5F5F5F5F5F5F5F5F5F5F5F5F5
310
F5F5F5F5F5F5F5E2F5F5F5F5F5F5F5F5F5F5F5F5F5F5F5ECECECECECECECECECECECECECECECECECECECECECECECECF5F5F5F5F5F5F5F5F5F5F5F5F5F5F5E2E2F5F5F5F5F5F5F5F5F5F5F5F5F5F5F5F5E2F5F5F5F5E2E2F5F5F5F5E2F5F5F5F5F5F5F5F5F5F5F5F5F5F5F5F5E2F5F5F5F5F5F5F5F5F5F5F5F5F5F5F5F5F5F5
310
F5F5F5F5F5F5F5F5F5F5F5F5F5F5F5F5F5F5F5F5F5F5F5F5F5F5F5F5F5F5F5F5F5F5F5F5F5F5F5F5F5F5F5F5F5F5F5F5F5F5F5F5F5F5F5F5F5F5F5F5F5E2F5F5F5F5F5F5F5F5F5F5F5F5F5F5F5F5F5F5F5ECF5F5F5F5F5F5DCF5F5F5F5F5ECF5F5F5F5F5F5F5F5F5F5F5F5F5F5F5F5F5F5F5F5E2E2F5F5F5F5F5F5F5F5F5F5
310
F5F5F5F5F5F5E2F5F5F5F5E2E2F5F5F5F5E2F5F5F5F5F5F5F5F5F5F5F5F5F5F5F5F5E2F5F5F5F5F5F5F5F5F5F5F5F5F5F5F5F5F5F5F5F5F5F5F5F5F5F5F5F5F5F5F5F5F5F5F5F5F5F5F5F5F5F5F5F5F5F5F5F5F5F5F5F5F5F5F5F5F5F5F5F5F5F5F5F5F5F5F5F5F5F5F5F5F5F5F5F5F5F5F5F5E2F5F5F5F5F5F5F5F5F5F5F5
310
F5F5F5F5F5ECECECECECECF5ECECECECECF5ECECECECECF5F5F5F5F5F5F5F5F5F5F5F5F5F5F5F5F5E2F5E2F5F5F5F5F5F5F5F5F5F5F5F5F5F5F5F5E2F5F5F5F5E2E2F5F5F5F5E2F5F5F5F5F5F5F5F5F5F5F5F5F5F5F5F5E2F5F5F5F5F5F5F5F5F5F5F5F5F5F5F5F5F5F5F5F5F5F5F5F5F5F5F5F5F5F5F5F5F5F5F5F5F5F5F5
310
F5F5F5F5F5F5F5F5F5F5F5F5F5F5F5F5F5F5F5F5F5F5F5F5F5F5F5F5F5F5F5F5F5F5F5F5F5F5F5F5F5F5E2E2F5F5F5F5F5F5F5F5F5F5F5F5F5F5ECF5F5F5F5F5F5F5F5DCF5F5F5F5F5F5F5ECF5F5F5F5F5F5F5F5F5F5F5F5F5F5F5E2E2F5F5E2F5F5F5F5F5F5F5F5F5F5F5F5F5F5F5F5E2F5F5F5F5E2E2F5F5F5F5E2F5F5F5
310
F5F5F5F5F5F5F5F5F5F5F5F5F5E2F5F5F5F5F5F5F5F5F5F5F5F5F5F5F5F5F5F5F5F5F5F5F5F5F5F5F5F5F5F5F5F5F5F5F5F5F5F5F5F5F5F5F5F5F5F5F5F5F5F5F5F5F5F5F5F5F5F5F5F5F5F5F5F5F5F5F5F5F5F5F5F5F5F5F5F5F5F5F5F5F5F5F5E2F5F5F5F5F5F5F5F5F5F5F5F5F5ECF5F5F5F5F5F5F5F5DCF5F5F5F5F5F5
310
F5ECF5F5F5F5F5F5F5F5F5F5F5F5F5E2E2F5F5F5F5E2F5F5F5F5F5F5F5F5F5F5F5F5F5F5F5F5E2F5F5F5F5E2E2F5F5F5F5E2F5F5F5F5F5F5F5F5F5F5F5F5F5F5F5F5E2F5F5F5F5F5F5F5F5F5F5F5F5F5F5F5F5F5F5F5F5F5F5F5F5F5F5F5F5F5F5F5F5F5F5F5F5F5F5F5F5F5F5F5F5F5F5F5F5F5F5F5F5F5F5F5F5F5F5F5F5
310
F5F5F5F5F5F5F5F5F5F5F5F5F5F5F5F5F5F5F5F5F5F5F5F5E2E2F5F5F5F5F5F5F5F5F5F5F5ECF5F5F5F5F5F5F5F5DCF5F5F5F5F5F5F5ECF5F5F5F5F5F5F5F5F5F5F5F5E2F5F5F5F5F5F5E2F5F5F5F5F5F5F5F5F5F5F5F5F5F5F5F5E2F5F5F5F5E2E2F5F5F5F5E2F5F5F5F5F5F5F5F5F5F5F5F5F5F5F5F5E2F5F5F5F5F5F5F5
310
F5F5F5F5F5F5F5F5F5F5F5F5F5F5F5F5F5F5F5F5F5F5F5F5F5F5F5F5F5F5F5F5F5F5F5F5F5F5F5F5F5F5F5F5F5F5F5F5F5F5F5F5F5F5F5F5F5F5F5F5F5F5F5F5F5F5F5F5F5F5F5F5F5F5F5F5F5F5F5E2F5F5F5F5F5F5F5F5F5F5ECF5F5F5F5F5F5F5F5DCF5F5F5F5F5F5F5ECF5F5F5F5F5F5F5F5F5F5E2E2F5F5F5F5F5F5F5
310
E2F5F5F5F5F5F5F5F5F5F5F5F5F5F5F5F5E2F5F5F5F5E2E2F5F5F5F5E2F5F5F5F5F5F5F5F5F5F5F5F5F5F5F5F5E2F5F5F5F5F5F5F5F5F5F5F5F5F5F5F5F5F5F5F5F5F5F5F5F5F5F5F5F5F5F5F5F5F5F5F5F5F5F5F5F5F5F5F5F5F5F5F5F5F5F5F5F5F5F5F5F5F5F5F5F5F5F5F5F5F5F5F5F5F5F5F5F5F5F5F5F5F5F5F5F5F5
310
F5F5F5F5F5F5E2E2F5F5F5F5F5F5F5F5F5ECECECECECF5ECECECECECF5ECECECECECF5F5F5F5F5F5F5F5E2E2F5F5F5F5F5F5F5F5F5E2F5F5F5F5F5F5F5F5F5F5F5F5F5F5F5F5E2F5F5F5F5E2E2F5F5F5F5E2F5F5F5F5F5F5F5F5F5F5F5F5F5F5F5F5E2F5F5F5F5F5F5F5F5F5F5F5F5F5F5F5F5F5F5F5F5F5F5F5F5F5F5F5F5
310
F5F5F5F5F5F5F5F5F5F5F5F5F5F5F5F5F5F5F5F5F5F5F5F5F5F5F5F5F5F5F5F5F5F5F5F5F5F5F5F5F5F5F5F5F5F5F5F5F5F5F5F5F5F5F5F5F5F5F5F5F5E2E2F5F5F5F5F5F5F5ECF5F5F5F5F5F5F5DCF5F5F5F5F5F5F5ECF5F5F5F5F5F5F5E2F5F5F5F5F5F5F5F5F5F5F5E2F5F5F5F5F5F5F5F5F5F5F5F5F5F5F5F5E2F5F5F5
310
F5E2E2F5F5F5F5E2F5F5F5F5F5F5F5F5F5F5F5F5F5F5F5F5E2F5F5F5F5F5F5F5F5F5F5F5F5F5F5F5F5F5F5F5F5F5F5F5F5F5F5F5F5F5F5F5F5F5F5F5F5F5F5F5F5F5F5F5F5F5F5F5F5F5F5F5F5F5F5F5F5F5F5F5F5F5F5F5F5F5F5F5F5F5F5F5F5F5F5F5F5F5F5F5F5F5F5F5F5F5F5F5F5F5F5E2F5F5F5F5F5F5F5ECF5F5F5
310
F5F5F5F5DCF5F5F5F5F5F5F5ECF5F5F5F5F5F5F5E2F5F5F5F5F5F5F5F5F5F5F5E2F5F5F5F5F5F5F5F5F5F5F5F5F5F5F5F5E2F5F5F5F5E2E2F5F5F5F5E2F5F5F5F5F5F5F5F5F5F5F5F5F5F5F5F5E2F5F5F5F5F5F5F5F5F5F5F5F5F5F5F5F5F5F5F5F5F5F5F5F5F5F5F5F5F5F5F5F5F5F5F5F5F5F5F5F5F5F5F5F5F5F5F5F5F5
310
F5F5F5F5F5F5F5F5F5F5F5F5F5F5F5F5F5F5F5F5F5F5F5F5F5F5F5F5F5F5F5F5F5F5F5F5F5F5F5F5F5E2F5F5F5F5F5F5F5ECF5F5F5F5F5F5F5DCF5F5F5F5F5F5F5ECF5F5F5F5F5F5F5E2F5F5F5F5F5F5F5F5F5F5F5E2F5F5F5F5F5F5F5F5F5F5F5F5F5F5F5F5E2F5F5F5F5E2E2F5F5F5F5E2F5F5F5F5F5F5F5F5F5F5F5F5F5
310
F5F5F5E2F5F5F5F5F5F5F5F5F5F5F5F5F5F5F5F5F5F5F5F5F5F5F5F5F5F5F5F5F5F5F5F5F5F5F5F5F5F5F5F5F5F5F5F5F5F5F5F5F5F5F5F5F5F5F5F5F5F5F5F5F5F5F5F5F5F5F5F5F5F5F5F5F5F5F5F5F5F5F5F5F5F5F5F5F5F5F5F5F5F5E2F5F5F5F5F5F5F5ECF5F5F5F5E2E2E2E2E2E2E2F5F5F5F5ECF5F5F5F5F5F5F5E2
310
F5F5F5F5F5F5F5F5F5F5F5E2F5F5F5F5F5F5F5F5F5F5F5F5F5F5F5F5E2F5F5F5F5E2E2F5F5F5F5E2F5F5F5F5F5F5F5F5F5F5F5F5F5F5F5F5E2F5F5F5F5F5F5F5F5F5F5F5F5F5F5F5F5F5F5F5F5F5F5F5F5F5F5F5F5F5F5F5F5F5F5F5F5F5F5F5F5F5F5F5F5F5F5F5F5F5F5F5F5F5F5F5F5F5F5F5F5F5F5F5F5F5F5F5F5F5F5
310
F5F5F5F5F5F5F5F5F5F5F5F5F5F5F5F5F5F5F5F5E2F5F5F5F5F5F5F5ECECECECECECF5F5DCF5F5ECECECECECECF5F5F5F5F5F5F5E2F5F5F5F5F5F5F5F5F5F5F5E2F5F5F5F5F5F5F5F5F5F5F5F5F5F5F5F5E2F5F5F5F5E2E2F5F5F5F5E2F5F5F5F5F5F5F5F5F5F5F5F5F5F5F5F5E2F5F5F5F5F5F5F5F5F5F5F5F5F5F5F5F5F5
310
F5F5F5F5F5F5F5F5F5F5F5F5F5F5F5F5F5F5F5F5F5F5F5F5F5F5F5F5F5F5F5F5F5F5F5F5F5F5F5F5F5F5F5F5F5F5F5F5F5F5F5F5F5F5F5F5F5F5F5F5F5F5F5F5F5F5F5F5F5F5F5F5F5E2F5F5F5F5F5F5F5ECF5F5F5F5E2F5F5DCF5F5E2F5F5F5F5ECF5F5F5F5F5F5F5E2F5F5F5F5F5F5F5F5F5F5F5E2F5F5F5F5F5F5F5F5F5
310
F5F5F5F5F5F5F5E2F5F5F5F5E2E2F5F5F5F5E2F5F5F5F5F5F5F5F5F5F5F5F5F5F5F5F5E2F5F5F5F5F5F5F5F5F5F5F5F5F5F5F5F5F5F5F5F5F5F5F5F5F5F5F5F5F5F5F5F5F5F5F5F5F5F5F5F5F5F5F5F5F5F5F5F5F5F5F5F5F5F5F5F5F5F5F5F5F5F5F5F5F5F5F5F5F5F5F5F5F5F5F5F5F5F5F5F5F5F5F5F5F5F5F5F5F5F5E2
310
E2E2E2E2E2E2E2E2E2E2E2E2ECF5F5DCF5F5E2E2E2E2E2E2E2E2E2E2E2E2E2E2F5F5F5F5F5F5F5F5F5F5F5E2F5F5F5F5F5F5F5F5F5F5F5F5F5F5F5F5E2F5F5F5F5E2E2F5F5F5F5E2F5F5F5F5F5F5F5F5F5F5F5F5F5F5F5F5E2F5F5F5F5F5F5F5F5F5F5F5F5F5F5F5F5F5F5F5F5F5F5F5F5F5F5F5F5F5F5F5F5F5F5F5F5F5F5
310
F5F5F5F5F5F5F5F5F5F5F5F5F5F5F5F5F5F5F5F5F5F5F5F5F5F5F5F5F5F5F5F5F5F5F5F5F5F5F5F5F5F5F5F5F5F5F5F5F5F5F5F5F5F5F5F5F5F5F5F5F5F5F5F5F5F5F5F5DCF5F5F5F5F5F5F5F5F5F5F5F5F5F5F5F5F5F5F5F5F5F5F5F5F5F5F5E2F5F5F5F5F5F5F5F5F5F5F5F5F5F5F5F5E2F5F5F5F5E2E2F5F5F5F5F5F5F5
310
F5F5F5F5F5F5F5F5F5F5F5F5F5F5E2F5F5F5F5F5F5F5F5F5F5F5F5F5F5F5F5F5F5F5F5F5F5F5F5F5F5F5F5F5F5F5F5F5F5F5F5F5F5F5F5F5F5F5F5F5F5F5F5F5F5F5F5F5F5F5F5F5F5F5F5F5F5F5F5F5F5F5F5F5F5F5F5F5F5F5F5F5F5F5F5F5F5F5F5F5F5F5F5F5F5F5F5F5F5F5F5F5F5F5F5F5F5F5F5F5F5F5F5F5F5F5F5
310
F5F5F5F5F5F5F5F5F5F5F5F5F5F5F5F5F5F5F5F5F5F5E2F5F5F5F5F5F5F5F5F5F5F5F5F5F5F5F5F5F5F5F5F5E2E2F5F5F5F5F5F5F5F5F5F5F5F5F5F5F5F5F5F5F5F5F5E2F5F5F5F5F5F5F5F5F5F5F5F5F5F5F5F5F5F5F5F5F5F5F5F5F5F5F5F5F5F5F5F5F5F5F5F5F5F5F5F5F5F5F5F5F5F5F5F5F5F5F5F5F5F5F5F5F5F5F5
310
F5F5F5F5F5F5F5F5F5F5F5F5F5F5F5F5F5F5F5F5F5F5F5F5F5F5F5F5F5F5F5F5F5F5F5F5F5F5F5F5F5F5F5F5F5F5F5F5F5F5F5F5F5F5F5F5F5F5F5F5F5F5F5F5F5F5F5F5F5F5F5F5F5F5F5E2F5F5F5F5F5F5F5F5F5F5F5F5F5F5F5F5F5F5F5F5F5E2E2F5F5F5F5F5F5F5F5F5F5F5F5F5F5F5F5F5F5F5F5F5E2F5F5F5F5F5F5
310
F5F5F5F5F5F5F5F5F5F5F5F5F5F5F5F5F5F5F5F5F5F5F5F5F5F5F5F5F5F5F5F5F5F5F5F5F5F5F5F5F5F5F5F5F5F5F5F5F5F5F5F5F5F5F5F5F5F5F5F5F5F5F5F5F5F5F5F5F5F5F5F5F5F5F5F5F5F5F5F5F5F5F5F5F5F5F5F5F5F5F5F5F5F5F5F5F5F5F5F5F5F5F5F5F5F5F5F5F5F5F5F5F5F5F5F5F5F5F5F5F5F5F5F5F5F5F5
310
F5E2F5F5F5F5F5F5F5F5F5F5F5F5F5F5F5F5F5F5F5F5F5E2E2F5F5F5F5F5F5F5F5F5F5F5F5F5F5F5F5F5F5F5F5F5E2F5F5F5F5F5F5F5F5F5F5F5F5F5F5F5F5F5F5F5F5F5F5F5F5F5F5F5F5F5F5F5F5F5F5F5F5F5F5F5F5F5F5F5F5F5F5F5F5F5F5F5F5F5F5F5F5F5F5F5F5F5F5F5F5F5F5F5F5F5F5F5F5F5F5F5F5F5F5F5F5
310
F5F5F5F5F5F5F5F5F5F5F5F5F5F5F5F5F5F5F5F5F5F5F5F5F5F5F5F5F5F5F5F5F5F5F5F5F5F5F5F5F5F5F5F5F5F5F5F5F5F5F5F5F5F5E2F5F5F5F5F5F5F5F5F5F5F5F5F5F5F5F5F5F5F5F5F5E2E2F5F5F5F5F5F5F5F5F5F5F5F5F5F5F5F5F5F5F5F5F5E2F5F5F5F5F5F5F5F5F5F5F5F5F5F5F5F5F5F5F5F5F5F5F5F5F5F5F5
310
F5F5F5F5F5F5F5F5F5F5F5F5F5F5F5F5F5F5F5F5F5F5F5F5F5F5F5F5F5F5F5F5F5F5F5F5F5F5F5F5F5F5F5F5F5F5F5F5F5F5F5F5F5F5F5F5F5F5F5F5F5F5F5F5F5F5F5F5F5F5F5F5F5F5F5F5F5F5F5F5F5F5F5F5F5F5F5F5F5F5F5F5F5F5F5F5F5F5F5F5F5F5F5F5F5F5F5E2F5F5F5F5F5F5F5F5F5F5F5F5F5F5F5F5F5F5F5
310
F5F5E2E2F5F5F5F5F5F5F5F5F5F5F5F5F5F5F5F5F5F5F5F5F5E2F5F5F5F5F5F5F5F5F5F5F5F5F5F5F5F5F5F5F5F5F5F5F5F5F5F5F5F5F5F5F5F5F5F5F5F5F5F5F5F5F5F5F5F5F5F5F5F5F5F5F5F5F5F5F5F5F5F5F5F5F5F5F5F5F5F5F5F5F5F5F5F5F5F5F5F5F5F5F5F5F5F5F5F5F5F5F5F5F5F5F5F5F5F5F5F5F5F5F5F5F5
310
F5F5F5F5F5F5F5F5F5F5F5F5F5F5F5F5F5F5F5F5F5F5F5F5F5F5F5F5F5F5F5F5F5E2F5F5F5F5F5F5F5F5F5F5F5F5F5F5F5F5F5F5F5F5F5E2E2F5F5F5F5F5F5F5F5F5F5F5F5F5F5F5F5F5F5F5F5F5E2F5F5F5F5F5F5F5F5F5F5F5F5F5F5F5F5F5F5F5F5F5F5F5F5F5F5F5F5F5F5F5F5F5F5F5F5F5F5F5F5F5F5F5F5F5F5F5F5
310
F5F5F5F5F5F5F5F5F5F5F5F5F5F5F5F5F5F5F5F5F5F5F5F5F5F5F5F5F5F5F5F5F5F5F5F5F5F5F5F5F5F5F5F5F5F5F5F5F5F5F5F5F5F5F5F5F5F5F5F5F5F5F5F5F5F5F5F5F5F5F5F5F5F5F5F5F5F5F5F5F5F5F5F5F5F5E2F5F5F5F5F5F5F5F5F5F5F5F5F5F5F5F5F5F5F5F5F5E2E2F5F5F5F5F5F5F5F5F5F5F5F5F5F5F5F5F5
310
F5F5F5F5E2F5F5F5F5F5F5F5F5F5F5F5F5F5F5F5F5F5F5F5F5F5F5F5F5F5F5F5F5F5F5F5F5F5F5F5F5F5F5F5F5F5F5F5F5F5F5F5F5F5F5F5F5F5F5F5F5F5F5F5F5F5F5F5F5F5F5F5F5F5F5F5F5F5F5F5F5F5F5F5F5F5F5F5F5F5F5F5F5F5F5F5F5F5F5F5F5F5F5F5F5F5F5F5F5F5F5F5F5F5F5F5F5F5F5F5F5F5F5F5F5F5F5
310
F5F5F5F5F5F5F5F5F5F5F5F5E2F5F5F5F5F5F5F5F5F5F5F5F5F5F5F5F5F5F5F5F5F5E2E2F5F5F5F5F5F5F5F5F5F5F5F5F5F5F5F5F5F5F5F5F5E2F5F5F5F5F5F5F5F5F5F5F5F5F5F5F5F5F5F5F5F5F5F5F5F5F5F5F5F5F5F5F5F5F5F5F5F5F5F5F5F5F5F5F5F5F5F5F5F5F5F5F5F5F5F5F5F5F5F5F5F5F5F5F5F5F5F5F5F5F5
310
F5F5F5F5F5F5F5F5F5F5F5F5F5F5F5F5F5F5F5F5F5F5F5F5F5F5F5F5F5F5F5F5F5F5F5F5F5F5F5F5F5F5F5F5F5F5F5F5F5F5F5F5F5F5F5F5F5F5F5F5F5F5F5F5F5E2F5F5F5F5F5F5F5F5F5F5F5F5F5F5F5F5F5F5F5F5F5E2E2F5F5F5F5F5F5F5F5F5F5F5F5F5F5F5F5F5F5F5F5F5E2F5F5F5F5F5F5F5F5F5F5F5F5F5F5F5F5
310
F5F5F5F5F5F5F5F5F5F5F5F5F5F5F5F5F5F5F5F5F5F5F5F5F5F5F5F5F5F5F5F5F5F5F5F5F5F5F5F5F5F5F5F5F5F5F5F5F5F5F5F5F5F5F5F5F5F5F5F5F5F5F5F5F5F5F5F5F5F5F5F5F5F5F5F5F5F5F5F5F5F5F5F5F5F5F5F5F5F5F5F5F5F5F5F5F5F5F5F5F5F5F5F5F5F5F5F5F5F5F5F5F5F5F5F5F5F5E2F5F5F5F5F5F5F5F5
310
F5F5F5F5F5F5F5F5F5F5F5F5F5E2E2F5F5F5F5E2F5F5F5F5F5F5F5F5F5F5F5F5F5F5F5F5E2F5F5F5F5F5F5F5F5F5F5F5F5F5F5F5F5F5F5F5F5F5F5F5F5F5F5F5F5F5F5F5F5F5F5F5F5F5F5F5F5F5F5F5F5F5F5F5F5F5F5F5F5F5F5F5F5F5F5F5F5F5F5F5F5F5F5F5F5F5F5F5F5F5F5F5F5F5F5F5F5F5F5F5F5F5F5F5F5F5F5
310
F5F5F5F5F5F5F5F5F5F5F5F5F5F5F5F5F5F5F5F5F5F5F5F5F5F5F5F5F5F5F5F5F5F5F5F5F5F5F5F5F5F5F5F5E2F5F5F5F5F5F5F5F5F5F5F5F5F5F5F5F5E2F5F5F5F5E2E2F5F5F5F5E2F5F5F5F5F5F5F5F5F5F5F5F5F5F5F5F5E2F5F5F5F5F5F5F5F5F5F5F5F5F5F5F5F5F5F5F5F5F5F5F5F5F5F5F5F5F5F5F5F5F5F5F5F5F5
310
F5F5F5F5F5F5F5F5F5F5F5F5F5F5F5F5F5F5F5F5F5F5F5F5F5F5F5F5F5F5F5F5F5F5F5F5F5F5F5F5F5F5F5F5F5F5F5F5F5F5F5F5F5F5F5F5F5F5F5F5F5F5F5F5F5F5F5F5F5F5F5F5F5F5F5F5F5F5F5F5F5F5F5F5F5F5F5F5F5F5F5F5F5F5F5F5F5E2F5F5F5F5F5F5F5F5F5F5F5F5F5F5F5F5E2F5F5F5F5E2E2F5F5F5F5E2F5
310
F5F5F5F5F5F5F5F5F5F5F5F5F5F5F5E2F5F5F5F5F5F5F5F5F5F5F5F5F5F5F5F5F5F5F5F5F5F5F5F5F5F5F5F5F5F5F5F5F5F5F5F5F5F5F5F5F5F5F5F5F5F5F5F5F5F5F5F5F5F5F5F5F5F5F5F5F5F5F5F5F5F5F5F5F5F5F5F5F5F5F5F5F5F5F5F5F5F5F5F5F5F5F5F5F5F5F5F5F5F5F5F5F5F5F5F5F5F5F5F5F5F5F5F5F5F5F5
310
F5F5F5F5F5F5F5F5F5F5F5F5F5F5F5F5F5F5F5F5F5F5F5E2F5F5F5F5F5F5F5F5F5F5F5F5F5F5F5F5E2F5F5F5F5E2E2F5F5F5F5E2F5F5F5F5F5F5F5F5F5F5F5F5F5F5F5F5E2F5F5F5F5F5F5F5F5F5F5F5F5F5F5F5F5F5F5F5F5F5F5F5F5F5F5F5F5F5F5F5F5F5F5F5F5F5F5F5F5F5F5F5F5F5F5F5F5F5F5F5F5F5F5F5F5F5F5
310
F5F5F5F5F5F5F5F5F5F5F5F5F5F5F5F5F5F5F5F5F5F5F5F5F5F5F5F5F5F5F5F5F5F5F5F5F5F5F5F5F5F5F5F5F5F5F5F5F5F5F5F5F5F5F5F5F5F5F5F5F5F5F5F5F5F5F5F5F5F5F5F5F5F5F5F5E2F5F5F5F5F5F5F5F5F5F5F5F5F5F5F5F5E2F5F5F5F5E2E2F5F5F5F5E2F5F5F5F5F5F5F5F5F5F5F5F5F5F5F5F5E2F5F5F5F5F5
310
F5F5F5F5F5F5F5F5F5F5F5F5F5F5F5F5F5F5F5F5F5F5F5F5F5F5F5F5F5F5F5F5F5F5F5F5F5F5F5F5F5F5F5F5F5F5F5F5F5F5F5F5F5F5F5F5F5F5F5F5F5F5F5F5F5F5F5F5F5F5F5F5F5F5F5F5F5F5F5F5F5F5F5F5F5F5F5F5F5F5F5F5F5F5F5F5F5F5F5F5F5F5F5F5F5F5F5F5F5F5F5F5F5F5F5F5F5F5F5F5F5F5F5F5F5F5F5
310
F5F5E2F5F5F5F5F5F5F5F5F5F5F5F5F5F5F5F5E2F5F5F5F5E2E2F5F5F5F5E2F5F5F5F5F5F5F5F5F5F5F5F5F5F5F5F5E2F5F5F5F5F5F5F5F5F5F5F5F5F5F5F5F5F5F5F5F5F5F5F5F5F5F5F5F5F5F5F5F5F5F5F5F5F5F5F5F5F5F5F5F5F5F5F5F5F5F5F5F5F5F5F5F5F5F5F5F5F5F5F5F5F5F5F5F5F5F5F5F5F5F5F5F5F5F5F5
310
F5F5F5F5F5F5F5F5F5F5F5F5F5F5F5F5F5F5F5F5F5F5F5F5F5F5F5F5F5F5F5F5F5F5F5F5F5F5F5F5F5F5F5F5F5F5F5F5F5F5F5F5F5F5F5E2F5F5F5F5F5F5F5F5F5F5F5F5F5F5F5F5E2F5F5F5F5E2E2F5F5F5F5E2F5F5F5F5F5F5F5F5F5F5F5F5F5F5F5F5E2F5F5F5F5F5F5F5F5F5F5F5F5F5F5F5F5F5F5F5F5F5F5F5F5F5F5
310
F5F5F5F5F5F5F5F5F5F5F5F5F5F5F5F5F5F5F5F5F5F5F5F5F5F5F5F5F5F5F5F5F5F5F5F5F5F5F5F5F5F5F5F5F5F5F5F5F5F5F5F5F5F5F5F5F5F5F5F5F5F5F5F5F5F5F5F5F5F5F5F5F5F5F5F5F5F5F5F5F5F5F5F5F5F5F5F5F5F5F5F5F5F5F5F5F5F5F5F5F5F5F5F5F5F5F5F5E2F5F5F5F5F5F5F5F5F5F5F5F5F5F5F5F5E2F5
310
F5F5F5E2E2F5F5F5F5E2F5F5F5F5F5F5F5F5F5F5F5F5F5F5F5F5E2F5F5F5F5F5F5F5F5F5F5F5F5F5F5F5F5F5F5F5F5F5F5F5F5F5F5F5F5F5F5F5F5F5F5F5F5F5F5F5F5F5F5F5F5F5F5F5F5F5F5F5F5F5F5F5F5F5F5F5F5F5F5F5F5F5F5F5F5F5F5F5F5F5F5F5F5F5F5F5F5F5F5F5F5F5F5F5F5F5F5F5F5F5F5F5F5F5F5F5F5
310
F5F5F5F5F5F5F5F5F5F5F5F5F5F5F5F5F5F5F5F5F5F5F5F5F5F5F5F5F5F5F5F5F5F5E2F5F5F5F5F5F5F5F5F5F5F5F5F5F5F5F5E2F5F5F5F5E2E2F5F5F5F5E2F5F5F5F5F5F5F5F5F5F5F5F5F5F5F5F5E2F5F5F5F5F5F5F5F5F5F5F5F5F5F5F5F5F5F5F5F5F5F5F5F5F5F5F5F5F5F5F5F5F5F5F5F5F5F5F5F5F5F5F5F5F5F5F5
310
F5F5F5F5F5F5F5F5F5F5F5F5F5F5F5F5F5F5F5F5F5F5F5F5F5F5F5F5F5F5F5F5F5F5F5F5F5F5F5F5F5F5F5F5F5F5F5F5F5F5F5F5F5F5F5F5F5F5F5F5F5F5F5F5F5F5F5F5F5F5F5F5F5F5F5F5F5F5F5F5F5F5F5F5F5F5F5E2F5F5F5F5F5F5F5F5F5F5F5F5F5F5F5F5E2F5F5F5F5E2E2F5F5F5F5E2F5F5F5F5F5F5F5F5F5F5F5
310
F5F5F5F5F5E2F5F5F5F5F5F5F5F5F5F5F5F5F5F5F5F5F5F5F5F5F5F5F5F5F5F5F5F5F5F5F5F5F5F5F5F5F5F5F5F5F5F5F5F5F5F5F5F5F5F5F5F5F5F5F5F5F5F5F5F5F5F5F5F5F5F5F5F5F5F5F5F5F5F5F5F5F5F5F5F5F5F5F5F5F5F5F5F5F5F5F5F5F5F5F5F5F5F5F5F5F5F5F5F5F5F5F5F5F5F5F5F5F5F5F5F5F5F5F5F5F5
310
F5F5F5F5F5F5F5F5F5F5F5F5F5E2F5F5F5F5F5F5F5F5F5F5F5F5F5F5F5F5E2F5F5F5F5E2E2F5F5F5F5E2F5F5F5F5F5F5F5F5F5F5F5F5F5F5F5F5E2F5F5F5F5F5F5F5F5F5F5F5F5F5F5F5F5F5F5F5F5F5F5F5F5F5F5F5F5F5F5F5F5F5F5F5F5F5F5F5F5F5F5F5F5F5F5F5F5F5F5F5F5F5F5F5F5F5F5F5F5F5F5F5F5F5F5F5F5
310
F5F5F5F5F5F5F5F5F5F5F5F5F5F5F5F5F5F5F5F5F5F5F5F5F5F5F5F5F5F5F5F5F5F5F5F5F5F5F5F5F5F5F5F5F5F5F5F5F5F5F5F5F5F5F5F5F5F5F5F5F5F5F5F5F5F5E2F5F5F5F5F5F5F5F5F5F5F5F5F5F5F5F5E2F5F5F5F5E2E2F5F5F5F5E2F5F5F5F5F5F5F5F5F5F5F5F5F5F5F5F5E2F5F5F5F5F5F5F5F5F5F5F5F5F5F5F5
310
F5F5F5F5F5F5F5F5F5F5F5F5F5F5F5F5F5F5F5F5F5F5F5F5F5F5F5F5F5F5F5F5F5F5F5F5F5F5F5F5F5F5F5F5F5F5F5F5F5F5F5F5F5F5F5F5F5F5F5F5F5F5F5F5F5F5F5F5F5F5F5F5F5F5F5F5F5F5F5F5F5F5F5F5F5F5F5F5F5F5F5F5F5F5F5F5F5F5F5F5F5F5F5F5F5F5F5F5F5F5F5F5F5F5F5F5F5F5F5E2F5F5F5F5F5F5F5
310
F5F5F5F5F5F5F5F5F5E2F5F5F5F5E2E2F5F5F5F5E2F5F5F5F5F5F5F5F5F5F5F5F5F5F5F5F5E2F5F5F5F5F5F5F5F5F5F5F5F5F5F5F5F5F5F5F5F5F5F5F5F5F5F5F5F5F5F5F5F5F5F5F5F5F5F5F5F5F5F5F5F5F5F5F5F5F5F5F5F5F5F5F5F5F5F5F5F5F5F5F5F5F5F5F5F5F5F5F5F5F5F5F5F5F5F5F5F5F5F5F5F5F5F5F5F5F5
310
F5F5F5F5F5F5F5F5F5F5F5F5F5F5F5F5F5F5F5F5F5F5F5F5F5F5F5F5F5F5F5F5F5F5F5F5F5F5F5F5F5F5F5F5F5E2F5F5F5F5F5F5F5F5F5F5F5F5F5F5F5F5E2F5F5F5F5E2E2F5F5F5F5E2F5F5F5F5F5F5F5F5F5F5F5F5F5F5F5F5E2F5F5F5F5F5F5F5F5F5F5F5F5F5F5F5F5F5F5F5F5F5F5F5F5F5F5F5F5F5F5F5F5F5F5F5F5
310
F5F5F5F5F5F5F5F5F5F5F5F5F5F5F5F5F5F5F5F5F5F5F5F5F5F5F5F5F5F5F5F5F5F5F5F5F5F5F5F5F5F5F5F5F5F5F5F5F5F5F5F5F5F5F5F5F5F5F5F5F5F5F5F5F5F5F5F5F5F5F5F5F5F5F5F5F5F5F5F5F5F5F5F5F5F5F5F5F5F5F5F5F5F5F5F5F5F5E2F5F5F5F5F5F5F5F5F5F5F5F5F5F5F5F5E2F5F5F5F5E2E2F5F5F5F5E2
310
F5F5F5F5F5F5F5F5F5F5F5F5F5F5F5F5E2F5F5F5F5F5F5F5F5F5F5F5F5F5F5F5F5F5F5F5F5F5F5F5F5F5F5F5F5F5F5F5F5F5F5F5F5F5F5F5F5F5F5F5F5F5F5F5F5F5F5F5F5F5F5F5F5F5F5F5F5F5F5F5F5F5F5F5F5F5F5F5F5F5F5F5F5F5F5F5F5F5F5F5F5F5F5F5F5F5F5F5F5F5F5F5F5F5F5F5F5F5F5F5F5F5F5F5F5F5F5
310
F5F5F5F5F5F5F5F5F5F5F5F5F5F5F5F5F5F5F5F5F5F5F5F5E2F5F5F5F5F5F5F5F5F5F5F5F5F5F5F5F5E2F5F5F5F5E2E2F5F5F5F5E2F5F5F5F5F5F5F5F5F5F5F5F5F5F5F5F5E2F5F5F5F5F5F5F5F5F5F5F5F5F5F5F5F5F5F5F5F5F5F5F5F5F5F5F5F5F5F5F5F5F5F5F5F5F5F5F5F5F5F5F5F5F5F5F5F5F5F5F5F5F5F5F5F5F5
310
F5F5F5F5F5F5F5F5F5F5F5F5F5F5F5F5F5F5F5F5F5F5F5F5F5F5F5F5F5F5F5F5F5F5F5F5F5F5F5F5F5F5F5F5F5F5F5F5F5F5F5F5F5F5F5F5F5F5F5F5F5F5F5F5F5F5F5F5F5F5F5F5F5F5F5F5F5E2F5F5F5F5F5F5F5F5F5F5F5F5F5F5F5F5E2F5F5F5F5E2E2F5F5F5F5F5F5F5F5F5F5F5F5F5F5F5F5F5F5F5F5F5E2F5F5F5F5
310
F5F5F5F5F5F5F5F5F5F5F5F5F5F5F5F5F5F5F5F5F5F5F5F5F5F5F5F5F5F5F5F5F5F5F5F5F5F5F5F5F5F5F5F5F5F5F5F5F5F5F5F5F5F5F5F5F5F5F5F5F5F5F5F5F5F5F5F5F5F5F5F5F5F5F5F5F5F5F5F5F5F5F5F5F5F5F5F5F5F5F5F5F5F5F5F5F5F5F5F5F5F5F5F5F5F5F5F5F5F5F5F5F5F5F5F5F5F5F5F5F5F5F5F5F5F5F5
310
F5F5F5E2F5F5F5F5F5F5F5F5F5F5F5F5F5F5F5F5F5F5F5F5F5E2E2F5F5F5F5F5F5F5F5F5F5F5F5F5F5F5F5F5F5F5F5F5E2F5F5F5F5F5F5F5F5F5F5F5F5F5F5F5F5F5F5F5F5F5F5F5F5F5F5F5F5F5F5F5F5F5F5F5F5F5F5F5F5F5F5F5F5F5F5F5F5F5F5F5F5F5F5F5F5F5F5F5F5F5F5F5F5F5F5F5F5F5F5F5F5F5F5F5F5F5F5
310
F5F5F5F5F5F5F5F5F5F5F5F5F5F5F5F5F5F5F5F5F5F5F5F5F5F5F5F5F5F5F5F5F5F5F5F5F5F5F5F5F5F5F5F5F5F5F5F5F5F5F5F5F5F5F5F5E2F5F5F5F5F5F5F5F5F5F5F5F5F5F5F5F5F5F5F5F5F5E2E2F5F5F5F5F5F5F5F5F5F5F5F5F5F5F5F5F5F5F5F5F5E2F5F5F5F5F5F5F5F5F5F5F5F5F5F5F5F5F5F5F5F5F5F5F5F5F5
310
F5F5F5F5F5F5F5F5F5F5F5F5F5F5F5F5F5F5F5F5F5F5F5F5F5F5F5F5F5F5F5F5F5F5F5F5F5F5F5F5F5F5F5F5F5F5F5F5F5F5F5F5F5F5F5F5F5F5F5F5F5F5F5F5F5F5F5F5F5F5F5F5F5F5F5F5F5F5F5F5F5F5F5F5F5F5F5F5F5F5F5F5F5F5F5F5F5F5F5F5F5F5F5F5F5F5F5F5F5E2F5F5F5F5F5F5F5F5F5F5F5F5F5F5F5F5F5
310
F5F5F5F5E2E2F5F5F5F5F5F5F5F5F5F5F5F5F5F5F5F5F5F5F5F5F5E2F5F5F5F5F5F5F5F5F5F5F5F5F5F5F5F5F5F5F5F5F5F5F5F5F5F5F5F5F5F5F5F5F5F5F5F5F5F5F5F5F5F5F5F5F5F5F5F5F5F5F5F5F5F5F5F5F5F5F5F5F5F5F5F5F5F5F5F5F5F5F5F5F5F5F5F5F5F5F5F5F5F5F5F5F5F5F5F5F5F5F5F5F5F5F5F5F5F5F5
310
F5F5F5F5F5F5F5F5F5F5F5F5F5F5F5F5F5F5F5F5F5F5F5F5F5F5F5F5F5F5F5F5F5F5F5E2F5F5F5F5F5F5F5F5F5F5F5F5F5F5F5F5F5F5F5F5F5E2E2F5F5F5F5F5F5F5F5F5F5F5F5F5F5F5F5F5F5F5F5F5E2E2E2E2E2E2E2E2E2E2E2E2E2E2E2E2E2E2E2E2E2E2E2E2E2E2E2E2E2E2E2E2E2E2E2E2E2E2E2E2E2E2E2E2E2E2E2
310
E2E2E2E2E2E2E2E2E2E2E2E2E2E2E2E2E2E2E2E2E2E2E2E2E2E2E2E2E2E2E2E2E2E2E2E2E2E2E2E2E2E2E2E2E2E2E2E2E2E2E2E2E2E2E2E2E2E2E2E2E2E2E2E2E2E2E2E2E2E2E2E2E2E2E2E2E2E2E2E2E2E2E2E2E2E2E2E2E2F5F5F5F5F5F5F5F5F5F5F5F5F5F5F5F5F5F5F5F5F5E2E2F5F5F5F5F5F5F5F5F5F5F5F5F5F5F5
310
F5F5F5F5F5F5F5F5F5F5F5F5F5F5F5F5F5F5F5F5F5F5F5F5F5F5F5F5F5F5F5F5F5F5F5F5F5F5F5F5F5F5F5F5F5F5F5F5F5F5F5F5F5F5F5F5F5F5F5F5F5F5F5F5F5F5F5F5F5F5F5F5F5F5F5F5F5F5F5F5F5F5F5F5F5F5F5F5F5F5F5F5F5F5F5F5F5F5F5F5F5F5F5F5F5F5F5F5F5F5F5F5F5F5F5F5F5F5F5F5F5F5F5F5F5F5F5
310
F5F5F5F5F5F5F5F5F5F5F5F5F5F5F5F5F5F5F5F5F5F5F5F5F5F5F5F5F5F5F5F5F5F5F5F5E2E2F5F5F5F5F5F5F5F5F5F5F5F5F5F5F5F5F5F5F5F5F5F5F5F5F5F5F5F5F5F5F5F5F5F5F5F5F5F5F5F5F5F5F5F5F5F5F5F5F5F5F5F5F5F5F5F5F5F5F5F5F5F5F5F5F5F5F5F5F5F5F5F5F5F5F5F5F5F5F5F5F5F5F5F5F5F5F5F5F5
310
F5F5F5F5F5F5F5F5F5F5F5F5F5F5F5F5F5F5F5F5F5F5F5F5F5F5F5F5F5F5F5F5F5F5F5F5F5F5F5F5F5F5F5F5F5F5F5F5F5F5F5F5F5F5F5F5F5F5F5F5F5F5F5F5F5F5F5F5F5F5F5F5F5F5F5F5F5F5F5F5F5F5F5F5F5F5F5F5F5E2E2F5F5F5F5F5F5F5F5F5F5F5F5F5F5F5F5F5F5F5F5F5F5F5F5F5F5F5F5F5F5F5F5F5F5F5F5
310
F5F5F5F5F5F5F5F5F5F5F5F5F5F5F5F5F5F5F5F5F5F5F5F5F5F5F5F5F5F5F5F5F5F5F5F5F5F5F5F5F5F5F5F5F5F5F5F5F5F5F5F5F5F5F5F5F5F5F5F5F5F5F5F5F5F5F5F5F5F5F5F5F5F5F5F5F5F5F5F5F5F5F5F5F5F5F5F5F5F5F5F5F5F5F5F5F5F5F5F5F5F5F5F5F5F5F5F5F5F5F5F5F5F5F5F5F5F5F5F5F5F5F5F5F5F5F5
310
F5F5F5F5F5F5F5F5F5F5F5F5F5F5F5E2E2F5F5F5F5F5F5F5F5F5F5F5F5F5F5F5F5F5F5F5F5F5F5F5F5F5F5F5F5F5F5F5F5F5F5F5F5F5F5F5F5F5F5F5F5F5F5F5F5F5F5F5F5F5F5F5F5F5F5F5F5F5F5F5F5F5F5F5F5F5F5F5F5F5F5F5F5F5F5F5F5F5F5F5F5F5F5F5F5F5F5F5F5F5F5F5F5F5F5F5F5F5F5F5F5F5F5F5F5F5F5
310
F5F5F5F5F5F5F5F5F5F5F5F5F5F5F5F5F5F5F5F5F5F5F5F5F5F5F5F5F5F5F5F5F5F5F5F5F5F5F5F5F5F5F5F5F5F5F5F5F5F5F5F5F5F5F5F5F5F5F5F5F5F5F5F5F5F5F5F5E2E2F5F5F5F5E2F5F5F5F5F5F5F5F5F5F5F5F5F5F5F5F5F5F5F5F5F5F5F5F5F5F5F5F5F5F5F5F5F5F5F5F5F5F5F5F5F5F5F5F5F5F5F5F5F5F5F5F5
310
F5F5F5F5F5F5F5F5F5F5F5F5F5F5F5F5F5F5F5F5F5F5F5F5F5F5F5F5F5F5F5F5F5F5F5F5F5F5F5F5F5F5F5F5F5F5F5F5F5F5F5F5F5F5F5F5F5F5F5F5F5F5F5F5F5F5F5F5F5F5F5F5F5F5F5F5F5F5F5F5F5F5F5F5F5F5F5F5F5F5F5F5F5F5F5F5F5F5F5F5F5F5F5F5F5F5F5F5F5F5F5F5F5F5F5F5E2F5F5F5F5E2E2F5F5F5F5
310
E2F5F5F5F5F5F5F5F5F5F5F5F5F5F5F5F5F5F5F5F5F5F5F5F5F5F5F5F5F5F5F5F5F5F5F5F5F5F5F5F5F5F5F5F5F5F5F5F5F5F5F5F5F5F5F5F5F5F5F5F5F5F5F5F5F5F5F5F5F5F5F5F5F5F5F5F5F5F5F5F5F5F5F5F5F5F5F5F5F5F5F5F5F5F5F5F5F5F5F5F5F5F5F5F5F5F5F5F5F5F5F5F5F5F5F5F5F5F5F5F5F5F5F5F5F5F5
310
F5F5F5F5F5F5F5F5F5F5F5F5F5F5F5F5F5F5F5F5F5F5F5F5F5F5F5F5F5F5F5F5F5F5F5F5F5F5F5F5F5F5E2F5F5F5F5E2E2F5F5F5F5E2F5F5F5F5F5F5F5F5F5F5F5F5F5F5F5F5F5F5F5F5F5F5F5F5F5F5F5F5F5F5F5F5F5F5F5F5F5F5F5F5F5F5F5F5F5F5F5F5F5F5F5F5F5F5F5F5F5F5F5F5F5F5F5F5F5F5F5F5F5F5F5F5F5
310
F5F5F5F5F5F5F5F5F5F5F5F5F5F5F5F5F5F5F5F5F5F5F5F5F5F5F5F5F5F5F5F5F5F5F5F5F5F5F5F5F5F5F5F5F5F5F5F5F5F5F5F5F5F5F5F5F5F5F5F5F5F5F5F5F5F5F5F5F5F5F5F5F5F5F5F5F5F5F5F5F5F5F5F5F5F5F5F5F5F5F5F5F5F5F5E2F5F5F5F5E2E2F5F5F5F5E2F5F5F5F5F5F5F5F5F5F5F5F5F5F5F5F5F5F5F5F5
310
F5F5F5F5F5F5F5F5F5F5F5F5F5F5F5F5F5F5F5F5F5F5F5F5F5F5F5F5F5F5F5F5F5F5F5F5F5F5F5F5F5F5F5F5F5F5F5F5F5F5F5F5F5F5F5F5F5F5F5F5F5F5F5F5F5F5F5F5F5F5F5F5F5F5F5F5F5F5F5F5F5F5F5F5F5F5F5F5F5F5F5F5F5F5F5F5F5F5F5F5F5F5F5F5F5F5F5F5F5F5F5F5F5F5F5F5F5F5F5F5F5F5F5F5F5F5F5
310
F5F5F5F5F5F5F5F5F5F5F5F5F5F5F5F5F5F5F5F5F5E2F5F5F5F5E2E2F5F5F5F5E2F5F5F5F5F5F5F5F5F5F5F5F5F5F5F5F5F5F5F5F5F5F5F5F5F5F5F5F5F5F5F5F5F5F5F5F5F5F5F5F5F5F5F5F5F5F5F5F5F5F5F5F5F5F5F5F5F5F5F5F5F5F5F5F5F5F5F5F5F5F5F5F5F5F5F5F5F5F5F5F5F5F5F5F5F5F5F5F5F5F5F5F5F5F5
310
F5F5F5F5F5F5F5F5F5F5F5F5F5F5F5F5F5F5F5F5F5F5F5F5F5F5F5F5F5F5F5F5F5F5F5F5F5F5F5F5F5F5F5F5F5F5F5F5F5F5F5F5F5F5F5F5F5F5F5F5F5F5F5F5F5F5F5F5F5F5F5F5F5F5E2F5F5F5F5E2E2F5F5F5F5E2F5F5F5F5F5F5F5F5F5F5F5F5F5F5F5F5F5F5F5F5F5F5F5F5F5F5F5F5F5F5F5F5F5F5F5F5F5F5F5F5F5
310
F5F5F5F5F5F5F5F5F5F5F5F5F5F5F5F5F5F5F5F5F5F5F5F5F5F5F5F5F5F5F5F5F5F5F5F5F5F5F5F5F5F5F5F5F5F5F5F5F5F5F5F5F5F5F5F5F5F5F5F5F5F5F5F5F5F5F5F5F5F5F5F5F5F5F5F5F5F5F5F5F5F5F5F5F5F5F5F5F5F5F5F5F5F5F5F5F5F5F5F5F5F5F5F5F5F5F5F5F5F5F5F5F5F5F5F5F5F5F5F5F5F5F5F5F5F5F5
310
E2F5F5F5F5E2E2F5F5F5F5E2F5F5F5F5F5F5F5F5F5F5F5F5F5F5F5F5F5F5F5F5F5F5F5F5F5F5F5F5F5F5F5F5F5F5F5F5F5F5F5F5F5F5F5F5F5F5F5F5F5F5F5F5F5F5F5F5F5F5F5F5F5F5F5F5F5F5F5F5F5F5F5F5F5F5F5F5F5F5F5F5F5F5F5F5F5F5F5F5F5F5F5F5F5F5F5F5F5F5F5F5F5F5F5F5F5F5F5F5F5F5F5F5F5F5F5
310
F5F5F5F5F5F5F5F5F5F5F5F5F5F5F5F5F5F5F5F5F5F5F5F5F5F5F5F5F5F5F5F5F5F5F5F5F5F5F5F5F5F5F5F5F5F5F5F5F5F5F5F5F5E2F5F5F5F5E2E2F5F5F5F5E2F5F5F5F5F5F5F5F5F5F5F5F5F5F5F5F5F5F5F5F5F5F5F5F5F5F5F5F5F5F5F5F5F5F5F5F5F5F5F5F5F5F5F5F5F5F5F5F5F5F5F5F5F5F5F5F5F5F5F5F5F5F5
310
F5F5F5F5F5F5F5F5F5F5F5F5F5F5F5F5F5F5F5F5F5F5F5F5F5F5F5F5F5F5F5F5F5F5F5F5F5F5F5F5F5F5F5F5F5F5F5F5F5F5F5F5F5F5F5F5F5F5F5F5F5F5F5F5F5F5F5F5F5F5F5F5F5F5F5F5F5F5F5F5F5F5F5F5F5F5F5F5F5F5F5F5F5F5F5F5F5F5F5F5F5F5F5F5F5F5E2F5F5F5F5E2E2F5F5F5F5E2E2E2E2E2E2E2E2F5F5
310
F5F5F5F5F5F5F5E2E2E2E2E2E2E2E2E2E2E2E2E2E2E2F5F5F5F5F5F5F5F5F5E2E2E2E2E2E2E2E2E2E2E2E2E2E2E2E2F5F5F5F5F5F5F5F5E2E2E2E2E2E2E2E2E2E2E2E2E2E2E2E2F5F5F5F5F5F5F5F5E2E2E2E2E2E2E2E2E2E2E2E2E2E2E2E2F5F5F5F5F5F5F5F5E2E2E2E2E2E2E2E2E2E2E2E2E2E2E2E2F5F5F5F5F5F5F5F5
310
F5E2E2E2E2E2E2E2E2E2E2E2E2E2E2E2F5F5F5F5F5F5F5F5F5E2E2E2E2E2E2E2E2F5F5F5F5E2E2F5F5F5F5F5F5F5F5F5F5F5F5F5F5F5F5F5F5F5F5F5F5F5F5F5F5F5F5F5F5F5F5F5F5F5F5F5F5F5F5F5F5F5F5F5F5F5F5F5F5F5F5F5F5F5F5F5F5F5F5F5F5F5F5F5F5F5F5F5F5F5F5F5F5F5F5F5F5F5F5F5F5F5F5F5F5F5F5
310
F5F5F5F5F5F5F5F5F5F5F5F5F5F5F5F5F5F5F5F5F5F5F5F5F5F5F5F5F5F5F5F5F5F5F5F5F5F5F5F5F5F5F5F5F5F5F5F5F5F5F5F5F5F5F5F5F5F5F5F5F5F5F5F5F5F5F5F5F5F5F5F5F5F5F5F5F5F5F5F5F5F5F5F5F5F5F5F5F5F5E2E2F5F5F5F5F5F5F5F5F5F5F5F5F5F5F5F5F5F5F5F5F5F5F5F5F5F5F5F5F5F5F5F5F5F5F5
310
F5F5F5F5F5F5F5F5F5F5F5F5F5F5F5F5F5F5F5F5F5F5F5F5F5F5F5F5F5F5F5F5F5F5F5F5F5F5F5F5F5F5F5F5F5F5F5F5F5F5F5F5F5F5F5F5F5F5F5F5F5F5F5F5F5F5F5F5F5F5F5F5F5F5F5F5F5F5F5F5F5F5F5F5F5F5F5F5F5F5F5F5F5F5F5F5F5F5F5F5F5F5F5F5F5F5F5F5F5F5F5F5F5F5F5F5F5F5F5F5F5F5F5F5F5F5F5
310
F5F5F5F5F5F5F5F5F5F5F5F5F5F5F5F5E2E2F5F5F5F5F5F5F5F5F5F5F5F5F5F5F5F5F5F5F5F5F5F5F5F5F5F5F5F5F5F5F5F5F5F5F5F5F5F5F5F5F5F5F5F5F5F5F5F5F5F5F5F5F5F5F5F5F5F5F5F5F5F5F5F5F5F5F5F5F5F5F5F5F5F5F5F5F5F5F5F5F5F5F5F5F5F5F5F5F5F5F5F5F5F5F5F5F5F5F5F5F5F5F5F5F5F5F5F5F5
310
F5F5F5F5F5F5F5F5F5F5F5F5F5F5F5F5F5F5F5F5F5F5F5F5F5F5F5F5F5F5F5F5F5F5F5F5F5F5F5F5F5F5F5F5F5F5F5F5F5F5F5F5F5F5F5F5F5F5F5F5F5F5F5F5F5F5F5F5F5E2E2E2E2E2E2E2E2E2E2E2E2E2E2E2E2E2E2E2E2E2E2E2E2E2E2E2E2E2E2E2E2E2E2E2E2E2E2E2E2E2E2E2E2E2E2E2E2E2E2E2E2E2E2E2E2E2E2
310
E2E2E2E2E2E2E2E2E2E2E2E2E2E2E2E2E2E2E2E2E2E2E2E2E2E2E2E2E2E2E2E2E2E2E2E2E2E2E2E2E2E2E2E2E2E2E2E2E2E2E2E2E2E2E2E2E2E2E2E2E2E2E2E2E2E2E2E2E2E2E2E2E2E2E2E2E2E2E2E2E2E2E2E2E2E2E2E2E2E2E2E2E2E2E2E2E2E2E2E2E2E2E2E2E2E2E2E2E2E2E2E2E2E2E2E2E2E2E2E2E2E2E2EFEFEFEF
310
EFEFEFEFEFEFEFEFEFEFEFEFEFEFEFEFEFEFEFEFEFEFEFEFEFEFEFEFEFEFEFEFEFEFEFEFEFEFEFEFEFEFEFEFEFEFEFEFEFEFEFEFEFEFEFEFEFEFEFEFEFEFEFEFEFEFEFEFEFEFEFEFEFEFEFEFEFEFEFEFEFEFEFEFEFEFEFEFEFEFEFEFEFEFEFEFEFEFEFEFEFEFEFEFEFEFEFEFEFEFEFEFEFEFEFEFEFEFEFEFEFEFEFEFEFEFEF
310
EFEFEFEFEFEFEFEFEFEFEFEFEFEFEFEFEFEFEFEFEFEFEFEFEFEFEFEFEFEFEFEFEFEFEFEFEFEFEFEFEFEFEFEFEFEFEFEFEF
  0
XRECORD
  5
60F8A
102
{ACAD_REACTORS
330
B5
102
}
330
B5
100
AcDbXrecord
280
     1
102
SHADEPLOT
 70
     0
102
SHADEPLOTRESLEVEL
 70
     2
102
SHADEPLOTCUSTOMDPI
 70
   300
  0
XRECORD
  5
B6
102
{ACAD_REACTORS
330
B5
102
}
330
B5
100
AcDbXrecord
280
     1
310
28000000B40000008B0000000100080000000000BC610000000000000000000000010000000000000000000000000000FFFFFF000000000000000000000000000000000000000000000000000000000000000000330000006600000099000000CC000000FF00000000330000333300006633000099330000CC330000FF3300
310
0000660000336600006666000099660000CC660000FF66000000990000339900006699000099990000CC990000FF99000000CC000033CC000066CC000099CC0000CCCC0000FFCC000000FF000033FF000066FF000099FF0000CCFF0000FFFF000000003300330033006600330099003300CC003300FF003300003333003333
310
33006633330099333300CC333300FF33330000663300336633006666330099663300CC663300FF66330000993300339933006699330099993300CC993300FF99330000CC330033CC330066CC330099CC3300CCCC3300FFCC330000FF330033FF330066FF330099FF3300CCFF3300FFFF330000006600330066006600660099
310
006600CC006600FF00660000336600333366006633660099336600CC336600FF33660000666600336666006666660099666600CC666600FF66660000996600339966006699660099996600CC996600FF99660000CC660033CC660066CC660099CC6600CCCC6600FFCC660000FF660033FF660066FF660099FF6600CCFF6600
310
FFFF660000009900330099006600990099009900CC009900FF00990000339900333399006633990099339900CC339900FF33990000669900336699006666990099669900CC669900FF66990000999900339999006699990099999900CC999900FF99990000CC990033CC990066CC990099CC9900CCCC9900FFCC990000FF99
310
0033FF990066FF990099FF9900CCFF9900FFFF99000000CC003300CC006600CC009900CC00CC00CC00FF00CC000033CC003333CC006633CC009933CC00CC33CC00FF33CC000066CC003366CC006666CC009966CC00CC66CC00FF66CC000099CC003399CC006699CC009999CC00CC99CC00FF99CC0000CCCC0033CCCC0066CC
310
CC0099CCCC00CCCCCC00FFCCCC0000FFCC0033FFCC0066FFCC0099FFCC00CCFFCC00FFFFCC000000FF003300FF006600FF009900FF00CC00FF00FF00FF000033FF003333FF006633FF009933FF00CC33FF00FF33FF000066FF003366FF006666FF009966FF00CC66FF00FF66FF000099FF003399FF006699FF009999FF00CC
310
99FF00FF99FF0000CCFF0033CCFF0066CCFF0099CCFF00CCCCFF00FFCCFF0000FFFF0033FFFF0066FFFF0099FFFF00CCFFFF00FFFFFF00000000000D0D0D001A1A1A00282828003535350043434300505050005D5D5D006B6B6B00787878008686860093939300A1A1A100AEAEAE00BBBBBB00C9C9C900D6D6D600E4E4E400
310
F1F1F100FFFFFF0000000000000000000000000000000000000000000000000000000000000000000000000000000000F5F5F5F5F5F5F5F5F5F5F5F5F5F5F5F5F5F5F5F5F5F5F5F5F5F5F5F5F5F5F5F5F5F5F5F5F5F5F5F5F5F5F5F5F5F5F5F5F5F5F5F5F5F5F5F5F5F5F5F5F5F5F5F5F5F5F5F5F5F5F5F5F5F5F5F5F5F5F5
310
F5F5F5F5F5F5F5F5F5F5F5F5F5F5F5F5F5F5F5F5F5F5F5F5F5F5F5F5F5F5F5F5F5F5F5F5F5F5F5F5F5F5F5F5F5F5F5F5F5F5F5F5F5F5F5F5F5F5F5F5F5F5F5F5F5F5F5F5F5F5F5F5F5F5F5F5F5F5F5F5F5F5F5F5F5F5F5F5F5F5F5F5F5F5F5F5F5F5F5F5F5F5E2E2E2E2E2E2E2E2E2E2E2E2E2E2E2E2E2E2E2E2E2E2E2E2E2
310
E2E2E2E2E2E2E2E2E2E2E2E2E2E2E2E2E2E2E2E2E2E2E2E2E2E2E2E2E2E2E2E2E2E2E2E2E2E2E2E2E2E2E2E2E2E2E2E2E2E2E2E2E2E2E2E2E2E2E2E2E2E2E2E2E2E2E2E2E2E2E2E2E2E2E2E2E2E2E2E2E2E2E2E2E2E2E2E2E2E2E2E2E2E2E2E2E2E2E2E2E2E2E2E2E2E2E2E2E2E2E2E2E2E2E2E2E2E2E2E2E2E2E2E2E2E2E2
310
E2E2E2E2E2E2E2E2E2E2E2E2E2E2E2E2E2E2E2E2E2E2E2E2E2E2F5F5E2E2E2E2E2E2E2E2E2E2E2E2E2E2E2E2E2E2E2E2E2E2E2E2E2E2E2E2E2E2E2E2E2E2E2E2E2E2E2E2E2E2E2E2E2E2E2E2E2E2E2E2E2E2E2E2E2E2E2E2E2E2E2E2E2E2E2E2E2E2E2E2E2E2E2E2E2E2E2E2E2E2E2E2E2E2E2E2E2E2E2E2E2E2E2E2E2E2E2
310
E2E2E2E2E2E2E2E2E2E2E2E2E2E2E2E2E2E2E2E2E2E2E2E2E2E2E2E2E2E2E2E2E2E2E2E2E2E2E2E2E2E2E2E2E2E2E2E2E2E2E2E2E2E2E2E2E2E2E2E2E2E2E2E2E2E2E2E2E2E2E2E2E2E2E2E2E2E2E2F5F5E2E2E2E2E2E2E2E2E2E2E2E2E2E2E2E2E2E2E2E2E2E2E2E2E2E2E2E2E2E2E2E2E2E2E2E2E2E2E2E2E2E2E2E2E2E2
310
E2E2E2E2E2E2E2E2E2E2E2E2E2E2E2E2E2E2E2E2E2E2E2E2E2E2E2E2E2E2E2E2E2E2E2E2E2E2E2E2E2E2E2E2E2E2E2E2E2E2E2E2E2E2E2E2E2E2E2E2E2E2E2E2E2E2E2E2E2E2E2E2E2E2E2E2E2E2E2E2E2E2E2E2E2E2E2E2E2E2E2E2E2E2E2E2E2E2E2E2E2E2E2E2E2E2E2E2E2E2E2E2E2E2E2E2E2E2E2E2E2E2E2E2E2E2E2
310
E2E2E2E2E2F5F5E2E2E2E2E2E2E2E2E2E2E2E2E2E2E2E2E2E2E2E2E2E2E2E2E2E2E2E2E2E2E2E2E2E2E2E2E2E2E2E2E2E2E2E2E2E2E2E2E2E2E2E2E2E2E2E2E2E2E2E2E2E2E2E2E2E2E2E2E2E2E2E2E2E2E2E2E2E2E2E2E2E2E2E2E2E2E2E2E2E2E2E2E2E2E2E2E2E2E2E2E2E2E2E2E2E2E2E2E2E2E2E2E2E2E2E2E2E2E2E2
310
E2E2E2E2E2E2E2E2E2E2E2E2E2E2E2E2E2E2E2E2E2E2E2E2E2E2E2E2E2E2E2E2E2E2E2E2E2E2E2E2E2E2E2E2E2E2E2E2E2E2E2E2E2E2E2E2E2E2F5F5E2E2E2F5F5F5F5F5F5F5F5E2E2E2E2E2E2E2E2E2F5F5F5F5F5F5F5F5F5F5F5F5F5F5F5F5E2E2E2E2E2E2E2E2E2F5F5F5F5F5F5F5F5F5F5F5F5F5F5F5E2E2E2E2E2E2E2
310
E2E2F5F5F5F5F5F5F5F5F5F5F5F5F5F5F5F5E2E2E2E2E2E2E2E2F5F5F5F5F5F5F5F5F5F5F5F5F5F5F5F5E2E2E2E2E2E2E2E2E2F5F5F5F5F5F5F5F5F5F5F5F5F5F5F5E2E2E2E2E2E2E2E2E2F5F5F5F5F5F5F5F5F5F5F5F5F5F5F5F5E2E2E2E2E2E2E2E2E2F5F5F5F5F5F5F5F5E2E2E2F5F5E2E2E2F5E2E2E2E2E2E2E2E2E2E2
310
E2E2E2E2E2E2E2E2E2E2E2E2E2E2E2E2E2E2E2E2E2E2E2E2E2E2E2E2E2E2E2E2E2E2E2E2E2E2E2E2E2E2E2E2E2E2E2E2E2E2E2E2E2E2E2E2E2E2E2E2E2E2E2E2E2E2E2E2E2E2E2E2E2E2E2E2E2E2E2E2E2E2E2E2E2E2E2E2E2E2E2E2E2E2E2E2E2E2E2E2E2E2E2E2E2E2E2E2E2E2E2E2E2E2E2E2E2E2E2E2E2E2E2E2E2E2E2
310
E2E2E2E2E2E2E2E2E2E2E2E2E2E2E2E2E2E2E2E2E2E2E2E2E2E2E2E2E2E2E2E2E2F5E2E2E2F5F5E2E2E2F5E2E2E2E2E2E2E2E2E2E2E2E2E2E2E2E2E2E2E2E2E2E2E2E2E2E2E2E2E2E2E2E2E2E2E2E2E2E2E2E2E2E2E2E2E2E2E2E2E2E2E2E2E2E2E2E2E2E2E2E2E2E2E2E2E2E2E2E2E2E2E2E2E2E2E2E2E2E2E2E2E2E2E2E2
310
E2E2E2E2E2E2E2E2E2E2E2E2E2E2E2E2E2E2E2E2E2E2E2E2E2E2E2E2E2E2E2E2E2E2E2E2E2E2E2E2E2E2E2E2E2E2E2E2E2E2E2E2E2E2E2E2E2E2E2E2E2E2E2E2E2E2E2E2E2E2E2E2E2E2E2E2E2E2E2E2E2E2E2E2E2E2F5E2E2E2F5F5E2E2E2F5E2E2E2E2E2E2E2E2E2E2E2E2E2E2E2E2E2E2E2E2E2E2E2E2E2E2E2E2E2E2E2
310
E2E2E2E2E2E2E2E2E2E2E2E2E2E2E2E2E2E2E2E2E2E2E2E2E2E2E2E2E2E2E2E2E2E2E2E2E2E2E2E2E2E2E2E2E2E2E2E2E2E2E2E2E2E2E2E2E2E2E2E2E2E2E2E2E2E2E2E2E2E2E2E2E2E2E2E2E2E2E2E2E2E2E2E2E2E2E2E2E2E2E2E2E2E2E2E2E2E2E2E2E2E2E2E2E2E2E2E2E2E2E2E2E2E2E2E2E2E2E2E2E2E2E2E2E2E2E2
310
E2E2E2E2E2E2E2E2E2E2E2E2F5E2E2E2F5F5E2E2E2F5E2E2E2E2E2E2E2E2E2E2E2E2E2E2E2E2E2E2E2E2E2E2E2E2E2E2E2E2E2E2E2E2E2E2E2E2E2E2E2E2E2E2E2E2E2E2E2E2E2E2E2E2E2E2E2E2E2E2E2E2E2E2E2E2E2E2E2E2E2E2E2E2E2E2E2E2E2E2E2E2E2E2E2E2E2E2E2E2E2E2E2E2E2E2E2E2E2E2E2E2E2E2E2E2E2
310
E2E2E2E2E2E2E2E2E2E2E2E2E2E2E2E2E2E2E2E2E2E2E2E2E2E2E2E2E2E2E2E2E2E2E2E2E2E2E2E2E2E2E2E2E2E2E2E2E2E2E2E2E2E2E2E2E2E2E2E2E2E2E2E2E2F5E2E2E2F5F5E2E2E2F5E2E2E2E2E2E2E2E2E2E2E2E2E2E2E2E2E2E2E2E2E2E2E2E2E2E2E2E2E2E2E2E2E2E2E2E2E2E2E2E2E2E2E2E2E2E2E2E2E2E2E2E2
310
E2E2E2E2E2E2E2E2E2E2E2E2E2E2E2E2E2E2E2E2E2E2E2E2E2E2E2E2E2E2E2E2E2E2E2E2E2E2E2E2E2E2E2E2E2E2E2E2E2E2E2E2E2E2E2E2E2E2E2E2E2E2E2E2E2E2E2E2E2E2E2E2E2E2E2E2E2E2E2E2E2E2E2E2E2E2E2E2E2E2E2E2E2E2E2E2E2E2E2E2E2E2E2E2E2E2E2E2E2E2E2E2E2E2E2E2E2E2F5E2E2E2F5F5E2E2E2
310
F5E2E2E2E2E2E2E2E2E2E2E2E2E2E2E2E2E2E2E2E2E2E2E2E2E2E2E2E2E2E2E2E2E2E2E2E2E2E2E2E2E2E2E2E2E2E2E2E2E2E2E2E2E2E2E2E2E2E2E2E2E2E2E2E2E2E2E2E2E2E2E2E2E2E2E2E2E2E2E2E2E2E2E2E2E2E2E2E2E2E2E2E2E2E2E2E2E2E2E2E2E2E2E2E2E2E2E2E2E2E2E2E2E2E2E2E2E2E2E2E2E2E2E2E2E2E2
310
E2E2E2E2E2E2E2E2E2E2E2E2E2E2E2E2E2E2E2E2E2E2E2E2E2E2E2E2E2E2E2E2E2E2E2E2E2E2E2E2E2E2E2E2F5E2E2E2F5F5E2E2E2F5E2E2E2E2E2E2E2E2E2E2E2E2E2E2E2E2E2E2E2E2E2E2E2E2E2E2E2E2E2E2E2E2E2E2E2E2E2E2E2E2E2E2E2E2E2E2E2E2E2E2E2E2E2E2E2E2E2E2E2E2E2E2E2E2E2E2E2E2E2E2E2E2E2
310
E2E2E2E2E2E2E2E2E2E2E2E2E2E2E2E2E2E2E2E2E2E2E2E2E2E2E2E2E2E2E2E2E2E2E2E2E2E2E2E2E2E2E2E2E2E2E2E2E2E2E2E2E2E2E2E2E2E2E2E2E2E2E2E2E2E2E2E2E2E2E2E2E2E2E2E2E2E2E2E2E2E2E2E2E2E2E2E2E2E2E2E2E2E2E2E2E2F5E2E2E2F5F5E2E2E2F5E2E2E2E2E2E2E2E2E2E2E2E2E2E2E2E2E2E2E2E2
310
E2E2E2E2E2E2E2E2E2E2E2E2E2E2E2E2E2E2E2E2E2E2E2E2E2E2E2E2E2E2E2E2E2E2E2E2E2E2E2E2E2E2E2E2E2E2E2E2E2E2E2E2E2E2E2E2E2E2E2E2E2E2E2E2E2E2E2E2E2E2E2E2E2E2E2E2E2E2E2E2E2E2E2E2E2E2E2E2E2E2E2E2E2E2E2E2E2E2E2E2E2E2E2E2E2E2E2E2E2E2E2E2E2E2E2E2E2E2E2E2E2E2E2E2E2E2E2
310
E2E2E2E2E2E2E2E2E2E2E2E2E2E2E2E2E2E2E2E2E2E2E2F5E2E2E2F5F5E2E2E2E2E2E2E2E2E2E2E2E2E2E2E2E2E2E2E2E2E2E2E2E2E2E2E2E2E2E2E2E2E2E2E2E2E2E2E2E2E2E2E2E2E2E2E2E2E2E2E2E2E2E2E2E2E2E2E2E2E2E2E2E2E2E2E2E2E2E2E2E2E2E2E2E2E2E2E2E2E2E2E2E2E2E2E2E2E2E2E2E2E2E2E2E2E2E2
310
E2E2E2E2E2E2E2E2E2E2E2E2E2E2E2E2E2E2E2E2E2E2E2E2E2E2E2E2E2E2E2E2E2E2E2E2E2E2E2E2E2E2E2E2E2E2E2E2E2E2E2E2E2E2E2E2E2E2E2E2E2E2E2E2E2E2E2E2E2E2E2E2E2E2E2E2E2E2E2E2F5F5E2E2E2E2E2E2E2E2E2E2E2E2E2E2E2E2E2E2E2E2E2E2E2E2E2E2E2E2E2E2E2E2E2E2E2E2E2E2E2E2E2E2E2E2E2
310
E2E2E2E2E2E2E2E2E2E2E2E2E2E2E2E2E2E2E2E2E2E2E2E2E2E2E2E2E2E2E2E2E2E2E2E2E2E2E2E2E2E2E2E2E2E2E2E2E2E2E2E2E2E2E2E2E2E2E2E2E2E2E2E2E2E2E2E2E2E2E2E2E2E2E2E2E2E2E2E2E2E2E2E2E2E2E2E2E2E2E2E2E2E2E2E2E2E2E2E2E2E2E2E2E2E2E2E2E2E2E2E2E2E2E2E2E2E2E2E2E2E2E2E2E2E2E2
310
E2E2E2E2E2E2F5F5E2E2E2E2E2E2E2E2E2E2E2E2E2E2E2E2E2E2E2E2E2E2E2E2E2E2E2E2E2E2E2E2E2E2E2E2E2E2E2E2E2E2E2E2E2E2E2E2E2E2E2E2E2E2E2E2E2E2E2E2E2E2E2E2E2E2E2E2E2E2E2E2E2E2E2E2E2E2E2E2E2E2E2E2E2E2E2E2E2E2E2E2E2E2E2E2E2E2E2E2E2E2E2E2E2E2E2E2E2E2E2E2E2E2E2E2E2E2E2
310
E2E2E2E2E2E2E2E2E2E2E2E2E2E2E2E2E2E2E2E2E2E2E2E2E2E2E2E2E2E2E2E2E2E2E2E2E2E2E2E2E2E2E2E2E2E2E2E2E2E2E2E2E2E2E2E2E2E2E2F5F5E2E2E2E2E2E2E2E2E2E2E2E2E2E2E2E2E2E2E2E2E2E2E2E2E2E2E2E2E2E2E2E2E2E2E2E2E2E2E2E2E2E2E2E2E2E2E2E2E2E2E2E2E2E2E2E2E2E2E2E2E2E2E2E2E2E2
310
E2E2E2E2E2E2E2E2E2E2E2E2E2E2E2E2E2E2E2E2E2E2E2E2E2E2E2E2E2E2E2E2E2E2E2E2E2E2E2E2E2E2E2E2E2E2E2E2E2E2E2E2E2E2E2E2E2E2E2E2E2E2E2E2E2E2E2E2E2E2E2E2E2E2E2E2E2E2E2E2E2E2E2E2E2E2E2E2E2E2E2E2E2E2E2E2E2E2E2E2E2E2E2E2E2E2E2E2E2E2E2E2F5F5E2E2E2E2E2E2E2E2E2E2E2E2E2
310
E2E2E2E2E2E2E2F5F5F5F5F5F5F5F5F5F5F5F5F5F5F5F5F5F5F5F5F5F5F5F5F5F5F5F5F5F5F5F5F5F5F5F5F5F5F5F5F5F5F5F5F5F5F5F5F5F5F5F5F5F5F5F5F5F5F5F5F5F5F5F5F5F5F5F5F5F5F5F5F5F5F5F5F5F5F5F5F5F5F5F5F5F5F5F5F5F5F5F5F5F5F5F5F5F5F5F5F5F5F5F5F5F5F5F5F5F5F5F5F5F5F5F5F5F5F5F5
310
F5F5F5F5F5F5F5F5F5F5F5F5F5F5F5F5F5F5E2E2E2E2E2E2E2E2E2E2E2E2E2E2E2E2E2E2E2E2F5F5E2E2E2E2E2E2E2E2E2E2E2E2E2E2E2E2E2E2E2E2F5E2E2E2E2E2E2E2E2E2E2E2E2E2E2E2E2E2E2E2E2E2E2E2E2E2E2E2E2E2E2E2E2E2E2E2E2E2E2E2E2E2E2E2E2E2E2E2E2E2E2E2E2E2E2E2E2E2E2E2E2E2E2E2E2E2E2
310
E2E2E2E2E2E2E2E2E2E2E2E2E2E2E2E2E2E2E2E2E2E2E2E2E2E2E2E2E2E2E2E2E2E2E2E2E2E2E2E2E2E2E2E2E2E2E2E2E2E2E2E2E2E2E2E2E2E2E2E2E2E2E2E2E2E2E2E2E2E2F5E2E2E2E2E2E2E2E2E2E2E2E2E2E2E2E2E2E2E2E2F5F5E2E2E2E2E2E2E2E2E2E2E2E2E2E2E2E2E2E2E2E2F5E2E2E2E2E2E2E2E2E2E2E2E2E2
310
E2E2E2E2E2E2E2E2E2E2E2E2E2E2E2E2E2E2E2E2E2E2E2E2E2E2E2E2E2E2E2E2E2E2E2E2E2E2E2E2E2E2E2E2E2E2E2E2E2E2E2E2E2E2E2E2E2E2E2E2E2E2E2E2E2E2E2E2E2E2E2E2E2E2E2E2E2E2E2E2E2E2E2E2E2E2E2E2E2E2E2E2E2E2E2E2E2E2E2E2E2E2E2E2E2E2E2E2E2E2E2E2E2E2E2E2E2E2E2E2E2E2E2F5E2E2E2
310
E2E2E2E2E2E2E2E2E2E2E2E2E2E2E2E2E2F5F5E2E2E2E2E2E2E2E2E2E2E2E2E2E2E2E2E2E2E2E2F5E2E2E2E2E2E2E2E2E2E2E2E2E2E2E2E2E2E2E2E2E2E2E2E2E2E2E2E2E2E2E2E2E2E2E2E2E2E2E2E2E2E2E2E2E2E2E2E2E2E2E2E2E2E2E2E2E2E2E2E2E2E2E2E2E2E2E2E2E2E2E2E2E2E2E2E2E2E2E2E2E2E2E2E2E2E2E2
310
E2E2E2E2E2E2E2E2E2E2E2E2E2E2E2E2E2E2E2E2E2E2E2E2E2E2E2E2E2E2E2E2E2E2E2E2E2E2E2E2E2E2E2E2E2E2E2E2E2F5E2E2E2E2E2E2E2E2E2E2E2E2E2E2E2E2E2E2E2E2F5F5E2E2E2E2E2E2E2E2E2E2E2E2E2E2E2E2E2E2E2E2F5E2E2E2E2E2E2E2E2E2E2E2E2E2E2E2E2E2E2E2E2E2E2E2E2E2E2E2E2E2E2E2E2E2E2
310
E2E2E2E2E2E2E2E2E2E2E2E2E2E2E2E2E2E2E2E2E2E2E2E2E2E2E2E2E2E2E2E2E2E2E2E2E2E2E2E2E2E2E2E2E2E2E2E2E2E2E2E2E2E2E2E2E2E2E2E2E2E2E2E2E2E2E2E2E2E2E2E2E2E2E2E2E2E2E2E2E2E2E2E2E2E2E2E2E2E2E2E2E2E2E2E2E2E2E2E2E2E2F5E2E2E2E2E2E2E2E2E2E2E2E2E2E2E2E2E2E2E2E2F5F5E2E2
310
E2F5E2E2E2E2E2E2E2E2E2E2E2E2E2E2E2E2F5E2E2E2E2E2E2E2E2E2E2E2E2E2E2E2E2E2E2E2E2E2E2E2E2E2E2E2E2E2E2E2E2E2E2E2E2E2E2E2E2E2E2E2E2E2E2E2E2E2E2E2E2E2E2E2E2E2E2E2E2E2E2E2E2E2E2E2E2E2E2E2E2E2E2E2E2E2E2E2E2E2E2E2E2E2E2E2E2E2E2E2E2E2E2E2E2E2E2E2E2E2E2E2E2E2E2E2E2
310
E2E2E2E2E2E2E2E2E2E2E2E2E2E2E2E2E2E2E2E2E2E2E2E2E2E2E2E2F5E2E2E2E2E2E2E2E2E2E2E2E2E2E2E2E2F5E2E2E2F5F5E2E2E2F5E2E2E2E2E2E2E2E2E2E2E2E2E2E2E2E2F5E2E2E2E2E2E2E2E2E2E2E2E2E2E2E2E2E2E2E2E2E2E2E2E2E2E2E2E2E2E2E2E2E2E2E2E2E2E2E2E2E2E2E2E2E2E2E2E2E2E2E2E2E2E2E2
310
E2E2E2E2E2E2E2E2E2E2E2E2E2E2E2E2E2E2E2E2E2E2E2E2E2E2E2E2E2E2E2E2E2E2E2E2E2E2E2E2E2E2E2E2E2E2E2E2E2E2E2E2E2E2E2E2E2E2E2E2E2E2E2E2E2E2E2E2E2E2E2E2E2E2E2E2E2E2E2E2E2F5E2E2E2E2E2E2E2E2E2E2E2E2E2E2E2E2F5E2E2E2F5F5E2E2E2F5E2E2E2E2E2E2E2E2E2E2E2E2E2E2E2E2F5E2E2
310
E2E2E2E2E2E2E2E2E2E2E2E2E2E2E2E2E2E2E2E2E2E2E2E2E2E2E2E2E2E2E2E2E2E2E2E2E2E2E2E2E2E2E2E2E2E2E2E2E2E2E2E2E2E2E2E2E2E2E2E2E2E2E2E2E2E2E2E2E2E2E2E2E2E2E2E2E2E2E2E2E2E2E2E2E2E2E2E2E2E2E2E2E2E2E2E2E2E2E2E2E2E2E2E2E2E2E2E2E2E2E2E2E2E2E2E2E2E2E2E2E2E2E2E2E2E2E2
310
E2E2E2E2E2E2E2F5E2E2E2E2E2E2E2E2E2E2E2E2E2E2E2E2F5E2E2E2F5F5E2E2E2F5E2E2E2E2E2E2E2E2E2E2E2E2E2E2E2E2F5E2E2E2E2E2E2E2E2E2E2E2E2E2E2E2E2E2E2E2E2E2E2E2E2E2E2E2E2E2E2E2E2E2E2E2E2E2E2E2E2E2E2E2E2E2E2E2E2E2E2E2E2E2E2E2E2E2E2E2E2E2E2E2E2E2E2E2E2E2E2E2E2E2E2E2E2
310
E2E2E2E2E2E2E2E2E2E2E2E2E2E2E2E2E2E2E2E2E2E2E2E2E2E2E2E2E2E2E2E2E2E2E2E2E2E2E2E2E2E2E2E2E2E2E2E2E2E2E2E2E2E2E2E2E2E2E2E2F5E2E2E2E2E2E2E2E2E2E2E2E2E2E2E2E2F5E2E2E2F5F5E2E2E2F5E2E2E2E2E2E2E2E2E2E2E2E2E2E2E2E2F5E2E2E2E2E2E2E2E2E2E2E2E2E2E2E2E2E2E2E2E2E2E2E2
310
E2E2E2E2E2E2E2E2E2E2E2E2E2E2E2E2E2E2E2E2E2E2E2E2E2E2E2E2E2E2E2E2E2E2E2E2E2E2E2E2E2E2E2E2E2E2E2E2E2E2E2E2E2E2E2E2E2E2E2E2E2E2E2E2E2E2E2E2E2E2E2E2E2E2E2E2E2E2E2E2E2E2E2E2E2E2E2E2E2E2E2E2E2E2E2E2E2E2E2E2E2E2E2E2E2E2E2E2E2E2E2E2E2F5E2E2E2E2E2E2E2E2E2E2E2E2E2
310
E2E2E2F5E2E2E2F5F5E2E2E2F5E2E2E2E2E2E2E2E2E2E2E2E2E2E2E2E2F5E2E2E2E2E2E2E2E2E2E2E2E2E2E2E2E2E2E2E2E2E2E2E2E2E2E2E2E2E2E2E2E2E2E2E2E2E2E2E2E2E2E2E2E2E2E2E2E2E2E2E2E2E2E2E2E2E2E2E2E2E2E2E2E2E2E2E2E2E2E2E2E2E2E2E2E2E2E2E2E2E2E2E2E2E2E2E2E2E2E2E2E2E2E2E2E2E2
310
E2E2E2E2E2E2E2E2E2E2E2E2E2E2E2E2E2E2E2E2E2E2E2E2E2E2E2E2E2E2E2E2E2E2E2E2E2E2E2F5E2E2E2E2E2E2E2E2E2E2E2E2E2E2E2E2F5E2E2E2F5F5E2E2E2F5E2E2E2E2E2E2E2E2E2E2E2E2E2E2E2E2F5E2E2E2E2E2E2E2E2E2E2E2E2E2E2E2E2E2E2E2E2E2E2E2E2E2E2E2E2E2E2E2E2E2E2E2E2E2E2E2E2E2E2E2E2
310
E2E2E2E2E2E2E2E2E2E2E2E2E2E2E2E2E2E2E2E2E2E2E2E2E2E2E2E2E2E2E2E2E2E2E2E2E2E2E2E2E2E2E2E2E2E2E2E2E2E2E2E2E2E2E2E2E2E2E2E2E2E2E2E2E2E2E2E2E2E2E2E2E2E2E2E2E2E2E2E2E2E2E2E2E2E2E2E2E2E2E2E2F5E2E2E2E2E2E2E2E2E2E2E2E2E2E2E2E2F5E2E2E2F5F5E2E2E2F5E2E2E2E2E2E2E2E2
310
E2E2E2E2E2E2E2E2F5E2E2E2E2E2E2E2E2E2E2E2E2E2E2E2E2E2E2E2E2E2E2E2E2E2E2E2E2E2E2E2E2E2E2E2E2E2E2E2E2E2E2E2E2E2E2E2E2E2E2E2E2E2E2E2E2E2E2E2E2E2E2E2E2E2E2E2E2E2E2E2E2E2E2E2E2E2E2E2E2E2E2E2E2E2E2E2E2E2E2E2E2E2E2E2E2E2E2E2E2E2E2E2E2E2E2E2E2E2E2E2E2E2E2E2E2E2E2
310
E2E2E2E2E2E2E2E2E2E2E2E2E2E2E2E2E2E2F5E2E2E2E2E2E2E2E2E2E2E2E2E2E2E2E2F5E2E2E2F5F5E2E2E2F5E2E2E2E2E2E2E2E2E2E2E2E2E2E2E2E2F5E2E2E2E2E2E2E2E2E2E2E2E2E2E2E2E2E2E2E2E2E2E2E2E2E2E2E2E2E2E2E2E2E2E2E2E2E2E2E2E2E2E2E2E2E2E2E2E2E2E2E2E2E2E2E2E2E2E2E2E2E2E2E2E2E2
310
E2E2E2E2E2E2E2E2E2E2E2E2E2E2E2E2E2E2E2E2E2E2E2E2E2E2E2E2E2E2E2E2E2E2E2E2E2E2E2E2E2E2E2E2E2E2E2E2E2E2E2E2E2E2E2E2E2E2E2E2E2E2E2E2E2E2E2E2E2E2E2F5E2E2E2E2E2E2E2E2E2E2E2E2E2E2E2E2F5E2E2E2F5F5E2E2E2F5E2E2E2E2E2E2E2E2E2E2E2E2E2E2E2E2F5E2E2E2E2E2E2E2E2E2E2E2E2
310
E2E2E2E2E2E2E2E2E2E2E2E2E2E2E2E2E2E2E2E2E2E2E2E2E2E2E2E2E2E2E2E2E2E2E2E2E2E2E2E2E2E2E2E2E2E2E2E2E2E2E2E2E2E2E2E2E2E2E2E2E2E2E2E2E2E2E2E2E2E2E2E2E2E2E2E2E2E2E2E2E2E2E2E2E2E2E2E2E2E2E2E2E2E2E2E2E2E2E2E2E2E2E2E2E2E2E2E2E2E2E2E2E2E2E2E2E2E2E2E2E2E2E2E2F5E2E2
310
E2E2E2E2E2E2E2E2E2E2E2E2E2E2F5E2E2E2F5F5E2E2E2F5E2E2E2E2E2E2E2E2E2E2E2E2E2E2E2E2F5E2E2E2E2E2E2E2E2E2E2E2E2E2E2E2E2E2E2E2E2E2E2E2E2E2E2E2E2E2E2E2E2E2E2E2E2E2E2E2E2E2E2E2E2E2E2E2E2E2E2E2E2E2E2E2E2E2E2E2E2E2E2E2E2E2E2E2E2E2E2E2E2E2E2E2E2E2E2E2E2E2E2E2E2E2E2
310
E2E2E2E2E2E2E2E2E2E2E2E2E2E2E2E2E2E2E2E2E2E2E2E2E2E2E2E2E2E2E2E2E2E2E2E2E2E2E2E2E2E2E2E2E2E2E2E2E2E2F5E2E2E2E2E2E2E2E2E2E2E2E2E2E2E2E2F5E2E2E2F5F5E2E2E2F5E2E2E2E2E2E2E2E2E2E2E2E2E2E2E2E2F5E2E2E2E2E2E2E2E2E2E2E2E2E2E2E2E2E2E2E2E2E2E2E2E2E2E2E2E2E2E2E2E2E2
310
E2E2E2E2E2E2E2E2E2E2E2E2E2E2E2E2E2E2E2E2E2E2E2E2E2E2E2E2E2E2E2E2E2E2E2E2E2E2E2E2E2E2E2E2E2E2E2E2E2E2E2E2E2E2E2E2E2E2E2E2E2E2E2E2E2E2E2E2E2E2E2E2E2E2E2E2E2E2E2E2E2E2E2E2E2E2E2E2E2E2E2E2E2E2E2E2E2E2E2E2E2E2E2F5E2E2E2E2E2E2E2E2E2E2E2E2E2E2E2E2F5E2E2E2F5F5E2
310
E2E2F5E2E2E2E2E2E2E2E2E2E2E2E2E2E2E2E2F5E2E2E2E2E2E2E2E2E2E2E2E2E2E2E2E2E2E2E2E2E2E2E2E2E2E2E2E2E2E2E2E2E2E2E2E2E2E2E2E2E2E2E2E2E2E2E2E2E2E2E2E2E2E2E2E2E2E2E2E2E2E2E2E2E2E2E2E2E2E2E2E2E2E2E2E2E2E2E2E2E2E2E2E2E2E2E2E2E2E2E2E2E2E2E2E2E2E2E2E2E2E2E2E2E2E2E2
310
E2E2E2E2E2E2E2E2E2E2E2E2E2E2E2E2E2E2E2E2E2E2E2E2E2E2E2E2E2F5E2E2E2E2E2E2E2E2E2E2E2E2E2E2E2E2F5E2E2E2F5F5E2E2E2F5E2E2E2E2E2E2E2E2E2E2E2E2E2E2E2E2F5E2E2E2E2E2E2E2E2E2E2E2E2E2E2E2E2E2E2E2E2E2E2E2E2E2E2E2E2E2E2E2E2E2E2E2E2E2E2E2E2E2E2E2E2E2E2E2E2E2E2E2E2E2E2
310
E2E2E2E2E2E2E2E2E2E2E2E2E2E2E2E2E2E2E2E2E2E2E2E2E2E2E2E2E2E2E2E2E2E2E2E2E2E2E2E2E2E2E2E2E2E2E2E2E2E2E2E2E2E2E2E2E2E2E2E2E2E2E2E2E2E2E2E2E2E2E2E2E2E2E2E2E2E2E2E2E2E2F5E2E2E2E2E2E2E2E2E2E2E2E2E2E2E2E2F5E2E2E2F5F5E2E2E2F5E2E2E2E2E2E2E2E2E2E2E2E2E2E2E2E2F5E2
310
E2E2E2E2E2E2E2E2E2E2E2E2E2E2E2E2E2E2E2E2E2E2E2E2E2E2E2E2E2E2E2E2E2E2E2E2E2E2E2E2E2E2E2E2E2E2E2E2E2E2E2E2E2E2E2E2E2E2E2E2E2E2E2E2E2E2E2E2E2E2E2E2E2E2E2E2E2E2E2E2E2E2E2E2E2E2E2E2E2E2E2E2E2E2E2E2E2E2E2E2E2E2E2E2E2E2E2E2E2E2E2E2E2E2E2E2E2E2E2E2E2E2E2E2E2E2E2
310
E2E2E2E2E2E2E2E2F5E2E2E2E2E2E2E2E2E2E2E2E2E2E2E2E2F5E2E2E2F5F5E2E2E2F5E2E2E2E2E2E2E2E2E2E2E2E2E2E2E2E2F5E2E2E2E2E2E2E2E2E2E2E2E2E2E2E2E2E2E2E2E2E2E2E2E2E2E2E2E2E2E2E2E2E2E2E2E2E2E2E2E2E2E2E2E2E2E2E2E2E2E2E2E2E2E2E2E2E2E2E2E2E2E2E2E2E2E2E2E2E2E2E2E2E2E2E2
310
E2E2E2E2E2E2E2E2E2E2E2E2E2E2E2E2E2E2E2E2E2E2E2E2E2E2E2E2E2E2E2E2E2E2E2E2E2E2E2E2E2E2E2E2E2E2E2E2E2E2E2E2E2E2E2E2E2E2E2E2E2F5E2E2E2E2E2E2E2E2E2E2E2E2E2E2E2E2F5E2E2E2F5F5E2E2E2F5E2E2E2E2E2E2E2E2E2E2E2E2E2E2E2E2F5E2E2E2E2E2E2E2E2E2E2E2E2E2E2E2E2E2E2E2E2E2E2
310
E2E2E2E2E2E2E2E2E2E2E2E2E2E2E2E2E2E2E2E2E2E2E2E2E2E2E2E2E2E2E2E2E2E2E2E2E2E2E2E2E2E2E2E2E2E2E2E2E2E2E2E2E2E2E2E2E2E2E2E2E2E2E2E2E2E2E2E2E2E2E2E2E2E2E2E2E2E2E2E2E2E2E2E2E2E2E2E2E2E2E2E2E2E2E2E2E2E2E2E2E2E2E2E2E2E2E2E2E2E2E2E2E2E2F5E2E2E2E2E2E2E2E2E2E2E2E2
310
E2E2E2E2F5E2E2E2F5F5E2E2E2E2E2E2E2E2E2E2E2E2E2E2E2E2E2E2E2E2F5E2E2E2E2E2E2E2E2E2E2E2E2E2E2E2E2E2E2E2E2E2E2E2E2E2E2E2E2E2E2E2E2E2E2E2E2E2E2E2E2E2E2E2E2E2E2E2E2E2E2E2E2E2E2E2E2E2E2E2E2E2E2E2E2E2E2E2E2E2E2E2E2E2E2E2E2E2E2E2E2E2E2E2E2E2E2E2E2E2E2E2E2E2E2E2E2
310
E2E2E2E2E2E2E2E2E2E2E2E2E2E2E2E2E2E2E2E2E2E2E2E2E2E2E2E2E2E2E2E2E2E2E2E2E2E2E2E2F5E2E2E2E2E2E2E2E2E2E2E2E2E2E2E2E2E2E2E2E2F5F5E2E2E2E2E2E2E2E2E2E2E2E2E2E2E2E2E2E2E2E2F5E2E2E2E2E2E2E2E2E2E2E2E2E2E2E2E2E2E2E2E2E2E2E2E2E2E2E2E2E2E2E2E2E2E2E2E2E2E2E2E2E2E2E2
310
E2E2E2E2E2E2E2E2E2E2E2E2E2E2E2E2E2E2E2E2E2E2E2E2E2E2E2E2E2E2E2E2E2E2E2E2E2E2E2E2E2E2E2E2E2E2E2E2E2E2E2E2E2E2E2E2E2E2E2E2E2E2E2E2E2E2E2E2E2E2E2E2E2E2E2E2E2E2E2E2E2E2E2E2E2E2E2E2E2E2E2E2E2F5E2E2E2E2E2E2E2E2E2E2E2E2E2E2E2E2E2E2E2E2F5F5E2E2E2E2E2E2E2E2E2E2E2
310
E2E2E2E2E2E2E2E2E2F5E2E2E2E2E2E2E2E2E2E2E2E2E2E2E2E2E2E2E2E2E2E2E2E2E2E2E2E2E2E2E2E2E2E2E2E2E2E2E2E2E2E2E2E2E2E2E2E2E2E2E2E2E2E2E2E2E2E2E2E2E2E2E2E2E2E2E2E2E2E2E2E2E2E2E2E2E2E2E2E2E2E2E2E2E2E2E2E2E2E2E2E2E2E2E2E2E2E2E2E2E2E2E2E2E2E2E2E2E2E2E2E2E2E2E2E2E2
310
E2E2E2E2E2E2E2E2E2E2E2E2E2E2E2E2E2E2E2F5E2E2E2E2E2E2E2E2E2E2E2E2E2E2E2E2E2E2E2E2F5F5E2E2E2E2E2E2E2E2E2E2E2E2E2E2E2E2E2E2E2E2F5E2E2E2E2E2E2E2E2E2E2E2E2E2E2E2E2E2E2E2E2E2E2E2E2E2E2E2E2E2E2E2E2E2E2E2E2E2E2E2E2E2E2E2E2E2E2E2E2E2E2E2E2E2E2E2E2E2E2E2E2E2E2E2E2
310
E2E2E2E2E2E2E2E2E2E2E2E2E2E2E2E2E2E2E2E2E2E2E2E2E2E2E2E2E2E2E2E2E2E2E2E2E2E2E2E2E2E2E2E2E2E2E2E2E2E2E2E2E2E2E2E2E2E2E2E2E2E2E2E2E2E2E2E2E2E2E2E2F5E2E2E2E2E2E2E2E2E2E2E2E2E2E2E2E2E2E2E2E2F5F5E2E2E2E2E2E2E2E2E2E2E2E2E2E2E2E2E2E2E2E2F5E2E2E2E2E2E2E2E2E2E2E2
310
E2E2E2E2E2E2E2E2E2E2E2E2E2E2E2E2E2E2E2E2E2E2E2E2E2E2E2E2E2E2E2E2E2E2E2E2E2E2E2E2E2E2E2E2E2E2E2E2E2E2E2E2E2E2E2E2E2E2E2E2E2E2E2E2E2E2E2E2E2E2E2E2E2E2E2E2E2E2E2E2E2E2E2E2E2E2E2E2E2E2E2E2E2E2E2E2E2E2E2E2E2E2E2E2E2E2E2E2E2E2E2E2E2E2E2E2E2E2E2E2E2E2E2E2E2F5E2
310
E2E2E2E2E2E2E2E2E2E2E2E2E2E2E2E2E2E2E2F5F5E2E2E2E2E2E2E2E2E2E2E2E2E2E2E2E2E2E2E2E2F5E2E2E2E2E2E2E2E2E2E2E2E2E2E2E2E2E2E2E2E2E2E2E2E2E2E2E2E2E2E2E2E2E2E2E2E2E2E2E2E2E2E2E2E2E2E2E2E2E2E2E2E2E2E2E2E2E2E2E2E2E2E2E2E2E2E2E2E2E2E2E2E2E2E2E2E2E2E2E2E2E2E2E2E2E2
310
E2E2E2E2E2E2E2E2E2E2E2E2E2E2E2E2E2E2E2E2E2E2E2E2E2E2E2E2E2E2E2E2E2E2E2E2E2E2E2E2E2E2E2E2E2E2E2E2E2E2E2F5E2E2E2E2E2E2E2E2E2E2E2E2E2E2E2E2E2E2E2E2F5F5E2E2E2E2E2E2E2E2E2E2E2E2E2E2E2E2E2E2E2E2F5E2E2E2E2E2E2E2E2E2E2E2E2E2E2E2E2E2E2E2E2E2E2E2E2E2E2E2E2E2E2E2E2
310
E2E2E2E2E2E2E2E2E2E2E2E2E2E2E2E2E2E2E2E2E2E2E2E2E2E2E2E2E2E2E2E2E2E2E2E2E2E2E2E2E2E2E2E2E2E2E2E2E2E2E2E2E2E2E2E2E2E2E2E2E2E2E2E2E2E2E2E2E2E2E2E2E2E2E2E2E2E2E2E2E2E2E2E2E2E2E2E2E2E2E2E2E2E2E2E2E2E2E2E2E2E2E2E2F5E2E2E2E2E2E2E2E2E2E2E2E2E2E2E2E2E2E2E2E2F5F5
310
E2E2E2E2E2E2E2E2E2E2E2E2E2E2E2E2E2E2E2E2F5E2E2E2E2E2E2E2E2E2E2E2E2E2E2E2E2E2E2E2E2E2E2E2E2E2E2E2E2E2E2E2E2E2E2E2E2E2E2E2E2E2E2E2E2E2E2E2E2E2E2E2E2E2E2E2E2E2E2E2E2E2E2E2E2E2E2E2E2E2E2E2E2E2E2E2E2E2E2E2E2E2E2E2E2E2E2E2E2E2E2E2E2E2E2E2E2E2E2E2E2E2E2E2E2E2E2
310
E2E2E2E2E2E2E2E2E2E2E2E2E2E2E2E2E2E2E2E2E2E2E2E2E2E2E2E2E2E2F5E2E2E2E2E2E2E2E2E2E2E2E2E2E2E2E2E2E2E2E2F5F5E2E2E2E2E2E2E2E2E2E2E2E2E2E2E2E2E2E2E2E2F5E2E2E2E2E2E2E2E2E2E2E2E2E2E2E2E2E2E2E2E2E2E2E2E2E2E2E2E2E2E2E2E2E2E2E2E2E2E2E2E2E2E2E2E2E2E2E2E2E2E2E2E2E2
310
E2E2E2E2E2E2E2E2E2E2E2E2E2E2E2E2E2E2E2E2E2E2E2E2E2E2E2E2E2E2E2E2E2E2E2E2E2E2E2E2E2E2E2E2E2E2E2E2E2E2E2E2E2E2E2E2E2E2E2E2E2E2E2E2E2E2E2E2E2E2E2E2E2E2E2E2E2E2E2E2E2E2E2F5E2E2E2E2E2E2E2E2E2E2E2E2E2E2E2E2E2E2E2E2F5F5E2E2E2F5E2E2E2E2E2E2E2E2E2E2E2E2E2E2E2E2F5
310
E2E2E2E2E2E2E2E2E2E2E2E2E2E2E2E2E2E2E2E2E2E2E2E2E2E2E2E2E2E2E2E2E2E2E2E2E2E2E2E2E2E2E2E2E2E2E2E2E2E2E2E2E2E2E2E2E2E2E2E2E2E2E2E2E2E2E2E2E2E2E2E2E2E2E2E2E2E2E2E2E2E2E2E2E2E2E2E2E2E2E2E2E2E2E2E2E2E2E2E2E2E2E2E2E2E2E2E2E2E2E2E2E2E2E2E2E2E2E2E2E2E2E2E2E2E2E2
310
E2E2E2E2E2E2E2E2E2F5E2E2E2E2E2E2E2E2E2E2E2E2E2E2E2E2F5E2E2E2F5F5E2E2E2F5E2E2E2E2E2E2E2E2E2E2E2E2E2E2E2E2F5E2E2E2E2E2E2E2E2E2E2E2E2E2E2E2E2E2E2E2E2E2E2E2E2E2E2E2E2E2E2E2E2E2E2E2E2E2E2E2E2E2E2E2E2E2E2E2E2E2E2E2E2E2E2E2E2E2E2E2E2E2E2E2E2E2E2E2E2E2E2E2E2E2E2
310
E2E2E2E2E2E2E2E2E2E2E2E2E2E2E2E2E2E2E2E2E2E2E2E2E2E2E2E2E2E2E2E2E2E2E2E2E2E2E2E2E2E2E2E2E2E2E2E2E2E2E2E2E2E2E2E2E2E2E2E2E2E2F5E2E2E2E2E2E2E2E2E2E2E2E2E2E2E2E2F5E2E2E2F5F5E2E2E2F5E2E2E2E2E2E2E2E2E2E2E2E2E2E2E2E2F5E2E2E2E2E2E2E2E2E2E2E2E2E2E2E2E2E2E2E2E2E2
310
E2E2E2E2E2E2E2E2E2E2E2E2E2E2E2E2E2E2E2E2E2E2E2E2E2E2E2E2E2E2E2E2E2E2E2E2E2E2E2E2E2E2E2E2E2E2E2E2E2E2E2E2E2E2E2E2E2E2E2E2E2E2E2E2E2E2E2E2E2E2E2E2E2E2E2E2E2E2E2E2E2E2E2E2E2E2E2E2E2E2E2E2E2E2E2E2E2E2E2E2E2E2E2E2E2E2E2E2E2E2E2E2E2E2E2F5E2E2E2E2E2E2E2E2E2E2E2
310
E2E2E2E2E2F5E2E2E2F5F5E2E2E2F5E2E2E2E2E2E2E2E2E2E2E2E2E2E2E2E2F5E2E2E2E2E2E2E2E2E2E2E2E2E2E2E2E2E2E2E2E2E2E2E2E2E2E2E2E2E2E2E2E2E2E2E2E2E2E2E2E2E2E2E2E2E2E2E2E2E2E2E2E2E2E2E2E2E2E2E2E2E2E2E2E2E2E2E2E2E2E2E2E2E2E2E2E2E2E2E2E2E2E2E2E2E2E2E2E2E2E2E2E2E2E2E2
310
E2E2E2E2E2E2E2E2E2E2E2E2E2E2E2E2E2E2E2E2E2E2E2E2E2E2E2E2E2E2E2E2E2E2E2E2E2E2E2E2E2F5E2E2E2E2E2E2E2E2E2E2E2E2E2E2E2E2F5E2E2E2F5F5E2E2E2F5E2E2E2E2E2E2E2E2E2E2E2E2E2E2E2E2F5E2E2E2E2E2E2E2E2E2E2E2E2E2E2E2E2E2E2E2E2E2E2E2E2E2E2E2E2E2E2E2E2E2E2E2E2E2E2E2E2E2E2
310
E2E2E2E2E2E2E2E2E2E2E2E2E2E2E2E2E2E2E2E2E2E2E2E2E2E2E2E2E2E2E2E2E2E2E2E2E2E2E2E2E2E2E2E2E2E2E2E2E2E2E2E2E2E2E2E2E2E2E2E2E2E2E2E2E2E2E2E2E2E2E2E2E2E2E2E2E2E2E2E2E2E2E2E2E2E2E2E2E2E2E2E2E2E2F5E2E2E2E2E2E2E2E2E2E2E2E2E2E2E2E2F5E2E2E2F5F5E2E2E2F5E2E2E2E2E2E2
310
E2E2E2E2E2E2E2E2E2E2F5E2E2E2E2E2E2E2E2E2E2E2E2E2E2E2E2E2E2E2E2E2E2E2E2E2E2E2E2E2E2E2E2E2E2E2E2E2E2E2E2E2E2E2E2E2E2E2E2E2E2E2E2E2E2E2E2E2E2E2E2E2E2E2E2E2E2E2E2E2E2E2E2E2E2E2E2E2E2E2E2E2E2E2E2E2E2E2E2E2E2E2E2E2E2E2E2E2E2E2E2E2E2E2E2E2E2E2E2E2E2E2E2E2E2E2E2
310
E2E2E2E2E2E2E2E2E2E2E2E2E2E2E2E2E2E2E2E2F5E2E2E2E2E2E2E2E2E2E2E2E2E2E2E2E2F5E2E2E2F5F5E2E2E2F5E2E2E2E2E2E2E2E2E2E2E2E2E2E2E2E2F5E2E2E2E2E2E2E2E2E2E2E2E2E2E2E2E2E2E2E2E2E2E2E2E2E2E2E2E2E2E2E2E2E2E2E2E2E2E2E2E2E2E2E2E2E2E2E2E2E2E2E2E2E2E2E2E2E2E2E2E2E2E2E2
310
E2E2E2E2E2E2E2E2E2E2E2E2E2E2E2E2E2E2E2E2E2E2E2E2E2E2E2E2E2E2E2E2E2E2E2E2E2E2E2E2E2E2E2E2E2E2E2E2E2E2E2E2E2E2E2E2E2E2E2E2E2E2E2E2E2E2E2E2E2E2E2E2E2F5E2E2E2E2E2E2E2E2E2E2E2E2E2E2E2E2F5E2E2E2F5F5E2E2E2F5E2E2E2E2E2E2E2E2E2E2E2E2E2E2E2E2F5E2E2E2E2E2E2E2E2E2E2
310
E2E2E2E2E2E2E2E2E2E2E2E2E2E2E2E2E2E2E2E2E2E2E2E2E2E2E2E2E2E2E2E2E2E2E2E2E2E2E2E2E2E2E2E2E2E2E2E2E2E2E2E2E2E2E2E2E2E2E2E2E2E2E2E2E2E2E2E2E2E2E2E2E2E2E2E2E2E2E2E2E2E2E2E2E2E2E2E2E2E2E2E2E2E2E2E2E2E2E2E2E2E2E2E2E2E2E2E2E2E2E2E2E2E2E2E2E2E2E2E2E2E2E2E2E2E2F5
310
E2E2E2E2E2E2E2E2E2E2E2E2E2E2E2E2F5E2E2E2F5F5E2E2E2F5E2E2E2E2E2E2E2E2E2E2E2E2E2E2E2E2F5E2E2E2E2E2E2E2E2E2E2E2E2E2E2E2E2E2E2E2E2E2E2E2E2E2E2E2E2E2E2E2E2E2E2E2E2E2E2E2E2E2E2E2E2E2E2E2E2E2E2E2E2E2E2E2E2E2E2E2E2E2E2E2E2E2E2E2E2E2E2E2E2E2E2E2E2E2E2E2E2E2E2E2E2
310
E2E2E2E2E2E2E2E2E2E2E2E2E2E2E2E2E2E2E2E2E2E2E2E2E2E2E2E2E2E2E2E2E2E2E2E2E2E2E2E2E2E2E2E2E2E2E2E2E2E2E2E2F5E2E2E2E2E2E2E2E2E2E2E2E2E2E2E2E2F5E2E2E2F5F5E2E2E2F5E2E2E2E2E2E2E2E2E2E2E2E2E2E2E2E2F5E2E2E2E2E2E2E2E2E2E2E2E2E2E2E2E2E2E2E2E2E2E2E2E2E2E2E2E2E2E2E2
310
E2E2E2E2E2E2E2E2E2E2E2E2E2E2E2E2E2E2E2E2E2E2E2E2E2E2E2E2E2E2E2E2E2E2E2E2E2E2E2E2E2E2E2E2E2E2E2E2E2E2E2E2E2E2E2E2E2E2E2E2E2E2E2E2E2E2E2E2E2E2E2E2E2E2E2E2E2E2E2E2E2E2E2E2E2E2E2E2E2E2E2E2E2E2E2E2E2E2E2E2E2E2E2E2E2F5E2E2E2E2E2E2E2E2E2E2E2E2E2E2E2E2F5E2E2E2F5
310
F5E2E2E2F5E2E2E2E2E2E2E2E2E2E2E2E2E2E2E2E2F5E2E2E2E2E2E2E2E2E2E2E2E2E2E2E2E2E2E2E2E2E2E2E2E2E2E2E2E2E2E2E2E2E2E2E2E2E2E2E2E2E2E2E2E2E2E2E2E2E2E2E2E2E2E2E2E2E2E2E2E2E2E2E2E2E2E2E2E2E2E2E2E2E2E2E2E2E2E2E2E2E2E2E2E2E2E2E2E2E2E2E2E2E2E2E2E2E2E2E2E2E2E2E2E2E2
310
E2E2E2E2E2E2E2E2E2E2E2E2E2E2E2E2E2E2E2E2E2E2E2E2E2E2E2E2E2E2E2F5E2E2E2E2E2E2E2E2E2E2E2E2E2E2E2E2F5E2E2E2F5F5E2E2E2F5E2E2E2E2E2E2E2E2E2E2E2E2E2E2E2E2F5E2E2E2E2E2E2E2E2E2E2E2E2E2E2E2E2E2E2E2E2E2E2E2E2E2E2E2E2E2E2E2E2E2E2E2E2E2E2E2E2E2E2E2E2E2E2E2E2E2E2E2E2
310
E2E2E2E2E2E2E2E2E2E2E2E2E2E2E2E2E2E2E2E2E2E2E2E2E2E2E2E2E2E2E2E2E2E2E2E2E2E2E2E2E2E2E2E2E2E2E2E2E2E2E2E2E2E2E2E2E2E2E2E2E2E2E2E2E2E2E2E2E2E2E2E2E2E2E2E2E2E2E2E2E2E2E2E2F5E2E2E2E2E2E2E2E2E2E2E2E2E2E2E2E2F5E2E2E2F5F5E2E2E2F5E2E2E2E2E2E2E2E2E2E2E2E2E2E2E2E2
310
F5E2E2E2E2E2E2E2E2E2E2E2E2E2E2E2E2E2E2E2E2E2E2E2E2E2E2E2E2E2E2E2E2E2E2E2E2E2E2E2E2E2E2E2E2E2E2E2E2E2E2E2E2E2E2E2E2E2E2E2E2E2E2E2E2E2E2E2E2E2E2E2E2E2E2E2E2E2E2E2E2E2E2E2E2E2E2E2E2E2E2E2E2E2E2E2E2E2E2E2E2E2E2E2E2E2E2E2E2E2E2E2E2E2E2E2E2E2E2E2E2E2E2E2E2E2E2
310
E2E2E2E2E2E2E2E2E2E2F5E2E2E2E2E2E2E2E2E2E2E2E2E2E2E2E2F5E2E2E2F5F5E2E2E2F5E2E2E2E2E2E2E2E2E2E2E2E2E2E2E2E2F5E2E2E2E2E2E2E2E2E2E2E2E2E2E2E2E2E2E2E2E2E2E2E2E2E2E2E2E2E2E2E2E2E2E2E2E2E2E2E2E2E2E2E2E2E2E2E2E2E2E2E2E2E2E2E2E2E2E2E2E2E2E2E2E2E2E2E2E2E2E2E2E2E2
310
E2E2E2E2E2E2E2E2E2E2E2E2E2E2E2E2E2E2E2E2E2E2E2E2E2E2E2E2E2E2E2E2E2E2E2E2E2E2E2E2E2E2E2E2E2E2E2E2E2E2E2E2E2E2E2E2E2E2E2E2E2E2E2F5E2E2E2E2E2E2E2E2E2E2E2E2E2E2E2E2F5E2E2E2F5F5E2E2E2F5E2E2E2E2E2E2E2E2E2E2E2E2E2E2E2E2F5E2E2E2E2E2E2E2E2E2E2E2E2E2E2E2E2E2E2E2E2
310
E2E2E2E2E2E2E2E2E2E2E2E2E2E2E2E2E2E2E2E2E2E2E2E2E2E2E2E2E2E2E2E2E2E2E2E2E2E2E2E2E2E2E2E2E2E2E2E2E2E2E2E2E2E2E2E2E2E2E2E2E2E2E2E2E2E2E2E2E2E2E2E2E2E2E2E2E2E2E2E2E2E2E2E2E2E2E2E2E2E2E2E2E2E2E2E2E2E2E2E2E2E2E2E2E2E2E2E2E2E2E2E2E2E2E2E2F5E2E2E2E2E2E2E2E2E2E2
310
E2E2E2E2E2E2F5E2E2E2F5F5E2E2E2F5E2E2E2E2E2E2E2E2E2E2E2E2E2E2E2E2F5E2E2E2E2E2E2E2E2E2E2E2E2E2E2E2E2E2E2E2E2E2E2E2E2E2E2E2E2E2E2E2E2E2E2E2E2E2E2E2E2E2E2E2E2E2E2E2E2E2E2E2E2E2E2E2E2E2E2E2E2E2E2E2E2E2E2E2E2E2E2E2E2E2E2E2E2E2E2E2E2E2E2E2E2E2E2E2E2E2E2E2E2E2E2
310
E2E2E2E2E2E2E2E2E2E2E2E2E2E2E2E2E2E2E2E2E2E2E2E2E2E2E2E2E2E2E2E2E2E2E2E2E2E2E2E2E2E2F5E2E2E2E2E2E2E2E2E2E2E2E2E2E2E2E2F5E2E2E2F5F5E2E2E2E2E2E2E2E2E2E2E2E2E2E2E2E2E2E2E2E2F5E2E2E2E2E2E2E2E2E2E2E2E2E2E2E2E2E2E2E2E2E2E2E2E2E2E2E2E2E2E2E2E2E2E2E2E2E2E2E2E2E2
310
E2E2E2E2E2E2E2E2E2E2E2E2E2E2E2E2E2E2E2E2E2E2E2E2E2E2E2E2E2E2E2E2E2E2E2E2E2E2E2E2E2E2E2E2E2E2E2E2E2E2E2E2E2E2E2E2E2E2E2E2E2E2E2E2E2E2E2E2E2E2E2E2E2E2E2E2E2E2E2E2E2E2E2E2E2E2E2E2E2E2E2E2E2E2E2F5E2E2E2E2E2E2E2E2E2E2E2E2E2E2E2E2E2E2E2E2F5F5E2E2E2E2E2E2E2E2E2
310
E2E2E2E2E2E2E2E2E2E2E2F5E2E2E2E2E2E2E2E2E2E2E2E2E2E2E2E2E2E2E2E2E2E2E2E2E2E2E2E2E2E2E2E2E2E2E2E2E2E2E2E2E2E2E2E2E2E2E2E2E2E2E2E2E2E2E2E2E2E2E2E2E2E2E2E2E2E2E2E2E2E2E2E2E2E2E2E2E2E2E2E2E2E2E2E2E2E2E2E2E2E2E2E2E2E2E2E2E2E2E2E2E2E2E2E2E2E2E2E2E2E2E2E2E2E2E2
310
E2E2E2E2E2E2E2E2E2E2E2E2E2E2E2E2E2E2E2E2E2F5E2E2E2E2E2E2E2E2E2E2E2E2E2E2E2E2E2E2E2E2F5F5E2E2E2E2E2E2E2E2E2E2E2E2E2E2E2E2E2E2E2E2F5E2E2E2E2E2E2E2E2E2E2E2E2E2E2E2E2E2E2E2E2E2E2E2E2E2E2E2E2E2E2E2E2E2E2E2E2E2E2E2E2E2E2E2E2E2E2E2E2E2E2E2E2E2E2E2E2E2E2E2E2E2E2
310
E2E2E2E2E2E2E2E2E2E2E2E2E2E2E2E2E2E2E2E2E2E2E2E2E2E2E2E2E2E2E2E2E2E2E2E2E2E2E2E2E2E2E2E2E2E2E2E2E2E2E2E2E2E2E2E2E2E2E2E2E2E2E2E2E2E2E2E2E2E2E2E2E2E2F5E2E2E2E2E2E2E2E2E2E2E2E2E2E2E2E2E2E2E2E2F5F5E2E2E2E2E2E2E2E2E2E2E2E2E2E2E2E2E2E2E2E2F5E2E2E2E2E2E2E2E2E2
310
E2E2E2E2E2E2E2E2E2E2E2E2E2E2E2E2E2E2E2E2E2E2E2E2E2E2E2E2E2E2E2E2E2E2E2E2E2E2E2E2E2E2E2E2E2E2E2E2E2E2E2E2E2E2E2E2E2E2E2E2E2E2E2E2E2E2E2E2E2E2E2E2E2E2E2E2E2E2E2E2E2E2E2E2E2E2E2E2E2E2E2E2E2E2E2E2E2E2E2E2E2E2E2E2E2E2E2E2E2E2E2E2E2E2E2E2E2E2E2E2E2E2E2E2E2E2E2
310
F5E2E2E2E2E2E2E2E2E2E2E2E2E2E2E2E2E2E2E2E2F5F5E2E2E2E2E2E2E2E2E2E2E2E2E2E2E2E2E2E2E2E2F5E2E2E2E2E2E2E2E2E2E2E2E2E2E2E2E2E2E2E2E2E2E2E2E2E2E2E2E2E2E2E2E2E2E2E2E2E2E2E2E2E2E2E2E2E2E2E2E2E2E2E2E2E2E2E2E2E2E2E2E2E2E2E2E2E2E2E2E2E2E2E2E2E2E2E2E2E2E2E2E2E2E2E2
310
E2E2E2E2E2E2E2E2E2E2E2E2E2E2E2E2E2E2E2E2E2E2E2E2E2E2E2E2E2E2E2E2E2E2E2E2E2E2E2E2E2E2E2E2E2E2E2E2E2E2E2E2E2F5E2E2E2E2E2E2E2E2E2E2E2E2E2E2E2E2E2E2E2E2F5F5E2E2E2E2E2E2E2E2E2E2E2E2E2E2E2E2E2E2E2E2F5E2E2E2E2E2E2E2E2E2E2E2E2E2E2E2E2E2E2E2E2E2E2E2E2E2E2E2E2E2E2
310
E2E2E2E2E2E2E2E2E2E2E2E2E2E2E2E2E2E2E2E2E2E2E2E2E2E2E2E2E2E2E2E2E2E2E2E2E2E2E2E2E2E2E2E2E2E2E2E2E2E2E2E2E2E2E2E2E2E2E2E2E2E2E2E2E2E2E2E2E2E2E2E2E2E2E2E2E2E2E2E2E2E2E2E2E2E2E2E2E2E2E2E2E2E2E2E2E2E2E2E2E2E2E2E2E2E2F5E2E2E2E2E2E2E2E2E2E2E2E2E2E2E2E2E2E2E2E2
310
F5F5E2E2E2E2E2E2E2E2E2E2E2E2E2E2E2E2E2E2E2E2F5E2E2E2E2E2E2E2E2E2E2E2E2E2E2E2E2E2E2E2E2E2E2E2E2E2E2E2E2E2E2E2E2E2E2E2E2E2E2E2E2E2E2E2E2E2E2E2E2E2E2E2E2E2E2E2E2E2E2E2E2E2E2E2E2E2E2E2E2E2E2E2E2E2E2E2E2E2E2E2E2E2E2E2E2E2E2E2E2E2E2E2E2E2E2E2E2E2E2E2E2E2E2E2E2
310
E2E2E2E2E2E2E2E2E2E2E2E2E2E2E2E2E2E2E2E2E2E2E2E2E2E2E2E2E2E2E2E2F5E2E2E2E2E2E2E2E2E2E2E2E2E2E2E2E2E2E2E2E2F5F5E2E2E2E2E2E2E2E2E2E2E2E2E2E2E2E2E2E2E2E2F5E2E2E2E2E2E2E2E2E2E2E2E2E2E2E2E2E2E2E2E2E2E2E2E2E2E2E2E2E2E2E2E2E2E2E2E2E2E2E2E2E2E2E2E2E2E2E2E2E2E2E2
310
E2E2E2E2E2E2E2E2E2E2E2E2E2E2E2E2E2E2E2E2E2E2E2E2E2E2E2E2E2E2E2E2E2E2E2E2E2E2E2E2E2E2E2E2E2E2E2E2E2E2E2E2E2E2E2E2E2E2E2E2E2E2E2E2E2E2E2E2E2E2E2E2E2E2E2E2E2E2E2E2E2E2E2E2E2F5E2E2E2E2E2E2E2E2E2E2E2E2E2E2E2E2E2E2E2E2F5F5E2E2E2E2E2E2E2E2E2E2E2E2E2E2E2E2E2E2E2
310
E2F5E2E2E2E2E2E2E2E2E2E2E2E2E2E2E2E2E2E2E2E2E2E2E2E2E2E2E2E2E2E2E2E2E2E2E2E2E2E2E2E2E2E2E2E2E2E2E2E2E2E2E2E2E2E2E2E2E2E2E2E2E2E2E2E2E2E2E2E2E2E2E2E2E2E2E2E2E2E2E2E2E2E2E2E2E2E2E2E2E2E2E2E2E2E2E2E2E2E2E2E2E2E2E2E2E2E2E2E2E2E2E2E2E2E2E2E2E2E2E2E2E2E2E2E2E2
310
E2E2E2E2E2E2E2E2E2E2E2F5E2E2E2E2E2E2E2E2E2E2E2E2E2E2E2E2E2E2E2E2F5F5E2E2E2E2E2E2E2E2E2E2E2E2E2E2E2E2E2E2E2E2F5E2E2E2E2E2E2E2E2E2E2E2E2E2E2E2E2E2E2E2E2E2E2E2E2E2E2E2E2E2E2E2E2E2E2E2E2E2E2E2E2E2E2E2E2E2E2E2E2E2E2E2E2E2E2E2E2E2E2E2E2E2E2E2E2E2E2E2E2E2E2E2E2
310
E2E2E2E2E2E2E2E2E2E2E2E2E2E2E2E2E2E2E2E2E2E2E2E2E2E2E2E2E2E2E2E2E2E2E2E2E2E2E2E2E2E2E2E2E2E2E2E2E2E2E2E2E2E2E2E2E2E2E2E2E2E2E2E2F5E2E2E2E2E2E2E2E2E2E2E2E2E2E2E2E2E2E2E2E2F5F5E2E2E2F5E2E2E2E2E2E2E2E2E2E2E2E2E2E2E2E2F5E2E2E2E2E2E2E2E2E2E2E2E2E2E2E2E2E2E2E2
310
E2E2E2E2E2E2E2E2E2E2E2E2E2E2E2E2E2E2E2E2E2E2E2E2E2E2E2E2E2E2E2E2E2E2E2E2E2E2E2E2E2E2E2E2E2E2E2E2E2E2E2E2E2E2E2E2E2E2E2E2E2E2E2E2E2E2E2E2E2E2E2E2E2E2E2E2E2E2E2E2E2E2E2E2E2E2E2E2E2E2E2E2E2E2E2E2E2E2E2E2E2E2E2E2E2E2E2E2E2E2E2E2E2E2E2E2E2F5E2E2E2E2E2E2E2E2E2
310
E2E2E2E2E2E2E2F5E2E2E2F5F5E2E2E2F5E2E2E2E2E2E2E2E2E2E2E2E2E2E2E2E2F5E2E2E2E2E2E2E2E2E2E2E2E2E2E2E2E2E2E2E2E2E2E2E2E2E2E2E2E2E2E2E2E2E2E2E2E2E2E2E2E2E2E2E2E2E2E2E2E2E2E2E2E2E2E2E2E2E2E2E2E2E2E2E2E2E2E2E2E2E2E2E2E2E2E2E2E2E2E2E2E2E2E2E2E2E2E2E2E2E2E2E2E2E2
310
E2E2E2E2E2E2E2E2E2E2E2E2E2E2E2E2E2E2E2E2E2E2E2E2E2E2E2E2E2E2E2E2E2E2E2E2E2E2E2E2E2E2E2F5E2E2E2E2E2E2E2E2E2E2E2E2E2E2E2E2F5E2E2E2F5F5E2E2E2F5E2E2E2E2E2E2E2E2E2E2E2E2E2E2E2E2F5E2E2E2E2E2E2E2E2E2E2E2E2E2E2E2E2E2E2E2E2E2E2E2E2E2E2E2E2E2E2E2E2E2E2E2E2E2E2E2E2
310
E2E2E2E2E2E2E2E2E2E2E2E2E2E2E2E2E2E2E2E2E2E2E2E2E2E2E2E2E2E2E2E2E2E2E2E2E2E2E2E2E2E2E2E2E2E2E2E2E2E2E2E2E2E2E2E2E2E2E2E2E2E2E2E2E2E2E2E2E2E2E2E2E2E2E2E2E2E2E2E2E2E2E2E2E2E2E2E2E2E2E2E2E2E2E2E2F5E2E2E2E2E2E2E2E2E2E2E2E2E2E2E2E2F5E2E2E2F5F5E2E2E2F5E2E2E2E2
310
E2E2E2E2E2E2E2E2E2E2E2E2F5E2E2E2E2E2E2E2E2E2E2E2E2E2E2E2E2E2E2E2E2E2E2E2E2E2E2E2E2E2E2E2E2E2E2E2E2E2E2E2E2E2E2E2E2E2E2E2E2E2E2E2E2E2E2E2E2E2E2E2E2E2E2E2E2E2E2E2E2E2E2E2E2E2E2E2E2E2E2E2E2E2E2E2E2E2E2E2E2E2E2E2E2E2E2E2E2E2E2E2E2E2E2E2E2E2E2E2E2E2E2E2E2E2E2
310
E2E2E2E2E2E2E2E2E2E2E2E2E2E2E2E2E2E2E2E2E2E2F5E2E2E2E2E2E2E2E2E2E2E2E2E2E2E2E2F5E2E2E2F5F5E2E2E2F5E2E2E2E2E2E2E2E2E2E2E2E2E2E2E2E2F5E2E2E2E2E2E2E2E2E2E2E2E2E2E2E2E2E2E2E2E2E2E2E2E2E2E2E2E2E2E2E2E2E2E2E2E2E2E2E2E2E2E2E2E2E2E2E2E2E2E2E2E2E2E2E2E2E2E2E2E2E2
310
E2E2E2E2E2E2E2E2E2E2E2E2E2E2E2E2E2E2E2E2E2E2E2E2E2E2E2E2E2E2E2E2E2E2E2E2E2E2E2E2E2E2E2E2E2E2E2E2E2E2E2E2E2E2E2E2E2E2E2E2E2E2E2E2E2E2E2E2E2E2E2E2E2E2E2F5E2E2E2E2E2E2E2E2E2E2E2E2E2E2E2E2F5E2E2E2F5F5E2E2E2F5E2E2E2E2E2E2E2E2E2E2E2E2E2E2E2E2F5E2E2E2E2E2E2E2E2
310
E2E2E2E2E2E2E2E2E2E2E2E2E2E2E2E2E2E2E2E2E2E2E2E2E2E2E2E2E2E2E2E2E2E2E2E2E2E2E2E2E2E2E2E2E2E2E2E2E2E2E2E2E2E2E2E2E2E2E2E2E2E2E2E2E2E2E2E2E2E2E2E2E2E2E2E2E2E2E2E2E2E2E2E2E2E2E2E2E2E2E2E2E2E2E2E2E2E2E2E2E2E2E2E2E2E2E2E2E2E2E2E2E2E2E2E2E2E2E2E2E2E2E2E2E2E2E2
310
E2F5E2E2E2E2E2E2E2E2E2E2E2E2E2E2E2E2F5E2E2E2F5F5E2E2E2F5E2E2E2E2E2E2E2E2E2E2E2E2E2E2E2E2F5E2E2E2E2E2E2E2E2E2E2E2E2E2E2E2E2E2E2E2E2E2E2E2E2E2E2E2E2E2E2E2E2E2E2E2E2E2E2E2E2E2E2E2E2E2E2E2E2E2E2E2E2E2E2E2E2E2E2E2E2E2E2E2E2E2E2E2E2E2E2E2E2E2E2E2E2E2E2E2E2E2E2
310
E2E2E2E2E2E2E2E2E2E2E2E2E2E2E2E2E2E2E2E2E2E2E2E2E2E2E2E2E2E2E2E2E2E2E2E2E2E2E2E2E2E2E2E2E2E2E2E2E2E2E2E2E2E2F5E2E2E2E2E2E2E2E2E2E2E2E2E2E2E2E2F5E2E2E2F5F5E2E2E2F5E2E2E2E2E2E2E2E2E2E2E2E2E2E2E2E2F5E2E2E2E2E2E2E2E2E2E2E2E2E2E2E2E2E2E2E2E2E2E2E2E2E2E2E2E2E2
310
E2E2E2E2E2E2E2E2E2E2E2E2E2E2E2E2E2E2E2E2E2E2E2E2E2E2E2E2E2E2E2E2E2E2E2E2E2E2E2E2E2E2E2E2E2E2E2E2E2E2E2E2E2E2E2E2E2E2E2E2E2E2E2E2E2E2E2E2E2E2E2E2E2E2E2E2E2E2E2E2E2E2E2E2E2E2E2E2E2E2E2E2E2E2E2E2E2E2E2E2E2E2E2E2E2E2E2F5E2E2E2E2E2E2E2E2E2E2E2E2E2E2E2E2F5E2E2
310
E2F5F5E2E2E2F5E2E2E2E2E2E2E2E2E2E2E2E2E2E2E2E2F5E2E2E2E2E2E2E2E2E2E2E2E2E2E2E2E2E2E2E2E2E2E2E2E2E2E2E2E2E2E2E2E2E2E2E2E2E2E2E2E2E2E2E2E2E2E2E2E2E2E2E2E2E2E2E2E2E2E2E2E2E2E2E2E2E2E2E2E2E2E2E2E2E2E2E2E2E2E2E2E2E2E2E2E2E2E2E2E2E2E2E2E2E2E2E2E2E2E2E2E2E2E2E2
310
E2E2E2E2E2E2E2E2E2E2E2E2E2E2E2E2E2E2E2E2E2E2E2E2E2E2E2E2E2E2E2E2E2F5E2E2E2E2E2E2E2E2E2E2E2E2E2E2E2E2F5E2E2E2F5F5E2E2E2F5E2E2E2E2E2E2E2E2E2E2E2E2E2E2E2E2F5E2E2E2E2E2E2E2E2E2E2E2E2E2E2E2E2E2E2E2E2E2E2E2E2E2E2E2E2E2E2E2E2E2E2E2E2E2E2E2E2E2E2E2E2E2E2E2E2E2E2
310
E2E2E2E2E2E2E2E2E2E2E2E2E2E2E2E2E2E2E2E2E2E2E2E2E2E2E2E2E2E2E2E2E2E2E2E2E2E2E2E2E2E2E2E2E2E2E2E2E2E2E2E2E2E2E2E2E2E2E2E2E2E2E2E2E2E2E2E2E2E2E2E2E2E2E2E2E2E2E2E2E2E2E2E2E2E2F5E2E2E2E2E2E2E2E2E2E2E2E2E2E2E2E2F5E2E2E2F5F5E2E2E2F5E2E2E2E2E2E2E2E2E2E2E2E2E2E2
310
E2E2F5E2E2E2E2E2E2E2E2E2E2E2E2E2E2E2E2E2E2E2E2E2E2E2E2E2E2E2E2E2E2E2E2E2E2E2E2E2E2E2E2E2E2E2E2E2E2E2E2E2E2E2E2E2E2E2E2E2E2E2E2E2E2E2E2E2E2E2E2E2E2E2E2E2E2E2E2E2E2E2E2E2E2E2E2E2E2E2E2E2E2E2E2E2E2E2E2E2E2E2E2E2E2E2E2E2E2E2E2E2E2E2E2E2E2E2E2E2E2E2E2E2E2E2E2
310
E2E2E2E2E2E2E2E2E2E2E2E2F5E2E2E2E2E2E2E2E2E2E2E2E2E2E2E2E2F5E2E2E2F5F5E2E2E2F5E2E2E2E2E2E2E2E2E2E2E2E2E2E2E2E2F5E2E2E2E2E2E2E2E2E2E2E2E2E2E2E2E2E2E2E2E2E2E2E2E2E2E2E2E2E2E2E2E2E2E2E2E2E2E2E2E2E2E2E2E2E2E2E2E2E2E2E2E2E2E2E2E2E2E2E2E2E2E2E2E2E2E2E2E2E2E2E2
310
E2E2E2E2E2E2E2E2E2E2E2E2E2E2E2E2E2E2E2E2E2E2E2E2E2E2E2E2E2E2E2E2E2E2E2E2E2E2E2E2E2E2E2E2E2E2E2E2E2E2E2E2E2E2E2E2E2E2E2E2E2E2E2E2E2F5E2E2E2E2E2E2E2E2E2E2E2E2E2E2E2E2F5E2E2E2F5F5E2E2E2F5E2E2E2E2E2E2E2E2E2E2E2E2E2E2E2E2F5E2E2E2E2E2E2E2E2E2E2E2E2E2E2E2E2E2E2
310
E2E2E2E2E2E2E2E2E2E2E2E2E2E2E2E2E2E2E2E2E2E2E2E2E2E2E2E2E2E2E2E2E2E2E2E2E2E2E2E2E2E2E2E2E2E2E2E2E2E2E2E2E2E2E2E2E2E2E2E2E2E2E2E2E2E2E2E2E2E2E2E2E2E2E2E2E2E2E2E2E2E2E2E2E2E2E2E2E2E2E2E2E2E2E2E2E2E2E2E2E2E2E2E2E2E2E2E2E2E2E2E2E2E2E2E2E2E2F5E2E2E2E2E2E2E2E2
310
E2E2E2E2E2E2E2E2F5E2E2E2F5F5E2E2E2F5E2E2E2E2E2E2E2E2E2E2E2E2E2E2E2E2F5E2E2E2E2E2E2E2E2E2E2E2E2E2E2E2E2E2E2E2E2E2E2E2E2E2E2E2E2E2E2E2E2E2E2E2E2E2E2E2E2E2E2E2E2E2E2E2E2E2E2E2E2E2E2E2E2E2E2E2E2E2E2E2E2E2E2E2E2E2E2E2E2E2E2E2E2E2E2E2E2E2E2E2E2E2E2E2E2E2E2E2E2
310
E2E2E2E2E2E2E2E2E2E2E2E2E2E2E2E2E2E2E2E2E2E2E2E2E2E2E2E2E2E2E2E2E2E2E2E2E2E2E2E2E2E2E2E2F5E2E2E2E2E2E2E2E2E2E2E2E2E2E2E2E2F5E2E2E2F5F5E2E2E2F5E2E2E2E2E2E2E2E2E2E2E2E2E2E2E2E2F5E2E2E2E2E2E2E2E2E2E2E2E2E2E2E2E2E2E2E2E2E2E2E2E2E2E2E2E2E2E2E2E2E2E2E2E2E2E2E2
310
E2E2E2E2E2E2E2E2E2E2E2E2E2E2E2E2E2E2E2E2E2E2E2E2E2E2E2E2E2E2E2E2E2E2E2E2E2E2E2E2E2E2E2E2E2E2E2E2E2E2E2E2E2E2E2E2E2E2E2E2E2E2E2E2E2E2E2E2E2E2E2E2E2E2E2E2E2E2E2E2E2E2E2E2E2E2E2E2E2E2E2E2E2E2E2E2E2F5E2E2E2E2E2E2E2E2E2E2E2E2E2E2E2E2F5E2E2E2F5F5E2E2E2F5E2E2E2
310
E2E2E2E2E2E2E2E2E2E2E2E2E2F5E2E2E2E2E2E2E2E2E2E2E2E2E2E2E2E2E2E2E2E2E2E2E2E2E2E2E2E2E2E2E2E2E2E2E2E2E2E2E2E2E2E2E2E2E2E2E2E2E2E2E2E2E2E2E2E2E2E2E2E2E2E2E2E2E2E2E2E2E2E2E2E2E2E2E2E2E2E2E2E2E2E2E2E2E2E2E2E2E2E2E2E2E2E2E2E2E2E2E2E2E2E2E2E2E2E2E2E2E2E2E2E2E2
310
E2E2E2E2E2E2E2E2E2E2E2E2E2E2E2E2E2E2E2E2E2E2E2F5E2E2E2E2E2E2E2E2E2E2E2E2E2E2E2E2F5E2E2E2F5F5E2E2E2E2E2E2E2E2E2E2E2E2E2E2E2E2E2E2E2E2F5E2E2E2E2E2E2E2E2E2E2E2E2E2E2E2E2E2E2E2E2E2E2E2E2E2E2E2E2E2E2E2E2E2E2E2E2E2E2E2E2E2E2E2E2E2E2E2E2E2E2E2E2E2E2E2E2E2E2E2E2
310
E2E2E2E2E2E2E2E2E2E2E2E2E2E2E2E2E2E2E2E2E2E2E2E2E2E2E2E2E2E2E2E2E2E2E2E2E2E2E2E2E2E2E2E2E2E2E2E2E2E2E2E2E2E2E2E2E2E2E2E2E2E2E2E2E2E2E2E2E2E2E2E2E2E2E2E2F5E2E2E2E2E2E2E2E2E2E2E2E2E2E2E2E2E2E2E2E2F5F5E2E2E2E2E2E2E2E2E2E2E2E2E2E2E2E2E2E2E2E2F5E2E2E2E2E2E2E2
310
E2E2E2E2E2E2E2E2E2E2E2E2E2E2E2E2E2E2E2E2E2E2E2E2E2E2E2E2E2E2E2E2E2E2E2E2E2E2E2E2E2E2E2E2E2E2E2E2E2E2E2E2E2E2E2E2E2E2E2E2E2E2E2E2E2E2E2E2E2E2E2E2E2E2E2E2E2E2E2E2E2E2E2E2E2E2E2E2E2E2E2E2E2E2E2E2E2E2E2E2E2E2E2E2E2E2E2E2E2E2E2E2E2E2E2E2E2E2E2E2E2E2E2E2E2E2E2
310
E2E2F5E2E2E2E2E2E2E2E2E2E2E2E2E2E2E2E2E2E2E2E2F5F5E2E2E2E2E2E2E2E2E2E2E2E2E2E2E2E2E2E2E2E2F5E2E2E2E2E2E2E2E2E2E2E2E2E2E2E2E2E2E2E2E2E2E2E2E2E2E2E2E2E2E2E2E2E2E2E2E2E2E2E2E2E2E2E2E2E2E2E2E2E2E2E2E2E2E2E2E2E2E2E2E2E2E2E2E2E2E2E2E2E2E2E2E2E2E2E2E2E2E2E2E2E2
310
E2E2E2E2E2E2E2E2E2E2E2E2E2E2E2E2E2E2E2E2E2E2E2E2E2E2E2E2E2E2E2E2E2E2E2E2E2E2E2E2E2E2E2E2E2E2E2E2E2E2E2E2E2E2E2F5E2E2E2E2E2E2E2E2E2E2E2E2E2E2E2E2E2E2E2E2F5F5E2E2E2E2E2E2E2E2E2E2E2E2E2E2E2E2E2E2E2E2F5E2E2E2E2E2E2E2E2E2E2E2E2E2E2E2E2E2E2E2E2E2E2E2E2E2E2E2E2
310
E2E2E2E2E2E2E2E2E2E2E2E2E2E2E2E2E2E2E2E2E2E2E2E2E2E2E2E2E2E2E2E2E2E2E2E2E2E2E2E2E2E2E2E2E2E2E2E2E2E2E2E2E2E2E2E2E2E2E2E2E2E2E2E2E2E2E2E2E2E2E2E2E2E2E2E2E2E2E2E2E2E2E2E2E2E2E2E2E2E2E2E2E2E2E2E2E2E2E2E2E2E2E2E2E2E2E2E2F5E2E2E2E2E2E2E2E2E2E2E2E2E2E2E2E2E2E2
310
E2E2F5F5E2E2E2E2E2E2E2E2E2E2E2E2E2E2E2E2E2E2E2E2F5E2E2E2E2E2E2E2E2E2E2E2E2E2E2E2E2E2E2E2E2E2E2E2E2E2E2E2E2E2E2E2E2E2E2E2E2E2E2E2E2E2E2E2E2E2E2E2E2E2E2E2E2E2E2E2E2E2E2E2E2E2E2E2E2E2E2E2E2E2E2E2E2E2E2E2E2E2E2E2E2E2E2E2E2E2E2E2E2E2E2E2E2E2E2E2E2E2E2E2E2E2E2
310
E2E2E2E2E2E2E2E2E2E2E2E2E2E2E2E2E2E2E2E2E2E2E2E2E2E2E2E2E2E2E2E2E2E2F5E2E2E2E2E2E2E2E2E2E2E2E2E2E2E2E2E2E2E2E2F5F5E2E2E2E2E2E2E2E2E2E2E2E2E2E2E2E2E2E2E2E2F5E2E2E2E2E2E2E2E2E2E2E2E2E2E2E2E2E2E2E2E2E2E2E2E2E2E2E2E2E2E2E2E2E2E2E2E2E2E2E2E2E2E2E2E2E2E2E2E2E2
310
E2E2E2E2E2E2E2E2E2E2E2E2E2E2E2E2E2E2E2E2E2E2E2E2E2E2E2E2E2E2E2E2E2E2E2E2E2E2E2E2E2E2E2E2E2E2E2E2E2E2E2E2E2E2E2E2E2E2E2E2E2E2E2E2E2E2E2E2E2E2E2E2E2E2E2E2E2E2E2E2E2E2E2E2E2E2E2F5E2E2E2E2E2E2E2E2E2E2E2E2E2E2E2E2E2E2E2E2F5F5E2E2E2E2E2E2E2E2E2E2E2E2E2E2E2E2E2
310
E2E2E2F5E2E2E2E2E2E2E2E2E2E2E2E2E2E2E2E2E2E2E2E2E2E2E2E2E2E2E2E2E2E2E2E2E2E2E2E2E2E2E2E2E2E2E2E2E2E2E2E2E2E2E2E2E2E2E2E2E2E2E2E2E2E2E2E2E2E2E2E2E2E2E2E2E2E2E2E2E2E2E2E2E2E2E2E2E2E2E2E2E2E2E2E2E2E2E2E2E2E2E2E2E2E2E2E2E2E2E2E2E2E2E2E2E2E2E2E2E2E2E2E2E2E2E2
310
E2E2E2E2E2E2E2E2E2E2E2E2E2F5E2E2E2E2E2E2E2E2E2E2E2E2E2E2E2E2E2E2E2E2F5F5E2E2E2E2E2E2E2E2E2E2E2E2E2E2E2E2E2E2E2E2F5E2E2E2E2E2E2E2E2E2E2E2E2E2E2E2E2E2E2E2E2E2E2E2E2E2E2E2E2E2E2E2E2E2E2E2E2E2E2E2E2E2E2E2E2E2E2E2E2E2E2E2E2E2E2E2E2E2E2E2E2E2E2E2E2E2E2E2E2E2E2
310
E2E2E2E2E2E2E2E2E2E2E2E2E2E2E2E2E2E2E2E2E2E2E2E2E2E2E2E2E2E2E2E2E2E2E2E2E2E2E2E2E2E2E2E2E2E2E2E2E2E2E2E2E2E2E2E2E2E2E2E2E2E2E2E2E2E2F5E2E2E2E2E2E2E2E2E2E2E2E2E2E2E2E2E2E2E2E2F5F5E2E2E2E2E2E2E2E2E2E2E2E2E2E2E2E2E2E2E2E2F5E2E2E2E2E2E2E2E2E2E2E2E2E2E2E2E2E2
310
E2E2E2E2E2E2E2E2E2E2E2E2E2E2E2E2E2E2E2E2E2E2E2E2E2E2E2E2E2E2E2E2E2E2E2E2E2E2E2E2E2E2E2E2E2E2E2E2E2E2E2E2E2E2E2E2E2E2E2E2E2E2E2E2E2E2E2E2E2E2E2E2E2E2E2E2E2E2E2E2E2E2E2E2E2E2E2E2E2E2E2E2E2E2E2E2E2E2E2E2E2E2E2E2E2E2E2E2E2E2E2E2E2E2E2E2E2E2E2F5E2E2E2E2E2E2E2
310
E2E2E2E2E2E2E2E2E2E2E2E2E2F5F5E2E2E2F5E2E2E2E2E2E2E2E2E2E2E2E2E2E2E2E2F5E2E2E2E2E2E2E2E2E2E2E2E2E2E2E2E2E2E2E2E2E2E2E2E2E2E2E2E2E2E2E2E2E2E2E2E2E2E2E2E2E2E2E2E2E2E2E2E2E2E2E2E2E2E2E2E2E2E2E2E2E2E2E2E2E2E2E2E2E2E2E2E2E2E2E2E2E2E2E2E2E2E2E2E2E2E2E2E2E2E2E2
310
E2E2E2E2E2E2E2E2E2E2E2E2E2E2E2E2E2E2E2E2E2E2E2E2E2E2E2E2E2E2E2E2E2E2E2E2E2E2E2E2E2E2E2E2E2F5E2E2E2E2E2E2E2E2E2E2E2E2E2E2E2E2F5E2E2E2F5F5E2E2E2F5E2E2E2E2E2E2E2E2E2E2E2E2E2E2E2E2F5E2E2E2E2E2E2E2E2E2E2E2E2E2E2E2E2E2E2E2E2E2E2E2E2E2E2E2E2E2E2E2E2E2E2E2E2E2E2
310
E2E2E2E2E2E2E2E2E2E2E2E2E2E2E2E2E2E2E2E2E2E2E2E2E2E2E2E2E2E2E2E2E2E2E2E2E2E2E2E2E2E2E2E2E2E2E2E2E2E2E2E2E2E2E2E2E2E2E2E2E2E2E2E2E2E2E2E2E2E2E2E2E2E2E2E2E2E2E2E2E2E2E2E2E2E2E2E2E2E2E2E2E2E2E2E2E2E2F5E2E2E2E2E2E2E2E2E2E2E2E2E2E2E2E2F5E2E2E2F5F5E2E2E2F5E2E2
310
E2E2E2E2E2E2E2E2E2E2E2E2E2E2F5E2E2E2E2E2E2E2E2E2E2E2E2E2E2E2E2E2E2E2E2E2E2E2E2E2E2E2E2E2E2E2E2E2E2E2E2E2E2E2E2E2E2E2E2E2E2E2E2E2E2E2E2E2E2E2E2E2E2E2E2E2E2E2E2E2E2E2E2E2E2E2E2E2E2E2E2E2E2E2E2E2E2E2E2E2E2E2E2E2E2E2E2E2E2E2E2E2E2E2E2E2E2E2E2E2E2E2E2E2E2E2E2
310
E2E2E2E2E2E2E2E2E2E2E2E2E2E2E2E2E2E2E2E2E2E2E2E2F5E2E2E2E2E2E2E2E2E2E2E2E2E2E2E2E2F5E2E2E2F5F5E2E2E2F5E2E2E2E2E2E2E2E2E2E2E2E2E2E2E2E2F5E2E2E2E2E2E2E2E2E2E2E2E2E2E2E2E2E2E2E2E2E2E2E2E2E2E2E2E2E2E2E2E2E2E2E2E2E2E2E2E2E2E2E2E2E2E2E2E2E2E2E2E2E2E2E2E2E2E2E2
310
E2E2E2E2E2E2E2E2E2E2E2E2E2E2E2E2E2E2E2E2E2E2E2E2E2E2E2E2E2E2E2E2E2E2E2E2E2E2E2E2E2E2E2E2E2E2E2E2E2E2E2E2E2E2E2E2E2E2E2E2E2E2E2E2E2E2E2E2E2E2E2E2E2E2E2E2E2F5E2E2E2E2E2E2E2E2E2E2E2E2E2E2E2E2F5E2E2E2F5F5E2E2E2F5E2E2E2E2E2E2E2E2E2E2E2E2E2E2E2E2F5E2E2E2E2E2E2
310
E2E2E2E2E2E2E2E2E2E2E2E2E2E2E2E2E2E2E2E2E2E2E2E2E2E2E2E2E2E2E2E2E2E2E2E2E2E2E2E2E2E2E2E2E2E2E2E2E2E2E2E2E2E2E2E2E2E2E2E2E2E2E2E2E2E2E2E2E2E2E2E2E2E2E2E2E2E2E2E2E2E2E2E2E2E2E2E2E2E2E2E2E2E2E2E2E2E2E2E2E2E2E2E2E2E2E2E2E2E2E2E2E2E2E2E2E2E2E2E2E2E2E2E2E2E2E2
310
E2E2E2F5E2E2E2E2E2E2E2E2E2E2E2E2E2E2E2E2F5E2E2E2F5F5E2E2E2F5E2E2E2E2E2E2E2E2E2E2E2E2E2E2E2E2F5E2E2E2E2E2E2E2E2E2E2E2E2E2E2E2E2E2E2E2E2E2E2E2E2E2E2E2E2E2E2E2E2E2E2E2E2E2E2E2E2E2E2E2E2E2E2E2E2E2E2E2E2E2E2E2E2E2E2E2E2E2E2E2E2E2E2E2E2E2E2E2E2E2E2E2E2E2E2E2E2
310
E2E2E2E2E2E2E2E2E2E2E2E2E2E2E2E2E2E2E2E2E2E2E2E2E2E2E2E2E2E2E2E2E2E2E2E2E2E2E2E2E2E2E2E2E2E2E2E2E2E2E2E2E2E2E2E2F5E2E2E2E2E2E2E2E2E2E2E2E2E2E2E2E2F5E2E2E2F5F5E2E2E2F5E2E2E2E2E2E2E2E2E2E2E2E2E2E2E2E2F5E2E2E2E2E2E2E2E2E2E2E2E2E2E2E2E2E2E2E2E2E2E2E2E2E2E2E2
310
E2E2E2E2E2E2E2E2E2E2E2E2E2E2E2E2E2E2E2E2E2E2E2E2E2E2E2E2E2E2E2E2E2E2E2E2E2E2E2E2E2E2E2E2E2E2E2E2E2E2E2E2E2E2E2E2E2E2E2E2E2E2E2E2E2E2E2E2E2E2E2E2E2E2E2E2E2E2E2E2E2E2E2E2E2E2E2E2E2E2E2E2E2E2E2E2E2E2E2E2E2E2E2E2E2E2E2E2E2F5E2E2E2E2E2E2E2E2E2E2E2E2E2E2E2E2F5
310
E2E2E2F5F5E2E2E2F5E2E2E2E2E2E2E2E2E2E2E2E2E2E2E2E2F5E2E2E2E2E2E2E2E2E2E2E2E2E2E2E2E2E2E2E2E2E2E2E2E2E2E2E2E2E2E2E2E2E2E2E2E2E2E2E2E2E2E2E2E2E2E2E2E2E2E2E2E2E2E2E2E2E2E2E2E2E2E2E2E2E2E2E2E2E2E2E2E2E2E2E2E2E2E2E2E2E2E2E2E2E2E2E2E2E2E2E2E2E2E2E2E2E2E2E2E2E2
310
E2E2E2E2E2E2E2E2E2E2E2E2E2E2E2E2E2E2E2E2E2E2E2E2E2E2E2E2E2E2E2E2E2E2E2F5E2E2E2E2E2E2E2E2E2E2E2E2E2E2E2E2F5E2E2E2F5F5E2E2E2F5E2E2E2E2E2E2E2E2E2E2E2E2E2E2E2E2F5E2E2E2E2E2E2E2E2E2E2E2E2E2E2E2E2E2E2E2E2E2E2E2E2E2E2E2E2E2E2E2E2E2E2E2E2E2E2E2E2E2E2E2E2E2E2E2E2
310
E2E2E2E2E2E2E2E2E2E2E2E2E2E2E2E2E2E2E2E2E2E2E2E2E2E2E2E2E2E2E2E2E2E2E2E2E2E2E2E2E2E2E2E2E2E2E2E2E2E2E2E2E2E2E2E2E2E2E2E2E2E2E2E2E2E2E2E2E2E2E2E2E2E2E2E2E2E2E2E2E2E2E2E2E2E2E2E2F5E2E2E2E2E2E2E2E2E2E2E2E2E2E2E2E2F5E2E2E2F5F5E2E2E2F5E2E2E2E2E2E2E2E2E2E2E2E2
310
E2E2E2E2F5E2E2E2E2E2E2E2E2E2E2E2E2E2E2E2E2E2E2E2E2E2E2E2E2E2E2E2E2E2E2E2E2E2E2E2E2E2E2E2E2E2E2E2E2E2E2E2E2E2E2E2E2E2E2E2E2E2E2E2E2E2E2E2E2E2E2E2E2E2E2E2E2E2E2E2E2E2E2E2E2E2E2E2E2E2E2E2E2E2E2E2E2E2E2E2E2E2E2E2E2E2E2E2E2E2E2E2E2E2E2E2E2E2E2E2E2E2E2E2E2E2E2
310
E2E2E2E2E2E2E2E2E2E2E2E2E2E2F5E2E2E2E2E2E2E2E2E2E2E2E2E2E2E2E2F5E2E2E2F5F5E2E2E2F5E2E2E2E2E2E2E2E2E2E2E2E2E2E2E2E2F5E2E2E2E2E2E2E2E2E2E2E2E2E2E2E2E2E2E2E2E2E2E2E2E2E2E2E2E2E2E2E2E2E2E2E2E2E2E2E2E2E2E2E2E2E2E2E2E2E2E2E2E2E2E2E2E2E2E2E2E2E2E2E2E2E2E2E2E2E2
310
E2E2E2E2E2E2E2E2E2E2E2E2E2E2E2E2E2E2E2E2E2E2E2E2E2E2E2E2E2E2E2E2E2E2E2E2E2E2E2E2E2E2E2E2E2E2E2E2E2E2E2E2E2E2E2E2E2E2E2E2E2E2E2E2E2E2E2F5E2E2E2E2E2E2E2E2E2E2E2E2E2E2E2E2F5E2E2E2F5F5E2E2E2F5E2E2E2E2E2E2E2E2E2E2E2E2E2E2E2E2F5E2E2E2E2E2E2E2E2E2E2E2E2E2E2E2E2
310
E2E2E2E2E2E2E2E2E2E2E2E2E2E2E2E2E2E2E2E2E2E2E2E2E2E2E2E2E2E2E2E2E2E2E2E2E2E2E2E2E2E2E2E2E2E2E2E2E2E2E2E2E2E2E2E2E2E2E2E2E2E2E2E2E2E2E2E2E2E2E2E2E2E2E2E2E2E2E2E2E2E2E2E2E2E2E2E2E2E2E2E2E2E2E2E2E2E2E2E2E2E2E2E2E2E2E2E2E2E2E2E2E2E2E2E2E2E2E2E2F5E2E2E2E2E2E2
310
E2E2E2E2E2E2E2E2E2E2F5E2E2E2F5F5E2E2E2F5E2E2E2E2E2E2E2E2E2E2E2E2E2E2E2E2F5E2E2E2E2E2E2E2E2E2E2E2E2E2E2E2E2E2E2E2E2E2E2E2E2E2E2E2E2E2E2E2E2E2E2E2E2E2E2E2E2E2E2E2E2E2E2E2E2E2E2E2E2E2E2E2E2E2E2E2E2E2E2E2E2E2E2E2E2E2E2E2E2E2E2E2E2E2E2E2E2E2E2E2E2E2E2E2E2E2E2
310
E2E2E2E2E2E2E2E2E2E2E2E2E2E2E2E2E2E2E2E2E2E2E2E2E2E2E2E2E2E2E2E2E2E2E2E2E2E2E2E2E2E2E2E2E2E2F5E2E2E2E2E2E2E2E2E2E2E2E2E2E2E2E2F5E2E2E2F5F5E2E2E2F5E2E2E2E2E2E2E2E2E2E2E2E2E2E2E2E2F5E2E2E2E2E2E2E2E2E2E2E2E2E2E2E2E2E2E2E2E2E2E2E2E2E2E2E2E2E2E2E2E2E2E2E2E2E2
310
E2E2E2E2E2E2E2E2E2E2E2E2E2E2E2E2E2E2E2E2E2E2E2E2E2E2E2E2E2E2E2E2E2E2E2E2E2E2E2E2E2E2E2E2E2E2E2E2E2E2E2E2E2E2E2E2E2E2E2E2E2E2E2E2E2E2E2E2E2E2E2E2E2E2E2E2E2E2E2E2E2E2E2E2E2E2E2E2E2E2E2E2E2E2E2E2E2E2E2F5E2E2E2E2E2E2E2E2E2E2E2E2E2E2E2E2F5E2E2E2F5F5E2E2E2F5E2
310
E2E2E2E2E2E2E2E2E2E2E2E2E2E2E2F5E2E2E2E2E2E2E2E2E2E2E2E2E2E2E2E2E2E2E2E2E2E2E2E2E2E2E2E2E2E2E2E2E2E2E2E2E2E2E2E2E2E2E2E2E2E2E2E2E2E2E2E2E2E2E2E2E2E2E2E2E2E2E2E2E2E2E2E2E2E2E2E2E2E2E2E2E2E2E2E2E2E2E2E2E2E2E2E2E2E2E2E2E2E2E2E2E2E2E2E2E2E2E2E2E2E2E2E2E2E2E2
310
E2E2E2E2E2E2E2E2E2E2E2E2E2E2E2E2E2E2E2E2E2E2E2E2E2F5E2E2E2E2E2E2E2E2E2E2E2E2E2E2E2E2F5E2E2E2F5F5E2E2E2F5E2E2E2E2E2E2E2E2E2E2E2E2E2E2E2E2F5E2E2E2E2E2E2E2E2E2E2E2E2E2E2E2E2E2E2E2E2E2E2E2E2E2E2E2E2E2E2E2E2E2E2E2E2E2E2E2E2E2E2E2E2E2E2E2E2E2E2E2E2E2E2E2E2E2E2
310
E2E2E2E2E2E2E2E2E2E2E2E2E2E2E2E2E2E2E2E2E2E2E2E2E2E2E2E2E2E2E2E2E2E2E2E2E2E2E2E2E2E2E2E2E2E2E2E2E2E2E2E2E2E2E2E2E2E2E2E2E2E2E2E2E2E2E2E2E2E2E2E2E2E2E2E2E2E2F5E2E2E2E2E2E2E2E2E2E2E2E2E2E2E2E2F5E2E2E2F5F5E2E2E2F5E2E2E2E2E2E2E2E2E2E2E2E2E2E2E2E2F5E2E2E2E2E2
310
E2E2E2E2E2E2E2E2E2E2E2E2E2E2E2E2E2E2E2E2E2E2E2E2E2E2E2E2E2E2E2E2E2E2E2E2E2E2E2E2E2E2E2E2E2E2E2E2E2E2E2E2E2E2E2E2E2E2E2E2E2E2E2E2E2E2E2E2E2E2E2E2E2E2E2E2E2E2E2E2E2E2E2E2E2E2E2E2E2E2E2E2E2E2E2E2E2E2E2E2E2E2E2E2E2E2E2E2E2E2E2E2E2E2E2E2E2E2E2E2E2E2E2E2E2E2E2
310
E2E2E2E2F5E2E2E2E2E2E2E2E2E2E2E2E2E2E2E2E2F5E2E2E2F5F5E2E2E2E2E2E2E2E2E2E2E2E2E2E2E2E2E2E2E2E2F5E2E2E2E2E2E2E2E2E2E2E2E2E2E2E2E2E2E2E2E2E2E2E2E2E2E2E2E2E2E2E2E2E2E2E2E2E2E2E2E2E2E2E2E2E2E2E2E2E2E2E2E2E2E2E2E2E2E2E2E2E2E2E2E2E2E2E2E2E2E2E2E2E2E2E2E2E2E2E2
310
E2E2E2E2E2E2E2E2E2E2E2E2E2E2E2E2E2E2E2E2E2E2E2E2E2E2E2E2E2E2E2E2E2E2E2E2E2E2E2E2E2E2E2E2E2E2E2E2E2E2E2E2E2E2E2E2E2F5E2E2E2E2E2E2E2E2E2E2E2E2E2E2E2E2E2E2E2E2F5F5E2E2E2E2E2E2E2E2E2E2E2E2E2E2E2E2E2E2E2E2F5E2E2E2E2E2E2E2E2E2E2E2E2E2E2E2E2E2E2E2E2E2E2E2E2E2E2
310
E2E2E2E2E2E2E2E2E2E2E2E2E2E2E2E2E2E2E2E2E2E2E2E2E2E2E2E2E2E2E2E2E2E2E2E2E2E2E2E2E2E2E2E2E2E2E2E2E2E2E2E2E2E2E2E2E2E2E2E2E2E2E2E2E2E2E2E2E2E2E2E2E2E2E2E2E2E2E2E2E2E2E2E2E2E2E2E2E2E2E2E2E2E2E2E2E2E2E2E2E2E2E2E2E2E2E2E2E2E2F5E2E2E2E2E2E2E2E2E2E2E2E2E2E2E2E2
310
E2E2E2E2F5F5E2E2E2E2E2E2E2E2E2E2E2E2E2E2E2E2E2E2E2E2F5E2E2E2E2E2E2E2E2E2E2E2E2E2E2E2E2E2E2E2E2E2E2E2E2E2E2E2E2E2E2E2E2E2E2E2E2E2E2E2E2E2E2E2E2E2E2E2E2E2E2E2E2E2E2E2E2E2E2E2E2E2E2E2E2E2E2E2E2E2E2E2E2E2E2E2E2E2E2E2E2E2E2E2E2E2E2E2E2E2E2E2E2E2E2E2E2E2E2E2E2
310
E2E2E2E2E2E2E2E2E2E2E2E2E2E2E2E2E2E2E2E2E2E2E2E2E2E2E2E2E2E2E2E2E2E2E2E2F5E2E2E2E2E2E2E2E2E2E2E2E2E2E2E2E2E2E2E2E2F5F5E2E2E2E2E2E2E2E2E2E2E2E2E2E2E2E2E2E2E2E2F5E2E2E2E2E2E2E2E2E2E2E2E2E2E2E2E2E2E2E2E2E2E2E2E2E2E2E2E2E2E2E2E2E2E2E2E2E2E2E2E2E2E2E2E2E2E2E2
310
E2E2E2E2E2E2E2E2E2E2E2E2E2E2E2E2E2E2E2E2E2E2E2E2E2E2E2E2E2E2E2E2E2E2E2E2E2E2E2E2E2E2E2E2E2E2E2E2E2E2E2E2E2E2E2E2E2E2E2E2E2E2E2E2E2E2E2E2E2E2E2E2E2E2E2E2E2E2E2E2E2E2E2E2E2E2E2E2E2F5E2E2E2E2E2E2E2E2E2E2E2E2E2E2E2E2E2E2E2E2F5F5E2E2E2E2E2E2E2E2E2E2E2E2E2E2E2
310
E2E2E2E2E2F5F5F5F5F5F5F5F5F5F5F5F5F5F5F5F5F5F5F5F5F5F5F5F5F5F5F5F5F5F5F5F5F5F5F5F5F5F5F5F5F5F5F5F5F5F5F5F5F5F5F5F5F5F5F5F5F5F5F5F5F5F5F5F5F5F5F5F5F5F5F5F5F5F5F5F5F5F5F5F5F5F5F5F5F5F5F5F5F5F5F5F5F5F5F5F5F5F5F5F5F5F5F5F5F5F5F5F5F5F5F5F5F5F5F5F5F5F5F5F5F5F5
310
F5F5F5F5F5F5F5F5F5F5F5F5F5F5F5F5E2E2E2E2E2E2E2E2E2E2E2E2E2E2E2E2E2E2E2E2F5F5E2E2E2E2E2E2E2E2E2E2E2E2E2E2E2E2E2E2E2E2E2E2E2E2E2E2E2E2E2E2E2E2E2E2E2E2E2E2E2E2E2E2E2E2E2E2E2E2E2E2E2E2E2E2E2E2E2E2E2E2E2E2E2E2E2E2E2E2E2E2E2E2E2E2E2E2E2E2E2E2E2E2E2E2E2E2E2E2E2
310
E2E2E2E2E2E2E2E2E2E2E2E2E2E2E2E2E2E2E2E2E2E2E2E2E2E2E2E2E2E2E2E2E2E2E2E2E2E2E2E2E2E2E2E2E2E2E2E2E2E2E2E2E2E2E2E2E2E2E2E2E2E2E2E2E2E2E2E2E2E2E2E2E2E2E2E2E2E2E2E2E2E2E2E2E2E2E2E2E2F5F5E2E2E2E2E2E2E2E2E2E2E2E2E2E2E2E2E2E2E2E2E2E2E2E2E2E2E2E2E2E2E2E2E2E2E2E2
310
E2E2E2E2E2E2E2E2E2E2E2E2E2E2E2E2E2E2E2E2E2E2E2E2E2E2E2E2E2E2E2E2E2E2E2E2E2E2E2E2E2E2E2E2E2E2E2E2E2E2E2E2E2E2E2E2E2E2E2E2E2E2E2E2E2E2E2E2E2E2E2E2E2E2E2E2E2E2E2E2E2E2E2E2E2E2E2E2E2E2E2E2E2E2E2E2E2E2E2E2E2E2E2E2E2E2E2E2E2E2E2E2E2E2E2E2E2E2E2E2E2E2E2E2E2E2E2
310
E2E2E2E2E2E2E2E2E2E2E2E2E2E2E2F5F5E2E2E2E2E2E2E2E2E2E2E2E2E2E2E2E2E2E2E2E2E2E2E2E2E2E2E2E2E2E2E2E2E2E2E2E2E2E2E2E2E2E2E2E2E2E2E2E2E2E2E2E2E2E2E2E2E2E2E2E2E2E2E2E2E2E2E2E2E2E2E2E2E2E2E2E2E2E2E2E2E2E2E2E2E2E2E2E2E2E2E2E2E2E2E2E2E2E2E2E2E2E2E2E2E2E2E2E2E2E2
310
E2E2E2E2E2E2E2E2E2E2E2E2E2E2E2E2E2E2E2E2E2E2E2E2E2E2E2E2E2E2E2E2E2E2E2E2E2E2E2E2E2E2E2E2E2E2E2E2E2E2E2E2E2E2E2E2E2E2E2E2E2E2E2E2E2E2E2E2F5F5E2E2E2E2E2E2E2E2E2E2E2E2E2E2E2E2E2E2E2E2E2E2E2E2E2E2E2E2E2E2E2E2E2E2E2E2E2E2E2E2E2E2E2E2E2E2E2E2E2E2E2E2E2E2E2E2E2
310
E2E2E2E2E2E2E2E2E2E2E2E2E2E2E2E2E2E2E2E2E2E2E2E2E2E2E2E2E2E2E2E2E2E2E2E2E2E2E2E2E2E2E2E2E2E2E2E2E2E2E2E2E2E2E2E2E2E2E2E2E2E2E2E2E2E2E2E2E2E2E2E2E2E2E2E2E2E2E2E2E2E2E2E2E2E2E2E2E2E2E2E2E2E2E2E2E2E2E2E2E2E2E2E2E2E2E2E2E2E2E2E2E2E2E2E2E2E2E2E2E2F5F5E2E2E2F5
310
E2E2E2E2E2E2E2E2E2E2E2E2E2E2E2E2E2E2E2E2E2E2E2E2E2E2E2E2E2E2E2E2E2E2E2E2E2E2E2E2E2E2E2E2E2E2E2E2E2E2E2E2E2E2E2E2E2E2E2E2E2E2E2E2E2E2E2E2E2E2E2E2E2E2E2E2E2E2E2E2E2E2E2E2E2E2E2E2E2E2E2E2E2E2E2E2E2E2E2E2E2E2E2E2E2E2E2E2E2E2E2E2E2E2E2E2E2E2E2E2E2E2E2E2E2E2E2
310
E2E2E2E2E2E2E2E2E2E2E2E2E2E2E2E2E2E2E2E2E2E2E2E2E2E2E2E2E2E2E2E2E2E2E2E2E2E2E2E2E2E2E2F5E2E2E2F5F5E2E2E2F5E2E2E2E2E2E2E2E2E2E2E2E2E2E2E2E2E2E2E2E2E2E2E2E2E2E2E2E2E2E2E2E2E2E2E2E2E2E2E2E2E2E2E2E2E2E2E2E2E2E2E2E2E2E2E2E2E2E2E2E2E2E2E2E2E2E2E2E2E2E2E2E2E2E2
310
E2E2E2E2E2E2E2E2E2E2E2E2E2E2E2E2E2E2E2E2E2E2E2E2E2E2E2E2E2E2E2E2E2E2E2E2E2E2E2E2E2E2E2E2E2E2E2E2E2E2E2E2E2E2E2E2E2E2E2E2E2E2E2E2E2E2E2E2E2E2E2E2E2E2E2E2E2E2E2E2E2E2E2E2E2E2E2E2E2E2E2E2E2E2E2E2F5E2E2E2F5F5E2E2E2F5E2E2E2E2E2E2E2E2E2E2E2E2E2E2E2E2E2E2E2E2E2
310
E2E2E2E2E2E2E2E2E2E2E2E2E2E2E2E2E2E2E2E2E2E2E2E2E2E2E2E2E2E2E2E2E2E2E2E2E2E2E2E2E2E2E2E2E2E2E2E2E2E2E2E2E2E2E2E2E2E2E2E2E2E2E2E2E2E2E2E2E2E2E2E2E2E2E2E2E2E2E2E2E2E2E2E2E2E2E2E2E2E2E2E2E2E2E2E2E2E2E2E2E2E2E2E2E2E2E2E2E2E2E2E2E2E2E2E2E2E2E2E2E2E2E2E2E2E2E2
310
E2E2E2E2E2E2E2E2E2E2E2E2E2E2E2E2E2E2E2E2E2E2F5E2E2E2F5F5E2E2E2F5E2E2E2E2E2E2E2E2E2E2E2E2E2E2E2E2E2E2E2E2E2E2E2E2E2E2E2E2E2E2E2E2E2E2E2E2E2E2E2E2E2E2E2E2E2E2E2E2E2E2E2E2E2E2E2E2E2E2E2E2E2E2E2E2E2E2E2E2E2E2E2E2E2E2E2E2E2E2E2E2E2E2E2E2E2E2E2E2E2E2E2E2E2E2E2
310
E2E2E2E2E2E2E2E2E2E2E2E2E2E2E2E2E2E2E2E2E2E2E2E2E2E2E2E2E2E2E2E2E2E2E2E2E2E2E2E2E2E2E2E2E2E2E2E2E2E2E2E2E2E2E2E2E2E2E2E2E2E2E2E2E2E2E2E2E2E2E2E2E2E2E2F5E2E2E2F5F5E2E2E2F5E2E2E2E2E2E2E2E2E2E2E2E2E2E2E2E2E2E2E2E2E2E2E2E2E2E2E2E2E2E2E2E2E2E2E2E2E2E2E2E2E2E2
310
E2E2E2E2E2E2E2E2E2E2E2E2E2E2E2E2E2E2E2E2E2E2E2E2E2E2E2E2E2E2E2E2E2E2E2E2E2E2E2E2E2E2E2E2E2E2E2E2E2E2E2E2E2E2E2E2E2E2E2E2E2E2E2E2E2E2E2E2E2E2E2E2E2E2E2E2E2E2E2E2E2E2E2E2E2E2E2E2E2E2E2E2E2E2E2E2E2E2E2E2E2E2E2E2E2E2E2E2E2E2E2E2E2E2E2E2E2E2E2E2E2E2E2E2E2E2E2
310
E2F5E2E2E2F5F5E2E2E2F5E2E2E2E2E2E2E2E2E2E2E2E2E2E2E2E2E2E2E2E2E2E2E2E2E2E2E2E2E2E2E2E2E2E2E2E2E2E2E2E2E2E2E2E2E2E2E2E2E2E2E2E2E2E2E2E2E2E2E2E2E2E2E2E2E2E2E2E2E2E2E2E2E2E2E2E2E2E2E2E2E2E2E2E2E2E2E2E2E2E2E2E2E2E2E2E2E2E2E2E2E2E2E2E2E2E2E2E2E2E2E2E2E2E2E2E2
310
E2E2E2E2E2E2E2E2E2E2E2E2E2E2E2E2E2E2E2E2E2E2E2E2E2E2E2E2E2E2E2E2E2E2E2E2E2E2E2E2E2E2E2E2E2E2E2E2E2E2E2E2E2E2F5E2E2E2F5F5E2E2E2F5E2E2E2E2E2E2E2E2E2E2E2E2E2E2E2E2E2E2E2E2E2E2E2E2E2E2E2E2E2E2E2E2E2E2E2E2E2E2E2E2E2E2E2E2E2E2E2E2E2E2E2E2E2E2E2E2E2E2E2E2E2E2E2
310
E2E2E2E2E2E2E2E2E2E2E2E2E2E2E2E2E2E2E2E2E2E2E2E2E2E2E2E2E2E2E2E2E2E2E2E2E2E2E2E2E2E2E2E2E2E2E2E2E2E2E2E2E2E2E2E2E2E2E2E2E2E2E2E2E2E2E2E2E2E2E2E2E2E2E2E2E2E2E2E2E2E2E2E2E2E2E2E2E2E2E2E2E2E2E2E2E2E2E2E2E2E2E2E2E2E2E2F5E2E2E2F5F5E2E2E2F5E2E2E2E2E2E2E2E2E2E2
310
E2E2E2E2E2E2E2E2E2E2E2E2E2E2E2E2E2E2E2E2E2E2E2E2E2E2E2E2E2E2E2E2E2E2E2E2E2E2E2E2E2E2E2E2E2E2E2E2E2E2E2E2E2E2E2E2E2E2E2E2E2E2E2E2E2E2E2E2E2E2E2E2E2E2E2E2E2E2E2E2E2E2E2E2E2E2E2E2E2E2E2E2E2E2E2E2E2E2E2E2E2E2E2E2E2E2E2E2E2E2E2E2E2E2E2E2E2E2E2E2E2E2E2E2E2E2E2
310
E2E2E2E2E2E2E2E2E2E2E2E2E2E2E2E2E2E2E2E2E2E2E2E2E2E2E2E2E2E2E2E2E2F5E2E2E2F5F5E2E2E2F5F5F5F5F5F5F5F5E2E2E2E2E2E2E2E2E2F5F5F5F5F5F5F5F5F5F5F5F5F5F5F5F5E2E2E2E2E2E2E2E2E2F5F5F5F5F5F5F5F5F5F5F5F5F5F5F5E2E2E2E2E2E2E2E2E2F5F5F5F5F5F5F5F5F5F5F5F5F5F5F5F5E2E2E2
310
E2E2E2E2E2F5F5F5F5F5F5F5F5F5F5F5F5F5F5F5F5E2E2E2E2E2E2E2E2E2F5F5F5F5F5F5F5F5F5F5F5F5F5F5F5E2E2E2E2E2E2E2E2E2F5F5F5F5F5F5F5F5F5F5F5F5F5F5F5F5E2E2E2E2E2E2E2E2E2F5F5F5F5F5F5F5F5E2E2E2F5F5E2E2E2E2E2E2E2E2E2E2E2E2E2E2E2E2E2E2E2E2E2E2E2E2E2E2E2E2E2E2E2E2E2E2E2
310
E2E2E2E2E2E2E2E2E2E2E2E2E2E2E2E2E2E2E2E2E2E2E2E2E2E2E2E2E2E2E2E2E2E2E2E2E2E2E2E2E2E2E2E2E2E2E2E2E2E2E2E2E2E2E2E2E2E2E2E2E2E2E2E2E2E2E2E2E2E2E2E2E2E2E2E2E2E2E2E2E2E2E2E2E2E2E2E2E2E2E2E2E2E2E2E2E2E2E2E2E2E2E2E2E2E2E2E2E2E2E2E2E2E2E2E2E2E2E2E2E2E2E2E2E2E2E2
310
E2E2E2E2E2E2E2E2E2E2E2E2E2E2E2E2F5F5E2E2E2E2E2E2E2E2E2E2E2E2E2E2E2E2E2E2E2E2E2E2E2E2E2E2E2E2E2E2E2E2E2E2E2E2E2E2E2E2E2E2E2E2E2E2E2E2E2E2E2E2E2E2E2E2E2E2E2E2E2E2E2E2E2E2E2E2E2E2E2E2E2E2E2E2E2E2E2E2E2E2E2E2E2E2E2E2E2E2E2E2E2E2E2E2E2E2E2E2E2E2E2E2E2E2E2E2E2
310
E2E2E2E2E2E2E2E2E2E2E2E2E2E2E2E2E2E2E2E2E2E2E2E2E2E2E2E2E2E2E2E2E2E2E2E2E2E2E2E2E2E2E2E2E2E2E2E2E2E2E2E2E2E2E2E2E2E2E2E2E2E2E2E2E2E2E2E2E2F5F5E2E2E2E2E2E2E2E2E2E2E2E2E2E2E2E2E2E2E2E2E2E2E2E2E2E2E2E2E2E2E2E2E2E2E2E2E2E2E2E2E2E2E2E2E2E2E2E2E2E2E2E2E2E2E2E2
310
E2E2E2E2E2E2E2E2E2E2E2E2E2E2E2E2E2E2E2E2E2E2E2E2E2E2E2E2E2E2E2E2E2E2E2E2E2E2E2E2E2E2E2E2E2E2E2E2E2E2E2E2E2E2E2E2E2E2E2E2E2E2E2E2E2E2E2E2E2E2E2E2E2E2E2E2E2E2E2E2E2E2E2E2E2E2E2E2E2E2E2E2E2E2E2E2E2E2E2E2E2E2E2E2E2E2E2E2E2E2E2E2E2E2E2E2E2E2E2E2E2E2F5F5E2E2E2
310
E2E2E2E2E2E2E2E2E2E2E2E2E2E2E2E2E2E2E2E2E2E2E2E2E2E2E2E2E2E2E2E2E2E2E2E2E2E2E2E2E2E2E2E2E2E2E2E2E2E2E2E2E2E2E2E2E2E2E2E2E2E2E2E2E2E2E2E2E2E2E2E2E2E2E2E2E2E2E2E2E2E2E2E2E2E2E2E2E2E2E2E2E2E2E2E2E2E2E2E2E2E2E2E2E2E2E2E2E2E2E2E2E2E2E2E2E2E2E2E2E2E2E2E2E2E2E2
310
E2E2E2E2E2E2E2E2E2E2E2E2E2E2E2E2E2E2E2E2E2E2E2E2E2E2E2E2E2E2E2E2E2E2E2E2E2E2E2E2E2E2E2E2E2E2E2E2F5
  0
XRECORD
  5
60F88
102
{ACAD_REACTORS
330
60F87
102
}
330
60F87
100
AcDbXrecord
280
     1
102
SHADEPLOT
 70
     0
102
SHADEPLOTRESLEVEL
 70
     2
102
SHADEPLOTCUSTOMDPI
 70
   300
  0
ENDSEC
  0
EOF
