  0
SECTION
  2
HEADER
  9
$ACADVER
  1
AC1015
  9
$ACADMAINTVER
 70
    20
  9
$DWGCODEPAGE
  3
ANSI_936
  9
$INSBASE
 10
0.0
 20
0.0
 30
0.0
  9
$EXTMIN
 10
-77.71666666666653
 20
-210.9404353871937
 30
0.0
  9
$EXTMAX
 10
426.7900307416665
 20
125.2043569669982
 30
0.0
  9
$LIMMIN
 10
0.0
 20
0.0
  9
$LIMMAX
 10
420.0
 20
297.0
  9
$ORTHOMODE
 70
     0
  9
$REGENMODE
 70
     1
  9
$FILLMODE
 70
     1
  9
$QTEXTMODE
 70
     0
  9
$MIRRTEXT
 70
     1
  9
$LTSCALE
 40
1.0
  9
$ATTMODE
 70
     1
  9
$TEXTSIZE
 40
3.5
  9
$TRACEWID
 40
1.0
  9
$TEXTSTYLE
  7
simplex
  9
$CLAYER
  8
0
  9
$CELTYPE
  6
ByLayer
  9
$CECOLOR
 62
   256
  9
$CELTSCALE
 40
1.0
  9
$DISPSILH
 70
     0
  9
$DIMSCALE
 40
0.0
  9
$DIMASZ
 40
3.5
  9
$DIMEXO
 40
0.0
  9
$DIMDLI
 40
0.38
  9
$DIMRND
 40
0.0
  9
$DIMDLE
 40
0.0
  9
$DIMEXE
 40
1.5
  9
$DIMTP
 40
0.0
  9
$DIMTM
 40
0.0
  9
$DIMTXT
 40
3.5
  9
$DIMCEN
 40
0.09
  9
$DIMTSZ
 40
0.0
  9
$DIMTOL
 70
     0
  9
$DIMLIM
 70
     0
  9
$DIMTIH
 70
     0
  9
$DIMTOH
 70
     0
  9
$DIMSE1
 70
     0
  9
$DIMSE2
 70
     0
  9
$DIMTAD
 70
     1
  9
$DIMZIN
 70
     8
  9
$DIMBLK
  1

  9
$DIMASO
 70
     1
  9
$DIMSHO
 70
     1
  9
$DIMPOST
  1

  9
$DIMAPOST
  1

  9
$DIMALT
 70
     0
  9
$DIMALTD
 70
     2
  9
$DIMALTF
 40
25.4
  9
$DIMLFAC
 40
1.0
  9
$DIMTOFL
 70
     0
  9
$DIMTVP
 40
0.0
  9
$DIMTIX
 70
     0
  9
$DIMSOXD
 70
     0
  9
$DIMSAH
 70
     0
  9
$DIMBLK1
  1

  9
$DIMBLK2
  1

  9
$DIMSTYLE
  2
\M+18352\M+18373\M+1815B - ISO-25
  9
$DIMCLRD
 70
   256
  9
$DIMCLRE
 70
   256
  9
$DIMCLRT
 70
   256
  9
$DIMTFAC
 40
1.0
  9
$DIMGAP
 40
2.299999999999998
  9
$DIMJUST
 70
     0
  9
$DIMSD1
 70
     0
  9
$DIMSD2
 70
     0
  9
$DIMTOLJ
 70
     1
  9
$DIMTZIN
 70
     8
  9
$DIMALTZ
 70
     0
  9
$DIMALTTZ
 70
     0
  9
$DIMUPT
 70
     0
  9
$DIMDEC
 70
     2
  9
$DIMTDEC
 70
     2
  9
$DIMALTU
 70
     2
  9
$DIMALTTD
 70
     2
  9
$DIMTXSTY
  7
simplex
  9
$DIMAUNIT
 70
     0
  9
$DIMADEC
 70
     0
  9
$DIMALTRND
 40
0.0
  9
$DIMAZIN
 70
     0
  9
$DIMDSEP
 70
    46
  9
$DIMATFIT
 70
     3
  9
$DIMFRAC
 70
     0
  9
$DIMLDRBLK
  1

  9
$DIMLUNIT
 70
     2
  9
$DIMLWD
 70
    -1
  9
$DIMLWE
 70
    -1
  9
$DIMTMOVE
 70
     0
  9
$LUNITS
 70
     2
  9
$LUPREC
 70
     4
  9
$SKETCHINC
 40
1.0
  9
$FILLETRAD
 40
1.5
  9
$AUNITS
 70
     0
  9
$AUPREC
 70
     0
  9
$MENU
  1
.
  9
$ELEVATION
 40
0.0
  9
$PELEVATION
 40
0.0
  9
$THICKNESS
 40
0.0
  9
$LIMCHECK
 70
     0
  9
$CHAMFERA
 40
10.0
  9
$CHAMFERB
 40
10.0
  9
$CHAMFERC
 40
20.0
  9
$CHAMFERD
 40
0.0
  9
$SKPOLY
 70
     0
  9
$TDCREATE
 40
2455489.391063368
  9
$TDUCREATE
 40
2455489.057730035
  9
$TDUPDATE
 40
2458416.662229225
  9
$TDUUPDATE
 40
2458416.328895891
  9
$TDINDWG
 40
2.0230353819
  9
$TDUSRTIMER
 40
2.0229836690
  9
$USRTIMER
 70
     1
  9
$ANGBASE
 50
0.0
  9
$ANGDIR
 70
     0
  9
$PDMODE
 70
     0
  9
$PDSIZE
 40
0.0
  9
$PLINEWID
 40
0.0
  9
$SPLFRAME
 70
     0
  9
$SPLINETYPE
 70
     6
  9
$SPLINESEGS
 70
     8
  9
$HANDSEED
  5
613EC
  9
$SURFTAB1
 70
     6
  9
$SURFTAB2
 70
     6
  9
$SURFTYPE
 70
     6
  9
$SURFU
 70
     6
  9
$SURFV
 70
     6
  9
$UCSBASE
  2

  9
$UCSNAME
  2

  9
$UCSORG
 10
0.0
 20
0.0
 30
0.0
  9
$UCSXDIR
 10
1.0
 20
0.0
 30
0.0
  9
$UCSYDIR
 10
0.0
 20
1.0
 30
0.0
  9
$UCSORTHOREF
  2

  9
$UCSORTHOVIEW
 70
     0
  9
$UCSORGTOP
 10
0.0
 20
0.0
 30
0.0
  9
$UCSORGBOTTOM
 10
0.0
 20
0.0
 30
0.0
  9
$UCSORGLEFT
 10
0.0
 20
0.0
 30
0.0
  9
$UCSORGRIGHT
 10
0.0
 20
0.0
 30
0.0
  9
$UCSORGFRONT
 10
0.0
 20
0.0
 30
0.0
  9
$UCSORGBACK
 10
0.0
 20
0.0
 30
0.0
  9
$PUCSBASE
  2

  9
$PUCSNAME
  2

  9
$PUCSORG
 10
0.0
 20
0.0
 30
0.0
  9
$PUCSXDIR
 10
1.0
 20
0.0
 30
0.0
  9
$PUCSYDIR
 10
0.0
 20
1.0
 30
0.0
  9
$PUCSORTHOREF
  2

  9
$PUCSORTHOVIEW
 70
     0
  9
$PUCSORGTOP
 10
0.0
 20
0.0
 30
0.0
  9
$PUCSORGBOTTOM
 10
0.0
 20
0.0
 30
0.0
  9
$PUCSORGLEFT
 10
0.0
 20
0.0
 30
0.0
  9
$PUCSORGRIGHT
 10
0.0
 20
0.0
 30
0.0
  9
$PUCSORGFRONT
 10
0.0
 20
0.0
 30
0.0
  9
$PUCSORGBACK
 10
0.0
 20
0.0
 30
0.0
  9
$USERI1
 70
     0
  9
$USERI2
 70
     0
  9
$USERI3
 70
     0
  9
$USERI4
 70
     0
  9
$USERI5
 70
     0
  9
$USERR1
 40
0.0
  9
$USERR2
 40
0.0
  9
$USERR3
 40
0.0
  9
$USERR4
 40
0.0
  9
$USERR5
 40
0.0
  9
$WORLDVIEW
 70
     1
  9
$SHADEDGE
 70
     3
  9
$SHADEDIF
 70
    70
  9
$TILEMODE
 70
     1
  9
$MAXACTVP
 70
    64
  9
$PINSBASE
 10
0.0
 20
0.0
 30
0.0
  9
$PLIMCHECK
 70
     0
  9
$PEXTMIN
 10
26.66999878883364
 20
20.31999878883365
 30
0.0
  9
$PEXTMAX
 10
240.0299890995025
 20
182.8799890995025
 30
0.0
  9
$PLIMMIN
 10
-6.350006103515625
 20
-6.349999904632567
  9
$PLIMMAX
 10
273.0499877929688
 20
209.5499939918518
  9
$UNITMODE
 70
     0
  9
$VISRETAIN
 70
     1
  9
$PLINEGEN
 70
     0
  9
$PSLTSCALE
 70
     1
  9
$TREEDEPTH
 70
  3020
  9
$CMLSTYLE
  2
Standard
  9
$CMLJUST
 70
     0
  9
$CMLSCALE
 40
20.0
  9
$PROXYGRAPHICS
 70
     1
  9
$MEASUREMENT
 70
     1
  9
$CELWEIGHT
370
    -1
  9
$ENDCAPS
280
     0
  9
$JOINSTYLE
280
     0
  9
$LWDISPLAY
290
     0
  9
$INSUNITS
 70
     4
  9
$HYPERLINKBASE
  1

  9
$STYLESHEET
  1

  9
$XEDIT
290
     1
  9
$CEPSNTYPE
380
     0
  9
$PSTYLEMODE
290
     1
  9
$FINGERPRINTGUID
  2
{601DDA01-5B13-4A4C-8F56-1333B78D855B}
  9
$VERSIONGUID
  2
{53369181-4994-46AA-930E-9681BA00B6F2}
  9
$EXTNAMES
290
     1
  9
$PSVPSCALE
 40
0.0
  9
$OLESTARTUP
290
     0
  0
ENDSEC
  0
SECTION
  2
CLASSES
  0
CLASS
  1
ACDBDICTIONARYWDFLT
  2
AcDbDictionaryWithDefault
  3
ObjectDBX Classes
 90
        0
280
     0
281
     0
  0
CLASS
  1
ACDBPLACEHOLDER
  2
AcDbPlaceHolder
  3
ObjectDBX Classes
 90
        0
280
     0
281
     0
  0
CLASS
  1
LAYOUT
  2
AcDbLayout
  3
ObjectDBX Classes
 90
        0
280
     0
281
     0
  0
CLASS
  1
DICTIONARYVAR
  2
AcDbDictionaryVar
  3
ObjectDBX Classes
 90
        0
280
     0
281
     0
  0
CLASS
  1
TABLESTYLE
  2
AcDbTableStyle
  3
ObjectDBX Classes
 90
     2047
280
     0
281
     0
  0
CLASS
  1
SORTENTSTABLE
  2
AcDbSortentsTable
  3
ObjectDBX Classes
 90
        0
280
     0
281
     0
  0
CLASS
  1
DIMASSOC
  2
AcDbDimAssoc
  3
"AcDbDimAssoc|Product Desc:     AcDim ARX App For Dimension|Company:          Autodesk, Inc.|WEB Address:      www.autodesk.com"
 90
        0
280
     0
281
     0
  0
CLASS
  1
ACAD_EVALUATION_GRAPH
  2
AcDbEvalGraph
  3
ObjectDBX Classes
 90
    33921
280
     0
281
     0
  0
CLASS
  1
ACAECUSTOBJ
  2
AcAeEditorObj
  3
AcAeEditorObj
 90
    33792
280
     0
281
     0
  0
CLASS
  1
ACDB_DYNAMICBLOCKPURGEPREVENTER_VERSION
  2
AcDbDynamicBlockPurgePreventer
  3
ObjectDBX Classes
 90
    33921
280
     0
281
     0
  0
ENDSEC
  0
SECTION
  2
TABLES
  0
TABLE
  2
VPORT
  5
8
330
0
100
AcDbSymbolTable
 70
    37
  0
VPORT
  5
613DD
330
8
100
AcDbSymbolTableRecord
100
AcDbViewportTableRecord
  2
*Active
 70
     0
 10
0.0
 20
0.0
 11
1.0
 21
1.0
 12
29.75221173183084
 22
18.48742176600879
 13
0.0
 23
0.0
 14
10.0
 24
10.0
 15
10.0
 25
10.0
 16
0.0
 26
0.0
 36
1.0
 17
0.0
 27
0.0
 37
0.0
 40
305.3490833928437
 41
1.381443298969072
 42
50.0
 43
0.0
 44
0.0
 50
0.0
 51
0.0
 71
     0
 72
  1000
 73
     1
 74
     1
 75
     0
 76
     0
 77
     0
 78
     0
281
     0
 65
     1
110
0.0
120
0.0
130
0.0
111
1.0
121
0.0
131
0.0
112
0.0
122
1.0
132
0.0
 79
     0
146
0.0
  0
ENDTAB
  0
TABLE
  2
LTYPE
  5
5
330
0
100
AcDbSymbolTable
 70
     4
  0
LTYPE
  5
14
330
5
100
AcDbSymbolTableRecord
100
AcDbLinetypeTableRecord
  2
ByBlock
 70
     0
  3

 72
    65
 73
     0
 40
0.0
  0
LTYPE
  5
15
330
5
100
AcDbSymbolTableRecord
100
AcDbLinetypeTableRecord
  2
ByLayer
 70
     0
  3

 72
    65
 73
     0
 40
0.0
  0
LTYPE
  5
16
330
5
100
AcDbSymbolTableRecord
100
AcDbLinetypeTableRecord
  2
Continuous
 70
     0
  3
Solid line
 72
    65
 73
     0
 40
0.0
  0
LTYPE
  5
D7
330
5
100
AcDbSymbolTableRecord
100
AcDbLinetypeTableRecord
  2
HIDDEN
 70
     0
  3
Hidden __ __ __ __ __ __ __ __ __ __ __ __ __ _
 72
    65
 73
     2
 40
9.524999999999996
 49
6.349999999999997
 74
     0
 49
-3.174999999999998
 74
     0
  0
LTYPE
  5
D9
330
5
100
AcDbSymbolTableRecord
100
AcDbLinetypeTableRecord
  2
CENTER
 70
     0
  3
Center ____ _ ____ _ ____ _ ____ _ ____ _ ____
 72
    65
 73
     4
 40
50.8
 49
31.75
 74
     0
 49
-6.349999999999997
 74
     0
 49
6.349999999999997
 74
     0
 49
-6.349999999999997
 74
     0
  0
LTYPE
  5
35815
330
5
100
AcDbSymbolTableRecord
100
AcDbLinetypeTableRecord
  2
PHANTOM
 70
     0
  3
_____ _ _ _____ _ _ _____ _ _ _____
 72
    65
 73
     6
 40
0.8
 49
0.45
 74
     0
 49
-0.05
 74
     0
 49
0.1
 74
     0
 49
-0.05
 74
     0
 49
0.1
 74
     0
 49
-0.05
 74
     0
  0
ENDTAB
  0
TABLE
  2
LAYER
  5
2
102
{ACAD_XDICTIONARY
360
E2
102
}
330
0
100
AcDbSymbolTable
 70
    43
  0
LAYER
  5
10
330
2
100
AcDbSymbolTableRecord
100
AcDbLayerTableRecord
  2
0
 70
     0
 62
     7
  6
Continuous
370
    -3
390
F
  0
LAYER
  5
D1
330
2
100
AcDbSymbolTableRecord
100
AcDbLayerTableRecord
  2
1
 70
     0
 62
     4
  6
Continuous
370
    50
390
F
1001
AcAecLayerStandard
1000

1000

  0
LAYER
  5
D3
330
2
100
AcDbSymbolTableRecord
100
AcDbLayerTableRecord
  2
2
 70
     0
 62
     7
  6
Continuous
370
    25
390
F
1001
AcAecLayerStandard
1000

1000

  0
LAYER
  5
D4
330
2
100
AcDbSymbolTableRecord
100
AcDbLayerTableRecord
  2
3
 70
     0
 62
     1
  6
HIDDEN
370
    35
390
F
1001
AcAecLayerStandard
1000

1000

  0
LAYER
  5
D8
330
2
100
AcDbSymbolTableRecord
100
AcDbLayerTableRecord
  2
4
 70
     0
 62
     2
  6
CENTER
370
    25
390
F
1001
AcAecLayerStandard
1000

1000

  0
LAYER
  5
DA
330
2
100
AcDbSymbolTableRecord
100
AcDbLayerTableRecord
  2
6
 70
     0
 62
     5
  6
Continuous
370
    35
390
F
1001
AcAecLayerStandard
1000

1000

  0
LAYER
  5
DB
330
2
100
AcDbSymbolTableRecord
100
AcDbLayerTableRecord
  2
cut
 70
     0
 62
     1
  6
Continuous
370
    25
390
F
1001
AcAecLayerStandard
1000

1000

  0
LAYER
  5
DC
330
2
100
AcDbSymbolTableRecord
100
AcDbLayerTableRecord
  2
nocut
 70
     0
 62
     7
  6
Continuous
370
    25
390
F
1001
AcAecLayerStandard
1000

1000

  0
LAYER
  5
DD
330
2
100
AcDbSymbolTableRecord
100
AcDbLayerTableRecord
  2
sk1
 70
     0
 62
     4
  6
Continuous
370
    50
390
F
1001
AcAecLayerStandard
1000

1000

  0
LAYER
  5
DE
330
2
100
AcDbSymbolTableRecord
100
AcDbLayerTableRecord
  2
sk2
 70
     0
 62
     7
  6
Continuous
370
    25
390
F
1001
AcAecLayerStandard
1000

1000

  0
LAYER
  5
DF
330
2
100
AcDbSymbolTableRecord
100
AcDbLayerTableRecord
  2
sk3
 70
     0
 62
     1
  6
HIDDEN
370
    35
390
F
1001
AcAecLayerStandard
1000

1000

  0
LAYER
  5
E0
330
2
100
AcDbSymbolTableRecord
100
AcDbLayerTableRecord
  2
sk4
 70
     0
 62
     2
  6
CENTER
370
    25
390
F
1001
AcAecLayerStandard
1000

1000

  0
LAYER
  5
E1
330
2
100
AcDbSymbolTableRecord
100
AcDbLayerTableRecord
  2
sk6
 70
     0
 62
     5
  6
Continuous
370
    35
390
F
1001
AcAecLayerStandard
1000

1000

  0
LAYER
  5
31B6
330
2
100
AcDbSymbolTableRecord
100
AcDbLayerTableRecord
  2
Defpoints
 70
     0
 62
     7
  6
Continuous
290
     0
370
    -3
390
F
  0
ENDTAB
  0
TABLE
  2
STYLE
  5
3
330
0
100
AcDbSymbolTable
 70
    11
  0
STYLE
  5
11
330
3
100
AcDbSymbolTableRecord
100
AcDbTextStyleTableRecord
  2
Standard
 70
     0
 40
0.0
 41
1.0
 50
0.0
 71
     0
 42
2.5
  3
txt.shx
  4
@extfont2.shx
  0
STYLE
  5
D6
330
3
100
AcDbSymbolTableRecord
100
AcDbTextStyleTableRecord
  2

 70
     1
 40
0.0
 41
1.0
 50
0.0
 71
     0
 42
2.5
  3
ltypeshp.shx
  4

  0
STYLE
  5
24A
330
3
100
AcDbSymbolTableRecord
100
AcDbTextStyleTableRecord
  2
simplex
 70
     0
 40
3.5
 41
1.0
 50
0.0
 71
     0
 42
3.5
  3
txt.shx
  4

  0
STYLE
  5
69E
330
3
100
AcDbSymbolTableRecord
100
AcDbTextStyleTableRecord
  2
MX_NOTE_STANDARD
 70
     0
 40
0.0
 41
1.0
 50
0.0
 71
     0
 42
4.2
  3
txt.shx
  4
extfont.shx
  0
STYLE
  5
3524
330
3
100
AcDbSymbolTableRecord
100
AcDbTextStyleTableRecord
  2
TEXTSTYLE_2
 70
     0
 40
0.0
 41
0.775
 50
0.0
 71
     0
 42
0.2
  3
gdt
  4

  0
STYLE
  5
3525
330
3
100
AcDbSymbolTableRecord
100
AcDbTextStyleTableRecord
  2
TEXTSTYLE_3
 70
     0
 40
0.0
 41
0.75
 50
0.0
 71
     0
 42
0.2
  3
txt
  4

  0
STYLE
  5
3526
330
3
100
AcDbSymbolTableRecord
100
AcDbTextStyleTableRecord
  2
TEXTSTYLE_13
 70
     0
 40
0.0
 41
1.0
 50
0.0
 71
     0
 42
0.2
  3
txt
  4

  0
STYLE
  5
519A
330
3
100
AcDbSymbolTableRecord
100
AcDbTextStyleTableRecord
  2
TEXTSTYLE_14
 70
     0
 40
0.0
 41
1.0
 50
0.0
 71
     0
 42
0.2
  3
txt
  4

  0
STYLE
  5
6F72
330
3
100
AcDbSymbolTableRecord
100
AcDbTextStyleTableRecord
  2
TEXTSTYLE_4
 70
     0
 40
0.0
 41
0.75
 50
0.0
 71
     0
 42
0.2
  3
txt
  4

  0
STYLE
  5
6F73
330
3
100
AcDbSymbolTableRecord
100
AcDbTextStyleTableRecord
  2
TEXTSTYLE_17
 70
     0
 40
0.0
 41
1.0
 50
0.0
 71
     0
 42
0.2
  3
txt
  4

  0
STYLE
  5
FE12
330
3
100
AcDbSymbolTableRecord
100
AcDbTextStyleTableRecord
  2
TEXTSTYLE_12
 70
     0
 40
0.0
 41
1.0
 50
0.0
 71
     0
 42
0.2
  3
txt
  4

  0
ENDTAB
  0
TABLE
  2
VIEW
  5
6
330
0
100
AcDbSymbolTable
 70
     0
  0
ENDTAB
  0
TABLE
  2
UCS
  5
7
330
0
100
AcDbSymbolTable
 70
     0
  0
ENDTAB
  0
TABLE
  2
APPID
  5
9
330
0
100
AcDbSymbolTable
 70
    11
  0
APPID
  5
12
330
9
100
AcDbSymbolTableRecord
100
AcDbRegAppTableRecord
  2
ACAD
 70
     0
  0
APPID
  5
D2
330
9
100
AcDbSymbolTableRecord
100
AcDbRegAppTableRecord
  2
AcAecLayerStandard
 70
     0
  0
APPID
  5
E6
330
9
100
AcDbSymbolTableRecord
100
AcDbRegAppTableRecord
  2
ACAD_DSTYLE_DIMTEXT_FILL
 70
     0
  0
APPID
  5
4C84
330
9
100
AcDbSymbolTableRecord
100
AcDbRegAppTableRecord
  2
ACAD_EXEMPT_FROM_CAD_STANDARDS
 70
     0
  0
APPID
  5
3493E
330
9
100
AcDbSymbolTableRecord
100
AcDbRegAppTableRecord
  2
DCO15
 70
     0
  0
APPID
  5
4366A
330
9
100
AcDbSymbolTableRecord
100
AcDbRegAppTableRecord
  2
ACAUTHENVIRON
 70
     0
  0
APPID
  5
4366D
330
9
100
AcDbSymbolTableRecord
100
AcDbRegAppTableRecord
  2
AcDbDynamicBlockTrueName
 70
     0
  0
APPID
  5
4366E
330
9
100
AcDbSymbolTableRecord
100
AcDbRegAppTableRecord
  2
AcDbDynamicBlockGUID
 70
     0
  0
APPID
  5
43670
330
9
100
AcDbSymbolTableRecord
100
AcDbRegAppTableRecord
  2
AcDbBlockRepETag
 70
     0
  0
APPID
  5
45C9F
330
9
100
AcDbSymbolTableRecord
100
AcDbRegAppTableRecord
  2
ACAD_DSTYLE_DIMEXT_ENABLED
 70
     0
  0
APPID
  5
45CA0
330
9
100
AcDbSymbolTableRecord
100
AcDbRegAppTableRecord
  2
ACAD_DSTYLE_DIMEXT_LENGTH
 70
     0
  0
ENDTAB
  0
TABLE
  2
DIMSTYLE
  5
A
330
0
100
AcDbSymbolTable
 70
    10
100
AcDbDimStyleTable
 71
     2
340
1BF
340
27
  0
DIMSTYLE
105
27
330
A
100
AcDbSymbolTableRecord
100
AcDbDimStyleTableRecord
  2
ISO-25
 70
     0
 41
2.5
 42
0.625
 43
3.75
 44
1.25
 73
     0
 74
     0
 77
     1
 78
     8
140
2.5
141
2.5
143
0.03937007874016
147
0.625
171
     3
172
     1
271
     2
272
     2
274
     3
278
    44
283
     0
284
     8
340
11
  0
DIMSTYLE
105
1BF
102
{ACAD_REACTORS
330
6099E
330
60984
330
6096A
330
60950
330
60920
330
60908
330
60938
330
608F0
330
608D8
330
609B7
102
}
330
A
100
AcDbSymbolTableRecord
100
AcDbDimStyleTableRecord
  2
\M+18352\M+18373\M+1815B - ISO-25
 70
     0
 40
0.0
 41
3.5
 42
0.0
 44
1.5
 73
     0
 74
     0
 77
     1
 78
     8
140
3.5
147
2.299999999999998
176
   256
177
   256
178
   256
271
     2
272
     2
284
     8
340
24A
371
    -1
372
    -1
  0
DIMSTYLE
105
69F
330
A
100
AcDbSymbolTableRecord
100
AcDbDimStyleTableRecord
  2
MXDIMSTYLE
 70
     0
 41
2.5
 42
0.5
 43
3.75
 44
1.5
 73
     0
 74
     0
 77
     1
 78
     8
140
4.2
141
2.5
143
0.03937
147
1.0
171
     4
172
     1
173
     1
271
     2
272
     2
274
     4
283
     0
288
     1
340
69E
341
697
343
697
344
697
  0
DIMSTYLE
105
3527
330
A
100
AcDbSymbolTableRecord
100
AcDbDimStyleTableRecord
  2
STANDARD
 70
     0
 41
3.0
 47
0.001
 48
0.001
 71
     1
 73
     0
 74
     0
 77
     1
 78
     8
140
4.0
271
     3
272
     3
284
     8
340
11
341
34B1
342
34B1
343
34B1
344
34B1
  0
DIMSTYLE
105
3528
330
A
100
AcDbSymbolTableRecord
100
AcDbDimStyleTableRecord
  2
DIMSTYLE_1
 70
     0
 41
3.0
 73
     0
 74
     0
 77
     1
 78
     8
140
4.0
271
     3
272
     3
284
     8
340
11
341
34B1
342
34B1
343
34B1
344
34B1
  0
DIMSTYLE
105
3529
330
A
100
AcDbSymbolTableRecord
100
AcDbDimStyleTableRecord
  2
DIMSTYLE_2
 70
     0
 41
3.0
 47
0.001
 48
0.001
 73
     0
 74
     0
 77
     1
 78
     8
140
4.0
271
     3
272
     3
284
     8
340
11
341
34B1
342
34B1
343
34B1
344
34B1
  0
DIMSTYLE
105
352A
330
A
100
AcDbSymbolTableRecord
100
AcDbDimStyleTableRecord
  2
DIMSTYLE_3
 70
     0
 41
3.0
 47
-0.1
 48
0.3
 71
     1
 73
     0
 74
     0
 77
     1
 78
     8
140
4.0
146
0.5
271
     3
272
     3
284
     8
340
11
341
34B1
342
34B1
343
34B1
344
34B1
  0
DIMSTYLE
105
352B
330
A
100
AcDbSymbolTableRecord
100
AcDbDimStyleTableRecord
  2
DIMSTYLE_4
 70
     0
 41
3.0
 47
0.1
 48
0.1
 71
     1
 73
     0
 74
     0
 77
     1
 78
     8
140
4.0
271
     3
272
     3
284
     8
340
11
341
34B1
342
34B1
343
34B1
344
34B1
  0
DIMSTYLE
105
27245
330
A
100
AcDbSymbolTableRecord
100
AcDbDimStyleTableRecord
  2
DIMSTYLE_5
 70
     0
 41
3.0
 47
0.001
 48
0.001
 73
     0
 74
     0
 77
     1
 78
     8
140
4.0
271
     3
272
     3
284
     8
340
11
341
34B1
342
34B1
343
34B1
344
34B1
  0
DIMSTYLE
105
4771C
330
A
100
AcDbSymbolTableRecord
100
AcDbDimStyleTableRecord
  2
\M+18352\M+18373\M+1815B_-_ISO-25
 70
     0
 40
0.0
 41
3.5
 42
0.0
 44
1.5
 73
     0
 74
     0
 77
     1
 78
     8
140
3.5
147
2.299999999999998
176
   256
177
   256
178
   256
279
     2
284
     8
285
     8
286
     8
340
24A
  0
ENDTAB
  0
TABLE
  2
BLOCK_RECORD
  5
1
330
0
100
AcDbSymbolTable
 70
    96
  0
BLOCK_RECORD
  5
1F
102
{ACAD_XDICTIONARY
360
31EE
102
}
330
1
100
AcDbSymbolTableRecord
100
AcDbBlockTableRecord
  2
*Model_Space
340
22
  0
BLOCK_RECORD
  5
50
330
1
100
AcDbSymbolTableRecord
100
AcDbBlockTableRecord
  2
*Paper_Space
340
51
  0
BLOCK_RECORD
  5
55
330
1
100
AcDbSymbolTableRecord
100
AcDbBlockTableRecord
  2
*Paper_Space0
340
56
  0
BLOCK_RECORD
  5
680
102
{ACAD_XDICTIONARY
360
43668
102
}
330
1
100
AcDbSymbolTableRecord
100
AcDbBlockTableRecord
  2
zero block
340
0
102
{BLKREFS
331
68C
102
}
1001
ACAD
1000
DesignCenter Data
1002
{
1070
     1
1070
     4
1002
}
1001
AcDbDynamicBlockGUID
1000
{A89DF4EB-B2CB-439E-AC69-1EAC9F242D1C}
1001
AcDbBlockRepETag
1070
     1
1071
        7
  0
BLOCK_RECORD
  5
697
330
1
100
AcDbSymbolTableRecord
100
AcDbBlockTableRecord
  2
_OPEN30
340
0
  0
BLOCK_RECORD
  5
32F1
330
1
100
AcDbSymbolTableRecord
100
AcDbBlockTableRecord
  2
_None
340
0
102
{BLKREFS
331
5CE0B
331
5F1BF
102
}
  0
BLOCK_RECORD
  5
34B1
330
1
100
AcDbSymbolTableRecord
100
AcDbBlockTableRecord
  2
_OPEN
340
0
102
{BLKREFS
331
5CDDE
331
5CDDF
331
5CDE8
331
5CDE9
331
5CDF2
331
5CDF3
331
5CDFC
331
5CDFD
331
5CE03
331
5CE0C
331
5EDB1
331
5EDB8
331
5EDC0
331
5EDC1
331
5EDC9
331
5EDCA
331
5EDD2
331
5EDD3
331
5EDDB
331
5EDDC
331
5F1B0
331
5F1B1
331
5F1B7
331
5F1C0
331
5F192
331
5F193
331
5F19C
331
5F19D
331
5F1A6
331
5F1A7
331
5F61C
331
5F61D
331
5F625
331
5F626
331
5F62E
331
5F62F
331
5F637
331
5F638
331
5F64F
331
5F657
102
}
  0
BLOCK_RECORD
  5
45B07
330
1
100
AcDbSymbolTableRecord
100
AcDbBlockTableRecord
  2
*D7
340
0
  0
BLOCK_RECORD
  5
45B1F
330
1
100
AcDbSymbolTableRecord
100
AcDbBlockTableRecord
  2
*D8
340
0
  0
BLOCK_RECORD
  5
608D9
330
1
100
AcDbSymbolTableRecord
100
AcDbBlockTableRecord
  2
*D84
340
0
  0
BLOCK_RECORD
  5
608F1
330
1
100
AcDbSymbolTableRecord
100
AcDbBlockTableRecord
  2
*D85
340
0
  0
BLOCK_RECORD
  5
60909
330
1
100
AcDbSymbolTableRecord
100
AcDbBlockTableRecord
  2
*D86
340
0
  0
BLOCK_RECORD
  5
60921
330
1
100
AcDbSymbolTableRecord
100
AcDbBlockTableRecord
  2
*D87
340
0
  0
BLOCK_RECORD
  5
60939
330
1
100
AcDbSymbolTableRecord
100
AcDbBlockTableRecord
  2
*D88
340
0
  0
BLOCK_RECORD
  5
60951
330
1
100
AcDbSymbolTableRecord
100
AcDbBlockTableRecord
  2
*D89
340
0
  0
BLOCK_RECORD
  5
6096B
330
1
100
AcDbSymbolTableRecord
100
AcDbBlockTableRecord
  2
*D90
340
0
  0
BLOCK_RECORD
  5
60985
330
1
100
AcDbSymbolTableRecord
100
AcDbBlockTableRecord
  2
*D91
340
0
  0
BLOCK_RECORD
  5
6099F
330
1
100
AcDbSymbolTableRecord
100
AcDbBlockTableRecord
  2
*D92
340
0
  0
BLOCK_RECORD
  5
609B8
330
1
100
AcDbSymbolTableRecord
100
AcDbBlockTableRecord
  2
*D93
340
0
  0
ENDTAB
  0
ENDSEC
  0
SECTION
  2
BLOCKS
  0
BLOCK
  5
20
330
1F
100
AcDbEntity
  8
0
100
AcDbBlockBegin
  2
*Model_Space
 70
     0
 10
0.0
 20
0.0
 30
0.0
  3
*Model_Space
  1

  0
ENDBLK
  5
21
330
1F
100
AcDbEntity
  8
0
100
AcDbBlockEnd
  0
BLOCK
  5
52
330
50
100
AcDbEntity
 67
     1
  8
0
100
AcDbBlockBegin
  2
*Paper_Space
 70
     0
 10
0.0
 20
0.0
 30
0.0
  3
*Paper_Space
  1

  0
ENDBLK
  5
53
330
50
100
AcDbEntity
 67
     1
  8
0
100
AcDbBlockEnd
  0
BLOCK
  5
57
330
55
100
AcDbEntity
 67
     1
  8
0
100
AcDbBlockBegin
  2
*Paper_Space0
 70
     0
 10
0.0
 20
0.0
 30
0.0
  3
*Paper_Space0
  1

  0
VIEWPORT
  5
71
102
{ACAD_XDICTIONARY
360
613E8
102
}
330
55
100
AcDbEntity
 67
     1
  8
0
100
AcDbViewport
 10
150.1652135264906
 20
101.599997546291
 30
0.0
 40
339.1973820494347
 41
164.5360435314421
 68
     0
 69
     0
 12
150.1652135264906
 22
101.599997546291
 13
0.0
 23
0.0
 14
10.0
 24
10.0
 15
10.0
 25
10.0
 16
0.0
 26
0.0
 36
1.0
 17
0.0
 27
0.0
 37
0.0
 42
50.0
 43
0.0
 44
0.0
 45
164.5360435314421
 50
0.0
 51
0.0
 72
  1000
 90
    32864
  1

281
     0
 71
     1
 74
     0
110
0.0
120
0.0
130
0.0
111
1.0
121
0.0
131
0.0
112
0.0
122
1.0
132
0.0
 79
     0
146
0.0
  0
VIEWPORT
  5
73
102
{ACAD_XDICTIONARY
360
613EA
102
}
330
55
100
AcDbEntity
 67
     1
  8
0
100
AcDbViewport
 10
133.3499939441681
 20
101.5999939441681
 30
0.0
 40
213.3599903106689
 41
162.5599903106689
 68
     0
 69
     0
 12
210.0
 22
148.5
 13
0.0
 23
0.0
 14
10.0
 24
10.0
 15
10.0
 25
10.0
 16
0.0
 26
0.0
 36
1.0
 17
0.0
 27
0.0
 37
0.0
 42
50.0
 43
0.0
 44
0.0
 45
324.0677920111345
 50
0.0
 51
0.0
 72
   100
 90
    32864
  1

281
     0
 71
     1
 74
     0
110
0.0
120
0.0
130
0.0
111
1.0
121
0.0
131
0.0
112
0.0
122
1.0
132
0.0
 79
     0
146
0.0
  0
ENDBLK
  5
58
330
55
100
AcDbEntity
 67
     1
  8
0
100
AcDbBlockEnd
  0
BLOCK
  5
68A
330
680
100
AcDbEntity
  8
0
100
AcDbBlockBegin
  2
zero block
 70
     0
 10
0.0
 20
0.0
 30
0.0
  3
zero block
  1

  0
HATCH
  5
43661
330
680
100
AcDbEntity
  8
0
 62
     7
100
AcDbHatch
 10
0.0
 20
0.0
 30
0.0
210
0.0
220
0.0
230
1.0
  2
SOLID
 70
     1
 71
     0
 91
        2
 92
        7
 72
     1
 73
     1
 93
        3
 10
0.0
 20
0.9999999999999875
 42
0.4142135623730915
 10
-1.0
 20
0.0
 42
0.0
 10
0.0
 20
0.0
 42
0.0
 97
        0
 92
        7
 72
     1
 73
     1
 93
        3
 10
1.000000000000007
 20
0.0
 42
0.0
 10
0.0
 20
0.0
 42
0.0
 10
0.0
 20
-1.0
 42
0.4142135623730974
 97
        0
 75
     0
 76
     1
 47
0.0090601366782909
 98
        2
 10
-0.380591363650975
 20
0.4885804701532896
 10
0.4350764810977559
 20
-0.4536738423704725
1001
AcDbBlockRepETag
1070
     1
1071
        0
1005
43661
  0
LINE
  5
43662
330
680
100
AcDbEntity
  8
0
 62
     7
 48
0.2
100
AcDbLine
 10
-1.0
 20
0.0
 30
0.0
 11
1.000000000000007
 21
0.0
 31
0.0
1001
AcDbBlockRepETag
1070
     1
1071
        1
1005
43662
  0
LINE
  5
43663
330
680
100
AcDbEntity
  8
0
 62
     7
 48
0.2
100
AcDbLine
 10
0.0
 20
-1.0
 30
0.0
 11
0.0
 21
0.9999999999999875
 31
0.0
1001
AcDbBlockRepETag
1070
     1
1071
        2
1005
43663
  0
ARC
  5
43664
330
680
100
AcDbEntity
  8
0
 62
     7
 48
0.2
100
AcDbCircle
 10
0.0
 20
0.0
 30
0.0
 40
1.0
100
AcDbArc
 50
270.0
 51
0.0
1001
AcDbBlockRepETag
1070
     1
1071
        3
1005
43664
  0
ARC
  5
43665
330
680
100
AcDbEntity
  8
0
 62
     7
 48
0.2
100
AcDbCircle
 10
0.0
 20
0.0
 30
0.0
 40
1.0
100
AcDbArc
 50
0.0
 51
90.0
1001
AcDbBlockRepETag
1070
     1
1071
        4
1005
43665
  0
ARC
  5
43666
330
680
100
AcDbEntity
  8
0
 62
     7
 48
0.2
100
AcDbCircle
 10
0.0
 20
0.0
 30
0.0
 40
1.0
100
AcDbArc
 50
180.0
 51
270.0
1001
AcDbBlockRepETag
1070
     1
1071
        5
1005
43666
  0
ARC
  5
43667
330
680
100
AcDbEntity
  8
0
 62
     7
 48
0.2
100
AcDbCircle
 10
0.0
 20
0.0
 30
0.0
 40
1.0
100
AcDbArc
 50
90.0
 51
180.0
1001
AcDbBlockRepETag
1070
     1
1071
        6
1005
43667
  0
ENDBLK
  5
68B
330
680
100
AcDbEntity
  8
0
100
AcDbBlockEnd
  0
BLOCK
  5
698
330
697
100
AcDbEntity
  8
0
  6
ByBlock
 62
     0
370
    -2
100
AcDbBlockBegin
  2
_OPEN30
 70
     2
 10
0.0
 20
0.0
 30
0.0
  3
_OPEN30
  1

  0
LINE
  5
699
330
697
100
AcDbEntity
  8
0
  6
ByBlock
 62
     0
370
    -2
100
AcDbLine
 10
-1.0
 20
0.267949
 30
0.0
 11
0.0
 21
0.0
 31
0.0
  0
LINE
  5
69A
330
697
100
AcDbEntity
  8
0
  6
ByBlock
 62
     0
370
    -2
100
AcDbLine
 10
0.0
 20
0.0
 30
0.0
 11
-1.0
 21
-0.267949
 31
0.0
  0
LINE
  5
69B
330
697
100
AcDbEntity
  8
0
  6
ByBlock
 62
     0
370
    -2
100
AcDbLine
 10
0.0
 20
0.0
 30
0.0
 11
-1.0
 21
0.0
 31
0.0
  0
ENDBLK
  5
69C
330
697
100
AcDbEntity
  8
0
  6
ByBlock
 62
     0
370
    -2
100
AcDbBlockEnd
  0
BLOCK
  5
32F2
330
32F1
100
AcDbEntity
  8
0
100
AcDbBlockBegin
  2
_None
 70
     0
 10
0.0
 20
0.0
 30
0.0
  3
_None
  1

  0
ENDBLK
  5
32F3
330
32F1
100
AcDbEntity
  8
0
100
AcDbBlockEnd
  0
BLOCK
  5
34B2
330
34B1
100
AcDbEntity
  8
0
100
AcDbBlockBegin
  2
_OPEN
 70
     0
 10
0.0
 20
0.0
 30
0.0
  3
_OPEN
  1

  0
LINE
  5
34B3
330
34B1
100
AcDbEntity
  8
0
  6
ByBlock
 62
     0
100
AcDbLine
 10
0.0
 20
0.0
 30
0.0
 11
-1.0
 21
0.1766666667
 31
0.0
  0
LINE
  5
34B4
330
34B1
100
AcDbEntity
  8
0
  6
ByBlock
 62
     0
100
AcDbLine
 10
-1.0
 20
-0.1766666667
 30
0.0
 11
0.0
 21
0.0
 31
0.0
  0
LINE
  5
34B5
330
34B1
100
AcDbEntity
  8
0
  6
ByBlock
 62
     0
100
AcDbLine
 10
-1.0
 20
0.0
 30
0.0
 11
0.0
 21
0.0
 31
0.0
  0
ENDBLK
  5
34B6
330
34B1
100
AcDbEntity
  8
0
  6
ByBlock
 62
     0
100
AcDbBlockEnd
  0
BLOCK
  5
45B11
330
45B07
100
AcDbEntity
  8
0
100
AcDbBlockBegin
  2
*D7
 70
     1
 10
0.0
 20
0.0
 30
0.0
  3
*D7
  1

  0
LINE
  5
5CCE5
330
45B07
100
AcDbEntity
  8
sk2
100
AcDbLine
 10
-0.0000000000000526
 20
-28.49999999999995
 30
0.0
 11
-0.0000000000000538
 21
-48.51991747839992
 31
0.0
  0
LINE
  5
5CCE6
330
45B07
100
AcDbEntity
  8
sk2
100
AcDbLine
 10
30.99999999999995
 20
-8.099999999999972
 30
0.0
 11
30.99999999999994
 21
-48.51991747839992
 31
0.0
  0
LINE
  5
5CCE7
330
45B07
100
AcDbEntity
  8
sk2
100
AcDbLine
 10
3.499999999999946
 20
-47.01991747839993
 30
0.0
 11
27.49999999999995
 21
-47.01991747839993
 31
0.0
  0
SOLID
  5
5CCE8
330
45B07
100
AcDbEntity
  8
sk2
100
AcDbTrace
 10
3.499999999999946
 20
-46.43658414506659
 30
0.0
 11
3.499999999999946
 21
-47.60325081173324
 31
0.0
 12
-0.0000000000000537
 22
-47.01991747839993
 32
0.0
 13
-0.0000000000000537
 23
-47.01991747839993
 33
0.0
  0
SOLID
  5
5CCE9
330
45B07
100
AcDbEntity
  8
sk2
100
AcDbTrace
 10
27.49999999999995
 20
-46.43658414506659
 30
0.0
 11
27.49999999999995
 21
-47.60325081173324
 31
0.0
 12
30.99999999999994
 22
-47.01991747839993
 32
0.0
 13
30.99999999999994
 23
-47.01991747839993
 33
0.0
  0
MTEXT
  5
5CCEA
330
45B07
100
AcDbEntity
  8
sk2
100
AcDbMText
 10
15.49999999999994
 20
-42.96991747839992
 30
0.0
 40
3.5
 41
0.0
 71
     5
 72
     1
  1
\A1;31
  7
simplex
 73
     1
 44
1.0
1001
ACAD
1000
MTEXTBEGIN
1070
    73
1070
     1
1070
    44
1040
1.0
1070
    74
1070
     0
1000
MTEXTEND
  0
POINT
  5
5CCEB
330
45B07
100
AcDbEntity
  8
Defpoints
 62
     0
100
AcDbPoint
 10
-0.0000000000000526
 20
-28.49999999999995
 30
0.0
  0
POINT
  5
5CCEC
330
45B07
100
AcDbEntity
  8
Defpoints
 62
     0
100
AcDbPoint
 10
30.99999999999995
 20
-8.099999999999972
 30
0.0
  0
POINT
  5
5CCED
330
45B07
100
AcDbEntity
  8
Defpoints
 62
     0
100
AcDbPoint
 10
30.99999999999994
 20
-47.01991747839993
 30
0.0
  0
ENDBLK
  5
45B12
330
45B07
100
AcDbEntity
  8
0
100
AcDbBlockEnd
  0
BLOCK
  5
45B29
330
45B1F
100
AcDbEntity
  8
0
100
AcDbBlockBegin
  2
*D8
 70
     1
 10
0.0
 20
0.0
 30
0.0
  3
*D8
  1

  0
LINE
  5
475A2
330
45B1F
100
AcDbEntity
  8
2
100
AcDbLine
 10
46.67862375679994
 20
31.50000000000006
 30
0.0
 11
83.68825656423609
 21
31.50000000000004
 31
0.0
  0
LINE
  5
475A3
330
45B1F
100
AcDbEntity
  8
2
100
AcDbLine
 10
82.18825656423609
 20
-31.49999999999995
 30
0.0
 11
82.18825656423609
 21
28.00000000000004
 31
0.0
  0
SOLID
  5
475A4
330
45B1F
100
AcDbEntity
  8
2
100
AcDbTrace
 10
81.60492323090277
 20
28.00000000000004
 30
0.0
 11
82.77158989756944
 21
28.00000000000004
 31
0.0
 12
82.18825656423609
 22
31.50000000000004
 32
0.0
 13
82.18825656423609
 23
31.50000000000004
 33
0.0
  0
MTEXT
  5
475A5
330
45B1F
100
AcDbEntity
  8
2
100
AcDbMText
 10
78.1382565642361
 20
-1.749999999999953
 30
0.0
 40
3.5
 41
0.0
 71
     5
 72
     1
  1
\A1;%%C63
  7
simplex
 11
0.0000000000000001
 21
1.0
 31
0.0
 73
     1
 44
1.0
1001
ACAD
1000
MTEXTBEGIN
1070
    73
1070
     1
1070
    44
1040
1.0
1070
    74
1070
     0
1000
MTEXTEND
  0
POINT
  5
475A6
330
45B1F
100
AcDbEntity
  8
Defpoints
 62
     0
100
AcDbPoint
 10
82.95119073979995
 20
-31.49999999999995
 30
0.0
  0
POINT
  5
475A7
330
45B1F
100
AcDbEntity
  8
Defpoints
 62
     0
100
AcDbPoint
 10
46.67862375679994
 20
31.50000000000006
 30
0.0
  0
POINT
  5
475A8
330
45B1F
100
AcDbEntity
  8
Defpoints
 62
     0
100
AcDbPoint
 10
82.18825656423609
 20
31.50000000000004
 30
0.0
  0
ENDBLK
  5
45B2A
330
45B1F
100
AcDbEntity
  8
0
100
AcDbBlockEnd
  0
BLOCK
  5
608E3
330
608D9
100
AcDbEntity
  8
0
100
AcDbBlockBegin
  2
*D84
 70
     1
 10
0.0
 20
0.0
 30
0.0
  3
*D84
  1

  0
LINE
  5
61358
330
608D9
100
AcDbEntity
  8
2
100
AcDbLine
 10
50.67032789066025
 20
30.365
 30
0.0
 11
72.40438141794584
 21
30.36499999999999
 31
0.0
  0
LINE
  5
61359
330
608D9
100
AcDbEntity
  8
2
100
AcDbLine
 10
70.90438141794584
 20
26.86499999999999
 30
0.0
 11
70.90438141794584
 21
-30.36500000000001
 31
0.0
  0
SOLID
  5
6135A
330
608D9
100
AcDbEntity
  8
2
100
AcDbTrace
 10
70.32104808461252
 20
26.86499999999999
 30
0.0
 11
71.48771475127917
 21
26.86499999999999
 31
0.0
 12
70.90438141794584
 22
30.36499999999999
 32
0.0
 13
70.90438141794584
 23
30.36499999999999
 33
0.0
  0
MTEXT
  5
6135B
330
608D9
100
AcDbEntity
  8
2
100
AcDbMText
 10
66.85438141794584
 20
-1.75
 30
0.0
 40
3.5
 41
0.0
 71
     5
 72
     1
  1
\A1;%%C60.73 [%%C2.391"]
  7
simplex
 11
0.0000000000000001
 21
1.0
 31
0.0
 73
     1
 44
1.0
1001
ACAD
1000
MTEXTBEGIN
1070
    73
1070
     1
1070
    44
1040
1.0
1070
    74
1070
     0
1000
MTEXTEND
  0
POINT
  5
6135C
330
608D9
100
AcDbEntity
  8
Defpoints
 62
     0
100
AcDbPoint
 10
50.67032789066025
 20
30.365
 30
0.0
  0
POINT
  5
6135D
330
608D9
100
AcDbEntity
  8
Defpoints
 62
     0
100
AcDbPoint
 10
50.67032789066025
 20
-30.36500000000001
 30
0.0
  0
POINT
  5
6135E
330
608D9
100
AcDbEntity
  8
Defpoints
 62
     0
100
AcDbPoint
 10
70.90438141794584
 20
-30.36500000000001
 30
0.0
  0
ENDBLK
  5
608E4
330
608D9
100
AcDbEntity
  8
0
100
AcDbBlockEnd
  0
BLOCK
  5
608FB
330
608F1
100
AcDbEntity
  8
0
100
AcDbBlockBegin
  2
*D85
 70
     1
 10
0.0
 20
0.0
 30
0.0
  3
*D85
  1

  0
LINE
  5
6135F
330
608F1
100
AcDbEntity
  8
2
100
AcDbLine
 10
47.41389173680011
 20
38.1
 30
0.0
 11
84.36961267679047
 21
38.09999999999998
 31
0.0
  0
LINE
  5
61360
330
608F1
100
AcDbEntity
  8
2
100
AcDbLine
 10
82.86961267679046
 20
34.59999999999998
 30
0.0
 11
82.86961267679044
 21
-38.10000000000001
 31
0.0
  0
SOLID
  5
61361
330
608F1
100
AcDbEntity
  8
2
100
AcDbTrace
 10
82.28627934345714
 20
34.59999999999998
 30
0.0
 11
83.4529460101238
 21
34.59999999999998
 31
0.0
 12
82.86961267679046
 22
38.09999999999998
 32
0.0
 13
82.86961267679046
 23
38.09999999999998
 33
0.0
  0
MTEXT
  5
61362
330
608F1
100
AcDbEntity
  8
2
100
AcDbMText
 10
78.81961267679045
 20
-1.749999999999997
 30
0.0
 40
3.5
 41
0.0
 71
     5
 72
     1
  1
\A1;%%C76.2 [%%C3.000"]
  7
simplex
 11
0.0000000000000001
 21
1.0
 31
0.0
 73
     1
 44
1.0
1001
ACAD
1000
MTEXTBEGIN
1070
    73
1070
     1
1070
    44
1040
1.0
1070
    74
1070
     0
1000
MTEXTEND
  0
POINT
  5
61363
330
608F1
100
AcDbEntity
  8
Defpoints
 62
     0
100
AcDbPoint
 10
47.41389173680011
 20
38.1
 30
0.0
  0
POINT
  5
61364
330
608F1
100
AcDbEntity
  8
Defpoints
 62
     0
100
AcDbPoint
 10
47.41389173680011
 20
-38.1
 30
0.0
  0
POINT
  5
61365
330
608F1
100
AcDbEntity
  8
Defpoints
 62
     0
100
AcDbPoint
 10
82.86961267679044
 20
-38.10000000000001
 30
0.0
  0
ENDBLK
  5
608FC
330
608F1
100
AcDbEntity
  8
0
100
AcDbBlockEnd
  0
BLOCK
  5
60913
330
60909
100
AcDbEntity
  8
0
100
AcDbBlockBegin
  2
*D86
 70
     1
 10
0.0
 20
0.0
 30
0.0
  3
*D86
  1

  0
LINE
  5
61366
330
60909
100
AcDbEntity
  8
sk2
100
AcDbLine
 10
4.000000000000056
 20
12.70000000000004
 30
0.0
 11
-19.89601335292871
 21
12.70000000000005
 31
0.0
  0
LINE
  5
61367
330
60909
100
AcDbEntity
  8
sk2
100
AcDbLine
 10
4.000000000000056
 20
-12.69999999999999
 30
0.0
 11
-19.89601335292872
 21
-12.69999999999998
 31
0.0
  0
LINE
  5
61368
330
60909
100
AcDbEntity
  8
sk2
100
AcDbLine
 10
-18.39601335292871
 20
9.200000000000052
 30
0.0
 11
-18.39601335292872
 21
-9.199999999999981
 31
0.0
  0
SOLID
  5
61369
330
60909
100
AcDbEntity
  8
sk2
100
AcDbTrace
 10
-18.97934668626205
 20
9.200000000000052
 30
0.0
 11
-17.81268001959538
 21
9.200000000000052
 31
0.0
 12
-18.39601335292871
 22
12.70000000000005
 32
0.0
 13
-18.39601335292871
 23
12.70000000000005
 33
0.0
  0
SOLID
  5
6136A
330
60909
100
AcDbEntity
  8
sk2
100
AcDbTrace
 10
-18.97934668626205
 20
-9.199999999999981
 30
0.0
 11
-17.81268001959539
 21
-9.199999999999981
 31
0.0
 12
-18.39601335292872
 22
-12.69999999999998
 32
0.0
 13
-18.39601335292872
 23
-12.69999999999998
 33
0.0
  0
MTEXT
  5
6136B
330
60909
100
AcDbEntity
  8
sk2
100
AcDbMText
 10
-22.44601335292871
 20
0.0000000000000336
 30
0.0
 40
3.5
 41
0.0
 71
     5
 72
     1
  1
\A1;%%C25.4 [%%c1.000"]
  7
simplex
 11
0.0000000000000001
 21
1.0
 31
0.0
 73
     1
 44
1.0
1001
ACAD
1000
MTEXTBEGIN
1070
    73
1070
     1
1070
    44
1040
1.0
1070
    74
1070
     0
1000
MTEXTEND
  0
POINT
  5
6136C
330
60909
100
AcDbEntity
  8
Defpoints
 62
     0
100
AcDbPoint
 10
4.000000000000056
 20
12.70000000000004
 30
0.0
  0
POINT
  5
6136D
330
60909
100
AcDbEntity
  8
Defpoints
 62
     0
100
AcDbPoint
 10
4.000000000000056
 20
-12.69999999999999
 30
0.0
  0
POINT
  5
6136E
330
60909
100
AcDbEntity
  8
Defpoints
 62
     0
100
AcDbPoint
 10
-18.39601335292872
 20
-12.69999999999998
 30
0.0
  0
ENDBLK
  5
60914
330
60909
100
AcDbEntity
  8
0
100
AcDbBlockEnd
  0
BLOCK
  5
6092B
330
60921
100
AcDbEntity
  8
0
100
AcDbBlockBegin
  2
*D87
 70
     1
 10
0.0
 20
0.0
 30
0.0
  3
*D87
  1

  0
LINE
  5
6136F
330
60921
100
AcDbEntity
  8
sk2
100
AcDbLine
 10
2.000000000000113
 20
34.92500000000001
 30
0.0
 11
-32.9394864187364
 21
34.92500000000002
 31
0.0
  0
LINE
  5
61370
330
60921
100
AcDbEntity
  8
sk2
100
AcDbLine
 10
2.000000000000056
 20
-34.92499999999996
 30
0.0
 11
-32.93948641873642
 21
-34.92499999999995
 31
0.0
  0
LINE
  5
61371
330
60921
100
AcDbEntity
  8
sk2
100
AcDbLine
 10
-31.4394864187364
 20
31.42500000000002
 30
0.0
 11
-31.43948641873642
 21
-31.42499999999995
 31
0.0
  0
SOLID
  5
61372
330
60921
100
AcDbEntity
  8
sk2
100
AcDbTrace
 10
-32.02281975206974
 20
31.42500000000002
 30
0.0
 11
-30.85615308540307
 21
31.42500000000002
 31
0.0
 12
-31.4394864187364
 22
34.92500000000002
 32
0.0
 13
-31.4394864187364
 23
34.92500000000002
 33
0.0
  0
SOLID
  5
61373
330
60921
100
AcDbEntity
  8
sk2
100
AcDbTrace
 10
-32.02281975206975
 20
-31.42499999999995
 30
0.0
 11
-30.85615308540309
 21
-31.42499999999995
 31
0.0
 12
-31.43948641873642
 22
-34.92499999999995
 32
0.0
 13
-31.43948641873642
 23
-34.92499999999995
 33
0.0
  0
MTEXT
  5
61374
330
60921
100
AcDbEntity
  8
sk2
100
AcDbMText
 10
-35.48948641873641
 20
0.0454628339288666
 30
0.0
 40
3.5
 41
0.0
 71
     5
 72
     1
  1
\A1;%%C69.85 [%%c2.750"]
  7
simplex
 11
0.0000000000000001
 21
1.0
 31
0.0
 73
     1
 44
1.0
1001
ACAD
1000
MTEXTBEGIN
1070
    73
1070
     1
1070
    44
1040
1.0
1070
    74
1070
     0
1000
MTEXTEND
  0
POINT
  5
61375
330
60921
100
AcDbEntity
  8
Defpoints
 62
     0
100
AcDbPoint
 10
2.000000000000113
 20
34.92500000000001
 30
0.0
  0
POINT
  5
61376
330
60921
100
AcDbEntity
  8
Defpoints
 62
     0
100
AcDbPoint
 10
2.000000000000056
 20
-34.92499999999996
 30
0.0
  0
POINT
  5
61377
330
60921
100
AcDbEntity
  8
Defpoints
 62
     0
100
AcDbPoint
 10
-31.43948641873642
 20
-34.92499999999995
 30
0.0
  0
ENDBLK
  5
6092C
330
60921
100
AcDbEntity
  8
0
100
AcDbBlockEnd
  0
BLOCK
  5
60943
330
60939
100
AcDbEntity
  8
0
100
AcDbBlockBegin
  2
*D88
 70
     1
 10
0.0
 20
0.0
 30
0.0
  3
*D88
  1

  0
LINE
  5
61378
330
60939
100
AcDbEntity
  8
sk2
100
AcDbLine
 10
0.0000000000000568
 20
-32.92499757439998
 30
0.0
 11
0.0000000000000553
 21
-58.58202106230163
 31
0.0
  0
LINE
  5
61379
330
60939
100
AcDbEntity
  8
sk2
100
AcDbLine
 10
24.00000000000006
 20
-12.39594370140003
 30
0.0
 11
24.00000000000006
 21
-58.58202106230163
 31
0.0
  0
LINE
  5
6137A
330
60939
100
AcDbEntity
  8
sk2
100
AcDbLine
 10
20.50000000000006
 20
-57.08202106230164
 30
0.0
 11
3.500000000000055
 21
-57.08202106230164
 31
0.0
  0
LINE
  5
6137B
330
60939
100
AcDbEntity
  8
sk2
100
AcDbLine
 10
0.0000000000000554
 20
-57.08202106230164
 30
0.0
 11
-37.55833333333327
 21
-57.08202106230164
 31
0.0
  0
SOLID
  5
6137C
330
60939
100
AcDbEntity
  8
sk2
100
AcDbTrace
 10
20.50000000000006
 20
-56.4986877289683
 30
0.0
 11
20.50000000000006
 21
-57.66535439563497
 31
0.0
 12
24.00000000000006
 22
-57.08202106230164
 32
0.0
 13
24.00000000000006
 23
-57.08202106230164
 33
0.0
  0
SOLID
  5
6137D
330
60939
100
AcDbEntity
  8
sk2
100
AcDbTrace
 10
3.500000000000055
 20
-56.4986877289683
 30
0.0
 11
3.500000000000055
 21
-57.66535439563497
 31
0.0
 12
0.0000000000000554
 22
-57.08202106230164
 32
0.0
 13
0.0000000000000554
 23
-57.08202106230164
 33
0.0
  0
MTEXT
  5
6137E
330
60939
100
AcDbEntity
  8
sk2
100
AcDbMText
 10
-21.25833333333327
 20
-53.03202106230163
 30
0.0
 40
3.5
 41
0.0
 71
     5
 72
     1
  1
\A1;24 [.945"]
  7
simplex
 73
     1
 44
1.0
1001
ACAD
1000
MTEXTBEGIN
1070
    73
1070
     1
1070
    44
1040
1.0
1070
    74
1070
     0
1000
MTEXTEND
  0
POINT
  5
6137F
330
60939
100
AcDbEntity
  8
Defpoints
 62
     0
100
AcDbPoint
 10
0.0000000000000568
 20
-32.92499757439998
 30
0.0
  0
POINT
  5
61380
330
60939
100
AcDbEntity
  8
Defpoints
 62
     0
100
AcDbPoint
 10
24.00000000000006
 20
-12.39594370140003
 30
0.0
  0
POINT
  5
61381
330
60939
100
AcDbEntity
  8
Defpoints
 62
     0
100
AcDbPoint
 10
24.00000000000006
 20
-57.08202106230164
 30
0.0
  0
ENDBLK
  5
60944
330
60939
100
AcDbEntity
  8
0
100
AcDbBlockEnd
  0
BLOCK
  5
6095C
330
60951
100
AcDbEntity
  8
0
100
AcDbBlockBegin
  2
*D89
 70
     1
 10
0.0
 20
0.0
 30
0.0
  3
*D89
  1

  0
LINE
  5
61382
330
60951
100
AcDbEntity
  8
2
100
AcDbLine
 10
50.80000000000012
 20
30.46458066562275
 30
0.0
 11
50.80000000000012
 21
-58.54396838913402
 31
0.0
  0
LINE
  5
61383
330
60951
100
AcDbEntity
  8
2
100
AcDbLine
 10
48.70000000000016
 20
23.52626515562812
 30
0.0
 11
48.70000000000015
 21
-58.54396838913402
 31
0.0
  0
LINE
  5
61384
330
60951
100
AcDbEntity
  8
2
100
AcDbLine
 10
45.20000000000015
 20
-57.04396838913402
 30
0.0
 11
41.70000000000015
 21
-57.04396838913402
 31
0.0
  0
LINE
  5
61385
330
60951
100
AcDbEntity
  8
2
100
AcDbLine
 10
54.30000000000012
 20
-57.04396838913402
 30
0.0
 11
104.9833333333335
 21
-57.04396838913402
 31
0.0
  0
SOLID
  5
61386
330
60951
100
AcDbEntity
  8
2
100
AcDbTrace
 10
45.20000000000015
 20
-56.46063505580069
 30
0.0
 11
45.20000000000015
 21
-57.62730172246736
 31
0.0
 12
48.70000000000015
 22
-57.04396838913402
 32
0.0
 13
48.70000000000015
 23
-57.04396838913402
 33
0.0
  0
SOLID
  5
61387
330
60951
100
AcDbEntity
  8
2
100
AcDbTrace
 10
54.30000000000012
 20
-56.46063505580069
 30
0.0
 11
54.30000000000012
 21
-57.62730172246736
 31
0.0
 12
50.80000000000012
 22
-57.04396838913402
 32
0.0
 13
50.80000000000012
 23
-57.04396838913402
 33
0.0
  0
MTEXT
  5
61388
330
60951
100
AcDbEntity
  8
2
100
AcDbMText
 10
81.39166666666682
 20
-52.99396838913402
 30
0.0
 40
3.5
 41
0.0
 71
     5
 72
     1
  1
\A1;2.1 [.083"](MAX)
  7
simplex
 73
     1
 44
1.0
1001
ACAD
1000
MTEXTBEGIN
1070
    73
1070
     1
1070
    44
1040
1.0
1070
    74
1070
     0
1000
MTEXTEND
  0
POINT
  5
61389
330
60951
100
AcDbEntity
  8
Defpoints
 62
     0
100
AcDbPoint
 10
50.80000000000012
 20
30.46458066562275
 30
0.0
  0
POINT
  5
6138A
330
60951
100
AcDbEntity
  8
Defpoints
 62
     0
100
AcDbPoint
 10
48.70000000000016
 20
23.52626515562812
 30
0.0
  0
POINT
  5
6138B
330
60951
100
AcDbEntity
  8
Defpoints
 62
     0
100
AcDbPoint
 10
48.70000000000015
 20
-57.04396838913402
 30
0.0
  0
ENDBLK
  5
6095D
330
60951
100
AcDbEntity
  8
0
100
AcDbBlockEnd
  0
BLOCK
  5
60976
330
6096B
100
AcDbEntity
  8
0
100
AcDbBlockBegin
  2
*D90
 70
     1
 10
0.0
 20
0.0
 30
0.0
  3
*D90
  1

  0
LINE
  5
6138C
330
6096B
100
AcDbEntity
  8
2
100
AcDbLine
 10
50.80000000000012
 20
30.46458066562275
 30
0.0
 11
50.80000000000012
 21
57.25939886565544
 31
0.0
  0
LINE
  5
6138D
330
6096B
100
AcDbEntity
  8
2
100
AcDbLine
 10
48.80000000000013
 20
36.60539624667473
 30
0.0
 11
48.80000000000013
 21
57.25939886565544
 31
0.0
  0
LINE
  5
6138E
330
6096B
100
AcDbEntity
  8
2
100
AcDbLine
 10
54.30000000000013
 20
55.75939886565544
 30
0.0
 11
57.80000000000012
 21
55.75939886565544
 31
0.0
  0
LINE
  5
6138F
330
6096B
100
AcDbEntity
  8
2
100
AcDbLine
 10
45.30000000000012
 20
55.75939886565544
 30
0.0
 11
-77.71666666666653
 21
55.75939886565544
 31
0.0
  0
SOLID
  5
61390
330
6096B
100
AcDbEntity
  8
2
100
AcDbTrace
 10
54.30000000000013
 20
56.34273219898878
 30
0.0
 11
54.30000000000013
 21
55.1760655323221
 31
0.0
 12
50.80000000000012
 22
55.75939886565544
 32
0.0
 13
50.80000000000012
 23
55.75939886565544
 33
0.0
  0
SOLID
  5
61391
330
6096B
100
AcDbEntity
  8
2
100
AcDbTrace
 10
45.30000000000012
 20
56.34273219898878
 30
0.0
 11
45.30000000000012
 21
55.1760655323221
 31
0.0
 12
48.80000000000013
 22
55.75939886565544
 32
0.0
 13
48.80000000000013
 23
55.75939886565544
 33
0.0
  0
MTEXT
  5
61392
330
6096B
100
AcDbEntity
  8
2
100
AcDbMText
 10
-17.9583333333332
 20
59.80939886565543
 30
0.0
 40
3.5
 41
0.0
 71
     5
 72
     1
  1
\A1;2 [.079"](APMX AT HIGH FEED PROCESS)
  7
simplex
 73
     1
 44
1.0
1001
ACAD
1000
MTEXTBEGIN
1070
    73
1070
     1
1070
    44
1040
1.0
1070
    74
1070
     0
1000
MTEXTEND
  0
POINT
  5
61393
330
6096B
100
AcDbEntity
  8
Defpoints
 62
     0
100
AcDbPoint
 10
50.80000000000012
 20
30.46458066562275
 30
0.0
  0
POINT
  5
61394
330
6096B
100
AcDbEntity
  8
Defpoints
 62
     0
100
AcDbPoint
 10
48.80000000000013
 20
36.60539624667473
 30
0.0
  0
POINT
  5
61395
330
6096B
100
AcDbEntity
  8
Defpoints
 62
     0
100
AcDbPoint
 10
48.80000000000013
 20
55.75939886565544
 30
0.0
  0
ENDBLK
  5
60977
330
6096B
100
AcDbEntity
  8
0
100
AcDbBlockEnd
  0
BLOCK
  5
60990
330
60985
100
AcDbEntity
  8
0
100
AcDbBlockBegin
  2
*D91
 70
     1
 10
0.0
 20
0.0
 30
0.0
  3
*D91
  1

  0
LINE
  5
61396
330
60985
100
AcDbEntity
  8
2
100
AcDbLine
 10
50.80000000000012
 20
30.46458066562275
 30
0.0
 11
50.80000000000012
 21
68.05214122297304
 31
0.0
  0
LINE
  5
61397
330
60985
100
AcDbEntity
  8
2
100
AcDbLine
 10
47.80000000000012
 20
37.47530722166616
 30
0.0
 11
47.80000000000012
 21
68.05214122297304
 31
0.0
  0
LINE
  5
61398
330
60985
100
AcDbEntity
  8
2
100
AcDbLine
 10
54.30000000000013
 20
66.55214122297303
 30
0.0
 11
57.80000000000012
 21
66.55214122297303
 31
0.0
  0
LINE
  5
61399
330
60985
100
AcDbEntity
  8
2
100
AcDbLine
 10
44.30000000000013
 20
66.55214122297303
 30
0.0
 11
0.0333333333334665
 21
66.55214122297303
 31
0.0
  0
SOLID
  5
6139A
330
60985
100
AcDbEntity
  8
2
100
AcDbTrace
 10
54.30000000000013
 20
67.13547455630636
 30
0.0
 11
54.30000000000013
 21
65.96880788963971
 31
0.0
 12
50.80000000000012
 22
66.55214122297303
 32
0.0
 13
50.80000000000012
 23
66.55214122297303
 33
0.0
  0
SOLID
  5
6139B
330
60985
100
AcDbEntity
  8
2
100
AcDbTrace
 10
44.30000000000013
 20
67.13547455630636
 30
0.0
 11
44.30000000000013
 21
65.96880788963971
 31
0.0
 12
47.80000000000012
 22
66.55214122297303
 32
0.0
 13
47.80000000000012
 23
66.55214122297303
 33
0.0
  0
MTEXT
  5
6139C
330
60985
100
AcDbEntity
  8
2
100
AcDbMText
 10
20.4166666666668
 20
70.60214122297303
 30
0.0
 40
3.5
 41
0.0
 71
     5
 72
     1
  1
\A1;APMX3 [.118"]
  7
simplex
 73
     1
 44
1.0
1001
ACAD
1000
MTEXTBEGIN
1070
    73
1070
     1
1070
    44
1040
1.0
1070
    74
1070
     0
1000
MTEXTEND
  0
POINT
  5
6139D
330
60985
100
AcDbEntity
  8
Defpoints
 62
     0
100
AcDbPoint
 10
50.80000000000012
 20
30.46458066562275
 30
0.0
  0
POINT
  5
6139E
330
60985
100
AcDbEntity
  8
Defpoints
 62
     0
100
AcDbPoint
 10
47.80000000000012
 20
37.47530722166616
 30
0.0
  0
POINT
  5
6139F
330
60985
100
AcDbEntity
  8
Defpoints
 62
     0
100
AcDbPoint
 10
47.80000000000012
 20
66.55214122297303
 30
0.0
  0
ENDBLK
  5
60991
330
60985
100
AcDbEntity
  8
0
100
AcDbBlockEnd
  0
BLOCK
  5
609A9
330
6099F
100
AcDbEntity
  8
0
100
AcDbBlockBegin
  2
*D92
 70
     1
 10
0.0
 20
0.0
 30
0.0
  3
*D92
  1

  0
LINE
  5
613A0
330
6099F
100
AcDbEntity
  8
2
100
AcDbLine
 10
50.80000000000012
 20
30.46458066562275
 30
0.0
 11
50.80000000000012
 21
78.92771461008004
 31
0.0
  0
LINE
  5
613A1
330
6099F
100
AcDbEntity
  8
2
100
AcDbLine
 10
0.0000000000001137
 20
32.92499757439998
 30
0.0
 11
0.0000000000001165
 21
78.92771461008004
 31
0.0
  0
LINE
  5
613A2
330
6099F
100
AcDbEntity
  8
2
100
AcDbLine
 10
47.30000000000012
 20
77.42771461008004
 30
0.0
 11
3.500000000000116
 21
77.42771461008004
 31
0.0
  0
SOLID
  5
613A3
330
6099F
100
AcDbEntity
  8
2
100
AcDbTrace
 10
47.30000000000012
 20
78.01104794341338
 30
0.0
 11
47.30000000000012
 21
76.84438127674671
 31
0.0
 12
50.80000000000012
 22
77.42771461008004
 32
0.0
 13
50.80000000000012
 23
77.42771461008004
 33
0.0
  0
SOLID
  5
613A4
330
6099F
100
AcDbEntity
  8
2
100
AcDbTrace
 10
3.500000000000116
 20
78.01104794341338
 30
0.0
 11
3.500000000000116
 21
76.84438127674671
 31
0.0
 12
0.0000000000001164
 22
77.42771461008004
 32
0.0
 13
0.0000000000001164
 23
77.42771461008004
 33
0.0
  0
MTEXT
  5
613A5
330
6099F
100
AcDbEntity
  8
2
100
AcDbMText
 10
25.40000000000012
 20
81.47771461008003
 30
0.0
 40
3.5
 41
0.0
 71
     5
 72
     1
  1
\A1;50.8 [2.000"]
  7
simplex
 73
     1
 44
1.0
1001
ACAD
1000
MTEXTBEGIN
1070
    73
1070
     1
1070
    44
1040
1.0
1070
    74
1070
     0
1000
MTEXTEND
  0
POINT
  5
613A6
330
6099F
100
AcDbEntity
  8
Defpoints
 62
     0
100
AcDbPoint
 10
50.80000000000012
 20
30.46458066562275
 30
0.0
  0
POINT
  5
613A7
330
6099F
100
AcDbEntity
  8
Defpoints
 62
     0
100
AcDbPoint
 10
0.0000000000001137
 20
32.92499757439998
 30
0.0
  0
POINT
  5
613A8
330
6099F
100
AcDbEntity
  8
Defpoints
 62
     0
100
AcDbPoint
 10
0.0000000000001164
 20
77.42771461008004
 30
0.0
  0
ENDBLK
  5
609AA
330
6099F
100
AcDbEntity
  8
0
100
AcDbBlockEnd
  0
BLOCK
  5
609C0
330
609B8
100
AcDbEntity
  8
0
100
AcDbBlockBegin
  2
*D93
 70
     1
 10
0.0
 20
0.0
 30
0.0
  3
*D93
  1

  0
LINE
  5
613A9
330
609B8
100
AcDbEntity
  8
2
100
AcDbLine
 10
89.36015900304404
 20
58.37567497169157
 30
0.0
 11
51.83421563823461
 21
38.38891637942457
 31
0.0
  0
MTEXT
  5
613AA
330
609B8
100
AcDbEntity
  8
2
100
AcDbMText
 10
70.23789359872012
 20
52.77955709846544
 30
0.0
 40
3.5
 41
0.0
 71
     5
 72
     1
  1
\A1;R1.5 [R.059"]
  7
simplex
 11
0.8826172488783091
 21
0.4700923228287024
 31
0.0
 73
     1
 44
1.0
1001
ACAD
1000
MTEXTBEGIN
1070
    73
1070
     1
1070
    44
1040
1.0
1070
    74
1070
     0
1000
MTEXTEND
  0
SOLID
  5
613AB
330
609B8
100
AcDbEntity
  8
2
100
AcDbTrace
 10
51.55999511658453
 20
38.90377644127026
 30
0.0
 11
52.10843615988469
 21
37.87405631757889
 31
0.0
 12
48.74505526716053
 22
36.74359324952412
 32
0.0
 13
48.74505526716053
 23
36.74359324952412
 33
0.0
  0
LINE
  5
613AC
330
609B8
100
AcDbEntity
  8
2
100
AcDbLine
 10
47.33112939384333
 20
36.0384547652812
 30
0.0
 11
47.51112939384333
 21
36.0384547652812
 31
0.0
  0
LINE
  5
613AD
330
609B8
100
AcDbEntity
  8
2
100
AcDbLine
 10
47.42112939384333
 20
35.9484547652812
 30
0.0
 11
47.42112939384333
 21
36.12845476528121
 31
0.0
  0
POINT
  5
613AE
330
609B8
100
AcDbEntity
  8
Defpoints
 62
     0
100
AcDbPoint
 10
48.74505526716053
 20
36.74359324952412
 30
0.0
  0
POINT
  5
613AF
330
609B8
100
AcDbEntity
  8
Defpoints
 62
     0
100
AcDbPoint
 10
47.42112939384333
 20
36.0384547652812
 30
0.0
  0
ENDBLK
  5
609C1
330
609B8
100
AcDbEntity
  8
0
100
AcDbBlockEnd
  0
ENDSEC
  0
SECTION
  2
ENTITIES
  0
INSERT
  5
68C
330
1F
100
AcDbEntity
  8
0
100
AcDbBlockReference
  2
zero block
 10
0.0000000000000072
 20
0.0
 30
0.0
 50
180.0
  0
MTEXT
  5
5CD11
330
1F
100
AcDbEntity
  8
sk6
100
AcDbMText
 10
-12.46389686923112
 20
98.57378453863361
 30
0.0
 40
5.0
 41
85.25075165579854
 71
     1
 72
     5
  1
WJX14UR3_0005CA
  7
simplex
 73
     1
 44
1.0
1001
ACAD
1000
ACAD_MTEXT_DEFINED_HEIGHT_BEGIN
1070
    46
1040
0.0
1000
ACAD_MTEXT_DEFINED_HEIGHT_END
1000
MTEXTBEGIN
1070
    73
1070
     1
1070
    44
1040
1.0
1070
    74
1070
     0
1000
MTEXTEND
  0
DIMENSION
  5
608D8
330
1F
100
AcDbEntity
  8
2
100
AcDbDimension
  2
*D84
 10
70.90438141794584
 20
-30.36500000000001
 30
0.0
 11
66.85438141794584
 21
-1.75
 31
0.0
 70
    32
  1
%%C<>
 71
     5
 42
60.73
  3
\M+18352\M+18373\M+1815B - ISO-25
100
AcDbAlignedDimension
 13
50.67032789066025
 23
30.365
 33
0.0
 14
50.67032789066025
 24
-30.36500000000001
 34
0.0
 50
90.0
100
AcDbRotatedDimension
1001
ACAD
1000
DSTYLE
1002
{
1070
     4
1000
%%C[]"
1070
    40
1040
1.0
1070
    76
1070
     1
1070
   143
1040
0.0393700787401575
1070
   170
1070
     1
1070
   171
1070
     3
1070
   173
1070
     1
1070
   271
1070
     8
1070
   285
1070
     4
1070
   344
1005
32F1
1002
}
  0
DIMENSION
  5
608F0
330
1F
100
AcDbEntity
  8
2
100
AcDbDimension
  2
*D85
 10
82.86961267679044
 20
-38.10000000000001
 30
0.0
 11
78.81961267679045
 21
-1.749999999999997
 31
0.0
 70
    32
  1
%%C<>
 71
     5
 42
76.19999999999999
  3
\M+18352\M+18373\M+1815B - ISO-25
100
AcDbAlignedDimension
 13
47.41389173680011
 23
38.1
 33
0.0
 14
47.41389173680011
 24
-38.1
 34
0.0
 50
90.0
100
AcDbRotatedDimension
1001
ACAD
1000
DSTYLE
1002
{
1070
     4
1000
%%C[]"
1070
    40
1040
1.0
1070
    76
1070
     1
1070
   143
1040
0.0393700787401575
1070
   170
1070
     1
1070
   171
1070
     3
1070
   173
1070
     1
1070
   271
1070
     8
1070
   285
1070
     4
1070
   344
1005
32F1
1002
}
  0
DIMENSION
  5
60908
330
1F
100
AcDbEntity
  8
sk2
100
AcDbDimension
  2
*D86
 10
-18.39601335292872
 20
-12.69999999999998
 30
0.0
 11
-18.39601335292872
 21
0.0000000000000331
 31
0.0
 70
   160
  1
%%C<>
 71
     5
 42
25.40000000000004
  3
\M+18352\M+18373\M+1815B - ISO-25
100
AcDbAlignedDimension
 13
4.000000000000056
 23
12.70000000000004
 33
0.0
 14
4.000000000000056
 24
-12.69999999999999
 34
0.0
 50
90.0
100
AcDbRotatedDimension
1001
ACAD
1000
DSTYLE
1002
{
1070
     4
1000
%%c[]"
1070
    40
1040
1.0
1070
   143
1040
0.0393700787401575
1070
   170
1070
     1
1070
   171
1070
     3
1070
   271
1070
     8
1070
   285
1070
     4
1002
}
  0
DIMENSION
  5
60920
330
1F
100
AcDbEntity
  8
sk2
100
AcDbDimension
  2
*D87
 10
-31.43948641873642
 20
-34.92499999999995
 30
0.0
 11
-31.43948641873641
 21
0.0454628339288661
 31
0.0
 70
   160
  1
%%C<>
 71
     5
 42
69.84999999999996
  3
\M+18352\M+18373\M+1815B - ISO-25
100
AcDbAlignedDimension
 13
2.000000000000113
 23
34.92500000000001
 33
0.0
 14
2.000000000000056
 24
-34.92499999999996
 34
0.0
 50
90.0
100
AcDbRotatedDimension
1001
ACAD
1000
DSTYLE
1002
{
1070
     4
1000
%%c[]"
1070
    40
1040
1.0
1070
   143
1040
0.0393700787401575
1070
   170
1070
     1
1070
   171
1070
     3
1070
   271
1070
     8
1070
   285
1070
     4
1002
}
  0
DIMENSION
  5
60938
330
1F
100
AcDbEntity
  8
sk2
100
AcDbDimension
  2
*D88
 10
24.00000000000006
 20
-57.08202106230164
 30
0.0
 11
-21.25833333333327
 21
-57.08202106230164
 31
0.0
 70
   160
 71
     5
 42
24.0
  3
\M+18352\M+18373\M+1815B - ISO-25
100
AcDbAlignedDimension
 13
0.0000000000000568
 23
-32.92499757439998
 33
0.0
 14
24.00000000000006
 24
-12.39594370140003
 34
0.0
100
AcDbRotatedDimension
1001
ACAD
1000
DSTYLE
1002
{
1070
     4
1000
[]"
1070
    40
1040
1.0
1070
   143
1040
0.0393700787401575
1070
   170
1070
     1
1070
   171
1070
     3
1070
   271
1070
     8
1070
   285
1070
     4
1002
}
  0
DIMENSION
  5
60950
330
1F
100
AcDbEntity
  8
2
100
AcDbDimension
  2
*D89
 10
48.70000000000015
 20
-57.04396838913402
 30
0.0
 11
81.39166666666682
 21
-57.04396838913402
 31
0.0
 70
   160
  1
<>(MAX)
 71
     5
 42
2.099999999999965
  3
\M+18352\M+18373\M+1815B - ISO-25
100
AcDbAlignedDimension
 13
50.80000000000012
 23
30.46458066562275
 33
0.0
 14
48.70000000000016
 24
23.52626515562812
 34
0.0
100
AcDbRotatedDimension
1001
ACAD
1000
DSTYLE
1002
{
1070
     4
1000
"
1070
    40
1040
1.0
1070
   143
1040
0.0393700787401575
1070
   170
1070
     1
1070
   171
1070
     3
1070
   271
1070
     8
1070
   285
1070
     4
1002
}
  0
DIMENSION
  5
6096A
330
1F
100
AcDbEntity
  8
2
100
AcDbDimension
  2
*D90
 10
48.80000000000013
 20
55.75939886565544
 30
0.0
 11
-17.9583333333332
 21
59.80939886565543
 31
0.0
 70
    32
  1
<>(APMX AT HIGH FEED PROCESS)
 71
     5
 42
2.0
  3
\M+18352\M+18373\M+1815B - ISO-25
100
AcDbAlignedDimension
 13
50.80000000000012
 23
30.46458066562275
 33
0.0
 14
48.80000000000013
 24
36.60539624667473
 34
0.0
100
AcDbRotatedDimension
1001
ACAD
1000
DSTYLE
1002
{
1070
     4
1000
"
1070
    40
1040
1.0
1070
   143
1040
0.0393700787401575
1070
   170
1070
     1
1070
   171
1070
     3
1070
   271
1070
     8
1070
   285
1070
     4
1002
}
  0
DIMENSION
  5
60984
330
1F
100
AcDbEntity
  8
2
100
AcDbDimension
  2
*D91
 10
47.80000000000012
 20
66.55214122297303
 30
0.0
 11
20.4166666666668
 21
70.60214122297303
 31
0.0
 70
    32
  1
APMX<>
 71
     5
 42
3.0
  3
\M+18352\M+18373\M+1815B - ISO-25
100
AcDbAlignedDimension
 13
50.80000000000012
 23
30.46458066562275
 33
0.0
 14
47.80000000000012
 24
37.47530722166616
 34
0.0
100
AcDbRotatedDimension
1001
ACAD
1000
DSTYLE
1002
{
1070
     4
1000
"
1070
    40
1040
1.0
1070
   143
1040
0.0393700787401575
1070
   170
1070
     1
1070
   171
1070
     3
1070
   271
1070
     8
1070
   285
1070
     4
1002
}
  0
DIMENSION
  5
6099E
330
1F
100
AcDbEntity
  8
2
100
AcDbDimension
  2
*D92
 10
0.0000000000001164
 20
77.42771461008004
 30
0.0
 11
25.40000000000012
 21
81.47771461008003
 31
0.0
 70
    32
 71
     5
 42
50.80000000000001
  3
\M+18352\M+18373\M+1815B - ISO-25
100
AcDbAlignedDimension
 13
50.80000000000012
 23
30.46458066562275
 33
0.0
 14
0.0000000000001137
 24
32.92499757439998
 34
0.0
100
AcDbRotatedDimension
1001
ACAD
1000
DSTYLE
1002
{
1070
     4
1000
"
1070
    40
1040
1.0
1070
   143
1040
0.0393700787401575
1070
   170
1070
     1
1070
   171
1070
     3
1070
   271
1070
     8
1070
   285
1070
     4
1002
}
  0
DIMENSION
  5
609B7
330
1F
100
AcDbEntity
  8
2
100
AcDbDimension
  2
*D93
 10
47.42112939384333
 20
36.0384547652812
 30
0.0
 11
70.23789359872012
 21
52.77955709846544
 31
0.0
 70
    36
 71
     5
 42
1.499999999999694
  3
\M+18352\M+18373\M+1815B - ISO-25
100
AcDbRadialDimension
 15
48.74505526716053
 25
36.74359324952412
 35
0.0
 40
0.0
1001
ACAD
1000
DSTYLE
1002
{
1070
     4
1000
"
1070
    40
1040
1.0
1070
   143
1040
0.0393700787401575
1070
   170
1070
     1
1070
   171
1070
     3
1070
   271
1070
     8
1070
   285
1070
     4
1002
}
  0
LINE
  5
60E15
330
1F
100
AcDbEntity
  8
1
100
AcDbLine
 10
49.5
 20
-30.87808027160003
 30
0.0
 11
49.50000000000006
 21
25.37087738790001
 31
0.0
1001
ACAD
1000
RTMaterial
1005
0
  0
LINE
  5
61113
330
1F
100
AcDbEntity
  8
nocut
100
AcDbLine
 10
49.50000000000006
 20
30.87808091760002
 30
0.0
 11
49.50000000000006
 21
0.0
 31
0.0
1001
ACAD
1000
RTMaterial
1005
0
  0
LINE
  5
61114
330
1F
100
AcDbEntity
  8
cut
100
AcDbLine
 10
50.73637431680015
 20
30.86310458309998
 30
0.0
 11
48.84834887070008
 21
37.03855755710004
 31
0.0
1001
ACAD
1000
RTMaterial
1005
0
  0
LINE
  5
61115
330
1F
100
AcDbEntity
  8
nocut
100
AcDbLine
 10
48.05069842699999
 20
35.79251634940005
 30
0.0
 11
49.50000000000006
 21
30.87808091760002
 31
0.0
1001
ACAD
1000
RTMaterial
1005
0
  0
LINE
  5
61116
330
1F
100
AcDbEntity
  8
cut
100
AcDbLine
 10
47.27441482980009
 20
38.09350131989999
 30
0.0
 11
43.54838147410009
 21
37.74553001189997
 31
0.0
1001
ACAD
1000
RTMaterial
1005
0
  0
LINE
  5
61117
330
1F
100
AcDbEntity
  8
nocut
100
AcDbLine
 10
41.93671017479999
 20
36.22455862599998
 30
0.0
 11
46.7953878161
 21
36.64853772059996
 31
0.0
1001
ACAD
1000
RTMaterial
1005
0
  0
LINE
  5
61118
330
1F
100
AcDbEntity
  8
nocut
100
AcDbLine
 10
40.39840339840004
 20
36.57458758410007
 30
0.0
 11
41.66712948150001
 21
36.24694244790004
 31
0.0
1001
ACAD
1000
RTMaterial
1005
0
  0
LINE
  5
61119
330
1F
100
AcDbEntity
  8
1
100
AcDbLine
 10
36.29451001350009
 20
-36.59999999999997
 30
0.0
 11
40.19836821510006
 21
-36.59999999999997
 31
0.0
1001
ACAD
1000
RTMaterial
1005
0
  0
LINE
  5
6111A
330
1F
100
AcDbEntity
  8
1
100
AcDbLine
 10
40.39840339840009
 20
-36.57458758410002
 30
0.0
 11
41.66712948140008
 21
-36.24694244789998
 31
0.0
1001
ACAD
1000
RTMaterial
1005
0
  0
LINE
  5
6111B
330
1F
100
AcDbEntity
  8
1
100
AcDbLine
 10
9.028098454300106
 20
-34.92499999999996
 30
0.0
 11
2.000000000000056
 21
-34.92499999999996
 31
0.0
1001
ACAD
1000
RTMaterial
1005
0
  0
LINE
  5
6111C
330
1F
100
AcDbEntity
  8
1
100
AcDbLine
 10
41.93671017480006
 20
-36.22455862600003
 30
0.0
 11
46.79538781610012
 21
-36.64853772050003
 31
0.0
1001
ACAD
1000
RTMaterial
1005
0
  0
LINE
  5
6111D
330
1F
100
AcDbEntity
  8
1
100
AcDbLine
 10
25.09564366670009
 20
-33.63308052510002
 30
0.0
 11
33.37079296630003
 21
-36.16304755960005
 31
0.0
1001
ACAD
1000
RTMaterial
1005
0
  0
LINE
  5
6111E
330
1F
100
AcDbEntity
  8
1
100
AcDbLine
 10
11.75607770390007
 20
-34.21549855300003
 30
0.0
 11
10.90113142140006
 21
-34.56091927280005
 31
0.0
1001
ACAD
1000
RTMaterial
1005
0
  0
LINE
  5
6111F
330
1F
100
AcDbEntity
  8
1
100
AcDbLine
 10
48.0506984270001
 20
-35.79251634939999
 30
0.0
 11
49.50000000000006
 21
-30.87808091760002
 31
0.0
1001
ACAD
1000
RTMaterial
1005
0
  0
LINE
  5
61120
330
1F
100
AcDbEntity
  8
sk3
100
AcDbLine
 10
13.83926112070009
 20
-13.12504622960006
 30
0.0
 11
12.92774653970008
 21
-12.69999999999999
 31
0.0
1001
ACAD
1000
RTMaterial
1005
0
  0
LINE
  5
61121
330
1F
100
AcDbEntity
  8
1
100
AcDbLine
 10
0.0000000000000568
 20
5.262500000000045
 30
0.0
 11
0.5000000000000569
 21
4.762500000000045
 31
0.0
1001
ACAD
1000
RTMaterial
1005
0
  0
LINE
  5
61122
330
1F
100
AcDbEntity
  8
sk3
100
AcDbLine
 10
1.200000000000102
 20
-13.19999999999999
 30
0.0
 11
4.000000000000056
 21
-13.19999999999999
 31
0.0
1001
ACAD
1000
RTMaterial
1005
0
  0
LINE
  5
61123
330
1F
100
AcDbEntity
  8
sk3
100
AcDbLine
 10
23.2000000000001
 20
-13.19999999999999
 30
0.0
 11
14.17735573010009
 21
-13.19999999999999
 31
0.0
1001
ACAD
1000
RTMaterial
1005
0
  0
LINE
  5
61124
330
1F
100
AcDbEntity
  8
sk3
100
AcDbLine
 10
12.92774653970008
 20
-12.69999999999999
 30
0.0
 11
4.000000000000056
 21
-12.69999999999999
 31
0.0
1001
ACAD
1000
RTMaterial
1005
0
  0
LINE
  5
61125
330
1F
100
AcDbEntity
  8
sk3
100
AcDbLine
 10
45.30000000000007
 20
-10.0
 30
0.0
 11
32.40000000000009
 21
-10.0
 31
0.0
1001
ACAD
1000
RTMaterial
1005
0
  0
LINE
  5
61126
330
1F
100
AcDbEntity
  8
1
100
AcDbLine
 10
4.560000000000059
 20
4.762500000000045
 30
0.0
 11
5.560000000000059
 21
3.762500000000045
 31
0.0
1001
ACAD
1000
RTMaterial
1005
0
  0
LINE
  5
61127
330
1F
100
AcDbEntity
  8
1
100
AcDbLine
 10
39.36672093770017
 20
35.62129539859995
 30
0.0
 11
39.45216012030005
 21
35.31342194289994
 31
0.0
1001
ACAD
1000
RTMaterial
1005
0
  0
LINE
  5
61128
330
1F
100
AcDbEntity
  8
1
100
AcDbLine
 10
49.50000000000011
 20
25.37087738789995
 30
0.0
 11
49.50000000000006
 21
17.10027672310002
 31
0.0
1001
ACAD
1000
RTMaterial
1005
0
  0
LINE
  5
6112A
330
1F
100
AcDbEntity
  8
sk3
100
AcDbLine
 10
46.30000000000006
 20
18.89230957210003
 30
0.0
 11
46.30000000000006
 21
-18.89230957210003
 31
0.0
1001
ACAD
1000
RTMaterial
1005
0
  0
LINE
  5
6112B
330
1F
100
AcDbEntity
  8
sk3
100
AcDbLine
 10
31.50000000000006
 20
-6.849999999999965
 30
0.0
 11
24.40000000000009
 21
-6.849999999999965
 31
0.0
1001
ACAD
1000
RTMaterial
1005
0
  0
LINE
  5
6112C
330
1F
100
AcDbEntity
  8
sk3
100
AcDbLine
 10
1.200000000000102
 20
13.20000000000004
 30
0.0
 11
0.0000000000000568
 21
14.40000000000003
 31
0.0
1001
ACAD
1000
RTMaterial
1005
0
  0
LINE
  5
6112D
330
1F
100
AcDbEntity
  8
sk3
100
AcDbLine
 10
45.30000000000007
 20
10.0
 30
0.0
 11
45.30000000000007
 21
-10.0
 31
0.0
1001
ACAD
1000
RTMaterial
1005
0
  0
LINE
  5
6112E
330
1F
100
AcDbEntity
  8
1
100
AcDbLine
 10
4.560000000000059
 20
-4.762499999999988
 30
0.0
 11
0.5000000000000569
 21
-4.762499999999988
 31
0.0
1001
ACAD
1000
RTMaterial
1005
0
  0
LINE
  5
6112F
330
1F
100
AcDbEntity
  8
1
100
AcDbLine
 10
38.70568974520006
 20
25.34496606879998
 30
0.0
 11
38.68198397050014
 21
25.45406501049996
 31
0.0
1001
ACAD
1000
RTMaterial
1005
0
  0
LINE
  5
61130
330
1F
100
AcDbEntity
  8
1
100
AcDbLine
 10
40.06680988030007
 20
35.79805243909999
 30
0.0
 11
40.06660413730014
 21
35.97316159000002
 31
0.0
1001
ACAD
1000
RTMaterial
1005
0
  0
LINE
  5
61131
330
1F
100
AcDbEntity
  8
1
100
AcDbLine
 10
50.17256838210006
 20
26.92166221859998
 30
0.0
 11
48.66426457390009
 21
23.4438676506
 31
0.0
1001
ACAD
1000
RTMaterial
1005
0
  0
LINE
  5
61132
330
1F
100
AcDbEntity
  8
4
100
AcDbLine
 10
52.85135324120005
 20
0.0
 30
0.0
 11
-2.109447936199956
 21
0.0
 31
0.0
1001
ACAD
1000
RTMaterial
1005
0
  0
LINE
  5
61133
330
1F
100
AcDbEntity
  8
sk3
100
AcDbLine
 10
31.50000000000006
 20
-6.849999999999965
 30
0.0
 11
32.00000000000006
 21
-7.349999999999965
 31
0.0
1001
ACAD
1000
RTMaterial
1005
0
  0
LINE
  5
61134
330
1F
100
AcDbEntity
  8
sk3
100
AcDbLine
 10
46.30000000000006
 20
11.0
 30
0.0
 11
45.30000000000007
 21
10.0
 31
0.0
1001
ACAD
1000
RTMaterial
1005
0
  0
LINE
  5
61135
330
1F
100
AcDbEntity
  8
1
100
AcDbLine
 10
0.5000000000000569
 20
4.762500000000045
 30
0.0
 11
4.560000000000059
 21
4.762500000000045
 31
0.0
1001
ACAD
1000
RTMaterial
1005
0
  0
LINE
  5
61136
330
1F
100
AcDbEntity
  8
sk3
100
AcDbLine
 10
32.00000000000012
 20
9.600000000000022
 30
0.0
 11
32.00000000000006
 21
-9.599999999999965
 31
0.0
1001
ACAD
1000
RTMaterial
1005
0
  0
LINE
  5
61137
330
1F
100
AcDbEntity
  8
sk3
100
AcDbLine
 10
31.50000000000011
 20
6.850000000000022
 30
0.0
 11
24.40000000000009
 21
6.850000000000022
 31
0.0
1001
ACAD
1000
RTMaterial
1005
0
  0
LINE
  5
61138
330
1F
100
AcDbEntity
  8
sk3
100
AcDbLine
 10
46.30000000000006
 20
-11.0
 30
0.0
 11
45.30000000000007
 21
-10.0
 31
0.0
1001
ACAD
1000
RTMaterial
1005
0
  0
LINE
  5
61139
330
1F
100
AcDbEntity
  8
sk3
100
AcDbLine
 10
31.50000000000011
 20
6.850000000000022
 30
0.0
 11
31.50000000000006
 21
-6.849999999999965
 31
0.0
1001
ACAD
1000
RTMaterial
1005
0
  0
LINE
  5
6113A
330
1F
100
AcDbEntity
  8
1
100
AcDbLine
 10
40.06049625280013
 20
35.7809702902
 30
0.0
 11
39.95694086590015
 21
35.4992249156
 31
0.0
1001
ACAD
1000
RTMaterial
1005
0
  0
LINE
  5
6113B
330
1F
100
AcDbEntity
  8
sk3
100
AcDbLine
 10
31.50000000000011
 20
6.850000000000022
 30
0.0
 11
32.00000000000012
 21
7.350000000000022
 31
0.0
1001
ACAD
1000
RTMaterial
1005
0
  0
LINE
  5
6113C
330
1F
100
AcDbEntity
  8
sk3
100
AcDbLine
 10
45.30000000000007
 20
10.0
 30
0.0
 11
32.40000000000009
 21
10.0
 31
0.0
1001
ACAD
1000
RTMaterial
1005
0
  0
LINE
  5
6113D
330
1F
100
AcDbEntity
  8
sk3
100
AcDbLine
 10
47.64743411330004
 20
-25.1057985041
 30
0.0
 11
49.50000000000006
 21
-29.1763421398
 31
0.0
1001
ACAD
1000
RTMaterial
1005
0
  0
LINE
  5
6113E
330
1F
100
AcDbEntity
  8
sk3
100
AcDbLine
 10
12.92774653970008
 20
12.70000000000004
 30
0.0
 11
4.000000000000056
 21
12.70000000000004
 31
0.0
1001
ACAD
1000
RTMaterial
1005
0
  0
LINE
  5
6113F
330
1F
100
AcDbEntity
  8
sk3
100
AcDbLine
 10
1.200000000000102
 20
13.20000000000004
 30
0.0
 11
4.000000000000056
 21
13.20000000000004
 31
0.0
1001
ACAD
1000
RTMaterial
1005
0
  0
LINE
  5
61140
330
1F
100
AcDbEntity
  8
sk3
100
AcDbLine
 10
23.20000000000016
 20
13.20000000000004
 30
0.0
 11
14.17735573010009
 21
13.20000000000004
 31
0.0
1001
ACAD
1000
RTMaterial
1005
0
  0
LINE
  5
61141
330
1F
100
AcDbEntity
  8
sk3
100
AcDbLine
 10
24.00000000000006
 20
-12.39594370140003
 30
0.0
 11
24.00000000000011
 21
12.39635601769998
 31
0.0
1001
ACAD
1000
RTMaterial
1005
0
  0
LINE
  5
61142
330
1F
100
AcDbEntity
  8
1
100
AcDbLine
 10
39.45216012030005
 20
35.31342194289994
 30
0.0
 11
39.64653312840017
 21
35.57915166070001
 31
0.0
1001
ACAD
1000
RTMaterial
1005
0
  0
LINE
  5
61143
330
1F
100
AcDbEntity
  8
sk3
100
AcDbLine
 10
1.200000000000102
 20
-13.19999999999999
 30
0.0
 11
0.0000000000000568
 21
-14.39999999999997
 31
0.0
1001
ACAD
1000
RTMaterial
1005
0
  0
LINE
  5
61144
330
1F
100
AcDbEntity
  8
1
100
AcDbLine
 10
46.84563416070012
 20
22.49108580359996
 30
0.0
 11
46.99519803190014
 21
22.56921080810002
 31
0.0
1001
ACAD
1000
RTMaterial
1005
0
  0
LINE
  5
61145
330
1F
100
AcDbEntity
  8
1
100
AcDbLine
 10
36.00739137300013
 20
31.08816441430003
 30
0.0
 11
40.53723223530005
 21
35.92814432619997
 31
0.0
1001
ACAD
1000
RTMaterial
1005
0
  0
LINE
  5
61146
330
1F
100
AcDbEntity
  8
1
100
AcDbLine
 10
36.36450513620014
 20
31.68757768000001
 30
0.0
 11
39.95694086590015
 21
35.4992249156
 31
0.0
1001
ACAD
1000
RTMaterial
1005
0
  0
LINE
  5
61147
330
1F
100
AcDbEntity
  8
1
100
AcDbLine
 10
39.45216012030005
 20
35.31342194289994
 30
0.0
 11
35.92205336600012
 21
31.60614904789998
 31
0.0
1001
ACAD
1000
RTMaterial
1005
0
  0
LINE
  5
61148
330
1F
100
AcDbEntity
  8
1
100
AcDbLine
 10
5.560000000000059
 20
-3.762499999999988
 30
0.0
 11
4.560000000000059
 21
-4.762499999999988
 31
0.0
1001
ACAD
1000
RTMaterial
1005
0
  0
LINE
  5
61149
330
1F
100
AcDbEntity
  8
1
100
AcDbLine
 10
0.5000000000000569
 20
-4.762499999999988
 30
0.0
 11
0.0000000000000568
 21
-5.262499999999988
 31
0.0
1001
ACAD
1000
RTMaterial
1005
0
  0
LINE
  5
6114A
330
1F
100
AcDbEntity
  8
sk3
100
AcDbLine
 10
13.83926112070009
 20
13.1250462296
 30
0.0
 11
12.92774653970008
 21
12.70000000000004
 31
0.0
1001
ACAD
1000
RTMaterial
1005
0
  0
LINE
  5
6114B
330
1F
100
AcDbEntity
  8
1
100
AcDbLine
 10
46.89645248380009
 20
22.54685413899995
 30
0.0
 11
47.03651331910009
 21
22.57857375349999
 31
0.0
1001
ACAD
1000
RTMaterial
1005
0
  0
LINE
  5
6114C
330
1F
100
AcDbEntity
  8
1
100
AcDbLine
 10
49.14924271790011
 20
20.21524053289994
 30
0.0
 11
47.86556138290007
 21
20.17245300549996
 31
0.0
1001
ACAD
1000
RTMaterial
1005
0
  0
LINE
  5
6114D
330
1F
100
AcDbEntity
  8
1
100
AcDbLine
 10
46.95154868900011
 20
22.57619394979997
 30
0.0
 11
47.46715151890009
 21
22.59068227719996
 31
0.0
1001
ACAD
1000
RTMaterial
1005
0
  0
LINE
  5
6114E
330
1F
100
AcDbEntity
  8
1
100
AcDbLine
 10
42.44953777230011
 20
21.09594111719997
 30
0.0
 11
33.00967279910015
 21
21.56122909640004
 31
0.0
1001
ACAD
1000
RTMaterial
1005
0
  0
LINE
  5
6114F
330
1F
100
AcDbEntity
  8
1
100
AcDbLine
 10
35.56161378150012
 20
29.98702953789996
 30
0.0
 11
35.56198681130013
 21
29.98594802589997
 31
0.0
1001
ACAD
1000
RTMaterial
1005
0
  0
LINE
  5
61150
330
1F
100
AcDbEntity
  8
1
100
AcDbLine
 10
35.56198754660011
 20
29.98592943829999
 30
0.0
 11
35.67284547900011
 21
29.66463781850001
 31
0.0
1001
ACAD
1000
RTMaterial
1005
0
  0
LINE
  5
61151
330
1F
100
AcDbEntity
  8
1
100
AcDbLine
 10
43.83305254030005
 20
20.92269594570002
 30
0.0
 11
46.76427824200016
 21
20.32899392829995
 31
0.0
1001
ACAD
1000
RTMaterial
1005
0
  0
LINE
  5
61152
330
1F
100
AcDbEntity
  8
1
100
AcDbLine
 10
46.42989448210005
 20
22.71507796719999
 30
0.0
 11
40.95033969430017
 21
24.01359237829996
 31
0.0
1001
ACAD
1000
RTMaterial
1005
0
  0
LINE
  5
61153
330
1F
100
AcDbEntity
  8
1
100
AcDbLine
 10
47.08869359490006
 20
22.63022087180002
 30
0.0
 11
40.6551893313001
 21
24.15479692299999
 31
0.0
1001
ACAD
1000
RTMaterial
1005
0
  0
LINE
  5
61154
330
1F
100
AcDbEntity
  8
1
100
AcDbLine
 10
11.75607770390013
 20
34.21549855299998
 30
0.0
 11
10.90113142140012
 21
34.56091927279999
 31
0.0
1001
ACAD
1000
RTMaterial
1005
0
  0
LINE
  5
61155
330
1F
100
AcDbEntity
  8
1
100
AcDbLine
 10
35.79156183490011
 20
28.70965648869998
 30
0.0
 11
35.45827679610011
 21
29.15822420210003
 31
0.0
1001
ACAD
1000
RTMaterial
1005
0
  0
LINE
  5
61156
330
1F
100
AcDbEntity
  8
1
100
AcDbLine
 10
35.21250562350008
 20
30.02229601549999
 30
0.0
 11
35.40519702050005
 21
29.75986774469999
 31
0.0
1001
ACAD
1000
RTMaterial
1005
0
  0
LINE
  5
61157
330
1F
100
AcDbEntity
  8
1
100
AcDbLine
 10
38.70049735470013
 20
25.27196645960004
 30
0.0
 11
39.13845721690007
 21
24.67550470229998
 31
0.0
1001
ACAD
1000
RTMaterial
1005
0
  0
LINE
  5
61158
330
1F
100
AcDbEntity
  8
1
100
AcDbLine
 10
38.11533797680011
 20
26.23016705759994
 30
0.0
 11
35.87413073360017
 21
29.28248880289994
 31
0.0
1001
ACAD
1000
RTMaterial
1005
0
  0
LINE
  5
61159
330
1F
100
AcDbEntity
  8
1
100
AcDbLine
 10
35.59980660210011
 20
30.19086574850002
 30
0.0
 11
35.49711073080004
 21
30.4295233281
 31
0.0
1001
ACAD
1000
RTMaterial
1005
0
  0
LINE
  5
6115A
330
1F
100
AcDbEntity
  8
sk3
100
AcDbLine
 10
12.92774653970008
 20
12.70000000000004
 30
0.0
 11
12.92774653970008
 21
-12.69999999999999
 31
0.0
1001
ACAD
1000
RTMaterial
1005
0
  0
LINE
  5
6115B
330
1F
100
AcDbEntity
  8
1
100
AcDbLine
 10
35.79156183490011
 20
28.70965648869998
 30
0.0
 11
29.10403781490004
 21
29.10610438200001
 31
0.0
1001
ACAD
1000
RTMaterial
1005
0
  0
LINE
  5
6115C
330
1F
100
AcDbEntity
  8
1
100
AcDbLine
 10
46.92985034870014
 20
22.4457118181
 30
0.0
 11
46.42989448210005
 21
22.71507796719999
 31
0.0
1001
ACAD
1000
RTMaterial
1005
0
  0
LINE
  5
6115D
330
1F
100
AcDbEntity
  8
1
100
AcDbLine
 10
39.52955241330005
 20
24.68846679299998
 30
0.0
 11
39.59838530920013
 21
24.64162017410001
 31
0.0
1001
ACAD
1000
RTMaterial
1005
0
  0
LINE
  5
6115E
330
1F
100
AcDbEntity
  8
1
100
AcDbLine
 10
39.59697432660016
 20
24.64257826459999
 30
0.0
 11
39.59833980120015
 21
24.64164491899999
 31
0.0
1001
ACAD
1000
RTMaterial
1005
0
  0
LINE
  5
6115F
330
1F
100
AcDbEntity
  8
1
100
AcDbLine
 10
39.1081501906001
 20
24.97725984039994
 30
0.0
 11
39.52955241330005
 21
24.68846679299998
 31
0.0
1001
ACAD
1000
RTMaterial
1005
0
  0
LINE
  5
61160
330
1F
100
AcDbEntity
  8
1
100
AcDbLine
 10
39.59843071350008
 20
24.64158260390002
 30
0.0
 11
39.60014443920011
 21
24.64038200369998
 31
0.0
1001
ACAD
1000
RTMaterial
1005
0
  0
LINE
  5
61161
330
1F
100
AcDbEntity
  8
1
100
AcDbLine
 10
39.60014443920011
 20
24.64038200369998
 30
0.0
 11
39.60048519840007
 21
24.64013557299995
 31
0.0
1001
ACAD
1000
RTMaterial
1005
0
  0
LINE
  5
61162
330
1F
100
AcDbEntity
  8
1
100
AcDbLine
 10
34.94245781410007
 20
30.96020967020002
 30
0.0
 11
35.25852006530011
 21
30.70876363649996
 31
0.0
1001
ACAD
1000
RTMaterial
1005
0
  0
LINE
  5
61163
330
1F
100
AcDbEntity
  8
1
100
AcDbLine
 10
35.46887527120009
 20
29.74401514439995
 30
0.0
 11
35.72376048760009
 21
29.53773674399997
 31
0.0
1001
ACAD
1000
RTMaterial
1005
0
  0
LINE
  5
61164
330
1F
100
AcDbEntity
  8
1
100
AcDbLine
 10
35.45912382730012
 20
30.48839020669999
 30
0.0
 11
35.32245709430015
 21
30.64834139579995
 31
0.0
1001
ACAD
1000
RTMaterial
1005
0
  0
LINE
  5
61165
330
1F
100
AcDbEntity
  8
1
100
AcDbLine
 10
41.11227027530015
 20
36.38983232729998
 30
0.0
 11
41.11630795050007
 21
36.39195258680002
 31
0.0
1001
ACAD
1000
RTMaterial
1005
0
  0
LINE
  5
61166
330
1F
100
AcDbEntity
  8
1
100
AcDbLine
 10
41.99621888580009
 20
36.85001352770001
 30
0.0
 11
41.11631349810011
 21
36.39193983289994
 31
0.0
1001
ACAD
1000
RTMaterial
1005
0
  0
LINE
  5
61167
330
1F
100
AcDbEntity
  8
1
100
AcDbLine
 10
41.11274123500016
 20
36.39007917399994
 30
0.0
 11
41.10328662630013
 21
36.38516970339998
 31
0.0
1001
ACAD
1000
RTMaterial
1005
0
  0
LINE
  5
61168
330
1F
100
AcDbEntity
  8
1
100
AcDbLine
 10
41.10328662630013
 20
36.38516970339998
 30
0.0
 11
41.09330108400013
 21
36.38006812980001
 31
0.0
1001
ACAD
1000
RTMaterial
1005
0
  0
LINE
  5
61169
330
1F
100
AcDbEntity
  8
1
100
AcDbLine
 10
41.09330108400013
 20
36.38006812980001
 30
0.0
 11
41.08302635100005
 21
36.37491926259997
 31
0.0
1001
ACAD
1000
RTMaterial
1005
0
  0
LWPOLYLINE
  5
6116A
330
1F
100
AcDbEntity
  8
1
100
AcDbPolyline
 90
        6
 70
     0
 43
0.0
 10
41.08302635100005
 20
36.37491926259997
 10
41.0725814522001
 20
36.36979096759996
 10
41.06188790400006
 20
36.36465230850002
 10
41.05067106550007
 20
36.35938403979998
 10
41.0388375870001
 20
36.35396054030002
 10
41.03632639540012
 20
36.35282721789997
1001
ACAD
1000
RTMaterial
1005
0
  0
LINE
  5
6116B
330
1F
100
AcDbEntity
  8
1
100
AcDbLine
 10
36.36450513620014
 20
31.68757768000001
 30
0.0
 11
36.2005516659001
 21
31.68549072669998
 31
0.0
1001
ACAD
1000
RTMaterial
1005
0
  0
LINE
  5
6116C
330
1F
100
AcDbEntity
  8
1
100
AcDbLine
 10
44.22872555160006
 20
28.67065494989999
 30
0.0
 11
44.35688749200017
 21
28.65272010210004
 31
0.0
1001
ACAD
1000
RTMaterial
1005
0
  0
LINE
  5
6116D
330
1F
100
AcDbEntity
  8
1
100
AcDbLine
 10
42.06708734610015
 20
29.18783446840001
 30
0.0
 11
42.1952492864001
 21
29.1698996206
 31
0.0
1001
ACAD
1000
RTMaterial
1005
0
  0
LINE
  5
6116E
330
1F
100
AcDbEntity
  8
1
100
AcDbLine
 10
44.89630865150013
 20
30.790900803
 30
0.0
 11
45.02447059180008
 21
30.7729659552
 31
0.0
1001
ACAD
1000
RTMaterial
1005
0
  0
LINE
  5
6116F
330
1F
100
AcDbEntity
  8
1
100
AcDbLine
 10
42.73467044590006
 20
31.30808032149997
 30
0.0
 11
42.86283238630005
 21
31.29014547359998
 31
0.0
1001
ACAD
1000
RTMaterial
1005
0
  0
LINE
  5
61170
330
1F
100
AcDbEntity
  8
1
100
AcDbLine
 10
35.46887527120009
 20
29.74401514439995
 30
0.0
 11
35.02739124410016
 21
29.85392189880002
 31
0.0
1001
ACAD
1000
RTMaterial
1005
0
  0
LINE
  5
61171
330
1F
100
AcDbEntity
  8
1
100
AcDbLine
 10
5.560000000000059
 20
3.762500000000045
 30
0.0
 11
5.560000000000059
 21
-3.762499999999988
 31
0.0
1001
ACAD
1000
RTMaterial
1005
0
  0
LINE
  5
61172
330
1F
100
AcDbEntity
  8
sk3
100
AcDbLine
 10
4.000000000000056
 20
-13.19999748340001
 30
0.0
 11
4.000000000000056
 21
-4.762499999999988
 31
0.0
1001
ACAD
1000
RTMaterial
1005
0
  0
LINE
  5
61173
330
1F
100
AcDbEntity
  8
sk3
100
AcDbLine
 10
4.000000000000056
 20
4.762500000000045
 30
0.0
 11
4.000000000000056
 21
13.19999748340001
 31
0.0
1001
ACAD
1000
RTMaterial
1005
0
  0
LINE
  5
61174
330
1F
100
AcDbEntity
  8
1
100
AcDbLine
 10
25.09564366670009
 20
33.63308052509996
 30
0.0
 11
33.37079296630009
 21
36.16304755959999
 31
0.0
1001
ACAD
1000
RTMaterial
1005
0
  0
LINE
  5
61175
330
1F
100
AcDbEntity
  8
1
100
AcDbLine
 10
41.2836421784001
 20
36.47915172090001
 30
0.0
 11
40.52632773360016
 21
36.33302626459999
 31
0.0
1001
ACAD
1000
RTMaterial
1005
0
  0
LINE
  5
61176
330
1F
100
AcDbEntity
  8
1
100
AcDbLine
 10
9.028098454300106
 20
34.92500000000001
 30
0.0
 11
2.000000000000113
 21
34.92500000000001
 31
0.0
1001
ACAD
1000
RTMaterial
1005
0
  0
LINE
  5
61177
330
1F
100
AcDbEntity
  8
1
100
AcDbLine
 10
36.29451001350015
 20
35.62102809439995
 30
0.0
 11
39.36672093770017
 21
35.62129539859995
 31
0.0
1001
ACAD
1000
RTMaterial
1005
0
  0
LINE
  5
61178
330
1F
100
AcDbEntity
  8
1
100
AcDbLine
 10
36.29451001350015
 20
36.60000000000002
 30
0.0
 11
39.16755178850008
 21
36.60000000000002
 31
0.0
1001
ACAD
1000
RTMaterial
1005
0
  0
LINE
  5
61179
330
1F
100
AcDbEntity
  8
1
100
AcDbLine
 10
48.83271046770016
 20
36.50874312140002
 30
0.0
 11
50.73637386900009
 21
30.14418715829999
 31
0.0
1001
ACAD
1000
RTMaterial
1005
0
  0
LINE
  5
6117A
330
1F
100
AcDbEntity
  8
sk3
100
AcDbLine
 10
1.200000000000102
 20
13.20000000000004
 30
0.0
 11
1.200000000000102
 21
4.762500000000045
 31
0.0
1001
ACAD
1000
RTMaterial
1005
0
  0
LINE
  5
6117B
330
1F
100
AcDbEntity
  8
sk3
100
AcDbLine
 10
1.200000000000102
 20
-4.762499999999988
 30
0.0
 11
1.200000000000102
 21
-13.19999999999999
 31
0.0
1001
ACAD
1000
RTMaterial
1005
0
  0
LINE
  5
6117C
330
1F
100
AcDbEntity
  8
1
100
AcDbLine
 10
0.0000000000000568
 20
-32.92499757439998
 30
0.0
 11
0.0000000000000568
 21
-5.262499999999988
 31
0.0
1001
ACAD
1000
RTMaterial
1005
0
  0
LINE
  5
6117D
330
1F
100
AcDbEntity
  8
1
100
AcDbLine
 10
0.0000000000000568
 20
5.262500000000045
 30
0.0
 11
0.0000000000001137
 21
32.92499757439998
 31
0.0
1001
ACAD
1000
RTMaterial
1005
0
  0
LINE
  5
6117E
330
1F
100
AcDbEntity
  8
1
100
AcDbLine
 10
43.54838147060013
 20
37.07529917339997
 30
0.0
 11
47.29789243800007
 21
37.50077195399996
 31
0.0
1001
ACAD
1000
RTMaterial
1005
0
  0
LINE
  5
6117F
330
1F
100
AcDbEntity
  8
nocut
100
AcDbLine
 10
11.75607770390007
 20
34.21549855300003
 30
0.0
 11
10.90113142140006
 21
34.56091927279999
 31
0.0
1001
ACAD
1000
RTMaterial
1005
0
  0
LINE
  5
61180
330
1F
100
AcDbEntity
  8
nocut
100
AcDbLine
 10
0.0
 20
0.0
 30
0.0
 11
0.0
 21
32.92500000000001
 31
0.0
1001
ACAD
1000
RTMaterial
1005
0
  0
LINE
  5
61181
330
1F
100
AcDbEntity
  8
nocut
100
AcDbLine
 10
33.37079296630003
 20
36.16304755959999
 30
0.0
 11
25.09564366670003
 21
33.63308052510002
 31
0.0
1001
ACAD
1000
RTMaterial
1005
0
  0
LINE
  5
61182
330
1F
100
AcDbEntity
  8
nocut
100
AcDbLine
 10
9.028098454300049
 20
34.92500000000001
 30
0.0
 11
2.0
 21
34.92500000000001
 31
0.0
1001
ACAD
1000
RTMaterial
1005
0
  0
LINE
  5
61183
330
1F
100
AcDbEntity
  8
nocut
100
AcDbLine
 10
40.19836821519999
 20
36.60000000000002
 30
0.0
 11
36.29451001350003
 21
36.60000000000002
 31
0.0
1001
ACAD
1000
RTMaterial
1005
0
  0
ARC
  5
61184
330
1F
100
AcDbEntity
  8
cut
100
AcDbCircle
 10
47.41389173680011
 20
36.60000000000002
 30
0.0
 40
1.5
100
AcDbArc
 50
16.9999999999982
 51
95.33533266130117
1001
ACAD
1000
RTMaterial
1005
0
  0
ARC
  5
61185
330
1F
100
AcDbEntity
  8
nocut
100
AcDbCircle
 10
46.89970608130005
 20
35.45308061150001
 30
0.0
 40
1.199999999999999
100
AcDbArc
 50
16.43115893249964
 51
94.98712518170227
1001
ACAD
1000
RTMaterial
1005
0
  0
ARC
  5
61186
330
1F
100
AcDbEntity
  8
nocut
100
AcDbCircle
 10
40.19836821519999
 20
35.80000000000001
 30
0.0
 40
0.8
100
AcDbArc
 50
75.51988534579855
 51
90.0
1001
ACAD
1000
RTMaterial
1005
0
  0
ARC
  5
61187
330
1F
100
AcDbEntity
  8
nocut
100
AcDbCircle
 10
41.86716466470005
 20
37.02153003199999
 30
0.0
 40
0.8
100
AcDbArc
 50
255.5198853457986
 51
274.9871251817023
1001
ACAD
1000
RTMaterial
1005
0
  0
ARC
  5
61188
330
1F
100
AcDbEntity
  8
1
100
AcDbCircle
 10
19.24820957220004
 20
52.75917564439999
 30
0.0
 40
20.0
100
AcDbArc
 50
248.0000000000023
 51
287.0000000000018
1001
ACAD
1000
RTMaterial
1005
0
  0
ARC
  5
61189
330
1F
100
AcDbEntity
  8
1
100
AcDbCircle
 10
19.24820957220004
 20
-52.7591756443
 30
0.0
 40
20.0
100
AcDbArc
 50
72.99999999999823
 51
111.9999999999977
1001
ACAD
1000
RTMaterial
1005
0
  0
ARC
  5
6118A
330
1F
100
AcDbEntity
  8
sk3
100
AcDbCircle
 10
61.30000000000006
 20
-18.89230957210003
 30
0.0
 40
15.0
100
AcDbArc
 50
180.0
 51
204.4709986590987
1001
ACAD
1000
RTMaterial
1005
0
  0
ARC
  5
6118B
330
1F
100
AcDbEntity
  8
sk3
100
AcDbCircle
 10
61.30000000000006
 20
18.89230957210003
 30
0.0
 40
15.0
100
AcDbArc
 50
170.4253833899011
 51
180.0
1001
ACAD
1000
RTMaterial
1005
0
  0
ARC
  5
6118C
330
1F
100
AcDbEntity
  8
1
100
AcDbCircle
 10
36.29451001350015
 20
26.60000000000002
 30
0.0
 40
10.0
100
AcDbArc
 50
90.0
 51
107.0000000000018
1001
ACAD
1000
RTMaterial
1005
0
  0
ARC
  5
6118D
330
1F
100
AcDbEntity
  8
1
100
AcDbCircle
 10
36.29451001350009
 20
-26.59999999999997
 30
0.0
 40
10.0
100
AcDbArc
 50
252.9999999999982
 51
270.0
1001
ACAD
1000
RTMaterial
1005
0
  0
ARC
  5
6118E
330
1F
100
AcDbEntity
  8
1
100
AcDbCircle
 10
9.028098454300106
 20
29.92500000000001
 30
0.0
 40
5.0
100
AcDbArc
 50
68.0000000000023
 51
90.0
1001
ACAD
1000
RTMaterial
1005
0
  0
ARC
  5
6118F
330
1F
100
AcDbEntity
  8
1
100
AcDbCircle
 10
9.028098454300106
 20
-29.92499999999996
 30
0.0
 40
5.0
100
AcDbArc
 50
270.0
 51
291.9999999999977
1001
ACAD
1000
RTMaterial
1005
0
  0
ARC
  5
61190
330
1F
100
AcDbEntity
  8
1
100
AcDbCircle
 10
2.000000000000113
 20
32.92500000000001
 30
0.0
 40
2.0
100
AcDbArc
 50
90.0
 51
180.0
1001
ACAD
1000
RTMaterial
1005
0
  0
ARC
  5
61191
330
1F
100
AcDbEntity
  8
1
100
AcDbCircle
 10
2.000000000000056
 20
-32.92499999999995
 30
0.0
 40
2.0
100
AcDbArc
 50
180.0
 51
270.0
1001
ACAD
1000
RTMaterial
1005
0
  0
ARC
  5
61192
330
1F
100
AcDbEntity
  8
1
100
AcDbCircle
 10
46.89970608130005
 20
-35.45308061150001
 30
0.0
 40
1.199999999999999
100
AcDbArc
 50
265.0128748182977
 51
343.5688410675003
1001
ACAD
1000
RTMaterial
1005
0
  0
ARC
  5
61193
330
1F
100
AcDbEntity
  8
sk3
100
AcDbCircle
 10
23.20000000000016
 20
12.40000000000003
 30
0.0
 40
0.8
100
AcDbArc
 50
0.0
 51
90.0
1001
ACAD
1000
RTMaterial
1005
0
  0
ARC
  5
61194
330
1F
100
AcDbEntity
  8
sk3
100
AcDbCircle
 10
23.2000000000001
 20
-12.39999999999997
 30
0.0
 40
0.8
100
AcDbArc
 50
270.0
 51
0.0
1001
ACAD
1000
RTMaterial
1005
0
  0
ARC
  5
61195
330
1F
100
AcDbEntity
  8
sk3
100
AcDbCircle
 10
14.17735573010009
 20
-12.39999999999997
 30
0.0
 40
0.8
100
AcDbArc
 50
245.0000000000006
 51
270.0
1001
ACAD
1000
RTMaterial
1005
0
  0
ARC
  5
61196
330
1F
100
AcDbEntity
  8
sk3
100
AcDbCircle
 10
14.17735573010009
 20
12.40000000000003
 30
0.0
 40
0.8
100
AcDbArc
 50
90.0
 51
114.9999999999993
1001
ACAD
1000
RTMaterial
1005
0
  0
ARC
  5
61197
330
1F
100
AcDbEntity
  8
1
100
AcDbCircle
 10
40.19836821510006
 20
-35.79999999999996
 30
0.0
 40
0.8
100
AcDbArc
 50
270.0
 51
284.4801146541982
1001
ACAD
1000
RTMaterial
1005
0
  0
ARC
  5
61198
330
1F
100
AcDbEntity
  8
1
100
AcDbCircle
 10
41.86716466470005
 20
-37.02153003200005
 30
0.0
 40
0.8
100
AcDbArc
 50
85.0128748182977
 51
104.4801146542014
1001
ACAD
1000
RTMaterial
1005
0
  0
ARC
  5
61199
330
1F
100
AcDbEntity
  8
sk3
100
AcDbCircle
 10
32.40000000000009
 20
-9.599999999999965
 30
0.0
 40
0.4
100
AcDbArc
 50
180.0
 51
270.0
1001
ACAD
1000
RTMaterial
1005
0
  0
ARC
  5
6119A
330
1F
100
AcDbEntity
  8
sk3
100
AcDbCircle
 10
32.40000000000009
 20
9.600000000000022
 30
0.0
 40
0.4
100
AcDbArc
 50
90.0
 51
180.0
1001
ACAD
1000
RTMaterial
1005
0
  0
ARC
  5
6119B
330
1F
100
AcDbEntity
  8
sk3
100
AcDbCircle
 10
24.40000000000009
 20
-7.25
 30
0.0
 40
0.4
100
AcDbArc
 50
90.0
 51
180.0
1001
ACAD
1000
RTMaterial
1005
0
  0
ARC
  5
6119C
330
1F
100
AcDbEntity
  8
sk3
100
AcDbCircle
 10
24.40000000000009
 20
7.25
 30
0.0
 40
0.4
100
AcDbArc
 50
180.0
 51
270.0
1001
ACAD
1000
RTMaterial
1005
0
  0
ARC
  5
6119D
330
1F
100
AcDbEntity
  8
nocut
100
AcDbCircle
 10
19.24820957230003
 20
52.75917564440004
 30
0.0
 40
20.0
100
AcDbArc
 50
248.0000000000023
 51
287.0000000000018
1001
ACAD
1000
RTMaterial
1005
0
  0
ARC
  5
6119E
330
1F
100
AcDbEntity
  8
nocut
100
AcDbCircle
 10
36.29451001350003
 20
26.60000000000002
 30
0.0
 40
10.0
100
AcDbArc
 50
90.0
 51
107.0000000000018
1001
ACAD
1000
RTMaterial
1005
0
  0
ARC
  5
6119F
330
1F
100
AcDbEntity
  8
nocut
100
AcDbCircle
 10
9.028098454300049
 20
29.92500000000001
 30
0.0
 40
5.0
100
AcDbArc
 50
68.0000000000023
 51
90.0
1001
ACAD
1000
RTMaterial
1005
0
  0
ARC
  5
611A0
330
1F
100
AcDbEntity
  8
nocut
100
AcDbCircle
 10
2.0
 20
32.92500000000001
 30
0.0
 40
2.0
100
AcDbArc
 50
90.0
 51
180.0
1001
ACAD
1000
RTMaterial
1005
0
  0
SPLINE
  5
611A1
330
1F
100
AcDbEntity
  8
cut
100
AcDbSpline
210
0.0
220
0.0
230
1.0
 70
     8
 71
     3
 72
    22
 73
    18
 74
     0
 42
0.0000000001
 43
0.0000000001
 40
0.0
 40
0.0
 40
0.0
 40
0.0
 40
0.0666666667
 40
0.1333333333
 40
0.2
 40
0.2666666667
 40
0.3333333333
 40
0.4
 40
0.4666666667000001
 40
0.5333333333
 40
0.6
 40
0.6666666667
 40
0.7333333333
 40
0.8
 40
0.8666666667000001
 40
0.9333333333
 40
1.0
 40
1.0
 40
1.0
 40
1.0
 10
50.77384048890007
 20
29.12352037469998
 30
0.0
 10
50.77543857350008
 20
29.15162778680002
 30
0.0
 10
50.77848044640006
 20
29.20735566669998
 30
0.0
 10
50.7825401811001
 20
29.28851025539996
 30
0.0
 10
50.78626014600013
 20
29.37015437829996
 30
0.0
 10
50.78969429750009
 20
29.45431966850004
 30
0.0
 10
50.79287311760015
 20
29.54290839469996
 30
0.0
 10
50.79569643960008
 20
29.63455877479999
 30
0.0
 10
50.79809824670007
 20
29.72814019079999
 30
0.0
 10
50.80003925850007
 20
29.82244159449999
 30
0.0
 10
50.80149764220005
 20
29.91634778640003
 30
0.0
 10
50.8024586245001
 20
30.00851030680002
 30
0.0
 10
50.80292858480015
 20
30.09775307450002
 30
0.0
 10
50.80294666000009
 20
30.18259910630002
 30
0.0
 10
50.80256796570006
 20
30.26491902689997
 30
0.0
 10
50.8018165264001
 20
30.34666245170001
 30
0.0
 10
50.80104374280006
 20
30.40295722529999
 30
0.0
 10
50.80058650510011
 20
30.43137236659999
 30
0.0
1001
ACAD
1000
RTMaterial
1005
0
  0
SPLINE
  5
611A2
330
1F
100
AcDbEntity
  8
cut
100
AcDbSpline
210
0.0
220
0.0
230
1.0
 70
     8
 71
     3
 72
    11
 73
     7
 74
     0
 42
0.0000000001
 43
0.0000000001
 40
0.0
 40
0.0
 40
0.0
 40
0.0
 40
0.25
 40
0.5
 40
0.75
 40
1.0
 40
1.0
 40
1.0
 40
1.0
 10
50.80000023460013
 20
30.46456969769997
 30
0.0
 10
50.7992338383001
 20
30.50040216589997
 30
0.0
 10
50.79533054150011
 20
30.57082278049995
 30
0.0
 10
50.78195676540008
 20
30.67323721060001
 30
0.0
 10
50.76233136400015
 20
30.77088669850002
 30
0.0
 10
50.74557268260014
 20
30.83286042539999
 30
0.0
 10
50.73637431680015
 20
30.86310458309998
 30
0.0
1001
ACAD
1000
RTMaterial
1005
0
  0
LINE
  5
611A3
330
1F
100
AcDbEntity
  8
cut
100
AcDbLine
 10
50.80058650510011
 20
30.43137236659999
 30
0.0
 11
50.80000023460013
 21
30.46456969769997
 31
0.0
1001
ACAD
1000
RTMaterial
1005
0
  0
SPLINE
  5
611A4
330
1F
100
AcDbEntity
  8
cut
100
AcDbSpline
210
0.0
220
0.0
230
1.0
 70
     8
 71
     3
 72
    11
 73
     7
 74
     0
 42
0.0000000001
 43
0.0000000001
 40
0.0
 40
0.0
 40
0.0
 40
0.0
 40
0.25
 40
0.5
 40
0.75
 40
1.0
 40
1.0
 40
1.0
 40
1.0
 10
43.54838147410009
 20
37.74553001189997
 30
0.0
 10
43.46707550640007
 20
37.73807096820002
 30
0.0
 10
43.29422268080008
 20
37.72287739619998
 30
0.0
 10
43.00277322750014
 20
37.69996474909999
 30
0.0
 10
42.68319104700014
 20
37.67812299769997
 30
0.0
 10
42.45002156640009
 20
37.66484481369997
 30
0.0
 10
42.32850851780006
 20
37.65873348349999
 30
0.0
1001
ACAD
1000
RTMaterial
1005
0
  0
SPLINE
  5
611A5
330
1F
100
AcDbEntity
  8
cut
100
AcDbSpline
210
0.0
220
0.0
230
1.0
 70
     8
 71
     3
 72
    10
 73
     6
 74
     0
 42
0.0000000001
 43
0.0000000001
 40
0.0
 40
0.0
 40
0.0
 40
0.0
 40
0.3333333333
 40
0.6666666667
 40
1.0
 40
1.0
 40
1.0
 40
1.0
 10
42.32850851780006
 20
37.65873348349999
 30
0.0
 10
42.29727832800006
 20
37.65644581049997
 30
0.0
 10
42.23659523980006
 20
37.6494168662
 30
0.0
 10
42.15030599900012
 20
37.6322652737
 30
0.0
 10
42.09697084210006
 20
37.61704783119995
 30
0.0
 10
42.07121398480012
 20
37.60859568109993
 30
0.0
1001
ACAD
1000
RTMaterial
1005
0
  0
SPLINE
  5
611A6
330
1F
100
AcDbEntity
  8
cut
100
AcDbSpline
210
0.0
220
0.0
230
1.0
 70
     8
 71
     3
 72
    10
 73
     6
 74
     0
 42
0.0000000001
 43
0.0000000001
 40
0.0
 40
0.0
 40
0.0
 40
0.0
 40
0.3333333333
 40
0.6666666667
 40
1.0
 40
1.0
 40
1.0
 40
1.0
 10
42.07121398480012
 20
37.60859568109993
 30
0.0
 10
42.06218789800016
 20
37.60563375769999
 30
0.0
 10
42.04429113990011
 20
37.59935342770001
 30
0.0
 10
42.01788279510014
 20
37.58883390810002
 30
0.0
 10
42.00063622510015
 20
37.58112026280003
 30
0.0
 10
41.99209503640008
 20
37.57708985259995
 30
0.0
1001
ACAD
1000
RTMaterial
1005
0
  0
SPLINE
  5
611A7
330
1F
100
AcDbEntity
  8
cut
100
AcDbSpline
210
0.0
220
0.0
230
1.0
 70
     8
 71
     3
 72
    22
 73
    18
 74
     0
 42
0.0000000001
 43
0.0000000001
 40
0.0
 40
0.0
 40
0.0
 40
0.0
 40
0.0666666667
 40
0.1333333333
 40
0.2
 40
0.2666666667
 40
0.3333333333
 40
0.4
 40
0.4666666667000001
 40
0.5333333333
 40
0.6
 40
0.6666666667
 40
0.7333333333
 40
0.8
 40
0.8666666667000001
 40
0.9333333333
 40
1.0
 40
1.0
 40
1.0
 40
1.0
 10
41.99209503640008
 20
37.57708985259995
 30
0.0
 10
41.96765639080012
 20
37.56555776149998
 30
0.0
 10
41.91926157450007
 20
37.5425884366
 30
0.0
 10
41.84896404980008
 20
37.5088323878
 30
0.0
 10
41.77840474560014
 20
37.47456522959999
 30
0.0
 10
41.70584415270013
 20
37.4389002657
 30
0.0
 10
41.62965746230009
 20
37.40098800180005
 30
0.0
 10
41.55104251640011
 20
37.36136958960003
 30
0.0
 10
41.47098663620011
 20
37.32050903909999
 30
0.0
 10
41.39053481070016
 20
37.27893103579999
 30
0.0
 10
41.31063919420012
 20
37.23712884079998
 30
0.0
 10
41.23244368780013
 20
37.19570695829998
 30
0.0
 10
41.15693849600006
 20
37.15520918820005
 30
0.0
 10
41.0853522965001
 20
37.11634490530002
 30
0.0
 10
41.01608033040008
 20
37.0783025312
 30
0.0
 10
40.94746567740014
 20
37.04020854200002
 30
0.0
 10
40.90032865060004
 20
37.01375759390004
 30
0.0
 10
40.87656661940013
 20
37.00034937539994
 30
0.0
1001
ACAD
1000
RTMaterial
1005
0
  0
SPLINE
  5
611A8
330
1F
100
AcDbEntity
  8
cut
100
AcDbSpline
210
0.0
220
0.0
230
1.0
 70
     8
 71
     3
 72
    11
 73
     7
 74
     0
 42
0.0000000001
 43
0.0000000001
 40
0.0
 40
0.0
 40
0.0
 40
0.0
 40
0.25
 40
0.5
 40
0.75
 40
1.0
 40
1.0
 40
1.0
 40
1.0
 10
40.84884158410011
 20
36.98464286289993
 30
0.0
 10
40.82126802990012
 20
36.9689629655
 30
0.0
 10
40.76680217250009
 20
36.93538981119997
 30
0.0
 10
40.68662163600015
 20
36.87768210750005
 30
0.0
 10
40.61000178440008
 20
36.81392998609994
 30
0.0
 10
40.56108901070013
 20
36.76726711100002
 30
0.0
 10
40.53723186560012
 20
36.74286692070001
 30
0.0
1001
ACAD
1000
RTMaterial
1005
0
  0
LINE
  5
611A9
330
1F
100
AcDbEntity
  8
cut
100
AcDbLine
 10
40.87656661940013
 20
37.00034937539994
 30
0.0
 11
40.84884158410011
 21
36.98464286289993
 31
0.0
1001
ACAD
1000
RTMaterial
1005
0
  0
SPLINE
  5
611AA
330
1F
100
AcDbEntity
  8
cut
100
AcDbSpline
210
0.0
220
0.0
230
1.0
 70
     8
 71
     3
 72
    21
 73
    17
 74
     0
 42
0.0000000001
 43
0.0000000001
 40
0.0
 40
0.0
 40
0.0
 40
0.0
 40
0.0714285714
 40
0.1428571429
 40
0.2142857143
 40
0.2857142857
 40
0.3571428571
 40
0.4285714286
 40
0.5
 40
0.5714285714000001
 40
0.6428571429
 40
0.7142857143000001
 40
0.7857142857
 40
0.8571428570999998
 40
0.9285714285999999
 40
1.0
 40
1.0
 40
1.0
 40
1.0
 10
40.53723186560012
 20
36.74286692070001
 30
0.0
 10
40.47861014440013
 20
36.6829108302
 30
0.0
 10
40.35630493300016
 20
36.5578503987
 30
0.0
 10
40.15848256140009
 20
36.35568491380002
 30
0.0
 10
39.94377342670009
 20
36.13639346409997
 30
0.0
 10
39.71098324370007
 20
35.89879363820001
 30
0.0
 10
39.45887598360014
 20
35.64166762000002
 30
0.0
 10
39.18641569130011
 20
35.3640094127
 30
0.0
 10
38.89051560640007
 20
35.06273736969996
 30
0.0
 10
38.56966483580004
 20
34.73639121589997
 30
0.0
 10
38.22192077360012
 20
34.38308902469998
 30
0.0
 10
37.84541259230014
 20
34.00104459009998
 30
0.0
 10
37.43825927040007
 20
33.58848714689998
 30
0.0
 10
36.9985071302001
 20
33.14360396019998
 30
0.0
 10
36.52446610990012
 20
32.66488530589999
 30
0.0
 10
36.18378008920013
 20
32.32152904149996
 30
0.0
 10
36.00739137970004
 20
32.14396685359998
 30
0.0
1001
ACAD
1000
RTMaterial
1005
0
  0
SPLINE
  5
611AB
330
1F
100
AcDbEntity
  8
cut
100
AcDbSpline
210
0.0
220
0.0
230
1.0
 70
     8
 71
     3
 72
    15
 73
    11
 74
     0
 42
0.0000000001
 43
0.0000000001
 40
0.0
 40
0.0
 40
0.0
 40
0.0
 40
0.125
 40
0.25
 40
0.375
 40
0.5
 40
0.625
 40
0.75
 40
0.875
 40
1.0
 40
1.0
 40
1.0
 40
1.0
 10
36.00739137970004
 20
32.14396685359998
 30
0.0
 10
35.9798508089001
 20
32.11624306100004
 30
0.0
 10
35.92703140790013
 20
32.05831623759997
 30
0.0
 10
35.85397353420012
 20
31.96272253730001
 30
0.0
 10
35.78950490380009
 20
31.8616500645
 30
0.0
 10
35.7331951028001
 20
31.7544043291
 30
0.0
 10
35.68594524660011
 20
31.64210117419998
 30
0.0
 10
35.64802965870013
 20
31.52592491030004
 30
0.0
 10
35.61954768110013
 20
31.40569539739999
 30
0.0
 10
35.60728950840007
 20
31.32429514699999
 30
0.0
 10
35.60283569300009
 20
31.28315876329998
 30
0.0
1001
ACAD
1000
RTMaterial
1005
0
  0
LINE
  5
611AC
330
1F
100
AcDbEntity
  8
cut
100
AcDbLine
 10
35.60283569300009
 20
31.28315876329998
 30
0.0
 11
35.59980660150007
 21
31.25218573439997
 31
0.0
1001
ACAD
1000
RTMaterial
1005
0
  0
LINE
  5
611AD
330
1F
100
AcDbEntity
  8
cut
100
AcDbLine
 10
35.59980660150007
 20
31.25218573439997
 30
0.0
 11
35.59850311520018
 21
31.22068367700001
 31
0.0
1001
ACAD
1000
RTMaterial
1005
0
  0
SPLINE
  5
611AE
330
1F
100
AcDbEntity
  8
cut
100
AcDbSpline
210
0.0
220
0.0
230
1.0
 70
     8
 71
     3
 72
    10
 73
     6
 74
     0
 42
0.0000000001
 43
0.0000000001
 40
0.0
 40
0.0
 40
0.0
 40
0.0
 40
0.3333333333
 40
0.6666666667
 40
1.0
 40
1.0
 40
1.0
 40
1.0
 10
35.59850311520018
 20
31.22068367700001
 30
0.0
 10
35.59765380840008
 20
31.19316042469995
 30
0.0
 10
35.59749291410014
 20
31.13842079659998
 30
0.0
 10
35.60166347220013
 20
31.05695687349999
 30
0.0
 10
35.60733635250017
 20
31.00364193009994
 30
0.0
 10
35.61086566740005
 20
30.97718145539995
 30
0.0
1001
ACAD
1000
RTMaterial
1005
0
  0
SPLINE
  5
611AF
330
1F
100
AcDbEntity
  8
cut
100
AcDbSpline
210
0.0
220
0.0
230
1.0
 70
     8
 71
     3
 72
    15
 73
    11
 74
     0
 42
0.0000000001
 43
0.0000000001
 40
0.0
 40
0.0
 40
0.0
 40
0.0
 40
0.125
 40
0.25
 40
0.375
 40
0.5
 40
0.625
 40
0.75
 40
0.875
 40
1.0
 40
1.0
 40
1.0
 40
1.0
 10
35.61086566740005
 20
30.97718145539995
 30
0.0
 10
35.61472040260014
 20
30.94828119359994
 30
0.0
 10
35.62414561890012
 20
30.89081465820004
 30
0.0
 10
35.64366772280005
 20
30.80507590820003
 30
0.0
 10
35.66834074950009
 20
30.72148455850004
 30
0.0
 10
35.69824883050012
 20
30.63892486460003
 30
0.0
 10
35.73346042880007
 20
30.55807649869996
 30
0.0
 10
35.77435468330009
 20
30.47875541070005
 30
0.0
 10
35.8209722539001
 20
30.40115055839999
 30
0.0
 10
35.85575084790014
 20
30.35100286990001
 30
0.0
 10
35.87413048300016
 20
30.32633061079997
 30
0.0
1001
ACAD
1000
RTMaterial
1005
0
  0
SPLINE
  5
611B0
330
1F
100
AcDbEntity
  8
cut
100
AcDbSpline
210
0.0
220
0.0
230
1.0
 70
     8
 71
     3
 72
    17
 73
    13
 74
     0
 42
0.0000000001
 43
0.0000000001
 40
0.0
 40
0.0
 40
0.0
 40
0.0
 40
0.1
 40
0.2
 40
0.3
 40
0.4
 40
0.5
 40
0.6
 40
0.7
 40
0.8
 40
0.9
 40
1.0
 40
1.0
 40
1.0
 40
1.0
 10
35.87413048300016
 20
30.32633061079997
 30
0.0
 10
35.92399046660012
 20
30.25940009609997
 30
0.0
 10
36.02810607070012
 20
30.11965507049996
 30
0.0
 10
36.19723523390007
 20
29.89270549439999
 30
0.0
 10
36.38003627870012
 20
29.64748091159999
 30
0.0
 10
36.57604044210007
 20
29.38462851009996
 30
0.0
 10
36.78757435630007
 20
29.10104873199998
 30
0.0
 10
37.01536862720014
 20
28.7957900024
 30
0.0
 10
37.2606140736001
 20
28.46728788019999
 30
0.0
 10
37.52440072110017
 20
28.1141205907
 30
0.0
 10
37.80765846360009
 20
27.73508902219999
 30
0.0
 10
38.01049698790007
 20
27.46383149089997
 30
0.0
 10
38.11533796630011
 20
27.32367582579997
 30
0.0
1001
ACAD
1000
RTMaterial
1005
0
  0
SPLINE
  5
611B1
330
1F
100
AcDbEntity
  8
cut
100
AcDbSpline
210
0.0
220
0.0
230
1.0
 70
     8
 71
     3
 72
    11
 73
     7
 74
     0
 42
0.0000000001
 43
0.0000000001
 40
0.0
 40
0.0
 40
0.0
 40
0.0
 40
0.25
 40
0.5
 40
0.75
 40
1.0
 40
1.0
 40
1.0
 40
1.0
 10
38.11533796630011
 20
27.32367582579997
 30
0.0
 10
38.16360441180007
 20
27.2591512871
 30
0.0
 10
38.26645938670015
 20
27.12206113880001
 30
0.0
 10
38.44078271420006
 20
26.89143129530004
 30
0.0
 10
38.63302092730009
 20
26.63924188890002
 30
0.0
 10
38.77416415640016
 20
26.45587462689997
 30
0.0
 10
38.84799208890013
 20
26.36052812789996
 30
0.0
1001
ACAD
1000
RTMaterial
1005
0
  0
SPLINE
  5
611B2
330
1F
100
AcDbEntity
  8
cut
100
AcDbSpline
210
0.0
220
0.0
230
1.0
 70
     8
 71
     3
 72
    10
 73
     6
 74
     0
 42
0.0000000001
 43
0.0000000001
 40
0.0
 40
0.0
 40
0.0
 40
0.0
 40
0.3333333333
 40
0.6666666667
 40
1.0
 40
1.0
 40
1.0
 40
1.0
 10
38.84799208890013
 20
26.36052812789996
 30
0.0
 10
38.86727415700011
 20
26.33683110119995
 30
0.0
 10
38.90707708300011
 20
26.29179439170002
 30
0.0
 10
38.97040046610016
 20
26.23054906469997
 30
0.0
 10
39.01406693270008
 20
26.19450690689996
 30
0.0
 10
39.03627815450011
 20
26.17754923030003
 30
0.0
1001
ACAD
1000
RTMaterial
1005
0
  0
SPLINE
  5
611B3
330
1F
100
AcDbEntity
  8
cut
100
AcDbSpline
210
0.0
220
0.0
230
1.0
 70
     8
 71
     3
 72
    10
 73
     6
 74
     0
 42
0.0000000001
 43
0.0000000001
 40
0.0
 40
0.0
 40
0.0
 40
0.0
 40
0.3333333333
 40
0.6666666667
 40
1.0
 40
1.0
 40
1.0
 40
1.0
 10
39.03627815450011
 20
26.17754923030003
 30
0.0
 10
39.04389108670012
 20
26.17173695920002
 30
0.0
 10
39.05938004640006
 20
26.16037006430003
 30
0.0
 10
39.08344894760012
 20
26.14409947210004
 30
0.0
 10
39.10000189790014
 20
26.13381413809998
 30
0.0
 10
39.10840894260014
 20
26.12880782780002
 30
0.0
1001
ACAD
1000
RTMaterial
1005
0
  0
SPLINE
  5
611B4
330
1F
100
AcDbEntity
  8
cut
100
AcDbSpline
210
0.0
220
0.0
230
1.0
 70
     8
 71
     3
 72
    22
 73
    18
 74
     0
 42
0.0000000001
 43
0.0000000001
 40
0.0
 40
0.0
 40
0.0
 40
0.0
 40
0.0666666667
 40
0.1333333333
 40
0.2
 40
0.2666666667
 40
0.3333333333
 40
0.4
 40
0.4666666667000001
 40
0.5333333333
 40
0.6
 40
0.6666666667
 40
0.7333333333
 40
0.8
 40
0.8666666667000001
 40
0.9333333333
 40
1.0
 40
1.0
 40
1.0
 40
1.0
 10
39.10840894260014
 20
26.12880782780002
 30
0.0
 10
39.13237155340016
 20
26.11453833500002
 30
0.0
 10
39.17993791350011
 20
26.08635416200002
 30
0.0
 10
39.24937383450015
 20
26.045624981
 30
0.0
 10
39.31938737650012
 20
26.00496159839997
 30
0.0
 10
39.39173941150011
 20
25.96338301829997
 30
0.0
 10
39.46808521820015
 20
25.91998998880001
 30
0.0
 10
39.54727397700015
 20
25.87549260269998
 30
0.0
 10
39.6283427108001
 20
25.83046547660001
 30
0.0
 10
39.71024831610009
 20
25.78549664780002
 30
0.0
 10
39.79202047240006
 20
25.74111731479997
 30
0.0
 10
39.87247982110011
 20
25.69796010430002
 30
0.0
 10
39.9505898133001
 20
25.65655990710002
 30
0.0
 10
40.02503490920014
 20
25.61756262039995
 30
0.0
 10
40.09743479920007
 20
25.58006057649999
 30
0.0
 10
40.16949178160007
 20
25.54313652229996
 30
0.0
 10
40.21923035910015
 20
25.51792062479996
 30
0.0
 10
40.24436606730012
 20
25.50524885259995
 30
0.0
1001
ACAD
1000
RTMaterial
1005
0
  0
LINE
  5
611B5
330
1F
100
AcDbEntity
  8
cut
100
AcDbLine
 10
40.24436606730012
 20
25.50524885259995
 30
0.0
 11
40.27380764000008
 21
25.49038993459999
 31
0.0
1001
ACAD
1000
RTMaterial
1005
0
  0
SPLINE
  5
611B6
330
1F
100
AcDbEntity
  8
cut
100
AcDbSpline
210
0.0
220
0.0
230
1.0
 70
     8
 71
     3
 72
    10
 73
     6
 74
     0
 42
0.0000000001
 43
0.0000000001
 40
0.0
 40
0.0
 40
0.0
 40
0.0
 40
0.3333333333
 40
0.6666666667
 40
1.0
 40
1.0
 40
1.0
 40
1.0
 10
40.27380764000008
 20
25.49038993459999
 30
0.0
 10
40.31421187620014
 20
25.46997256909998
 30
0.0
 10
40.3963579207001
 20
25.43215437129999
 30
0.0
 10
40.52421426730006
 20
25.38414747909996
 30
0.0
 10
40.61116365930013
 20
25.35835641259996
 30
0.0
 10
40.65518923280012
 20
25.34701174920002
 30
0.0
1001
ACAD
1000
RTMaterial
1005
0
  0
SPLINE
  5
611B7
330
1F
100
AcDbEntity
  8
cut
100
AcDbSpline
210
0.0
220
0.0
230
1.0
 70
     8
 71
     3
 72
    21
 73
    17
 74
     0
 42
0.0000000001
 43
0.0000000001
 40
0.0
 40
0.0
 40
0.0
 40
0.0
 40
0.0714285714
 40
0.1428571429
 40
0.2142857143
 40
0.2857142857
 40
0.3571428571
 40
0.4285714286
 40
0.5
 40
0.5714285714000001
 40
0.6428571429
 40
0.7142857143000001
 40
0.7857142857
 40
0.8571428570999998
 40
0.9285714285999999
 40
1.0
 40
1.0
 40
1.0
 40
1.0
 10
40.65518923280012
 20
25.34701174920002
 30
0.0
 10
40.73913052890008
 20
25.32538146329995
 30
0.0
 10
40.91460564700014
 20
25.28016585439997
 30
0.0
 10
41.19958754820015
 20
25.20673396500001
 30
0.0
 10
41.50936204050014
 20
25.126917118
 30
0.0
 10
41.84529226430015
 20
25.04036435799998
 30
0.0
 10
42.20858571120015
 20
24.9467655899
 30
0.0
 10
42.60048529480013
 20
24.84580187719996
 30
0.0
 10
43.02490611830012
 20
24.73646534099998
 30
0.0
 10
43.48355600210015
 20
24.61831789769997
 30
0.0
 10
43.97877036250008
 20
24.49075980750001
 30
0.0
 10
44.51274695580013
 20
24.35322687689995
 30
0.0
 10
45.08769033190015
 20
24.20515365890003
 30
0.0
 10
45.70586653950011
 20
24.04595946239999
 30
0.0
 10
46.36919932280011
 20
23.87515224949999
 30
0.0
 10
46.84361271770012
 20
23.7530038635
 30
0.0
 10
47.08869359390007
 20
23.6899058857
 30
0.0
1001
ACAD
1000
RTMaterial
1005
0
  0
SPLINE
  5
611B8
330
1F
100
AcDbEntity
  8
cut
100
AcDbSpline
210
0.0
220
0.0
230
1.0
 70
     8
 71
     3
 72
    14
 73
    10
 74
     0
 42
0.0000000001
 43
0.0000000001
 40
0.0
 40
0.0
 40
0.0
 40
0.0
 40
0.1428571429
 40
0.2857142857
 40
0.4285714286
 40
0.5714285714000001
 40
0.7142857143000001
 40
0.8571428570999998
 40
1.0
 40
1.0
 40
1.0
 40
1.0
 10
47.08869359390007
 20
23.6899058857
 30
0.0
 10
47.13887901370014
 20
23.67698525899999
 30
0.0
 10
47.23805981410009
 20
23.6556153857
 30
0.0
 10
47.38418965600004
 20
23.63630038380001
 30
0.0
 10
47.52427741610006
 20
23.62935503810001
 30
0.0
 10
47.65887147440008
 20
23.63433627159998
 30
0.0
 10
47.7862326509001
 20
23.650196101
 30
0.0
 10
47.90678002550009
 20
23.6761779135
 30
0.0
 10
47.98119398070008
 20
23.69938646469996
 30
0.0
 10
48.01710647600009
 20
23.7123246113
 30
0.0
1001
ACAD
1000
RTMaterial
1005
0
  0
SPLINE
  5
611B9
330
1F
100
AcDbEntity
  8
cut
100
AcDbSpline
210
0.0
220
0.0
230
1.0
 70
     8
 71
     3
 72
    10
 73
     6
 74
     0
 42
0.0000000001
 43
0.0000000001
 40
0.0
 40
0.0
 40
0.0
 40
0.0
 40
0.3333333333
 40
0.6666666667
 40
1.0
 40
1.0
 40
1.0
 40
1.0
 10
48.01710647600009
 20
23.7123246113
 30
0.0
 10
48.02316742510004
 20
23.7145081813
 30
0.0
 10
48.03515708470007
 20
23.71901005030003
 30
0.0
 10
48.05275355090009
 20
23.72616914209999
 30
0.0
 10
48.06421214010009
 20
23.73119831460002
 30
0.0
 10
48.06987613170008
 20
23.73377458320005
 30
0.0
1001
ACAD
1000
RTMaterial
1005
0
  0
SPLINE
  5
611BA
330
1F
100
AcDbEntity
  8
cut
100
AcDbSpline
210
0.0
220
0.0
230
1.0
 70
     8
 71
     3
 72
    10
 73
     6
 74
     0
 42
0.0000000001
 43
0.0000000001
 40
0.0
 40
0.0
 40
0.0
 40
0.0
 40
0.3333333333
 40
0.6666666667
 40
1.0
 40
1.0
 40
1.0
 40
1.0
 10
48.06987613170008
 20
23.73377458320005
 30
0.0
 10
48.0928901832001
 20
23.74424253299998
 30
0.0
 10
48.13750195600005
 20
23.76622175390003
 30
0.0
 10
48.20057202800007
 20
23.8021244816
 30
0.0
 10
48.23960469110011
 20
23.82763128009998
 30
0.0
 10
48.25844612400004
 20
23.84075054619996
 30
0.0
1001
ACAD
1000
RTMaterial
1005
0
  0
SPLINE
  5
611BB
330
1F
100
AcDbEntity
  8
cut
100
AcDbSpline
210
0.0
220
0.0
230
1.0
 70
     8
 71
     3
 72
    15
 73
    11
 74
     0
 42
0.0000000001
 43
0.0000000001
 40
0.0
 40
0.0
 40
0.0
 40
0.0
 40
0.125
 40
0.25
 40
0.375
 40
0.5
 40
0.625
 40
0.75
 40
0.875
 40
1.0
 40
1.0
 40
1.0
 40
1.0
 10
48.25844612400004
 20
23.84075054619996
 30
0.0
 10
48.28054176850009
 20
23.85613571579995
 30
0.0
 10
48.32354998030007
 20
23.8884754723
 30
0.0
 10
48.38499531530004
 20
23.94219164939995
 30
0.0
 10
48.44184110770015
 20
23.99974275859995
 30
0.0
 10
48.49485617610014
 20
24.06120489699998
 30
0.0
 10
48.5435009506001
 20
24.12599046039998
 30
0.0
 10
48.5879481257001
 20
24.19407852810002
 30
0.0
 10
48.62838729440011
 20
24.2652573725
 30
0.0
 10
48.65274343940007
 20
24.3147558728
 30
0.0
 10
48.66426485990007
 20
24.34001786859994
 30
0.0
1001
ACAD
1000
RTMaterial
1005
0
  0
SPLINE
  5
611BC
330
1F
100
AcDbEntity
  8
cut
100
AcDbSpline
210
0.0
220
0.0
230
1.0
 70
     8
 71
     3
 72
    16
 73
    12
 74
     0
 42
0.0000000001
 43
0.0000000001
 40
0.0
 40
0.0
 40
0.0
 40
0.0
 40
0.1111111111
 40
0.2222222222
 40
0.3333333333
 40
0.4444444444000001
 40
0.5555555556
 40
0.6666666667
 40
0.7777777778
 40
0.8888888889
 40
1.0
 40
1.0
 40
1.0
 40
1.0
 10
48.66426485990007
 20
24.34001786859994
 30
0.0
 10
48.70145119130007
 20
24.4215530363
 30
0.0
 10
48.77952469160016
 20
24.59282782240001
 30
0.0
 10
48.90760636590016
 20
24.87413140350003
 30
0.0
 10
49.04694845550011
 20
25.18053979579998
 30
0.0
 10
49.19790508280005
 20
25.51291031099998
 30
0.0
 10
49.36216326940007
 20
25.87504678579995
 30
0.0
 10
49.54046518640007
 20
26.26868853960002
 30
0.0
 10
49.73387691540017
 20
26.69629881369997
 30
0.0
 10
49.94319642880009
 20
27.15976121439997
 30
0.0
 10
50.09425048740013
 20
27.49472236149995
 30
0.0
 10
50.17256837870013
 20
27.66853064750001
 30
0.0
1001
ACAD
1000
RTMaterial
1005
0
  0
SPLINE
  5
611BD
330
1F
100
AcDbEntity
  8
cut
100
AcDbSpline
210
0.0
220
0.0
230
1.0
 70
     8
 71
     3
 72
    11
 73
     7
 74
     0
 42
0.0000000001
 43
0.0000000001
 40
0.0
 40
0.0
 40
0.0
 40
0.0
 40
0.25
 40
0.5
 40
0.75
 40
1.0
 40
1.0
 40
1.0
 40
1.0
 10
50.17256837870013
 20
27.66853064750001
 30
0.0
 10
50.2061582207001
 20
27.74307546419999
 30
0.0
 10
50.27775903700012
 20
27.90126960869998
 30
0.0
 10
50.39929977790007
 20
28.16699878740002
 30
0.0
 10
50.53355715370014
 20
28.45724978340001
 30
0.0
 10
50.63232699680009
 20
28.66823180149999
 30
0.0
 10
50.68404129410009
 20
28.77796159989998
 30
0.0
1001
ACAD
1000
RTMaterial
1005
0
  0
SPLINE
  5
611BE
330
1F
100
AcDbEntity
  8
cut
100
AcDbSpline
210
0.0
220
0.0
230
1.0
 70
     8
 71
     3
 72
    10
 73
     6
 74
     0
 42
0.0000000001
 43
0.0000000001
 40
0.0
 40
0.0
 40
0.0
 40
0.0
 40
0.3333333333
 40
0.6666666667
 40
1.0
 40
1.0
 40
1.0
 40
1.0
 10
50.68404129410009
 20
28.77796159989998
 30
0.0
 10
50.69697494250011
 20
28.8071503223
 30
0.0
 10
50.71989210300012
 20
28.8652677856
 30
0.0
 10
50.74629282720014
 20
28.95187566969998
 30
0.0
 10
50.75858638230011
 20
29.00803466140002
 30
0.0
 10
50.7635500089001
 20
29.0357936927
 30
0.0
1001
ACAD
1000
RTMaterial
1005
0
  0
SPLINE
  5
611BF
330
1F
100
AcDbEntity
  8
cut
100
AcDbSpline
210
0.0
220
0.0
230
1.0
 70
     8
 71
     3
 72
    10
 73
     6
 74
     0
 42
0.0000000001
 43
0.0000000001
 40
0.0
 40
0.0
 40
0.0
 40
0.0
 40
0.3333333333
 40
0.6666666667
 40
1.0
 40
1.0
 40
1.0
 40
1.0
 10
50.7635500089001
 20
29.0357936927
 30
0.0
 10
50.76467850580013
 20
29.04210479969999
 30
0.0
 10
50.76680680280015
 20
29.0546672159
 30
0.0
 10
50.76959993570006
 20
29.07320382570004
 30
0.0
 10
50.77123908660007
 20
29.08560912339999
 30
0.0
 10
50.77199999940012
 20
29.09180255899997
 30
0.0
1001
ACAD
1000
RTMaterial
1005
0
  0
LINE
  5
611C0
330
1F
100
AcDbEntity
  8
cut
100
AcDbLine
 10
50.77199999940012
 20
29.09180255899997
 30
0.0
 11
50.77384048890007
 21
29.12352037469998
 31
0.0
1001
ACAD
1000
RTMaterial
1005
0
  0
SPLINE
  5
611C1
330
1F
100
AcDbEntity
  8
1
100
AcDbSpline
210
0.0
220
0.0
230
1.0
 70
     8
 71
     3
 72
    15
 73
    11
 74
     0
 42
0.0000000001
 43
0.0000000001
 40
0.0
 40
0.0
 40
0.0
 40
0.0
 40
0.1248035261
 40
0.2496613061
 40
0.3746006319
 40
0.499629273
 40
0.6247274788000001
 40
0.7498557666
 40
0.8749517093000001
 40
1.0
 40
1.0
 40
1.0
 40
1.0
 10
42.47838032410015
 20
31.41582619659999
 30
0.0
 10
42.44783736550004
 20
31.42010061000002
 30
0.0
 10
42.38516764020016
 20
31.4199729614
 30
0.0
 10
42.29520373150012
 20
31.39358510990002
 30
0.0
 10
42.2160356170001
 20
31.34314026799996
 30
0.0
 10
42.15400880540016
 20
31.27262210149996
 30
0.0
 10
42.11398861510008
 20
31.18760997369998
 30
0.0
 10
42.09915791940011
 20
31.09479756949998
 30
0.0
 10
42.11061583060007
 20
31.00158767639999
 30
0.0
 10
42.13532483520009
 20
30.9438698395
 30
0.0
 10
42.15134785190014
 20
30.91744749489999
 30
0.0
1001
ACAD
1000
RTMaterial
1005
0
  0
SPLINE
  5
611C2
330
1F
100
AcDbEntity
  8
1
100
AcDbSpline
210
0.0
220
0.0
230
1.0
 70
     8
 71
     3
 72
    15
 73
    11
 74
     0
 42
0.0000000001
 43
0.0000000001
 40
0.0
 40
0.0
 40
0.0
 40
0.0
 40
0.1249745627
 40
0.2500150505
 40
0.3751191411999999
 40
0.5002276074000001
 40
0.6252937521000001
 40
0.7502820067
 40
0.8751804444999999
 40
1.0
 40
1.0
 40
1.0
 40
1.0
 10
41.88167461650005
 20
29.78784660729997
 30
0.0
 10
41.85555894440006
 20
29.77160081799997
 30
0.0
 10
41.80763141390014
 20
29.73150367719995
 30
0.0
 10
41.75539850500013
 20
29.65397777420003
 30
0.0
 10
41.72656800510014
 20
29.56495231000003
 30
0.0
 10
41.72349063080014
 20
29.47143238689995
 30
0.0
 10
41.74637647570011
 20
29.38073273909998
 30
0.0
 10
41.79346557130009
 20
29.29994731789998
 30
0.0
 10
41.86098900880006
 20
29.2354404482
 30
0.0
 10
41.91633388030004
 20
29.20657895599999
 30
0.0
 10
41.94529149140009
 20
29.19632880170002
 30
0.0
1001
ACAD
1000
RTMaterial
1005
0
  0
SPLINE
  5
611C3
330
1F
100
AcDbEntity
  8
1
100
AcDbSpline
210
0.0
220
0.0
230
1.0
 70
     8
 71
     3
 72
     8
 73
     4
 74
     0
 42
0.0000000001
 43
0.0000000001
 40
0.0
 40
0.0
 40
0.0
 40
0.0
 40
1.0
 40
1.0
 40
1.0
 40
1.0
 10
41.94529149140009
 20
29.19632880170002
 30
0.0
 10
41.96601284100006
 20
29.18899404509995
 30
0.0
 10
41.98758188900012
 20
29.18372309699999
 30
0.0
 10
42.00935145060009
 20
29.18068020829998
 30
0.0
1001
ACAD
1000
RTMaterial
1005
0
  0
SPLINE
  5
611C4
330
1F
100
AcDbEntity
  8
1
100
AcDbSpline
210
0.0
220
0.0
230
1.0
 70
     8
 71
     3
 72
    15
 73
    11
 74
     0
 42
0.0000000001
 43
0.0000000001
 40
0.0
 40
0.0
 40
0.0
 40
0.0
 40
0.1251602541
 40
0.2502837245
 40
0.3753592817
 40
0.5003790434000001
 40
0.6253432712000001
 40
0.7502586988
 40
0.8751367873999999
 40
1.0
 40
1.0
 40
1.0
 40
1.0
 10
42.90329743620008
 20
28.37936629939998
 30
0.0
 10
42.90179923500011
 20
28.42739518369996
 30
0.0
 10
42.89038183010006
 20
28.52338724160001
 30
0.0
 10
42.84853007960009
 20
28.66201817719997
 30
0.0
 10
42.78322607950008
 20
28.79125681219995
 30
0.0
 10
42.69646241220004
 20
28.90709703959999
 30
0.0
 10
42.59089286730011
 20
29.00601335149998
 30
0.0
 10
42.46972643920014
 20
29.08497944890001
 30
0.0
 10
42.33672157120008
 20
29.14157314059997
 30
0.0
 10
42.24272535220007
 20
29.163259245
 30
0.0
 10
42.19524918950014
 20
29.16989892700002
 30
0.0
1001
ACAD
1000
RTMaterial
1005
0
  0
SPLINE
  5
611C5
330
1F
100
AcDbEntity
  8
1
100
AcDbSpline
210
0.0
220
0.0
230
1.0
 70
     8
 71
     3
 72
    11
 73
     7
 74
     0
 42
0.0000000001
 43
0.0000000001
 40
0.0
 40
0.0
 40
0.0
 40
0.0
 40
0.2502996486
 40
0.5003874572
 40
0.7502656923000001
 40
1.0
 40
1.0
 40
1.0
 40
1.0
 10
42.90329743620008
 20
28.37936629939998
 30
0.0
 10
42.90449150950007
 20
28.34108705670002
 30
0.0
 10
42.92045373080009
 20
28.26431796859998
 30
0.0
 10
42.98224356880007
 20
28.16486582299996
 30
0.0
 10
43.07424018250014
 20
28.0925700002
 30
0.0
 10
43.14872234790016
 20
28.06839576100003
 30
0.0
 10
43.1865651042001
 20
28.0631010605
 30
0.0
1001
ACAD
1000
RTMaterial
1005
0
  0
SPLINE
  5
611C6
330
1F
100
AcDbEntity
  8
1
100
AcDbSpline
210
0.0
220
0.0
230
1.0
 70
     8
 71
     3
 72
     9
 73
     5
 74
     0
 42
0.0000000001
 43
0.0000000001
 40
0.0
 40
0.0
 40
0.0
 40
0.0
 40
0.5000427267000001
 40
1.0
 40
1.0
 40
1.0
 40
1.0
 10
44.63148275890012
 20
28.56295247989999
 30
0.0
 10
44.58889307850006
 20
28.58582399670002
 30
0.0
 10
44.4994988927001
 20
28.6241032584
 30
0.0
 10
44.40475545710012
 20
28.64602335630002
 30
0.0
 10
44.35688746780011
 20
28.65271992920003
 30
0.0
1001
ACAD
1000
RTMaterial
1005
0
  0
SPLINE
  5
611C7
330
1F
100
AcDbEntity
  8
1
100
AcDbSpline
210
0.0
220
0.0
230
1.0
 70
     8
 71
     3
 72
     9
 73
     5
 74
     0
 42
0.0000000001
 43
0.0000000001
 40
0.0
 40
0.0
 40
0.0
 40
0.0
 40
0.7495490479000001
 40
1.0
 40
1.0
 40
1.0
 40
1.0
 10
44.63148275890012
 20
28.56295247989999
 30
0.0
 10
44.65699841180014
 20
28.54925006009995
 30
0.0
 10
44.69374088410006
 20
28.53541210359998
 30
0.0
 10
44.73175567550015
 20
28.52838061979998
 30
0.0
 10
44.74133955420007
 20
28.52703937909996
 30
0.0
1001
ACAD
1000
RTMaterial
1005
0
  0
SPLINE
  5
611C8
330
1F
100
AcDbEntity
  8
1
100
AcDbSpline
210
0.0
220
0.0
230
1.0
 70
     8
 71
     3
 72
    15
 73
    11
 74
     0
 42
0.0000000001
 43
0.0000000001
 40
0.0
 40
0.0
 40
0.0
 40
0.0
 40
0.1249035286
 40
0.2498597456
 40
0.3748744754
 40
0.4999215358
 40
0.6249805071
 40
0.7500291854000001
 40
0.8750362872
 40
1.0
 40
1.0
 40
1.0
 40
1.0
 10
41.88167461650005
 20
29.78784660729997
 30
0.0
 10
41.92712916260006
 20
29.81612253989999
 30
0.0
 10
42.01275478640013
 20
29.88176551000004
 30
0.0
 10
42.11950147220011
 20
30.00314272029999
 30
0.0
 10
42.20079789310012
 20
30.1429886409
 30
0.0
 10
42.25348079570006
 20
30.29595925519999
 30
0.0
 10
42.27557978060008
 20
30.45624569210003
 30
0.0
 10
42.26623010360015
 20
30.6177749428
 30
0.0
 10
42.22584054890012
 20
30.77434970619999
 30
0.0
 10
42.17911880780014
 20
30.8716525127
 30
0.0
 10
42.15134785190014
 20
30.91744749489999
 30
0.0
1001
ACAD
1000
RTMaterial
1005
0
  0
SPLINE
  5
611C9
330
1F
100
AcDbEntity
  8
1
100
AcDbSpline
210
0.0
220
0.0
230
1.0
 70
     8
 71
     3
 72
    11
 73
     7
 74
     0
 42
0.0000000001
 43
0.0000000001
 40
0.0
 40
0.0
 40
0.0
 40
0.0
 40
0.2497812734
 40
0.4996706779000001
 40
0.7497377359000001
 40
1.0
 40
1.0
 40
1.0
 40
1.0
 10
42.86283241040007
 20
31.29014564649998
 30
0.0
 10
42.94461745690012
 20
31.27870418980001
 30
0.0
 10
43.11279884980012
 20
31.28072592079997
 30
0.0
 10
43.35190969140012
 20
31.35888914800001
 30
0.0
 10
43.55713000750006
 20
31.50464061649996
 30
0.0
 10
43.65907260200015
 20
31.63866899789997
 30
0.0
 10
43.69873652630007
 20
31.71128279699997
 30
0.0
1001
ACAD
1000
RTMaterial
1005
0
  0
SPLINE
  5
611CA
330
1F
100
AcDbEntity
  8
1
100
AcDbSpline
210
0.0
220
0.0
230
1.0
 70
     8
 71
     3
 72
    11
 73
     7
 74
     0
 42
0.0000000001
 43
0.0000000001
 40
0.0
 40
0.0
 40
0.0
 40
0.0
 40
0.2497807494
 40
0.499671638
 40
0.7497263809
 40
1.0
 40
1.0
 40
1.0
 40
1.0
 10
44.03315477410012
 20
31.87976451520001
 30
0.0
 10
44.00043538250009
 20
31.88434238939999
 30
0.0
 10
43.93315113740004
 20
31.88353502079997
 30
0.0
 10
43.83749256760006
 20
31.85226347829996
 30
0.0
 10
43.7553894578001
 20
31.79395505320002
 30
0.0
 10
43.71460549100004
 20
31.74033453200002
 30
0.0
 10
43.69873652630007
 20
31.71128279699997
 30
0.0
1001
ACAD
1000
RTMaterial
1005
0
  0
SPLINE
  5
611CB
330
1F
100
AcDbEntity
  8
1
100
AcDbSpline
210
0.0
220
0.0
230
1.0
 70
     8
 71
     3
 72
     8
 73
     4
 74
     0
 42
0.0000000001
 43
0.0000000001
 40
0.0
 40
0.0
 40
0.0
 40
0.0
 40
1.0
 40
1.0
 40
1.0
 40
1.0
 10
45.02447068880008
 20
30.77296664869999
 30
0.0
 10
45.06837702970005
 20
30.76682621680004
 30
0.0
 10
45.11292691320011
 20
30.76423922789996
 30
0.0
 10
45.15724861350008
 20
30.76526808990002
 30
0.0
1001
ACAD
1000
RTMaterial
1005
0
  0
SPLINE
  5
611CC
330
1F
100
AcDbEntity
  8
1
100
AcDbSpline
210
0.0
220
0.0
230
1.0
 70
     8
 71
     3
 72
     8
 73
     4
 74
     0
 42
0.0000000001
 43
0.0000000001
 40
0.0
 40
0.0
 40
0.0
 40
0.0
 40
1.0
 40
1.0
 40
1.0
 40
1.0
 10
45.21036842770013
 20
30.76218536739998
 30
0.0
 10
45.19280279690008
 20
30.76464064240003
 30
0.0
 10
45.17498023310008
 20
30.76567970299999
 30
0.0
 10
45.15724861350008
 20
30.76526808990002
 30
0.0
1001
ACAD
1000
RTMaterial
1005
0
  0
SPLINE
  5
611CD
330
1F
100
AcDbEntity
  8
1
100
AcDbSpline
210
0.0
220
0.0
230
1.0
 70
     8
 71
     3
 72
    27
 73
    23
 74
     0
 42
0.0000000001
 43
0.0000000001
 40
0.0
 40
0.0
 40
0.0
 40
0.0
 40
0.0623947125
 40
0.0936232012
 40
0.1248550523
 40
0.1872761331
 40
0.249720486
 40
0.2809806853999999
 40
0.3122477685
 40
0.3747459269
 40
0.4372685048
 40
0.4998100351
 40
0.5623628903000001
 40
0.6249181621000001
 40
0.6874666821
 40
0.7187637134
 40
0.7500560675
 40
0.8125675237000001
 40
0.8750532600999999
 40
0.9063133248999999
 40
0.9375658356999998
 40
1.0
 40
1.0
 40
1.0
 40
1.0
 10
44.05950983130003
 20
33.39212474100003
 30
0.0
 10
44.25193629360012
 20
33.36519373670001
 30
0.0
 10
44.5380014095001
 20
33.30000096129999
 30
0.0
 10
44.90332863380013
 20
33.16595722430003
 30
0.0
 10
45.25614513950017
 20
33.00136939589999
 30
0.0
 10
45.66907798350007
 20
32.74022005090001
 30
0.0
 10
46.03192559790011
 20
32.41288992450001
 30
0.0
 10
46.28575905840011
 20
32.11735376759998
 30
0.0
 10
46.51377234730012
 20
31.8012718768
 30
0.0
 10
46.74736887060009
 20
31.37141498659997
 30
0.0
 10
46.93655792030006
 20
30.8159280946
 30
0.0
 10
47.02953893030008
 20
30.23627821109994
 30
0.0
 10
47.02356925230015
 20
29.64914786039998
 30
0.0
 10
46.91888284570007
 20
29.07144650600003
 30
0.0
 10
46.75167973290013
 20
28.61131054960003
 30
0.0
 10
46.57312204660013
 20
28.26448635320003
 30
0.0
 10
46.36597806760005
 20
27.93406677740001
 30
0.0
 10
46.05576966930016
 20
27.55582606890005
 30
0.0
 10
45.68621714080006
 20
27.23547909339999
 30
0.0
 10
45.36177618950012
 20
27.0196332795
 30
0.0
 10
45.02046205700014
 20
26.8321291291
 30
0.0
 10
44.74726564290017
 20
26.72460519399999
 30
0.0
 10
44.56095852050009
 20
26.66901170599999
 30
0.0
1001
ACAD
1000
RTMaterial
1005
0
  0
SPLINE
  5
611CE
330
1F
100
AcDbEntity
  8
1
100
AcDbSpline
210
0.0
220
0.0
230
1.0
 70
     8
 71
     3
 72
     9
 73
     5
 74
     0
 42
0.0000000001
 43
0.0000000001
 40
0.0
 40
0.0
 40
0.0
 40
0.0
 40
0.4999358793999999
 40
1.0
 40
1.0
 40
1.0
 40
1.0
 10
43.10324918460014
 20
26.55871187829996
 30
0.0
 10
43.34590717470007
 20
26.52475073139999
 30
0.0
 10
43.84001451630012
 20
26.5089181253
 30
0.0
 10
44.32610550960009
 20
26.59893227009997
 30
0.0
 10
44.56095852050009
 20
26.66901170599999
 30
0.0
1001
ACAD
1000
RTMaterial
1005
0
  0
SPLINE
  5
611CF
330
1F
100
AcDbEntity
  8
1
100
AcDbSpline
210
0.0
220
0.0
230
1.0
 70
     8
 71
     3
 72
     9
 73
     5
 74
     0
 42
0.0000000001
 43
0.0000000001
 40
0.0
 40
0.0
 40
0.0
 40
0.0
 40
0.4999927562
 40
1.0
 40
1.0
 40
1.0
 40
1.0
 10
42.73467041420007
 20
31.30808005430004
 30
0.0
 10
42.68679942870005
 20
31.31477963539993
 30
0.0
 10
42.5920567042001
 20
31.3367006542
 30
0.0
 10
42.50266179660013
 20
31.37497807170002
 30
0.0
 10
42.46007517900011
 20
31.39784794359997
 30
0.0
1001
ACAD
1000
RTMaterial
1005
0
  0
SPLINE
  5
611D0
330
1F
100
AcDbEntity
  8
1
100
AcDbSpline
210
0.0
220
0.0
230
1.0
 70
     8
 71
     3
 72
    27
 73
    23
 74
     0
 42
0.0000000001
 43
0.0000000001
 40
0.0
 40
0.0
 40
0.0
 40
0.0
 40
0.0624341643
 40
0.0936866751
 40
0.1249467399
 40
0.1874324763
 40
0.2499439325
 40
0.2812362866
 40
0.3125333179
 40
0.3750818379
 40
0.4376371097
 40
0.5001899649000001
 40
0.5627314952
 40
0.6252540731
 40
0.6877522315000001
 40
0.7190193145999999
 40
0.750279514
 40
0.8127238669
 40
0.8751449476999999
 40
0.9063767988
 40
0.9376052875
 40
1.0
 40
1.0
 40
1.0
 40
1.0
 10
42.60180049540008
 20
33.28182491320001
 30
0.0
 10
42.41549337300011
 20
33.22623142520001
 30
0.0
 10
42.14229695890014
 20
33.11870749009995
 30
0.0
 10
41.80098282640005
 20
32.93120333969995
 30
0.0
 10
41.47654187510011
 20
32.71535752579996
 30
0.0
 10
41.10698934660013
 20
32.39501055030002
 30
0.0
 10
40.79678094830012
 20
32.01676984180006
 30
0.0
 10
40.58963696930016
 20
31.68635026600004
 30
0.0
 10
40.41107928290012
 20
31.33952606960003
 30
0.0
 10
40.24387617020011
 20
30.87939011320003
 30
0.0
 10
40.1391897635001
 20
30.30168875879997
 30
0.0
 10
40.1332200856001
 20
29.7145584081
 30
0.0
 10
40.22620109560011
 20
29.13490852460001
 30
0.0
 10
40.41539014530008
 20
28.57942163259997
 30
0.0
 10
40.64898666860017
 20
28.1495647424
 30
0.0
 10
40.87699995750006
 20
27.83348285159997
 30
0.0
 10
41.13083341800006
 20
27.53794669469994
 30
0.0
 10
41.4936810324001
 20
27.21061656829994
 30
0.0
 10
41.90661387640012
 20
26.94946722329996
 30
0.0
 10
42.25943038210004
 20
26.78487939490003
 30
0.0
 10
42.62475760640007
 20
26.65083565789996
 30
0.0
 10
42.91082272230005
 20
26.5856428825
 30
0.0
 10
43.10324918460014
 20
26.55871187829996
 30
0.0
1001
ACAD
1000
RTMaterial
1005
0
  0
SPLINE
  5
611D1
330
1F
100
AcDbEntity
  8
1
100
AcDbSpline
210
0.0
220
0.0
230
1.0
 70
     8
 71
     3
 72
     9
 73
     5
 74
     0
 42
0.0000000001
 43
0.0000000001
 40
0.0
 40
0.0
 40
0.0
 40
0.0
 40
0.5000641206000001
 40
1.0
 40
1.0
 40
1.0
 40
1.0
 10
42.60180049540008
 20
33.28182491320001
 30
0.0
 10
42.83665350630008
 20
33.35190434920003
 30
0.0
 10
43.32274449960005
 20
33.4419184939
 30
0.0
 10
43.8168518412001
 20
33.42608588780001
 30
0.0
 10
44.05950983130003
 20
33.39212474100003
 30
0.0
1001
ACAD
1000
RTMaterial
1005
0
  0
SPLINE
  5
611D2
330
1F
100
AcDbEntity
  8
1
100
AcDbSpline
210
0.0
220
0.0
230
1.0
 70
     8
 71
     3
 72
    27
 73
    23
 74
     0
 42
0.0000000001
 43
0.0000000001
 40
0.0
 40
0.0
 40
0.0
 40
0.0
 40
0.0624427899
 40
0.0937102059
 40
0.1249873065
 40
0.1874900014
 40
0.2500207912
 40
0.281332068
 40
0.3126473387
 40
0.3752087474
 40
0.4377679573
 40
0.5003130489000001
 40
0.562834304
 40
0.6253256282000001
 40
0.6877854148
 40
0.7190421229
 40
0.7502924867000001
 40
0.8127033279999999
 40
0.8751043047999999
 40
0.9063425463999999
 40
0.9375810863999999
 40
1.0
 40
1.0
 40
1.0
 40
1.0
 10
42.94232396630014
 20
32.22458982820001
 30
0.0
 10
42.79539277940012
 20
32.18074600159997
 30
0.0
 10
42.58060998640007
 20
32.09286814699999
 30
0.0
 10
42.31641399380009
 20
31.93597789109998
 30
0.0
 10
42.06862895770007
 20
31.75385856859998
 30
0.0
 10
41.7941686905001
 20
31.48180029529999
 30
0.0
 10
41.57804740950007
 20
31.1613255991
 30
0.0
 10
41.44516016180012
 20
30.88372855579996
 30
0.0
 10
41.33998129080009
 20
30.59442217980001
 30
0.0
 10
41.26244809620004
 20
30.21545749699999
 30
0.0
 10
41.25975460630013
 20
29.75174573430002
 30
0.0
 10
41.34731277640014
 20
29.29638868090001
 30
0.0
 10
41.52185035140007
 20
28.86696817019998
 30
0.0
 10
41.7765496574001
 20
28.4800145163
 30
0.0
 10
42.04784489590008
 20
28.20505532259995
 30
0.0
 10
42.29346524210007
 20
28.02039581789995
 30
0.0
 10
42.5559012824001
 20
27.86075097840001
 30
0.0
 10
42.91144287640008
 20
27.71082044489998
 30
0.0
 10
43.28943248540008
 20
27.63346611640003
 30
0.0
 10
43.59607913320007
 20
27.61680394019999
 30
0.0
 10
43.90282932410014
 20
27.63027192259995
 30
0.0
 10
44.13052090720009
 20
27.67444868539997
 30
0.0
 10
44.27739591190004
 20
27.7182757475
 30
0.0
1001
ACAD
1000
RTMaterial
1005
0
  0
SPLINE
  5
611D3
330
1F
100
AcDbEntity
  8
1
100
AcDbSpline
210
0.0
220
0.0
230
1.0
 70
     8
 71
     3
 72
     8
 73
     4
 74
     0
 42
0.0000000001
 43
0.0000000001
 40
0.0
 40
0.0
 40
0.0
 40
0.0
 40
1.0
 40
1.0
 40
1.0
 40
1.0
 10
42.46007517900011
 20
31.39784794359997
 30
0.0
 10
42.44521713370011
 20
31.40582701339997
 30
0.0
 10
42.42969427700006
 20
31.41267181539996
 30
0.0
 10
42.41378786170014
 20
31.41827654689996
 30
0.0
1001
ACAD
1000
RTMaterial
1005
0
  0
SPLINE
  5
611D4
330
1F
100
AcDbEntity
  8
1
100
AcDbSpline
210
0.0
220
0.0
230
1.0
 70
     8
 71
     3
 72
    15
 73
    11
 74
     0
 42
0.0000000001
 43
0.0000000001
 40
0.0
 40
0.0
 40
0.0
 40
0.0
 40
0.1249035286
 40
0.2498597456
 40
0.3748744754
 40
0.4999215358
 40
0.6249805071
 40
0.7500291854000001
 40
0.8750362872
 40
1.0
 40
1.0
 40
1.0
 40
1.0
 10
45.33804526180006
 20
30.15501896839999
 30
0.0
 10
45.29259071560011
 20
30.12674303590001
 30
0.0
 10
45.20696509180015
 20
30.06110006579997
 30
0.0
 10
45.1002184061001
 20
29.93972285549995
 30
0.0
 10
45.0189219852001
 20
29.79987693479996
 30
0.0
 10
44.96623908260005
 20
29.64690632049997
 30
0.0
 10
44.94414009770014
 20
29.48661988359993
 30
0.0
 10
44.95348977470007
 20
29.32509063289996
 30
0.0
 10
44.9938793294001
 20
29.16851586949997
 30
0.0
 10
45.04060107050008
 20
29.07121306299996
 30
0.0
 10
45.06837202640008
 20
29.02541808079997
 30
0.0
1001
ACAD
1000
RTMaterial
1005
0
  0
SPLINE
  5
611D5
330
1F
100
AcDbEntity
  8
1
100
AcDbSpline
210
0.0
220
0.0
230
1.0
 70
     8
 71
     3
 72
    11
 73
     7
 74
     0
 42
0.0000000001
 43
0.0000000001
 40
0.0
 40
0.0
 40
0.0
 40
0.0
 40
0.2502234889999999
 40
0.500298469
 40
0.7502309122
 40
1.0
 40
1.0
 40
1.0
 40
1.0
 10
44.18826050170014
 20
31.58143412420003
 30
0.0
 10
44.18738193160016
 20
31.60959905990001
 30
0.0
 10
44.17834669280011
 20
31.6659501346
 30
0.0
 10
44.14383359440011
 20
31.74405113960001
 30
0.0
 10
44.0906911272001
 20
31.81082108329997
 30
0.0
 10
44.04499373170006
 20
31.84490510969994
 30
0.0
 10
44.02047704440008
 20
31.85869228649995
 30
0.0
1001
ACAD
1000
RTMaterial
1005
0
  0
SPLINE
  5
611D6
330
1F
100
AcDbEntity
  8
1
100
AcDbSpline
210
0.0
220
0.0
230
1.0
 70
     8
 71
     3
 72
     8
 73
     4
 74
     0
 42
0.0000000001
 43
0.0000000001
 40
0.0
 40
0.0
 40
0.0
 40
0.0
 40
1.0
 40
1.0
 40
1.0
 40
1.0
 10
44.02047704440008
 20
31.85869228649995
 30
0.0
 10
44.00372534580014
 20
31.86811275299999
 30
0.0
 10
43.98607943310014
 20
31.87609441810002
 30
0.0
 10
43.96793886170008
 20
31.88244140659998
 30
0.0
1001
ACAD
1000
RTMaterial
1005
0
  0
SPLINE
  5
611D7
330
1F
100
AcDbEntity
  8
1
100
AcDbSpline
210
0.0
220
0.0
230
1.0
 70
     8
 71
     3
 72
    15
 73
    11
 74
     0
 42
0.0000000001
 43
0.0000000001
 40
0.0
 40
0.0
 40
0.0
 40
0.0
 40
0.1248757498
 40
0.2497465242
 40
0.3746627943
 40
0.4996245048
 40
0.6246450574
 40
0.7497140269
 40
0.8748478632999999
 40
1.0
 40
1.0
 40
1.0
 40
1.0
 10
44.89630910690005
 20
30.79090406619997
 30
0.0
 10
44.84882795940007
 20
30.7975420473
 30
0.0
 10
44.75482911740004
 20
30.81922791939997
 30
0.0
 10
44.62182602210009
 20
30.87583022500002
 30
0.0
 10
44.50066206240012
 20
30.9547924808
 30
0.0
 10
44.39509324340008
 20
31.05370921289995
 30
0.0
 10
44.30833499620007
 20
31.16954846820005
 30
0.0
 10
44.24302363230014
 20
31.29878514960001
 30
0.0
 10
44.20117945900005
 20
31.4374165612
 30
0.0
 10
44.18975860220007
 20
31.5334084671
 30
0.0
 10
44.18826050170014
 20
31.58143412420003
 30
0.0
1001
ACAD
1000
RTMaterial
1005
0
  0
SPLINE
  5
611D8
330
1F
100
AcDbEntity
  8
1
100
AcDbSpline
210
0.0
220
0.0
230
1.0
 70
     8
 71
     3
 72
    15
 73
    11
 74
     0
 42
0.0000000001
 43
0.0000000001
 40
0.0
 40
0.0
 40
0.0
 40
0.0
 40
0.1249712139
 40
0.2500063639
 40
0.3751077101
 40
0.5002138165
 40
0.6252813567000001
 40
0.7502739849
 40
0.8751788063999999
 40
1.0
 40
1.0
 40
1.0
 40
1.0
 10
45.20988332140007
 20
30.17295381629998
 30
0.0
 10
45.23561795600005
 20
30.18896257339998
 30
0.0
 10
45.28290616920014
 20
30.22835912199997
 30
0.0
 10
45.33482816360015
 20
30.3044069417
 30
0.0
 10
45.36412539210004
 20
30.39180375170003
 30
0.0
 10
45.36848178280012
 20
30.48387214359997
 30
0.0
 10
45.34759910600008
 20
30.57362018680005
 30
0.0
 10
45.30302708270016
 20
30.654231971
 30
0.0
 10
45.23823356150012
 20
30.71953418869998
 30
0.0
 10
45.18462647000013
 20
30.74964146549997
 30
0.0
 10
45.15643963890011
 20
30.76068004649994
 30
0.0
1001
ACAD
1000
RTMaterial
1005
0
  0
LINE
  5
611D9
330
1F
100
AcDbEntity
  8
1
100
AcDbLine
 10
45.15643963890011
 20
30.76068004649994
 30
0.0
 11
45.14295967390012
 21
30.76562235299997
 31
0.0
1001
ACAD
1000
RTMaterial
1005
0
  0
SPLINE
  5
611DA
330
1F
100
AcDbEntity
  8
1
100
AcDbSpline
210
0.0
220
0.0
230
1.0
 70
     8
 71
     3
 72
    15
 73
    11
 74
     0
 42
0.0000000001
 43
0.0000000001
 40
0.0
 40
0.0
 40
0.0
 40
0.0
 40
0.1249599769
 40
0.2499720737
 40
0.3750190592
 40
0.5000784648
 40
0.6251259588
 40
0.7501389967000001
 40
0.8751002055
 40
1.0
 40
1.0
 40
1.0
 40
1.0
 10
44.94021008600009
 20
29.04335292859997
 30
0.0
 10
44.91243992880003
 20
29.08914659380002
 30
0.0
 10
44.86571936080008
 20
29.18645039299997
 30
0.0
 10
44.82532479970006
 20
29.34302401629998
 30
0.0
 10
44.81597766650009
 20
29.50455528509997
 30
0.0
 10
44.83807423670009
 20
29.66484186289995
 30
0.0
 10
44.89075935740004
 20
29.81781151199999
 30
0.0
 10
44.97205441960011
 20
29.95766038189998
 30
0.0
 10
45.07880505720004
 20
30.07903431130001
 30
0.0
 10
45.16443008250007
 20
30.14467869689998
 30
0.0
 10
45.20988332140007
 20
30.17295381629998
 30
0.0
1001
ACAD
1000
RTMaterial
1005
0
  0
SPLINE
  5
611DB
330
1F
100
AcDbEntity
  8
1
100
AcDbSpline
210
0.0
220
0.0
230
1.0
 70
     8
 71
     3
 72
    15
 73
    11
 74
     0
 42
0.0000000001
 43
0.0000000001
 40
0.0
 40
0.0
 40
0.0
 40
0.0
 40
0.1249929242
 40
0.2500590293
 40
0.3751822011
 40
0.5002973722000001
 40
0.6253498794
 40
0.7503080916
 40
0.8751765463999999
 40
1.0
 40
1.0
 40
1.0
 40
1.0
 10
45.33804526180006
 20
30.15501896839999
 30
0.0
 10
45.36647647620009
 20
30.17270518829997
 30
0.0
 10
45.41825407460009
 20
30.21713364689998
 30
0.0
 10
45.47203307890015
 20
30.30381601639999
 30
0.0
 10
45.49736209090008
 20
30.40274911299997
 30
0.0
 10
45.49178386320011
 20
30.50469993439998
 30
0.0
 10
45.45585543510014
 20
30.60022901420001
 30
0.0
 10
45.3928485432001
 20
30.68046462270002
 30
0.0
 10
45.30873320320006
 20
30.73793786399995
 30
0.0
 10
45.24348446320016
 20
30.7575565002
 30
0.0
 10
45.21036842770013
 20
30.76218536739998
 30
0.0
1001
ACAD
1000
RTMaterial
1005
0
  0
SPLINE
  5
611DC
330
1F
100
AcDbEntity
  8
1
100
AcDbSpline
210
0.0
220
0.0
230
1.0
 70
     8
 71
     3
 72
    11
 73
     7
 74
     0
 42
0.0000000001
 43
0.0000000001
 40
0.0
 40
0.0
 40
0.0
 40
0.0
 40
0.2502689694
 40
0.5003316144
 40
0.7502220338
 40
1.0
 40
1.0
 40
1.0
 40
1.0
 10
43.39282141160015
 20
28.24951762649994
 30
0.0
 10
43.43248639770012
 20
28.32213336969994
 30
0.0
 10
43.53443080300007
 20
28.45616088119999
 30
0.0
 10
43.73965057930013
 20
28.60191647670001
 30
0.0
 10
43.97876130010013
 20
28.68006907579996
 30
0.0
 10
44.14694222860009
 20
28.68210086049998
 30
0.0
 10
44.22872558330005
 20
28.67065521719997
 30
0.0
1001
ACAD
1000
RTMaterial
1005
0
  0
SPLINE
  5
611DD
330
1F
100
AcDbEntity
  8
1
100
AcDbSpline
210
0.0
220
0.0
230
1.0
 70
     8
 71
     3
 72
    15
 73
    11
 74
     0
 42
0.0000000001
 43
0.0000000001
 40
0.0
 40
0.0
 40
0.0
 40
0.0
 40
0.1251602541
 40
0.2502837245
 40
0.3753592817
 40
0.5003790434000001
 40
0.6253432712000001
 40
0.7502586988
 40
0.8751367873999999
 40
1.0
 40
1.0
 40
1.0
 40
1.0
 10
44.31642244200008
 20
31.56349927629998
 30
0.0
 10
44.31792064320006
 20
31.515470392
 30
0.0
 10
44.32933804820016
 20
31.41947833410001
 30
0.0
 10
44.37118979870013
 20
31.28084739859998
 30
0.0
 10
44.43649379880002
 20
31.15160876350001
 30
0.0
 10
44.52325746610006
 20
31.03576853619995
 30
0.0
 10
44.62882701100011
 20
30.93685222419998
 30
0.0
 10
44.74999343910008
 20
30.85788612680005
 30
0.0
 10
44.88299830710014
 20
30.80129243509998
 30
0.0
 10
44.97699452610016
 20
30.7796063308
 30
0.0
 10
45.02447068880008
 20
30.77296664869999
 30
0.0
1001
ACAD
1000
RTMaterial
1005
0
  0
SPLINE
  5
611DE
330
1F
100
AcDbEntity
  8
1
100
AcDbSpline
210
0.0
220
0.0
230
1.0
 70
     8
 71
     3
 72
     8
 73
     4
 74
     0
 42
0.0000000001
 43
0.0000000001
 40
0.0
 40
0.0
 40
0.0
 40
0.0
 40
1.0
 40
1.0
 40
1.0
 40
1.0
 10
41.9483378732001
 20
29.19573739250001
 30
0.0
 10
41.96901142690012
 20
29.19586207920003
 30
0.0
 10
41.98970434120008
 20
29.19520250219995
 30
0.0
 10
42.01032834000011
 20
29.19376652130001
 30
0.0
1001
ACAD
1000
RTMaterial
1005
0
  0
SPLINE
  5
611DF
330
1F
100
AcDbEntity
  8
1
100
AcDbSpline
210
0.0
220
0.0
230
1.0
 70
     8
 71
     3
 72
     8
 73
     4
 74
     0
 42
0.0000000001
 43
0.0000000001
 40
0.0
 40
0.0
 40
0.0
 40
0.0
 40
1.0
 40
1.0
 40
1.0
 40
1.0
 10
42.01032834000011
 20
29.19376652130001
 30
0.0
 10
42.02930507680014
 20
29.19244523380001
 30
0.0
 10
42.04824742620007
 20
29.19046500859997
 30
0.0
 10
42.06708689060008
 20
29.18783120519999
 30
0.0
1001
ACAD
1000
RTMaterial
1005
0
  0
SPLINE
  5
611E0
330
1F
100
AcDbEntity
  8
1
100
AcDbSpline
210
0.0
220
0.0
230
1.0
 70
     8
 71
     3
 72
    15
 73
    11
 74
     0
 42
0.0000000001
 43
0.0000000001
 40
0.0
 40
0.0
 40
0.0
 40
0.0
 40
0.1248035261
 40
0.2496613061
 40
0.3746006319
 40
0.499629273
 40
0.6247274788000001
 40
0.7498557666
 40
0.8749517093000001
 40
1.0
 40
1.0
 40
1.0
 40
1.0
 10
44.74133955420007
 20
28.52703937909996
 30
0.0
 10
44.77188251280006
 20
28.52276496570005
 30
0.0
 10
44.83455223810006
 20
28.52289261430002
 30
0.0
 10
44.92451614670005
 20
28.54928046579994
 30
0.0
 10
45.00368426120007
 20
28.59972530779998
 30
0.0
 10
45.06571107280012
 20
28.67024347419999
 30
0.0
 10
45.10573126320013
 20
28.75525560199998
 30
0.0
 10
45.12056195880006
 20
28.84806800619998
 30
0.0
 10
45.10910404770015
 20
28.94127789939995
 30
0.0
 10
45.08439504300008
 20
28.9989957363
 30
0.0
 10
45.06837202640008
 20
29.02541808079997
 30
0.0
1001
ACAD
1000
RTMaterial
1005
0
  0
SPLINE
  5
611E1
330
1F
100
AcDbEntity
  8
1
100
AcDbSpline
210
0.0
220
0.0
230
1.0
 70
     8
 71
     3
 72
    15
 73
    11
 74
     0
 42
0.0000000001
 43
0.0000000001
 40
0.0
 40
0.0
 40
0.0
 40
0.0
 40
0.1248198495
 40
0.2497009272
 40
0.3746642443
 40
0.4997044267000001
 40
0.6247961708
 40
0.7499053905
 40
0.8749776184999998
 40
1.0
 40
1.0
 40
1.0
 40
1.0
 10
44.67833385190011
 20
28.5423981957
 30
0.0
 10
44.70643494080014
 20
28.54408625489998
 30
0.0
 10
44.7624808380001
 20
28.55477728979997
 30
0.0
 10
44.83949808410011
 20
28.59167328659999
 30
0.0
 10
44.90468423230015
 20
28.64699573369995
 30
0.0
 10
44.95367881610014
 20
28.71710456839998
 30
0.0
 10
44.98328990750008
 20
28.79738119680002
 30
0.0
 10
44.9915495670001
 20
28.88256342199998
 30
0.0
 10
44.97796580560009
 20
28.9669926103
 30
0.0
 10
44.95483118170011
 20
29.01924238589998
 30
0.0
 10
44.94021008600009
 20
29.04335292859997
 30
0.0
1001
ACAD
1000
RTMaterial
1005
0
  0
SPLINE
  5
611E2
330
1F
100
AcDbEntity
  8
1
100
AcDbSpline
210
0.0
220
0.0
230
1.0
 70
     8
 71
     3
 72
    11
 73
     7
 74
     0
 42
0.0000000001
 43
0.0000000001
 40
0.0
 40
0.0
 40
0.0
 40
0.0
 40
0.2497812734
 40
0.4996706779000001
 40
0.7497377359000001
 40
1.0
 40
1.0
 40
1.0
 40
1.0
 10
44.35688746780011
 20
28.65271992920003
 30
0.0
 10
44.2751024214001
 20
28.6641613859
 30
0.0
 10
44.10692102850009
 20
28.66213965489999
 30
0.0
 10
43.8678101869001
 20
28.58397642770001
 30
0.0
 10
43.66258987080004
 20
28.4382249592
 30
0.0
 10
43.56064727620014
 20
28.30419657789997
 30
0.0
 10
43.52098335200014
 20
28.23158277869999
 30
0.0
1001
ACAD
1000
RTMaterial
1005
0
  0
SPLINE
  5
611E3
330
1F
100
AcDbEntity
  8
1
100
AcDbSpline
210
0.0
220
0.0
230
1.0
 70
     8
 71
     3
 72
    11
 73
     7
 74
     0
 42
0.0000000001
 43
0.0000000001
 40
0.0
 40
0.0
 40
0.0
 40
0.0
 40
0.2502996486
 40
0.5003874572
 40
0.7502656923000001
 40
1.0
 40
1.0
 40
1.0
 40
1.0
 10
44.31642244200008
 20
31.56349927629998
 30
0.0
 10
44.3152283687001
 20
31.60177851899994
 30
0.0
 10
44.29926614750013
 20
31.67854760710003
 30
0.0
 10
44.23747630950015
 20
31.77799975279999
 30
0.0
 10
44.14547969570015
 20
31.8502955756
 30
0.0
 10
44.07099753040017
 20
31.87446981469998
 30
0.0
 10
44.03315477410012
 20
31.87976451520001
 30
0.0
1001
ACAD
1000
RTMaterial
1005
0
  0
SPLINE
  5
611E4
330
1F
100
AcDbEntity
  8
1
100
AcDbSpline
210
0.0
220
0.0
230
1.0
 70
     8
 71
     3
 72
    11
 73
     7
 74
     0
 42
0.0000000001
 43
0.0000000001
 40
0.0
 40
0.0
 40
0.0
 40
0.0
 40
0.2497807494
 40
0.499671638
 40
0.7497263809
 40
1.0
 40
1.0
 40
1.0
 40
1.0
 10
43.1865651042001
 20
28.0631010605
 30
0.0
 10
43.21928449580013
 20
28.05852318630002
 30
0.0
 10
43.28656874090007
 20
28.05933055500003
 30
0.0
 10
43.38222731070016
 20
28.0906020974
 30
0.0
 10
43.46433042050011
 20
28.14891052250004
 30
0.0
 10
43.50511438730007
 20
28.20253104369999
 30
0.0
 10
43.52098335200014
 20
28.23158277869999
 30
0.0
1001
ACAD
1000
RTMaterial
1005
0
  0
SPLINE
  5
611E5
330
1F
100
AcDbEntity
  8
1
100
AcDbSpline
210
0.0
220
0.0
230
1.0
 70
     8
 71
     3
 72
    11
 73
     7
 74
     0
 42
0.0000000001
 43
0.0000000001
 40
0.0
 40
0.0
 40
0.0
 40
0.0
 40
0.2497849674
 40
0.4997030093000001
 40
0.7497650819000001
 40
1.0
 40
1.0
 40
1.0
 40
1.0
 10
43.12350790330003
 20
28.0784535139
 30
0.0
 10
43.15111596350004
 20
28.08010181359998
 30
0.0
 10
43.20617701370008
 20
28.09047345519997
 30
0.0
 10
43.28207024050016
 20
28.12618567759995
 30
0.0
 10
43.34668885000008
 20
28.17973773419999
 30
0.0
 10
43.37953928300009
 20
28.22520168099999
 30
0.0
 10
43.39282141160015
 20
28.24951762649994
 30
0.0
1001
ACAD
1000
RTMaterial
1005
0
  0
SPLINE
  5
611E6
330
1F
100
AcDbEntity
  8
1
100
AcDbSpline
210
0.0
220
0.0
230
1.0
 70
     8
 71
     3
 72
     9
 73
     5
 74
     0
 42
0.0000000001
 43
0.0000000001
 40
0.0
 40
0.0
 40
0.0
 40
0.0
 40
0.5000427267000001
 40
1.0
 40
1.0
 40
1.0
 40
1.0
 10
42.5882371194001
 20
31.37991309579997
 30
0.0
 10
42.63082679980016
 20
31.35704157899994
 30
0.0
 10
42.72022098560012
 20
31.31876231729996
 30
0.0
 10
42.8149644212001
 20
31.29684221939999
 30
0.0
 10
42.86283241040007
 20
31.29014564649998
 30
0.0
1001
ACAD
1000
RTMaterial
1005
0
  0
SPLINE
  5
611E7
330
1F
100
AcDbEntity
  8
1
100
AcDbSpline
210
0.0
220
0.0
230
1.0
 70
     8
 71
     3
 72
     9
 73
     5
 74
     0
 42
0.0000000001
 43
0.0000000001
 40
0.0
 40
0.0
 40
0.0
 40
0.0
 40
0.7495490479000001
 40
1.0
 40
1.0
 40
1.0
 40
1.0
 10
42.5882371194001
 20
31.37991309579997
 30
0.0
 10
42.56272146650007
 20
31.3936155156
 30
0.0
 10
42.52597899420004
 20
31.40745347210003
 30
0.0
 10
42.48796420280007
 20
31.41448495589998
 30
0.0
 10
42.47838032410015
 20
31.41582619659999
 30
0.0
1001
ACAD
1000
RTMaterial
1005
0
  0
SPLINE
  5
611E8
330
1F
100
AcDbEntity
  8
1
100
AcDbSpline
210
0.0
220
0.0
230
1.0
 70
     8
 71
     3
 72
     8
 73
     4
 74
     0
 42
0.0000000001
 43
0.0000000001
 40
0.0
 40
0.0
 40
0.0
 40
0.0
 40
1.0
 40
1.0
 40
1.0
 40
1.0
 10
42.19524918950014
 20
29.16989892700002
 30
0.0
 10
42.15134284850011
 20
29.17603935890003
 30
0.0
 10
42.10679296510011
 20
29.17862634789998
 30
0.0
 10
42.06247126480014
 20
29.17759748579999
 30
0.0
1001
ACAD
1000
RTMaterial
1005
0
  0
SPLINE
  5
611E9
330
1F
100
AcDbEntity
  8
1
100
AcDbSpline
210
0.0
220
0.0
230
1.0
 70
     8
 71
     3
 72
    27
 73
    23
 74
     0
 42
0.0000000001
 43
0.0000000001
 40
0.0
 40
0.0
 40
0.0
 40
0.0
 40
0.0624189136
 40
0.0936574536
 40
0.1248956952
 40
0.187296672
 40
0.2497075133
 40
0.2809578771
 40
0.3122145852
 40
0.3746743718
 40
0.4371656960000001
 40
0.4996869511
 40
0.5622320427
 40
0.6247912526000001
 40
0.6873526613
 40
0.718667932
 40
0.7499792088
 40
0.8125099985999998
 40
0.8750126935
 40
0.9062897940999999
 40
0.9375572100999999
 40
1.0
 40
1.0
 40
1.0
 40
1.0
 10
42.94232396630014
 20
32.22458982820001
 30
0.0
 10
43.08919897110013
 20
32.26841689029999
 30
0.0
 10
43.31689055410016
 20
32.31259365310001
 30
0.0
 10
43.62364074510014
 20
32.32606163549997
 30
0.0
 10
43.93028739290014
 20
32.30939945930004
 30
0.0
 10
44.30827700190014
 20
32.23204513079998
 30
0.0
 10
44.66381859590012
 20
32.08211459730001
 30
0.0
 10
44.92625463620015
 20
31.9224697578
 30
0.0
 10
45.17187498240014
 20
31.7378102532
 30
0.0
 10
45.44317022080008
 20
31.46285105939995
 30
0.0
 10
45.69786952690015
 20
31.07589740549997
 30
0.0
 10
45.87240710180014
 20
30.6464768948
 30
0.0
 10
45.95996527200009
 20
30.19111984149998
 30
0.0
 10
45.95727178200013
 20
29.72740807880001
 30
0.0
 10
45.87973858750013
 20
29.3484433959
 30
0.0
 10
45.7745597165001
 20
29.05913702000004
 30
0.0
 10
45.64167246880003
 20
28.78153997670001
 30
0.0
 10
45.42555118780012
 20
28.46106528039996
 30
0.0
 10
45.15109092060003
 20
28.18900700710003
 30
0.0
 10
44.90330588450013
 20
28.00688768469996
 30
0.0
 10
44.63910989190014
 20
27.84999742869997
 30
0.0
 10
44.4243270989001
 20
27.76211957420003
 30
0.0
 10
44.27739591190004
 20
27.7182757475
 30
0.0
1001
ACAD
1000
RTMaterial
1005
0
  0
SPLINE
  5
611EA
330
1F
100
AcDbEntity
  8
1
100
AcDbSpline
210
0.0
220
0.0
230
1.0
 70
     8
 71
     3
 72
     8
 73
     4
 74
     0
 42
0.0000000001
 43
0.0000000001
 40
0.0
 40
0.0
 40
0.0
 40
0.0
 40
1.0
 40
1.0
 40
1.0
 40
1.0
 10
42.00935145060009
 20
29.18068020829998
 30
0.0
 10
42.02691708140014
 20
29.17822493329999
 30
0.0
 10
42.04473964520014
 20
29.17718587269991
 30
0.0
 10
42.06247126480014
 20
29.17759748579999
 30
0.0
1001
ACAD
1000
RTMaterial
1005
0
  0
SPLINE
  5
611EB
330
1F
100
AcDbEntity
  8
1
100
AcDbSpline
210
0.0
220
0.0
230
1.0
 70
     8
 71
     3
 72
     9
 73
     5
 74
     0
 42
0.0000000001
 43
0.0000000001
 40
0.0
 40
0.0
 40
0.0
 40
0.0
 40
0.2479593616
 40
1.0
 40
1.0
 40
1.0
 40
1.0
 10
42.32850853960008
 20
36.94689674839998
 30
0.0
 10
42.42941804570011
 20
36.95669334299998
 30
0.0
 10
42.83629739960008
 20
36.9970266391
 30
0.0
 10
43.24285298620009
 20
37.04062957109994
 30
0.0
 10
43.54838147060013
 20
37.07529917339997
 30
0.0
1001
ACAD
1000
RTMaterial
1005
0
  0
LINE
  5
611EC
330
1F
100
AcDbEntity
  8
1
100
AcDbLine
 10
41.99621888410013
 20
36.8500133105
 30
0.0
 11
42.00069532570012
 21
36.85232534810001
 31
0.0
1001
ACAD
1000
RTMaterial
1005
0
  0
LINE
  5
611ED
330
1F
100
AcDbEntity
  8
1
100
AcDbLine
 10
42.00069532570012
 20
36.85232534810001
 30
0.0
 11
42.0093469044001
 21
36.85668194439995
 31
0.0
1001
ACAD
1000
RTMaterial
1005
0
  0
SPLINE
  5
611EE
330
1F
100
AcDbEntity
  8
1
100
AcDbSpline
210
0.0
220
0.0
230
1.0
 70
     8
 71
     3
 72
     8
 73
     4
 74
     0
 42
0.0000000001
 43
0.0000000001
 40
0.0
 40
0.0
 40
0.0
 40
0.0
 40
1.0
 40
1.0
 40
1.0
 40
1.0
 10
42.0093469044001
 20
36.85668194439995
 30
0.0
 10
42.02951927930008
 20
36.86666968920003
 30
0.0
 10
42.05018650720012
 20
36.87571548680001
 30
0.0
 10
42.07121407220006
 20
36.88374800009996
 30
0.0
1001
ACAD
1000
RTMaterial
1005
0
  0
SPLINE
  5
611EF
330
1F
100
AcDbEntity
  8
1
100
AcDbSpline
210
0.0
220
0.0
230
1.0
 70
     8
 71
     3
 72
     9
 73
     5
 74
     0
 42
0.0000000001
 43
0.0000000001
 40
0.0
 40
0.0
 40
0.0
 40
0.0
 40
0.2498748411
 40
1.0
 40
1.0
 40
1.0
 40
1.0
 10
38.84799209050015
 20
25.22506806039996
 30
0.0
 10
38.78725203450017
 20
25.30899071719995
 30
0.0
 10
38.54388887870016
 20
25.64464582199998
 30
0.0
 10
38.29940300070007
 20
25.97948712759996
 30
0.0
 10
38.11533797680011
 20
26.23016705759994
 30
0.0
1001
ACAD
1000
RTMaterial
1005
0
  0
SPLINE
  5
611F0
330
1F
100
AcDbEntity
  8
1
100
AcDbSpline
210
0.0
220
0.0
230
1.0
 70
     8
 71
     3
 72
     8
 73
     4
 74
     0
 42
0.0000000001
 43
0.0000000001
 40
0.0
 40
0.0
 40
0.0
 40
0.0
 40
1.0
 40
1.0
 40
1.0
 40
1.0
 10
39.08711045230007
 20
24.99163406949998
 30
0.0
 10
39.06964549430006
 20
25.00354030899996
 30
0.0
 10
39.05266973610014
 20
25.01619815460003
 30
0.0
 10
39.03627825980016
 20
25.02954367079997
 30
0.0
1001
ACAD
1000
RTMaterial
1005
0
  0
SPLINE
  5
611F1
330
1F
100
AcDbEntity
  8
1
100
AcDbSpline
210
0.0
220
0.0
230
1.0
 70
     8
 71
     3
 72
     9
 73
     5
 74
     0
 42
0.0000000001
 43
0.0000000001
 40
0.0
 40
0.0
 40
0.0
 40
0.0
 40
0.2496740753
 40
1.0
 40
1.0
 40
1.0
 40
1.0
 10
50.68404129860017
 20
28.05516359869995
 30
0.0
 10
50.64012359090009
 20
27.96144719170002
 30
0.0
 10
50.4655576811001
 20
27.58546880509999
 30
0.0
 10
50.2963232139001
 20
27.20701181409999
 30
0.0
 10
50.17256838210006
 20
26.92166221859998
 30
0.0
1001
ACAD
1000
RTMaterial
1005
0
  0
SPLINE
  5
611F2
330
1F
100
AcDbEntity
  8
1
100
AcDbSpline
210
0.0
220
0.0
230
1.0
 70
     8
 71
     3
 72
     9
 73
     5
 74
     0
 42
0.0000000001
 43
0.0000000001
 40
0.0
 40
0.0
 40
0.0
 40
0.0
 40
0.2567257741
 40
1.0
 40
1.0
 40
1.0
 40
1.0
 10
40.52632737260012
 20
36.33302813159998
 30
0.0
 10
40.50254954020011
 20
36.32843945589997
 30
0.0
 10
40.41036415770008
 20
36.30839690030001
 30
0.0
 10
40.32002245250009
 20
36.27978560549997
 30
0.0
 10
40.25491881050015
 20
36.25376259460001
 30
0.0
1001
ACAD
1000
RTMaterial
1005
0
  0
SPLINE
  5
611F3
330
1F
100
AcDbEntity
  8
1
100
AcDbSpline
210
0.0
220
0.0
230
1.0
 70
     8
 71
     3
 72
     9
 73
     5
 74
     0
 42
0.0000000001
 43
0.0000000001
 40
0.0
 40
0.0
 40
0.0
 40
0.0
 40
0.501675589
 40
1.0
 40
1.0
 40
1.0
 40
1.0
 10
35.87413047130008
 20
29.28248861259999
 30
0.0
 10
35.83126056900005
 20
29.34087354600001
 30
0.0
 10
35.75407605240014
 20
29.46359237219997
 30
0.0
 10
35.69630752550006
 20
29.59662077780001
 30
0.0
 10
35.67285567700015
 20
29.66464121039996
 30
0.0
1001
ACAD
1000
RTMaterial
1005
0
  0
LINE
  5
611F4
330
1F
100
AcDbEntity
  8
1
100
AcDbLine
 10
34.94622493370014
 20
30.99087332500005
 30
0.0
 11
34.94245781410007
 21
30.96020967020002
 31
0.0
1001
ACAD
1000
RTMaterial
1005
0
  0
SPLINE
  5
611F5
330
1F
100
AcDbEntity
  8
1
100
AcDbSpline
210
0.0
220
0.0
230
1.0
 70
     8
 71
     3
 72
     9
 73
     5
 74
     0
 42
0.0000000001
 43
0.0000000001
 40
0.0
 40
0.0
 40
0.0
 40
0.0
 40
0.2493217228
 40
1.0
 40
1.0
 40
1.0
 40
1.0
 10
34.9982579847001
 20
31.22346492549997
 30
0.0
 10
34.99226998800009
 20
31.20456927729998
 30
0.0
 10
34.96991019650011
 20
31.12826524100001
 30
0.0
 10
34.95418734200007
 20
31.05002071439998
 30
0.0
 10
34.94622477320013
 20
30.99087334000001
 30
0.0
1001
ACAD
1000
RTMaterial
1005
0
  0
SPLINE
  5
611F6
330
1F
100
AcDbEntity
  8
1
100
AcDbSpline
210
0.0
220
0.0
230
1.0
 70
     8
 71
     3
 72
     9
 73
     5
 74
     0
 42
0.0000000001
 43
0.0000000001
 40
0.0
 40
0.0
 40
0.0
 40
0.0
 40
0.2491536946
 40
1.0
 40
1.0
 40
1.0
 40
1.0
 10
35.0303069552001
 20
31.31443784229998
 30
0.0
 10
35.02740606030011
 20
31.30697017170002
 30
0.0
 10
35.01599977520016
 20
31.27690662759994
 30
0.0
 10
35.00554950770015
 20
31.24648024240002
 30
0.0
 10
34.99825614920008
 20
31.22346540890004
 30
0.0
1001
ACAD
1000
RTMaterial
1005
0
  0
SPLINE
  5
611F7
330
1F
100
AcDbEntity
  8
1
100
AcDbSpline
210
0.0
220
0.0
230
1.0
 70
     8
 71
     3
 72
    11
 73
     7
 74
     0
 42
0.0000000001
 43
0.0000000001
 40
0.0
 40
0.0
 40
0.0
 40
0.0
 40
0.2482991202
 40
0.4971764117000001
 40
0.7476319500000001
 40
1.0
 40
1.0
 40
1.0
 40
1.0
 10
34.94050718130007
 20
30.92976580589999
 30
0.0
 10
34.93630294570016
 20
30.84999067710004
 30
0.0
 10
34.94135545220013
 20
30.68921380439997
 30
0.0
 10
34.98997944430016
 20
30.4524460971
 30
0.0
 10
35.0795473907001
 20
30.22652537850002
 30
0.0
 10
35.16445032340016
 20
30.08774299180004
 30
0.0
 10
35.21250562350008
 20
30.02229601549999
 30
0.0
1001
ACAD
1000
RTMaterial
1005
0
  0
LINE
  5
611F8
330
1F
100
AcDbEntity
  8
1
100
AcDbLine
 10
34.94245781410007
 20
30.96020967020002
 30
0.0
 11
34.94050718130007
 21
30.92976580589999
 31
0.0
1001
ACAD
1000
RTMaterial
1005
0
  0
SPLINE
  5
611F9
330
1F
100
AcDbEntity
  8
1
100
AcDbSpline
210
0.0
220
0.0
230
1.0
 70
     8
 71
     3
 72
     9
 73
     5
 74
     0
 42
0.0000000001
 43
0.0000000001
 40
0.0
 40
0.0
 40
0.0
 40
0.0
 40
0.4973933731000001
 40
1.0
 40
1.0
 40
1.0
 40
1.0
 10
48.01710645110012
 20
22.72331132199997
 30
0.0
 10
47.93205807050009
 20
22.68254475039999
 30
0.0
 10
47.75195815030008
 20
22.61836541849999
 30
0.0
 10
47.56241613840006
 20
22.59335824159996
 30
0.0
 10
47.46715117360008
 20
22.59068118469997
 30
0.0
1001
ACAD
1000
RTMaterial
1005
0
  0
SPLINE
  5
611FA
330
1F
100
AcDbEntity
  8
1
100
AcDbSpline
210
0.0
220
0.0
230
1.0
 70
     8
 71
     3
 72
     9
 73
     5
 74
     0
 42
0.0000000001
 43
0.0000000001
 40
0.0
 40
0.0
 40
0.0
 40
0.0
 40
0.2490451083
 40
1.0
 40
1.0
 40
1.0
 40
1.0
 10
48.25844602760009
 20
22.8855099049
 30
0.0
 10
48.2438364341001
 20
22.8730120162
 30
0.0
 10
48.18405202190007
 20
22.82415408029999
 30
0.0
 10
48.11989695560004
 20
22.7806547431
 30
0.0
 10
48.06987463950008
 20
22.75135275899998
 30
0.0
1001
ACAD
1000
RTMaterial
1005
0
  0
SPLINE
  5
611FB
330
1F
100
AcDbEntity
  8
1
100
AcDbSpline
210
0.0
220
0.0
230
1.0
 70
     8
 71
     3
 72
     9
 73
     5
 74
     0
 42
0.0000000001
 43
0.0000000001
 40
0.0
 40
0.0
 40
0.0
 40
0.0
 40
0.5012706207000001
 40
1.0
 40
1.0
 40
1.0
 40
1.0
 10
48.66426486190005
 20
23.44386752169999
 30
0.0
 10
48.61807793390005
 20
23.33737130729998
 30
0.0
 10
48.50380292400007
 20
23.13370245049998
 30
0.0
 10
48.34620827190008
 20
22.96058427169999
 30
0.0
 10
48.25844717830006
 20
22.88550837439999
 30
0.0
1001
ACAD
1000
RTMaterial
1005
0
  0
SPLINE
  5
611FC
330
1F
100
AcDbEntity
  8
1
100
AcDbSpline
210
0.0
220
0.0
230
1.0
 70
     8
 71
     3
 72
     9
 73
     5
 74
     0
 42
0.0000000001
 43
0.0000000001
 40
0.0
 40
0.0
 40
0.0
 40
0.0
 40
0.4987360353
 40
1.0
 40
1.0
 40
1.0
 40
1.0
 10
48.26780067920015
 20
37.28257197670001
 30
0.0
 10
48.40100722700015
 20
37.19105955859993
 30
0.0
 10
48.63939949720009
 20
36.96135762839998
 30
0.0
 10
48.7861641111001
 20
36.66436248719998
 30
0.0
 10
48.83271046770016
 20
36.50874312140002
 30
0.0
1001
ACAD
1000
RTMaterial
1005
0
  0
SPLINE
  5
611FD
330
1F
100
AcDbEntity
  8
1
100
AcDbSpline
210
0.0
220
0.0
230
1.0
 70
     8
 71
     3
 72
     9
 73
     5
 74
     0
 42
0.0000000001
 43
0.0000000001
 40
0.0
 40
0.0
 40
0.0
 40
0.0
 40
0.2492241108
 40
1.0
 40
1.0
 40
1.0
 40
1.0
 10
47.99643344130004
 20
37.41801532490001
 30
0.0
 10
48.01527568590007
 20
37.41109286549999
 30
0.0
 10
48.09027415010007
 20
37.38169497259998
 30
0.0
 10
48.16275393750015
 20
37.34588411089999
 30
0.0
 10
48.21516481740014
 20
37.31572080320001
 30
0.0
1001
ACAD
1000
RTMaterial
1005
0
  0
SPLINE
  5
611FE
330
1F
100
AcDbEntity
  8
1
100
AcDbSpline
210
0.0
220
0.0
230
1.0
 70
     8
 71
     3
 72
     9
 73
     5
 74
     0
 42
0.0000000001
 43
0.0000000001
 40
0.0
 40
0.0
 40
0.0
 40
0.0
 40
0.4950561726
 40
1.0
 40
1.0
 40
1.0
 40
1.0
 10
47.29789239620015
 20
37.50077227439999
 30
0.0
 10
47.41401482430013
 20
37.51394917439995
 30
0.0
 10
47.6523636861001
 20
37.51412783979998
 30
0.0
 10
47.88454456880003
 20
37.45912427030004
 30
0.0
 10
47.99643414750017
 20
37.41801711339997
 30
0.0
1001
ACAD
1000
RTMaterial
1005
0
  0
SPLINE
  5
611FF
330
1F
100
AcDbEntity
  8
1
100
AcDbSpline
210
0.0
220
0.0
230
1.0
 70
     8
 71
     3
 72
     9
 73
     5
 74
     0
 42
0.0000000001
 43
0.0000000001
 40
0.0
 40
0.0
 40
0.0
 40
0.0
 40
0.7496191467000001
 40
1.0
 40
1.0
 40
1.0
 40
1.0
 10
50.76355001010006
 20
28.31383672500005
 30
0.0
 10
50.75165067370005
 20
28.2471821767
 30
0.0
 10
50.72725769290014
 20
28.15951083089999
 30
0.0
 10
50.69316787780008
 20
28.07585558670002
 30
0.0
 10
50.68404129860017
 20
28.05516359869995
 30
0.0
1001
ACAD
1000
RTMaterial
1005
0
  0
SPLINE
  5
61200
330
1F
100
AcDbEntity
  8
1
100
AcDbSpline
210
0.0
220
0.0
230
1.0
 70
     8
 71
     3
 72
     8
 73
     4
 74
     0
 42
0.0000000001
 43
0.0000000001
 40
0.0
 40
0.0
 40
0.0
 40
0.0
 40
1.0
 40
1.0
 40
1.0
 40
1.0
 10
50.77200000000016
 20
28.3699309552
 30
0.0
 10
50.76969744870007
 20
28.35116263280003
 30
0.0
 10
50.76687315900006
 20
28.33245145969994
 30
0.0
 10
50.76355001010006
 20
28.31383672500005
 30
0.0
1001
ACAD
1000
RTMaterial
1005
0
  0
LINE
  5
61201
330
1F
100
AcDbEntity
  8
1
100
AcDbLine
 10
50.77384042660014
 20
28.40163691009997
 30
0.0
 11
50.77200000000016
 21
28.3699309552
 31
0.0
1001
ACAD
1000
RTMaterial
1005
0
  0
SPLINE
  5
61202
330
1F
100
AcDbEntity
  8
1
100
AcDbSpline
210
0.0
220
0.0
230
1.0
 70
     8
 71
     3
 72
     9
 73
     5
 74
     0
 42
0.0000000001
 43
0.0000000001
 40
0.0
 40
0.0
 40
0.0
 40
0.0
 40
0.2434504122
 40
1.0
 40
1.0
 40
1.0
 40
1.0
 10
50.80058650460012
 20
29.70869782379998
 30
0.0
 10
50.80229583500011
 20
29.60260812130002
 30
0.0
 10
50.80547568550014
 20
29.16677915930001
 30
0.0
 10
50.79255661030015
 20
28.730833808
 30
0.0
 10
50.77384150750015
 20
28.40163686799997
 30
0.0
1001
ACAD
1000
RTMaterial
1005
0
  0
LINE
  5
61203
330
1F
100
AcDbEntity
  8
1
100
AcDbLine
 10
50.80000000000007
 20
29.74188473969997
 30
0.0
 11
50.80058541800008
 21
29.70869779229997
 31
0.0
1001
ACAD
1000
RTMaterial
1005
0
  0
SPLINE
  5
61204
330
1F
100
AcDbEntity
  8
1
100
AcDbSpline
210
0.0
220
0.0
230
1.0
 70
     8
 71
     3
 72
     9
 73
     5
 74
     0
 42
0.0000000001
 43
0.0000000001
 40
0.0
 40
0.0
 40
0.0
 40
0.0
 40
0.2584941647
 40
1.0
 40
1.0
 40
1.0
 40
1.0
 10
50.73637431880013
 20
30.14418729430003
 30
0.0
 10
50.74644869080009
 20
30.11050544279999
 30
0.0
 10
50.7810409261001
 20
29.97894031710001
 30
0.0
 10
50.79806803980011
 20
29.84271395100001
 30
0.0
 10
50.80000046880013
 20
29.74188475419999
 30
0.0
1001
ACAD
1000
RTMaterial
1005
0
  0
SPLINE
  5
61205
330
1F
100
AcDbEntity
  8
1
100
AcDbSpline
210
0.0
220
0.0
230
1.0
 70
     8
 71
     3
 72
     9
 73
     5
 74
     0
 42
0.0000000001
 43
0.0000000001
 40
0.0
 40
0.0
 40
0.0
 40
0.0
 40
0.2463724036
 40
1.0
 40
1.0
 40
1.0
 40
1.0
 10
40.22457528840016
 20
36.24159075410001
 30
0.0
 10
40.19770421910016
 20
36.23077240359993
 30
0.0
 10
40.08874376280004
 20
36.18659810689996
 30
0.0
 10
39.98023285310012
 20
36.14131380700002
 30
0.0
 10
39.89873707000015
 20
36.1065333098
 30
0.0
1001
ACAD
1000
RTMaterial
1005
0
  0
LINE
  5
61206
330
1F
100
AcDbEntity
  8
1
100
AcDbLine
 10
40.2549189816001
 20
36.25376215530002
 30
0.0
 11
40.22457568790014
 21
36.24158973390001
 31
0.0
1001
ACAD
1000
RTMaterial
1005
0
  0
SPLINE
  5
61207
330
1F
100
AcDbEntity
  8
1
100
AcDbSpline
210
0.0
220
0.0
230
1.0
 70
     8
 71
     3
 72
     9
 73
     5
 74
     0
 42
0.0000000001
 43
0.0000000001
 40
0.0
 40
0.0
 40
0.0
 40
0.0
 40
0.2504623937
 40
1.0
 40
1.0
 40
1.0
 40
1.0
 10
42.07121399870016
 20
36.88374818890003
 30
0.0
 10
42.09190550990013
 20
36.89165233039995
 30
0.0
 10
42.17552444310013
 20
36.92053405509995
 30
0.0
 10
42.26270392690014
 20
36.93892376449998
 30
0.0
 10
42.32850853960008
 20
36.94689674839998
 30
0.0
1001
ACAD
1000
RTMaterial
1005
0
  0
SPLINE
  5
61208
330
1F
100
AcDbEntity
  8
1
100
AcDbSpline
210
0.0
220
0.0
230
1.0
 70
     8
 71
     3
 72
     9
 73
     5
 74
     0
 42
0.0000000001
 43
0.0000000001
 40
0.0
 40
0.0
 40
0.0
 40
0.0
 40
0.2578430942
 40
1.0
 40
1.0
 40
1.0
 40
1.0
 10
39.13845683900013
 20
24.67550442180004
 30
0.0
 10
39.1592482855001
 20
24.64718835129998
 30
0.0
 10
39.24353830460006
 20
24.54010233469996
 30
0.0
 10
39.34208941630004
 20
24.44422101129999
 30
0.0
 10
39.42142139670011
 20
24.38152699399996
 30
0.0
1001
ACAD
1000
RTMaterial
1005
0
  0
SPLINE
  5
61209
330
1F
100
AcDbEntity
  8
1
100
AcDbSpline
210
0.0
220
0.0
230
1.0
 70
     8
 71
     3
 72
    10
 73
     6
 74
     0
 42
0.0000000001
 43
0.0000000001
 40
0.0
 40
0.0
 40
0.0
 40
0.0
 40
0.2422544591
 40
0.6222896556000001
 40
1.0
 40
1.0
 40
1.0
 40
1.0
 10
39.44764154530015
 20
24.3608618998
 30
0.0
 10
39.52082830190011
 20
24.30334122030001
 30
0.0
 10
39.70993795890013
 20
24.15699299670001
 30
0.0
 10
40.01862908540011
 20
23.92811709059998
 30
0.0
 10
40.25649893490004
 20
23.76015427919998
 30
0.0
 10
40.37609135440004
 20
23.67792547680005
 30
0.0
1001
ACAD
1000
RTMaterial
1005
0
  0
LINE
  5
6120A
330
1F
100
AcDbEntity
  8
1
100
AcDbLine
 10
39.42142168910016
 20
24.38152736289993
 30
0.0
 11
39.44764222320009
 21
24.36086275849999
 31
0.0
1001
ACAD
1000
RTMaterial
1005
0
  0
SPLINE
  5
6120B
330
1F
100
AcDbEntity
  8
1
100
AcDbSpline
210
0.0
220
0.0
230
1.0
 70
     8
 71
     3
 72
     9
 73
     5
 74
     0
 42
0.0000000001
 43
0.0000000001
 40
0.0
 40
0.0
 40
0.0
 40
0.0
 40
0.2503103162
 40
1.0
 40
1.0
 40
1.0
 40
1.0
 10
39.03627813190008
 20
25.02954351359995
 30
0.0
 10
39.01869121000016
 20
25.04386233009995
 30
0.0
 10
38.95024611090014
 20
25.10327261789996
 30
0.0
 10
38.88909065040014
 20
25.17098873980001
 30
0.0
 10
38.84799209050015
 20
25.22506806039996
 30
0.0
1001
ACAD
1000
RTMaterial
1005
0
  0
SPLINE
  5
6120C
330
1F
100
AcDbEntity
  8
1
100
AcDbSpline
210
0.0
220
0.0
230
1.0
 70
     8
 71
     3
 72
     8
 73
     4
 74
     0
 42
0.0000000001
 43
0.0000000001
 40
0.0
 40
0.0
 40
0.0
 40
0.0
 40
1.0
 40
1.0
 40
1.0
 40
1.0
 10
48.21516606920011
 20
37.31572288699999
 30
0.0
 10
48.23313719390012
 20
37.30538020810002
 30
0.0
 10
48.25071064330007
 20
37.29431346009994
 30
0.0
 10
48.2678011759001
 20
37.2825726753
 30
0.0
1001
ACAD
1000
RTMaterial
1005
0
  0
SPLINE
  5
6120D
330
1F
100
AcDbEntity
  8
1
100
AcDbSpline
210
0.0
220
0.0
230
1.0
 70
     8
 71
     3
 72
     8
 73
     4
 74
     0
 42
0.0000000001
 43
0.0000000001
 40
0.0
 40
0.0
 40
0.0
 40
0.0
 40
1.0
 40
1.0
 40
1.0
 40
1.0
 10
48.06987577530009
 20
22.75135060789995
 30
0.0
 10
48.05268869010006
 20
22.74128279390004
 30
0.0
 10
48.03506855170008
 20
22.73192053329996
 30
0.0
 10
48.01710679510006
 20
22.72331053479996
 30
0.0
1001
ACAD
1000
RTMaterial
1005
0
  0
SPLINE
  5
6120E
330
1F
100
AcDbEntity
  8
1
100
AcDbSpline
210
0.0
220
0.0
230
1.0
 70
     8
 71
     3
 72
    11
 73
     7
 74
     0
 42
0.0000000001
 43
0.0000000001
 40
0.0
 40
0.0
 40
0.0
 40
0.0
 40
0.2476310057
 40
0.4970906347
 40
0.7482928707
 40
1.0
 40
1.0
 40
1.0
 40
1.0
 10
35.60283568390014
 20
30.22124497430002
 30
0.0
 10
35.61162964010009
 20
30.30101841039993
 30
0.0
 10
35.64276209550008
 20
30.45996528149999
 30
0.0
 10
35.72783437190015
 20
30.68818193509998
 30
0.0
 10
35.84928781660017
 20
30.90078168380001
 30
0.0
 10
35.95164705950015
 20
31.02860352329998
 30
0.0
 10
36.00739137300013
 20
31.08816441430003
 30
0.0
1001
ACAD
1000
RTMaterial
1005
0
  0
LINE
  5
6120F
330
1F
100
AcDbEntity
  8
1
100
AcDbLine
 10
35.59980660210011
 20
30.19086574850002
 30
0.0
 11
35.60283568390014
 21
30.22124497430002
 31
0.0
1001
ACAD
1000
RTMaterial
1005
0
  0
LINE
  5
61210
330
1F
100
AcDbEntity
  8
1
100
AcDbLine
 10
35.59850311460014
 20
30.16005443199998
 30
0.0
 11
35.59980660210011
 21
30.19086574850002
 31
0.0
1001
ACAD
1000
RTMaterial
1005
0
  0
SPLINE
  5
61211
330
1F
100
AcDbEntity
  8
1
100
AcDbSpline
210
0.0
220
0.0
230
1.0
 70
     8
 71
     3
 72
     9
 73
     5
 74
     0
 42
0.0000000001
 43
0.0000000001
 40
0.0
 40
0.0
 40
0.0
 40
0.0
 40
0.2484673022
 40
1.0
 40
1.0
 40
1.0
 40
1.0
 10
35.61086564910011
 20
29.92360317949999
 30
0.0
 10
35.60817961620012
 20
29.94304183049997
 30
0.0
 10
35.59905462220013
 20
30.02150090300001
 30
0.0
 10
35.59662982010014
 20
30.10072975049997
 30
0.0
 10
35.59850295050012
 20
30.16005443649999
 30
0.0
1001
ACAD
1000
RTMaterial
1005
0
  0
SPLINE
  5
61212
330
1F
100
AcDbEntity
  8
1
100
AcDbSpline
210
0.0
220
0.0
230
1.0
 70
     8
 71
     3
 72
     9
 73
     5
 74
     0
 42
0.0000000001
 43
0.0000000001
 40
0.0
 40
0.0
 40
0.0
 40
0.0
 40
0.2304774491
 40
1.0
 40
1.0
 40
1.0
 40
1.0
 10
35.49711073080004
 20
30.4295233281
 30
0.0
 10
35.49497854210006
 20
30.43447837640002
 30
0.0
 10
35.48470989370014
 20
30.45554146130001
 30
0.0
 10
35.47082357140016
 20
30.47469713049998
 30
0.0
 10
35.45912382730012
 20
30.48839020669999
 30
0.0
1001
ACAD
1000
RTMaterial
1005
0
  0
SPLINE
  5
61213
330
1F
100
AcDbEntity
  8
1
100
AcDbSpline
210
0.0
220
0.0
230
1.0
 70
     8
 71
     3
 72
     9
 73
     5
 74
     0
 42
0.0000000001
 43
0.0000000001
 40
0.0
 40
0.0
 40
0.0
 40
0.0
 40
0.2714774794
 40
1.0
 40
1.0
 40
1.0
 40
1.0
 10
35.25852006530011
 20
30.70876363649996
 30
0.0
 10
35.26475475960012
 20
30.70380357199997
 30
0.0
 10
35.28737015880006
 20
30.6851119131
 30
0.0
 10
35.30856869040008
 20
30.66459602250001
 30
0.0
 10
35.32245709430015
 20
30.64834139579995
 30
0.0
1001
ACAD
1000
RTMaterial
1005
0
  0
SPLINE
  5
61214
330
1F
100
AcDbEntity
  8
1
100
AcDbSpline
210
0.0
220
0.0
230
1.0
 70
     8
 71
     3
 72
     9
 73
     5
 74
     0
 42
0.0000000001
 43
0.0000000001
 40
0.0
 40
0.0
 40
0.0
 40
0.0
 40
0.248159661
 40
1.0
 40
1.0
 40
1.0
 40
1.0
 10
47.46715117360008
 20
22.59068118469997
 30
0.0
 10
47.4356366386001
 20
22.58979558939996
 30
0.0
 10
47.30854980660007
 20
22.5905009988
 30
0.0
 10
47.18163570580009
 20
22.60819596739998
 30
0.0
 10
47.08869359490006
 20
22.63022087180002
 30
0.0
1001
ACAD
1000
RTMaterial
1005
0
  0
SPLINE
  5
61215
330
1F
100
AcDbEntity
  8
1
100
AcDbSpline
210
0.0
220
0.0
230
1.0
 70
     8
 71
     3
 72
     9
 73
     5
 74
     0
 42
0.0000000001
 43
0.0000000001
 40
0.0
 40
0.0
 40
0.0
 40
0.0
 40
0.2485144324
 40
1.0
 40
1.0
 40
1.0
 40
1.0
 10
35.67285567700015
 20
29.66464121039996
 30
0.0
 10
35.66565956030013
 20
29.68551303949999
 30
0.0
 10
35.63869749410014
 20
29.7701732987
 30
0.0
 10
35.62000185680017
 20
29.85747079949999
 30
0.0
 10
35.61086372090017
 20
29.92360292159998
 30
0.0
1001
ACAD
1000
RTMaterial
1005
0
  0
SPLINE
  5
61216
330
1F
100
AcDbEntity
  8
1
100
AcDbSpline
210
0.0
220
0.0
230
1.0
 70
     8
 71
     3
 72
     9
 73
     5
 74
     0
 42
0.0000000001
 43
0.0000000001
 40
0.0
 40
0.0
 40
0.0
 40
0.0
 40
0.2594039192
 40
1.0
 40
1.0
 40
1.0
 40
1.0
 10
40.53723186860008
 20
35.92814467329998
 30
0.0
 10
40.56118534870006
 20
35.95373814619995
 30
0.0
 10
40.65664349540009
 20
36.0494284335
 30
0.0
 10
40.76415774130009
 20
36.13315079969993
 30
0.0
 10
40.84884130670014
 20
36.18648536670003
 30
0.0
1001
ACAD
1000
RTMaterial
1005
0
  0
SPLINE
  5
61217
330
1F
100
AcDbEntity
  8
1
100
AcDbSpline
210
0.0
220
0.0
230
1.0
 70
     8
 71
     3
 72
     9
 73
     5
 74
     0
 42
0.0000000001
 43
0.0000000001
 40
0.0
 40
0.0
 40
0.0
 40
0.0
 40
0.2436363991
 40
1.0
 40
1.0
 40
1.0
 40
1.0
 10
40.8765665753001
 20
36.20391712840001
 30
0.0
 10
40.96517849750012
 20
36.25953016699998
 30
0.0
 10
41.33090718400012
 20
36.48455305250002
 30
0.0
 10
41.7050302294001
 20
36.69593306789995
 30
0.0
 10
41.99209441640005
 20
36.84784915759997
 30
0.0
1001
ACAD
1000
RTMaterial
1005
0
  0
LINE
  5
61218
330
1F
100
AcDbEntity
  8
1
100
AcDbLine
 10
40.8488415718001
 20
36.18648493649994
 30
0.0
 11
40.87656714840011
 21
36.2039161948
 31
0.0
1001
ACAD
1000
RTMaterial
1005
0
  0
SPLINE
  5
61219
330
1F
100
AcDbEntity
  8
1
100
AcDbSpline
210
0.0
220
0.0
230
1.0
 70
     8
 71
     3
 72
     9
 73
     5
 74
     0
 42
0.0000000001
 43
0.0000000001
 40
0.0
 40
0.0
 40
0.0
 40
0.0
 40
0.2435088423
 40
1.0
 40
1.0
 40
1.0
 40
1.0
 10
40.24436609570011
 20
24.31451345530002
 30
0.0
 10
40.1502615106001
 20
24.36497218379998
 30
0.0
 10
39.76562405420009
 20
24.57555476820005
 30
0.0
 10
39.38868685930015
 20
24.80020088600003
 30
0.0
 10
39.10840824270008
 20
24.97763748739999
 30
0.0
1001
ACAD
1000
RTMaterial
1005
0
  0
LINE
  5
6121A
330
1F
100
AcDbEntity
  8
1
100
AcDbLine
 10
40.27380762730013
 20
24.29875873129998
 30
0.0
 11
40.24436661430013
 21
24.31451442039997
 31
0.0
1001
ACAD
1000
RTMaterial
1005
0
  0
SPLINE
  5
6121B
330
1F
100
AcDbEntity
  8
1
100
AcDbSpline
210
0.0
220
0.0
230
1.0
 70
     8
 71
     3
 72
     9
 73
     5
 74
     0
 42
0.0000000001
 43
0.0000000001
 40
0.0
 40
0.0
 40
0.0
 40
0.0
 40
0.2574460055999999
 40
1.0
 40
1.0
 40
1.0
 40
1.0
 10
40.65518922360013
 20
24.15479646329999
 30
0.0
 10
40.62109568350012
 20
24.16287576129998
 30
0.0
 10
40.48972424520013
 20
24.19857279449997
 30
0.0
 10
40.3629484329001
 20
24.2511458258
 30
0.0
 10
40.27380740500007
 20
24.29875831560003
 30
0.0
1001
ACAD
1000
RTMaterial
1005
0
  0
SPLINE
  5
6121C
330
1F
100
AcDbEntity
  8
1
100
AcDbSpline
210
0.0
220
0.0
230
1.0
 70
     8
 71
     3
 72
     8
 73
     4
 74
     0
 42
0.0000000001
 43
0.0000000001
 40
0.0
 40
0.0
 40
0.0
 40
0.0
 40
1.0
 40
1.0
 40
1.0
 40
1.0
 10
39.10840893850013
 20
24.97763858649995
 30
0.0
 10
39.10123127690008
 20
24.98218256450002
 30
0.0
 10
39.09412964370006
 20
24.98684893479998
 30
0.0
 10
39.08711045230007
 20
24.99163406949998
 30
0.0
1001
ACAD
1000
RTMaterial
1005
0
  0
SPLINE
  5
6121D
330
1F
100
AcDbEntity
  8
1
100
AcDbSpline
210
0.0
220
0.0
230
1.0
 70
     8
 71
     3
 72
     9
 73
     5
 74
     0
 42
0.0000000001
 43
0.0000000001
 40
0.0
 40
0.0
 40
0.0
 40
0.0
 40
0.4716743622
 40
1.0
 40
1.0
 40
1.0
 40
1.0
 10
47.64743411330004
 20
20.82975725680001
 30
0.0
 10
47.88074145990004
 20
20.72648658520001
 30
0.0
 10
48.3794756393001
 20
20.51680708640004
 30
0.0
 10
48.88265715050005
 20
20.31822386519997
 30
0.0
 10
49.14924271790011
 20
20.21524053289994
 30
0.0
1001
ACAD
1000
RTMaterial
1005
0
  0
SPLINE
  5
6121E
330
1F
100
AcDbEntity
  8
1
100
AcDbSpline
210
0.0
220
0.0
230
1.0
 70
     8
 71
     3
 72
    20
 73
    16
 74
     0
 42
0.0000000001
 43
0.0000000001
 40
0.0
 40
0.0
 40
0.0
 40
0.0
 40
0.2275644593
 40
0.4259902177
 40
0.5949215016000001
 40
0.734229568
 40
0.7927675641
 40
0.8438957506999999
 40
0.8876237126000001
 40
0.9239763672
 40
0.9530151270999999
 40
0.9748939842
 40
0.9832756343999999
 40
0.9900891179
 40
1.0
 40
1.0
 40
1.0
 40
1.0
 10
39.19571371990014
 20
36.39530954079999
 30
0.0
 10
39.13535413160014
 20
36.40172464250003
 30
0.0
 10
39.02247000730006
 20
36.41477074919999
 30
0.0
 10
38.86523070380008
 20
36.4362492898
 30
0.0
 10
38.7317786965001
 20
36.45765427480001
 30
0.0
 10
38.63562867220014
 20
36.47583379909998
 30
0.0
 10
38.57077505880011
 20
36.49015062729996
 30
0.0
 10
38.5310404024001
 20
36.49993241919998
 30
0.0
 10
38.49732592800013
 20
36.5093470489
 30
0.0
 10
38.46962715530015
 20
36.51833315530002
 30
0.0
 10
38.44795683350014
 20
36.52687738180004
 30
0.0
 10
38.43379634450014
 20
36.53402311269997
 30
0.0
 10
38.42570452900009
 20
36.53980224899999
 30
0.0
 10
38.42086286670008
 20
36.54434291310002
 30
0.0
 10
38.4184911169001
 20
36.5486450157
 30
0.0
 10
38.41848797780006
 20
36.55128859850004
 30
0.0
1001
ACAD
1000
RTMaterial
1005
0
  0
SPLINE
  5
6121F
330
1F
100
AcDbEntity
  8
1
100
AcDbSpline
210
0.0
220
0.0
230
1.0
 70
     8
 71
     3
 72
     9
 73
     5
 74
     0
 42
0.0000000001
 43
0.0000000001
 40
0.0
 40
0.0
 40
0.0
 40
0.0
 40
0.5289749813000001
 40
1.0
 40
1.0
 40
1.0
 40
1.0
 10
18.33719931540008
 20
28.4965153393
 30
0.0
 10
18.24357747490012
 20
28.57796038740003
 30
0.0
 10
18.07542210460008
 20
28.74258112630002
 30
0.0
 10
17.93448564110008
 20
28.932063836
 30
0.0
 10
17.87874045680007
 20
29.02746719829997
 30
0.0
1001
ACAD
1000
RTMaterial
1005
0
  0
SPLINE
  5
61220
330
1F
100
AcDbEntity
  8
1
100
AcDbSpline
210
0.0
220
0.0
230
1.0
 70
     8
 71
     3
 72
    10
 73
     6
 74
     0
 42
0.0000000001
 43
0.0000000001
 40
0.0
 40
0.0
 40
0.0
 40
0.0
 40
0.5260828003000001
 40
0.7704088666
 40
1.0
 40
1.0
 40
1.0
 40
1.0
 10
19.46938143300008
 20
27.81092584259994
 30
0.0
 10
19.25525699520017
 20
27.9025066232
 30
0.0
 10
18.9492347475001
 20
28.0564910544
 30
0.0
 10
18.57912145990008
 20
28.29996613649996
 30
0.0
 10
18.4138800454001
 20
28.42980797740001
 30
0.0
 10
18.33719931540008
 20
28.4965153393
 30
0.0
1001
ACAD
1000
RTMaterial
1005
0
  0
SPLINE
  5
61221
330
1F
100
AcDbEntity
  8
1
100
AcDbSpline
210
0.0
220
0.0
230
1.0
 70
     8
 71
     3
 72
     9
 73
     5
 74
     0
 42
0.0000000001
 43
0.0000000001
 40
0.0
 40
0.0
 40
0.0
 40
0.0
 40
0.2664226918
 40
1.0
 40
1.0
 40
1.0
 40
1.0
 10
46.8858411975001
 20
22.28959755059998
 30
0.0
 10
46.88317973810012
 20
22.27997016030002
 30
0.0
 10
46.87342015440015
 20
22.24377212259998
 30
0.0
 10
46.86446646910008
 20
22.20734980129998
 30
0.0
 10
46.85860994900008
 20
22.18047793059998
 30
0.0
1001
ACAD
1000
RTMaterial
1005
0
  0
SPLINE
  5
61222
330
1F
100
AcDbEntity
  8
1
100
AcDbSpline
210
0.0
220
0.0
230
1.0
 70
     8
 71
     3
 72
     8
 73
     4
 74
     0
 42
0.0000000001
 43
0.0000000001
 40
0.0
 40
0.0
 40
0.0
 40
0.0
 40
1.0
 40
1.0
 40
1.0
 40
1.0
 10
46.92985034870014
 20
22.4457118181
 30
0.0
 10
46.9149172901001
 20
22.39374868609997
 30
0.0
 10
46.90024729560014
 20
22.34170923509998
 30
0.0
 10
46.8858411975001
 20
22.28959755059998
 30
0.0
1001
ACAD
1000
RTMaterial
1005
0
  0
LINE
  5
61223
330
1F
100
AcDbEntity
  8
1
100
AcDbLine
 10
47.61490310520009
 20
20.84424405119995
 30
0.0
 11
47.64743411330004
 21
20.82975725680001
 31
0.0
1001
ACAD
1000
RTMaterial
1005
0
  0
SPLINE
  5
61224
330
1F
100
AcDbEntity
  8
1
100
AcDbSpline
210
0.0
220
0.0
230
1.0
 70
     8
 71
     3
 72
    14
 73
    10
 74
     0
 42
0.0000000001
 43
0.0000000001
 40
0.0
 40
0.0
 40
0.0
 40
0.0
 40
0.3339692148
 40
0.480606476
 40
0.6130868919
 40
0.7311640426000001
 40
0.8347491662000001
 40
0.9241064423
 40
1.0
 40
1.0
 40
1.0
 40
1.0
 10
47.21346793730015
 20
22.09698921579997
 30
0.0
 10
47.19120658010012
 20
21.96756636570001
 30
0.0
 10
47.16401606330009
 20
21.78036487449998
 30
0.0
 10
47.14276584420008
 20
21.54017367539996
 30
0.0
 10
47.13566032720007
 20
21.38409107219997
 30
0.0
 10
47.13656295960015
 20
21.24476392169999
 30
0.0
 10
47.14549559560009
 20
21.12266320600003
 30
0.0
 10
47.1624934235001
 20
21.01817792809999
 30
0.0
 10
47.18073113470007
 20
20.95550118210002
 30
0.0
 10
47.19174809500009
 20
20.92776629689996
 30
0.0
1001
ACAD
1000
RTMaterial
1005
0
  0
LINE
  5
61225
330
1F
100
AcDbEntity
  8
1
100
AcDbLine
 10
38.53625621620006
 20
24.5087610928
 30
0.0
 11
38.53493412690011
 21
24.51184195629998
 31
0.0
1001
ACAD
1000
RTMaterial
1005
0
  0
SPLINE
  5
61226
330
1F
100
AcDbEntity
  8
1
100
AcDbSpline
210
0.0
220
0.0
230
1.0
 70
     8
 71
     3
 72
    10
 73
     6
 74
     0
 42
0.0000000001
 43
0.0000000001
 40
0.0
 40
0.0
 40
0.0
 40
0.0
 40
0.2145672714
 40
0.4568347677000001
 40
1.0
 40
1.0
 40
1.0
 40
1.0
 10
40.33606696380013
 20
23.66865437229995
 30
0.0
 10
40.35748530440014
 20
23.67308188060002
 30
0.0
 10
40.40272733460006
 20
23.68431148089996
 30
0.0
 10
40.49985367260013
 20
23.71537203180003
 30
0.0
 10
40.57343586010006
 20
23.74790408199999
 30
0.0
 10
40.62227448560008
 20
23.77398368399997
 30
0.0
1001
ACAD
1000
RTMaterial
1005
0
  0
SPLINE
  5
61227
330
1F
100
AcDbEntity
  8
1
100
AcDbSpline
210
0.0
220
0.0
230
1.0
 70
     8
 71
     3
 72
    11
 73
     7
 74
     0
 42
0.0000000001
 43
0.0000000001
 40
0.0
 40
0.0
 40
0.0
 40
0.0
 40
0.2704924802
 40
0.5192789143
 40
0.7574416303
 40
1.0
 40
1.0
 40
1.0
 40
1.0
 10
38.76618039380014
 20
24.38926815960002
 30
0.0
 10
38.73645213420014
 20
24.4297633237
 30
0.0
 10
38.68268448380013
 20
24.51014439459999
 30
0.0
 10
38.62357884410016
 20
24.63875164630002
 30
0.0
 10
38.59551895720006
 20
24.77265039009996
 30
0.0
 10
38.60033066340009
 20
24.86295339930001
 30
0.0
 10
38.60807861910007
 20
24.90732990960004
 30
0.0
1001
ACAD
1000
RTMaterial
1005
0
  0
SPLINE
  5
61228
330
1F
100
AcDbEntity
  8
1
100
AcDbSpline
210
0.0
220
0.0
230
1.0
 70
     8
 71
     3
 72
    11
 73
     7
 74
     0
 42
0.0000000001
 43
0.0000000001
 40
0.0
 40
0.0
 40
0.0
 40
0.0
 40
0.2753797542
 40
0.5401096817000001
 40
0.7867407114000001
 40
1.0
 40
1.0
 40
1.0
 40
1.0
 10
38.62869660700017
 20
24.34310547799999
 30
0.0
 10
38.61452045990006
 20
24.39136606770001
 30
0.0
 10
38.59186358490013
 20
24.48762775299997
 30
0.0
 10
38.57451047790016
 20
24.63056130369995
 30
0.0
 10
38.57280819480013
 20
24.76314470530002
 30
0.0
 10
38.58058111270009
 20
24.84698612170002
 30
0.0
 10
38.58658686550007
 20
24.88547329969998
 30
0.0
1001
ACAD
1000
RTMaterial
1005
0
  0
SPLINE
  5
61229
330
1F
100
AcDbEntity
  8
1
100
AcDbSpline
210
0.0
220
0.0
230
1.0
 70
     8
 71
     3
 72
    19
 73
    15
 74
     0
 42
0.0000000001
 43
0.0000000001
 40
0.0
 40
0.0
 40
0.0
 40
0.0
 40
0.124845993
 40
0.2496877305
 40
0.3745213111
 40
0.4993460074
 40
0.5619275156
 40
0.6245083004
 40
0.6870895407999999
 40
0.7496704773000001
 40
0.8122520999999998
 40
0.8748341711
 40
0.9374163565000001
 40
1.0
 40
1.0
 40
1.0
 40
1.0
 10
34.89936055570013
 20
29.53760445590001
 30
0.0
 10
34.82001895600013
 20
29.63046382049999
 30
0.0
 10
34.68736519650008
 20
29.84030908439996
 30
0.0
 10
34.58640634220012
 20
30.19764034880001
 30
0.0
 10
34.59159140960014
 20
30.56915093129999
 30
0.0
 10
34.68559452540012
 20
30.8648710068
 30
0.0
 10
34.80950684470008
 20
31.07658689469997
 30
0.0
 10
34.92509833300005
 20
31.22023103789997
 30
0.0
 10
35.06067992110013
 20
31.3451362244
 30
0.0
 10
35.21331830940005
 20
31.44851719089996
 30
0.0
 10
35.37955716970009
 20
31.5282004751
 30
0.0
 10
35.55578171370007
 20
31.58234882289998
 30
0.0
 10
35.73800305790007
 20
31.61003807680004
 30
0.0
 10
35.8609754232001
 20
31.61041439799999
 30
0.0
 10
35.92205336600012
 20
31.60614904789998
 30
0.0
1001
ACAD
1000
RTMaterial
1005
0
  0
SPLINE
  5
6122A
330
1F
100
AcDbEntity
  8
1
100
AcDbSpline
210
0.0
220
0.0
230
1.0
 70
     8
 71
     3
 72
     9
 73
     5
 74
     0
 42
0.0000000001
 43
0.0000000001
 40
0.0
 40
0.0
 40
0.0
 40
0.0
 40
0.4608549086
 40
1.0
 40
1.0
 40
1.0
 40
1.0
 10
39.16755185520015
 20
36.5999999888
 30
0.0
 10
39.32590528920014
 20
36.60000006659999
 30
0.0
 10
39.66951058170014
 20
36.59818029589997
 30
0.0
 10
40.01311426920006
 20
36.59652644490001
 30
0.0
 10
40.19836821510011
 20
36.59604664199998
 30
0.0
1001
ACAD
1000
RTMaterial
1005
0
  0
SPLINE
  5
6122B
330
1F
100
AcDbEntity
  8
1
100
AcDbSpline
210
0.0
220
0.0
230
1.0
 70
     8
 71
     3
 72
     9
 73
     5
 74
     0
 42
0.0000000001
 43
0.0000000001
 40
0.0
 40
0.0
 40
0.0
 40
0.0
 40
0.4877133527000001
 40
1.0
 40
1.0
 40
1.0
 40
1.0
 10
19.46938143300008
 20
27.81092584259994
 30
0.0
 10
19.72223780590013
 20
27.367917788
 30
0.0
 10
20.32731802860007
 20
26.50658753689999
 30
0.0
 10
21.08301899910009
 20
25.77333537699997
 30
0.0
 10
21.50042861100008
 20
25.43741623299997
 30
0.0
1001
ACAD
1000
RTMaterial
1005
0
  0
SPLINE
  5
6122C
330
1F
100
AcDbEntity
  8
1
100
AcDbSpline
210
0.0
220
0.0
230
1.0
 70
     8
 71
     3
 72
    11
 73
     7
 74
     0
 42
0.0000000001
 43
0.0000000001
 40
0.0
 40
0.0
 40
0.0
 40
0.0
 40
0.2456790584
 40
0.4941322504
 40
0.7456485676000001
 40
1.0
 40
1.0
 40
1.0
 40
1.0
 10
21.50042861100008
 20
25.43741623299997
 30
0.0
 10
22.00236368120011
 20
25.033473453
 30
0.0
 10
23.07490163530008
 20
24.29605560839997
 30
0.0
 10
24.84021432190014
 20
23.43858830229999
 30
0.0
 10
26.7357157849001
 20
22.84792590079996
 30
0.0
 10
28.05301923440016
 20
22.64686585200002
 30
0.0
 10
28.71810192660007
 20
22.59590325049999
 30
0.0
1001
ACAD
1000
RTMaterial
1005
0
  0
SPLINE
  5
6122D
330
1F
100
AcDbEntity
  8
1
100
AcDbSpline
210
0.0
220
0.0
230
1.0
 70
     8
 71
     3
 72
    26
 73
    22
 74
     0
 42
0.0000000001
 43
0.0000000001
 40
0.0
 40
0.0
 40
0.0
 40
0.0
 40
0.1572726126
 40
0.2355823111
 40
0.3129039032
 40
0.3884069306
 40
0.460940281
 40
0.5289336855000001
 40
0.5904807722
 40
0.6183447439
 40
0.6441574210000001
 40
0.6680886953
 40
0.6905581022
 40
0.7121924767
 40
0.7336895511
 40
0.7783728850000001
 40
0.8023289098999999
 40
0.8274664974
 40
0.8811465137999999
 40
0.9388982375999999
 40
1.0
 40
1.0
 40
1.0
 40
1.0
 10
39.52507207510007
 20
22.20702958380002
 30
0.0
 10
39.38127181600009
 20
22.21077948339996
 30
0.0
 10
39.16593918510012
 20
22.22196406699999
 30
0.0
 10
38.88104320110017
 20
22.24961334539995
 30
0.0
 10
38.67141973540015
 20
22.27744572099999
 30
0.0
 10
38.46839209510006
 20
22.31347787390001
 30
0.0
 10
38.2759924326001
 20
22.35920486079999
 30
0.0
 10
38.10003035470004
 20
22.41647624590001
 30
0.0
 10
37.96887826460011
 20
22.47755160509996
 30
0.0
 10
37.8809335850001
 20
22.53601098670003
 30
0.0
 10
37.82702182300011
 20
22.58254007070002
 30
0.0
 10
37.78405935990008
 20
22.63312365149994
 30
0.0
 10
37.75291999130014
 20
22.68745515379999
 30
0.0
 10
37.73402414780014
 20
22.74484907799996
 30
0.0
 10
37.72462311220011
 20
22.82510415140001
 30
0.0
 10
37.73813005220006
 20
22.90803253460001
 30
0.0
 10
37.7672175030001
 20
22.98876081920003
 30
0.0
 10
37.80778398360008
 20
23.07373406479996
 30
0.0
 10
37.87502988890015
 20
23.17946169399994
 30
0.0
 10
37.97290820830006
 20
23.30343666390001
 30
0.0
 10
38.04613146320014
 20
23.38389022640001
 30
0.0
 10
38.08474037190013
 20
23.42429650700001
 30
0.0
1001
ACAD
1000
RTMaterial
1005
0
  0
SPLINE
  5
6122E
330
1F
100
AcDbEntity
  8
1
100
AcDbSpline
210
0.0
220
0.0
230
1.0
 70
     8
 71
     3
 72
    15
 73
    11
 74
     0
 42
0.0000000001
 43
0.0000000001
 40
0.0
 40
0.0
 40
0.0
 40
0.0
 40
0.1129258902
 40
0.227128721
 40
0.34430095
 40
0.4657791749000001
 40
0.5923192975
 40
0.7240123093000001
 40
0.8602999931000001
 40
1.0
 40
1.0
 40
1.0
 40
1.0
 10
42.39844561780012
 20
22.93065412420003
 30
0.0
 10
42.30813982740005
 20
22.86152784930004
 30
0.0
 10
42.11873390570008
 20
22.73228165570003
 30
0.0
 10
41.81129008370009
 20
22.57040773850002
 30
0.0
 10
41.47984909410013
 20
22.44038699570001
 30
0.0
 10
41.12521025850014
 20
22.34095666719998
 30
0.0
 10
40.74905041580007
 20
22.26994628430003
 30
0.0
 10
40.35401009320014
 20
22.22481975430003
 30
0.0
 10
39.94380301830006
 20
22.2032022834
 30
0.0
 10
39.66571394400012
 20
22.203362046
 30
0.0
 10
39.52507207510007
 20
22.20702958380002
 30
0.0
1001
ACAD
1000
RTMaterial
1005
0
  0
LINE
  5
6122F
330
1F
100
AcDbEntity
  8
1
100
AcDbLine
 10
29.0036098129001
 20
22.57648807969997
 30
0.0
 11
42.33050383330009
 21
21.78457081430003
 31
0.0
1001
ACAD
1000
RTMaterial
1005
0
  0
SPLINE
  5
61230
330
1F
100
AcDbEntity
  8
1
100
AcDbSpline
210
0.0
220
0.0
230
1.0
 70
     8
 71
     3
 72
     9
 73
     5
 74
     0
 42
0.0000000001
 43
0.0000000001
 40
0.0
 40
0.0
 40
0.0
 40
0.0
 40
0.2495087952
 40
1.0
 40
1.0
 40
1.0
 40
1.0
 10
28.71810192660007
 20
22.59590325049999
 30
0.0
 10
28.74183293970009
 20
22.59408483879997
 30
0.0
 10
28.83695945300008
 20
22.58700167579997
 30
0.0
 10
28.93214670870009
 20
22.58073460969996
 30
0.0
 10
29.0036098129001
 20
22.57648807969997
 30
0.0
1001
ACAD
1000
RTMaterial
1005
0
  0
SPLINE
  5
61231
330
1F
100
AcDbEntity
  8
1
100
AcDbSpline
210
0.0
220
0.0
230
1.0
 70
     8
 71
     3
 72
     9
 73
     5
 74
     0
 42
0.0000000001
 43
0.0000000001
 40
0.0
 40
0.0
 40
0.0
 40
0.0
 40
0.4998840186
 40
1.0
 40
1.0
 40
1.0
 40
1.0
 10
38.31373294290017
 20
25.31397124259996
 30
0.0
 10
37.88123294150012
 20
25.87054240469996
 30
0.0
 10
37.02873002970012
 20
26.99383782359996
 30
0.0
 10
36.19918959270012
 20
28.1342188145
 30
0.0
 10
35.79156183490011
 20
28.70965648869998
 30
0.0
1001
ACAD
1000
RTMaterial
1005
0
  0
SPLINE
  5
61232
330
1F
100
AcDbEntity
  8
1
100
AcDbSpline
210
0.0
220
0.0
230
1.0
 70
     8
 71
     3
 72
     9
 73
     5
 74
     0
 42
0.0000000001
 43
0.0000000001
 40
0.0
 40
0.0
 40
0.0
 40
0.0
 40
0.5037076895000001
 40
1.0
 40
1.0
 40
1.0
 40
1.0
 10
38.86872866590011
 20
24.11213978490002
 30
0.0
 10
38.78682524120007
 20
24.17431529680005
 30
0.0
 10
38.63697158510013
 20
24.31562432769999
 30
0.0
 10
38.52151971960007
 20
24.48620780479996
 30
0.0
 10
38.47417671910012
 20
24.57578216500002
 30
0.0
1001
ACAD
1000
RTMaterial
1005
0
  0
SPLINE
  5
61233
330
1F
100
AcDbEntity
  8
1
100
AcDbSpline
210
0.0
220
0.0
230
1.0
 70
     8
 71
     3
 72
     9
 73
     5
 74
     0
 42
0.0000000001
 43
0.0000000001
 40
0.0
 40
0.0
 40
0.0
 40
0.0
 40
0.2494013992
 40
1.0
 40
1.0
 40
1.0
 40
1.0
 10
42.67273397610018
 20
23.16491806140005
 30
0.0
 10
42.65102294640008
 20
23.14422078619998
 30
0.0
 10
42.56283973440008
 20
23.06242503509998
 30
0.0
 10
42.47013008980013
 20
22.98552635879997
 30
0.0
 10
42.39844561780012
 20
22.93065412420003
 30
0.0
1001
ACAD
1000
RTMaterial
1005
0
  0
SPLINE
  5
61234
330
1F
100
AcDbEntity
  8
1
100
AcDbSpline
210
0.0
220
0.0
230
1.0
 70
     8
 71
     3
 72
     9
 73
     5
 74
     0
 42
0.0000000001
 43
0.0000000001
 40
0.0
 40
0.0
 40
0.0
 40
0.0
 40
0.2502304451
 40
1.0
 40
1.0
 40
1.0
 40
1.0
 10
43.21343877460015
 20
23.03858957149998
 30
0.0
 10
43.16835655490012
 20
23.0492036549
 30
0.0
 10
42.9881752051001
 20
23.09154210719999
 30
0.0
 10
42.80792102680016
 20
23.13357053939995
 30
0.0
 10
42.67273397610018
 20
23.16491806140005
 30
0.0
1001
ACAD
1000
RTMaterial
1005
0
  0
SPLINE
  5
61235
330
1F
100
AcDbEntity
  8
1
100
AcDbSpline
210
0.0
220
0.0
230
1.0
 70
     8
 71
     3
 72
     9
 73
     5
 74
     0
 42
0.0000000001
 43
0.0000000001
 40
0.0
 40
0.0
 40
0.0
 40
0.0
 40
0.2506456017
 40
1.0
 40
1.0
 40
1.0
 40
1.0
 10
42.44953777230011
 20
21.7772927492
 30
0.0
 10
42.52130866680011
 20
21.77278167669999
 30
0.0
 10
42.80743979120006
 20
21.75152183490002
 30
0.0
 10
43.0925987874001
 20
21.71732500859997
 30
0.0
 10
43.30510934740004
 20
21.68472403390001
 30
0.0
1001
ACAD
1000
RTMaterial
1005
0
  0
LINE
  5
61236
330
1F
100
AcDbEntity
  8
1
100
AcDbLine
 10
42.33050383330009
 20
21.78457081430003
 30
0.0
 11
42.44953777230011
 21
21.7772927492
 31
0.0
1001
ACAD
1000
RTMaterial
1005
0
  0
LINE
  5
61237
330
1F
100
AcDbEntity
  8
1
100
AcDbLine
 10
47.21346793730015
 20
22.09698921579997
 30
0.0
 11
43.21343877460015
 21
23.03858957149998
 31
0.0
1001
ACAD
1000
RTMaterial
1005
0
  0
LINE
  5
61238
330
1F
100
AcDbEntity
  8
1
100
AcDbLine
 10
43.83305254030005
 20
21.59214329560001
 30
0.0
 11
47.61490310520009
 21
20.84424405119995
 31
0.0
1001
ACAD
1000
RTMaterial
1005
0
  0
SPLINE
  5
61239
330
1F
100
AcDbEntity
  8
1
100
AcDbSpline
210
0.0
220
0.0
230
1.0
 70
     8
 71
     3
 72
     9
 73
     5
 74
     0
 42
0.0000000001
 43
0.0000000001
 40
0.0
 40
0.0
 40
0.0
 40
0.0
 40
0.2492012895
 40
1.0
 40
1.0
 40
1.0
 40
1.0
 10
43.30510934740004
 20
21.68472403390001
 30
0.0
 10
43.34912029830014
 20
21.67797236989998
 30
0.0
 10
43.52558540790016
 20
21.6499565803
 30
0.0
 10
43.70145293310009
 20
21.61816846829998
 30
0.0
 10
43.83305254030005
 20
21.59214329560001
 30
0.0
1001
ACAD
1000
RTMaterial
1005
0
  0
SPLINE
  5
6123A
330
1F
100
AcDbEntity
  8
1
100
AcDbSpline
210
0.0
220
0.0
230
1.0
 70
     8
 71
     3
 72
     9
 73
     5
 74
     0
 42
0.0000000001
 43
0.0000000001
 40
0.0
 40
0.0
 40
0.0
 40
0.0
 40
0.2557103234
 40
1.0
 40
1.0
 40
1.0
 40
1.0
 10
34.96330061010008
 20
29.87118820829994
 30
0.0
 10
34.95552798990014
 20
29.87344286310003
 30
0.0
 10
34.92521217390015
 20
29.88253511199997
 30
0.0
 10
34.89521754480006
 20
29.8926962562
 30
0.0
 10
34.87311173720013
 20
29.90083422840001
 30
0.0
1001
ACAD
1000
RTMaterial
1005
0
  0
SPLINE
  5
6123B
330
1F
100
AcDbEntity
  8
1
100
AcDbSpline
210
0.0
220
0.0
230
1.0
 70
     8
 71
     3
 72
     9
 73
     5
 74
     0
 42
0.0000000001
 43
0.0000000001
 40
0.0
 40
0.0
 40
0.0
 40
0.0
 40
0.2479518119
 40
1.0
 40
1.0
 40
1.0
 40
1.0
 10
35.02739124410016
 20
29.85392189880002
 30
0.0
 10
35.02206755270015
 20
29.8552472234
 30
0.0
 10
35.00062241370006
 20
29.86069433099999
 30
0.0
 10
34.97928164510006
 20
29.86655248490001
 30
0.0
 10
34.96330061010008
 20
29.87118820829994
 30
0.0
1001
ACAD
1000
RTMaterial
1005
0
  0
SPLINE
  5
6123C
330
1F
100
AcDbEntity
  8
1
100
AcDbSpline
210
0.0
220
0.0
230
1.0
 70
     8
 71
     3
 72
    10
 73
     6
 74
     0
 42
0.0000000001
 43
0.0000000001
 40
0.0
 40
0.0
 40
0.0
 40
0.0
 40
0.4447368471
 40
0.6984234519000001
 40
1.0
 40
1.0
 40
1.0
 40
1.0
 10
35.45827679610011
 20
29.15822420210003
 30
0.0
 10
35.35364247300015
 20
29.23230856890001
 30
0.0
 10
35.19143715970006
 20
29.35174567519999
 30
0.0
 10
34.96662876180017
 20
29.53224470000004
 30
0.0
 10
34.8461658358001
 20
29.63783612280002
 30
0.0
 10
34.78296100260013
 20
29.69752827259998
 30
0.0
1001
ACAD
1000
RTMaterial
1005
0
  0
SPLINE
  5
6123D
330
1F
100
AcDbEntity
  8
1
100
AcDbSpline
210
0.0
220
0.0
230
1.0
 70
     8
 71
     3
 72
     9
 73
     5
 74
     0
 42
0.0000000001
 43
0.0000000001
 40
0.0
 40
0.0
 40
0.0
 40
0.0
 40
0.2552991733
 40
1.0
 40
1.0
 40
1.0
 40
1.0
 10
34.73171733490005
 20
29.97375851869998
 30
0.0
 10
34.72214252780009
 20
29.98025441339996
 30
0.0
 10
34.68541824760007
 20
30.00682137009994
 30
0.0
 10
34.6519966080001
 20
30.03801802089999
 30
0.0
 10
34.62983683050016
 20
30.06347462500003
 30
0.0
1001
ACAD
1000
RTMaterial
1005
0
  0
SPLINE
  5
6123E
330
1F
100
AcDbEntity
  8
1
100
AcDbSpline
210
0.0
220
0.0
230
1.0
 70
     8
 71
     3
 72
     9
 73
     5
 74
     0
 42
0.0000000001
 43
0.0000000001
 40
0.0
 40
0.0
 40
0.0
 40
0.0
 40
0.2495983868
 40
1.0
 40
1.0
 40
1.0
 40
1.0
 10
34.87310774640014
 20
29.90081993619998
 30
0.0
 10
34.86066828320009
 20
29.90539885369998
 30
0.0
 10
34.81140446910013
 20
29.925281912
 30
0.0
 10
34.76469598490008
 20
29.95138528149994
 30
0.0
 10
34.73171733490005
 20
29.97375851869998
 30
0.0
1001
ACAD
1000
RTMaterial
1005
0
  0
SPLINE
  5
6123F
330
1F
100
AcDbEntity
  8
1
100
AcDbSpline
210
0.0
220
0.0
230
1.0
 70
     8
 71
     3
 72
    13
 73
     9
 74
     0
 42
0.0000000001
 43
0.0000000001
 40
0.0
 40
0.0
 40
0.0
 40
0.0
 40
0.0657671557
 40
0.1521281919
 40
0.3812539742
 40
0.6719659512
 40
0.8331264702
 40
1.0
 40
1.0
 40
1.0
 40
1.0
 10
38.86872866590011
 20
24.11213978490002
 30
0.0
 10
38.88973793160017
 20
24.09161567509995
 30
0.0
 10
38.94035810090008
 20
24.0461931442
 30
0.0
 10
39.07516553520009
 20
23.94197769559998
 30
0.0
 10
39.31206608750006
 20
23.80702707079996
 30
0.0
 10
39.60795443550012
 20
23.7210078855
 30
0.0
 10
39.88437687950011
 20
23.70083920859997
 30
0.0
 10
40.03113467060006
 20
23.71251034259996
 30
0.0
 10
40.10473759580008
 20
23.72418445509999
 30
0.0
1001
ACAD
1000
RTMaterial
1005
0
  0
SPLINE
  5
61240
330
1F
100
AcDbEntity
  8
1
100
AcDbSpline
210
0.0
220
0.0
230
1.0
 70
     8
 71
     3
 72
     9
 73
     5
 74
     0
 42
0.0000000001
 43
0.0000000001
 40
0.0
 40
0.0
 40
0.0
 40
0.0
 40
0.548681281
 40
1.0
 40
1.0
 40
1.0
 40
1.0
 10
38.53493412690011
 20
24.51184195629998
 30
0.0
 10
38.4811888137001
 20
24.65434640439998
 30
0.0
 10
38.39936284710006
 20
24.92022926699997
 30
0.0
 10
38.33800094390006
 20
25.19106751000004
 30
0.0
 10
38.31373294290017
 20
25.31397124259996
 30
0.0
1001
ACAD
1000
RTMaterial
1005
0
  0
SPLINE
  5
61241
330
1F
100
AcDbEntity
  8
1
100
AcDbSpline
210
0.0
220
0.0
230
1.0
 70
     8
 71
     3
 72
     8
 73
     4
 74
     0
 42
0.0000000001
 43
0.0000000001
 40
0.0
 40
0.0
 40
0.0
 40
0.0
 40
1.0
 40
1.0
 40
1.0
 40
1.0
 10
40.7614654442001
 20
23.85880833570002
 30
0.0
 10
40.82846476470012
 20
23.9050341121
 30
0.0
 10
40.89185832090016
 20
23.95697382729998
 30
0.0
 10
40.95033969430017
 20
24.01359237829996
 30
0.0
1001
ACAD
1000
RTMaterial
1005
0
  0
SPLINE
  5
61242
330
1F
100
AcDbEntity
  8
1
100
AcDbSpline
210
0.0
220
0.0
230
1.0
 70
     8
 71
     3
 72
     9
 73
     5
 74
     0
 42
0.0000000001
 43
0.0000000001
 40
0.0
 40
0.0
 40
0.0
 40
0.0
 40
0.2495208058
 40
1.0
 40
1.0
 40
1.0
 40
1.0
 10
40.62227448560008
 20
23.77398368399997
 30
0.0
 10
40.6342372053001
 20
23.7803717214
 30
0.0
 10
40.68181322030011
 20
23.80665412140002
 30
0.0
 10
40.72789227010014
 20
23.83564472719996
 30
0.0
 10
40.7614654442001
 20
23.85880833570002
 30
0.0
1001
ACAD
1000
RTMaterial
1005
0
  0
SPLINE
  5
61243
330
1F
100
AcDbEntity
  8
1
100
AcDbSpline
210
0.0
220
0.0
230
1.0
 70
     8
 71
     3
 72
     9
 73
     5
 74
     0
 42
0.0000000001
 43
0.0000000001
 40
0.0
 40
0.0
 40
0.0
 40
0.0
 40
0.255975547
 40
1.0
 40
1.0
 40
1.0
 40
1.0
 10
38.60807861910007
 20
24.90732990960004
 30
0.0
 10
38.60960354380006
 20
24.9160639342
 30
0.0
 10
38.61613522560003
 20
24.95008005619997
 30
0.0
 10
38.62502315590007
 20
24.98365657530002
 30
0.0
 10
38.63307705030013
 20
25.00813628309999
 30
0.0
1001
ACAD
1000
RTMaterial
1005
0
  0
SPLINE
  5
61244
330
1F
100
AcDbEntity
  8
1
100
AcDbSpline
210
0.0
220
0.0
230
1.0
 70
     8
 71
     3
 72
     9
 73
     5
 74
     0
 42
0.0000000001
 43
0.0000000001
 40
0.0
 40
0.0
 40
0.0
 40
0.0
 40
0.252764859
 40
1.0
 40
1.0
 40
1.0
 40
1.0
 10
38.63307705030013
 20
25.00813628309999
 30
0.0
 10
38.63438575570013
 20
25.01211407609998
 30
0.0
 10
38.63971422920008
 20
25.0278010399
 30
0.0
 10
38.64565244760013
 20
25.04328177420001
 30
0.0
 10
38.6504416895001
 20
25.05469725329999
 30
0.0
1001
ACAD
1000
RTMaterial
1005
0
  0
SPLINE
  5
61245
330
1F
100
AcDbEntity
  8
1
100
AcDbSpline
210
0.0
220
0.0
230
1.0
 70
     8
 71
     3
 72
     9
 73
     5
 74
     0
 42
0.0000000001
 43
0.0000000001
 40
0.0
 40
0.0
 40
0.0
 40
0.0
 40
0.2978919932
 40
1.0
 40
1.0
 40
1.0
 40
1.0
 10
38.71149328990009
 20
25.3278624125
 30
0.0
 10
38.71080516620009
 20
25.32951973930006
 30
0.0
 10
38.70857344550007
 20
25.33511071640004
 30
0.0
 10
38.70659640020017
 20
25.34083488259995
 30
0.0
 10
38.70568974520006
 20
25.34496606879998
 30
0.0
1001
ACAD
1000
RTMaterial
1005
0
  0
SPLINE
  5
61246
330
1F
100
AcDbEntity
  8
1
100
AcDbSpline
210
0.0
220
0.0
230
1.0
 70
     8
 71
     3
 72
     9
 73
     5
 74
     0
 42
0.0000000001
 43
0.0000000001
 40
0.0
 40
0.0
 40
0.0
 40
0.0
 40
0.2603198596
 40
1.0
 40
1.0
 40
1.0
 40
1.0
 10
38.68988450690006
 20
25.14860362399998
 30
0.0
 10
38.69017887420012
 20
25.16428465049995
 30
0.0
 10
38.69273143680016
 20
25.22447645530002
 30
0.0
 10
38.7012208535001
 20
25.28449815239998
 30
0.0
 10
38.71149328990009
 20
25.3278624125
 30
0.0
1001
ACAD
1000
RTMaterial
1005
0
  0
SPLINE
  5
61247
330
1F
100
AcDbEntity
  8
1
100
AcDbSpline
210
0.0
220
0.0
230
1.0
 70
     8
 71
     3
 72
     9
 73
     5
 74
     0
 42
0.0000000001
 43
0.0000000001
 40
0.0
 40
0.0
 40
0.0
 40
0.0
 40
0.2432143056
 40
1.0
 40
1.0
 40
1.0
 40
1.0
 10
38.58658686550007
 20
24.88547329969998
 30
0.0
 10
38.58839789530009
 20
24.8970813656
 30
0.0
 10
38.59729742750017
 20
24.94457592740003
 30
0.0
 10
38.61184803050014
 20
24.99097082930001
 30
0.0
 10
38.62551118610009
 20
25.024878108
 30
0.0
1001
ACAD
1000
RTMaterial
1005
0
  0
SPLINE
  5
61248
330
1F
100
AcDbEntity
  8
1
100
AcDbSpline
210
0.0
220
0.0
230
1.0
 70
     8
 71
     3
 72
     9
 73
     5
 74
     0
 42
0.0000000001
 43
0.0000000001
 40
0.0
 40
0.0
 40
0.0
 40
0.0
 40
0.248603284
 40
1.0
 40
1.0
 40
1.0
 40
1.0
 10
40.19836821510011
 20
36.59604664199998
 30
0.0
 10
40.21510354680015
 20
36.59600329789999
 30
0.0
 10
40.28239972130006
 20
36.59375382799999
 30
0.0
 10
40.34941339400006
 20
36.58308326129998
 30
0.0
 10
40.39840339840009
 20
36.57049182430001
 30
0.0
1001
ACAD
1000
RTMaterial
1005
0
  0
SPLINE
  5
61249
330
1F
100
AcDbEntity
  8
1
100
AcDbSpline
210
0.0
220
0.0
230
1.0
 70
     8
 71
     3
 72
     9
 73
     5
 74
     0
 42
0.0000000001
 43
0.0000000001
 40
0.0
 40
0.0
 40
0.0
 40
0.0
 40
0.2559840296
 40
1.0
 40
1.0
 40
1.0
 40
1.0
 10
40.39840339840009
 20
36.57049182430001
 30
0.0
 10
40.4483112685001
 20
36.557664477
 30
0.0
 10
40.64330403520012
 20
36.50766334409997
 30
0.0
 10
40.8383990635001
 20
36.45806204619999
 30
0.0
 10
40.9835711907001
 20
36.42123062989998
 30
0.0
1001
ACAD
1000
RTMaterial
1005
0
  0
SPLINE
  5
6124A
330
1F
100
AcDbEntity
  8
1
100
AcDbSpline
210
0.0
220
0.0
230
1.0
 70
     8
 71
     3
 72
    10
 73
     6
 74
     0
 42
0.0000000001
 43
0.0000000001
 40
0.0
 40
0.0
 40
0.0
 40
0.0
 40
0.2365561519
 40
0.4836155781000001
 40
1.0
 40
1.0
 40
1.0
 40
1.0
 10
38.08474037190013
 20
23.42429650700001
 30
0.0
 10
38.14159201870007
 20
23.4837947853
 30
0.0
 10
38.26212985890015
 20
23.60132414460003
 30
0.0
 10
38.52186508690011
 20
23.83283248100003
 30
0.0
 10
38.72798449710013
 20
24.00050868979997
 30
0.0
 10
38.86872866590011
 20
24.11213978490002
 30
0.0
1001
ACAD
1000
RTMaterial
1005
0
  0
SPLINE
  5
6124B
330
1F
100
AcDbEntity
  8
1
100
AcDbSpline
210
0.0
220
0.0
230
1.0
 70
     8
 71
     3
 72
     9
 73
     5
 74
     0
 42
0.0000000001
 43
0.0000000001
 40
0.0
 40
0.0
 40
0.0
 40
0.0
 40
0.2447968725
 40
1.0
 40
1.0
 40
1.0
 40
1.0
 10
38.62551118610009
 20
25.024878108
 30
0.0
 10
38.62976832950017
 20
25.03544288170002
 30
0.0
 10
38.64822297940009
 20
25.07816644420001
 30
0.0
 10
38.67085496160007
 20
25.11906322739998
 30
0.0
 10
38.68988450690006
 20
25.14860362399998
 30
0.0
1001
ACAD
1000
RTMaterial
1005
0
  0
SPLINE
  5
6124C
330
1F
100
AcDbEntity
  8
1
100
AcDbSpline
210
0.0
220
0.0
230
1.0
 70
     8
 71
     3
 72
     9
 73
     5
 74
     0
 42
0.0000000001
 43
0.0000000001
 40
0.0
 40
0.0
 40
0.0
 40
0.0
 40
0.4948621754
 40
1.0
 40
1.0
 40
1.0
 40
1.0
 10
38.47417671910012
 20
24.57578216500002
 30
0.0
 10
38.41541227820016
 20
24.68696622899995
 30
0.0
 10
38.32693398760012
 20
24.92894651159998
 30
0.0
 10
38.30679676710008
 20
25.18578911809999
 30
0.0
 10
38.31373294290017
 20
25.31397124259996
 30
0.0
1001
ACAD
1000
RTMaterial
1005
0
  0
SPLINE
  5
6124D
330
1F
100
AcDbEntity
  8
1
100
AcDbSpline
210
0.0
220
0.0
230
1.0
 70
     8
 71
     3
 72
     9
 73
     5
 74
     0
 42
0.0000000001
 43
0.0000000001
 40
0.0
 40
0.0
 40
0.0
 40
0.0
 40
0.203505915
 40
1.0
 40
1.0
 40
1.0
 40
1.0
 10
34.76215700830005
 20
29.73244994250001
 30
0.0
 10
34.7785759218001
 20
29.7204449468
 30
0.0
 10
34.86107262530016
 20
29.6639625043
 30
0.0
 10
34.95151274450007
 20
29.61925188609996
 30
0.0
 10
35.02567226400004
 20
29.59031120489999
 30
0.0
1001
ACAD
1000
RTMaterial
1005
0
  0
SPLINE
  5
6124E
330
1F
100
AcDbEntity
  8
1
100
AcDbSpline
210
0.0
220
0.0
230
1.0
 70
     8
 71
     3
 72
     9
 73
     5
 74
     0
 42
0.0000000001
 43
0.0000000001
 40
0.0
 40
0.0
 40
0.0
 40
0.0
 40
0.5000010220000001
 40
1.0
 40
1.0
 40
1.0
 40
1.0
 10
33.37079296630009
 20
35.17099014640002
 30
0.0
 10
33.84242368590014
 20
35.31951139430004
 30
0.0
 10
34.80967963990008
 20
35.54518329729996
 30
0.0
 10
35.80004859340011
 20
35.62098506969994
 30
0.0
 10
36.29451001350015
 20
35.62102809439995
 30
0.0
1001
ACAD
1000
RTMaterial
1005
0
  0
SPLINE
  5
6124F
330
1F
100
AcDbEntity
  8
1
100
AcDbSpline
210
0.0
220
0.0
230
1.0
 70
     8
 71
     3
 72
    11
 73
     7
 74
     0
 42
0.0000000001
 43
0.0000000001
 40
0.0
 40
0.0
 40
0.0
 40
0.0
 40
0.2293314984
 40
0.4718565070000001
 40
0.7288874159000001
 40
1.0
 40
1.0
 40
1.0
 40
1.0
 10
33.37079296630009
 20
21.1852448377
 30
0.0
 10
33.5589251002001
 20
20.9936243862
 30
0.0
 10
33.96509698900013
 20
20.61757407930003
 30
0.0
 10
34.64815700290012
 20
20.10321044559999
 30
0.0
 10
35.42660567970006
 20
19.64289599930004
 30
0.0
 10
35.9955794422001
 20
19.39523154890003
 30
0.0
 10
36.29451001350015
 20
19.28835854859994
 30
0.0
1001
ACAD
1000
RTMaterial
1005
0
  0
SPLINE
  5
61250
330
1F
100
AcDbEntity
  8
1
100
AcDbSpline
210
0.0
220
0.0
230
1.0
 70
     8
 71
     3
 72
     9
 73
     5
 74
     0
 42
0.0000000001
 43
0.0000000001
 40
0.0
 40
0.0
 40
0.0
 40
0.0
 40
0.2488552884
 40
1.0
 40
1.0
 40
1.0
 40
1.0
 10
33.00967279910015
 20
21.56122909640004
 30
0.0
 10
33.03927436200013
 20
21.52970366539995
 30
0.0
 10
33.15859185070008
 20
21.40336646240001
 30
0.0
 10
33.27934612870013
 20
21.27838726869999
 30
0.0
 10
33.37079296630009
 20
21.1852448377
 30
0.0
1001
ACAD
1000
RTMaterial
1005
0
  0
SPLINE
  5
61251
330
1F
100
AcDbEntity
  8
1
100
AcDbSpline
210
0.0
220
0.0
230
1.0
 70
     8
 71
     3
 72
    15
 73
    11
 74
     0
 42
0.0000000001
 43
0.0000000001
 40
0.0
 40
0.0
 40
0.0
 40
0.0
 40
0.1283925738
 40
0.2562644751
 40
0.3832297233
 40
0.5090672879
 40
0.6336809469000001
 40
0.7570405626000002
 40
0.8791439578
 40
1.0
 40
1.0
 40
1.0
 40
1.0
 10
28.00416334320016
 20
29.12761677269998
 30
0.0
 10
27.74760016250013
 20
29.12094757659998
 30
0.0
 10
27.23396414440015
 20
29.13852125919999
 30
0.0
 10
26.47670207400006
 20
29.26954510489998
 30
0.0
 10
25.74993833320013
 20
29.50266521980001
 30
0.0
 10
25.06410146740007
 20
29.82081351570002
 30
0.0
 10
24.42104095400009
 20
30.20342911630002
 30
0.0
 10
23.81846481870014
 20
30.63377126350002
 30
0.0
 10
23.25306229710009
 20
31.09982690539994
 30
0.0
 10
22.89689163160006
 20
31.43040268750002
 30
0.0
 10
22.72405845100013
 20
31.59919804100002
 30
0.0
1001
ACAD
1000
RTMaterial
1005
0
  0
SPLINE
  5
61252
330
1F
100
AcDbEntity
  8
1
100
AcDbSpline
210
0.0
220
0.0
230
1.0
 70
     8
 71
     3
 72
     9
 73
     5
 74
     0
 42
0.0000000001
 43
0.0000000001
 40
0.0
 40
0.0
 40
0.0
 40
0.0
 40
0.5000064151000001
 40
1.0
 40
1.0
 40
1.0
 40
1.0
 10
29.10403781490004
 20
29.10610438200001
 30
0.0
 10
28.92096935040013
 20
29.11695699450002
 30
0.0
 10
28.55441809000013
 20
29.13203865309998
 30
0.0
 10
28.18748657460015
 20
29.13238214299997
 30
0.0
 10
28.00416334320016
 20
29.12761677269998
 30
0.0
1001
ACAD
1000
RTMaterial
1005
0
  0
SPLINE
  5
61253
330
1F
100
AcDbEntity
  8
1
100
AcDbSpline
210
0.0
220
0.0
230
1.0
 70
     8
 71
     3
 72
     8
 73
     4
 74
     0
 42
0.0000000001
 43
0.0000000001
 40
0.0
 40
0.0
 40
0.0
 40
0.0
 40
1.0
 40
1.0
 40
1.0
 40
1.0
 10
33.37079296630009
 20
35.17099014640002
 30
0.0
 10
31.66932154090011
 20
34.63517971500005
 30
0.0
 10
29.96805150770013
 20
34.09872920789997
 30
0.0
 10
28.2670140698001
 20
33.56154258820004
 30
0.0
1001
ACAD
1000
RTMaterial
1005
0
  0
SPLINE
  5
61254
330
1F
100
AcDbEntity
  8
1
100
AcDbSpline
210
0.0
220
0.0
230
1.0
 70
     8
 71
     3
 72
     9
 73
     5
 74
     0
 42
0.0000000001
 43
0.0000000001
 40
0.0
 40
0.0
 40
0.0
 40
0.0
 40
0.4963146353
 40
1.0
 40
1.0
 40
1.0
 40
1.0
 10
25.09564366670009
 20
32.45065468439998
 30
0.0
 10
25.6138713959001
 20
32.65207512230001
 30
0.0
 10
26.66562303990009
 20
33.03850967930003
 30
0.0
 10
27.72895487620008
 20
33.39162381219995
 30
0.0
 10
28.2670140698001
 20
33.56154258820004
 30
0.0
1001
ACAD
1000
RTMaterial
1005
0
  0
SPLINE
  5
61255
330
1F
100
AcDbEntity
  8
1
100
AcDbSpline
210
0.0
220
0.0
230
1.0
 70
     8
 71
     3
 72
     9
 73
     5
 74
     0
 42
0.0000000001
 43
0.0000000001
 40
0.0
 40
0.0
 40
0.0
 40
0.0
 40
0.5158171671
 40
1.0
 40
1.0
 40
1.0
 40
1.0
 10
29.0036098129001
 20
21.89426696449999
 30
0.0
 10
28.31118916790013
 20
21.9521593334
 30
0.0
 10
26.97577900390013
 20
22.17738394349999
 30
0.0
 10
25.69504490520012
 20
22.61363346039997
 30
0.0
 10
25.09564366670009
 20
22.87075855099999
 30
0.0
1001
ACAD
1000
RTMaterial
1005
0
  0
SPLINE
  5
61256
330
1F
100
AcDbEntity
  8
1
100
AcDbSpline
210
0.0
220
0.0
230
1.0
 70
     8
 71
     3
 72
     9
 73
     5
 74
     0
 42
0.0000000001
 43
0.0000000001
 40
0.0
 40
0.0
 40
0.0
 40
0.0
 40
0.2493773707999999
 40
1.0
 40
1.0
 40
1.0
 40
1.0
 10
29.0036098129001
 20
21.89426696449999
 30
0.0
 10
29.33660386920008
 20
21.86642577449999
 30
0.0
 10
30.67191976240008
 20
21.75495135839998
 30
0.0
 10
32.00728895840007
 20
21.64411572710003
 30
0.0
 10
33.00967279910015
 20
21.56122909640004
 30
0.0
1001
ACAD
1000
RTMaterial
1005
0
  0
SPLINE
  5
61257
330
1F
100
AcDbEntity
  8
1
100
AcDbSpline
210
0.0
220
0.0
230
1.0
 70
     8
 71
     3
 72
    15
 73
    11
 74
     0
 42
0.0000000001
 43
0.0000000001
 40
0.0
 40
0.0
 40
0.0
 40
0.0
 40
0.1403738426
 40
0.2707852084
 40
0.393208207
 40
0.5105696011000001
 40
0.6264692745
 40
0.7446330055
 40
0.8683320291999999
 40
1.0
 40
1.0
 40
1.0
 40
1.0
 10
17.87874045680007
 20
29.02746719829997
 30
0.0
 10
17.8493239472001
 20
29.0778111688
 30
0.0
 10
17.79825102490008
 20
29.17846235689996
 30
0.0
 10
17.74601880570014
 20
29.33390426049999
 30
0.0
 10
17.72228277150009
 20
29.48669402890005
 30
0.0
 10
17.72784073960008
 20
29.63529675070004
 30
0.0
 10
17.7624771981001
 20
29.7781003096
 30
0.0
 10
17.82519403000015
 20
29.91377887420004
 30
0.0
 10
17.91421756680006
 20
30.04165534649997
 30
0.0
 10
17.98726123150004
 20
30.11908065759997
 30
0.0
 10
18.02706295250016
 20
30.15659112380002
 30
0.0
1001
ACAD
1000
RTMaterial
1005
0
  0
SPLINE
  5
61258
330
1F
100
AcDbEntity
  8
1
100
AcDbSpline
210
0.0
220
0.0
230
1.0
 70
     8
 71
     3
 72
    11
 73
     7
 74
     0
 42
0.0000000001
 43
0.0000000001
 40
0.0
 40
0.0
 40
0.0
 40
0.0
 40
0.2735660736
 40
0.5319468533000001
 40
0.7742351922
 40
1.0
 40
1.0
 40
1.0
 40
1.0
 10
21.50042861100008
 20
25.15775585109998
 30
0.0
 10
21.27167393190007
 20
25.3615655319
 30
0.0
 10
20.84743125780005
 20
25.78167226539995
 30
0.0
 10
20.29537120710006
 20
26.45202097369998
 30
0.0
 10
19.83880990240004
 20
27.12670564649994
 30
0.0
 10
19.58331141610017
 20
27.58520595490001
 30
0.0
 10
19.46938143300008
 20
27.81092584259994
 30
0.0
1001
ACAD
1000
RTMaterial
1005
0
  0
SPLINE
  5
61259
330
1F
100
AcDbEntity
  8
1
100
AcDbSpline
210
0.0
220
0.0
230
1.0
 70
     8
 71
     3
 72
     9
 73
     5
 74
     0
 42
0.0000000001
 43
0.0000000001
 40
0.0
 40
0.0
 40
0.0
 40
0.0
 40
0.5104519954
 40
1.0
 40
1.0
 40
1.0
 40
1.0
 10
25.09564366670009
 20
22.87075855099999
 30
0.0
 10
24.42717942390016
 20
23.15750959170003
 30
0.0
 10
23.16165904930017
 20
23.82835227539993
 30
0.0
 10
22.02127601700011
 20
24.6937052623
 30
0.0
 10
21.50042861100008
 20
25.15775585109998
 30
0.0
1001
ACAD
1000
RTMaterial
1005
0
  0
SPLINE
  5
6125A
330
1F
100
AcDbEntity
  8
1
100
AcDbSpline
210
0.0
220
0.0
230
1.0
 70
     8
 71
     3
 72
     9
 73
     5
 74
     0
 42
0.0000000001
 43
0.0000000001
 40
0.0
 40
0.0
 40
0.0
 40
0.0
 40
0.4911641542
 40
1.0
 40
1.0
 40
1.0
 40
1.0
 10
22.72405845100013
 20
31.59919804100002
 30
0.0
 10
23.11492895480012
 20
31.73124263390003
 30
0.0
 10
23.90932413260009
 20
32.00431888000003
 30
0.0
 10
24.69726087670006
 20
32.29581457939997
 30
0.0
 10
25.09564366670009
 20
32.45065468439998
 30
0.0
1001
ACAD
1000
RTMaterial
1005
0
  0
SPLINE
  5
6125B
330
1F
100
AcDbEntity
  8
1
100
AcDbSpline
210
0.0
220
0.0
230
1.0
 70
     8
 71
     3
 72
     9
 73
     5
 74
     0
 42
0.0000000001
 43
0.0000000001
 40
0.0
 40
0.0
 40
0.0
 40
0.0
 40
0.4999935171
 40
1.0
 40
1.0
 40
1.0
 40
1.0
 10
35.45827679610011
 20
29.15822420210003
 30
0.0
 10
35.35072324940006
 20
29.19479663200002
 30
0.0
 10
35.14457522220005
 20
29.29749421049996
 30
0.0
 10
34.97315808350015
 20
29.45123373030003
 30
0.0
 10
34.89936055570013
 20
29.53760445590001
 30
0.0
1001
ACAD
1000
RTMaterial
1005
0
  0
SPLINE
  5
6125C
330
1F
100
AcDbEntity
  8
1
100
AcDbSpline
210
0.0
220
0.0
230
1.0
 70
     8
 71
     3
 72
    19
 73
    15
 74
     0
 42
0.0000000001
 43
0.0000000001
 40
0.0
 40
0.0
 40
0.0
 40
0.0
 40
0.0404548804
 40
0.084439982
 40
0.1320693858
 40
0.1833112653
 40
0.238016277
 40
0.2959873116
 40
0.3569927187
 40
0.4207775578000001
 40
0.5556633606000001
 40
0.6985690172
 40
0.8473954106
 40
1.0
 40
1.0
 40
1.0
 40
1.0
 10
18.02706295250016
 20
30.15659112380002
 30
0.0
 10
18.07567160900009
 20
30.20240153920003
 30
0.0
 10
18.18424445290009
 20
30.29057972729999
 30
0.0
 10
18.36801074760012
 20
30.40852986460004
 30
0.0
 10
18.57699317070012
 20
30.51840080579996
 30
0.0
 10
18.80904888320015
 20
30.62096317100003
 30
0.0
 10
19.06207895470004
 20
30.71726254359993
 30
0.0
 10
19.33410219230006
 20
30.80820068189996
 30
0.0
 10
19.62322415160008
 20
30.89471995729997
 30
0.0
 10
20.0368950126001
 20
31.00752115710003
 30
0.0
 10
20.58506135850007
 20
31.14045691299998
 30
0.0
 10
21.27276378180011
 20
31.29285014549998
 30
0.0
 10
21.99043803910013
 20
31.44504230109993
 30
0.0
 10
22.47751403320012
 20
31.54723823879999
 30
0.0
 10
22.72405845100013
 20
31.59919804100002
 30
0.0
1001
ACAD
1000
RTMaterial
1005
0
  0
SPLINE
  5
6125D
330
1F
100
AcDbEntity
  8
1
100
AcDbSpline
210
0.0
220
0.0
230
1.0
 70
     8
 71
     3
 72
     9
 73
     5
 74
     0
 42
0.0000000001
 43
0.0000000001
 40
0.0
 40
0.0
 40
0.0
 40
0.0
 40
0.2430575989
 40
1.0
 40
1.0
 40
1.0
 40
1.0
 10
35.02567226400004
 20
29.59031120489999
 30
0.0
 10
35.04825050950012
 20
29.58150006630001
 30
0.0
 10
35.1422433030001
 20
29.54812866680004
 30
0.0
 10
35.24038465460012
 20
29.52648670989999
 30
0.0
 10
35.31526521280011
 20
29.51700169430001
 30
0.0
1001
ACAD
1000
RTMaterial
1005
0
  0
SPLINE
  5
6125E
330
1F
100
AcDbEntity
  8
1
100
AcDbSpline
210
0.0
220
0.0
230
1.0
 70
     8
 71
     3
 72
    13
 73
     9
 74
     0
 42
0.0000000001
 43
0.0000000001
 40
0.0
 40
0.0
 40
0.0
 40
0.0
 40
0.1167871067
 40
0.2235876191
 40
0.3330132689
 40
0.4499261183
 40
0.7092621707
 40
1.0
 40
1.0
 40
1.0
 40
1.0
 10
48.21206185760008
 20
15.82371829350001
 30
0.0
 10
48.20504413040009
 20
15.82751126939996
 30
0.0
 10
48.19005036450011
 20
15.83239821609993
 30
0.0
 10
48.16694185020009
 20
15.83039333649998
 30
0.0
 10
48.14561587990005
 20
15.8218535885
 30
0.0
 10
48.11772853670004
 20
15.80363410899997
 30
0.0
 10
48.08512909180007
 20
15.77131158320003
 30
0.0
 10
48.06218100990008
 20
15.74151841320002
 30
0.0
 10
48.0506984270001
 20
15.7253157513
 30
0.0
1001
ACAD
1000
RTMaterial
1005
0
  0
SPLINE
  5
6125F
330
1F
100
AcDbEntity
  8
1
100
AcDbSpline
210
0.0
220
0.0
230
1.0
 70
     8
 71
     3
 72
     9
 73
     5
 74
     0
 42
0.0000000001
 43
0.0000000001
 40
0.0
 40
0.0
 40
0.0
 40
0.0
 40
0.4943042963
 40
1.0
 40
1.0
 40
1.0
 40
1.0
 10
49.50000000000006
 20
15.16084077719995
 30
0.0
 10
49.28505776330007
 20
15.2646187885
 30
0.0
 10
48.85351856170007
 20
15.48141738839996
 30
0.0
 10
48.42687757350006
 20
15.70761363280002
 30
0.0
 10
48.21206185760008
 20
15.82371829350001
 30
0.0
1001
ACAD
1000
RTMaterial
1005
0
  0
SPLINE
  5
61260
330
1F
100
AcDbEntity
  8
1
100
AcDbSpline
210
0.0
220
0.0
230
1.0
 70
     8
 71
     3
 72
     9
 73
     5
 74
     0
 42
0.0000000001
 43
0.0000000001
 40
0.0
 40
0.0
 40
0.0
 40
0.0
 40
0.2432539502
 40
1.0
 40
1.0
 40
1.0
 40
1.0
 10
34.72078952130005
 20
30.88674488200002
 30
0.0
 10
34.7382165877001
 20
30.9074518823
 30
0.0
 10
34.8128820482001
 20
30.9900082913
 30
0.0
 10
34.89873604110016
 20
31.0622530146
 30
0.0
 10
34.96772752580012
 20
31.11051332479997
 30
0.0
1001
ACAD
1000
RTMaterial
1005
0
  0
SPLINE
  5
61261
330
1F
100
AcDbEntity
  8
1
100
AcDbSpline
210
0.0
220
0.0
230
1.0
 70
     8
 71
     3
 72
     9
 73
     5
 74
     0
 42
0.0000000001
 43
0.0000000001
 40
0.0
 40
0.0
 40
0.0
 40
0.0
 40
0.5026008741
 40
1.0
 40
1.0
 40
1.0
 40
1.0
 10
47.13071429310014
 20
15.73005888559999
 30
0.0
 10
47.07291990540011
 20
15.73293065289994
 30
0.0
 10
46.95828219930013
 20
15.74983285600001
 30
0.0
 10
46.84836903220014
 20
15.78577568060001
 30
0.0
 10
46.79538781610017
 20
15.80751222369997
 30
0.0
1001
ACAD
1000
RTMaterial
1005
0
  0
SPLINE
  5
61262
330
1F
100
AcDbEntity
  8
1
100
AcDbSpline
210
0.0
220
0.0
230
1.0
 70
     8
 71
     3
 72
    10
 73
     6
 74
     0
 42
0.0000000001
 43
0.0000000001
 40
0.0
 40
0.0
 40
0.0
 40
0.0
 40
0.5728516651
 40
0.8123206828
 40
1.0
 40
1.0
 40
1.0
 40
1.0
 10
38.48036146660013
 20
24.87164292759997
 30
0.0
 10
38.48279088760012
 20
24.80544982320004
 30
0.0
 10
38.49191463670013
 20
24.7116254563
 30
0.0
 10
38.51391694210008
 20
24.59806579479999
 30
0.0
 10
38.52578820320014
 20
24.55010698699999
 30
0.0
 10
38.53130317000012
 20
24.52911847680002
 30
0.0
1001
ACAD
1000
RTMaterial
1005
0
  0
SPLINE
  5
61263
330
1F
100
AcDbEntity
  8
1
100
AcDbSpline
210
0.0
220
0.0
230
1.0
 70
     8
 71
     3
 72
    11
 73
     7
 74
     0
 42
0.0000000001
 43
0.0000000001
 40
0.0
 40
0.0
 40
0.0
 40
0.0
 40
0.4051627574000001
 40
0.7284171575000001
 40
0.9408543569999999
 40
1.0
 40
1.0
 40
1.0
 40
1.0
 10
38.53130317000012
 20
24.52911847680002
 30
0.0
 10
38.5320231285001
 20
24.52637850449998
 30
0.0
 10
38.53325633440011
 20
24.52178596579995
 30
0.0
 10
38.53514624180014
 20
24.51430863240001
 30
0.0
 10
38.53573020340014
 20
24.51234965289996
 30
0.0
 10
38.53651802900003
 20
24.50844096029999
 30
0.0
 10
38.53625621620006
 20
24.5087610928
 30
0.0
1001
ACAD
1000
RTMaterial
1005
0
  0
SPLINE
  5
61264
330
1F
100
AcDbEntity
  8
1
100
AcDbSpline
210
0.0
220
0.0
230
1.0
 70
     8
 71
     3
 72
     9
 73
     5
 74
     0
 42
0.0000000001
 43
0.0000000001
 40
0.0
 40
0.0
 40
0.0
 40
0.0
 40
0.5032947004000001
 40
1.0
 40
1.0
 40
1.0
 40
1.0
 10
38.61349659790017
 20
25.54824013539997
 30
0.0
 10
38.56552205540015
 20
25.44212499509996
 30
0.0
 10
38.49452912630011
 20
25.21944307390004
 30
0.0
 10
38.47614609670007
 20
24.98649680799997
 30
0.0
 10
38.48036146660013
 20
24.87164292759997
 30
0.0
1001
ACAD
1000
RTMaterial
1005
0
  0
SPLINE
  5
61265
330
1F
100
AcDbEntity
  8
1
100
AcDbSpline
210
0.0
220
0.0
230
1.0
 70
     8
 71
     3
 72
    17
 73
    13
 74
     0
 42
0.0000000001
 43
0.0000000001
 40
0.0
 40
0.0
 40
0.0
 40
0.0
 40
0.032936578
 40
0.0661643123
 40
0.1408541609
 40
0.1855972726
 40
0.2361618187
 40
0.3548278103
 40
0.494631036
 40
0.6515359120000001
 40
0.8213287659999998
 40
1.0
 40
1.0
 40
1.0
 40
1.0
 10
48.0506984270001
 20
15.7253157513
 30
0.0
 10
48.04470720820006
 20
15.71686175680003
 30
0.0
 10
48.0309111886001
 20
15.70101859909999
 30
0.0
 10
47.99457369850006
 20
15.67496361289994
 30
0.0
 10
47.94704362870009
 20
15.66174514159996
 30
0.0
 10
47.89379018720007
 20
15.65746043500002
 30
0.0
 10
47.82636786170008
 20
15.65814019850001
 30
0.0
 10
47.7295438471001
 20
15.6677785507
 30
0.0
 10
47.60000927710007
 20
15.68486779139999
 30
0.0
 10
47.4544225648001
 20
15.70346242439996
 30
0.0
 10
47.2962518979001
 20
15.71975780640002
 30
0.0
 10
47.18685417380004
 20
15.72726932979998
 30
0.0
 10
47.13071429310014
 20
15.73005888559999
 30
0.0
1001
ACAD
1000
RTMaterial
1005
0
  0
SPLINE
  5
61266
330
1F
100
AcDbEntity
  8
1
100
AcDbSpline
210
0.0
220
0.0
230
1.0
 70
     8
 71
     3
 72
     8
 73
     4
 74
     0
 42
0.0000000001
 43
0.0000000001
 40
0.0
 40
0.0
 40
0.0
 40
0.0
 40
1.0
 40
1.0
 40
1.0
 40
1.0
 10
39.79811366790011
 20
24.0922321562
 30
0.0
 10
39.78344246120014
 20
24.08709668250003
 30
0.0
 10
39.7686178542001
 20
24.0823789424
 30
0.0
 10
39.75367299800007
 20
24.07810475579998
 30
0.0
1001
ACAD
1000
RTMaterial
1005
0
  0
SPLINE
  5
61267
330
1F
100
AcDbEntity
  8
1
100
AcDbSpline
210
0.0
220
0.0
230
1.0
 70
     8
 71
     3
 72
    13
 73
     9
 74
     0
 42
0.0000000001
 43
0.0000000001
 40
0.0
 40
0.0
 40
0.0
 40
0.0
 40
0.2694781042
 40
0.5256595085
 40
0.6485845355
 40
0.7681673049
 40
0.8850148086
 40
1.0
 40
1.0
 40
1.0
 40
1.0
 10
39.75367167570016
 20
24.07810308890004
 30
0.0
 10
39.66645108970011
 20
24.05315663030001
 30
0.0
 10
39.48981245940013
 20
24.02421341589997
 30
0.0
 10
39.26954394820007
 20
24.04562173619996
 30
0.0
 10
39.10951785140014
 20
24.09824088619996
 30
0.0
 10
39.00130790110006
 20
24.15349331070002
 30
0.0
 10
38.90564077590011
 20
24.22396451460003
 30
0.0
 10
38.85123425230006
 20
24.28055488270002
 30
0.0
 10
38.82693421770012
 20
24.310686175
 30
0.0
1001
ACAD
1000
RTMaterial
1005
0
  0
SPLINE
  5
61268
330
1F
100
AcDbEntity
  8
1
100
AcDbSpline
210
0.0
220
0.0
230
1.0
 70
     8
 71
     3
 72
     9
 73
     5
 74
     0
 42
0.0000000001
 43
0.0000000001
 40
0.0
 40
0.0
 40
0.0
 40
0.0
 40
0.255631731
 40
1.0
 40
1.0
 40
1.0
 40
1.0
 10
38.82693421770012
 20
24.310686175
 30
0.0
 10
38.82162016820007
 20
24.31727433579999
 30
0.0
 10
38.80094295560013
 20
24.34313483850002
 30
0.0
 10
38.78076574060015
 20
24.36940032930005
 30
0.0
 10
38.76618039380014
 20
24.38926815960002
 30
0.0
1001
ACAD
1000
RTMaterial
1005
0
  0
SPLINE
  5
61269
330
1F
100
AcDbEntity
  8
1
100
AcDbSpline
210
0.0
220
0.0
230
1.0
 70
     8
 71
     3
 72
    19
 73
    15
 74
     0
 42
0.0000000001
 43
0.0000000001
 40
0.0
 40
0.0
 40
0.0
 40
0.0
 40
0.0223395617
 40
0.0316220777
 40
0.0426263564
 40
0.0700221705
 40
0.1048432286
 40
0.1472601952
 40
0.1973869323
 40
0.2553028843
 40
0.3946935332
 40
0.565579277
 40
0.7676493964
 40
1.0
 40
1.0
 40
1.0
 40
1.0
 10
38.41848797780006
 20
36.55128859850004
 30
0.0
 10
38.41848128120012
 20
36.5569282582
 30
0.0
 10
38.42709619110008
 20
36.56281132369997
 30
0.0
 10
38.43662685340007
 20
36.56683827059999
 30
0.0
 10
38.44815382400009
 20
36.57074876180002
 30
0.0
 10
38.46609576000015
 20
36.57499189380002
 30
0.0
 10
38.49217588220006
 20
36.57943201009999
 30
0.0
 10
38.52408173990011
 20
36.58339205280004
 30
0.0
 10
38.56191006020015
 20
36.58690913500004
 30
0.0
 10
38.62422626210014
 20
36.59125596079997
 30
0.0
 10
38.71710597990011
 20
36.5952417478
 30
0.0
 10
38.84641777510012
 20
36.59821338359996
 30
0.0
 10
38.99922392100007
 20
36.59976109769997
 30
0.0
 10
39.10889451520006
 20
36.59999995990001
 30
0.0
 10
39.16755185520015
 20
36.5999999888
 30
0.0
1001
ACAD
1000
RTMaterial
1005
0
  0
SPLINE
  5
6126A
330
1F
100
AcDbEntity
  8
1
100
AcDbSpline
210
0.0
220
0.0
230
1.0
 70
     8
 71
     3
 72
     9
 73
     5
 74
     0
 42
0.0000000001
 43
0.0000000001
 40
0.0
 40
0.0
 40
0.0
 40
0.0
 40
0.4959378149
 40
1.0
 40
1.0
 40
1.0
 40
1.0
 10
40.39840339840009
 20
17.91704203109998
 30
0.0
 10
40.36487833440014
 20
17.91552624469995
 30
0.0
 10
40.29682918100013
 20
17.91934080479996
 30
0.0
 10
40.23074582220011
 20
17.9355202909
 30
0.0
 10
40.19836821510011
 20
17.94624967409999
 30
0.0
1001
ACAD
1000
RTMaterial
1005
0
  0
SPLINE
  5
6126B
330
1F
100
AcDbEntity
  8
1
100
AcDbSpline
210
0.0
220
0.0
230
1.0
 70
     8
 71
     3
 72
     9
 73
     5
 74
     0
 42
0.0000000001
 43
0.0000000001
 40
0.0
 40
0.0
 40
0.0
 40
0.0
 40
0.2499252281
 40
1.0
 40
1.0
 40
1.0
 40
1.0
 10
41.66712948140014
 20
17.97568070289998
 30
0.0
 10
41.56143899630012
 20
17.97068696949998
 30
0.0
 10
41.13854531920014
 20
17.95081741390004
 30
0.0
 10
40.71563111630007
 20
17.93138501500004
 30
0.0
 10
40.39840339840009
 20
17.91704203109998
 30
0.0
1001
ACAD
1000
RTMaterial
1005
0
  0
SPLINE
  5
6126C
330
1F
100
AcDbEntity
  8
1
100
AcDbSpline
210
0.0
220
0.0
230
1.0
 70
     8
 71
     3
 72
     9
 73
     5
 74
     0
 42
0.0000000001
 43
0.0000000001
 40
0.0
 40
0.0
 40
0.0
 40
0.0
 40
0.2485689618
 40
1.0
 40
1.0
 40
1.0
 40
1.0
 10
34.69056668320013
 20
30.84922466009999
 30
0.0
 10
34.69300246710009
 20
30.85238752409998
 30
0.0
 10
34.70287179670015
 20
30.86505769449997
 30
0.0
 10
34.71301868450007
 20
30.87751150240001
 30
0.0
 10
34.72078952130005
 20
30.88674488200002
 30
0.0
1001
ACAD
1000
RTMaterial
1005
0
  0
SPLINE
  5
6126D
330
1F
100
AcDbEntity
  8
1
100
AcDbSpline
210
0.0
220
0.0
230
1.0
 70
     8
 71
     3
 72
     9
 73
     5
 74
     0
 42
0.0000000001
 43
0.0000000001
 40
0.0
 40
0.0
 40
0.0
 40
0.0
 40
0.4986895989000001
 40
1.0
 40
1.0
 40
1.0
 40
1.0
 10
41.93671017480006
 20
17.91856064390003
 30
0.0
 10
41.89483696870013
 20
17.93794371359996
 30
0.0
 10
41.80684805490011
 20
17.96892961899994
 30
0.0
 10
41.71346211900003
 20
17.9778698577
 30
0.0
 10
41.66712948140014
 20
17.97568070289998
 30
0.0
1001
ACAD
1000
RTMaterial
1005
0
  0
ELLIPSE
  5
6126E
330
1F
100
AcDbEntity
  8
1
100
AcDbEllipse
 10
459.3474704465001
 20
-775.0175725893999
 30
0.0
 11
-407.6968966571
 21
807.0719785915999
 31
0.0
210
0.0
220
0.0
230
1.0
 40
0.0580971883
 41
0.1446227551
 42
0.1656616997
1001
ACAD
1000
RTMaterial
1005
0
  0
ELLIPSE
  5
6126F
330
1F
100
AcDbEntity
  8
1
100
AcDbEllipse
 10
12.58641007450006
 20
0.0
 30
0.0
 11
-42.2915850626
 21
-28.1731173955
 31
0.0
210
0.0
220
0.0
230
1.0
 40
0.5524295597
 41
-2.5629558053
 42
-2.5550669872
1001
ACAD
1000
RTMaterial
1005
0
  0
ELLIPSE
  5
61270
330
1F
100
AcDbEntity
  8
1
100
AcDbEllipse
 10
33.27515844200013
 20
0.0
 30
0.0
 11
5.542055702400002
 21
36.5754525729
 31
0.0
210
0.0
220
0.0
230
1.0
 40
0.2418325815
 41
-0.1487150551
 42
-0.0770715803
1001
ACAD
1000
RTMaterial
1005
0
  0
ELLIPSE
  5
61271
330
1F
100
AcDbEntity
  8
1
100
AcDbEllipse
 10
38.44691301210014
 20
31.25340141820004
 30
0.0
 11
-2.522367721899999
 21
0.3806746899000002
 31
0.0
210
0.0
220
0.0
230
1.0
 40
0.0812499867
 41
-0.46007086
 42
-0.1978005773
1001
ACAD
1000
RTMaterial
1005
0
  0
ELLIPSE
  5
61272
330
1F
100
AcDbEntity
  8
1
100
AcDbEllipse
 10
40.69799919340016
 20
23.62613791890004
 30
0.0
 11
-1.976910356400001
 21
0.4639722491000001
 31
0.0
210
0.0
220
0.0
230
1.0
 40
0.0206703236
 41
1.2708586201
 42
3.063098215799999
1001
ACAD
1000
RTMaterial
1005
0
  0
ELLIPSE
  5
61273
330
1F
100
AcDbEntity
  8
1
100
AcDbEllipse
 10
41.31374261810004
 20
27.68280208299996
 30
0.0
 11
5.666870391600003
 21
12.5653026789
 31
0.0
210
0.0
220
0.0
230
0.9999999999999998
 40
0.1010410836
 41
1.819195403
 42
1.826823477399999
1001
ACAD
1000
RTMaterial
1005
0
  0
ELLIPSE
  5
61274
330
1F
100
AcDbEntity
  8
1
100
AcDbEllipse
 10
39.87731129710005
 20
32.77108303559999
 30
0.0
 11
0.5612192389000003
 21
3.5976554455
 31
0.0
210
0.0
220
0.0
230
1.0
 40
0.137316117
 41
0.5927524476000001
 42
0.6014719655
1001
ACAD
1000
RTMaterial
1005
0
  0
ELLIPSE
  5
61275
330
1F
100
AcDbEntity
  8
1
100
AcDbEllipse
 10
53.39476796770009
 20
0.0
 30
0.0
 11
-12.8364984418
 21
36.1678993685
 31
0.0
210
0.0
220
0.0
230
1.0
 40
0.4368333600000001
 41
0.0315283552
 42
0.0779645953
1001
ACAD
1000
RTMaterial
1005
0
  0
ELLIPSE
  5
61276
330
1F
100
AcDbEntity
  8
1
100
AcDbEllipse
 10
255.4799416461001
 20
0.0
 30
0.0
 11
-235.8059012555
 21
29.65078699370002
 31
0.0
210
0.0
220
0.0
230
1.0
 40
0.0909931424
 41
0.3893033687
 42
0.4319014447
1001
ACAD
1000
RTMaterial
1005
0
  0
ELLIPSE
  5
61277
330
1F
100
AcDbEntity
  8
1
100
AcDbEllipse
 10
41.85675739810005
 20
10.33057366780002
 30
0.0
 11
0.9702922644000004
 21
10.7390207547
 31
0.0
210
0.0
220
0.0
230
1.0
 40
0.9267898398999999
 41
-0.1017570238
 42
0.0378693163
1001
ACAD
1000
RTMaterial
1005
0
  0
ELLIPSE
  5
61278
330
1F
100
AcDbEntity
  8
1
100
AcDbEllipse
 10
46.4223757781001
 20
20.54200312359995
 30
0.0
 11
-1.5316980355
 21
0.3450621169000001
 31
0.0
210
0.0
220
0.0
230
1.0
 40
0.0870865575
 41
-4.467702173999999
 42
-3.4641378541
1001
ACAD
1000
RTMaterial
1005
0
  0
ELLIPSE
  5
61279
330
1F
100
AcDbEntity
  8
1
100
AcDbEllipse
 10
546.0822970928001
 20
-36.23372760670006
 30
0.0
 11
-516.8344162099999
 21
64.81421965940002
 31
0.0
210
0.0
220
0.0
230
1.0
 40
0.075251548
 41
0.2316796891
 42
0.2709296775
1001
ACAD
1000
RTMaterial
1005
0
  0
ELLIPSE
  5
6127A
330
1F
100
AcDbEntity
  8
1
100
AcDbEllipse
 10
35.99192175400015
 20
29.25427486090001
 30
0.0
 11
-2.3701875655
 21
0.3525254196000001
 31
0.0
210
0.0
220
0.0
230
0.9999999999999998
 40
0.0700311318
 41
-1.464172001699999
 42
-1.270882900699999
1001
ACAD
1000
RTMaterial
1005
0
  0
ELLIPSE
  5
6127B
330
1F
100
AcDbEntity
  8
1
100
AcDbEllipse
 10
40.33308663930006
 20
33.25466992589998
 30
0.0
 11
-0.3684395063999998
 21
2.542851898999999
 31
0.0
210
0.0
220
0.0
230
1.0
 40
0.3760865682
 41
-0.1049020823
 42
0.3663439441
1001
ACAD
1000
RTMaterial
1005
0
  0
LINE
  5
6127C
330
1F
100
AcDbEntity
  8
nocut
100
AcDbLine
 10
0.0
 20
0.0
 30
0.0
 11
49.50000000000006
 21
0.0
 31
0.0
  0
VIEWPORT
  5
6B
102
{ACAD_XDICTIONARY
360
613E4
102
}
330
50
100
AcDbEntity
 67
     1
  8
0
100
AcDbViewport
 10
155.3592437148233
 20
160.4455827878762
 30
0.0
 40
349.5854424261001
 41
282.2272140146125
 68
     1
 69
     1
 12
155.3592437148233
 22
160.4455827878762
 13
0.0
 23
0.0
 14
10.0
 24
10.0
 15
10.0
 25
10.0
 16
0.0
 26
0.0
 36
1.0
 17
0.0
 27
0.0
 37
0.0
 42
50.0
 43
0.0
 44
0.0
 45
282.2272140146125
 50
0.0
 51
0.0
 72
  1000
 90
    32864
  1

281
     0
 71
     1
 74
     0
110
0.0
120
0.0
130
0.0
111
1.0
121
0.0
131
0.0
112
0.0
122
1.0
132
0.0
 79
     0
146
0.0
  0
VIEWPORT
  5
6D
102
{ACAD_XDICTIONARY
360
613E6
102
}
330
50
100
AcDbEntity
 67
     1
  8
0
100
AcDbViewport
 10
133.3499939441681
 20
101.5999939441681
 30
0.0
 40
213.3599903106689
 41
162.5599903106689
 68
     2
 69
     2
 12
210.0
 22
148.5
 13
0.0
 23
0.0
 14
10.0
 24
10.0
 15
10.0
 25
10.0
 16
0.0
 26
0.0
 36
1.0
 17
0.0
 27
0.0
 37
0.0
 42
50.0
 43
0.0
 44
0.0
 45
324.0677920111345
 50
0.0
 51
0.0
 72
   100
 90
    32864
  1

281
     0
 71
     1
 74
     0
110
0.0
120
0.0
130
0.0
111
1.0
121
0.0
131
0.0
112
0.0
122
1.0
132
0.0
 79
     0
146
0.0
  0
ENDSEC
  0
SECTION
  2
OBJECTS
  0
DICTIONARY
  5
C
330
0
100
AcDbDictionary
281
     1
  3
ACAD_COLOR
350
85
  3
ACAD_GROUP
350
D
  3
ACAD_LAYOUT
350
1A
  3
ACAD_MATERIAL
350
84
  3
ACAD_MLINESTYLE
350
17
  3
ACAD_PLOTSETTINGS
350
19
  3
ACAD_PLOTSTYLENAME
350
E
  3
ACAD_TABLESTYLE
350
A1
  3
ACDBHEADERROUNDTRIPXREC
350
613DF
  3
AcDbVariableDictionary
350
5E
  3
ASE_INDEX_DICTIONARY
350
349E9
  3
DWGPROPS
350
613DE
  0
DICTIONARY
  5
E2
330
2
100
AcDbDictionary
280
     1
281
     1
  3
ACAD_LAYERFILTERS
360
612FB
  3
ACAD_LAYERSTATES
360
3759A
  3
ACLYDICTIONARY
360
612FA
  0
DICTIONARY
  5
31EE
330
1F
100
AcDbDictionary
280
     1
281
     1
  3
ACAD_SORTENTS
360
31EF
  0
DICTIONARY
  5
43668
330
680
100
AcDbDictionary
280
     1
281
     1
  3
ACAD_SORTENTS
360
43669
  0
DICTIONARY
  5
613E8
330
71
100
AcDbDictionary
280
     1
281
     1
  3
ACAD_XREC_ROUNDTRIP
360
613E9
  0
DICTIONARY
  5
613EA
330
73
100
AcDbDictionary
280
     1
281
     1
  3
ACAD_XREC_ROUNDTRIP
360
613EB
  0
DICTIONARY
  5
613E4
330
6B
100
AcDbDictionary
280
     1
281
     1
  3
ACAD_XREC_ROUNDTRIP
360
613E5
  0
DICTIONARY
  5
613E6
330
6D
100
AcDbDictionary
280
     1
281
     1
  3
ACAD_XREC_ROUNDTRIP
360
613E7
  0
DICTIONARY
  5
85
102
{ACAD_REACTORS
330
C
102
}
330
C
100
AcDbDictionary
281
     1
  0
DICTIONARY
  5
D
102
{ACAD_REACTORS
330
C
102
}
330
C
100
AcDbDictionary
281
     1
  0
DICTIONARY
  5
1A
102
{ACAD_REACTORS
330
C
102
}
330
C
100
AcDbDictionary
281
     1
  3
\M+1838C\M+18343\M+18341\M+18345\M+183671
350
51
  3
\M+1838C\M+18343\M+18341\M+18345\M+183672
350
56
  3
Model
350
22
  0
DICTIONARY
  5
84
102
{ACAD_REACTORS
330
C
102
}
330
C
100
AcDbDictionary
281
     1
  0
DICTIONARY
  5
17
102
{ACAD_REACTORS
330
C
102
}
330
C
100
AcDbDictionary
281
     1
  3
Standard
350
18
  0
DICTIONARY
  5
19
102
{ACAD_REACTORS
330
C
102
}
330
C
100
AcDbDictionary
281
     1
  0
ACDBDICTIONARYWDFLT
  5
E
102
{ACAD_REACTORS
330
C
102
}
330
C
100
AcDbDictionary
281
     1
  3
Normal
350
F
100
AcDbDictionaryWithDefault
340
F
  0
DICTIONARY
  5
A1
102
{ACAD_REACTORS
330
C
102
}
330
C
100
AcDbDictionary
281
     1
  3
Standard
350
A2
  0
DICTIONARY
  5
613DF
102
{ACAD_REACTORS
330
C
102
}
330
C
100
AcDbDictionary
281
     1
  0
DICTIONARY
  5
5E
102
{ACAD_REACTORS
330
C
102
}
330
C
100
AcDbDictionary
281
     1
  3
CTABLESTYLE
350
B8
  3
DIMASSOC
350
5F
  3
HIDETEXT
350
63
  3
PROJECTNAME
350
31CE
  0
DICTIONARY
  5
349E9
102
{ACAD_REACTORS
330
C
102
}
330
C
100
AcDbDictionary
281
     1
  3
ASEBlockHierarchyIndexRecord
350
349EA
1001
DCO15
1040
1842496176.844
  0
XRECORD
  5
613DE
102
{ACAD_REACTORS
330
C
102
}
330
C
100
AcDbXrecord
280
     1
  1
DWGPROPS COOKIE
  2

  3

  4

  6

  7

  8

  9

300
=
301
=
302
=
303
=
304
=
305
=
306
=
307
=
308
=
309
=
 40
2.023029606481481
 41
2455489.391063368
 42
2458416.662229225
  1

 90
        0
  0
DICTIONARY
  5
612FB
102
{ACAD_REACTORS
330
E2
102
}
330
E2
100
AcDbDictionary
281
     1
  0
DICTIONARY
  5
3759A
102
{ACAD_REACTORS
330
E2
102
}
330
E2
100
AcDbDictionary
281
     1
  0
DICTIONARY
  5
612FA
102
{ACAD_REACTORS
330
E2
102
}
330
E2
100
AcDbDictionary
281
     1
1001
ACAD
1000
<All
  0
SORTENTSTABLE
  5
31EF
102
{ACAD_REACTORS
330
31EE
102
}
330
31EE
100
AcDbSortentsTable
330
1F
331
5CD11
  5
5CD11
331
68C
  5
435D5
  0
SORTENTSTABLE
  5
43669
102
{ACAD_REACTORS
330
43668
102
}
330
43668
100
AcDbSortentsTable
330
680
  0
XRECORD
  5
613E9
102
{ACAD_REACTORS
330
613E8
102
}
330
613E8
100
AcDbXrecord
280
     1
102
SHADEPLOT
 70
     0
  0
XRECORD
  5
613EB
102
{ACAD_REACTORS
330
613EA
102
}
330
613EA
100
AcDbXrecord
280
     1
102
SHADEPLOT
 70
     0
  0
XRECORD
  5
613E5
102
{ACAD_REACTORS
330
613E4
102
}
330
613E4
100
AcDbXrecord
280
     1
102
SHADEPLOT
 70
     0
  0
XRECORD
  5
613E7
102
{ACAD_REACTORS
330
613E6
102
}
330
613E6
100
AcDbXrecord
280
     1
102
SHADEPLOT
 70
     0
  0
LAYOUT
  5
51
102
{ACAD_XDICTIONARY
360
B2
102
}
102
{ACAD_REACTORS
330
1A
102
}
330
1A
100
AcDbPlotSettings
  1

  2
none_device
  4
Letter_(8.50_x_11.00_Inches)
  6

 40
6.349999904632567
 41
6.349999904632567
 42
6.350006103515625
 43
6.350006103515625
 44
215.8999938964844
 45
279.3999938964844
 46
0.0
 47
0.0
 48
0.0
 49
0.0
140
0.0
141
0.0
142
1.0
143
1.0
 70
   688
 72
     1
 73
     1
 74
     5
  7

 75
    16
147
1.0
148
0.0
149
0.0
100
AcDbLayout
  1
\M+1838C\M+18343\M+18341\M+18345\M+183671
 70
     1
 71
     1
 10
-6.350006103515625
 20
-6.349999904632567
 11
273.0499877929688
 21
209.5499939918518
 12
0.0
 22
0.0
 32
0.0
 14
26.66999878883364
 24
20.31999878883365
 34
0.0
 15
240.0299890995025
 25
182.8799890995025
 35
0.0
146
0.0
 13
0.0
 23
0.0
 33
0.0
 16
1.0
 26
0.0
 36
0.0
 17
0.0
 27
1.0
 37
0.0
 76
     0
330
50
331
6B
  0
LAYOUT
  5
56
102
{ACAD_XDICTIONARY
360
B5
102
}
102
{ACAD_REACTORS
330
1A
102
}
330
1A
100
AcDbPlotSettings
  1

  2
none_device
  4
Letter_(8.50_x_11.00_Inches)
  6

 40
6.349999904632567
 41
6.349999904632567
 42
6.350006103515625
 43
6.350006103515625
 44
215.8999938964844
 45
279.3999938964844
 46
0.0
 47
0.0
 48
0.0
 49
0.0
140
0.0
141
0.0
142
1.0
143
1.0
 70
   688
 72
     1
 73
     1
 74
     5
  7

 75
    16
147
1.0
148
0.0
149
0.0
100
AcDbLayout
  1
\M+1838C\M+18343\M+18341\M+18345\M+183672
 70
     1
 71
     2
 10
-6.350006103515625
 20
-6.349999904632567
 11
273.0499877929688
 21
209.5499939918518
 12
0.0
 22
0.0
 32
0.0
 14
26.66999878883363
 24
20.31999878883363
 34
0.0
 15
240.0299890995026
 25
182.8799890995025
 35
0.0
146
0.0
 13
0.0
 23
0.0
 33
0.0
 16
1.0
 26
0.0
 36
0.0
 17
0.0
 27
1.0
 37
0.0
 76
     0
330
55
331
71
  0
LAYOUT
  5
22
102
{ACAD_XDICTIONARY
360
613E0
102
}
102
{ACAD_REACTORS
330
1A
102
}
330
1A
100
AcDbPlotSettings
  1

  2
none_device
  4
ANSI_A_(8.50_x_11.00_Inches)
  6

 40
6.349999904632567
 41
19.04999923706055
 42
6.350006103515625
 43
19.04998779296875
 44
215.8999938964844
 45
279.3999938964844
 46
0.0
 47
0.0
 48
0.0
 49
0.0
140
0.0
141
0.0
142
1.0
143
78.436453180766
 70
 11952
 72
     0
 73
     1
 74
     0
  7

 75
     0
147
0.0127491741332998
148
0.0
149
0.0
100
AcDbLayout
  1
Model
 70
     1
 71
     0
 10
0.0
 20
0.0
 11
12.0
 21
9.0
 12
0.0
 22
0.0
 32
0.0
 14
0.0
 24
0.0
 34
0.0
 15
0.0
 25
0.0
 35
0.0
146
0.0
 13
0.0
 23
0.0
 33
0.0
 16
1.0
 26
0.0
 36
0.0
 17
0.0
 27
1.0
 37
0.0
 76
     0
330
1F
  0
MLINESTYLE
  5
18
102
{ACAD_REACTORS
330
17
102
}
330
17
100
AcDbMlineStyle
  2
STANDARD
 70
     0
  3

 62
   256
 51
90.0
 52
90.0
 71
     2
 49
0.5
 62
   256
  6
BYLAYER
 49
-0.5
 62
   256
  6
BYLAYER
  0
ACDBPLACEHOLDER
  5
F
102
{ACAD_REACTORS
330
E
102
}
330
E
  0
TABLESTYLE
  5
A2
102
{ACAD_REACTORS
330
A1
102
}
330
A1
100
AcDbTableStyle
  3
Standard
 70
     0
 71
     0
 40
1.5
 41
1.5
280
     0
281
     0
  7
Standard
140
4.5
170
     2
 62
     0
 63
     7
283
     0
274
    -2
284
     1
 64
     0
275
    -2
285
     1
 65
     0
276
    -2
286
     1
 66
     0
277
    -2
287
     1
 67
     0
278
    -2
288
     1
 68
     0
279
    -2
289
     1
 69
     0
  7
Standard
140
6.0
170
     5
 62
     0
 63
     7
283
     0
274
    -2
284
     1
 64
     0
275
    -2
285
     1
 65
     0
276
    -2
286
     1
 66
     0
277
    -2
287
     1
 67
     0
278
    -2
288
     1
 68
     0
279
    -2
289
     1
 69
     0
  7
Standard
140
4.5
170
     5
 62
     0
 63
     7
283
     0
274
    -2
284
     1
 64
     0
275
    -2
285
     1
 65
     0
276
    -2
286
     1
 66
     0
277
    -2
287
     1
 67
     0
278
    -2
288
     1
 68
     0
279
    -2
289
     1
 69
     0
  0
DICTIONARYVAR
  5
B8
102
{ACAD_REACTORS
330
5E
102
}
330
5E
100
DictionaryVariables
280
     0
  1
STANDARD
  0
DICTIONARYVAR
  5
5F
102
{ACAD_REACTORS
330
5E
102
}
330
5E
100
DictionaryVariables
280
     0
  1
2
  0
DICTIONARYVAR
  5
63
102
{ACAD_REACTORS
330
5E
102
}
330
5E
100
DictionaryVariables
280
     0
  1
1
  0
DICTIONARYVAR
  5
31CE
102
{ACAD_REACTORS
330
5E
102
}
330
5E
100
DictionaryVariables
280
     0
  1

  0
XRECORD
  5
349EA
102
{ACAD_REACTORS
330
349E9
102
}
330
349E9
100
AcDbXrecord
280
     1
330
68C
330
431D
330
431E
330
4329
330
4334
330
4335
330
4B09
330
4B0A
330
5153
330
5154
330
515D
330
515E
330
516A
330
516B
330
5177
330
5178
330
85B4
330
85B5
330
8620
330
8621
330
862A
330
862B
330
8637
330
8638
330
8644
330
8645
330
9773
330
9774
330
977D
330
977E
330
978A
330
978B
330
9797
330
9798
330
BD86
330
BD87
330
BD8F
330
BD90
330
BD98
330
BDA0
330
BDA1
330
BDDD
330
BDDE
330
BDE7
330
BDE8
330
BDF4
330
BDF5
330
BE01
330
BE02
330
E473
330
E474
330
E48D
330
E48E
330
E485
330
E47C
330
E47D
330
E4CC
330
E4CD
330
E4D7
330
E4D8
330
1C63B
330
1C63C
330
1C705
330
1C706
330
1C719
330
1C71A
330
1C72E
330
1C72F
330
1C738
330
1C739
330
27043
330
27044
330
2703A
330
2703B
330
2CF2C
330
2CF2D
330
2CF38
330
2CF39
330
2CF42
330
2CF43
330
2CF4F
330
2CF50
330
2CF59
330
2CF5A
330
2FA31
330
2FA32
330
2FA3D
330
2FA3E
330
2FA4A
330
2FA4B
330
2FA54
330
2FA55
330
329D8
330
329D9
330
329E1
330
329E2
330
329EA
330
329EB
330
329F3
330
329F4
330
32E63
330
32E64
330
32E6F
330
32E70
330
32E79
330
32E7A
330
32E88
330
32E89
330
32E92
330
32E93
  0
DICTIONARY
  5
B2
330
51
100
AcDbDictionary
280
     1
281
     1
  3
ACAD_XREC_ROUNDTRIP
360
613E2
  3
ADSK_XREC_LAYOUTTHUMBNAIL
360
B3
  0
DICTIONARY
  5
B5
330
56
100
AcDbDictionary
280
     1
281
     1
  3
ACAD_XREC_ROUNDTRIP
360
613E3
  3
ADSK_XREC_LAYOUTTHUMBNAIL
360
B6
  0
DICTIONARY
  5
613E0
330
22
100
AcDbDictionary
280
     1
281
     1
  3
ACAD_XREC_ROUNDTRIP
360
613E1
  0
XRECORD
  5
613E2
102
{ACAD_REACTORS
330
B2
102
}
330
B2
100
AcDbXrecord
280
     1
102
SHADEPLOT
 70
     0
102
SHADEPLOTRESLEVEL
 70
     2
102
SHADEPLOTCUSTOMDPI
 70
   300
  0
XRECORD
  5
B3
102
{ACAD_REACTORS
330
B2
102
}
330
B2
100
AcDbXrecord
280
     1
310
28000000B40000008B0000000100080000000000BC61000000000000000000000001000000000000FFFFFF0000000000FFFFFF000000000000000000000000000000000000000000000000000000000000000000330000006600000099000000CC000000FF00000000330000333300006633000099330000CC330000FF3300
310
0000660000336600006666000099660000CC660000FF66000000990000339900006699000099990000CC990000FF99000000CC000033CC000066CC000099CC0000CCCC0000FFCC000000FF000033FF000066FF000099FF0000CCFF0000FFFF000000003300330033006600330099003300CC003300FF003300003333003333
310
33006633330099333300CC333300FF33330000663300336633006666330099663300CC663300FF66330000993300339933006699330099993300CC993300FF99330000CC330033CC330066CC330099CC3300CCCC3300FFCC330000FF330033FF330066FF330099FF3300CCFF3300FFFF330000006600330066006600660099
310
006600CC006600FF00660000336600333366006633660099336600CC336600FF33660000666600336666006666660099666600CC666600FF66660000996600339966006699660099996600CC996600FF99660000CC660033CC660066CC660099CC6600CCCC6600FFCC660000FF660033FF660066FF660099FF6600CCFF6600
310
FFFF660000009900330099006600990099009900CC009900FF00990000339900333399006633990099339900CC339900FF33990000669900336699006666990099669900CC669900FF66990000999900339999006699990099999900CC999900FF99990000CC990033CC990066CC990099CC9900CCCC9900FFCC990000FF99
310
0033FF990066FF990099FF9900CCFF9900FFFF99000000CC003300CC006600CC009900CC00CC00CC00FF00CC000033CC003333CC006633CC009933CC00CC33CC00FF33CC000066CC003366CC006666CC009966CC00CC66CC00FF66CC000099CC003399CC006699CC009999CC00CC99CC00FF99CC0000CCCC0033CCCC0066CC
310
CC0099CCCC00CCCCCC00FFCCCC0000FFCC0033FFCC0066FFCC0099FFCC00CCFFCC00FFFFCC000000FF003300FF006600FF009900FF00CC00FF00FF00FF000033FF003333FF006633FF009933FF00CC33FF00FF33FF000066FF003366FF006666FF009966FF00CC66FF00FF66FF000099FF003399FF006699FF009999FF00CC
310
99FF00FF99FF0000CCFF0033CCFF0066CCFF0099CCFF00CCCCFF00FFCCFF0000FFFF0033FFFF0066FFFF0099FFFF00CCFFFF00FFFFFF00000000000D0D0D001A1A1A00282828003535350043434300505050005D5D5D006B6B6B00787878008686860093939300A1A1A100AEAEAE00BBBBBB00C9C9C900D6D6D600E4E4E400
310
F1F1F100FFFFFF0000000000000000000000000000000000000000000000000000000000000000000000000000000000EFEFEFE2E2E2E2E2E2E2E2E2E2E2E2E2E2E2E2E2E2E2E2E2E2E2E2E2E2E2E2E2E2E2E2E2E2E2E2E2E2E2E2E2E2E2E2E2E2E2E2E2E2E2E2E2E2E2E2E2E2E2E2E2E2E2E2E2E2E2E2E2E2E2E2E2E2E2E2
310
E2E2E2E2E2E2E2E2E2E2E2E2E2E2E2E2E2E2E2E2E2E2E2E2E2E2E2E2E2E2E2E2E2E2E2E2E2E2E2E2E2E2E2E2E2E2E2E2E2E2E2E2E2E2E2E2E2E2E2E2E2E2E2E2E2E2E2E2E2E2E2E2E2E2E2E2E2E2E2E2E2E2E2E2E2E2E2E2E2E2E2E2E2E2E2E2E2E2E2E2E2E2E2E2E2E2E2E2E2E2E2E2E2E2E2E2E2E2E2E2E2E2E2E2E2E2E2
310
E2E2E2E2E2E2E2E2E2E2E2E2E2E2E2E2E2E2E2E2E2E2E2E2E2E2E2E2E2E2E2E2E2E2E2E2E2E2E2E2E2E2E2E2E2E2E2E2E2E2E2E2E2E2E2E2E2E2E2E2E2E2E2E2E2E2E2E2E2E2E2E2E2E2E2E2E2E2E2E2E2E2E2E2E2E2E2E2E2E2E2E2E2E2E2E2E2E2E2E2E2E2E2E2E2E2E2E2E2E2E2E2E2E2E2E2E2E2E2E2E2E2E2E2E2E2E2
310
E2E2E2E2E2E2E2E2E2E2E2E2E2E2E2E2E2E2E2E2E2E2E2E2E2E2E2E2F5F5F5F5F5F5F5F5F5F5F5F5F5F5F5F5F5F5F5F5F5F5F5F5F5F5F5F5F5F5F5F5F5F5F5F5F5F5F5F5F5F5F5F5F5F5F5F5F5F5F5F5F5F5F5F5F5F5F5F5F5F5F5F5F5F5F5F5F5F5F5F5F5F5F5F5F5F5F5F5F5F5F5F5F5F5F5F5F5F5F5F5F5F5F5F5F5F5F5
310
F5F5F5F5F5F5F5F5F5F5F5F5F5F5F5F5F5F5F5F5F5F5F5F5F5F5F5F5F5F5F5F5F5F5F5F5F5F5F5F5F5F5F5F5F5F5F5F5F5F5F5F5F5F5F5F5F5F5F5F5F5F5F5F5F5F5F5F5F5F5F5F5F5F5F5F5F5F5F5E2E2F5F5F5F5F5F5F5F5F5F5F5F5F5F5F5F5F5F5F5F5F5F5F5F5F5F5F5F5F5F5F5F5F5F5F5F5F5F5F5F5F5F5F5F5F5F5
310
F5F5F5F5F5F5F5F5F5F5F5F5F5F5F5F5F5F5F5F5F5F5F5F5F5F5F5F5F5F5F5F5F5F5F5F5F5F5F5F5F5F5F5F5F5F5F5F5F5F5F5F5F5F5F5F5F5F5F5F5F5F5F5F5F5F5F5F5F5F5F5F5F5F5F5F5F5F5F5F5F5F5F5F5F5F5F5F5F5F5F5F5F5F5F5F5F5F5F5F5F5F5F5F5F5F5F5F5F5F5F5F5F5F5F5F5F5F5F5F5F5F5F5F5F5F5F5
310
F5F5F5F5F5E2E2F5F5F5F5F5F5F5F5F5F5F5F5F5F5F5F5F5F5F5F5F5F5F5F5F5F5F5F5F5F5F5F5F5F5F5F5F5F5F5F5F5F5F5F5F5F5F5F5F5F5F5F5F5F5F5F5F5F5F5F5F5F5F5F5F5F5F5F5F5F5F5F5F5F5F5F5F5F5F5F5F5F5F5F5F5F5F5F5F5F5F5F5F5F5F5F5F5F5F5F5F5F5F5F5F5F5F5F5F5F5F5F5F5F5F5F5F5F5F5F5
310
F5F5F5F5F5F5F5F5F5F5F5F5F5F5F5F5F5F5F5F5F5F5F5F5F5F5F5F5F5F5F5F5F5F5F5F5F5F5F5F5F5F5F5F5F5F5F5F5F5F5F5F5F5F5F5F5F5F5E2E2F5F5F5F5E2E2E2E2E2E2E2E2F5F5F5F5F5F5F5F5F5E2E2E2E2E2E2E2E2E2E2E2E2E2E2E2F5F5F5F5F5F5F5F5F5E2E2E2E2E2E2E2E2E2E2E2E2E2E2E2E2F5F5F5F5F5F5
310
F5F5E2E2E2E2E2E2E2E2E2E2E2E2E2E2E2E2F5F5F5F5F5F5F5F5E2E2E2E2E2E2E2E2E2E2E2E2E2E2E2E2F5F5F5F5F5F5F5F5E2E2E2E2E2E2E2E2E2E2E2E2E2E2E2E2F5F5F5F5F5F5F5F5F5E2E2E2E2E2E2E2E2E2E2E2E2E2E2E2F5F5F5F5F5F5F5F5F5E2E2E2E2E2E2E2E2F5F5F5F5E2E2F5F5F5F5E2F5F5F5F5F5F5F5F5F5
310
F5F5F5F5F5F5F5F5F5F5F5F5F5F5F5F5F5F5F5F5F5F5F5F5F5F5F5F5F5F5F5F5F5F5F5F5F5F5F5F5F5F5F5F5F5F5F5F5F5F5F5F5F5F5F5F5F5F5F5F5F5F5F5F5F5F5F5F5F5F5F5F5F5F5F5F5F5F5F5F5F5F5F5F5F5F5F5F5F5F5F5F5F5F5F5F5F5F5F5F5F5F5F5F5F5F5F5F5F5F5F5F5F5F5F5F5F5F5F5F5F5F5F5F5F5F5F5
310
F5F5F5F5F5F5F5F5F5F5F5F5F5F5F5F5F5F5F5F5F5F5F5F5F5F5F5F5F5F5F5F5E2F5F5F5F5E2E2F5F5F5F5E2F5F5F5F5F5F5F5F5F5F5F5F5F5F5F5F5F5F5F5F5F5F5F5F5F5F5F5F5F5F5F5F5F5F5F5F5F5F5F5F5F5F5F5F5F5F5F5F5F5F5F5F5F5F5F5F5F5F5F5F5F5F5F5F5F5F5F5F5F5F5F5F5F5F5F5F5F5F5F5F5F5F5F5
310
F5F5F5F5F5F5F5F5F5F5F5F5F5F5F5F5F5F5F5F5F5F5F5F5F5F5F5F5F5F5F5F5F5F5F5F5F5F5F5F5F5F5F5F5F5F5F5F5F5F5F5F5F5F5F5F5F5F5F5F5F5F5F5F5F5F5F5F5F5F5F5F5F5F5F5F5F5F5F5F5F5F5F5F5F5E2F5F5F5F5E2E2F5F5F5F5E2F5F5F5F5F5F5F5F5F5F5F5F5F5F5F5F5F5F5F5F5F5F5F5F5F5F5F5F5F5F5
310
F5F5F5F5F5F5F5F5F5F5F5F5F5F5F5F5F5F5F5F5F5F5F5F5F5F5F5F5F5F5F5F5F5F5F5F5F5F5F5F5F5F5F5F5F5F5F5F5F5F5F5F5F5F5F5F5F5F5F5F5F5F5F5F5F5F5F5F5F5F5F5F5F5F5F5F5F5F5F5F5F5F5F5F5F5F5F5F5F5F5F5F5F5F5F5F5F5F5F5F5F5F5F5F5F5F5F5F5F5F5F5F5F5F5F5F5F5F5F5F5F5F5F5F5F5F5F5
310
F5F5F5F5F5F5F5F5F5F5F5E2F5F5F5F5E2E2F5F5F5F5E2F5F5F5F5F5F5F5F5F5F5F5F5F5F5F5F5F5F5F5F5F5F5F5F5F5F5F5F5F5F5F5F5F5F5F5F5F5F5F5F5F5F5F5F5F5F5F5F5F5F5F5F5F5F5F5F5F5F5F5F5F5F5F5F5F5F5F5F5F5F5F5F5F5F5F5F5F5F5F5F5F5F5F5F5F5F5F5F5F5F5F5F5F5F5F5F5F5F5F5F5F5F5F5F5
310
F5F5F5F5F5F5F5F5F5F5F5F5F5F5F5F5F5F5F5F5F5F5F5F5F5F5F5F5F5F5F5F5F5F5F5F5F5F5F5F5F5F5F5F5F5F5F5F5F5F5F5F5F5F5F5F5F5F5F5F5F5F5F5F5E2F5F5F5F5E2E2F5F5F5F5E2F5F5F5F5F5F5F5F5F5F5F5F5F5F5F5F5F5F5F5F5F5F5F5F5F5F5F5F5F5F5F5F5F5F5F5F5F5F5F5F5F5F5F5F5F5F5F5F5F5F5F5
310
F5F5F5F5F5F5F5F5F5F5F5F5F5F5F5F5F5F5F5F5F5F5F5F5F5F5F5F5F5F5F5F5F5F5F5F5F5F5F5F5F5F5F5F5F5F5F5F5F5F5F5F5F5F5F5F5F5F5F5F5F5F5F5F5F5F5F5F5F5F5F5F5F5F5F5F5F5F5F5F5F5F5F5F5F5F5F5F5F5F5F5F5F5F5F5F5F5F5F5F5F5F5F5F5F5F5F5F5F5F5F5F5F5F5F5F5F5E2F5F5F5F5E2E2F5F5F5
310
F5E2F5F5F5F5F5F5F5F5F5F5F5F5F5F5F5F5F5F5F5F5F5F5F5F5F5F5F5F5F5F5F5F5F5F5F5F5F5F5F5F5F5F5F5F5F5F5F5F5F5F5F5F5F5F5F5F5F5F5F5F5F5F5F5F5F5F5F5F5F5F5F5F5F5F5F5F5F5F5F5F5F5F5F5F5F5F5F5F5F5F5F5F5F5F5F5F5F5F5F5F5F5F5F5F5F5F5F5F5F5F5F5F5F5F5F5F5F5F5F5F5F5F5F5F5F5
310
F5F5F5F5F5F5F5F5F5F5F5F5F5F5F5F5F5F5F5F5F5F5F5F5F5F5F5F5F5F5F5F5F5F5F5F5F5F5F5F5F5F5F5E2F5F5F5F5E2E2F5F5F5F5E2F5F5F5F5F5F5F5F5F5F5F5F5F5F5F5F5F5F5F5F5F5F5F5F5F5F5F5F5F5F5F5F5F5F5F5F5F5F5F5F5F5F5F5F5F5F5F5F5F5F5F5F5F5F5F5F5F5F5F5F5F5F5F5F5F5F5F5F5F5F5F5F5
310
F5F5F5F5F5F5F5F5F5F5F5F5F5F5F5F5F5F5F5F5F5F5F5F5F5F5F5F5F5F5F5F5F5F5F5F5F5F5F5F5F5F5F5F5F5F5F5F5F5F5F5F5F5F5F5F5F5F5F5F5F5F5F5F5F5F5F5F5F5F5F5F5F5F5F5F5F5F5F5F5F5F5F5F5F5F5F5F5F5F5F5F5F5F5F5F5E2F5F5F5F5E2E2F5F5F5F5E2F5F5F5F5F5F5F5F5F5F5F5F5F5F5F5F5F5F5F5
310
F5F5F5F5F5F5F5F5F5F5F5F5F5F5F5F5F5F5F5F5F5F5F5F5F5F5F5F5F5F5F5F5F5F5F5F5F5F5F5F5F5F5F5F5F5F5F5F5F5F5F5F5F5F5F5F5F5F5F5F5F5F5F5F5F5F5F5F5F5F5F5F5F5F5F5F5F5F5F5F5F5F5F5F5F5F5F5F5F5F5F5F5F5F5F5F5F5F5F5F5F5F5F5F5F5F5F5F5F5F5F5F5F5F5F5F5F5F5F5F5F5F5F5F5F5F5F5
310
F5F5F5F5F5F5F5F5F5F5F5F5F5F5F5F5F5F5F5F5F5F5E2F5F5F5F5E2E2F5F5F5F5F5F5F5F5F5F5F5F5F5F5F5F5F5F5F5F5F5F5F5F5F5F5F5F5F5F5F5F5F5F5F5F5F5F5F5F5F5F5F5F5F5F5F5F5F5F5F5F5F5F5F5F5F5F5F5F5F5F5F5F5F5F5F5F5F5F5F5F5F5F5F5F5F5F5F5F5F5F5F5F5F5F5F5F5F5F5F5F5F5F5F5F5F5F5
310
F5F5F5F5F5F5F5F5F5F5F5F5F5F5F5F5F5F5F5F5F5F5F5F5F5F5F5F5F5F5F5F5F5F5F5F5F5F5F5F5F5F5F5F5F5F5F5F5F5F5F5F5F5F5F5F5F5F5F5F5F5F5F5F5F5F5F5F5F5F5F5F5F5F5F5F5F5F5F5F5E2E2F5F5F5F5F5F5F5F5F5F5F5F5F5F5F5F5F5F5F5F5F5F5F5F5F5F5F5F5F5F5F5F5F5F5F5F5F5F5F5F5F5F5F5F5F5
310
F5F5F5F5F5F5F5F5F5F5F5F5F5F5F5F5F5F5F5F5F5F5F5F5F5F5F5F5F5F5F5F5F5F5F5F5F5F5F5F5F5F5F5F5F5F5F5F5F5F5F5F5F5F5F5F5F5F5F5F5F5F5F5F5F5F5F5F5F5F5F5F5F5F5F5F5F5F5F5F5F5F5F5F5F5F5F5F5F5F5F5F5F5F5F5F5F5F5F5F5F5F5F5F5F5F5F5F5F5F5F5F5F5F5F5F5F5F5F5F5F5F5F5F5F5F5F5
310
F5F5F5F5F5F5E2E2F5F5F5F5F5F5F5F5F5F5F5F5F5F5F5F5F5F5F5F5F5F5F5F5F5F5F5F5F5F5F5F5F5F5F5F5F5F5F5F5F5F5F5F5F5F5F5F5F5F5F5F5F5F5F5F5F5F5F5F5F5F5F5F5F5F5F5F5F5F5F5F5F5F5F5F5F5F5F5F5F5F5F5F5F5F5F5F5F5F5F5F5F5F5F5F5F5F5F5F5F5F5F5F5F5F5F5F5F5F5F5F5F5F5F5F5F5F5F5
310
F5F5F5F5F5F5F5F5F5F5F5F5F5F5F5F5F5F5F5F5F5F5F5F5F5F5F5F5F5F5F5F5F5F5F5F5F5F5F5F5F5F5F5F5F5F5F5F5F5F5F5F5F5F5F5F5F5F5F5E2E2F5F5F5F5F5F5F5F5F5F5F5F5F5F5F5F5F5F5F5F5F5F5F5F5F5F5F5F5F5F5F5F5F5F5F5F5F5F5F5F5F5F5F5F5F5F5F5F5F5F5F5F5F5F5F5F5F5F5F5F5F5F5F5F5F5F5
310
F5F5F5F5F5F5F5F5F5F5F5F5F5F5F5F5F5F5F5F5F5F5F5F5F5F5F5F5F5F5F5F5F5F5F5F5F5F5F5F5F5F5F5F5F5F5F5F5F5F5F5F5F5F5F5F5F5F5F5F5F5F5F5F5F5F5F5F5F5F5F5F5F5F5F5F5F5F5F5F5F5F5F5F5F5F5F5F5F5F5F5F5F5F5F5F5F5F5F5F5F5F5F5F5F5F5F5F5F5F5F5F5E2E2F5F5F5F5F5F5F5F5F5F5F5F5F5
310
F5F5F5F5F5F5F5F5E2E2E2E2E2E2E2E2E2E2E2E2E2E2E2E2E2E2E2E2E2E2E2E2E2E2E2E2E2E2E2E2E2E2E2E2E2E2E2E2E2E2E2E2E2E2E2E2E2E2E2E2E2E2E2E2E2E2E2E2E2E2E2E2E2E2E2E2E2E2E2E2E2E2E2E2E2E2E2E2E2E2E2E2E2E2E2E2E2E2E2E2E2E2E2E2E2E2E2E2E2E2E2E2E2E2E2E2E2E2E2E2E2E2E2E2E2E2E2
310
E2E2E2E2E2E2E2E2E2E2E2E2E2E2E2E2E2F5F5F5F5F5F5F5F5F5F5F5F5F5F5F5F5F5F5F5F5F5E2E2F5F5F5F5F5F5F5F5F5F5F5F5F5F5F5F5F5F5F5F5F5E22D2D2D2DF5F5F5F5E2F5F5F5F5F5F5F52DF5F5F5F5F5F5F5F5F5F5F5F5F5F5F5F5F5F5E2F5F5F5F5F5F5F5F5F5F5F5F5F5F5F5F5F5F5F5F5F5F5F5F5F5F5F5F5F5
310
F5F5F5F5F5F5F5F5F5F5F5F5F5F5F5F5F5F5F5F5F5F5F5F5F5F5F5F5F5F5F5F5F5F5F5F5F5F5F5F5F5F5F5F5F5F5F5F5F5F5F5F5F5F5F5F5F5F5F5F5F5F5F5F5F5F5F5F5F5E2F5F5F5F5F5F5F5F5F5F5F5F5F5F5F5F5F5F5F5F5F5E2E2F5F5F5F5F5F5F5F5F5F5F5F5F5F5F5F5F5F5F5F5F5E2DCF5F52DF5F5F5F5E2F5F5F5
310
F5F5F5F52DF5F5F5F5F5F5F5F5F5F5F5F5F5F5F5F5F5F5E2F5F5F5F5F5F5F5F5F5F5F5F5F5F5F5F5F5F5F5F5F5F5F5F5F5F5F5F5F5F5F5F5F5F5F5F5F5F5F5F5F5F5F5F5F5F5F5F5F5F5F5F5F5F5F5F5F5F5F5F5F5F5F5F5F5F5F5F5F5F5F5F5F5F5F5F5F5F5F5F5F5F5F5F5F5F5F5F5F5F5F5F5F5F5F5F5F5F5E2F5F5F5F5
310
F5F5F5F5F5F5F5F5F5F5F5F5F5F5F5F5F5E2E2F5F5F5F5F5F5F5F5F5F5F5F5F5F5F5F5F5F5F5F5F5E2DCF5F52DF5F5F5F5E2F5F5F5F5F5F5F52DF5F5F5F5F5F5F5F5F5F5F5F5F5F5F5F5F5F5E2E2F5F5F5F5F5F5F5F5F5F5F5F5F5F5F5F5F5F5F5F5F5F5F5F5F5F5F5F5F5F5F5F5F5F5F5F5F5F5F5F5F5F5F5F5F5F5F5F5F5
310
F5F5F5F5F5F5F5F5F5F5F5F5F5F5F5F5F5F5F5F5F5F5F5F5F5F5F5F5F5F5F5F5F5F5F5F5F5F5F5F5F5F5F5F5F5F5F5F5E2F5F5F5F5F5F5F5F5F5F5F5F5F5F5F5F5F5F5F5F5F5E2E2F5F5F5F5F5F5F5F5F5F5F5F5F5F5F5F5F5F5F5F5F5E2BEF5F52D2D2D2D2D2D2D2D2D2D2D2D2D2DE2E2E2E2E2E2E2E2E2E2E2E2E2E2E2E2
310
E2E2E2E2F5F5F5F5F5F5F5F5F5F5F5F5F5F5F5F5F5F5F5F5F5F5F5F5F5F5F5F5F5F5F5F5F5F5F5F5F5F5F5F5F5F5F5F5F5F5F5F5F5F5F5F5F5F5F5F5F5F5F5F5F5F5F5F5F5F5F5F5F5F5F5F5F5F5F5F5F5F5F5F5F5F5F5F5F5F5F5F5F5F5F5F5F5F5F5F5F5E2F5F5F5F5F5F5F5F5F5F5F5F5F5F5F5F5F5F5F5F5F5E2E2F5F5
310
F5F5E2F5F5F5F5F5F5F5F5F5F5F5F5F5F5F5F5E2DCF5F5F5F5F5F5F5E2F5F5F5F5F5F5F5E2F5F5F5F5F5F5F5F5F5F5F5F5F5F5F5F5F5F5F5F5F5F5F5F5F5F5F5F5F5F5F5F5F5F5F5F5F5F5F5F5F5F5F5F5F5F5F5F5F5F5F5F5F5F5F5F5F5F5F5F5F5F5F5F5F5F5F5F5F5F5F5F5F5F5F5F5F5F5F5F5F5F5F5F5F5F5F5F5F5F5
310
F5F5F5F5F5F5F5F5F5F5F5F5F5F5F5F5F5F5F5F5F5F5F5F5F5F5F5E2F5F5F5F5F5F5F5F5F5F5F5F5F5F5F5F5E2F5F5F5F5E2E2F5F5F5F5E2F5F5F5F5F5F5F5F5F5F5F5F5F5F5F5F5E2F5F5F5F5F5F5F5F5E2F5F5F5F5F5F5F5E2F5F5F5F5F5F5F5F5F5F5F5F5F5F5F5F5F5F5F5F5F5F5F5F5F5F5F5F5F5F5F5F5F5F5F5F5F5
310
F5F5F5F5F5F5F5F5F5F5F5F5F5F5F5F5F5F5F5F5F5F5F5F5F5F5F5F5F5F5F5F5F5F5F5F5F5F5F5F5F5F5F5F5F5F5F5F5F5F5F5F5F5F5F5F5F5F5F5F5F5F5F5F5F5F5F5F5F5F5F5F5F5F5F5F5F5F5F5F5E2F5F5F5F5F5F5F5F5F5F5F5F5F5F5F5F5E2F5F5F5F5E2E2F5F5F5F5E2F5F5F5F5F5F5F5F5F5F5F5F5F5F5F5F5E2E2
310
E2E2E2E2E2E2E2E2F5F5F5F5F5F5F5E2F5F5F5F5F5F5F5F5F5F5F5F5F5F5F5F5F5F5F5F5F5F5F5F5F5F5F5F5F5F5F5F5F5F5F5F5F5F5F5F5F5F5F5F5F5F5F5F5F5F5F5F5F5F5F5F5F5F5F5F5F5F5F5F5F5F5F5F5F5F5F5F5F5F5F5F5F5F5F5F5F5F5F5F5F5F5F5F5F5F5F5F5F5F5F5F5F5F5F5F5F5F5F5F5F5F5F5F5F5F5F5
310
F5F5F5F5F5F5E2F5F5F5F5F5F5F5F5F5F5F5F5F5F5F5F5E2F5F5F5F5E2E2F5F5F5F5E2F5F5F5F5F5F5F5F5F5F5F5F5F5F5F5F5E2E2E2E2F5F5F5F5F5F5F5F5F5F5F5F5F5E2F5F5F5F5F5F5F5F5F5F5F5F5F5F5F5F5F5F5F5F5F5F5F5F5F5F5F5F5F5F5F5F5F5F5F5F5F5F5F5F5F5F5F5F5F5F5F5F5F5F5F5F5F5F5F5F5F5F5
310
F5F5F5F5F5F5F5F5F5F5F5F5F5F5F5F5F5F5F5F5F5F5F5F5F5F5F5F5F5F5F5F5F5F5F5F5F5F5F5F5F5F5F5F5F5F5F5F5F5F5F5F5F5F5F5F5F5F5F5E2F5F5F5F5F5F5F5F5F5F5F5F5F5F5F5F5E2F5F5F5F5E2E2F5F5F5F5E2F5F5F5F5F5F5F5F5F5F5F5F5F5F5F5F5E2E2E2E2F5F5F5F5F5F5F5F5F5F5F5F5F5E2F5F5F5F5F5
310
F5F5F5F5F5F5F5F5F5F5F5F5F5F5F5F5F5F5F5F5F5F5F5F5F5F5F5F5F5F5F5F5F5F5F5F5F5F5F5F5F5F5F5F5F5F5F5F5F5F5F5F5F5F5F5F5F5F5F5F5F5F5F5F5F5F5F5F5F5F5F5F5F5F5F5F5F5F5F5F5F5F5F5F5F5F5F5F5F5F5F5F5F5F5F5F5F5F5F5F5F5F5F5F5F5F5F5F5F5F5F5F5E2F5F5F5F5F5F5F5F5F5F5F5F5F5F5
310
F5F5E2F5F5F5F5E2E2F5F5F5F5E2F5F5F5F5F5F5F5F5F5F5F5F5F5F5F5F5E2F5F5F5F5F5F5F5F5F5F5F5F5F5F5F5F5E2F5F5F5F5F5F5F5F5F5F5F5F5F5F5F5F5F5F5F5F5F5F5F5F5F5F5F5F5F5F5F5F5F5F5F5F5F5F5F5F5F5F5F5F5F5F5F5F5F5F5F5F5F5F5F5F5F5F5F5F5F5F5F5F5F5F5F5F5F5F5F5F5F5F5F5F5F5F5F5
310
F5F5F5F5F5F5F5F5F5F5F5F5F5F5F5F5F5F5F5F5F5F5F5F5F5F5F5F5F5F5F5F5F5F5F5F5F5F5E2F5F5F5F5F5F5F5F5F5F5F5F5F5F5F5F5E2F5F5F5F5E2E2F5F5F5F5E2F5F5F5F5F5F5F5F5F5F5F5F5F5F5F5F5E2E2E2E2E2E2E2E2E2E2E2E2E2E2E2E2E2E2F5F5F5F5F5F5F5F5F5F5F5F5F5F5F5F5F5F5F5F5F5F5F5F5F5F5
310
F5F5F5F5F5F5F5F5F5F5F5F5F5F5F5F5F5F5F5F5F5F5F5F5F5F5F5F5F5F5F5F5F5F5F5F5F5F5F5F5F5F5F5F5F5F5F5F5F5F5F5F5F5F5F5F5F5F5F5F5F5F5F5F5F5F5F5F5F5F5F5F5F5F5F5F5F5F5F5F5F5F5F5F5F5F5F5F5F5F5F5E2F5F5F5F5F5F5F5F5F5F5F5F5F5F5F5F5E2F5F5F5F5E2E2F5F5F5F5E2F5F5F5F5F5F5F5
310
F5F5F5F5F5F5F5F5F5E2E2E2F5F5F5F5F5F5F5F5F5F5F5F5F5F5F5F5F5F5F5F5F5F5F5F5F5F5F5F5F5F5F5F5F5F5F5F5F5F5F5F5F5F5F5F5F5F5F5F5F5F5F5F5F5F5F5F5F5F5F5F5F5F5F5F5F5F5F5F5F5F5F5F5F5F5F5F5F5F5F5F5F5F5F5F5F5F5F5F5F5F5F5F5F5F5F5F5F5F5F5F5F5F5F5F5F5F5F5F5F5F5F5F5F5F5F5
310
F5F5F5F5F5F5F5F5F5F5F5F5F5F5F5F5F5E2F5F5F5F5F5F5F5F5F5F5F5F5F5F5F5F5E2F5F5F5F5E2E2F5F5F5F5E2F5F5F5F5F5F5F5F5F5F5F5F5F5F5F5F5E2E2E2F5F5F5F5F5F5F5F5F5F5F5F5F5F5F5F5F5F5F5F5F5F5F5F5F5F5F5F5F5F5F5F5F5F5F5F5F5F5F5F5F5F5F5F5F5F5F5F5F5F5F5F5F5F5F5F5F5F5F5F5F5F5
310
F5F5F5F5F5F5F5F5F5F5F5F5F5F5F5F5F5F5F5F5F5F5F5F5F5F5F5F5F5F5F5F5F5F5F5F5F5F5F5F5F5F5F5F5F5F5F5F5F5F5F5F5F5F5F5F5F5F5F5F5F5F5F5F5F5F5F5F5F5F5E2F5F5F5F5F5F5F5F5F5F5F5F5F5F5F5F5E2F5F5F5F5E2E2F5F5F5F5E2F5F5F5F5F5F5F5F5F5F5F5F5F5F5F5F5E2F5F5F5F5F5F5F5F5F5F5F5
310
F5F5F5F5F5F5F5F5F5F5F5F5F5F5F5F5F5F5F5F5F5F5F5F5F5F5F5F5F5F5F5F5F5F5F5F5F5F5F5F5F5F5F5F5F5F5F5F5F5F5F5F5F5F5F5F5F5F5F5F5F5F5F5F5F5F5F5F5F5F5F5F5F5F5F5F5F5F5F5F5F5F5F5F5F5F5F5F5F5F5F5F5F5F5F5F5F5F5F5F5F5F5F5F5F5F5F5F5F5F5F5F5F5F5F5F5F5F5F5F5F5F5F5E2F5F5F5
310
F5F5F5F5F5F5F5F5F5F5F5F5F5E2F5F5F5F5E2E2F5F5F5F5E2F5F5F5F5F5F5F5F5F5F5F5F5F5F5F5F5E20F0F0F0F0F0F0F0F0F0F0FF5F5F5F5F5F5F5F5F5F5F5F5F5F5F5F5F5F5F5F5F5F5F5F5F5F5F5F5F5F5F5F5F5F5F5F5F5F5F5F5F5F5F5F5F5F5F5F5F5F5F5F5F5F5F5F5F5F5F5F5F5F5F5F5F5F5F5F5F5F5F5F5F5F5
310
F5F5F5F5F5F5F5F5F5F5F5F5F5F5F5F5F5F5F5F5F5F5F5F5F5F5F5F5F5F5F5F5F5F5F5F5F5F5F5F5F5F5F5F5F5F5F5F5F5E2F5F5F5F5F5F5F5F5F5F5F5F5F5F5F5F5E2F5F5F5F5E2E2F5F5F5F5E2F5F5F5F5F5F5F5F5F5F5F5F5F5F5F5F5E20F0F0F0F0F0F0F0F0F0FF5F5F5F5F5F5F5F5F5F5F5F5F5F5F5F5F5F5F5F5F5F5
310
F5F5F5F5F5F5F5F5F5F5F5F5F5F5F5F5F5F5F5F5F5F5F5F5F5F5F5F5F5F5F5F5F5F5F5F5F5F5F5F5F5F5F5F5F5F5F5F5F5F5F5F5F5F5F5F5F5F5F5F5F5F5F5F5F5F5F5F5F5F5F5F5F5F5F5F5F5F5F5F5F5F5F5F5F5F5F5F5F5F5F5F5F5F5F5F5F5F5F5F5F5F5E2F5F5F5F5F5F5F5F5F5F5F5F5F5F5F5F5E2F5F5F5F5E2E2F5
310
F5F5F5E2F5F5F5F5F5F5F5F5F5F5F5F5F5F5F5F5E2F5F5F5F5F5F5F5F5F5F5F5F5F5F5F5F5F5F5F5F5F5F5F5F5F5F5F5F5F5F5F5F5F5F5F5F5F5F5F5F5F5F5F5F5F5F5F5F5F5F5F5F5F5F5F5F5F5F5F5F5F5F5F5F5F5F5F5F5F5F5F5F5F5F5F5F5F5F5F5F5F5F5F5F5F5F5F5F5F5F5F5F5F5F5F5F5F5F5F5F5F5F5F5F5F5F5
310
F5F5F5F5F5F5F5F5F5F5F5F5F5F5F5F5F5F5F5F5F5F5F5F5F5F5F5F5E2F5F5F5F5F5F5F5F5F5F5F5F5F5F5F5F5E2F5F5F5F5E2E2F5F5F5F5E2F5F5F5F5F5F5F5F5F5F5F5F5F5F5F5F5E2F5F5F5F5F5F5F5F5F5F5F5F5F5F5F5F5F5F5F5F5F5F5F5F5F5F5F5F5F5F5F5F5F5F5F5F5F5F5F5F5F5F5F5F5F5F5F5F5F5F5F5F5F5
310
F5F5F5F5F5F5F5F5F5F5F5F5F5F5F5F5F5F5F5F5F5F5F5F5F5F5F5F5F5F5F5F5F5F5F5F5F5F5F5F5F5F5F5F5F5F5F5F5F5F5F5F5F5F5F5F5F5F5F5F5F5F5F5F5F5F5F5F5F5F5F5F5F5F5F5F5F5F5F5F5F5E2F5F5F5F5F5F5F5F5F5F5F5F5F5F5F5F5E2F5F5F5F5E2E2F5F5F5F5E2F5F5F5F5F5F5F5F5F5F5F5F5F5F5F5F5E2
310
F5F5F5F5F5F5F5F5F5F5F5F5F5F5F5F5F5F5F5F5F5F5F5F5F5F5F5F5F5F5F5F5F5F5F5F5F5F5F5F5F5F5F5F5F5F5F5F5F5F5F5F5F5F5F5F5F5F5F5F5F5F5F5F5F5F5F5F5F5F5F5F5F5F5F5F5F5F5F5F5F5F5F5F5F5F5F5F5F5F5F5F5F5F5F5F5F5F5F5F5F5F5F5F5F5F5F5F5F5F5F5F5F5F5F5F5F5F5F5F5F5F5F5F5F5F5F5
310
F5F5F5F5F5F5F5E2F5F5F5F5F5F5F5F5F5F5F5F5F5F5F5F5E2F5F5F5F5E2E2F5F5F5F5E2F5F5F5F5F5F5F5F5F5F5F5F5F5F5F5F5E2F5F5F5F5F5F5F5F5F5F5F5F5F5F5F5F5F5F5F5F5F5F5F5F5F5F5F5F5F5F5F5F5F5F5F5F5F5F5F5F5F5F5F5F5F5F5F5F5F5F5F5F5F5F5F5F5F5F5F5F5F5F5F5F5F5F5F5F5F5F5F5F5F5F5
310
F5F5F5F5F5F5F5F5F5F5F5F5F5F5F5F5F5F5F5F5F5F5F5F5F5F5F5F5F5F5F5F5F5F5F5F5F5F5F5F5F5F5F5F5F5F5F5F5F5F5F5F5F5F5F5F5F5F5F5F5E2F5F5F5F5F5F5F5F5F5F5F5F5F5F5F5F5E2F5F5F5F5E2E2F5F5F5F5F5F5F5F5F5F5F5F5F5F5F5F5F5F5F5F5F5E2F5F5F5F5F5F5F5F5F5F5F5F5F5F5F5F5F5F5F5F5F5
310
F5F5F5F5F5F5F5F5F5F5F5F5F5F5F5F5F5F5F5F5F5F5F5F5F5F5F5F5F5F5F5F5F5F5F5F5F5F5F5F5F5F5F5F5F5F5F5F5F5F5F5F5F5F5F5F5F5F5F5F5F5F5F5F5F5F5F5F5F5F5F5F5F5F5F5F5F5F5F5F5F5F5F5F5F5F5F5F5F5F5F5F5F5F5F5F5F5F5F5F5F5F5F5F5F5F5F5F5F5F5F5F5F5E2F5F5F5F5F5F5F5F5F5F5F5F5F5
310
F5F5F5F5F5F5F5F5E2E2F5F5F5F5F5F5F5F5F5F5F5F5F5F5F5F5F5F5F5F5F5E2F5F5F5F5F5F5F5F5F5F5F5F5F5F5F5F5F5F5F5F5F5F5F5F5F5F5F5F5F5F5F5F5F5F5F5F5F5F5F5F5F5F5F5F5F5F5F5F5F5F5F5F5F5F5F5F5F5F5F5F5F5F5F5F5F5F5F5F5F5F5F5F5F5F5F5F5F5F5F5F5F5F5F5F5F5F5F5F5F5F5F5F5F5F5F5
310
F5F5F5F5F5F5F5F5F5F5F5F5F5F5F5F5F5F5F5F5F5F5F5F5F5F5F5F5F5F5F5F5F5F5F5F5F5F5F5E2F5F5F5F5F5F5F5F5F5F5F5F5F5F5F5F5F5F5F5F5F5E2E2F5F5F5F5F5F5F5F5F5F5F5F5F5F5F5F5F5F5F5F5F5E2F5F5F5F5F5F5F5F5F5F5F5F5F5F5F5F5F5F5F5F5F5F5F5F5F5F5F5F5F5F5F5F5F5F5F5F5F5F5F5F5F5F5
310
F5F5F5F5F5F5F5F5F5F5F5F5F5F5F5F5F5F5F5F5F5F5F5F5F5F5F5F5F5F5F5F5F5F5F5F5F5F5F5F5F5F5F5F5F5F5F5F5F5F5F5F5F5F5F5F5F5F5F5F5F5F5F5F5F5F5F5F5F5F5F5F5F5F5F5F5F5F5F5F5F5F5F5F5F5F5F5F5F5F5F5F5E2F5F5F5F5F5F5F5F5F5F5F5F5F5F5F5F5F5F5F5F5F5E2E2F5F5F5F5F5F5F5F5F5F5F5
310
F5F5F5F5F5F5F5F5F5F5E2F5F5F5F5F5F5F5F5F5F5F5F5F5F5F5F5F5F5F5F5F5F5F5F5F5F5F5F5F5F5F5F5F5F5F5F5F5F5F5F5F5F5F5F5F5F5F5F5F5F5F5F5F5F5F5F5F5F5F5F5F5F5F5F5F5F5F5F5F5F5F5F5F5F5F5F5F5F5F5F5F5F5F5F5F5F5F5F5F5F5F5F5F5F5F5F5F5F5F5F5F5F5F5F5F5F5F5F5F5F5F5F5F5F5F5F5
310
F5F5F5F5F5F5F5F5F5F5F5F5F5F5F5F5F5F5E2F5F5F5F5F5F5F5F5F5F5F5F5F5F5F5F5F5F5F5F5F5E2E2F5F5F5F5F5F5F5F5F5F5F5F5F5F5F5F5F5F5F5F5F5E2F5F5F5F5F5F5F5F5F5F5F5F5F5F5F5F5F5F5F5F5F5F5F5F5F5F5F5F5F5F5F5F5F5F5F5F5F5F5F5F5F5F5F5F5F5F5F5F5F5F5F5F5F5F5F5F5F5F5F5F5F5F5F5
310
F5F5F5F5F5F5F5F5F5F5F5F5F5F5F5F5F5F5F5F5F5F5F5F5F5F5F5F5F5F5F5F5F5F5F5F5F5F5F5F5F5F5F5F5F5F5F5F5F5F5F5F5F5F5F5F5F5F5F5F5F5F5F5F5F5F5F5F5F5F5F5E2F5F5F5F5F5F5F5F5F5F5F5F5F5F5F5F5F5F5F5F5F5E2E2F5F5F5F5F5F5F5F5F5F5F5F5F5F5F5F5F5F5F5F5F5E2F5F5F5F5F5F5F5F5F5F5
310
F5F5F5F5F5F5F5F5F5F5F5F5F5F5F5F5F5F5F5F5F5F5F5F5F5F5F5F5F5F5F5F5F5F5F5F5F5F5F5F5F5F5F5F5F5F5F5F5F5F5F5F5F5F5F5F5F5F5F5F5F5F5F5F5F5F5F5F5F5F5F5F5F5F5F5F5F5F5F5F5F5F5F5F5F5F5F5F5F5F5F5F5F5F5F5F5F5F5F5F5F5F5F5F5F5F5F5F5F5F5F5F5F5F5F5F5F5F5F5F5F5F5F5F5E2F5F5
310
F5F5F5F5F5F5F5F5F5F5F5F5F5F5F5F5F5F5F5E2E2F5F5F5F5F5F5F5F5F5F5F5F5F5F5F5F5F5F5F5F5F5E2F5F5F5F5F5F5F5F5F5F5F5F5F5F5F5F5F5F5F5F5F5F5F5F5F5F5F5F5F5F5F5F5F5F5F5F5F5F5F5F5F5F5F5F5F5F5F5F5F5F5F5F5F5F5F5F5F5F5F5F5F5F5F5F5F5F5F5F5F5F5F5F5F5F5F5F5F5F5F5F5F5F5F5F5
310
F5F5F5F5F5F5F5F5F5F5F5F5F5F5F5F5F5F5F5F5F5F5F5F5F5F5F5F5F5F5F5F5F5F5F5F5F5F5F5F5F5F5F5F5F5F5F5F5F5F5E2F5F5F5F5F5F5F5F5F5F5F5F5F5F5F5F5F5F5F5F5F5E2E2F5F5F5F5F5F5F5F5F5F5F5F5F5F5F5F5F5F5F5F5F5E2F5F5F5F5F5F5F5F5F5F5F5F5F5F5F5F5F5F5F5F5F5F5F5F5F5F5F5F5F5F5F5
310
F5F5F5F5F5F5F5F5F5F5F5F5F5F5F5F5F5F5F5F5F5F5F5F5F5F5F5F5F5F5F5F5F5F5F5F5F5F5F5F5F5F5F5F5F5F5F5F5F5F5F5F5F5F5F5F5F5F5F5F5F5F5F5F5F5F5F5F5F5F5F5F5F5F5F5F5F5F5F5F5F5F5F5F5F5F5F5F5F5F5F5F5F5F5F5F5F5F5F5F5F5F5F5E2F5F5F5F5F5F5F5F5F5F5F5F5F5F5F5F5F5F5F5F5F5E2E2
310
F5F5F5F5F5F5F5F5F5F5F5F5F5F5F5F5F5F5F5F5F5E2F5F5F5F5F5F5F5F5F5F5F5F5F5F5F5F5F5F5F5F5F5F5F5F5F5F5F5F5F5F5F5F5F5F5F5F5F5F5F5F5F5F5F5F5F5F5F5F5F5F5F5F5F5F5F5F5F5F5F5F5F5F5F5F5F5F5F5F5F5F5F5F5F5F5F5F5F5F5F5F5F5F5F5F5F5F5F5F5F5F5F5F5F5F5F5F5F5F5F5F5F5F5F5F5F5
310
F5F5F5F5F5F5F5F5F5F5F5F5F5F5F5F5F5F5F5F5F5F5F5F5F5F5F5F5F5E2F5F5F5F5F5F5F5F5F5F5F5F5F5F5F5F5F5F5F5F5F5E2E2F5F5F5F5F5F5F5F5F5F5F5F5F5F5F5F5F5F5F5F5F5E2F5F5F5F5F5F5F5F5F5F5F5F5F5F5F5F5F5F5F5F5F5F5F5F5F5F5F5F5F5F5F5F5F5F5F5F5F5F5F5F5F5F5F5F5F5F5F5F5F5F5F5F5
310
F5F5F5F5F5F5F5F5F5F5F5F5F5F5F5F5F5F5F5F5F5F5F5F5F5F5F5F5F5F5F5F5F5F5F5F5F5F5F5F5F5F5F5F5F5F5F5F5F5F5F5F5F5F5F5F5F5F5F5F5F5F5F5F5F5F5F5F5F5F5F5F5F5F5F5F5F5F5F5F5F5F5E2F5F5F5F5F5F5F5F5F5F5F5F5F5F5F5F5F5F5F5F5F5E2E2F5F5F5F5E2F5F5F5F5F5F5F5F5F5F5F5F5F5F5F5F5
310
E2F5F5F5F5F5F5F5F5F5F5F5F5F5F5F5F5F5F5F5F5F5F5F5F5F5F5F5F5F5F5F5F5F5F5F5F5F5F5F5F5F5F5F5F5F5F5F5F5F5F5F5F5F5F5F5F5F5F5F5F5F5F5F5F5F5F5F5F5F5F5F5F5F5F5F5F5F5F5F5F5F5F5F5F5F5F5F5F5F5F5F5F5F5F5F5F5F5F5F5F5F5F5F5F5F5F5F5F5F5F5F5F5F5F5F5F5F5F5F5F5F5F5F5F5F5F5
310
F5F5F5F5F5F5F5F5E2F5F5F5F5F5F5F5F5F5F5F5F5F5F5F5F5E2F5F5F5F5E2E2F5F5F5F5E2F5F5F5F5F5F5F5F5F5F5F5F5F5F5F5F5E2F5F5F5F5F5F5F5F5F5F5F5F5F5F5F5F5F5F5F5F5F5F5F5F5F5F5F5F5F5F5F5F5F5F5F5F5F5F5F5F5F5F5F5F5F5F5F5F5F5F5F5F5F5F5F5F5F5F5F5F5F5F5F5F5F5F5F5F5F5F5F5F5F5
310
F5F5F5F5F5F5F5F5F5F5F5F5F5F5F5F5F5F5F5F5F5F5F5F5F5F5F5F5F5F5F5F5F5F5F5F5F5F5F5F5F5F5F5F5F5F5F5F5F5F5F5F5F5F5F5F5F5F5F5F5F5E2F5F5F5F5F5F5F5F5F5F5F5F5F5F5F5F5E2F5F5F5F5E2E2F5F5F5F5E2F5F5F5F5F5F5F5F5F5F5F5F5F5F5F5F5E2F5F5F5F5F5F5F5F5F5F5F5F5F5F5F5F5F5F5F5F5
310
F5F5F5F5F5F5F5F5F5F5F5F5F5F5F5F5F5F5F5F5F5F5F5F5F5F5F5F5F5F5F5F5F5F5F5F5F5F5F5F5F5F5F5F5F5F5F5F5F5F5F5F5F5F5F5F5F5F5F5F5F5F5F5F5F5F5F5F5F5F5F5F5F5F5F5F5F5F5F5F5F5F5F5F5F5F5F5F5F5F5F5F5F5F5F5F5F5F5F5F5F5F5F5F5F5F5F5F5F5F5F5F5F5F5E2F5F5F5F5F5F5F5F5F5F5F5F5
310
F5F5F5F5E2F5F5F5F5E2E2F5F5F5F5E2F5F5F5F5F5F5F5F5F5F5F5F5F5F5F5F5E2F5F5F5F5F5F5F5F5F5F5F5F5F5F5F5F5F5F5F5F5F5F5F5F5F5F5F5F5F5F5F5F5F5F5F5F5F5F5F5F5F5F5F5F5F5F5F5F5F5F5F5F5F5F5F5F5F5F5F5F5F5F5F5F5F5F5F5F5F5F5F5F5F5F5F5F5F5F5F5F5F5F5F5F5F5F5F5F5F5F5F5F5F5F5
310
F5F5F5F5F5F5F5F5F5F5F5F5F5F5F5F5F5F5F5F5F5F5F5F5F5F5F5F5F5F5F5F5F5F5F5F5F5F5F5F5E2F5F5F5F5F5F5F5F5F5F5F5F5F5F5F5F5E2F5F5F5F5E2E2F5F5F5F5E2F5F5F5F5F5F5F5F5F5F5F5F5F5F5F5F5E2F5F5F5F5F5F5F5F5F5F5F5F5F5F5F5F5F5F5F5F5F5F5F5F5F5F5F5F5F5F5F5F5F5F5F5F5F5F5F5F5F5
310
F5F5F5F5F5F5F5F5F5F5F5F5F5F5F5F5F5F5F5F5F5F5F5F5F5F5F5F5F5F5F5F5F5F5F5F5F5F5F5F5F5F5F5F5F5F5F5F5F5F5F5F5F5F5F5F5F5F5F5F5F5F5F5F5F5F5F5F5F5F5F5F5F5F5F5F5F5F5F5F5F5F5F5F5F5F5F5F5F5F5F5F5F5E2F5F5F5F5F5F5F5F5F5F5F5F5F5F5F5F5E2F5F5F5F5E2E2F5F5F5F5E2F5F5F5F5F5
310
F5F5F5F5F5F5F5F5F5F5F5E2F5F5F5F5F5F5F5F5F5F5F5F5F5F5F5F5F5F5F5F5F5F5F5F5F5F5F5F5F5F5F5F5F5F5F5F5F5F5F5F5F5F5F5F5F5F5F5F5F5F5F5F5F5F5F5F5F5F5F5F5F5F5F5F5F5F5F5F5F5F5F5F5F5F5F5F5F5F5F5F5F5F5F5F5F5F5F5F5F5F5F5F5F5F5F5F5F5F5F5F5F5F5F5F5F5F5F5F5F5F5F5F5F5F5F5
310
F5F5F5F5F5F5F5F5F5F5F5F5F5F5F5F5F5F5F5E2F5F5F5F5F5F5F5F5F5F5F5F5F5F5F5F5E2F5F5F5F5E2E2F5F5F5F5E2F5F5F5F5F5F5F5F5F5F5F5F5F5F5F5F5E2F5F5F5F5F5F5F5F5F5F5F5F5F5F5F5F5F5F5F5F5F5F5F5F5F5F5F5F5F5F5F5F5F5F5F5F5F5F5F5F5F5F5F5F5F5F5F5F5F5F5F5F5F5F5F5F5F5F5F5F5F5F5
310
F5F5F5F5F5F5F5F5F5F5F5F5F5F5F5F5F5F5F5F5F5F5F5F5F5F5F5F5F5F5F5F5F5F5F5F5F5F5F5F5F5F5F5F5F5F5F5F5F5F5F5F5F5F5F5F5F5F5F5F5F5F5F5F5F5F5F5F5F5F5F5F5E2F5F5F5F5F5F5F5F5F5F5F5F5F5F5F5F5E2F5F5F5F5E2E2F5F5F5F5E2F5F5F5F5F5F5F5F5F5F5F5F5F5F5F5F5E2F5F5F5F5F5F5F5F5F5
310
F5F5F5F5F5F5F5F5F5F5F5F5F5F5F5F5F5F5F5F5F5F5F5F5F5F5F5F5F5F5F5F5F5F5F5F5F5F5F5F5F5F5F5F5F5F5F5F5F5F5F5F5F5F5F5F5F5F5F5F5F5F5F5F5F5F5F5F5F5F5F5F5F5F5F5F5F5F5F5F5F5F5F5F5F5F5F5F5F5F5F5F5F5F5F5F5F5F5F5F5F5F5F5F5F5F5F5F5F5F5F5F5F5F5F5F5F5F5F5F5F5F5F5F5F5E2F5
310
F5F5F5F5F5F5F5F5F5F5F5F5F5F5F5E2F5F5F5F5E2E2F5F5F5F5E2F5F5F5F5F5F5F5F5F5F5F5F5F5F5F5F5E2F5F5F5F5F5F5F5F5F5F5F5F5F5F5F5F5F5F5F5F5F5F5F5F5F5F5F5F5F5F5F5F5F5F5F5F5F5F5F5F5F5F5F5F5F5F5F5F5F5F5F5F5F5F5F5F5F5F5F5F5F5F5F5F5F5F5F5F5F5F5F5F5F5F5F5F5F5F5F5F5F5F5F5
310
F5F5F5F5F5F5F5F5F5F5F5F5F5F5F5F5F5F5F5F5F5F5F5F5F5F5F5F5F5F5F5F5F5F5F5F5F5F5F5F5F5F5F5F5F5F5F5F5F5F5F5E2F5F5F5F5F5F5F5F5F5F5F5F5F5F5F5F5E2F5F5F5F5E2E2F5F5F5F5E2F5F5F5F5F5F5F5F5F5F5F5F5F5F5F5F5E2F5F5F5F5F5F5F5F5F5F5F5F5F5F5F5F5F5F5F5F5F5F5F5F5F5F5F5F5F5F5
310
F5F5F5F5F5F5F5F5F5F5F5F5F5F5F5F5F5F5F5F5F5F5F5F5F5F5F5F5F5F5F5F5F5F5F5F5F5F5F5F5F5F5F5F5F5F5F5F5F5F5F5F5F5F5F5F5F5F5F5F5F5F5F5F5F5F5F5F5F5F5F5F5F5F5F5F5F5F5F5F5F5F5F5F5F5F5F5F5F5F5F5F5F5F5F5F5F5F5F5F5F5F5F5F5E2F5F5F5F5F5F5F5F5F5F5F5F5F5F5F5F5E2F5F5F5F5E2
310
E2F5F5F5F5E2F5F5F5F5F5F5F5F5F5F5F5F5F5F5F5F5E2F5F5F5F5F5F5F5F5F5F5F5F5F5F5F5F5F5F5F5F5F5F5F5F5F5F5F5F5F5F5F5F5F5F5F5F5F5F5F5F5F5F5F5F5F5F5F5F5F5F5F5F5F5F5F5F5F5F5F5F5F5F5F5F5F5F5F5F5F5F5F5F5F5F5F5F5F5F5F5F5F5F5F5F5F5F5F5F5F5F5F5F5F5F5F5F5F5F5F5F5F5F5F5F5
310
F5F5F5F5F5F5F5F5F5F5F5F5F5F5F5F5F5F5F5F5F5F5F5F5F5F5F5F5F5F5E2F5F5F5F5F5F5F5F5F5F5F5F5F5F5F5F5E2F5F5F5F5E2E2F5F5F5F5E2F5F5F5F5F5F5F5F5F5F5F5F5F5F5F5F5E2F5F5F5F5F5F5F5F5F5F5F5F5F5F5F5F5F5F5F5F5F5F5F5F5F5F5F5F5F5F5F5F5F5F5F5F5F5F5F5F5F5F5F5F5F5F5F5F5F5F5F5
310
F5F5F5F5F5F5F5F5F5F5F5F5F5F5F5F5F5F5F5F5F5F5F5F5F5F5F5F5F5F5F5F5F5F5F5F5F5F5F5F5F5F5F5F5F5F5F5F5F5F5F5F5F5F5F5F5F5F5F5F5F5F5F5F5F5F5F5F5F5F5F5F5F5F5F5F5F5F5F5F5F5F5F5E2F5F5F5F5F5F5F5F5F5F5F5F5F5F5F5F5E2F5F5F5F5E2E2F5F5F5F5E2F5F5F5F5F5F5F5F5F5F5F5F5F5F5F5
310
F5E2F5F5F5F5F5F5F5F5F5F5F5F5F5F5F5F5F5F5F5F5F5F5F5F5F5F5F5F5F5F5F5F5F5F5F5F5F5F5F5F5F5F5F5F5F5F5F5F5F5F5F5F5F5F5F5F5F5F5F5F5F5F5F5F5F5F5F5F5F5F5F5F5F5F5F5F5F5F5F5F5F5F5F5F5F5F5F5F5F5F5F5F5F5F5F5F5F5F5F5F5F5F5F5F5F5F5F5F5F5F5F5F5F5F5F5F5F5F5F5F5F5F5F5F5F5
310
F5F5F5F5F5F5F5F5F5E2F5F5F5F5F5F5F5F5F5F5F5F5F5F5F5F5E2F5F5F5F5E2E2F5F5F5F5E2F5F5F5F5F5F5F5F5F5F5F5F5F5F5F5F5E2F5F5F5F5F5F5F5F5F5F5F5F5F5F5F5F5F5F5F5F5F5F5F5F5F5F5F5F5F5F5F5F5F5F5F5F5F5F5F5F5F5F5F5F5F5F5F5F5F5F5F5F5F5F5F5F5F5F5F5F5F5F5F5F5F5F5F5F5F5F5F5F5
310
F5F5F5F5F5F5F5F5F5F5F5F5F5F5F5F5F5F5F5F5F5F5F5F5F5F5F5F5F5F5F5F5F5F5F5F5F5F5F5F5F5F5F5F5F5F5F5F5F5F5F5F5F5F5F5F5F5F5F5F5F5F5E2F5F5F5F5F5F5F5F5F5F5F5F5F5F5F5F5E2F5F5F5F5E2E2F5F5F5F5E2F5F5F5F5F5F5F5F5F5F5F5F5F5F5F5F5E2F5F5F5F5F5F5F5F5F5F5F5F5F5F5F5F5F5F5F5
310
F5F5F5F5F5F5F5F5F5F5F5F5F5F5F5F5F5F5F5F5F5F5F5F5F5F5F5F5F5F5F5F5F5F5F5F5F5F5F5F5F5F5F5F5F5F5F5F5F5F5F5F5F5F5F5F5F5F5F5F5F5F5F5F5F5F5F5F5F5F5F5F5F5F5F5F5F5F5F5F5F5F5F5F5F5F5F5F5F5F5F5F5F5F5F5F5F5F5F5F5F5F5F5F5F5F5F5F5F5F5F5F5F5F5F5E2F5F5F5F5F5F5F5F5F5F5F5
310
F5F5F5F5F5E2F5F5F5F5E2E2F5F5F5F5E2F5F5F5F5F5F5F5F5F5F5F5F5F5F5F5F5E2F5F5F5F5F5F5F5F5F5F5F5F5F5F5F5F5F5F5F5F5F5F5F5F5F5F5F5F5F5F5F5F5F5F5F5F5F5F5F5F5F5F5F5F5F5F5F5F5F5F5F5F5F5F5F5F5F5F5F5F5F5F5F5F5F5F5F5F5F5F5F5F5F5F5F5F5F5F5F5F5F5F5F5F5F5F5F5F5F5F5F5F5F5
310
F5F5F5F5F5F5F5F5F5F5F5F5F5F5F5F5F5F5F5F5F5F5F5F5F5F5F5F5F5F5F5F5F5F5F5F5F5F5F5F5F5E2F5F5F5F5F5F5F5F5F5F5F5F5F5F5F5F5E2F5F5F5F5E2E2F5F5F5F5F5F5F5F5F5F5F5F5F5F5F5F5F5F5F5F5F5E2F5F5F5F5F5F5F5F5F5F5F5F5F5F5F5F5F5F5F5F5F5F5F5F5F5F5F5F5F5F5F5F5F5F5F5F5F5F5F5F5
310
F5F5F5F5F5F5F5F5F5F5F5F5F5F5F5F5F5F5F5F5F5F5F5F5F5F5F5F5F5F5F5F5F5F5F5F5F5F5F5F5F5F5F5F5F5F5F5F5F5F5F5F5F5F5F5F5F5F5F5F5F5F5F5F5F5F5F5F5F5F5F5F5F5F5F5F5F5F5F5F5F5F5F5F5F5F5F5F5F5F5F5F5F5F5E2F5F5F5F5F5F5F5F5F5F5F5F5F5F5F5F5F5F5F5F5F5E2E2F5F5F5F5F5F5F5F5F5
310
F5F5F5F5F5F5F5F5F5F5F5F5E2F5F5F5F5F5F5F5F5F5F5F5F5F5F5F5F5F5F5F5F5F5F5F5F5F5F5F5F5F5F5F5F5F5F5F5F5F5F5F5F5F5F5F5F5F5F5F5F5F5F5F5F5F5F5F5F5F5F5F5F5F5F5F5F5F5F5F5F5F5F5F5F5F5F5F5F5F5F5F5F5F5F5F5F5F5F5F5F5F5F5F5F5F5F5F5F5F5F5F5F5F5F5F5F5F5F5F5F5F5F5F5F5F5F5
310
F5F5F5F5F5F5F5F5F5F5F5F5F5F5F5F5F5F5F5F5E2F5F5F5F5F5F5F5F5F5F5F5F5F5F5F5F5F5F5F5F5F5E2E2F5F5F5F5F5F5F5F5F5F5F5F5F5F5F5F5F5F5F5F5F5E2F5F5F5F5F5F5F5F5F5F5F5F5F5F5F5F5F5F5F5F5F5F5F5F5F5F5F5F5F5F5F5F5F5F5F5F5F5F5F5F5F5F5F5F5F5F5F5F5F5F5F5F5F5F5F5F5F5F5F5F5F5
310
F5F5F5F5F5F5F5F5F5F5F5F5F5F5F5F5F5F5F5F5F5F5F5F5F5F5F5F5F5F5F5F5F5F5F5F5F5F5F5F5F5F5F5F5F5F5F5F5F5F5F5F5F5F5F5F5F5F5F5F5F5F5F5F5F5F5F5F5F5F5F5F5F5E2F5F5F5F5F5F5F5F5F5F5F5F5F5F5F5F5F5F5F5F5F5E2E2F5F5F5F5F5F5F5F5F5F5F5F5F5F5F5F5F5F5F5F5F5E2F5F5F5F5F5F5F5F5
310
F5F5F5F5F5F5F5F5F5F5F5F5F5F5F5F5F5F5F5F5F5F5F5F5F5F5F5F5F5F5F5F5F5F5F5F5F5F5F5F5F5F5F5F5F5F5F5F5F5F5F5F5F5F5F5F5F5F5F5F5F5F5F5F5F5F5F5F5F5F5F5F5F5F5F5F5F5F5F5F5F5F5F5F5F5F5F5F5F5F5F5F5F5F5F5F5F5F5DCF5F5F5F5F5F5F5F5F5F5F5F5F5F5F5F5F5F5F5F5F5F5F5F5F5F5F5E2
310
F5F5F5F5F5F5F5F5F5F5F5F5F5F5F5F5F5F5F5F5F5E2E2F5F5F5F5F5F5F5F5F5F5F5F5F5F5F5F5F5F5F5F5F5E2F5F5F5F5F5F5F5F5F5F5F5F5F5F5F5F5F5F5F5F5F5F5F5F5F5F5F5F5F5F5F5F5F5F5F5F5F5F5F5F5F5F5F5F5F5F5F5F5F5F5F5F5F5F5F5F5F5F5F5F5F5F5F5F5F5F5F5F5F5F5F5F5F5F5F5F5F5F5F5F5F5E2
310
ECE2E2E2E2E2E2E2E2E2E2E2E2E2E2E2E2E2E2E2E2E2E2E2DCE2E2E2E2E2E2E2E2E2E2E2E2E2E2E2E2E2E2E2E2E2E2E2ECE2F5F5E2F5F5F5F5F5F5F5F5F5F5F5F5F5F5F5F5F5F5F5F5F5E2E2F5F5F5F5F5F5F5F5F5F5F5F5F5F5F5F5F5F5F5F5F5E2F5F5F5F5F5F5F5F5F5F5F5F5F5F5F5F5F5F5F5F5F5F5F5F5F5F5F5F5F5
310
F5F5F5F5F5F5F5F5F5F5F5F5F5F5F5F5F5F5F5F5F5F5F5F5F5F5F5F5F5F5F5F5F5F5F5F5F5F5F5F5F5F5F5F5F5F5F5F5F5F5F5E2F5F5ECF5F5F5F5F5F5F5F5F5F5F5F5F5F5F5F5F5F5F5F5F5F5DCF5F5F5F5F5F5F5F5F5F5F5F5F5F5F5F5F5F5F5F5F5F5ECF5F5E2F5E2F5F5F5F5F5F5F5F5F5F5F5F5F5F5F5F5F5F5F5F5F5
310
E2E2F5F5F5F5F5F5F5F5F5F5F5F5F5F5F5F5F5F5F5F5F5E2F5F5F5F5F5F5F5F5F5F5F5F5F5F5F5F5F5F5F5F5F5F5F5F5F5F5F5F5F5F5F5F5F5F5F5F5F5F5F5F5F5F5F5F5F5F5F5F5F5F5F5F5F5F5F5F5F5F5F5F5F5F5F5F5F5F5F5F5F5F5F5F5F5F5F5F5F5F5F5E2F5F5F5F5ECF5F5F5F5F5F5F5F5F5F5F5F5F5F5F5F5F5F5
310
F5F5F5DCF5F5F5F5F5F5F5F5F5F5F5F5F5F5F5F5F5F5F5F5F5ECF5F5F5F5E2E2F5F5F5F5F5F5F5F5F5F5F5F5F5F5F5F5F5F5F5F5F5E2E2F5F5F5F5F5F5F5F5F5F5F5F5F5F5F5F5F5F5F5F5F5E2F5F5F5F5F5F5F5F5F5F5F5F5F5F5F5F5F5F5F5F5F5F5F5F5F5F5F5F5F5F5F5F5F5F5F5F5F5F5F5F5F5F5F5F5F5F5F5F5F5F5
310
F5F5F5F5F5F5F5F5F5F5F5F5F5F5F5F5F5F5F5F5F5F5F5F5F5F5F5F5E2E2E2E2E2E2ECE2E2E2E2E2E2E2E2E2ECECECECECECE2ECECECECECDCECECECECECE2ECECECECECECE2E2E2E2E2E2E2E2ECE2E2E2E2E2E2E2F5F5F5F5F5F5F5F5F5F5F5F5F5F5F5F5F5F5F5F5F5E2E2F5F5F5F5F5F5F5F5F5F5F5F5F5F5F5F5F5F5F5
310
F5F5E2F5F5F5F5F5F5F5F5F5F5F5F5F5F5F5F5F5F5F5F5F5F5F5F5F5F5F5F5F5F5F5F5F5F5F5F5F5F5F5F5F5F5F5F5F5F5F5F5F5F5F5F5F5F5F5F5F5F5F5F5F5F5F5F5F5F5F5F5F5F5F5F5F5F5F5F5F5F5E2F5F5F5F5F5F5F5F5F5F5F5F5F5F5F5ECF5F5F5F5F5F5F5F5F5F5F5DCF5F5F5F5F5F5F5F5F5F5ECF5F5F5F5F5F5
310
F5F5F5F5F5F5F5F5F5E2E2F5F5F5F5F5F5F5F5F5F5F5F5F5F5F5F5F5F5F5F5F5E2E2F5F5F5F5E2F5F5F5F5F5F5F5F5F5F5F5F5F5F5F5F5E2F5F5F5F5F5F5F5F5F5F5F5F5F5F5F5F5F5F5F5F5F5F5F5F5F5F5F5F5F5F5F5F5F5F5F5F5F5F5F5F5F5F5F5F5F5F5F5F5F5F5F5F5F5F5F5F5F5F5F5F5F5F5F5F5F5F5F5F5F5F5F5
310
F5F5F5F5F5F5F5E2F5F5F5F5F5F5F5F5F5F5F5F5F5F5F5ECECECECECECECECECECECECECECECECECECECECECECECECF5F5F5F5F5F5F5F5F5F5F5F5F5F5F5E2E2F5F5F5F5F5F5F5F5F5F5F5F5F5F5F5F5E2F5F5F5F5E2E2F5F5F5F5E2F5F5F5F5F5F5F5F5F5F5F5F5F5F5F5F5E2F5F5F5F5F5F5F5F5F5F5F5F5F5F5F5F5F5F5
310
F5F5F5F5F5F5F5F5F5F5F5F5F5F5F5F5F5F5F5F5F5F5F5F5F5F5F5F5F5F5F5F5F5F5F5F5F5F5F5F5F5F5F5F5F5F5F5F5F5F5F5F5F5F5F5F5F5F5F5F5F5E2F5F5F5F5F5F5F5F5F5F5F5F5F5F5F5F5F5F5F5ECF5F5F5F5F5F5DCF5F5F5F5F5ECF5F5F5F5F5F5F5F5F5F5F5F5F5F5F5F5F5F5F5F5E2E2F5F5F5F5F5F5F5F5F5F5
310
F5F5F5F5F5F5E2F5F5F5F5E2E2F5F5F5F5E2F5F5F5F5F5F5F5F5F5F5F5F5F5F5F5F5E2F5F5F5F5F5F5F5F5F5F5F5F5F5F5F5F5F5F5F5F5F5F5F5F5F5F5F5F5F5F5F5F5F5F5F5F5F5F5F5F5F5F5F5F5F5F5F5F5F5F5F5F5F5F5F5F5F5F5F5F5F5F5F5F5F5F5F5F5F5F5F5F5F5F5F5F5F5F5F5F5E2F5F5F5F5F5F5F5F5F5F5F5
310
F5F5F5F5F5ECECECECECECF5ECECECECECF5ECECECECECF5F5F5F5F5F5F5F5F5F5F5F5F5F5F5F5F5E2F5E2F5F5F5F5F5F5F5F5F5F5F5F5F5F5F5F5E2F5F5F5F5E2E2F5F5F5F5E2F5F5F5F5F5F5F5F5F5F5F5F5F5F5F5F5E2F5F5F5F5F5F5F5F5F5F5F5F5F5F5F5F5F5F5F5F5F5F5F5F5F5F5F5F5F5F5F5F5F5F5F5F5F5F5F5
310
F5F5F5F5F5F5F5F5F5F5F5F5F5F5F5F5F5F5F5F5F5F5F5F5F5F5F5F5F5F5F5F5F5F5F5F5F5F5F5F5F5F5E2E2F5F5F5F5F5F5F5F5F5F5F5F5F5F5ECF5F5F5F5F5F5F5F5DCF5F5F5F5F5F5F5ECF5F5F5F5F5F5F5F5F5F5F5F5F5F5F5E2E2F5F5E2F5F5F5F5F5F5F5F5F5F5F5F5F5F5F5F5E2F5F5F5F5E2E2F5F5F5F5E2F5F5F5
310
F5F5F5F5F5F5F5F5F5F5F5F5F5E2F5F5F5F5F5F5F5F5F5F5F5F5F5F5F5F5F5F5F5F5F5F5F5F5F5F5F5F5F5F5F5F5F5F5F5F5F5F5F5F5F5F5F5F5F5F5F5F5F5F5F5F5F5F5F5F5F5F5F5F5F5F5F5F5F5F5F5F5F5F5F5F5F5F5F5F5F5F5F5F5F5F5F5E2F5F5F5F5F5F5F5F5F5F5F5F5F5ECF5F5F5F5F5F5F5F5DCF5F5F5F5F5F5
310
F5ECF5F5F5F5F5F5F5F5F5F5F5F5F5E2E2F5F5F5F5E2F5F5F5F5F5F5F5F5F5F5F5F5F5F5F5F5E2F5F5F5F5E2E2F5F5F5F5E2F5F5F5F5F5F5F5F5F5F5F5F5F5F5F5F5E2F5F5F5F5F5F5F5F5F5F5F5F5F5F5F5F5F5F5F5F5F5F5F5F5F5F5F5F5F5F5F5F5F5F5F5F5F5F5F5F5F5F5F5F5F5F5F5F5F5F5F5F5F5F5F5F5F5F5F5F5
310
F5F5F5F5F5F5F5F5F5F5F5F5F5F5F5F5F5F5F5F5F5F5F5F5E2E2F5F5F5F5F5F5F5F5F5F5F5ECF5F5F5F5F5F5F5F5DCF5F5F5F5F5F5F5ECF5F5F5F5F5F5F5F5F5F5F5F5E2F5F5F5F5F5F5E2F5F5F5F5F5F5F5F5F5F5F5F5F5F5F5F5E2F5F5F5F5E2E2F5F5F5F5E2F5F5F5F5F5F5F5F5F5F5F5F5F5F5F5F5E2F5F5F5F5F5F5F5
310
F5F5F5F5F5F5F5F5F5F5F5F5F5F5F5F5F5F5F5F5F5F5F5F5F5F5F5F5F5F5F5F5F5F5F5F5F5F5F5F5F5F5F5F5F5F5F5F5F5F5F5F5F5F5F5F5F5F5F5F5F5F5F5F5F5F5F5F5F5F5F5F5F5F5F5F5F5F5F5E2F5F5F5F5F5F5F5F5F5F5ECF5F5F5F5F5F5F5F5DCF5F5F5F5F5F5F5ECF5F5F5F5F5F5F5F5F5F5E2E2F5F5F5F5F5F5F5
310
E2F5F5F5F5F5F5F5F5F5F5F5F5F5F5F5F5E2F5F5F5F5E2E2F5F5F5F5E2F5F5F5F5F5F5F5F5F5F5F5F5F5F5F5F5E2F5F5F5F5F5F5F5F5F5F5F5F5F5F5F5F5F5F5F5F5F5F5F5F5F5F5F5F5F5F5F5F5F5F5F5F5F5F5F5F5F5F5F5F5F5F5F5F5F5F5F5F5F5F5F5F5F5F5F5F5F5F5F5F5F5F5F5F5F5F5F5F5F5F5F5F5F5F5F5F5F5
310
F5F5F5F5F5F5E2E2F5F5F5F5F5F5F5F5F5ECECECECECF5ECECECECECF5ECECECECECF5F5F5F5F5F5F5F5E2E2F5F5F5F5F5F5F5F5F5E2F5F5F5F5F5F5F5F5F5F5F5F5F5F5F5F5E2F5F5F5F5E2E2F5F5F5F5E2F5F5F5F5F5F5F5F5F5F5F5F5F5F5F5F5E2F5F5F5F5F5F5F5F5F5F5F5F5F5F5F5F5F5F5F5F5F5F5F5F5F5F5F5F5
310
F5F5F5F5F5F5F5F5F5F5F5F5F5F5F5F5F5F5F5F5F5F5F5F5F5F5F5F5F5F5F5F5F5F5F5F5F5F5F5F5F5F5F5F5F5F5F5F5F5F5F5F5F5F5F5F5F5F5F5F5F5E2E2F5F5F5F5F5F5F5ECF5F5F5F5F5F5F5DCF5F5F5F5F5F5F5ECF5F5F5F5F5F5F5E2F5F5F5F5F5F5F5F5F5F5F5E2F5F5F5F5F5F5F5F5F5F5F5F5F5F5F5F5E2F5F5F5
310
F5E2E2F5F5F5F5E2F5F5F5F5F5F5F5F5F5F5F5F5F5F5F5F5E2F5F5F5F5F5F5F5F5F5F5F5F5F5F5F5F5F5F5F5F5F5F5F5F5F5F5F5F5F5F5F5F5F5F5F5F5F5F5F5F5F5F5F5F5F5F5F5F5F5F5F5F5F5F5F5F5F5F5F5F5F5F5F5F5F5F5F5F5F5F5F5F5F5F5F5F5F5F5F5F5F5F5F5F5F5F5F5F5F5F5E2F5F5F5F5F5F5F5ECF5F5F5
310
F5F5F5F5DCF5F5F5F5F5F5F5ECF5F5F5F5F5F5F5E2F5F5F5F5F5F5F5F5F5F5F5E2F5F5F5F5F5F5F5F5F5F5F5F5F5F5F5F5E2F5F5F5F5E2E2F5F5F5F5E2F5F5F5F5F5F5F5F5F5F5F5F5F5F5F5F5E2F5F5F5F5F5F5F5F5F5F5F5F5F5F5F5F5F5F5F5F5F5F5F5F5F5F5F5F5F5F5F5F5F5F5F5F5F5F5F5F5F5F5F5F5F5F5F5F5F5
310
F5F5F5F5F5F5F5F5F5F5F5F5F5F5F5F5F5F5F5F5F5F5F5F5F5F5F5F5F5F5F5F5F5F5F5F5F5F5F5F5F5E2F5F5F5F5F5F5F5ECF5F5F5F5F5F5F5DCF5F5F5F5F5F5F5ECF5F5F5F5F5F5F5E2F5F5F5F5F5F5F5F5F5F5F5E2F5F5F5F5F5F5F5F5F5F5F5F5F5F5F5F5E2F5F5F5F5E2E2F5F5F5F5E2F5F5F5F5F5F5F5F5F5F5F5F5F5
310
F5F5F5E2F5F5F5F5F5F5F5F5F5F5F5F5F5F5F5F5F5F5F5F5F5F5F5F5F5F5F5F5F5F5F5F5F5F5F5F5F5F5F5F5F5F5F5F5F5F5F5F5F5F5F5F5F5F5F5F5F5F5F5F5F5F5F5F5F5F5F5F5F5F5F5F5F5F5F5F5F5F5F5F5F5F5F5F5F5F5F5F5F5F5E2F5F5F5F5F5F5F5ECF5F5F5F5E2E2E2E2E2E2E2F5F5F5F5ECF5F5F5F5F5F5F5E2
310
F5F5F5F5F5F5F5F5F5F5F5E2F5F5F5F5F5F5F5F5F5F5F5F5F5F5F5F5E2F5F5F5F5E2E2F5F5F5F5E2F5F5F5F5F5F5F5F5F5F5F5F5F5F5F5F5E2F5F5F5F5F5F5F5F5F5F5F5F5F5F5F5F5F5F5F5F5F5F5F5F5F5F5F5F5F5F5F5F5F5F5F5F5F5F5F5F5F5F5F5F5F5F5F5F5F5F5F5F5F5F5F5F5F5F5F5F5F5F5F5F5F5F5F5F5F5F5
310
F5F5F5F5F5F5F5F5F5F5F5F5F5F5F5F5F5F5F5F5E2F5F5F5F5F5F5F5ECECECECECECF5F5DCF5F5ECECECECECECF5F5F5F5F5F5F5E2F5F5F5F5F5F5F5F5F5F5F5E2F5F5F5F5F5F5F5F5F5F5F5F5F5F5F5F5E2F5F5F5F5E2E2F5F5F5F5E2F5F5F5F5F5F5F5F5F5F5F5F5F5F5F5F5E2F5F5F5F5F5F5F5F5F5F5F5F5F5F5F5F5F5
310
F5F5F5F5F5F5F5F5F5F5F5F5F5F5F5F5F5F5F5F5F5F5F5F5F5F5F5F5F5F5F5F5F5F5F5F5F5F5F5F5F5F5F5F5F5F5F5F5F5F5F5F5F5F5F5F5F5F5F5F5F5F5F5F5F5F5F5F5F5F5F5F5F5E2F5F5F5F5F5F5F5ECF5F5F5F5E2F5F5DCF5F5E2F5F5F5F5ECF5F5F5F5F5F5F5E2F5F5F5F5F5F5F5F5F5F5F5E2F5F5F5F5F5F5F5F5F5
310
F5F5F5F5F5F5F5E2F5F5F5F5E2E2F5F5F5F5E2F5F5F5F5F5F5F5F5F5F5F5F5F5F5F5F5E2F5F5F5F5F5F5F5F5F5F5F5F5F5F5F5F5F5F5F5F5F5F5F5F5F5F5F5F5F5F5F5F5F5F5F5F5F5F5F5F5F5F5F5F5F5F5F5F5F5F5F5F5F5F5F5F5F5F5F5F5F5F5F5F5F5F5F5F5F5F5F5F5F5F5F5F5F5F5F5F5F5F5F5F5F5F5F5F5F5F5E2
310
E2E2E2E2E2E2E2E2E2E2E2E2ECF5F5DCF5F5E2E2E2E2E2E2E2E2E2E2E2E2E2E2F5F5F5F5F5F5F5F5F5F5F5E2F5F5F5F5F5F5F5F5F5F5F5F5F5F5F5F5E2F5F5F5F5E2E2F5F5F5F5E2F5F5F5F5F5F5F5F5F5F5F5F5F5F5F5F5E2F5F5F5F5F5F5F5F5F5F5F5F5F5F5F5F5F5F5F5F5F5F5F5F5F5F5F5F5F5F5F5F5F5F5F5F5F5F5
310
F5F5F5F5F5F5F5F5F5F5F5F5F5F5F5F5F5F5F5F5F5F5F5F5F5F5F5F5F5F5F5F5F5F5F5F5F5F5F5F5F5F5F5F5F5F5F5F5F5F5F5F5F5F5F5F5F5F5F5F5F5F5F5F5F5F5F5F5DCF5F5F5F5F5F5F5F5F5F5F5F5F5F5F5F5F5F5F5F5F5F5F5F5F5F5F5E2F5F5F5F5F5F5F5F5F5F5F5F5F5F5F5F5E2F5F5F5F5E2E2F5F5F5F5F5F5F5
310
F5F5F5F5F5F5F5F5F5F5F5F5F5F5E2F5F5F5F5F5F5F5F5F5F5F5F5F5F5F5F5F5F5F5F5F5F5F5F5F5F5F5F5F5F5F5F5F5F5F5F5F5F5F5F5F5F5F5F5F5F5F5F5F5F5F5F5F5F5F5F5F5F5F5F5F5F5F5F5F5F5F5F5F5F5F5F5F5F5F5F5F5F5F5F5F5F5F5F5F5F5F5F5F5F5F5F5F5F5F5F5F5F5F5F5F5F5F5F5F5F5F5F5F5F5F5F5
310
F5F5F5F5F5F5F5F5F5F5F5F5F5F5F5F5F5F5F5F5F5F5E2F5F5F5F5F5F5F5F5F5F5F5F5F5F5F5F5F5F5F5F5F5E2E2F5F5F5F5F5F5F5F5F5F5F5F5F5F5F5F5F5F5F5F5F5E2F5F5F5F5F5F5F5F5F5F5F5F5F5F5F5F5F5F5F5F5F5F5F5F5F5F5F5F5F5F5F5F5F5F5F5F5F5F5F5F5F5F5F5F5F5F5F5F5F5F5F5F5F5F5F5F5F5F5F5
310
F5F5F5F5F5F5F5F5F5F5F5F5F5F5F5F5F5F5F5F5F5F5F5F5F5F5F5F5F5F5F5F5F5F5F5F5F5F5F5F5F5F5F5F5F5F5F5F5F5F5F5F5F5F5F5F5F5F5F5F5F5F5F5F5F5F5F5F5F5F5F5F5F5F5F5E2F5F5F5F5F5F5F5F5F5F5F5F5F5F5F5F5F5F5F5F5F5E2E2F5F5F5F5F5F5F5F5F5F5F5F5F5F5F5F5F5F5F5F5F5E2F5F5F5F5F5F5
310
F5F5F5F5F5F5F5F5F5F5F5F5F5F5F5F5F5F5F5F5F5F5F5F5F5F5F5F5F5F5F5F5F5F5F5F5F5F5F5F5F5F5F5F5F5F5F5F5F5F5F5F5F5F5F5F5F5F5F5F5F5F5F5F5F5F5F5F5F5F5F5F5F5F5F5F5F5F5F5F5F5F5F5F5F5F5F5F5F5F5F5F5F5F5F5F5F5F5F5F5F5F5F5F5F5F5F5F5F5F5F5F5F5F5F5F5F5F5F5F5F5F5F5F5F5F5F5
310
F5E2F5F5F5F5F5F5F5F5F5F5F5F5F5F5F5F5F5F5F5F5F5E2E2F5F5F5F5F5F5F5F5F5F5F5F5F5F5F5F5F5F5F5F5F5E2F5F5F5F5F5F5F5F5F5F5F5F5F5F5F5F5F5F5F5F5F5F5F5F5F5F5F5F5F5F5F5F5F5F5F5F5F5F5F5F5F5F5F5F5F5F5F5F5F5F5F5F5F5F5F5F5F5F5F5F5F5F5F5F5F5F5F5F5F5F5F5F5F5F5F5F5F5F5F5F5
310
F5F5F5F5F5F5F5F5F5F5F5F5F5F5F5F5F5F5F5F5F5F5F5F5F5F5F5F5F5F5F5F5F5F5F5F5F5F5F5F5F5F5F5F5F5F5F5F5F5F5F5F5F5F5E2F5F5F5F5F5F5F5F5F5F5F5F5F5F5F5F5F5F5F5F5F5E2E2F5F5F5F5F5F5F5F5F5F5F5F5F5F5F5F5F5F5F5F5F5E2F5F5F5F5F5F5F5F5F5F5F5F5F5F5F5F5F5F5F5F5F5F5F5F5F5F5F5
310
F5F5F5F5F5F5F5F5F5F5F5F5F5F5F5F5F5F5F5F5F5F5F5F5F5F5F5F5F5F5F5F5F5F5F5F5F5F5F5F5F5F5F5F5F5F5F5F5F5F5F5F5F5F5F5F5F5F5F5F5F5F5F5F5F5F5F5F5F5F5F5F5F5F5F5F5F5F5F5F5F5F5F5F5F5F5F5F5F5F5F5F5F5F5F5F5F5F5F5F5F5F5F5F5F5F5F5E2F5F5F5F5F5F5F5F5F5F5F5F5F5F5F5F5F5F5F5
310
F5F5E2E2F5F5F5F5F5F5F5F5F5F5F5F5F5F5F5F5F5F5F5F5F5E2F5F5F5F5F5F5F5F5F5F5F5F5F5F5F5F5F5F5F5F5F5F5F5F5F5F5F5F5F5F5F5F5F5F5F5F5F5F5F5F5F5F5F5F5F5F5F5F5F5F5F5F5F5F5F5F5F5F5F5F5F5F5F5F5F5F5F5F5F5F5F5F5F5F5F5F5F5F5F5F5F5F5F5F5F5F5F5F5F5F5F5F5F5F5F5F5F5F5F5F5F5
310
F5F5F5F5F5F5F5F5F5F5F5F5F5F5F5F5F5F5F5F5F5F5F5F5F5F5F5F5F5F5F5F5F5E2F5F5F5F5F5F5F5F5F5F5F5F5F5F5F5F5F5F5F5F5F5E2E2F5F5F5F5F5F5F5F5F5F5F5F5F5F5F5F5F5F5F5F5F5E2F5F5F5F5F5F5F5F5F5F5F5F5F5F5F5F5F5F5F5F5F5F5F5F5F5F5F5F5F5F5F5F5F5F5F5F5F5F5F5F5F5F5F5F5F5F5F5F5
310
F5F5F5F5F5F5F5F5F5F5F5F5F5F5F5F5F5F5F5F5F5F5F5F5F5F5F5F5F5F5F5F5F5F5F5F5F5F5F5F5F5F5F5F5F5F5F5F5F5F5F5F5F5F5F5F5F5F5F5F5F5F5F5F5F5F5F5F5F5F5F5F5F5F5F5F5F5F5F5F5F5F5F5F5F5F5E2F5F5F5F5F5F5F5F5F5F5F5F5F5F5F5F5F5F5F5F5F5E2E2F5F5F5F5F5F5F5F5F5F5F5F5F5F5F5F5F5
310
F5F5F5F5E2F5F5F5F5F5F5F5F5F5F5F5F5F5F5F5F5F5F5F5F5F5F5F5F5F5F5F5F5F5F5F5F5F5F5F5F5F5F5F5F5F5F5F5F5F5F5F5F5F5F5F5F5F5F5F5F5F5F5F5F5F5F5F5F5F5F5F5F5F5F5F5F5F5F5F5F5F5F5F5F5F5F5F5F5F5F5F5F5F5F5F5F5F5F5F5F5F5F5F5F5F5F5F5F5F5F5F5F5F5F5F5F5F5F5F5F5F5F5F5F5F5F5
310
F5F5F5F5F5F5F5F5F5F5F5F5E2F5F5F5F5F5F5F5F5F5F5F5F5F5F5F5F5F5F5F5F5F5E2E2F5F5F5F5F5F5F5F5F5F5F5F5F5F5F5F5F5F5F5F5F5E2F5F5F5F5F5F5F5F5F5F5F5F5F5F5F5F5F5F5F5F5F5F5F5F5F5F5F5F5F5F5F5F5F5F5F5F5F5F5F5F5F5F5F5F5F5F5F5F5F5F5F5F5F5F5F5F5F5F5F5F5F5F5F5F5F5F5F5F5F5
310
F5F5F5F5F5F5F5F5F5F5F5F5F5F5F5F5F5F5F5F5F5F5F5F5F5F5F5F5F5F5F5F5F5F5F5F5F5F5F5F5F5F5F5F5F5F5F5F5F5F5F5F5F5F5F5F5F5F5F5F5F5F5F5F5F5E2F5F5F5F5F5F5F5F5F5F5F5F5F5F5F5F5F5F5F5F5F5E2E2F5F5F5F5F5F5F5F5F5F5F5F5F5F5F5F5F5F5F5F5F5E2F5F5F5F5F5F5F5F5F5F5F5F5F5F5F5F5
310
F5F5F5F5F5F5F5F5F5F5F5F5F5F5F5F5F5F5F5F5F5F5F5F5F5F5F5F5F5F5F5F5F5F5F5F5F5F5F5F5F5F5F5F5F5F5F5F5F5F5F5F5F5F5F5F5F5F5F5F5F5F5F5F5F5F5F5F5F5F5F5F5F5F5F5F5F5F5F5F5F5F5F5F5F5F5F5F5F5F5F5F5F5F5F5F5F5F5F5F5F5F5F5F5F5F5F5F5F5F5F5F5F5F5F5F5F5F5E2F5F5F5F5F5F5F5F5
310
F5F5F5F5F5F5F5F5F5F5F5F5F5E2E2F5F5F5F5E2F5F5F5F5F5F5F5F5F5F5F5F5F5F5F5F5E2F5F5F5F5F5F5F5F5F5F5F5F5F5F5F5F5F5F5F5F5F5F5F5F5F5F5F5F5F5F5F5F5F5F5F5F5F5F5F5F5F5F5F5F5F5F5F5F5F5F5F5F5F5F5F5F5F5F5F5F5F5F5F5F5F5F5F5F5F5F5F5F5F5F5F5F5F5F5F5F5F5F5F5F5F5F5F5F5F5F5
310
F5F5F5F5F5F5F5F5F5F5F5F5F5F5F5F5F5F5F5F5F5F5F5F5F5F5F5F5F5F5F5F5F5F5F5F5F5F5F5F5F5F5F5F5E2F5F5F5F5F5F5F5F5F5F5F5F5F5F5F5F5E2F5F5F5F5E2E2F5F5F5F5E2F5F5F5F5F5F5F5F5F5F5F5F5F5F5F5F5E2F5F5F5F5F5F5F5F5F5F5F5F5F5F5F5F5F5F5F5F5F5F5F5F5F5F5F5F5F5F5F5F5F5F5F5F5F5
310
F5F5F5F5F5F5F5F5F5F5F5F5F5F5F5F5F5F5F5F5F5F5F5F5F5F5F5F5F5F5F5F5F5F5F5F5F5F5F5F5F5F5F5F5F5F5F5F5F5F5F5F5F5F5F5F5F5F5F5F5F5F5F5F5F5F5F5F5F5F5F5F5F5F5F5F5F5F5F5F5F5F5F5F5F5F5F5F5F5F5F5F5F5F5F5F5F5E2F5F5F5F5F5F5F5F5F5F5F5F5F5F5F5F5E2F5F5F5F5E2E2F5F5F5F5E2F5
310
F5F5F5F5F5F5F5F5F5F5F5F5F5F5F5E2F5F5F5F5F5F5F5F5F5F5F5F5F5F5F5F5F5F5F5F5F5F5F5F5F5F5F5F5F5F5F5F5F5F5F5F5F5F5F5F5F5F5F5F5F5F5F5F5F5F5F5F5F5F5F5F5F5F5F5F5F5F5F5F5F5F5F5F5F5F5F5F5F5F5F5F5F5F5F5F5F5F5F5F5F5F5F5F5F5F5F5F5F5F5F5F5F5F5F5F5F5F5F5F5F5F5F5F5F5F5F5
310
F5F5F5F5F5F5F5F5F5F5F5F5F5F5F5F5F5F5F5F5F5F5F5E2F5F5F5F5F5F5F5F5F5F5F5F5F5F5F5F5E2F5F5F5F5E2E2F5F5F5F5E2F5F5F5F5F5F5F5F5F5F5F5F5F5F5F5F5E2F5F5F5F5F5F5F5F5F5F5F5F5F5F5F5F5F5F5F5F5F5F5F5F5F5F5F5F5F5F5F5F5F5F5F5F5F5F5F5F5F5F5F5F5F5F5F5F5F5F5F5F5F5F5F5F5F5F5
310
F5F5F5F5F5F5F5F5F5F5F5F5F5F5F5F5F5F5F5F5F5F5F5F5F5F5F5F5F5F5F5F5F5F5F5F5F5F5F5F5F5F5F5F5F5F5F5F5F5F5F5F5F5F5F5F5F5F5F5F5F5F5F5F5F5F5F5F5F5F5F5F5F5F5F5F5E2F5F5F5F5F5F5F5F5F5F5F5F5F5F5F5F5E2F5F5F5F5E2E2F5F5F5F5E2F5F5F5F5F5F5F5F5F5F5F5F5F5F5F5F5E2F5F5F5F5F5
310
F5F5F5F5F5F5F5F5F5F5F5F5F5F5F5F5F5F5F5F5F5F5F5F5F5F5F5F5F5F5F5F5F5F5F5F5F5F5F5F5F5F5F5F5F5F5F5F5F5F5F5F5F5F5F5F5F5F5F5F5F5F5F5F5F5F5F5F5F5F5F5F5F5F5F5F5F5F5F5F5F5F5F5F5F5F5F5F5F5F5F5F5F5F5F5F5F5F5F5F5F5F5F5F5F5F5F5F5F5F5F5F5F5F5F5F5F5F5F5F5F5F5F5F5F5F5F5
310
F5F5E2F5F5F5F5F5F5F5F5F5F5F5F5F5F5F5F5E2F5F5F5F5E2E2F5F5F5F5E2F5F5F5F5F5F5F5F5F5F5F5F5F5F5F5F5E2F5F5F5F5F5F5F5F5F5F5F5F5F5F5F5F5F5F5F5F5F5F5F5F5F5F5F5F5F5F5F5F5F5F5F5F5F5F5F5F5F5F5F5F5F5F5F5F5F5F5F5F5F5F5F5F5F5F5F5F5F5F5F5F5F5F5F5F5F5F5F5F5F5F5F5F5F5F5F5
310
F5F5F5F5F5F5F5F5F5F5F5F5F5F5F5F5F5F5F5F5F5F5F5F5F5F5F5F5F5F5F5F5F5F5F5F5F5F5F5F5F5F5F5F5F5F5F5F5F5F5F5F5F5F5F5E2F5F5F5F5F5F5F5F5F5F5F5F5F5F5F5F5E2F5F5F5F5E2E2F5F5F5F5E2F5F5F5F5F5F5F5F5F5F5F5F5F5F5F5F5E2F5F5F5F5F5F5F5F5F5F5F5F5F5F5F5F5F5F5F5F5F5F5F5F5F5F5
310
F5F5F5F5F5F5F5F5F5F5F5F5F5F5F5F5F5F5F5F5F5F5F5F5F5F5F5F5F5F5F5F5F5F5F5F5F5F5F5F5F5F5F5F5F5F5F5F5F5F5F5F5F5F5F5F5F5F5F5F5F5F5F5F5F5F5F5F5F5F5F5F5F5F5F5F5F5F5F5F5F5F5F5F5F5F5F5F5F5F5F5F5F5F5F5F5F5F5F5F5F5F5F5F5F5F5F5F5E2F5F5F5F5F5F5F5F5F5F5F5F5F5F5F5F5E2F5
310
F5F5F5E2E2F5F5F5F5E2F5F5F5F5F5F5F5F5F5F5F5F5F5F5F5F5E2F5F5F5F5F5F5F5F5F5F5F5F5F5F5F5F5F5F5F5F5F5F5F5F5F5F5F5F5F5F5F5F5F5F5F5F5F5F5F5F5F5F5F5F5F5F5F5F5F5F5F5F5F5F5F5F5F5F5F5F5F5F5F5F5F5F5F5F5F5F5F5F5F5F5F5F5F5F5F5F5F5F5F5F5F5F5F5F5F5F5F5F5F5F5F5F5F5F5F5F5
310
F5F5F5F5F5F5F5F5F5F5F5F5F5F5F5F5F5F5F5F5F5F5F5F5F5F5F5F5F5F5F5F5F5F5E2F5F5F5F5F5F5F5F5F5F5F5F5F5F5F5F5E2F5F5F5F5E2E2F5F5F5F5E2F5F5F5F5F5F5F5F5F5F5F5F5F5F5F5F5E2F5F5F5F5F5F5F5F5F5F5F5F5F5F5F5F5F5F5F5F5F5F5F5F5F5F5F5F5F5F5F5F5F5F5F5F5F5F5F5F5F5F5F5F5F5F5F5
310
F5F5F5F5F5F5F5F5F5F5F5F5F5F5F5F5F5F5F5F5F5F5F5F5F5F5F5F5F5F5F5F5F5F5F5F5F5F5F5F5F5F5F5F5F5F5F5F5F5F5F5F5F5F5F5F5F5F5F5F5F5F5F5F5F5F5F5F5F5F5F5F5F5F5F5F5F5F5F5F5F5F5F5F5F5F5F5E2F5F5F5F5F5F5F5F5F5F5F5F5F5F5F5F5E2F5F5F5F5E2E2F5F5F5F5E2F5F5F5F5F5F5F5F5F5F5F5
310
F5F5F5F5F5E2F5F5F5F5F5F5F5F5F5F5F5F5F5F5F5F5F5F5F5F5F5F5F5F5F5F5F5F5F5F5F5F5F5F5F5F5F5F5F5F5F5F5F5F5F5F5F5F5F5F5F5F5F5F5F5F5F5F5F5F5F5F5F5F5F5F5F5F5F5F5F5F5F5F5F5F5F5F5F5F5F5F5F5F5F5F5F5F5F5F5F5F5F5F5F5F5F5F5F5F5F5F5F5F5F5F5F5F5F5F5F5F5F5F5F5F5F5F5F5F5F5
310
F5F5F5F5F5F5F5F5F5F5F5F5F5E2F5F5F5F5F5F5F5F5F5F5F5F5F5F5F5F5E2F5F5F5F5E2E2F5F5F5F5E2F5F5F5F5F5F5F5F5F5F5F5F5F5F5F5F5E2F5F5F5F5F5F5F5F5F5F5F5F5F5F5F5F5F5F5F5F5F5F5F5F5F5F5F5F5F5F5F5F5F5F5F5F5F5F5F5F5F5F5F5F5F5F5F5F5F5F5F5F5F5F5F5F5F5F5F5F5F5F5F5F5F5F5F5F5
310
F5F5F5F5F5F5F5F5F5F5F5F5F5F5F5F5F5F5F5F5F5F5F5F5F5F5F5F5F5F5F5F5F5F5F5F5F5F5F5F5F5F5F5F5F5F5F5F5F5F5F5F5F5F5F5F5F5F5F5F5F5F5F5F5F5F5E2F5F5F5F5F5F5F5F5F5F5F5F5F5F5F5F5E2F5F5F5F5E2E2F5F5F5F5E2F5F5F5F5F5F5F5F5F5F5F5F5F5F5F5F5E2F5F5F5F5F5F5F5F5F5F5F5F5F5F5F5
310
F5F5F5F5F5F5F5F5F5F5F5F5F5F5F5F5F5F5F5F5F5F5F5F5F5F5F5F5F5F5F5F5F5F5F5F5F5F5F5F5F5F5F5F5F5F5F5F5F5F5F5F5F5F5F5F5F5F5F5F5F5F5F5F5F5F5F5F5F5F5F5F5F5F5F5F5F5F5F5F5F5F5F5F5F5F5F5F5F5F5F5F5F5F5F5F5F5F5F5F5F5F5F5F5F5F5F5F5F5F5F5F5F5F5F5F5F5F5F5E2F5F5F5F5F5F5F5
310
F5F5F5F5F5F5F5F5F5E2F5F5F5F5E2E2F5F5F5F5E2F5F5F5F5F5F5F5F5F5F5F5F5F5F5F5F5E2F5F5F5F5F5F5F5F5F5F5F5F5F5F5F5F5F5F5F5F5F5F5F5F5F5F5F5F5F5F5F5F5F5F5F5F5F5F5F5F5F5F5F5F5F5F5F5F5F5F5F5F5F5F5F5F5F5F5F5F5F5F5F5F5F5F5F5F5F5F5F5F5F5F5F5F5F5F5F5F5F5F5F5F5F5F5F5F5F5
310
F5F5F5F5F5F5F5F5F5F5F5F5F5F5F5F5F5F5F5F5F5F5F5F5F5F5F5F5F5F5F5F5F5F5F5F5F5F5F5F5F5F5F5F5F5E2F5F5F5F5F5F5F5F5F5F5F5F5F5F5F5F5E2F5F5F5F5E2E2F5F5F5F5E2F5F5F5F5F5F5F5F5F5F5F5F5F5F5F5F5E2F5F5F5F5F5F5F5F5F5F5F5F5F5F5F5F5F5F5F5F5F5F5F5F5F5F5F5F5F5F5F5F5F5F5F5F5
310
F5F5F5F5F5F5F5F5F5F5F5F5F5F5F5F5F5F5F5F5F5F5F5F5F5F5F5F5F5F5F5F5F5F5F5F5F5F5F5F5F5F5F5F5F5F5F5F5F5F5F5F5F5F5F5F5F5F5F5F5F5F5F5F5F5F5F5F5F5F5F5F5F5F5F5F5F5F5F5F5F5F5F5F5F5F5F5F5F5F5F5F5F5F5F5F5F5F5E2F5F5F5F5F5F5F5F5F5F5F5F5F5F5F5F5E2F5F5F5F5E2E2F5F5F5F5E2
310
F5F5F5F5F5F5F5F5F5F5F5F5F5F5F5F5E2F5F5F5F5F5F5F5F5F5F5F5F5F5F5F5F5F5F5F5F5F5F5F5F5F5F5F5F5F5F5F5F5F5F5F5F5F5F5F5F5F5F5F5F5F5F5F5F5F5F5F5F5F5F5F5F5F5F5F5F5F5F5F5F5F5F5F5F5F5F5F5F5F5F5F5F5F5F5F5F5F5F5F5F5F5F5F5F5F5F5F5F5F5F5F5F5F5F5F5F5F5F5F5F5F5F5F5F5F5F5
310
F5F5F5F5F5F5F5F5F5F5F5F5F5F5F5F5F5F5F5F5F5F5F5F5E2F5F5F5F5F5F5F5F5F5F5F5F5F5F5F5F5E2F5F5F5F5E2E2F5F5F5F5E2F5F5F5F5F5F5F5F5F5F5F5F5F5F5F5F5E2F5F5F5F5F5F5F5F5F5F5F5F5F5F5F5F5F5F5F5F5F5F5F5F5F5F5F5F5F5F5F5F5F5F5F5F5F5F5F5F5F5F5F5F5F5F5F5F5F5F5F5F5F5F5F5F5F5
310
F5F5F5F5F5F5F5F5F5F5F5F5F5F5F5F5F5F5F5F5F5F5F5F5F5F5F5F5F5F5F5F5F5F5F5F5F5F5F5F5F5F5F5F5F5F5F5F5F5F5F5F5F5F5F5F5F5F5F5F5F5F5F5F5F5F5F5F5F5F5F5F5F5F5F5F5F5E2F5F5F5F5F5F5F5F5F5F5F5F5F5F5F5F5E2F5F5F5F5E2E2F5F5F5F5F5F5F5F5F5F5F5F5F5F5F5F5F5F5F5F5F5E2F5F5F5F5
310
F5F5F5F5F5F5F5F5F5F5F5F5F5F5F5F5F5F5F5F5F5F5F5F5F5F5F5F5F5F5F5F5F5F5F5F5F5F5F5F5F5F5F5F5F5F5F5F5F5F5F5F5F5F5F5F5F5F5F5F5F5F5F5F5F5F5F5F5F5F5F5F5F5F5F5F5F5F5F5F5F5F5F5F5F5F5F5F5F5F5F5F5F5F5F5F5F5F5F5F5F5F5F5F5F5F5F5F5F5F5F5F5F5F5F5F5F5F5F5F5F5F5F5F5F5F5F5
310
F5F5F5E2F5F5F5F5F5F5F5F5F5F5F5F5F5F5F5F5F5F5F5F5F5E2E2F5F5F5F5F5F5F5F5F5F5F5F5F5F5F5F5F5F5F5F5F5E2F5F5F5F5F5F5F5F5F5F5F5F5F5F5F5F5F5F5F5F5F5F5F5F5F5F5F5F5F5F5F5F5F5F5F5F5F5F5F5F5F5F5F5F5F5F5F5F5F5F5F5F5F5F5F5F5F5F5F5F5F5F5F5F5F5F5F5F5F5F5F5F5F5F5F5F5F5F5
310
F5F5F5F5F5F5F5F5F5F5F5F5F5F5F5F5F5F5F5F5F5F5F5F5F5F5F5F5F5F5F5F5F5F5F5F5F5F5F5F5F5F5F5F5F5F5F5F5F5F5F5F5F5F5F5F5E2F5F5F5F5F5F5F5F5F5F5F5F5F5F5F5F5F5F5F5F5F5E2E2F5F5F5F5F5F5F5F5F5F5F5F5F5F5F5F5F5F5F5F5F5E2F5F5F5F5F5F5F5F5F5F5F5F5F5F5F5F5F5F5F5F5F5F5F5F5F5
310
F5F5F5F5F5F5F5F5F5F5F5F5F5F5F5F5F5F5F5F5F5F5F5F5F5F5F5F5F5F5F5F5F5F5F5F5F5F5F5F5F5F5F5F5F5F5F5F5F5F5F5F5F5F5F5F5F5F5F5F5F5F5F5F5F5F5F5F5F5F5F5F5F5F5F5F5F5F5F5F5F5F5F5F5F5F5F5F5F5F5F5F5F5F5F5F5F5F5F5F5F5F5F5F5F5F5F5F5F5E2F5F5F5F5F5F5F5F5F5F5F5F5F5F5F5F5F5
310
F5F5F5F5E2E2F5F5F5F5F5F5F5F5F5F5F5F5F5F5F5F5F5F5F5F5F5E2F5F5F5F5F5F5F5F5F5F5F5F5F5F5F5F5F5F5F5F5F5F5F5F5F5F5F5F5F5F5F5F5F5F5F5F5F5F5F5F5F5F5F5F5F5F5F5F5F5F5F5F5F5F5F5F5F5F5F5F5F5F5F5F5F5F5F5F5F5F5F5F5F5F5F5F5F5F5F5F5F5F5F5F5F5F5F5F5F5F5F5F5F5F5F5F5F5F5F5
310
F5F5F5F5F5F5F5F5F5F5F5F5F5F5F5F5F5F5F5F5F5F5F5F5F5F5F5F5F5F5F5F5F5F5F5E2F5F5F5F5F5F5F5F5F5F5F5F5F5F5F5F5F5F5F5F5F5E2E2F5F5F5F5F5F5F5F5F5F5F5F5F5F5F5F5F5F5F5F5F5E2E2E2E2E2E2E2E2E2E2E2E2E2E2E2E2E2E2E2E2E2E2E2E2E2E2E2E2E2E2E2E2E2E2E2E2E2E2E2E2E2E2E2E2E2E2E2
310
E2E2E2E2E2E2E2E2E2E2E2E2E2E2E2E2E2E2E2E2E2E2E2E2E2E2E2E2E2E2E2E2E2E2E2E2E2E2E2E2E2E2E2E2E2E2E2E2E2E2E2E2E2E2E2E2E2E2E2E2E2E2E2E2E2E2E2E2E2E2E2E2E2E2E2E2E2E2E2E2E2E2E2E2E2E2E2E2E2F5F5F5F5F5F5F5F5F5F5F5F5F5F5F5F5F5F5F5F5F5E2E2F5F5F5F5F5F5F5F5F5F5F5F5F5F5F5
310
F5F5F5F5F5F5F5F5F5F5F5F5F5F5F5F5F5F5F5F5F5F5F5F5F5F5F5F5F5F5F5F5F5F5F5F5F5F5F5F5F5F5F5F5F5F5F5F5F5F5F5F5F5F5F5F5F5F5F5F5F5F5F5F5F5F5F5F5F5F5F5F5F5F5F5F5F5F5F5F5F5F5F5F5F5F5F5F5F5F5F5F5F5F5F5F5F5F5F5F5F5F5F5F5F5F5F5F5F5F5F5F5F5F5F5F5F5F5F5F5F5F5F5F5F5F5F5
310
F5F5F5F5F5F5F5F5F5F5F5F5F5F5F5F5F5F5F5F5F5F5F5F5F5F5F5F5F5F5F5F5F5F5F5F5E2E2F5F5F5F5F5F5F5F5F5F5F5F5F5F5F5F5F5F5F5F5F5F5F5F5F5F5F5F5F5F5F5F5F5F5F5F5F5F5F5F5F5F5F5F5F5F5F5F5F5F5F5F5F5F5F5F5F5F5F5F5F5F5F5F5F5F5F5F5F5F5F5F5F5F5F5F5F5F5F5F5F5F5F5F5F5F5F5F5F5
310
F5F5F5F5F5F5F5F5F5F5F5F5F5F5F5F5F5F5F5F5F5F5F5F5F5F5F5F5F5F5F5F5F5F5F5F5F5F5F5F5F5F5F5F5F5F5F5F5F5F5F5F5F5F5F5F5F5F5F5F5F5F5F5F5F5F5F5F5F5F5F5F5F5F5F5F5F5F5F5F5F5F5F5F5F5F5F5F5F5E2E2F5F5F5F5F5F5F5F5F5F5F5F5F5F5F5F5F5F5F5F5F5F5F5F5F5F5F5F5F5F5F5F5F5F5F5F5
310
F5F5F5F5F5F5F5F5F5F5F5F5F5F5F5F5F5F5F5F5F5F5F5F5F5F5F5F5F5F5F5F5F5F5F5F5F5F5F5F5F5F5F5F5F5F5F5F5F5F5F5F5F5F5F5F5F5F5F5F5F5F5F5F5F5F5F5F5F5F5F5F5F5F5F5F5F5F5F5F5F5F5F5F5F5F5F5F5F5F5F5F5F5F5F5F5F5F5F5F5F5F5F5F5F5F5F5F5F5F5F5F5F5F5F5F5F5F5F5F5F5F5F5F5F5F5F5
310
F5F5F5F5F5F5F5F5F5F5F5F5F5F5F5E2E2F5F5F5F5F5F5F5F5F5F5F5F5F5F5F5F5F5F5F5F5F5F5F5F5F5F5F5F5F5F5F5F5F5F5F5F5F5F5F5F5F5F5F5F5F5F5F5F5F5F5F5F5F5F5F5F5F5F5F5F5F5F5F5F5F5F5F5F5F5F5F5F5F5F5F5F5F5F5F5F5F5F5F5F5F5F5F5F5F5F5F5F5F5F5F5F5F5F5F5F5F5F5F5F5F5F5F5F5F5F5
310
F5F5F5F5F5F5F5F5F5F5F5F5F5F5F5F5F5F5F5F5F5F5F5F5F5F5F5F5F5F5F5F5F5F5F5F5F5F5F5F5F5F5F5F5F5F5F5F5F5F5F5F5F5F5F5F5F5F5F5F5F5F5F5F5F5F5F5F5E2E2F5F5F5F5E2F5F5F5F5F5F5F5F5F5F5F5F5F5F5F5F5F5F5F5F5F5F5F5F5F5F5F5F5F5F5F5F5F5F5F5F5F5F5F5F5F5F5F5F5F5F5F5F5F5F5F5F5
310
F5F5F5F5F5F5F5F5F5F5F5F5F5F5F5F5F5F5F5F5F5F5F5F5F5F5F5F5F5F5F5F5F5F5F5F5F5F5F5F5F5F5F5F5F5F5F5F5F5F5F5F5F5F5F5F5F5F5F5F5F5F5F5F5F5F5F5F5F5F5F5F5F5F5F5F5F5F5F5F5F5F5F5F5F5F5F5F5F5F5F5F5F5F5F5F5F5F5F5F5F5F5F5F5F5F5F5F5F5F5F5F5F5F5F5F5E2F5F5F5F5E2E2F5F5F5F5
310
E2F5F5F5F5F5F5F5F5F5F5F5F5F5F5F5F5F5F5F5F5F5F5F5F5F5F5F5F5F5F5F5F5F5F5F5F5F5F5F5F5F5F5F5F5F5F5F5F5F5F5F5F5F5F5F5F5F5F5F5F5F5F5F5F5F5F5F5F5F5F5F5F5F5F5F5F5F5F5F5F5F5F5F5F5F5F5F5F5F5F5F5F5F5F5F5F5F5F5F5F5F5F5F5F5F5F5F5F5F5F5F5F5F5F5F5F5F5F5F5F5F5F5F5F5F5F5
310
F5F5F5F5F5F5F5F5F5F5F5F5F5F5F5F5F5F5F5F5F5F5F5F5F5F5F5F5F5F5F5F5F5F5F5F5F5F5F5F5F5F5E2F5F5F5F5E2E2F5F5F5F5E2F5F5F5F5F5F5F5F5F5F5F5F5F5F5F5F5F5F5F5F5F5F5F5F5F5F5F5F5F5F5F5F5F5F5F5F5F5F5F5F5F5F5F5F5F5F5F5F5F5F5F5F5F5F5F5F5F5F5F5F5F5F5F5F5F5F5F5F5F5F5F5F5F5
310
F5F5F5F5F5F5F5F5F5F5F5F5F5F5F5F5F5F5F5F5F5F5F5F5F5F5F5F5F5F5F5F5F5F5F5F5F5F5F5F5F5F5F5F5F5F5F5F5F5F5F5F5F5F5F5F5F5F5F5F5F5F5F5F5F5F5F5F5F5F5F5F5F5F5F5F5F5F5F5F5F5F5F5F5F5F5F5F5F5F5F5F5F5F5F5E2F5F5F5F5E2E2F5F5F5F5E2F5F5F5F5F5F5F5F5F5F5F5F5F5F5F5F5F5F5F5F5
310
F5F5F5F5F5F5F5F5F5F5F5F5F5F5F5F5F5F5F5F5F5F5F5F5F5F5F5F5F5F5F5F5F5F5F5F5F5F5F5F5F5F5F5F5F5F5F5F5F5F5F5F5F5F5F5F5F5F5F5F5F5F5F5F5F5F5F5F5F5F5F5F5F5F5F5F5F5F5F5F5F5F5F5F5F5F5F5F5F5F5F5F5F5F5F5F5F5F5F5F5F5F5F5F5F5F5F5F5F5F5F5F5F5F5F5F5F5F5F5F5F5F5F5F5F5F5F5
310
F5F5F5F5F5F5F5F5F5F5F5F5F5F5F5F5F5F5F5F5F5E2F5F5F5F5E2E2F5F5F5F5E2F5F5F5F5F5F5F5F5F5F5F5F5F5F5F5F5F5F5F5F5F5F5F5F5F5F5F5F5F5F5F5F5F5F5F5F5F5F5F5F5F5F5F5F5F5F5F5F5F5F5F5F5F5F5F5F5F5F5F5F5F5F5F5F5F5F5F5F5F5F5F5F5F5F5F5F5F5F5F5F5F5F5F5F5F5F5F5F5F5F5F5F5F5F5
310
F5F5F5F5F5F5F5F5F5F5F5F5F5F5F5F5F5F5F5F5F5F5F5F5F5F5F5F5F5F5F5F5F5F5F5F5F5F5F5F5F5F5F5F5F5F5F5F5F5F5F5F5F5F5F5F5F5F5F5F5F5F5F5F5F5F5F5F5F5F5F5F5F5F5E2F5F5F5F5E2E2F5F5F5F5E2F5F5F5F5F5F5F5F5F5F5F5F5F5F5F5F5F5F5F5F5F5F5F5F5F5F5F5F5F5F5F5F5F5F5F5F5F5F5F5F5F5
310
F5F5F5F5F5F5F5F5F5F5F5F5F5F5F5F5F5F5F5F5F5F5F5F5F5F5F5F5F5F5F5F5F5F5F5F5F5F5F5F5F5F5F5F5F5F5F5F5F5F5F5F5F5F5F5F5F5F5F5F5F5F5F5F5F5F5F5F5F5F5F5F5F5F5F5F5F5F5F5F5F5F5F5F5F5F5F5F5F5F5F5F5F5F5F5F5F5F5F5F5F5F5F5F5F5F5F5F5F5F5F5F5F5F5F5F5F5F5F5F5F5F5F5F5F5F5F5
310
E2F5F5F5F5E2E2F5F5F5F5E2F5F5F5F5F5F5F5F5F5F5F5F5F5F5F5F5F5F5F5F5F5F5F5F5F5F5F5F5F5F5F5F5F5F5F5F5F5F5F5F5F5F5F5F5F5F5F5F5F5F5F5F5F5F5F5F5F5F5F5F5F5F5F5F5F5F5F5F5F5F5F5F5F5F5F5F5F5F5F5F5F5F5F5F5F5F5F5F5F5F5F5F5F5F5F5F5F5F5F5F5F5F5F5F5F5F5F5F5F5F5F5F5F5F5F5
310
F5F5F5F5F5F5F5F5F5F5F5F5F5F5F5F5F5F5F5F5F5F5F5F5F5F5F5F5F5F5F5F5F5F5F5F5F5F5F5F5F5F5F5F5F5F5F5F5F5F5F5F5F5E2F5F5F5F5E2E2F5F5F5F5E2F5F5F5F5F5F5F5F5F5F5F5F5F5F5F5F5F5F5F5F5F5F5F5F5F5F5F5F5F5F5F5F5F5F5F5F5F5F5F5F5F5F5F5F5F5F5F5F5F5F5F5F5F5F5F5F5F5F5F5F5F5F5
310
F5F5F5F5F5F5F5F5F5F5F5F5F5F5F5F5F5F5F5F5F5F5F5F5F5F5F5F5F5F5F5F5F5F5F5F5F5F5F5F5F5F5F5F5F5F5F5F5F5F5F5F5F5F5F5F5F5F5F5F5F5F5F5F5F5F5F5F5F5F5F5F5F5F5F5F5F5F5F5F5F5F5F5F5F5F5F5F5F5F5F5F5F5F5F5F5F5F5F5F5F5F5F5F5F5F5E2F5F5F5F5E2E2F5F5F5F5E2E2E2E2E2E2E2E2F5F5
310
F5F5F5F5F5F5F5E2E2E2E2E2E2E2E2E2E2E2E2E2E2E2F5F5F5F5F5F5F5F5F5E2E2E2E2E2E2E2E2E2E2E2E2E2E2E2E2F5F5F5F5F5F5F5F5E2E2E2E2E2E2E2E2E2E2E2E2E2E2E2E2F5F5F5F5F5F5F5F5E2E2E2E2E2E2E2E2E2E2E2E2E2E2E2E2F5F5F5F5F5F5F5F5E2E2E2E2E2E2E2E2E2E2E2E2E2E2E2E2F5F5F5F5F5F5F5F5
310
F5E2E2E2E2E2E2E2E2E2E2E2E2E2E2E2F5F5F5F5F5F5F5F5F5E2E2E2E2E2E2E2E2F5F5F5F5E2E2F5F5F5F5F5F5F5F5F5F5F5F5F5F5F5F5F5F5F5F5F5F5F5F5F5F5F5F5F5F5F5F5F5F5F5F5F5F5F5F5F5F5F5F5F5F5F5F5F5F5F5F5F5F5F5F5F5F5F5F5F5F5F5F5F5F5F5F5F5F5F5F5F5F5F5F5F5F5F5F5F5F5F5F5F5F5F5F5
310
F5F5F5F5F5F5F5F5F5F5F5F5F5F5F5F5F5F5F5F5F5F5F5F5F5F5F5F5F5F5F5F5F5F5F5F5F5F5F5F5F5F5F5F5F5F5F5F5F5F5F5F5F5F5F5F5F5F5F5F5F5F5F5F5F5F5F5F5F5F5F5F5F5F5F5F5F5F5F5F5F5F5F5F5F5F5F5F5F5F5E2E2F5F5F5F5F5F5F5F5F5F5F5F5F5F5F5F5F5F5F5F5F5F5F5F5F5F5F5F5F5F5F5F5F5F5F5
310
F5F5F5F5F5F5F5F5F5F5F5F5F5F5F5F5F5F5F5F5F5F5F5F5F5F5F5F5F5F5F5F5F5F5F5F5F5F5F5F5F5F5F5F5F5F5F5F5F5F5F5F5F5F5F5F5F5F5F5F5F5F5F5F5F5F5F5F5F5F5F5F5F5F5F5F5F5F5F5F5F5F5F5F5F5F5F5F5F5F5F5F5F5F5F5F5F5F5F5F5F5F5F5F5F5F5F5F5F5F5F5F5F5F5F5F5F5F5F5F5F5F5F5F5F5F5F5
310
F5F5F5F5F5F5F5F5F5F5F5F5F5F5F5F5E2E2F5F5F5F5F5F5F5F5F5F5F5F5F5F5F5F5F5F5F5F5F5F5F5F5F5F5F5F5F5F5F5F5F5F5F5F5F5F5F5F5F5F5F5F5F5F5F5F5F5F5F5F5F5F5F5F5F5F5F5F5F5F5F5F5F5F5F5F5F5F5F5F5F5F5F5F5F5F5F5F5F5F5F5F5F5F5F5F5F5F5F5F5F5F5F5F5F5F5F5F5F5F5F5F5F5F5F5F5F5
310
F5F5F5F5F5F5F5F5F5F5F5F5F5F5F5F5F5F5F5F5F5F5F5F5F5F5F5F5F5F5F5F5F5F5F5F5F5F5F5F5F5F5F5F5F5F5F5F5F5F5F5F5F5F5F5F5F5F5F5F5F5F5F5F5F5F5F5F5F5E2E2E2E2E2E2E2E2E2E2E2E2E2E2E2E2E2E2E2E2E2E2E2E2E2E2E2E2E2E2E2E2E2E2E2E2E2E2E2E2E2E2E2E2E2E2E2E2E2E2E2E2E2E2E2E2E2E2
310
E2E2E2E2E2E2E2E2E2E2E2E2E2E2E2E2E2E2E2E2E2E2E2E2E2E2E2E2E2E2E2E2E2E2E2E2E2E2E2E2E2E2E2E2E2E2E2E2E2E2E2E2E2E2E2E2E2E2E2E2E2E2E2E2E2E2E2E2E2E2E2E2E2E2E2E2E2E2E2E2E2E2E2E2E2E2E2E2E2E2E2E2E2E2E2E2E2E2E2E2E2E2E2E2E2E2E2E2E2E2E2E2E2E2E2E2E2E2E2E2E2E2E2EFEFEFEF
310
EFEFEFEFEFEFEFEFEFEFEFEFEFEFEFEFEFEFEFEFEFEFEFEFEFEFEFEFEFEFEFEFEFEFEFEFEFEFEFEFEFEFEFEFEFEFEFEFEFEFEFEFEFEFEFEFEFEFEFEFEFEFEFEFEFEFEFEFEFEFEFEFEFEFEFEFEFEFEFEFEFEFEFEFEFEFEFEFEFEFEFEFEFEFEFEFEFEFEFEFEFEFEFEFEFEFEFEFEFEFEFEFEFEFEFEFEFEFEFEFEFEFEFEFEFEFEF
310
EFEFEFEFEFEFEFEFEFEFEFEFEFEFEFEFEFEFEFEFEFEFEFEFEFEFEFEFEFEFEFEFEFEFEFEFEFEFEFEFEFEFEFEFEFEFEFEFEF
  0
XRECORD
  5
613E3
102
{ACAD_REACTORS
330
B5
102
}
330
B5
100
AcDbXrecord
280
     1
102
SHADEPLOT
 70
     0
102
SHADEPLOTRESLEVEL
 70
     2
102
SHADEPLOTCUSTOMDPI
 70
   300
  0
XRECORD
  5
B6
102
{ACAD_REACTORS
330
B5
102
}
330
B5
100
AcDbXrecord
280
     1
310
28000000B40000008B0000000100080000000000BC610000000000000000000000010000000000000000000000000000FFFFFF000000000000000000000000000000000000000000000000000000000000000000330000006600000099000000CC000000FF00000000330000333300006633000099330000CC330000FF3300
310
0000660000336600006666000099660000CC660000FF66000000990000339900006699000099990000CC990000FF99000000CC000033CC000066CC000099CC0000CCCC0000FFCC000000FF000033FF000066FF000099FF0000CCFF0000FFFF000000003300330033006600330099003300CC003300FF003300003333003333
310
33006633330099333300CC333300FF33330000663300336633006666330099663300CC663300FF66330000993300339933006699330099993300CC993300FF99330000CC330033CC330066CC330099CC3300CCCC3300FFCC330000FF330033FF330066FF330099FF3300CCFF3300FFFF330000006600330066006600660099
310
006600CC006600FF00660000336600333366006633660099336600CC336600FF33660000666600336666006666660099666600CC666600FF66660000996600339966006699660099996600CC996600FF99660000CC660033CC660066CC660099CC6600CCCC6600FFCC660000FF660033FF660066FF660099FF6600CCFF6600
310
FFFF660000009900330099006600990099009900CC009900FF00990000339900333399006633990099339900CC339900FF33990000669900336699006666990099669900CC669900FF66990000999900339999006699990099999900CC999900FF99990000CC990033CC990066CC990099CC9900CCCC9900FFCC990000FF99
310
0033FF990066FF990099FF9900CCFF9900FFFF99000000CC003300CC006600CC009900CC00CC00CC00FF00CC000033CC003333CC006633CC009933CC00CC33CC00FF33CC000066CC003366CC006666CC009966CC00CC66CC00FF66CC000099CC003399CC006699CC009999CC00CC99CC00FF99CC0000CCCC0033CCCC0066CC
310
CC0099CCCC00CCCCCC00FFCCCC0000FFCC0033FFCC0066FFCC0099FFCC00CCFFCC00FFFFCC000000FF003300FF006600FF009900FF00CC00FF00FF00FF000033FF003333FF006633FF009933FF00CC33FF00FF33FF000066FF003366FF006666FF009966FF00CC66FF00FF66FF000099FF003399FF006699FF009999FF00CC
310
99FF00FF99FF0000CCFF0033CCFF0066CCFF0099CCFF00CCCCFF00FFCCFF0000FFFF0033FFFF0066FFFF0099FFFF00CCFFFF00FFFFFF00000000000D0D0D001A1A1A00282828003535350043434300505050005D5D5D006B6B6B00787878008686860093939300A1A1A100AEAEAE00BBBBBB00C9C9C900D6D6D600E4E4E400
310
F1F1F100FFFFFF0000000000000000000000000000000000000000000000000000000000000000000000000000000000F5F5F5F5F5F5F5F5F5F5F5F5F5F5F5F5F5F5F5F5F5F5F5F5F5F5F5F5F5F5F5F5F5F5F5F5F5F5F5F5F5F5F5F5F5F5F5F5F5F5F5F5F5F5F5F5F5F5F5F5F5F5F5F5F5F5F5F5F5F5F5F5F5F5F5F5F5F5F5
310
F5F5F5F5F5F5F5F5F5F5F5F5F5F5F5F5F5F5F5F5F5F5F5F5F5F5F5F5F5F5F5F5F5F5F5F5F5F5F5F5F5F5F5F5F5F5F5F5F5F5F5F5F5F5F5F5F5F5F5F5F5F5F5F5F5F5F5F5F5F5F5F5F5F5F5F5F5F5F5F5F5F5F5F5F5F5F5F5F5F5F5F5F5F5F5F5F5F5F5F5F5F5E2E2E2E2E2E2E2E2E2E2E2E2E2E2E2E2E2E2E2E2E2E2E2E2E2
310
E2E2E2E2E2E2E2E2E2E2E2E2E2E2E2E2E2E2E2E2E2E2E2E2E2E2E2E2E2E2E2E2E2E2E2E2E2E2E2E2E2E2E2E2E2E2E2E2E2E2E2E2E2E2E2E2E2E2E2E2E2E2E2E2E2E2E2E2E2E2E2E2E2E2E2E2E2E2E2E2E2E2E2E2E2E2E2E2E2E2E2E2E2E2E2E2E2E2E2E2E2E2E2E2E2E2E2E2E2E2E2E2E2E2E2E2E2E2E2E2E2E2E2E2E2E2E2
310
E2E2E2E2E2E2E2E2E2E2E2E2E2E2E2E2E2E2E2E2E2E2E2E2E2E2F5F5E2E2E2E2E2E2E2E2E2E2E2E2E2E2E2E2E2E2E2E2E2E2E2E2E2E2E2E2E2E2E2E2E2E2E2E2E2E2E2E2E2E2E2E2E2E2E2E2E2E2E2E2E2E2E2E2E2E2E2E2E2E2E2E2E2E2E2E2E2E2E2E2E2E2E2E2E2E2E2E2E2E2E2E2E2E2E2E2E2E2E2E2E2E2E2E2E2E2E2
310
E2E2E2E2E2E2E2E2E2E2E2E2E2E2E2E2E2E2E2E2E2E2E2E2E2E2E2E2E2E2E2E2E2E2E2E2E2E2E2E2E2E2E2E2E2E2E2E2E2E2E2E2E2E2E2E2E2E2E2E2E2E2E2E2E2E2E2E2E2E2E2E2E2E2E2E2E2E2E2F5F5E2E2E2E2E2E2E2E2E2E2E2E2E2E2E2E2E2E2E2E2E2E2E2E2E2E2E2E2E2E2E2E2E2E2E2E2E2E2E2E2E2E2E2E2E2E2
310
E2E2E2E2E2E2E2E2E2E2E2E2E2E2E2E2E2E2E2E2E2E2E2E2E2E2E2E2E2E2E2E2E2E2E2E2E2E2E2E2E2E2E2E2E2E2E2E2E2E2E2E2E2E2E2E2E2E2E2E2E2E2E2E2E2E2E2E2E2E2E2E2E2E2E2E2E2E2E2E2E2E2E2E2E2E2E2E2E2E2E2E2E2E2E2E2E2E2E2E2E2E2E2E2E2E2E2E2E2E2E2E2E2E2E2E2E2E2E2E2E2E2E2E2E2E2E2
310
E2E2E2E2E2F5F5E2E2E2E2E2E2E2E2E2E2E2E2E2E2E2E2E2E2E2E2E2E2E2E2E2E2E2E2E2E2E2E2E2E2E2E2E2E2E2E2E2E2E2E2E2E2E2E2E2E2E2E2E2E2E2E2E2E2E2E2E2E2E2E2E2E2E2E2E2E2E2E2E2E2E2E2E2E2E2E2E2E2E2E2E2E2E2E2E2E2E2E2E2E2E2E2E2E2E2E2E2E2E2E2E2E2E2E2E2E2E2E2E2E2E2E2E2E2E2E2
310
E2E2E2E2E2E2E2E2E2E2E2E2E2E2E2E2E2E2E2E2E2E2E2E2E2E2E2E2E2E2E2E2E2E2E2E2E2E2E2E2E2E2E2E2E2E2E2E2E2E2E2E2E2E2E2E2E2E2F5F5E2E2E2F5F5F5F5F5F5F5F5E2E2E2E2E2E2E2E2E2F5F5F5F5F5F5F5F5F5F5F5F5F5F5F5F5E2E2E2E2E2E2E2E2E2F5F5F5F5F5F5F5F5F5F5F5F5F5F5F5E2E2E2E2E2E2E2
310
E2E2F5F5F5F5F5F5F5F5F5F5F5F5F5F5F5F5E2E2E2E2E2E2E2E2F5F5F5F5F5F5F5F5F5F5F5F5F5F5F5F5E2E2E2E2E2E2E2E2E2F5F5F5F5F5F5F5F5F5F5F5F5F5F5F5E2E2E2E2E2E2E2E2E2F5F5F5F5F5F5F5F5F5F5F5F5F5F5F5F5E2E2E2E2E2E2E2E2E2F5F5F5F5F5F5F5F5E2E2E2F5F5E2E2E2F5E2E2E2E2E2E2E2E2E2E2
310
E2E2E2E2E2E2E2E2E2E2E2E2E2E2E2E2E2E2E2E2E2E2E2E2E2E2E2E2E2E2E2E2E2E2E2E2E2E2E2E2E2E2E2E2E2E2E2E2E2E2E2E2E2E2E2E2E2E2E2E2E2E2E2E2E2E2E2E2E2E2E2E2E2E2E2E2E2E2E2E2E2E2E2E2E2E2E2E2E2E2E2E2E2E2E2E2E2E2E2E2E2E2E2E2E2E2E2E2E2E2E2E2E2E2E2E2E2E2E2E2E2E2E2E2E2E2E2
310
E2E2E2E2E2E2E2E2E2E2E2E2E2E2E2E2E2E2E2E2E2E2E2E2E2E2E2E2E2E2E2E2E2F5E2E2E2F5F5E2E2E2F5E2E2E2E2E2E2E2E2E2E2E2E2E2E2E2E2E2E2E2E2E2E2E2E2E2E2E2E2E2E2E2E2E2E2E2E2E2E2E2E2E2E2E2E2E2E2E2E2E2E2E2E2E2E2E2E2E2E2E2E2E2E2E2E2E2E2E2E2E2E2E2E2E2E2E2E2E2E2E2E2E2E2E2E2
310
E2E2E2E2E2E2E2E2E2E2E2E2E2E2E2E2E2E2E2E2E2E2E2E2E2E2E2E2E2E2E2E2E2E2E2E2E2E2E2E2E2E2E2E2E2E2E2E2E2E2E2E2E2E2E2E2E2E2E2E2E2E2E2E2E2E2E2E2E2E2E2E2E2E2E2E2E2E2E2E2E2E2E2E2E2E2F5E2E2E2F5F5E2E2E2F5E2E2E2E2E2E2E2E2E2E2E2E2E2E2E2E2E2E2E2E2E2E2E2E2E2E2E2E2E2E2E2
310
E2E2E2E2E2E2E2E2E2E2E2E2E2E2E2E2E2E2E2E2E2E2E2E2E2E2E2E2E2E2E2E2E2E2E2E2E2E2E2E2E2E2E2E2E2E2E2E2E2E2E2E2E2E2E2E2E2E2E2E2E2E2E2E2E2E2E2E2E2E2E2E2E2E2E2E2E2E2E2E2E2E2E2E2E2E2E2E2E2E2E2E2E2E2E2E2E2E2E2E2E2E2E2E2E2E2E2E2E2E2E2E2E2E2E2E2E2E2E2E2E2E2E2E2E2E2E2
310
E2E2E2E2E2E2E2E2E2E2E2E2F5E2E2E2F5F5E2E2E2F5E2E2E2E2E2E2E2E2E2E2E2E2E2E2E2E2E2E2E2E2E2E2E2E2E2E2E2E2E2E2E2E2E2E2E2E2E2E2E2E2E2E2E2E2E2E2E2E2E2E2E2E2E2E2E2E2E2E2E2E2E2E2E2E2E2E2E2E2E2E2E2E2E2E2E2E2E2E2E2E2E2E2E2E2E2E2E2E2E2E2E2E2E2E2E2E2E2E2E2E2E2E2E2E2E2
310
E2E2E2E2E2E2E2E2E2E2E2E2E2E2E2E2E2E2E2E2E2E2E2E2E2E2E2E2E2E2E2E2E2E2E2E2E2E2E2E2E2E2E2E2E2E2E2E2E2E2E2E2E2E2E2E2E2E2E2E2E2E2E2E2E2F5E2E2E2F5F5E2E2E2F5E2E2E2E2E2E2E2E2E2E2E2E2E2E2E2E2E2E2E2E2E2E2E2E2E2E2E2E2E2E2E2E2E2E2E2E2E2E2E2E2E2E2E2E2E2E2E2E2E2E2E2E2
310
E2E2E2E2E2E2E2E2E2E2E2E2E2E2E2E2E2E2E2E2E2E2E2E2E2E2E2E2E2E2E2E2E2E2E2E2E2E2E2E2E2E2E2E2E2E2E2E2E2E2E2E2E2E2E2E2E2E2E2E2E2E2E2E2E2E2E2E2E2E2E2E2E2E2E2E2E2E2E2E2E2E2E2E2E2E2E2E2E2E2E2E2E2E2E2E2E2E2E2E2E2E2E2E2E2E2E2E2E2E2E2E2E2E2E2E2E2E2F5E2E2E2F5F5E2E2E2
310
F5E2E2E2E2E2E2E2E2E2E2E2E2E2E2E2E2E2E2E2E2E2E2E2E2E2E2E2E2E2E2E2E2E2E2E2E2E2E2E2E2E2E2E2E2E2E2E2E2E2E2E2E2E2E2E2E2E2E2E2E2E2E2E2E2E2E2E2E2E2E2E2E2E2E2E2E2E2E2E2E2E2E2E2E2E2E2E2E2E2E2E2E2E2E2E2E2E2E2E2E2E2E2E2E2E2E2E2E2E2E2E2E2E2E2E2E2E2E2E2E2E2E2E2E2E2E2
310
E2E2E2E2E2E2E2E2E2E2E2E2E2E2E2E2E2E2E2E2E2E2E2E2E2E2E2E2E2E2E2E2E2E2E2E2E2E2E2E2E2E2E2E2F5E2E2E2F5F5E2E2E2F5E2E2E2E2E2E2E2E2E2E2E2E2E2E2E2E2E2E2E2E2E2E2E2E2E2E2E2E2E2E2E2E2E2E2E2E2E2E2E2E2E2E2E2E2E2E2E2E2E2E2E2E2E2E2E2E2E2E2E2E2E2E2E2E2E2E2E2E2E2E2E2E2E2
310
E2E2E2E2E2E2E2E2E2E2E2E2E2E2E2E2E2E2E2E2E2E2E2E2E2E2E2E2E2E2E2E2E2E2E2E2E2E2E2E2E2E2E2E2E2E2E2E2E2E2E2E2E2E2E2E2E2E2E2E2E2E2E2E2E2E2E2E2E2E2E2E2E2E2E2E2E2E2E2E2E2E2E2E2E2E2E2E2E2E2E2E2E2E2E2E2E2F5E2E2E2F5F5E2E2E2F5E2E2E2E2E2E2E2E2E2E2E2E2E2E2E2E2E2E2E2E2
310
E2E2E2E2E2E2E2E2E2E2E2E2E2E2E2E2E2E2E2E2E2E2E2E2E2E2E2E2E2E2E2E2E2E2E2E2E2E2E2E2E2E2E2E2E2E2E2E2E2E2E2E2E2E2E2E2E2E2E2E2E2E2E2E2E2E2E2E2E2E2E2E2E2E2E2E2E2E2E2E2E2E2E2E2E2E2E2E2E2E2E2E2E2E2E2E2E2E2E2E2E2E2E2E2E2E2E2E2E2E2E2E2E2E2E2E2E2E2E2E2E2E2E2E2E2E2E2
310
E2E2E2E2E2E2E2E2E2E2E2E2E2E2E2E2E2E2E2E2E2E2E2F5E2E2E2F5F5E2E2E2E2E2E2E2E2E2E2E2E2E2E2E2E2E2E2E2E2E2E2E2E2E2E2E2E2E2E2E2E2E2E2E2E2E2E2E2E2E2E2E2E2E2E2E2E2E2E2E2E2E2E2E2E2E2E2E2E2E2E2E2E2E2E2E2E2E2E2E2E2E2E2E2E2E2E2E2E2E2E2E2E2E2E2E2E2E2E2E2E2E2E2E2E2E2E2
310
E2E2E2E2E2E2E2E2E2E2E2E2E2E2E2E2E2E2E2E2E2E2E2E2E2E2E2E2E2E2E2E2E2E2E2E2E2E2E2E2E2E2E2E2E2E2E2E2E2E2E2E2E2E2E2E2E2E2E2E2E2E2E2E2E2E2E2E2E2E2E2E2E2E2E2E2E2E2E2E2F5F5E2E2E2E2E2E2E2E2E2E2E2E2E2E2E2E2E2E2E2E2E2E2E2E2E2E2E2E2E2E2E2E2E2E2E2E2E2E2E2E2E2E2E2E2E2
310
E2E2E2E2E2E2E2E2E2E2E2E2E2E2E2E2E2E2E2E2E2E2E2E2E2E2E2E2E2E2E2E2E2E2E2E2E2E2E2E2E2E2E2E2E2E2E2E2E2E2E2E2E2E2E2E2E2E2E2E2E2E2E2E2E2E2E2E2E2E2E2E2E2E2E2E2E2E2E2E2E2E2E2E2E2E2E2E2E2E2E2E2E2E2E2E2E2E2E2E2E2E2E2E2E2E2E2E2E2E2E2E2E2E2E2E2E2E2E2E2E2E2E2E2E2E2E2
310
E2E2E2E2E2E2F5F5E2E2E2E2E2E2E2E2E2E2E2E2E2E2E2E2E2E2E2E2E2E2E2E2E2E2E2E2E2E2E2E2E2E2E2E2E2E2E2E2E2E2E2E2E2E2E2E2E2E2E2E2E2E2E2E2E2E2E2E2E2E2E2E2E2E2E2E2E2E2E2E2E2E2E2E2E2E2E2E2E2E2E2E2E2E2E2E2E2E2E2E2E2E2E2E2E2E2E2E2E2E2E2E2E2E2E2E2E2E2E2E2E2E2E2E2E2E2E2
310
E2E2E2E2E2E2E2E2E2E2E2E2E2E2E2E2E2E2E2E2E2E2E2E2E2E2E2E2E2E2E2E2E2E2E2E2E2E2E2E2E2E2E2E2E2E2E2E2E2E2E2E2E2E2E2E2E2E2E2F5F5E2E2E2E2E2E2E2E2E2E2E2E2E2E2E2E2E2E2E2E2E2E2E2E2E2E2E2E2E2E2E2E2E2E2E2E2E2E2E2E2E2E2E2E2E2E2E2E2E2E2E2E2E2E2E2E2E2E2E2E2E2E2E2E2E2E2
310
E2E2E2E2E2E2E2E2E2E2E2E2E2E2E2E2E2E2E2E2E2E2E2E2E2E2E2E2E2E2E2E2E2E2E2E2E2E2E2E2E2E2E2E2E2E2E2E2E2E2E2E2E2E2E2E2E2E2E2E2E2E2E2E2E2E2E2E2E2E2E2E2E2E2E2E2E2E2E2E2E2E2E2E2E2E2E2E2E2E2E2E2E2E2E2E2E2E2E2E2E2E2E2E2E2E2E2E2E2E2E2E2F5F5E2E2E2E2E2E2E2E2E2E2E2E2E2
310
E2E2E2E2E2E2E2F5F5F5F5F5F5F5F5F5F5F5F5F5F5F5F5F5F5F5F5F5F5F5F5F5F5F5F5F5F5F5F5F5F5F5F5F5F5F5F5F5F5F5F5F5F5F5F5F5F5F5F5F5F5F5F5F5F5F5F5F5F5F5F5F5F5F5F5F5F5F5F5F5F5F5F5F5F5F5F5F5F5F5F5F5F5F5F5F5F5F5F5F5F5F5F5F5F5F5F5F5F5F5F5F5F5F5F5F5F5F5F5F5F5F5F5F5F5F5F5
310
F5F5F5F5F5F5F5F5F5F5F5F5F5F5F5F5F5F5E2E2E2E2E2E2E2E2E2E2E2E2E2E2E2E2E2E2E2E2F5F5E2E2E2E2E2E2E2E2E2E2E2E2E2E2E2E2E2E2E2E2F5E2E2E2E2E2E2E2E2E2E2E2E2E2E2E2E2E2E2E2E2E2E2E2E2E2E2E2E2E2E2E2E2E2E2E2E2E2E2E2E2E2E2E2E2E2E2E2E2E2E2E2E2E2E2E2E2E2E2E2E2E2E2E2E2E2E2
310
E2E2E2E2E2E2E2E2E2E2E2E2E2E2E2E2E2E2E2E2E2E2E2E2E2E2E2E2E2E2E2E2E2E2E2E2E2E2E2E2E2E2E2E2E2E2E2E2E2E2E2E2E2E2E2E2E2E2E2E2E2E2E2E2E2E2E2E2E2E2F5E2E2E2E2E2E2E2E2E2E2E2E2E2E2E2E2E2E2E2E2F5F5E2E2E2E2E2E2E2E2E2E2E2E2E2E2E2E2E2E2E2E2F5E2E2E2E2E2E2E2E2E2E2E2E2E2
310
E2E2E2E2E2E2E2E2E2E2E2E2E2E2E2E2E2E2E2E2E2E2E2E2E2E2E2E2E2E2E2E2E2E2E2E2E2E2E2E2E2E2E2E2E2E2E2E2E2E2E2E2E2E2E2E2E2E2E2E2E2E2E2E2E2E2E2E2E2E2E2E2E2E2E2E2E2E2E2E2E2E2E2E2E2E2E2E2E2E2E2E2E2E2E2E2E2E2E2E2E2E2E2E2E2E2E2E2E2E2E2E2E2E2E2E2E2E2E2E2E2E2E2F5E2E2E2
310
E2E2E2E2E2E2E2E2E2E2E2E2E2E2E2E2E2F5F5E2E2E2E2E2E2E2E2E2E2E2E2E2E2E2E2E2E2E2E2F5E2E2E2E2E2E2E2E2E2E2E2E2E2E2E2E2E2E2E2E2E2E2E2E2E2E2E2E2E2E2E2E2E2E2E2E2E2E2E2E2E2E2E2E2E2E2E2E2E2E2E2E2E2E2E2E2E2E2E2E2E2E2E2E2E2E2E2E2E2E2E2E2E2E2E2E2E2E2E2E2E2E2E2E2E2E2E2
310
E2E2E2E2E2E2E2E2E2E2E2E2E2E2E2E2E2E2E2E2E2E2E2E2E2E2E2E2E2E2E2E2E2E2E2E2E2E2E2E2E2E2E2E2E2E2E2E2E2F5E2E2E2E2E2E2E2E2E2E2E2E2E2E2E2E2E2E2E2E2F5F5E2E2E2E2E2E2E2E2E2E2E2E2E2E2E2E2E2E2E2E2F5E2E2E2E2E2E2E2E2E2E2E2E2E2E2E2E2E2E2E2E2E2E2E2E2E2E2E2E2E2E2E2E2E2E2
310
E2E2E2E2E2E2E2E2E2E2E2E2E2E2E2E2E2E2E2E2E2E2E2E2E2E2E2E2E2E2E2E2E2E2E2E2E2E2E2E2E2E2E2E2E2E2E2E2E2E2E2E2E2E2E2E2E2E2E2E2E2E2E2E2E2E2E2E2E2E2E2E2E2E2E2E2E2E2E2E2E2E2E2E2E2E2E2E2E2E2E2E2E2E2E2E2E2E2E2E2E2E2F5E2E2E2E2E2E2E2E2E2E2E2E2E2E2E2E2E2E2E2E2F5F5E2E2
310
E2F5E2E2E2E2E2E2E2E2E2E2E2E2E2E2E2E2F5E2E2E2E2E2E2E2E2E2E2E2E2E2E2E2E2E2E2E2E2E2E2E2E2E2E2E2E2E2E2E2E2E2E2E2E2E2E2E2E2E2E2E2E2E2E2E2E2E2E2E2E2E2E2E2E2E2E2E2E2E2E2E2E2E2E2E2E2E2E2E2E2E2E2E2E2E2E2E2E2E2E2E2E2E2E2E2E2E2E2E2E2E2E2E2E2E2E2E2E2E2E2E2E2E2E2E2E2
310
E2E2E2E2E2E2E2E2E2E2E2E2E2E2E2E2E2E2E2E2E2E2E2E2E2E2E2E2F5E2E2E2E2E2E2E2E2E2E2E2E2E2E2E2E2F5E2E2E2F5F5E2E2E2F5E2E2E2E2E2E2E2E2E2E2E2E2E2E2E2E2F5E2E2E2E2E2E2E2E2E2E2E2E2E2E2E2E2E2E2E2E2E2E2E2E2E2E2E2E2E2E2E2E2E2E2E2E2E2E2E2E2E2E2E2E2E2E2E2E2E2E2E2E2E2E2E2
310
E2E2E2E2E2E2E2E2E2E2E2E2E2E2E2E2E2E2E2E2E2E2E2E2E2E2E2E2E2E2E2E2E2E2E2E2E2E2E2E2E2E2E2E2E2E2E2E2E2E2E2E2E2E2E2E2E2E2E2E2E2E2E2E2E2E2E2E2E2E2E2E2E2E2E2E2E2E2E2E2E2F5E2E2E2E2E2E2E2E2E2E2E2E2E2E2E2E2F5E2E2E2F5F5E2E2E2F5E2E2E2E2E2E2E2E2E2E2E2E2E2E2E2E2F5E2E2
310
E2E2E2E2E2E2E2E2E2E2E2E2E2E2E2E2E2E2E2E2E2E2E2E2E2E2E2E2E2E2E2E2E2E2E2E2E2E2E2E2E2E2E2E2E2E2E2E2E2E2E2E2E2E2E2E2E2E2E2E2E2E2E2E2E2E2E2E2E2E2E2E2E2E2E2E2E2E2E2E2E2E2E2E2E2E2E2E2E2E2E2E2E2E2E2E2E2E2E2E2E2E2E2E2E2E2E2E2E2E2E2E2E2E2E2E2E2E2E2E2E2E2E2E2E2E2E2
310
E2E2E2E2E2E2E2F5E2E2E2E2E2E2E2E2E2E2E2E2E2E2E2E2F5E2E2E2F5F5E2E2E2F5E2E2E2E2E2E2E2E2E2E2E2E2E2E2E2E2F5E2E2E2E2E2E2E2E2E2E2E2E2E2E2E2E2E2E2E2E2E2E2E2E2E2E2E2E2E2E2E2E2E2E2E2E2E2E2E2E2E2E2E2E2E2E2E2E2E2E2E2E2E2E2E2E2E2E2E2E2E2E2E2E2E2E2E2E2E2E2E2E2E2E2E2E2
310
E2E2E2E2E2E2E2E2E2E2E2E2E2E2E2E2E2E2E2E2E2E2E2E2E2E2E2E2E2E2E2E2E2E2E2E2E2E2E2E2E2E2E2E2E2E2E2E2E2E2E2E2E2E2E2E2E2E2E2E2F5E2E2E2E2E2E2E2E2E2E2E2E2E2E2E2E2F5E2E2E2F5F5E2E2E2F5E2E2E2E2E2E2E2E2E2E2E2E2E2E2E2E2F5E2E2E2E2E2E2E2E2E2E2E2E2E2E2E2E2E2E2E2E2E2E2E2
310
E2E2E2E2E2E2E2E2E2E2E2E2E2E2E2E2E2E2E2E2E2E2E2E2E2E2E2E2E2E2E2E2E2E2E2E2E2E2E2E2E2E2E2E2E2E2E2E2E2E2E2E2E2E2E2E2E2E2E2E2E2E2E2E2E2E2E2E2E2E2E2E2E2E2E2E2E2E2E2E2E2E2E2E2E2E2E2E2E2E2E2E2E2E2E2E2E2E2E2E2E2E2E2E2E2E2E2E2E2E2E2E2E2F5E2E2E2E2E2E2E2E2E2E2E2E2E2
310
E2E2E2F5E2E2E2F5F5E2E2E2F5E2E2E2E2E2E2E2E2E2E2E2E2E2E2E2E2F5E2E2E2E2E2E2E2E2E2E2E2E2E2E2E2E2E2E2E2E2E2E2E2E2E2E2E2E2E2E2E2E2E2E2E2E2E2E2E2E2E2E2E2E2E2E2E2E2E2E2E2E2E2E2E2E2E2E2E2E2E2E2E2E2E2E2E2E2E2E2E2E2E2E2E2E2E2E2E2E2E2E2E2E2E2E2E2E2E2E2E2E2E2E2E2E2E2
310
E2E2E2E2E2E2E2E2E2E2E2E2E2E2E2E2E2E2E2E2E2E2E2E2E2E2E2E2E2E2E2E2E2E2E2E2E2E2E2F5E2E2E2E2E2E2E2E2E2E2E2E2E2E2E2E2F5E2E2E2F5F5E2E2E2F5E2E2E2E2E2E2E2E2E2E2E2E2E2E2E2E2F5E2E2E2E2E2E2E2E2E2E2E2E2E2E2E2E2E2E2E2E2E2E2E2E2E2E2E2E2E2E2E2E2E2E2E2E2E2E2E2E2E2E2E2E2
310
E2E2E2E2E2E2E2E2E2E2E2E2E2E2E2E2E2E2E2E2E2E2E2E2E2E2E2E2E2E2E2E2E2E2E2E2E2E2E2E2E2E2E2E2E2E2E2E2E2E2E2E2E2E2E2E2E2E2E2E2E2E2E2E2E2E2E2E2E2E2E2E2E2E2E2E2E2E2E2E2E2E2E2E2E2E2E2E2E2E2E2E2F5E2E2E2E2E2E2E2E2E2E2E2E2E2E2E2E2F5E2E2E2F5F5E2E2E2F5E2E2E2E2E2E2E2E2
310
E2E2E2E2E2E2E2E2F5E2E2E2E2E2E2E2E2E2E2E2E2E2E2E2E2E2E2E2E2E2E2E2E2E2E2E2E2E2E2E2E2E2E2E2E2E2E2E2E2E2E2E2E2E2E2E2E2E2E2E2E2E2E2E2E2E2E2E2E2E2E2E2E2E2E2E2E2E2E2E2E2E2E2E2E2E2E2E2E2E2E2E2E2E2E2E2E2E2E2E2E2E2E2E2E2E2E2E2E2E2E2E2E2E2E2E2E2E2E2E2E2E2E2E2E2E2E2
310
E2E2E2E2E2E2E2E2E2E2E2E2E2E2E2E2E2E2F5E2E2E2E2E2E2E2E2E2E2E2E2E2E2E2E2F5E2E2E2F5F5E2E2E2F5E2E2E2E2E2E2E2E2E2E2E2E2E2E2E2E2F5E2E2E2E2E2E2E2E2E2E2E2E2E2E2E2E2E2E2E2E2E2E2E2E2E2E2E2E2E2E2E2E2E2E2E2E2E2E2E2E2E2E2E2E2E2E2E2E2E2E2E2E2E2E2E2E2E2E2E2E2E2E2E2E2E2
310
E2E2E2E2E2E2E2E2E2E2E2E2E2E2E2E2E2E2E2E2E2E2E2E2E2E2E2E2E2E2E2E2E2E2E2E2E2E2E2E2E2E2E2E2E2E2E2E2E2E2E2E2E2E2E2E2E2E2E2E2E2E2E2E2E2E2E2E2E2E2E2F5E2E2E2E2E2E2E2E2E2E2E2E2E2E2E2E2F5E2E2E2F5F5E2E2E2F5E2E2E2E2E2E2E2E2E2E2E2E2E2E2E2E2F5E2E2E2E2E2E2E2E2E2E2E2E2
310
E2E2E2E2E2E2E2E2E2E2E2E2E2E2E2E2E2E2E2E2E2E2E2E2E2E2E2E2E2E2E2E2E2E2E2E2E2E2E2E2E2E2E2E2E2E2E2E2E2E2E2E2E2E2E2E2E2E2E2E2E2E2E2E2E2E2E2E2E2E2E2E2E2E2E2E2E2E2E2E2E2E2E2E2E2E2E2E2E2E2E2E2E2E2E2E2E2E2E2E2E2E2E2E2E2E2E2E2E2E2E2E2E2E2E2E2E2E2E2E2E2E2E2E2F5E2E2
310
E2E2E2E2E2E2E2E2E2E2E2E2E2E2F5E2E2E2F5F5E2E2E2F5E2E2E2E2E2E2E2E2E2E2E2E2E2E2E2E2F5E2E2E2E2E2E2E2E2E2E2E2E2E2E2E2E2E2E2E2E2E2E2E2E2E2E2E2E2E2E2E2E2E2E2E2E2E2E2E2E2E2E2E2E2E2E2E2E2E2E2E2E2E2E2E2E2E2E2E2E2E2E2E2E2E2E2E2E2E2E2E2E2E2E2E2E2E2E2E2E2E2E2E2E2E2E2
310
E2E2E2E2E2E2E2E2E2E2E2E2E2E2E2E2E2E2E2E2E2E2E2E2E2E2E2E2E2E2E2E2E2E2E2E2E2E2E2E2E2E2E2E2E2E2E2E2E2E2F5E2E2E2E2E2E2E2E2E2E2E2E2E2E2E2E2F5E2E2E2F5F5E2E2E2F5E2E2E2E2E2E2E2E2E2E2E2E2E2E2E2E2F5E2E2E2E2E2E2E2E2E2E2E2E2E2E2E2E2E2E2E2E2E2E2E2E2E2E2E2E2E2E2E2E2E2
310
E2E2E2E2E2E2E2E2E2E2E2E2E2E2E2E2E2E2E2E2E2E2E2E2E2E2E2E2E2E2E2E2E2E2E2E2E2E2E2E2E2E2E2E2E2E2E2E2E2E2E2E2E2E2E2E2E2E2E2E2E2E2E2E2E2E2E2E2E2E2E2E2E2E2E2E2E2E2E2E2E2E2E2E2E2E2E2E2E2E2E2E2E2E2E2E2E2E2E2E2E2E2E2F5E2E2E2E2E2E2E2E2E2E2E2E2E2E2E2E2F5E2E2E2F5F5E2
310
E2E2F5E2E2E2E2E2E2E2E2E2E2E2E2E2E2E2E2F5E2E2E2E2E2E2E2E2E2E2E2E2E2E2E2E2E2E2E2E2E2E2E2E2E2E2E2E2E2E2E2E2E2E2E2E2E2E2E2E2E2E2E2E2E2E2E2E2E2E2E2E2E2E2E2E2E2E2E2E2E2E2E2E2E2E2E2E2E2E2E2E2E2E2E2E2E2E2E2E2E2E2E2E2E2E2E2E2E2E2E2E2E2E2E2E2E2E2E2E2E2E2E2E2E2E2E2
310
E2E2E2E2E2E2E2E2E2E2E2E2E2E2E2E2E2E2E2E2E2E2E2E2E2E2E2E2E2F5E2E2E2E2E2E2E2E2E2E2E2E2E2E2E2E2F5E2E2E2F5F5E2E2E2F5E2E2E2E2E2E2E2E2E2E2E2E2E2E2E2E2F5E2E2E2E2E2E2E2E2E2E2E2E2E2E2E2E2E2E2E2E2E2E2E2E2E2E2E2E2E2E2E2E2E2E2E2E2E2E2E2E2E2E2E2E2E2E2E2E2E2E2E2E2E2E2
310
E2E2E2E2E2E2E2E2E2E2E2E2E2E2E2E2E2E2E2E2E2E2E2E2E2E2E2E2E2E2E2E2E2E2E2E2E2E2E2E2E2E2E2E2E2E2E2E2E2E2E2E2E2E2E2E2E2E2E2E2E2E2E2E2E2E2E2E2E2E2E2E2E2E2E2E2E2E2E2E2E2E2F5E2E2E2E2E2E2E2E2E2E2E2E2E2E2E2E2F5E2E2E2F5F5E2E2E2F5E2E2E2E2E2E2E2E2E2E2E2E2E2E2E2E2F5E2
310
E2E2E2E2E2E2E2E2E2E2E2E2E2E2E2E2E2E2E2E2E2E2E2E2E2E2E2E2E2E2E2E2E2E2E2E2E2E2E2E2E2E2E2E2E2E2E2E2E2E2E2E2E2E2E2E2E2E2E2E2E2E2E2E2E2E2E2E2E2E2E2E2E2E2E2E2E2E2E2E2E2E2E2E2E2E2E2E2E2E2E2E2E2E2E2E2E2E2E2E2E2E2E2E2E2E2E2E2E2E2E2E2E2E2E2E2E2E2E2E2E2E2E2E2E2E2E2
310
E2E2E2E2E2E2E2E2F5E2E2E2E2E2E2E2E2E2E2E2E2E2E2E2E2F5E2E2E2F5F5E2E2E2F5E2E2E2E2E2E2E2E2E2E2E2E2E2E2E2E2F5E2E2E2E2E2E2E2E2E2E2E2E2E2E2E2E2E2E2E2E2E2E2E2E2E2E2E2E2E2E2E2E2E2E2E2E2E2E2E2E2E2E2E2E2E2E2E2E2E2E2E2E2E2E2E2E2E2E2E2E2E2E2E2E2E2E2E2E2E2E2E2E2E2E2E2
310
E2E2E2E2E2E2E2E2E2E2E2E2E2E2E2E2E2E2E2E2E2E2E2E2E2E2E2E2E2E2E2E2E2E2E2E2E2E2E2E2E2E2E2E2E2E2E2E2E2E2E2E2E2E2E2E2E2E2E2E2E2F5E2E2E2E2E2E2E2E2E2E2E2E2E2E2E2E2F5E2E2E2F5F5E2E2E2F5E2E2E2E2E2E2E2E2E2E2E2E2E2E2E2E2F5E2E2E2E2E2E2E2E2E2E2E2E2E2E2E2E2E2E2E2E2E2E2
310
E2E2E2E2E2E2E2E2E2E2E2E2E2E2E2E2E2E2E2E2E2E2E2E2E2E2E2E2E2E2E2E2E2E2E2E2E2E2E2E2E2E2E2E2E2E2E2E2E2E2E2E2E2E2E2E2E2E2E2E2E2E2E2E2E2E2E2E2E2E2E2E2E2E2E2E2E2E2E2E2E2E2E2E2E2E2E2E2E2E2E2E2E2E2E2E2E2E2E2E2E2E2E2E2E2E2E2E2E2E2E2E2E2E2F5E2E2E2E2E2E2E2E2E2E2E2E2
310
E2E2E2E2F5E2E2E2F5F5E2E2E2E2E2E2E2E2E2E2E2E2E2E2E2E2E2E2E2E2F5E2E2E2E2E2E2E2E2E2E2E2E2E2E2E2E2E2E2E2E2E2E2E2E2E2E2E2E2E2E2E2E2E2E2E2E2E2E2E2E2E2E2E2E2E2E2E2E2E2E2E2E2E2E2E2E2E2E2E2E2E2E2E2E2E2E2E2E2E2E2E2E2E2E2E2E2E2E2E2E2E2E2E2E2E2E2E2E2E2E2E2E2E2E2E2E2
310
E2E2E2E2E2E2E2E2E2E2E2E2E2E2E2E2E2E2E2E2E2E2E2E2E2E2E2E2E2E2E2E2E2E2E2E2E2E2E2E2F5E2E2E2E2E2E2E2E2E2E2E2E2E2E2E2E2E2E2E2E2F5F5E2E2E2E2E2E2E2E2E2E2E2E2E2E2E2E2E2E2E2E2F5E2E2E2E2E2E2E2E2E2E2E2E2E2E2E2E2E2E2E2E2E2E2E2E2E2E2E2E2E2E2E2E2E2E2E2E2E2E2E2E2E2E2E2
310
E2E2E2E2E2E2E2E2E2E2E2E2E2E2E2E2E2E2E2E2E2E2E2E2E2E2E2E2E2E2E2E2E2E2E2E2E2E2E2E2E2E2E2E2E2E2E2E2E2E2E2E2E2E2E2E2E2E2E2E2E2E2E2E2E2E2E2E2E2E2E2E2E2E2E2E2E2E2E2E2E2E2E2E2E2E2E2E2E2E2E2E2E2F5E2E2E2E2E2E2E2E2E2E2E2E2E2E2E2E2E2E2E2E2F5F5E2E2E2E2E2E2E2E2E2E2E2
310
E2E2E2E2E2E2E2E2E2F5E2E2E2E2E2E2E2E2E2E2E2E2E2E2E2E2E2E2E2E2E2E2E2E2E2E2E2E2E2E2E2E2E2E2E2E2E2E2E2E2E2E2E2E2E2E2E2E2E2E2E2E2E2E2E2E2E2E2E2E2E2E2E2E2E2E2E2E2E2E2E2E2E2E2E2E2E2E2E2E2E2E2E2E2E2E2E2E2E2E2E2E2E2E2E2E2E2E2E2E2E2E2E2E2E2E2E2E2E2E2E2E2E2E2E2E2E2
310
E2E2E2E2E2E2E2E2E2E2E2E2E2E2E2E2E2E2E2F5E2E2E2E2E2E2E2E2E2E2E2E2E2E2E2E2E2E2E2E2F5F5E2E2E2E2E2E2E2E2E2E2E2E2E2E2E2E2E2E2E2E2F5E2E2E2E2E2E2E2E2E2E2E2E2E2E2E2E2E2E2E2E2E2E2E2E2E2E2E2E2E2E2E2E2E2E2E2E2E2E2E2E2E2E2E2E2E2E2E2E2E2E2E2E2E2E2E2E2E2E2E2E2E2E2E2E2
310
E2E2E2E2E2E2E2E2E2E2E2E2E2E2E2E2E2E2E2E2E2E2E2E2E2E2E2E2E2E2E2E2E2E2E2E2E2E2E2E2E2E2E2E2E2E2E2E2E2E2E2E2E2E2E2E2E2E2E2E2E2E2E2E2E2E2E2E2E2E2E2E2F5E2E2E2E2E2E2E2E2E2E2E2E2E2E2E2E2E2E2E2E2F5F5E2E2E2E2E2E2E2E2E2E2E2E2E2E2E2E2E2E2E2E2F5E2E2E2E2E2E2E2E2E2E2E2
310
E2E2E2E2E2E2E2E2E2E2E2E2E2E2E2E2E2E2E2E2E2E2E2E2E2E2E2E2E2E2E2E2E2E2E2E2E2E2E2E2E2E2E2E2E2E2E2E2E2E2E2E2E2E2E2E2E2E2E2E2E2E2E2E2E2E2E2E2E2E2E2E2E2E2E2E2E2E2E2E2E2E2E2E2E2E2E2E2E2E2E2E2E2E2E2E2E2E2E2E2E2E2E2E2E2E2E2E2E2E2E2E2E2E2E2E2E2E2E2E2E2E2E2E2E2F5E2
310
E2E2E2E2E2E2E2E2E2E2E2E2E2E2E2E2E2E2E2F5F5E2E2E2E2E2E2E2E2E2E2E2E2E2E2E2E2E2E2E2E2F5E2E2E2E2E2E2E2E2E2E2E2E2E2E2E2E2E2E2E2E2E2E2E2E2E2E2E2E2E2E2E2E2E2E2E2E2E2E2E2E2E2E2E2E2E2E2E2E2E2E2E2E2E2E2E2E2E2E2E2E2E2E2E2E2E2E2E2E2E2E2E2E2E2E2E2E2E2E2E2E2E2E2E2E2E2
310
E2E2E2E2E2E2E2E2E2E2E2E2E2E2E2E2E2E2E2E2E2E2E2E2E2E2E2E2E2E2E2E2E2E2E2E2E2E2E2E2E2E2E2E2E2E2E2E2E2E2E2F5E2E2E2E2E2E2E2E2E2E2E2E2E2E2E2E2E2E2E2E2F5F5E2E2E2E2E2E2E2E2E2E2E2E2E2E2E2E2E2E2E2E2F5E2E2E2E2E2E2E2E2E2E2E2E2E2E2E2E2E2E2E2E2E2E2E2E2E2E2E2E2E2E2E2E2
310
E2E2E2E2E2E2E2E2E2E2E2E2E2E2E2E2E2E2E2E2E2E2E2E2E2E2E2E2E2E2E2E2E2E2E2E2E2E2E2E2E2E2E2E2E2E2E2E2E2E2E2E2E2E2E2E2E2E2E2E2E2E2E2E2E2E2E2E2E2E2E2E2E2E2E2E2E2E2E2E2E2E2E2E2E2E2E2E2E2E2E2E2E2E2E2E2E2E2E2E2E2E2E2E2F5E2E2E2E2E2E2E2E2E2E2E2E2E2E2E2E2E2E2E2E2F5F5
310
E2E2E2E2E2E2E2E2E2E2E2E2E2E2E2E2E2E2E2E2F5E2E2E2E2E2E2E2E2E2E2E2E2E2E2E2E2E2E2E2E2E2E2E2E2E2E2E2E2E2E2E2E2E2E2E2E2E2E2E2E2E2E2E2E2E2E2E2E2E2E2E2E2E2E2E2E2E2E2E2E2E2E2E2E2E2E2E2E2E2E2E2E2E2E2E2E2E2E2E2E2E2E2E2E2E2E2E2E2E2E2E2E2E2E2E2E2E2E2E2E2E2E2E2E2E2E2
310
E2E2E2E2E2E2E2E2E2E2E2E2E2E2E2E2E2E2E2E2E2E2E2E2E2E2E2E2E2E2F5E2E2E2E2E2E2E2E2E2E2E2E2E2E2E2E2E2E2E2E2F5F5E2E2E2E2E2E2E2E2E2E2E2E2E2E2E2E2E2E2E2E2F5E2E2E2E2E2E2E2E2E2E2E2E2E2E2E2E2E2E2E2E2E2E2E2E2E2E2E2E2E2E2E2E2E2E2E2E2E2E2E2E2E2E2E2E2E2E2E2E2E2E2E2E2E2
310
E2E2E2E2E2E2E2E2E2E2E2E2E2E2E2E2E2E2E2E2E2E2E2E2E2E2E2E2E2E2E2E2E2E2E2E2E2E2E2E2E2E2E2E2E2E2E2E2E2E2E2E2E2E2E2E2E2E2E2E2E2E2E2E2E2E2E2E2E2E2E2E2E2E2E2E2E2E2E2E2E2E2E2F5E2E2E2E2E2E2E2E2E2E2E2E2E2E2E2E2E2E2E2E2F5F5E2E2E2F5E2E2E2E2E2E2E2E2E2E2E2E2E2E2E2E2F5
310
E2E2E2E2E2E2E2E2E2E2E2E2E2E2E2E2E2E2E2E2E2E2E2E2E2E2E2E2E2E2E2E2E2E2E2E2E2E2E2E2E2E2E2E2E2E2E2E2E2E2E2E2E2E2E2E2E2E2E2E2E2E2E2E2E2E2E2E2E2E2E2E2E2E2E2E2E2E2E2E2E2E2E2E2E2E2E2E2E2E2E2E2E2E2E2E2E2E2E2E2E2E2E2E2E2E2E2E2E2E2E2E2E2E2E2E2E2E2E2E2E2E2E2E2E2E2E2
310
E2E2E2E2E2E2E2E2E2F5E2E2E2E2E2E2E2E2E2E2E2E2E2E2E2E2F5E2E2E2F5F5E2E2E2F5E2E2E2E2E2E2E2E2E2E2E2E2E2E2E2E2F5E2E2E2E2E2E2E2E2E2E2E2E2E2E2E2E2E2E2E2E2E2E2E2E2E2E2E2E2E2E2E2E2E2E2E2E2E2E2E2E2E2E2E2E2E2E2E2E2E2E2E2E2E2E2E2E2E2E2E2E2E2E2E2E2E2E2E2E2E2E2E2E2E2E2
310
E2E2E2E2E2E2E2E2E2E2E2E2E2E2E2E2E2E2E2E2E2E2E2E2E2E2E2E2E2E2E2E2E2E2E2E2E2E2E2E2E2E2E2E2E2E2E2E2E2E2E2E2E2E2E2E2E2E2E2E2E2E2F5E2E2E2E2E2E2E2E2E2E2E2E2E2E2E2E2F5E2E2E2F5F5E2E2E2F5E2E2E2E2E2E2E2E2E2E2E2E2E2E2E2E2F5E2E2E2E2E2E2E2E2E2E2E2E2E2E2E2E2E2E2E2E2E2
310
E2E2E2E2E2E2E2E2E2E2E2E2E2E2E2E2E2E2E2E2E2E2E2E2E2E2E2E2E2E2E2E2E2E2E2E2E2E2E2E2E2E2E2E2E2E2E2E2E2E2E2E2E2E2E2E2E2E2E2E2E2E2E2E2E2E2E2E2E2E2E2E2E2E2E2E2E2E2E2E2E2E2E2E2E2E2E2E2E2E2E2E2E2E2E2E2E2E2E2E2E2E2E2E2E2E2E2E2E2E2E2E2E2E2E2F5E2E2E2E2E2E2E2E2E2E2E2
310
E2E2E2E2E2F5E2E2E2F5F5E2E2E2F5E2E2E2E2E2E2E2E2E2E2E2E2E2E2E2E2F5E2E2E2E2E2E2E2E2E2E2E2E2E2E2E2E2E2E2E2E2E2E2E2E2E2E2E2E2E2E2E2E2E2E2E2E2E2E2E2E2E2E2E2E2E2E2E2E2E2E2E2E2E2E2E2E2E2E2E2E2E2E2E2E2E2E2E2E2E2E2E2E2E2E2E2E2E2E2E2E2E2E2E2E2E2E2E2E2E2E2E2E2E2E2E2
310
E2E2E2E2E2E2E2E2E2E2E2E2E2E2E2E2E2E2E2E2E2E2E2E2E2E2E2E2E2E2E2E2E2E2E2E2E2E2E2E2E2F5E2E2E2E2E2E2E2E2E2E2E2E2E2E2E2E2F5E2E2E2F5F5E2E2E2F5E2E2E2E2E2E2E2E2E2E2E2E2E2E2E2E2F5E2E2E2E2E2E2E2E2E2E2E2E2E2E2E2E2E2E2E2E2E2E2E2E2E2E2E2E2E2E2E2E2E2E2E2E2E2E2E2E2E2E2
310
E2E2E2E2E2E2E2E2E2E2E2E2E2E2E2E2E2E2E2E2E2E2E2E2E2E2E2E2E2E2E2E2E2E2E2E2E2E2E2E2E2E2E2E2E2E2E2E2E2E2E2E2E2E2E2E2E2E2E2E2E2E2E2E2E2E2E2E2E2E2E2E2E2E2E2E2E2E2E2E2E2E2E2E2E2E2E2E2E2E2E2E2E2E2F5E2E2E2E2E2E2E2E2E2E2E2E2E2E2E2E2F5E2E2E2F5F5E2E2E2F5E2E2E2E2E2E2
310
E2E2E2E2E2E2E2E2E2E2F5E2E2E2E2E2E2E2E2E2E2E2E2E2E2E2E2E2E2E2E2E2E2E2E2E2E2E2E2E2E2E2E2E2E2E2E2E2E2E2E2E2E2E2E2E2E2E2E2E2E2E2E2E2E2E2E2E2E2E2E2E2E2E2E2E2E2E2E2E2E2E2E2E2E2E2E2E2E2E2E2E2E2E2E2E2E2E2E2E2E2E2E2E2E2E2E2E2E2E2E2E2E2E2E2E2E2E2E2E2E2E2E2E2E2E2E2
310
E2E2E2E2E2E2E2E2E2E2E2E2E2E2E2E2E2E2E2E2F5E2E2E2E2E2E2E2E2E2E2E2E2E2E2E2E2F5E2E2E2F5F5E2E2E2F5E2E2E2E2E2E2E2E2E2E2E2E2E2E2E2E2F5E2E2E2E2E2E2E2E2E2E2E2E2E2E2E2E2E2E2E2E2E2E2E2E2E2E2E2E2E2E2E2E2E2E2E2E2E2E2E2E2E2E2E2E2E2E2E2E2E2E2E2E2E2E2E2E2E2E2E2E2E2E2E2
310
E2E2E2E2E2E2E2E2E2E2E2E2E2E2E2E2E2E2E2E2E2E2E2E2E2E2E2E2E2E2E2E2E2E2E2E2E2E2E2E2E2E2E2E2E2E2E2E2E2E2E2E2E2E2E2E2E2E2E2E2E2E2E2E2E2E2E2E2E2E2E2E2E2F5E2E2E2E2E2E2E2E2E2E2E2E2E2E2E2E2F5E2E2E2F5F5E2E2E2F5E2E2E2E2E2E2E2E2E2E2E2E2E2E2E2E2F5E2E2E2E2E2E2E2E2E2E2
310
E2E2E2E2E2E2E2E2E2E2E2E2E2E2E2E2E2E2E2E2E2E2E2E2E2E2E2E2E2E2E2E2E2E2E2E2E2E2E2E2E2E2E2E2E2E2E2E2E2E2E2E2E2E2E2E2E2E2E2E2E2E2E2E2E2E2E2E2E2E2E2E2E2E2E2E2E2E2E2E2E2E2E2E2E2E2E2E2E2E2E2E2E2E2E2E2E2E2E2E2E2E2E2E2E2E2E2E2E2E2E2E2E2E2E2E2E2E2E2E2E2E2E2E2E2E2F5
310
E2E2E2E2E2E2E2E2E2E2E2E2E2E2E2E2F5E2E2E2F5F5E2E2E2F5E2E2E2E2E2E2E2E2E2E2E2E2E2E2E2E2F5E2E2E2E2E2E2E2E2E2E2E2E2E2E2E2E2E2E2E2E2E2E2E2E2E2E2E2E2E2E2E2E2E2E2E2E2E2E2E2E2E2E2E2E2E2E2E2E2E2E2E2E2E2E2E2E2E2E2E2E2E2E2E2E2E2E2E2E2E2E2E2E2E2E2E2E2E2E2E2E2E2E2E2E2
310
E2E2E2E2E2E2E2E2E2E2E2E2E2E2E2E2E2E2E2E2E2E2E2E2E2E2E2E2E2E2E2E2E2E2E2E2E2E2E2E2E2E2E2E2E2E2E2E2E2E2E2E2F5E2E2E2E2E2E2E2E2E2E2E2E2E2E2E2E2F5E2E2E2F5F5E2E2E2F5E2E2E2E2E2E2E2E2E2E2E2E2E2E2E2E2F5E2E2E2E2E2E2E2E2E2E2E2E2E2E2E2E2E2E2E2E2E2E2E2E2E2E2E2E2E2E2E2
310
E2E2E2E2E2E2E2E2E2E2E2E2E2E2E2E2E2E2E2E2E2E2E2E2E2E2E2E2E2E2E2E2E2E2E2E2E2E2E2E2E2E2E2E2E2E2E2E2E2E2E2E2E2E2E2E2E2E2E2E2E2E2E2E2E2E2E2E2E2E2E2E2E2E2E2E2E2E2E2E2E2E2E2E2E2E2E2E2E2E2E2E2E2E2E2E2E2E2E2E2E2E2E2E2E2F5E2E2E2E2E2E2E2E2E2E2E2E2E2E2E2E2F5E2E2E2F5
310
F5E2E2E2F5E2E2E2E2E2E2E2E2E2E2E2E2E2E2E2E2F5E2E2E2E2E2E2E2E2E2E2E2E2E2E2E2E2E2E2E2E2E2E2E2E2E2E2E2E2E2E2E2E2E2E2E2E2E2E2E2E2E2E2E2E2E2E2E2E2E2E2E2E2E2E2E2E2E2E2E2E2E2E2E2E2E2E2E2E2E2E2E2E2E2E2E2E2E2E2E2E2E2E2E2E2E2E2E2E2E2E2E2E2E2E2E2E2E2E2E2E2E2E2E2E2E2
310
E2E2E2E2E2E2E2E2E2E2E2E2E2E2E2E2E2E2E2E2E2E2E2E2E2E2E2E2E2E2E2F5E2E2E2E2E2E2E2E2E2E2E2E2E2E2E2E2F5E2E2E2F5F5E2E2E2F5E2E2E2E2E2E2E2E2E2E2E2E2E2E2E2E2F5E2E2E2E2E2E2E2E2E2E2E2E2E2E2E2E2E2E2E2E2E2E2E2E2E2E2E2E2E2E2E2E2E2E2E2E2E2E2E2E2E2E2E2E2E2E2E2E2E2E2E2E2
310
E2E2E2E2E2E2E2E2E2E2E2E2E2E2E2E2E2E2E2E2E2E2E2E2E2E2E2E2E2E2E2E2E2E2E2E2E2E2E2E2E2E2E2E2E2E2E2E2E2E2E2E2E2E2E2E2E2E2E2E2E2E2E2E2E2E2E2E2E2E2E2E2E2E2E2E2E2E2E2E2E2E2E2E2F5E2E2E2E2E2E2E2E2E2E2E2E2E2E2E2E2F5E2E2E2F5F5E2E2E2F5E2E2E2E2E2E2E2E2E2E2E2E2E2E2E2E2
310
F5E2E2E2E2E2E2E2E2E2E2E2E2E2E2E2E2E2E2E2E2E2E2E2E2E2E2E2E2E2E2E2E2E2E2E2E2E2E2E2E2E2E2E2E2E2E2E2E2E2E2E2E2E2E2E2E2E2E2E2E2E2E2E2E2E2E2E2E2E2E2E2E2E2E2E2E2E2E2E2E2E2E2E2E2E2E2E2E2E2E2E2E2E2E2E2E2E2E2E2E2E2E2E2E2E2E2E2E2E2E2E2E2E2E2E2E2E2E2E2E2E2E2E2E2E2E2
310
E2E2E2E2E2E2E2E2E2E2F5E2E2E2E2E2E2E2E2E2E2E2E2E2E2E2E2F5E2E2E2F5F5E2E2E2F5E2E2E2E2E2E2E2E2E2E2E2E2E2E2E2E2F5E2E2E2E2E2E2E2E2E2E2E2E2E2E2E2E2E2E2E2E2E2E2E2E2E2E2E2E2E2E2E2E2E2E2E2E2E2E2E2E2E2E2E2E2E2E2E2E2E2E2E2E2E2E2E2E2E2E2E2E2E2E2E2E2E2E2E2E2E2E2E2E2E2
310
E2E2E2E2E2E2E2E2E2E2E2E2E2E2E2E2E2E2E2E2E2E2E2E2E2E2E2E2E2E2E2E2E2E2E2E2E2E2E2E2E2E2E2E2E2E2E2E2E2E2E2E2E2E2E2E2E2E2E2E2E2E2E2F5E2E2E2E2E2E2E2E2E2E2E2E2E2E2E2E2F5E2E2E2F5F5E2E2E2F5E2E2E2E2E2E2E2E2E2E2E2E2E2E2E2E2F5E2E2E2E2E2E2E2E2E2E2E2E2E2E2E2E2E2E2E2E2
310
E2E2E2E2E2E2E2E2E2E2E2E2E2E2E2E2E2E2E2E2E2E2E2E2E2E2E2E2E2E2E2E2E2E2E2E2E2E2E2E2E2E2E2E2E2E2E2E2E2E2E2E2E2E2E2E2E2E2E2E2E2E2E2E2E2E2E2E2E2E2E2E2E2E2E2E2E2E2E2E2E2E2E2E2E2E2E2E2E2E2E2E2E2E2E2E2E2E2E2E2E2E2E2E2E2E2E2E2E2E2E2E2E2E2E2E2F5E2E2E2E2E2E2E2E2E2E2
310
E2E2E2E2E2E2F5E2E2E2F5F5E2E2E2F5E2E2E2E2E2E2E2E2E2E2E2E2E2E2E2E2F5E2E2E2E2E2E2E2E2E2E2E2E2E2E2E2E2E2E2E2E2E2E2E2E2E2E2E2E2E2E2E2E2E2E2E2E2E2E2E2E2E2E2E2E2E2E2E2E2E2E2E2E2E2E2E2E2E2E2E2E2E2E2E2E2E2E2E2E2E2E2E2E2E2E2E2E2E2E2E2E2E2E2E2E2E2E2E2E2E2E2E2E2E2E2
310
E2E2E2E2E2E2E2E2E2E2E2E2E2E2E2E2E2E2E2E2E2E2E2E2E2E2E2E2E2E2E2E2E2E2E2E2E2E2E2E2E2E2F5E2E2E2E2E2E2E2E2E2E2E2E2E2E2E2E2F5E2E2E2F5F5E2E2E2E2E2E2E2E2E2E2E2E2E2E2E2E2E2E2E2E2F5E2E2E2E2E2E2E2E2E2E2E2E2E2E2E2E2E2E2E2E2E2E2E2E2E2E2E2E2E2E2E2E2E2E2E2E2E2E2E2E2E2
310
E2E2E2E2E2E2E2E2E2E2E2E2E2E2E2E2E2E2E2E2E2E2E2E2E2E2E2E2E2E2E2E2E2E2E2E2E2E2E2E2E2E2E2E2E2E2E2E2E2E2E2E2E2E2E2E2E2E2E2E2E2E2E2E2E2E2E2E2E2E2E2E2E2E2E2E2E2E2E2E2E2E2E2E2E2E2E2E2E2E2E2E2E2E2E2F5E2E2E2E2E2E2E2E2E2E2E2E2E2E2E2E2E2E2E2E2F5F5E2E2E2E2E2E2E2E2E2
310
E2E2E2E2E2E2E2E2E2E2E2F5E2E2E2E2E2E2E2E2E2E2E2E2E2E2E2E2E2E2E2E2E2E2E2E2E2E2E2E2E2E2E2E2E2E2E2E2E2E2E2E2E2E2E2E2E2E2E2E2E2E2E2E2E2E2E2E2E2E2E2E2E2E2E2E2E2E2E2E2E2E2E2E2E2E2E2E2E2E2E2E2E2E2E2E2E2E2E2E2E2E2E2E2E2E2E2E2E2E2E2E2E2E2E2E2E2E2E2E2E2E2E2E2E2E2E2
310
E2E2E2E2E2E2E2E2E2E2E2E2E2E2E2E2E2E2E2E2E2F5E2E2E2E2E2E2E2E2E2E2E2E2E2E2E2E2E2E2E2E2F5F5E2E2E2E2E2E2E2E2E2E2E2E2E2E2E2E2E2E2E2E2F5E2E2E2E2E2E2E2E2E2E2E2E2E2E2E2E2E2E2E2E2E2E2E2E2E2E2E2E2E2E2E2E2E2E2E2E2E2E2E2E2E2E2E2E2E2E2E2E2E2E2E2E2E2E2E2E2E2E2E2E2E2E2
310
E2E2E2E2E2E2E2E2E2E2E2E2E2E2E2E2E2E2E2E2E2E2E2E2E2E2E2E2E2E2E2E2E2E2E2E2E2E2E2E2E2E2E2E2E2E2E2E2E2E2E2E2E2E2E2E2E2E2E2E2E2E2E2E2E2E2E2E2E2E2E2E2E2E2F5E2E2E2E2E2E2E2E2E2E2E2E2E2E2E2E2E2E2E2E2F5F5E2E2E2E2E2E2E2E2E2E2E2E2E2E2E2E2E2E2E2E2F5E2E2E2E2E2E2E2E2E2
310
E2E2E2E2E2E2E2E2E2E2E2E2E2E2E2E2E2E2E2E2E2E2E2E2E2E2E2E2E2E2E2E2E2E2E2E2E2E2E2E2E2E2E2E2E2E2E2E2E2E2E2E2E2E2E2E2E2E2E2E2E2E2E2E2E2E2E2E2E2E2E2E2E2E2E2E2E2E2E2E2E2E2E2E2E2E2E2E2E2E2E2E2E2E2E2E2E2E2E2E2E2E2E2E2E2E2E2E2E2E2E2E2E2E2E2E2E2E2E2E2E2E2E2E2E2E2E2
310
F5E2E2E2E2E2E2E2E2E2E2E2E2E2E2E2E2E2E2E2E2F5F5E2E2E2E2E2E2E2E2E2E2E2E2E2E2E2E2E2E2E2E2F5E2E2E2E2E2E2E2E2E2E2E2E2E2E2E2E2E2E2E2E2E2E2E2E2E2E2E2E2E2E2E2E2E2E2E2E2E2E2E2E2E2E2E2E2E2E2E2E2E2E2E2E2E2E2E2E2E2E2E2E2E2E2E2E2E2E2E2E2E2E2E2E2E2E2E2E2E2E2E2E2E2E2E2
310
E2E2E2E2E2E2E2E2E2E2E2E2E2E2E2E2E2E2E2E2E2E2E2E2E2E2E2E2E2E2E2E2E2E2E2E2E2E2E2E2E2E2E2E2E2E2E2E2E2E2E2E2E2F5E2E2E2E2E2E2E2E2E2E2E2E2E2E2E2E2E2E2E2E2F5F5E2E2E2E2E2E2E2E2E2E2E2E2E2E2E2E2E2E2E2E2F5E2E2E2E2E2E2E2E2E2E2E2E2E2E2E2E2E2E2E2E2E2E2E2E2E2E2E2E2E2E2
310
E2E2E2E2E2E2E2E2E2E2E2E2E2E2E2E2E2E2E2E2E2E2E2E2E2E2E2E2E2E2E2E2E2E2E2E2E2E2E2E2E2E2E2E2E2E2E2E2E2E2E2E2E2E2E2E2E2E2E2E2E2E2E2E2E2E2E2E2E2E2E2E2E2E2E2E2E2E2E2E2E2E2E2E2E2E2E2E2E2E2E2E2E2E2E2E2E2E2E2E2E2E2E2E2E2E2F5E2E2E2E2E2E2E2E2E2E2E2E2E2E2E2E2E2E2E2E2
310
F5F5E2E2E2E2E2E2E2E2E2E2E2E2E2E2E2E2E2E2E2E2F5E2E2E2E2E2E2E2E2E2E2E2E2E2E2E2E2E2E2E2E2E2E2E2E2E2E2E2E2E2E2E2E2E2E2E2E2E2E2E2E2E2E2E2E2E2E2E2E2E2E2E2E2E2E2E2E2E2E2E2E2E2E2E2E2E2E2E2E2E2E2E2E2E2E2E2E2E2E2E2E2E2E2E2E2E2E2E2E2E2E2E2E2E2E2E2E2E2E2E2E2E2E2E2E2
310
E2E2E2E2E2E2E2E2E2E2E2E2E2E2E2E2E2E2E2E2E2E2E2E2E2E2E2E2E2E2E2E2F5E2E2E2E2E2E2E2E2E2E2E2E2E2E2E2E2E2E2E2E2F5F5E2E2E2E2E2E2E2E2E2E2E2E2E2E2E2E2E2E2E2E2F5E2E2E2E2E2E2E2E2E2E2E2E2E2E2E2E2E2E2E2E2E2E2E2E2E2E2E2E2E2E2E2E2E2E2E2E2E2E2E2E2E2E2E2E2E2E2E2E2E2E2E2
310
E2E2E2E2E2E2E2E2E2E2E2E2E2E2E2E2E2E2E2E2E2E2E2E2E2E2E2E2E2E2E2E2E2E2E2E2E2E2E2E2E2E2E2E2E2E2E2E2E2E2E2E2E2E2E2E2E2E2E2E2E2E2E2E2E2E2E2E2E2E2E2E2E2E2E2E2E2E2E2E2E2E2E2E2E2F5E2E2E2E2E2E2E2E2E2E2E2E2E2E2E2E2E2E2E2E2F5F5E2E2E2E2E2E2E2E2E2E2E2E2E2E2E2E2E2E2E2
310
E2F5E2E2E2E2E2E2E2E2E2E2E2E2E2E2E2E2E2E2E2E2E2E2E2E2E2E2E2E2E2E2E2E2E2E2E2E2E2E2E2E2E2E2E2E2E2E2E2E2E2E2E2E2E2E2E2E2E2E2E2E2E2E2E2E2E2E2E2E2E2E2E2E2E2E2E2E2E2E2E2E2E2E2E2E2E2E2E2E2E2E2E2E2E2E2E2E2E2E2E2E2E2E2E2E2E2E2E2E2E2E2E2E2E2E2E2E2E2E2E2E2E2E2E2E2E2
310
E2E2E2E2E2E2E2E2E2E2E2F5E2E2E2E2E2E2E2E2E2E2E2E2E2E2E2E2E2E2E2E2F5F5E2E2E2E2E2E2E2E2E2E2E2E2E2E2E2E2E2E2E2E2F5E2E2E2E2E2E2E2E2E2E2E2E2E2E2E2E2E2E2E2E2E2E2E2E2E2E2E2E2E2E2E2E2E2E2E2E2E2E2E2E2E2E2E2E2E2E2E2E2E2E2E2E2E2E2E2E2E2E2E2E2E2E2E2E2E2E2E2E2E2E2E2E2
310
E2E2E2E2E2E2E2E2E2E2E2E2E2E2E2E2E2E2E2E2E2E2E2E2E2E2E2E2E2E2E2E2E2E2E2E2E2E2E2E2E2E2E2E2E2E2E2E2E2E2E2E2E2E2E2E2E2E2E2E2E2E2E2E2F5E2E2E2E2E2E2E2E2E2E2E2E2E2E2E2E2E2E2E2E2F5F5E2E2E2F5E2E2E2E2E2E2E2E2E2E2E2E2E2E2E2E2F5E2E2E2E2E2E2E2E2E2E2E2E2E2E2E2E2E2E2E2
310
E2E2E2E2E2E2E2E2E2E2E2E2E2E2E2E2E2E2E2E2E2E2E2E2E2E2E2E2E2E2E2E2E2E2E2E2E2E2E2E2E2E2E2E2E2E2E2E2E2E2E2E2E2E2E2E2E2E2E2E2E2E2E2E2E2E2E2E2E2E2E2E2E2E2E2E2E2E2E2E2E2E2E2E2E2E2E2E2E2E2E2E2E2E2E2E2E2E2E2E2E2E2E2E2E2E2E2E2E2E2E2E2E2E2E2E2E2F5E2E2E2E2E2E2E2E2E2
310
E2E2E2E2E2E2E2F5E2E2E2F5F5E2E2E2F5E2E2E2E2E2E2E2E2E2E2E2E2E2E2E2E2F5E2E2E2E2E2E2E2E2E2E2E2E2E2E2E2E2E2E2E2E2E2E2E2E2E2E2E2E2E2E2E2E2E2E2E2E2E2E2E2E2E2E2E2E2E2E2E2E2E2E2E2E2E2E2E2E2E2E2E2E2E2E2E2E2E2E2E2E2E2E2E2E2E2E2E2E2E2E2E2E2E2E2E2E2E2E2E2E2E2E2E2E2E2
310
E2E2E2E2E2E2E2E2E2E2E2E2E2E2E2E2E2E2E2E2E2E2E2E2E2E2E2E2E2E2E2E2E2E2E2E2E2E2E2E2E2E2E2F5E2E2E2E2E2E2E2E2E2E2E2E2E2E2E2E2F5E2E2E2F5F5E2E2E2F5E2E2E2E2E2E2E2E2E2E2E2E2E2E2E2E2F5E2E2E2E2E2E2E2E2E2E2E2E2E2E2E2E2E2E2E2E2E2E2E2E2E2E2E2E2E2E2E2E2E2E2E2E2E2E2E2E2
310
E2E2E2E2E2E2E2E2E2E2E2E2E2E2E2E2E2E2E2E2E2E2E2E2E2E2E2E2E2E2E2E2E2E2E2E2E2E2E2E2E2E2E2E2E2E2E2E2E2E2E2E2E2E2E2E2E2E2E2E2E2E2E2E2E2E2E2E2E2E2E2E2E2E2E2E2E2E2E2E2E2E2E2E2E2E2E2E2E2E2E2E2E2E2E2E2F5E2E2E2E2E2E2E2E2E2E2E2E2E2E2E2E2F5E2E2E2F5F5E2E2E2F5E2E2E2E2
310
E2E2E2E2E2E2E2E2E2E2E2E2F5E2E2E2E2E2E2E2E2E2E2E2E2E2E2E2E2E2E2E2E2E2E2E2E2E2E2E2E2E2E2E2E2E2E2E2E2E2E2E2E2E2E2E2E2E2E2E2E2E2E2E2E2E2E2E2E2E2E2E2E2E2E2E2E2E2E2E2E2E2E2E2E2E2E2E2E2E2E2E2E2E2E2E2E2E2E2E2E2E2E2E2E2E2E2E2E2E2E2E2E2E2E2E2E2E2E2E2E2E2E2E2E2E2E2
310
E2E2E2E2E2E2E2E2E2E2E2E2E2E2E2E2E2E2E2E2E2E2F5E2E2E2E2E2E2E2E2E2E2E2E2E2E2E2E2F5E2E2E2F5F5E2E2E2F5E2E2E2E2E2E2E2E2E2E2E2E2E2E2E2E2F5E2E2E2E2E2E2E2E2E2E2E2E2E2E2E2E2E2E2E2E2E2E2E2E2E2E2E2E2E2E2E2E2E2E2E2E2E2E2E2E2E2E2E2E2E2E2E2E2E2E2E2E2E2E2E2E2E2E2E2E2E2
310
E2E2E2E2E2E2E2E2E2E2E2E2E2E2E2E2E2E2E2E2E2E2E2E2E2E2E2E2E2E2E2E2E2E2E2E2E2E2E2E2E2E2E2E2E2E2E2E2E2E2E2E2E2E2E2E2E2E2E2E2E2E2E2E2E2E2E2E2E2E2E2E2E2E2E2F5E2E2E2E2E2E2E2E2E2E2E2E2E2E2E2E2F5E2E2E2F5F5E2E2E2F5E2E2E2E2E2E2E2E2E2E2E2E2E2E2E2E2F5E2E2E2E2E2E2E2E2
310
E2E2E2E2E2E2E2E2E2E2E2E2E2E2E2E2E2E2E2E2E2E2E2E2E2E2E2E2E2E2E2E2E2E2E2E2E2E2E2E2E2E2E2E2E2E2E2E2E2E2E2E2E2E2E2E2E2E2E2E2E2E2E2E2E2E2E2E2E2E2E2E2E2E2E2E2E2E2E2E2E2E2E2E2E2E2E2E2E2E2E2E2E2E2E2E2E2E2E2E2E2E2E2E2E2E2E2E2E2E2E2E2E2E2E2E2E2E2E2E2E2E2E2E2E2E2E2
310
E2F5E2E2E2E2E2E2E2E2E2E2E2E2E2E2E2E2F5E2E2E2F5F5E2E2E2F5E2E2E2E2E2E2E2E2E2E2E2E2E2E2E2E2F5E2E2E2E2E2E2E2E2E2E2E2E2E2E2E2E2E2E2E2E2E2E2E2E2E2E2E2E2E2E2E2E2E2E2E2E2E2E2E2E2E2E2E2E2E2E2E2E2E2E2E2E2E2E2E2E2E2E2E2E2E2E2E2E2E2E2E2E2E2E2E2E2E2E2E2E2E2E2E2E2E2E2
310
E2E2E2E2E2E2E2E2E2E2E2E2E2E2E2E2E2E2E2E2E2E2E2E2E2E2E2E2E2E2E2E2E2E2E2E2E2E2E2E2E2E2E2E2E2E2E2E2E2E2E2E2E2E2F5E2E2E2E2E2E2E2E2E2E2E2E2E2E2E2E2F5E2E2E2F5F5E2E2E2F5E2E2E2E2E2E2E2E2E2E2E2E2E2E2E2E2F5E2E2E2E2E2E2E2E2E2E2E2E2E2E2E2E2E2E2E2E2E2E2E2E2E2E2E2E2E2
310
E2E2E2E2E2E2E2E2E2E2E2E2E2E2E2E2E2E2E2E2E2E2E2E2E2E2E2E2E2E2E2E2E2E2E2E2E2E2E2E2E2E2E2E2E2E2E2E2E2E2E2E2E2E2E2E2E2E2E2E2E2E2E2E2E2E2E2E2E2E2E2E2E2E2E2E2E2E2E2E2E2E2E2E2E2E2E2E2E2E2E2E2E2E2E2E2E2E2E2E2E2E2E2E2E2E2E2F5E2E2E2E2E2E2E2E2E2E2E2E2E2E2E2E2F5E2E2
310
E2F5F5E2E2E2F5E2E2E2E2E2E2E2E2E2E2E2E2E2E2E2E2F5E2E2E2E2E2E2E2E2E2E2E2E2E2E2E2E2E2E2E2E2E2E2E2E2E2E2E2E2E2E2E2E2E2E2E2E2E2E2E2E2E2E2E2E2E2E2E2E2E2E2E2E2E2E2E2E2E2E2E2E2E2E2E2E2E2E2E2E2E2E2E2E2E2E2E2E2E2E2E2E2E2E2E2E2E2E2E2E2E2E2E2E2E2E2E2E2E2E2E2E2E2E2E2
310
E2E2E2E2E2E2E2E2E2E2E2E2E2E2E2E2E2E2E2E2E2E2E2E2E2E2E2E2E2E2E2E2E2F5E2E2E2E2E2E2E2E2E2E2E2E2E2E2E2E2F5E2E2E2F5F5E2E2E2F5E2E2E2E2E2E2E2E2E2E2E2E2E2E2E2E2F5E2E2E2E2E2E2E2E2E2E2E2E2E2E2E2E2E2E2E2E2E2E2E2E2E2E2E2E2E2E2E2E2E2E2E2E2E2E2E2E2E2E2E2E2E2E2E2E2E2E2
310
E2E2E2E2E2E2E2E2E2E2E2E2E2E2E2E2E2E2E2E2E2E2E2E2E2E2E2E2E2E2E2E2E2E2E2E2E2E2E2E2E2E2E2E2E2E2E2E2E2E2E2E2E2E2E2E2E2E2E2E2E2E2E2E2E2E2E2E2E2E2E2E2E2E2E2E2E2E2E2E2E2E2E2E2E2E2F5E2E2E2E2E2E2E2E2E2E2E2E2E2E2E2E2F5E2E2E2F5F5E2E2E2F5E2E2E2E2E2E2E2E2E2E2E2E2E2E2
310
E2E2F5E2E2E2E2E2E2E2E2E2E2E2E2E2E2E2E2E2E2E2E2E2E2E2E2E2E2E2E2E2E2E2E2E2E2E2E2E2E2E2E2E2E2E2E2E2E2E2E2E2E2E2E2E2E2E2E2E2E2E2E2E2E2E2E2E2E2E2E2E2E2E2E2E2E2E2E2E2E2E2E2E2E2E2E2E2E2E2E2E2E2E2E2E2E2E2E2E2E2E2E2E2E2E2E2E2E2E2E2E2E2E2E2E2E2E2E2E2E2E2E2E2E2E2E2
310
E2E2E2E2E2E2E2E2E2E2E2E2F5E2E2E2E2E2E2E2E2E2E2E2E2E2E2E2E2F5E2E2E2F5F5E2E2E2F5E2E2E2E2E2E2E2E2E2E2E2E2E2E2E2E2F5E2E2E2E2E2E2E2E2E2E2E2E2E2E2E2E2E2E2E2E2E2E2E2E2E2E2E2E2E2E2E2E2E2E2E2E2E2E2E2E2E2E2E2E2E2E2E2E2E2E2E2E2E2E2E2E2E2E2E2E2E2E2E2E2E2E2E2E2E2E2E2
310
E2E2E2E2E2E2E2E2E2E2E2E2E2E2E2E2E2E2E2E2E2E2E2E2E2E2E2E2E2E2E2E2E2E2E2E2E2E2E2E2E2E2E2E2E2E2E2E2E2E2E2E2E2E2E2E2E2E2E2E2E2E2E2E2E2F5E2E2E2E2E2E2E2E2E2E2E2E2E2E2E2E2F5E2E2E2F5F5E2E2E2F5E2E2E2E2E2E2E2E2E2E2E2E2E2E2E2E2F5E2E2E2E2E2E2E2E2E2E2E2E2E2E2E2E2E2E2
310
E2E2E2E2E2E2E2E2E2E2E2E2E2E2E2E2E2E2E2E2E2E2E2E2E2E2E2E2E2E2E2E2E2E2E2E2E2E2E2E2E2E2E2E2E2E2E2E2E2E2E2E2E2E2E2E2E2E2E2E2E2E2E2E2E2E2E2E2E2E2E2E2E2E2E2E2E2E2E2E2E2E2E2E2E2E2E2E2E2E2E2E2E2E2E2E2E2E2E2E2E2E2E2E2E2E2E2E2E2E2E2E2E2E2E2E2E2E2F5E2E2E2E2E2E2E2E2
310
E2E2E2E2E2E2E2E2F5E2E2E2F5F5E2E2E2F5E2E2E2E2E2E2E2E2E2E2E2E2E2E2E2E2F5E2E2E2E2E2E2E2E2E2E2E2E2E2E2E2E2E2E2E2E2E2E2E2E2E2E2E2E2E2E2E2E2E2E2E2E2E2E2E2E2E2E2E2E2E2E2E2E2E2E2E2E2E2E2E2E2E2E2E2E2E2E2E2E2E2E2E2E2E2E2E2E2E2E2E2E2E2E2E2E2E2E2E2E2E2E2E2E2E2E2E2E2
310
E2E2E2E2E2E2E2E2E2E2E2E2E2E2E2E2E2E2E2E2E2E2E2E2E2E2E2E2E2E2E2E2E2E2E2E2E2E2E2E2E2E2E2E2F5E2E2E2E2E2E2E2E2E2E2E2E2E2E2E2E2F5E2E2E2F5F5E2E2E2F5E2E2E2E2E2E2E2E2E2E2E2E2E2E2E2E2F5E2E2E2E2E2E2E2E2E2E2E2E2E2E2E2E2E2E2E2E2E2E2E2E2E2E2E2E2E2E2E2E2E2E2E2E2E2E2E2
310
E2E2E2E2E2E2E2E2E2E2E2E2E2E2E2E2E2E2E2E2E2E2E2E2E2E2E2E2E2E2E2E2E2E2E2E2E2E2E2E2E2E2E2E2E2E2E2E2E2E2E2E2E2E2E2E2E2E2E2E2E2E2E2E2E2E2E2E2E2E2E2E2E2E2E2E2E2E2E2E2E2E2E2E2E2E2E2E2E2E2E2E2E2E2E2E2E2F5E2E2E2E2E2E2E2E2E2E2E2E2E2E2E2E2F5E2E2E2F5F5E2E2E2F5E2E2E2
310
E2E2E2E2E2E2E2E2E2E2E2E2E2F5E2E2E2E2E2E2E2E2E2E2E2E2E2E2E2E2E2E2E2E2E2E2E2E2E2E2E2E2E2E2E2E2E2E2E2E2E2E2E2E2E2E2E2E2E2E2E2E2E2E2E2E2E2E2E2E2E2E2E2E2E2E2E2E2E2E2E2E2E2E2E2E2E2E2E2E2E2E2E2E2E2E2E2E2E2E2E2E2E2E2E2E2E2E2E2E2E2E2E2E2E2E2E2E2E2E2E2E2E2E2E2E2E2
310
E2E2E2E2E2E2E2E2E2E2E2E2E2E2E2E2E2E2E2E2E2E2E2F5E2E2E2E2E2E2E2E2E2E2E2E2E2E2E2E2F5E2E2E2F5F5E2E2E2E2E2E2E2E2E2E2E2E2E2E2E2E2E2E2E2E2F5E2E2E2E2E2E2E2E2E2E2E2E2E2E2E2E2E2E2E2E2E2E2E2E2E2E2E2E2E2E2E2E2E2E2E2E2E2E2E2E2E2E2E2E2E2E2E2E2E2E2E2E2E2E2E2E2E2E2E2E2
310
E2E2E2E2E2E2E2E2E2E2E2E2E2E2E2E2E2E2E2E2E2E2E2E2E2E2E2E2E2E2E2E2E2E2E2E2E2E2E2E2E2E2E2E2E2E2E2E2E2E2E2E2E2E2E2E2E2E2E2E2E2E2E2E2E2E2E2E2E2E2E2E2E2E2E2E2F5E2E2E2E2E2E2E2E2E2E2E2E2E2E2E2E2E2E2E2E2F5F5E2E2E2E2E2E2E2E2E2E2E2E2E2E2E2E2E2E2E2E2F5E2E2E2E2E2E2E2
310
E2E2E2E2E2E2E2E2E2E2E2E2E2E2E2E2E2E2E2E2E2E2E2E2E2E2E2E2E2E2E2E2E2E2E2E2E2E2E2E2E2E2E2E2E2E2E2E2E2E2E2E2E2E2E2E2E2E2E2E2E2E2E2E2E2E2E2E2E2E2E2E2E2E2E2E2E2E2E2E2E2E2E2E2E2E2E2E2E2E2E2E2E2E2E2E2E2E2E2E2E2E2E2E2E2E2E2E2E2E2E2E2E2E2E2E2E2E2E2E2E2E2E2E2E2E2E2
310
E2E2F5E2E2E2E2E2E2E2E2E2E2E2E2E2E2E2E2E2E2E2E2F5F5E2E2E2E2E2E2E2E2E2E2E2E2E2E2E2E2E2E2E2E2F5E2E2E2E2E2E2E2E2E2E2E2E2E2E2E2E2E2E2E2E2E2E2E2E2E2E2E2E2E2E2E2E2E2E2E2E2E2E2E2E2E2E2E2E2E2E2E2E2E2E2E2E2E2E2E2E2E2E2E2E2E2E2E2E2E2E2E2E2E2E2E2E2E2E2E2E2E2E2E2E2E2
310
E2E2E2E2E2E2E2E2E2E2E2E2E2E2E2E2E2E2E2E2E2E2E2E2E2E2E2E2E2E2E2E2E2E2E2E2E2E2E2E2E2E2E2E2E2E2E2E2E2E2E2E2E2E2E2F5E2E2E2E2E2E2E2E2E2E2E2E2E2E2E2E2E2E2E2E2F5F5E2E2E2E2E2E2E2E2E2E2E2E2E2E2E2E2E2E2E2E2F5E2E2E2E2E2E2E2E2E2E2E2E2E2E2E2E2E2E2E2E2E2E2E2E2E2E2E2E2
310
E2E2E2E2E2E2E2E2E2E2E2E2E2E2E2E2E2E2E2E2E2E2E2E2E2E2E2E2E2E2E2E2E2E2E2E2E2E2E2E2E2E2E2E2E2E2E2E2E2E2E2E2E2E2E2E2E2E2E2E2E2E2E2E2E2E2E2E2E2E2E2E2E2E2E2E2E2E2E2E2E2E2E2E2E2E2E2E2E2E2E2E2E2E2E2E2E2E2E2E2E2E2E2E2E2E2E2E2F5E2E2E2E2E2E2E2E2E2E2E2E2E2E2E2E2E2E2
310
E2E2F5F5E2E2E2E2E2E2E2E2E2E2E2E2E2E2E2E2E2E2E2E2F5E2E2E2E2E2E2E2E2E2E2E2E2E2E2E2E2E2E2E2E2E2E2E2E2E2E2E2E2E2E2E2E2E2E2E2E2E2E2E2E2E2E2E2E2E2E2E2E2E2E2E2E2E2E2E2E2E2E2E2E2E2E2E2E2E2E2E2E2E2E2E2E2E2E2E2E2E2E2E2E2E2E2E2E2E2E2E2E2E2E2E2E2E2E2E2E2E2E2E2E2E2E2
310
E2E2E2E2E2E2E2E2E2E2E2E2E2E2E2E2E2E2E2E2E2E2E2E2E2E2E2E2E2E2E2E2E2E2F5E2E2E2E2E2E2E2E2E2E2E2E2E2E2E2E2E2E2E2E2F5F5E2E2E2E2E2E2E2E2E2E2E2E2E2E2E2E2E2E2E2E2F5E2E2E2E2E2E2E2E2E2E2E2E2E2E2E2E2E2E2E2E2E2E2E2E2E2E2E2E2E2E2E2E2E2E2E2E2E2E2E2E2E2E2E2E2E2E2E2E2E2
310
E2E2E2E2E2E2E2E2E2E2E2E2E2E2E2E2E2E2E2E2E2E2E2E2E2E2E2E2E2E2E2E2E2E2E2E2E2E2E2E2E2E2E2E2E2E2E2E2E2E2E2E2E2E2E2E2E2E2E2E2E2E2E2E2E2E2E2E2E2E2E2E2E2E2E2E2E2E2E2E2E2E2E2E2E2E2E2F5E2E2E2E2E2E2E2E2E2E2E2E2E2E2E2E2E2E2E2E2F5F5E2E2E2E2E2E2E2E2E2E2E2E2E2E2E2E2E2
310
E2E2E2F5E2E2E2E2E2E2E2E2E2E2E2E2E2E2E2E2E2E2E2E2E2E2E2E2E2E2E2E2E2E2E2E2E2E2E2E2E2E2E2E2E2E2E2E2E2E2E2E2E2E2E2E2E2E2E2E2E2E2E2E2E2E2E2E2E2E2E2E2E2E2E2E2E2E2E2E2E2E2E2E2E2E2E2E2E2E2E2E2E2E2E2E2E2E2E2E2E2E2E2E2E2E2E2E2E2E2E2E2E2E2E2E2E2E2E2E2E2E2E2E2E2E2E2
310
E2E2E2E2E2E2E2E2E2E2E2E2E2F5E2E2E2E2E2E2E2E2E2E2E2E2E2E2E2E2E2E2E2E2F5F5E2E2E2E2E2E2E2E2E2E2E2E2E2E2E2E2E2E2E2E2F5E2E2E2E2E2E2E2E2E2E2E2E2E2E2E2E2E2E2E2E2E2E2E2E2E2E2E2E2E2E2E2E2E2E2E2E2E2E2E2E2E2E2E2E2E2E2E2E2E2E2E2E2E2E2E2E2E2E2E2E2E2E2E2E2E2E2E2E2E2E2
310
E2E2E2E2E2E2E2E2E2E2E2E2E2E2E2E2E2E2E2E2E2E2E2E2E2E2E2E2E2E2E2E2E2E2E2E2E2E2E2E2E2E2E2E2E2E2E2E2E2E2E2E2E2E2E2E2E2E2E2E2E2E2E2E2E2E2F5E2E2E2E2E2E2E2E2E2E2E2E2E2E2E2E2E2E2E2E2F5F5E2E2E2E2E2E2E2E2E2E2E2E2E2E2E2E2E2E2E2E2F5E2E2E2E2E2E2E2E2E2E2E2E2E2E2E2E2E2
310
E2E2E2E2E2E2E2E2E2E2E2E2E2E2E2E2E2E2E2E2E2E2E2E2E2E2E2E2E2E2E2E2E2E2E2E2E2E2E2E2E2E2E2E2E2E2E2E2E2E2E2E2E2E2E2E2E2E2E2E2E2E2E2E2E2E2E2E2E2E2E2E2E2E2E2E2E2E2E2E2E2E2E2E2E2E2E2E2E2E2E2E2E2E2E2E2E2E2E2E2E2E2E2E2E2E2E2E2E2E2E2E2E2E2E2E2E2E2E2F5E2E2E2E2E2E2E2
310
E2E2E2E2E2E2E2E2E2E2E2E2E2F5F5E2E2E2F5E2E2E2E2E2E2E2E2E2E2E2E2E2E2E2E2F5E2E2E2E2E2E2E2E2E2E2E2E2E2E2E2E2E2E2E2E2E2E2E2E2E2E2E2E2E2E2E2E2E2E2E2E2E2E2E2E2E2E2E2E2E2E2E2E2E2E2E2E2E2E2E2E2E2E2E2E2E2E2E2E2E2E2E2E2E2E2E2E2E2E2E2E2E2E2E2E2E2E2E2E2E2E2E2E2E2E2E2
310
E2E2E2E2E2E2E2E2E2E2E2E2E2E2E2E2E2E2E2E2E2E2E2E2E2E2E2E2E2E2E2E2E2E2E2E2E2E2E2E2E2E2E2E2E2F5E2E2E2E2E2E2E2E2E2E2E2E2E2E2E2E2F5E2E2E2F5F5E2E2E2F5E2E2E2E2E2E2E2E2E2E2E2E2E2E2E2E2F5E2E2E2E2E2E2E2E2E2E2E2E2E2E2E2E2E2E2E2E2E2E2E2E2E2E2E2E2E2E2E2E2E2E2E2E2E2E2
310
E2E2E2E2E2E2E2E2E2E2E2E2E2E2E2E2E2E2E2E2E2E2E2E2E2E2E2E2E2E2E2E2E2E2E2E2E2E2E2E2E2E2E2E2E2E2E2E2E2E2E2E2E2E2E2E2E2E2E2E2E2E2E2E2E2E2E2E2E2E2E2E2E2E2E2E2E2E2E2E2E2E2E2E2E2E2E2E2E2E2E2E2E2E2E2E2E2E2F5E2E2E2E2E2E2E2E2E2E2E2E2E2E2E2E2F5E2E2E2F5F5E2E2E2F5E2E2
310
E2E2E2E2E2E2E2E2E2E2E2E2E2E2F5E2E2E2E2E2E2E2E2E2E2E2E2E2E2E2E2E2E2E2E2E2E2E2E2E2E2E2E2E2E2E2E2E2E2E2E2E2E2E2E2E2E2E2E2E2E2E2E2E2E2E2E2E2E2E2E2E2E2E2E2E2E2E2E2E2E2E2E2E2E2E2E2E2E2E2E2E2E2E2E2E2E2E2E2E2E2E2E2E2E2E2E2E2E2E2E2E2E2E2E2E2E2E2E2E2E2E2E2E2E2E2E2
310
E2E2E2E2E2E2E2E2E2E2E2E2E2E2E2E2E2E2E2E2E2E2E2E2F5E2E2E2E2E2E2E2E2E2E2E2E2E2E2E2E2F5E2E2E2F5F5E2E2E2F5E2E2E2E2E2E2E2E2E2E2E2E2E2E2E2E2F5E2E2E2E2E2E2E2E2E2E2E2E2E2E2E2E2E2E2E2E2E2E2E2E2E2E2E2E2E2E2E2E2E2E2E2E2E2E2E2E2E2E2E2E2E2E2E2E2E2E2E2E2E2E2E2E2E2E2E2
310
E2E2E2E2E2E2E2E2E2E2E2E2E2E2E2E2E2E2E2E2E2E2E2E2E2E2E2E2E2E2E2E2E2E2E2E2E2E2E2E2E2E2E2E2E2E2E2E2E2E2E2E2E2E2E2E2E2E2E2E2E2E2E2E2E2E2E2E2E2E2E2E2E2E2E2E2E2F5E2E2E2E2E2E2E2E2E2E2E2E2E2E2E2E2F5E2E2E2F5F5E2E2E2F5E2E2E2E2E2E2E2E2E2E2E2E2E2E2E2E2F5E2E2E2E2E2E2
310
E2E2E2E2E2E2E2E2E2E2E2E2E2E2E2E2E2E2E2E2E2E2E2E2E2E2E2E2E2E2E2E2E2E2E2E2E2E2E2E2E2E2E2E2E2E2E2E2E2E2E2E2E2E2E2E2E2E2E2E2E2E2E2E2E2E2E2E2E2E2E2E2E2E2E2E2E2E2E2E2E2E2E2E2E2E2E2E2E2E2E2E2E2E2E2E2E2E2E2E2E2E2E2E2E2E2E2E2E2E2E2E2E2E2E2E2E2E2E2E2E2E2E2E2E2E2E2
310
E2E2E2F5E2E2E2E2E2E2E2E2E2E2E2E2E2E2E2E2F5E2E2E2F5F5E2E2E2F5E2E2E2E2E2E2E2E2E2E2E2E2E2E2E2E2F5E2E2E2E2E2E2E2E2E2E2E2E2E2E2E2E2E2E2E2E2E2E2E2E2E2E2E2E2E2E2E2E2E2E2E2E2E2E2E2E2E2E2E2E2E2E2E2E2E2E2E2E2E2E2E2E2E2E2E2E2E2E2E2E2E2E2E2E2E2E2E2E2E2E2E2E2E2E2E2E2
310
E2E2E2E2E2E2E2E2E2E2E2E2E2E2E2E2E2E2E2E2E2E2E2E2E2E2E2E2E2E2E2E2E2E2E2E2E2E2E2E2E2E2E2E2E2E2E2E2E2E2E2E2E2E2E2E2F5E2E2E2E2E2E2E2E2E2E2E2E2E2E2E2E2F5E2E2E2F5F5E2E2E2F5E2E2E2E2E2E2E2E2E2E2E2E2E2E2E2E2F5E2E2E2E2E2E2E2E2E2E2E2E2E2E2E2E2E2E2E2E2E2E2E2E2E2E2E2
310
E2E2E2E2E2E2E2E2E2E2E2E2E2E2E2E2E2E2E2E2E2E2E2E2E2E2E2E2E2E2E2E2E2E2E2E2E2E2E2E2E2E2E2E2E2E2E2E2E2E2E2E2E2E2E2E2E2E2E2E2E2E2E2E2E2E2E2E2E2E2E2E2E2E2E2E2E2E2E2E2E2E2E2E2E2E2E2E2E2E2E2E2E2E2E2E2E2E2E2E2E2E2E2E2E2E2E2E2E2F5E2E2E2E2E2E2E2E2E2E2E2E2E2E2E2E2F5
310
E2E2E2F5F5E2E2E2F5E2E2E2E2E2E2E2E2E2E2E2E2E2E2E2E2F5E2E2E2E2E2E2E2E2E2E2E2E2E2E2E2E2E2E2E2E2E2E2E2E2E2E2E2E2E2E2E2E2E2E2E2E2E2E2E2E2E2E2E2E2E2E2E2E2E2E2E2E2E2E2E2E2E2E2E2E2E2E2E2E2E2E2E2E2E2E2E2E2E2E2E2E2E2E2E2E2E2E2E2E2E2E2E2E2E2E2E2E2E2E2E2E2E2E2E2E2E2
310
E2E2E2E2E2E2E2E2E2E2E2E2E2E2E2E2E2E2E2E2E2E2E2E2E2E2E2E2E2E2E2E2E2E2E2F5E2E2E2E2E2E2E2E2E2E2E2E2E2E2E2E2F5E2E2E2F5F5E2E2E2F5E2E2E2E2E2E2E2E2E2E2E2E2E2E2E2E2F5E2E2E2E2E2E2E2E2E2E2E2E2E2E2E2E2E2E2E2E2E2E2E2E2E2E2E2E2E2E2E2E2E2E2E2E2E2E2E2E2E2E2E2E2E2E2E2E2
310
E2E2E2E2E2E2E2E2E2E2E2E2E2E2E2E2E2E2E2E2E2E2E2E2E2E2E2E2E2E2E2E2E2E2E2E2E2E2E2E2E2E2E2E2E2E2E2E2E2E2E2E2E2E2E2E2E2E2E2E2E2E2E2E2E2E2E2E2E2E2E2E2E2E2E2E2E2E2E2E2E2E2E2E2E2E2E2E2F5E2E2E2E2E2E2E2E2E2E2E2E2E2E2E2E2F5E2E2E2F5F5E2E2E2F5E2E2E2E2E2E2E2E2E2E2E2E2
310
E2E2E2E2F5E2E2E2E2E2E2E2E2E2E2E2E2E2E2E2E2E2E2E2E2E2E2E2E2E2E2E2E2E2E2E2E2E2E2E2E2E2E2E2E2E2E2E2E2E2E2E2E2E2E2E2E2E2E2E2E2E2E2E2E2E2E2E2E2E2E2E2E2E2E2E2E2E2E2E2E2E2E2E2E2E2E2E2E2E2E2E2E2E2E2E2E2E2E2E2E2E2E2E2E2E2E2E2E2E2E2E2E2E2E2E2E2E2E2E2E2E2E2E2E2E2E2
310
E2E2E2E2E2E2E2E2E2E2E2E2E2E2F5E2E2E2E2E2E2E2E2E2E2E2E2E2E2E2E2F5E2E2E2F5F5E2E2E2F5E2E2E2E2E2E2E2E2E2E2E2E2E2E2E2E2F5E2E2E2E2E2E2E2E2E2E2E2E2E2E2E2E2E2E2E2E2E2E2E2E2E2E2E2E2E2E2E2E2E2E2E2E2E2E2E2E2E2E2E2E2E2E2E2E2E2E2E2E2E2E2E2E2E2E2E2E2E2E2E2E2E2E2E2E2E2
310
E2E2E2E2E2E2E2E2E2E2E2E2E2E2E2E2E2E2E2E2E2E2E2E2E2E2E2E2E2E2E2E2E2E2E2E2E2E2E2E2E2E2E2E2E2E2E2E2E2E2E2E2E2E2E2E2E2E2E2E2E2E2E2E2E2E2E2F5E2E2E2E2E2E2E2E2E2E2E2E2E2E2E2E2F5E2E2E2F5F5E2E2E2F5E2E2E2E2E2E2E2E2E2E2E2E2E2E2E2E2F5E2E2E2E2E2E2E2E2E2E2E2E2E2E2E2E2
310
E2E2E2E2E2E2E2E2E2E2E2E2E2E2E2E2E2E2E2E2E2E2E2E2E2E2E2E2E2E2E2E2E2E2E2E2E2E2E2E2E2E2E2E2E2E2E2E2E2E2E2E2E2E2E2E2E2E2E2E2E2E2E2E2E2E2E2E2E2E2E2E2E2E2E2E2E2E2E2E2E2E2E2E2E2E2E2E2E2E2E2E2E2E2E2E2E2E2E2E2E2E2E2E2E2E2E2E2E2E2E2E2E2E2E2E2E2E2E2E2F5E2E2E2E2E2E2
310
E2E2E2E2E2E2E2E2E2E2F5E2E2E2F5F5E2E2E2F5E2E2E2E2E2E2E2E2E2E2E2E2E2E2E2E2F5E2E2E2E2E2E2E2E2E2E2E2E2E2E2E2E2E2E2E2E2E2E2E2E2E2E2E2E2E2E2E2E2E2E2E2E2E2E2E2E2E2E2E2E2E2E2E2E2E2E2E2E2E2E2E2E2E2E2E2E2E2E2E2E2E2E2E2E2E2E2E2E2E2E2E2E2E2E2E2E2E2E2E2E2E2E2E2E2E2E2
310
E2E2E2E2E2E2E2E2E2E2E2E2E2E2E2E2E2E2E2E2E2E2E2E2E2E2E2E2E2E2E2E2E2E2E2E2E2E2E2E2E2E2E2E2E2E2F5E2E2E2E2E2E2E2E2E2E2E2E2E2E2E2E2F5E2E2E2F5F5E2E2E2F5E2E2E2E2E2E2E2E2E2E2E2E2E2E2E2E2F5E2E2E2E2E2E2E2E2E2E2E2E2E2E2E2E2E2E2E2E2E2E2E2E2E2E2E2E2E2E2E2E2E2E2E2E2E2
310
E2E2E2E2E2E2E2E2E2E2E2E2E2E2E2E2E2E2E2E2E2E2E2E2E2E2E2E2E2E2E2E2E2E2E2E2E2E2E2E2E2E2E2E2E2E2E2E2E2E2E2E2E2E2E2E2E2E2E2E2E2E2E2E2E2E2E2E2E2E2E2E2E2E2E2E2E2E2E2E2E2E2E2E2E2E2E2E2E2E2E2E2E2E2E2E2E2E2E2F5E2E2E2E2E2E2E2E2E2E2E2E2E2E2E2E2F5E2E2E2F5F5E2E2E2F5E2
310
E2E2E2E2E2E2E2E2E2E2E2E2E2E2E2F5E2E2E2E2E2E2E2E2E2E2E2E2E2E2E2E2E2E2E2E2E2E2E2E2E2E2E2E2E2E2E2E2E2E2E2E2E2E2E2E2E2E2E2E2E2E2E2E2E2E2E2E2E2E2E2E2E2E2E2E2E2E2E2E2E2E2E2E2E2E2E2E2E2E2E2E2E2E2E2E2E2E2E2E2E2E2E2E2E2E2E2E2E2E2E2E2E2E2E2E2E2E2E2E2E2E2E2E2E2E2E2
310
E2E2E2E2E2E2E2E2E2E2E2E2E2E2E2E2E2E2E2E2E2E2E2E2E2F5E2E2E2E2E2E2E2E2E2E2E2E2E2E2E2E2F5E2E2E2F5F5E2E2E2F5E2E2E2E2E2E2E2E2E2E2E2E2E2E2E2E2F5E2E2E2E2E2E2E2E2E2E2E2E2E2E2E2E2E2E2E2E2E2E2E2E2E2E2E2E2E2E2E2E2E2E2E2E2E2E2E2E2E2E2E2E2E2E2E2E2E2E2E2E2E2E2E2E2E2E2
310
E2E2E2E2E2E2E2E2E2E2E2E2E2E2E2E2E2E2E2E2E2E2E2E2E2E2E2E2E2E2E2E2E2E2E2E2E2E2E2E2E2E2E2E2E2E2E2E2E2E2E2E2E2E2E2E2E2E2E2E2E2E2E2E2E2E2E2E2E2E2E2E2E2E2E2E2E2E2F5E2E2E2E2E2E2E2E2E2E2E2E2E2E2E2E2F5E2E2E2F5F5E2E2E2F5E2E2E2E2E2E2E2E2E2E2E2E2E2E2E2E2F5E2E2E2E2E2
310
E2E2E2E2E2E2E2E2E2E2E2E2E2E2E2E2E2E2E2E2E2E2E2E2E2E2E2E2E2E2E2E2E2E2E2E2E2E2E2E2E2E2E2E2E2E2E2E2E2E2E2E2E2E2E2E2E2E2E2E2E2E2E2E2E2E2E2E2E2E2E2E2E2E2E2E2E2E2E2E2E2E2E2E2E2E2E2E2E2E2E2E2E2E2E2E2E2E2E2E2E2E2E2E2E2E2E2E2E2E2E2E2E2E2E2E2E2E2E2E2E2E2E2E2E2E2E2
310
E2E2E2E2F5E2E2E2E2E2E2E2E2E2E2E2E2E2E2E2E2F5E2E2E2F5F5E2E2E2E2E2E2E2E2E2E2E2E2E2E2E2E2E2E2E2E2F5E2E2E2E2E2E2E2E2E2E2E2E2E2E2E2E2E2E2E2E2E2E2E2E2E2E2E2E2E2E2E2E2E2E2E2E2E2E2E2E2E2E2E2E2E2E2E2E2E2E2E2E2E2E2E2E2E2E2E2E2E2E2E2E2E2E2E2E2E2E2E2E2E2E2E2E2E2E2E2
310
E2E2E2E2E2E2E2E2E2E2E2E2E2E2E2E2E2E2E2E2E2E2E2E2E2E2E2E2E2E2E2E2E2E2E2E2E2E2E2E2E2E2E2E2E2E2E2E2E2E2E2E2E2E2E2E2E2F5E2E2E2E2E2E2E2E2E2E2E2E2E2E2E2E2E2E2E2E2F5F5E2E2E2E2E2E2E2E2E2E2E2E2E2E2E2E2E2E2E2E2F5E2E2E2E2E2E2E2E2E2E2E2E2E2E2E2E2E2E2E2E2E2E2E2E2E2E2
310
E2E2E2E2E2E2E2E2E2E2E2E2E2E2E2E2E2E2E2E2E2E2E2E2E2E2E2E2E2E2E2E2E2E2E2E2E2E2E2E2E2E2E2E2E2E2E2E2E2E2E2E2E2E2E2E2E2E2E2E2E2E2E2E2E2E2E2E2E2E2E2E2E2E2E2E2E2E2E2E2E2E2E2E2E2E2E2E2E2E2E2E2E2E2E2E2E2E2E2E2E2E2E2E2E2E2E2E2E2E2F5E2E2E2E2E2E2E2E2E2E2E2E2E2E2E2E2
310
E2E2E2E2F5F5E2E2E2E2E2E2E2E2E2E2E2E2E2E2E2E2E2E2E2E2F5E2E2E2E2E2E2E2E2E2E2E2E2E2E2E2E2E2E2E2E2E2E2E2E2E2E2E2E2E2E2E2E2E2E2E2E2E2E2E2E2E2E2E2E2E2E2E2E2E2E2E2E2E2E2E2E2E2E2E2E2E2E2E2E2E2E2E2E2E2E2E2E2E2E2E2E2E2E2E2E2E2E2E2E2E2E2E2E2E2E2E2E2E2E2E2E2E2E2E2E2
310
E2E2E2E2E2E2E2E2E2E2E2E2E2E2E2E2E2E2E2E2E2E2E2E2E2E2E2E2E2E2E2E2E2E2E2E2F5E2E2E2E2E2E2E2E2E2E2E2E2E2E2E2E2E2E2E2E2F5F5E2E2E2E2E2E2E2E2E2E2E2E2E2E2E2E2E2E2E2E2F5E2E2E2E2E2E2E2E2E2E2E2E2E2E2E2E2E2E2E2E2E2E2E2E2E2E2E2E2E2E2E2E2E2E2E2E2E2E2E2E2E2E2E2E2E2E2E2
310
E2E2E2E2E2E2E2E2E2E2E2E2E2E2E2E2E2E2E2E2E2E2E2E2E2E2E2E2E2E2E2E2E2E2E2E2E2E2E2E2E2E2E2E2E2E2E2E2E2E2E2E2E2E2E2E2E2E2E2E2E2E2E2E2E2E2E2E2E2E2E2E2E2E2E2E2E2E2E2E2E2E2E2E2E2E2E2E2E2F5E2E2E2E2E2E2E2E2E2E2E2E2E2E2E2E2E2E2E2E2F5F5E2E2E2E2E2E2E2E2E2E2E2E2E2E2E2
310
E2E2E2E2E2F5F5F5F5F5F5F5F5F5F5F5F5F5F5F5F5F5F5F5F5F5F5F5F5F5F5F5F5F5F5F5F5F5F5F5F5F5F5F5F5F5F5F5F5F5F5F5F5F5F5F5F5F5F5F5F5F5F5F5F5F5F5F5F5F5F5F5F5F5F5F5F5F5F5F5F5F5F5F5F5F5F5F5F5F5F5F5F5F5F5F5F5F5F5F5F5F5F5F5F5F5F5F5F5F5F5F5F5F5F5F5F5F5F5F5F5F5F5F5F5F5F5
310
F5F5F5F5F5F5F5F5F5F5F5F5F5F5F5F5E2E2E2E2E2E2E2E2E2E2E2E2E2E2E2E2E2E2E2E2F5F5E2E2E2E2E2E2E2E2E2E2E2E2E2E2E2E2E2E2E2E2E2E2E2E2E2E2E2E2E2E2E2E2E2E2E2E2E2E2E2E2E2E2E2E2E2E2E2E2E2E2E2E2E2E2E2E2E2E2E2E2E2E2E2E2E2E2E2E2E2E2E2E2E2E2E2E2E2E2E2E2E2E2E2E2E2E2E2E2E2
310
E2E2E2E2E2E2E2E2E2E2E2E2E2E2E2E2E2E2E2E2E2E2E2E2E2E2E2E2E2E2E2E2E2E2E2E2E2E2E2E2E2E2E2E2E2E2E2E2E2E2E2E2E2E2E2E2E2E2E2E2E2E2E2E2E2E2E2E2E2E2E2E2E2E2E2E2E2E2E2E2E2E2E2E2E2E2E2E2E2F5F5E2E2E2E2E2E2E2E2E2E2E2E2E2E2E2E2E2E2E2E2E2E2E2E2E2E2E2E2E2E2E2E2E2E2E2E2
310
E2E2E2E2E2E2E2E2E2E2E2E2E2E2E2E2E2E2E2E2E2E2E2E2E2E2E2E2E2E2E2E2E2E2E2E2E2E2E2E2E2E2E2E2E2E2E2E2E2E2E2E2E2E2E2E2E2E2E2E2E2E2E2E2E2E2E2E2E2E2E2E2E2E2E2E2E2E2E2E2E2E2E2E2E2E2E2E2E2E2E2E2E2E2E2E2E2E2E2E2E2E2E2E2E2E2E2E2E2E2E2E2E2E2E2E2E2E2E2E2E2E2E2E2E2E2E2
310
E2E2E2E2E2E2E2E2E2E2E2E2E2E2E2F5F5E2E2E2E2E2E2E2E2E2E2E2E2E2E2E2E2E2E2E2E2E2E2E2E2E2E2E2E2E2E2E2E2E2E2E2E2E2E2E2E2E2E2E2E2E2E2E2E2E2E2E2E2E2E2E2E2E2E2E2E2E2E2E2E2E2E2E2E2E2E2E2E2E2E2E2E2E2E2E2E2E2E2E2E2E2E2E2E2E2E2E2E2E2E2E2E2E2E2E2E2E2E2E2E2E2E2E2E2E2E2
310
E2E2E2E2E2E2E2E2E2E2E2E2E2E2E2E2E2E2E2E2E2E2E2E2E2E2E2E2E2E2E2E2E2E2E2E2E2E2E2E2E2E2E2E2E2E2E2E2E2E2E2E2E2E2E2E2E2E2E2E2E2E2E2E2E2E2E2E2F5F5E2E2E2E2E2E2E2E2E2E2E2E2E2E2E2E2E2E2E2E2E2E2E2E2E2E2E2E2E2E2E2E2E2E2E2E2E2E2E2E2E2E2E2E2E2E2E2E2E2E2E2E2E2E2E2E2E2
310
E2E2E2E2E2E2E2E2E2E2E2E2E2E2E2E2E2E2E2E2E2E2E2E2E2E2E2E2E2E2E2E2E2E2E2E2E2E2E2E2E2E2E2E2E2E2E2E2E2E2E2E2E2E2E2E2E2E2E2E2E2E2E2E2E2E2E2E2E2E2E2E2E2E2E2E2E2E2E2E2E2E2E2E2E2E2E2E2E2E2E2E2E2E2E2E2E2E2E2E2E2E2E2E2E2E2E2E2E2E2E2E2E2E2E2E2E2E2E2E2E2F5F5E2E2E2F5
310
E2E2E2E2E2E2E2E2E2E2E2E2E2E2E2E2E2E2E2E2E2E2E2E2E2E2E2E2E2E2E2E2E2E2E2E2E2E2E2E2E2E2E2E2E2E2E2E2E2E2E2E2E2E2E2E2E2E2E2E2E2E2E2E2E2E2E2E2E2E2E2E2E2E2E2E2E2E2E2E2E2E2E2E2E2E2E2E2E2E2E2E2E2E2E2E2E2E2E2E2E2E2E2E2E2E2E2E2E2E2E2E2E2E2E2E2E2E2E2E2E2E2E2E2E2E2E2
310
E2E2E2E2E2E2E2E2E2E2E2E2E2E2E2E2E2E2E2E2E2E2E2E2E2E2E2E2E2E2E2E2E2E2E2E2E2E2E2E2E2E2E2F5E2E2E2F5F5E2E2E2F5E2E2E2E2E2E2E2E2E2E2E2E2E2E2E2E2E2E2E2E2E2E2E2E2E2E2E2E2E2E2E2E2E2E2E2E2E2E2E2E2E2E2E2E2E2E2E2E2E2E2E2E2E2E2E2E2E2E2E2E2E2E2E2E2E2E2E2E2E2E2E2E2E2E2
310
E2E2E2E2E2E2E2E2E2E2E2E2E2E2E2E2E2E2E2E2E2E2E2E2E2E2E2E2E2E2E2E2E2E2E2E2E2E2E2E2E2E2E2E2E2E2E2E2E2E2E2E2E2E2E2E2E2E2E2E2E2E2E2E2E2E2E2E2E2E2E2E2E2E2E2E2E2E2E2E2E2E2E2E2E2E2E2E2E2E2E2E2E2E2E2E2F5E2E2E2F5F5E2E2E2F5E2E2E2E2E2E2E2E2E2E2E2E2E2E2E2E2E2E2E2E2E2
310
E2E2E2E2E2E2E2E2E2E2E2E2E2E2E2E2E2E2E2E2E2E2E2E2E2E2E2E2E2E2E2E2E2E2E2E2E2E2E2E2E2E2E2E2E2E2E2E2E2E2E2E2E2E2E2E2E2E2E2E2E2E2E2E2E2E2E2E2E2E2E2E2E2E2E2E2E2E2E2E2E2E2E2E2E2E2E2E2E2E2E2E2E2E2E2E2E2E2E2E2E2E2E2E2E2E2E2E2E2E2E2E2E2E2E2E2E2E2E2E2E2E2E2E2E2E2E2
310
E2E2E2E2E2E2E2E2E2E2E2E2E2E2E2E2E2E2E2E2E2E2F5E2E2E2F5F5E2E2E2F5E2E2E2E2E2E2E2E2E2E2E2E2E2E2E2E2E2E2E2E2E2E2E2E2E2E2E2E2E2E2E2E2E2E2E2E2E2E2E2E2E2E2E2E2E2E2E2E2E2E2E2E2E2E2E2E2E2E2E2E2E2E2E2E2E2E2E2E2E2E2E2E2E2E2E2E2E2E2E2E2E2E2E2E2E2E2E2E2E2E2E2E2E2E2E2
310
E2E2E2E2E2E2E2E2E2E2E2E2E2E2E2E2E2E2E2E2E2E2E2E2E2E2E2E2E2E2E2E2E2E2E2E2E2E2E2E2E2E2E2E2E2E2E2E2E2E2E2E2E2E2E2E2E2E2E2E2E2E2E2E2E2E2E2E2E2E2E2E2E2E2E2F5E2E2E2F5F5E2E2E2F5E2E2E2E2E2E2E2E2E2E2E2E2E2E2E2E2E2E2E2E2E2E2E2E2E2E2E2E2E2E2E2E2E2E2E2E2E2E2E2E2E2E2
310
E2E2E2E2E2E2E2E2E2E2E2E2E2E2E2E2E2E2E2E2E2E2E2E2E2E2E2E2E2E2E2E2E2E2E2E2E2E2E2E2E2E2E2E2E2E2E2E2E2E2E2E2E2E2E2E2E2E2E2E2E2E2E2E2E2E2E2E2E2E2E2E2E2E2E2E2E2E2E2E2E2E2E2E2E2E2E2E2E2E2E2E2E2E2E2E2E2E2E2E2E2E2E2E2E2E2E2E2E2E2E2E2E2E2E2E2E2E2E2E2E2E2E2E2E2E2E2
310
E2F5E2E2E2F5F5E2E2E2F5E2E2E2E2E2E2E2E2E2E2E2E2E2E2E2E2E2E2E2E2E2E2E2E2E2E2E2E2E2E2E2E2E2E2E2E2E2E2E2E2E2E2E2E2E2E2E2E2E2E2E2E2E2E2E2E2E2E2E2E2E2E2E2E2E2E2E2E2E2E2E2E2E2E2E2E2E2E2E2E2E2E2E2E2E2E2E2E2E2E2E2E2E2E2E2E2E2E2E2E2E2E2E2E2E2E2E2E2E2E2E2E2E2E2E2E2
310
E2E2E2E2E2E2E2E2E2E2E2E2E2E2E2E2E2E2E2E2E2E2E2E2E2E2E2E2E2E2E2E2E2E2E2E2E2E2E2E2E2E2E2E2E2E2E2E2E2E2E2E2E2E2F5E2E2E2F5F5E2E2E2F5E2E2E2E2E2E2E2E2E2E2E2E2E2E2E2E2E2E2E2E2E2E2E2E2E2E2E2E2E2E2E2E2E2E2E2E2E2E2E2E2E2E2E2E2E2E2E2E2E2E2E2E2E2E2E2E2E2E2E2E2E2E2E2
310
E2E2E2E2E2E2E2E2E2E2E2E2E2E2E2E2E2E2E2E2E2E2E2E2E2E2E2E2E2E2E2E2E2E2E2E2E2E2E2E2E2E2E2E2E2E2E2E2E2E2E2E2E2E2E2E2E2E2E2E2E2E2E2E2E2E2E2E2E2E2E2E2E2E2E2E2E2E2E2E2E2E2E2E2E2E2E2E2E2E2E2E2E2E2E2E2E2E2E2E2E2E2E2E2E2E2E2F5E2E2E2F5F5E2E2E2F5E2E2E2E2E2E2E2E2E2E2
310
E2E2E2E2E2E2E2E2E2E2E2E2E2E2E2E2E2E2E2E2E2E2E2E2E2E2E2E2E2E2E2E2E2E2E2E2E2E2E2E2E2E2E2E2E2E2E2E2E2E2E2E2E2E2E2E2E2E2E2E2E2E2E2E2E2E2E2E2E2E2E2E2E2E2E2E2E2E2E2E2E2E2E2E2E2E2E2E2E2E2E2E2E2E2E2E2E2E2E2E2E2E2E2E2E2E2E2E2E2E2E2E2E2E2E2E2E2E2E2E2E2E2E2E2E2E2E2
310
E2E2E2E2E2E2E2E2E2E2E2E2E2E2E2E2E2E2E2E2E2E2E2E2E2E2E2E2E2E2E2E2E2F5E2E2E2F5F5E2E2E2F5F5F5F5F5F5F5F5E2E2E2E2E2E2E2E2E2F5F5F5F5F5F5F5F5F5F5F5F5F5F5F5F5E2E2E2E2E2E2E2E2E2F5F5F5F5F5F5F5F5F5F5F5F5F5F5F5E2E2E2E2E2E2E2E2E2F5F5F5F5F5F5F5F5F5F5F5F5F5F5F5F5E2E2E2
310
E2E2E2E2E2F5F5F5F5F5F5F5F5F5F5F5F5F5F5F5F5E2E2E2E2E2E2E2E2E2F5F5F5F5F5F5F5F5F5F5F5F5F5F5F5E2E2E2E2E2E2E2E2E2F5F5F5F5F5F5F5F5F5F5F5F5F5F5F5F5E2E2E2E2E2E2E2E2E2F5F5F5F5F5F5F5F5E2E2E2F5F5E2E2E2E2E2E2E2E2E2E2E2E2E2E2E2E2E2E2E2E2E2E2E2E2E2E2E2E2E2E2E2E2E2E2E2
310
E2E2E2E2E2E2E2E2E2E2E2E2E2E2E2E2E2E2E2E2E2E2E2E2E2E2E2E2E2E2E2E2E2E2E2E2E2E2E2E2E2E2E2E2E2E2E2E2E2E2E2E2E2E2E2E2E2E2E2E2E2E2E2E2E2E2E2E2E2E2E2E2E2E2E2E2E2E2E2E2E2E2E2E2E2E2E2E2E2E2E2E2E2E2E2E2E2E2E2E2E2E2E2E2E2E2E2E2E2E2E2E2E2E2E2E2E2E2E2E2E2E2E2E2E2E2E2
310
E2E2E2E2E2E2E2E2E2E2E2E2E2E2E2E2F5F5E2E2E2E2E2E2E2E2E2E2E2E2E2E2E2E2E2E2E2E2E2E2E2E2E2E2E2E2E2E2E2E2E2E2E2E2E2E2E2E2E2E2E2E2E2E2E2E2E2E2E2E2E2E2E2E2E2E2E2E2E2E2E2E2E2E2E2E2E2E2E2E2E2E2E2E2E2E2E2E2E2E2E2E2E2E2E2E2E2E2E2E2E2E2E2E2E2E2E2E2E2E2E2E2E2E2E2E2E2
310
E2E2E2E2E2E2E2E2E2E2E2E2E2E2E2E2E2E2E2E2E2E2E2E2E2E2E2E2E2E2E2E2E2E2E2E2E2E2E2E2E2E2E2E2E2E2E2E2E2E2E2E2E2E2E2E2E2E2E2E2E2E2E2E2E2E2E2E2E2F5F5E2E2E2E2E2E2E2E2E2E2E2E2E2E2E2E2E2E2E2E2E2E2E2E2E2E2E2E2E2E2E2E2E2E2E2E2E2E2E2E2E2E2E2E2E2E2E2E2E2E2E2E2E2E2E2E2
310
E2E2E2E2E2E2E2E2E2E2E2E2E2E2E2E2E2E2E2E2E2E2E2E2E2E2E2E2E2E2E2E2E2E2E2E2E2E2E2E2E2E2E2E2E2E2E2E2E2E2E2E2E2E2E2E2E2E2E2E2E2E2E2E2E2E2E2E2E2E2E2E2E2E2E2E2E2E2E2E2E2E2E2E2E2E2E2E2E2E2E2E2E2E2E2E2E2E2E2E2E2E2E2E2E2E2E2E2E2E2E2E2E2E2E2E2E2E2E2E2E2E2F5F5E2E2E2
310
E2E2E2E2E2E2E2E2E2E2E2E2E2E2E2E2E2E2E2E2E2E2E2E2E2E2E2E2E2E2E2E2E2E2E2E2E2E2E2E2E2E2E2E2E2E2E2E2E2E2E2E2E2E2E2E2E2E2E2E2E2E2E2E2E2E2E2E2E2E2E2E2E2E2E2E2E2E2E2E2E2E2E2E2E2E2E2E2E2E2E2E2E2E2E2E2E2E2E2E2E2E2E2E2E2E2E2E2E2E2E2E2E2E2E2E2E2E2E2E2E2E2E2E2E2E2E2
310
E2E2E2E2E2E2E2E2E2E2E2E2E2E2E2E2E2E2E2E2E2E2E2E2E2E2E2E2E2E2E2E2E2E2E2E2E2E2E2E2E2E2E2E2E2E2E2E2F5
  0
XRECORD
  5
613E1
102
{ACAD_REACTORS
330
613E0
102
}
330
613E0
100
AcDbXrecord
280
     1
102
SHADEPLOT
 70
     0
102
SHADEPLOTRESLEVEL
 70
     2
102
SHADEPLOTCUSTOMDPI
 70
   300
  0
ENDSEC
  0
EOF
