  0
SECTION
  2
HEADER
  9
$ACADVER
  1
AC1015
  9
$ACADMAINTVER
 70
    20
  9
$DWGCODEPAGE
  3
ANSI_936
  9
$INSBASE
 10
0.0
 20
0.0
 30
0.0
  9
$EXTMIN
 10
-207.1336412165575
 20
-172.43367676095
 30
0.0
  9
$EXTMAX
 10
358.5795235932718
 20
98.57378453863365
 30
0.0
  9
$LIMMIN
 10
0.0
 20
0.0
  9
$LIMMAX
 10
420.0
 20
297.0
  9
$ORTHOMODE
 70
     0
  9
$REGENMODE
 70
     1
  9
$FILLMODE
 70
     1
  9
$QTEXTMODE
 70
     0
  9
$MIRRTEXT
 70
     1
  9
$LTSCALE
 40
1.0
  9
$ATTMODE
 70
     1
  9
$TEXTSIZE
 40
3.5
  9
$TRACEWID
 40
1.0
  9
$TEXTSTYLE
  7
simplex
  9
$CLAYER
  8
0
  9
$CELTYPE
  6
ByLayer
  9
$CECOLOR
 62
   256
  9
$CELTSCALE
 40
1.0
  9
$DISPSILH
 70
     0
  9
$DIMSCALE
 40
0.0
  9
$DIMASZ
 40
3.5
  9
$DIMEXO
 40
0.0
  9
$DIMDLI
 40
0.38
  9
$DIMRND
 40
0.0
  9
$DIMDLE
 40
0.0
  9
$DIMEXE
 40
1.5
  9
$DIMTP
 40
0.0
  9
$DIMTM
 40
0.0
  9
$DIMTXT
 40
3.5
  9
$DIMCEN
 40
0.09
  9
$DIMTSZ
 40
0.0
  9
$DIMTOL
 70
     0
  9
$DIMLIM
 70
     0
  9
$DIMTIH
 70
     0
  9
$DIMTOH
 70
     0
  9
$DIMSE1
 70
     0
  9
$DIMSE2
 70
     0
  9
$DIMTAD
 70
     1
  9
$DIMZIN
 70
     8
  9
$DIMBLK
  1

  9
$DIMASO
 70
     1
  9
$DIMSHO
 70
     1
  9
$DIMPOST
  1

  9
$DIMAPOST
  1

  9
$DIMALT
 70
     0
  9
$DIMALTD
 70
     2
  9
$DIMALTF
 40
25.4
  9
$DIMLFAC
 40
1.0
  9
$DIMTOFL
 70
     0
  9
$DIMTVP
 40
0.0
  9
$DIMTIX
 70
     0
  9
$DIMSOXD
 70
     0
  9
$DIMSAH
 70
     0
  9
$DIMBLK1
  1

  9
$DIMBLK2
  1

  9
$DIMSTYLE
  2
\M+18352\M+18373\M+1815B - ISO-25
  9
$DIMCLRD
 70
   256
  9
$DIMCLRE
 70
   256
  9
$DIMCLRT
 70
   256
  9
$DIMTFAC
 40
1.0
  9
$DIMGAP
 40
2.299999999999998
  9
$DIMJUST
 70
     0
  9
$DIMSD1
 70
     0
  9
$DIMSD2
 70
     0
  9
$DIMTOLJ
 70
     1
  9
$DIMTZIN
 70
     8
  9
$DIMALTZ
 70
     0
  9
$DIMALTTZ
 70
     0
  9
$DIMUPT
 70
     0
  9
$DIMDEC
 70
     2
  9
$DIMTDEC
 70
     2
  9
$DIMALTU
 70
     2
  9
$DIMALTTD
 70
     2
  9
$DIMTXSTY
  7
simplex
  9
$DIMAUNIT
 70
     0
  9
$DIMADEC
 70
     0
  9
$DIMALTRND
 40
0.0
  9
$DIMAZIN
 70
     0
  9
$DIMDSEP
 70
    46
  9
$DIMATFIT
 70
     3
  9
$DIMFRAC
 70
     0
  9
$DIMLDRBLK
  1

  9
$DIMLUNIT
 70
     2
  9
$DIMLWD
 70
    -1
  9
$DIMLWE
 70
    -1
  9
$DIMTMOVE
 70
     0
  9
$LUNITS
 70
     2
  9
$LUPREC
 70
     4
  9
$SKETCHINC
 40
1.0
  9
$FILLETRAD
 40
1.5
  9
$AUNITS
 70
     0
  9
$AUPREC
 70
     0
  9
$MENU
  1
.
  9
$ELEVATION
 40
0.0
  9
$PELEVATION
 40
0.0
  9
$THICKNESS
 40
0.0
  9
$LIMCHECK
 70
     0
  9
$CHAMFERA
 40
10.0
  9
$CHAMFERB
 40
10.0
  9
$CHAMFERC
 40
20.0
  9
$CHAMFERD
 40
0.0
  9
$SKPOLY
 70
     0
  9
$TDCREATE
 40
2455489.391063368
  9
$TDUCREATE
 40
2455489.057730035
  9
$TDUPDATE
 40
2458416.678185671
  9
$TDUUPDATE
 40
2458416.344852338
  9
$TDINDWG
 40
2.0389961574
  9
$TDUSRTIMER
 40
2.0389444444
  9
$USRTIMER
 70
     1
  9
$ANGBASE
 50
0.0
  9
$ANGDIR
 70
     0
  9
$PDMODE
 70
     0
  9
$PDSIZE
 40
0.0
  9
$PLINEWID
 40
0.0
  9
$SPLFRAME
 70
     0
  9
$SPLINETYPE
 70
     6
  9
$SPLINESEGS
 70
     8
  9
$HANDSEED
  5
61E44
  9
$SURFTAB1
 70
     6
  9
$SURFTAB2
 70
     6
  9
$SURFTYPE
 70
     6
  9
$SURFU
 70
     6
  9
$SURFV
 70
     6
  9
$UCSBASE
  2

  9
$UCSNAME
  2

  9
$UCSORG
 10
0.0
 20
0.0
 30
0.0
  9
$UCSXDIR
 10
1.0
 20
0.0
 30
0.0
  9
$UCSYDIR
 10
0.0
 20
1.0
 30
0.0
  9
$UCSORTHOREF
  2

  9
$UCSORTHOVIEW
 70
     0
  9
$UCSORGTOP
 10
0.0
 20
0.0
 30
0.0
  9
$UCSORGBOTTOM
 10
0.0
 20
0.0
 30
0.0
  9
$UCSORGLEFT
 10
0.0
 20
0.0
 30
0.0
  9
$UCSORGRIGHT
 10
0.0
 20
0.0
 30
0.0
  9
$UCSORGFRONT
 10
0.0
 20
0.0
 30
0.0
  9
$UCSORGBACK
 10
0.0
 20
0.0
 30
0.0
  9
$PUCSBASE
  2

  9
$PUCSNAME
  2

  9
$PUCSORG
 10
0.0
 20
0.0
 30
0.0
  9
$PUCSXDIR
 10
1.0
 20
0.0
 30
0.0
  9
$PUCSYDIR
 10
0.0
 20
1.0
 30
0.0
  9
$PUCSORTHOREF
  2

  9
$PUCSORTHOVIEW
 70
     0
  9
$PUCSORGTOP
 10
0.0
 20
0.0
 30
0.0
  9
$PUCSORGBOTTOM
 10
0.0
 20
0.0
 30
0.0
  9
$PUCSORGLEFT
 10
0.0
 20
0.0
 30
0.0
  9
$PUCSORGRIGHT
 10
0.0
 20
0.0
 30
0.0
  9
$PUCSORGFRONT
 10
0.0
 20
0.0
 30
0.0
  9
$PUCSORGBACK
 10
0.0
 20
0.0
 30
0.0
  9
$USERI1
 70
     0
  9
$USERI2
 70
     0
  9
$USERI3
 70
     0
  9
$USERI4
 70
     0
  9
$USERI5
 70
     0
  9
$USERR1
 40
0.0
  9
$USERR2
 40
0.0
  9
$USERR3
 40
0.0
  9
$USERR4
 40
0.0
  9
$USERR5
 40
0.0
  9
$WORLDVIEW
 70
     1
  9
$SHADEDGE
 70
     3
  9
$SHADEDIF
 70
    70
  9
$TILEMODE
 70
     1
  9
$MAXACTVP
 70
    64
  9
$PINSBASE
 10
0.0
 20
0.0
 30
0.0
  9
$PLIMCHECK
 70
     0
  9
$PEXTMIN
 10
26.66999878883364
 20
20.31999878883365
 30
0.0
  9
$PEXTMAX
 10
240.0299890995025
 20
182.8799890995025
 30
0.0
  9
$PLIMMIN
 10
-6.350006103515625
 20
-6.349999904632567
  9
$PLIMMAX
 10
273.0499877929688
 20
209.5499939918518
  9
$UNITMODE
 70
     0
  9
$VISRETAIN
 70
     1
  9
$PLINEGEN
 70
     0
  9
$PSLTSCALE
 70
     1
  9
$TREEDEPTH
 70
  3020
  9
$CMLSTYLE
  2
Standard
  9
$CMLJUST
 70
     0
  9
$CMLSCALE
 40
20.0
  9
$PROXYGRAPHICS
 70
     1
  9
$MEASUREMENT
 70
     1
  9
$CELWEIGHT
370
    -1
  9
$ENDCAPS
280
     0
  9
$JOINSTYLE
280
     0
  9
$LWDISPLAY
290
     0
  9
$INSUNITS
 70
     4
  9
$HYPERLINKBASE
  1

  9
$STYLESHEET
  1

  9
$XEDIT
290
     1
  9
$CEPSNTYPE
380
     0
  9
$PSTYLEMODE
290
     1
  9
$FINGERPRINTGUID
  2
{601DDA01-5B13-4A4C-8F56-1333B78D855B}
  9
$VERSIONGUID
  2
{C7BE8036-E8DE-40C8-8364-7CE9D06C625E}
  9
$EXTNAMES
290
     1
  9
$PSVPSCALE
 40
0.0
  9
$OLESTARTUP
290
     0
  0
ENDSEC
  0
SECTION
  2
CLASSES
  0
CLASS
  1
ACDBDICTIONARYWDFLT
  2
AcDbDictionaryWithDefault
  3
ObjectDBX Classes
 90
        0
280
     0
281
     0
  0
CLASS
  1
ACDBPLACEHOLDER
  2
AcDbPlaceHolder
  3
ObjectDBX Classes
 90
        0
280
     0
281
     0
  0
CLASS
  1
LAYOUT
  2
AcDbLayout
  3
ObjectDBX Classes
 90
        0
280
     0
281
     0
  0
CLASS
  1
DICTIONARYVAR
  2
AcDbDictionaryVar
  3
ObjectDBX Classes
 90
        0
280
     0
281
     0
  0
CLASS
  1
TABLESTYLE
  2
AcDbTableStyle
  3
ObjectDBX Classes
 90
     2047
280
     0
281
     0
  0
CLASS
  1
SORTENTSTABLE
  2
AcDbSortentsTable
  3
ObjectDBX Classes
 90
        0
280
     0
281
     0
  0
CLASS
  1
DIMASSOC
  2
AcDbDimAssoc
  3
"AcDbDimAssoc|Product Desc:     AcDim ARX App For Dimension|Company:          Autodesk, Inc.|WEB Address:      www.autodesk.com"
 90
        0
280
     0
281
     0
  0
CLASS
  1
ACAD_EVALUATION_GRAPH
  2
AcDbEvalGraph
  3
ObjectDBX Classes
 90
    33921
280
     0
281
     0
  0
CLASS
  1
ACAECUSTOBJ
  2
AcAeEditorObj
  3
AcAeEditorObj
 90
    33792
280
     0
281
     0
  0
CLASS
  1
ACDB_DYNAMICBLOCKPURGEPREVENTER_VERSION
  2
AcDbDynamicBlockPurgePreventer
  3
ObjectDBX Classes
 90
    33921
280
     0
281
     0
  0
ENDSEC
  0
SECTION
  2
TABLES
  0
TABLE
  2
VPORT
  5
8
330
0
100
AcDbSymbolTable
 70
    48
  0
VPORT
  5
61E35
330
8
100
AcDbSymbolTableRecord
100
AcDbViewportTableRecord
  2
*Active
 70
     0
 10
0.0
 20
0.0
 11
1.0
 21
1.0
 12
30.80515728295575
 22
8.619811195461466
 13
0.0
 23
0.0
 14
10.0
 24
10.0
 15
10.0
 25
10.0
 16
0.0
 26
0.0
 36
1.0
 17
0.0
 27
0.0
 37
0.0
 40
271.4690888993839
 41
1.381443298969072
 42
50.0
 43
0.0
 44
0.0
 50
0.0
 51
0.0
 71
     0
 72
  1000
 73
     1
 74
     1
 75
     0
 76
     0
 77
     0
 78
     0
281
     0
 65
     1
110
0.0
120
0.0
130
0.0
111
1.0
121
0.0
131
0.0
112
0.0
122
1.0
132
0.0
 79
     0
146
0.0
  0
ENDTAB
  0
TABLE
  2
LTYPE
  5
5
330
0
100
AcDbSymbolTable
 70
     4
  0
LTYPE
  5
14
330
5
100
AcDbSymbolTableRecord
100
AcDbLinetypeTableRecord
  2
ByBlock
 70
     0
  3

 72
    65
 73
     0
 40
0.0
  0
LTYPE
  5
15
330
5
100
AcDbSymbolTableRecord
100
AcDbLinetypeTableRecord
  2
ByLayer
 70
     0
  3

 72
    65
 73
     0
 40
0.0
  0
LTYPE
  5
16
330
5
100
AcDbSymbolTableRecord
100
AcDbLinetypeTableRecord
  2
Continuous
 70
     0
  3
Solid line
 72
    65
 73
     0
 40
0.0
  0
LTYPE
  5
D7
330
5
100
AcDbSymbolTableRecord
100
AcDbLinetypeTableRecord
  2
HIDDEN
 70
     0
  3
Hidden __ __ __ __ __ __ __ __ __ __ __ __ __ _
 72
    65
 73
     2
 40
9.524999999999996
 49
6.349999999999997
 74
     0
 49
-3.174999999999998
 74
     0
  0
LTYPE
  5
D9
330
5
100
AcDbSymbolTableRecord
100
AcDbLinetypeTableRecord
  2
CENTER
 70
     0
  3
Center ____ _ ____ _ ____ _ ____ _ ____ _ ____
 72
    65
 73
     4
 40
50.8
 49
31.75
 74
     0
 49
-6.349999999999997
 74
     0
 49
6.349999999999997
 74
     0
 49
-6.349999999999997
 74
     0
  0
LTYPE
  5
35815
330
5
100
AcDbSymbolTableRecord
100
AcDbLinetypeTableRecord
  2
PHANTOM
 70
     0
  3
_____ _ _ _____ _ _ _____ _ _ _____
 72
    65
 73
     6
 40
0.8
 49
0.45
 74
     0
 49
-0.05
 74
     0
 49
0.1
 74
     0
 49
-0.05
 74
     0
 49
0.1
 74
     0
 49
-0.05
 74
     0
  0
ENDTAB
  0
TABLE
  2
LAYER
  5
2
102
{ACAD_XDICTIONARY
360
E2
102
}
330
0
100
AcDbSymbolTable
 70
    52
  0
LAYER
  5
10
330
2
100
AcDbSymbolTableRecord
100
AcDbLayerTableRecord
  2
0
 70
     0
 62
     7
  6
Continuous
370
    -3
390
F
  0
LAYER
  5
D1
330
2
100
AcDbSymbolTableRecord
100
AcDbLayerTableRecord
  2
1
 70
     0
 62
     4
  6
Continuous
370
    50
390
F
1001
AcAecLayerStandard
1000

1000

  0
LAYER
  5
D3
330
2
100
AcDbSymbolTableRecord
100
AcDbLayerTableRecord
  2
2
 70
     0
 62
     7
  6
Continuous
370
    25
390
F
1001
AcAecLayerStandard
1000

1000

  0
LAYER
  5
D4
330
2
100
AcDbSymbolTableRecord
100
AcDbLayerTableRecord
  2
3
 70
     0
 62
     1
  6
HIDDEN
370
    35
390
F
1001
AcAecLayerStandard
1000

1000

  0
LAYER
  5
D8
330
2
100
AcDbSymbolTableRecord
100
AcDbLayerTableRecord
  2
4
 70
     0
 62
     2
  6
CENTER
370
    25
390
F
1001
AcAecLayerStandard
1000

1000

  0
LAYER
  5
DA
330
2
100
AcDbSymbolTableRecord
100
AcDbLayerTableRecord
  2
6
 70
     0
 62
     5
  6
Continuous
370
    35
390
F
1001
AcAecLayerStandard
1000

1000

  0
LAYER
  5
DB
330
2
100
AcDbSymbolTableRecord
100
AcDbLayerTableRecord
  2
cut
 70
     0
 62
     1
  6
Continuous
370
    25
390
F
1001
AcAecLayerStandard
1000

1000

  0
LAYER
  5
DC
330
2
100
AcDbSymbolTableRecord
100
AcDbLayerTableRecord
  2
nocut
 70
     0
 62
     7
  6
Continuous
370
    25
390
F
1001
AcAecLayerStandard
1000

1000

  0
LAYER
  5
DD
330
2
100
AcDbSymbolTableRecord
100
AcDbLayerTableRecord
  2
sk1
 70
     0
 62
     4
  6
Continuous
370
    50
390
F
1001
AcAecLayerStandard
1000

1000

  0
LAYER
  5
DE
330
2
100
AcDbSymbolTableRecord
100
AcDbLayerTableRecord
  2
sk2
 70
     0
 62
     7
  6
Continuous
370
    25
390
F
1001
AcAecLayerStandard
1000

1000

  0
LAYER
  5
DF
330
2
100
AcDbSymbolTableRecord
100
AcDbLayerTableRecord
  2
sk3
 70
     0
 62
     1
  6
HIDDEN
370
    35
390
F
1001
AcAecLayerStandard
1000

1000

  0
LAYER
  5
E0
330
2
100
AcDbSymbolTableRecord
100
AcDbLayerTableRecord
  2
sk4
 70
     0
 62
     2
  6
CENTER
370
    25
390
F
1001
AcAecLayerStandard
1000

1000

  0
LAYER
  5
E1
330
2
100
AcDbSymbolTableRecord
100
AcDbLayerTableRecord
  2
sk6
 70
     0
 62
     5
  6
Continuous
370
    35
390
F
1001
AcAecLayerStandard
1000

1000

  0
LAYER
  5
31B6
330
2
100
AcDbSymbolTableRecord
100
AcDbLayerTableRecord
  2
Defpoints
 70
     0
 62
     7
  6
Continuous
290
     0
370
    -3
390
F
  0
ENDTAB
  0
TABLE
  2
STYLE
  5
3
330
0
100
AcDbSymbolTable
 70
    11
  0
STYLE
  5
11
330
3
100
AcDbSymbolTableRecord
100
AcDbTextStyleTableRecord
  2
Standard
 70
     0
 40
0.0
 41
1.0
 50
0.0
 71
     0
 42
2.5
  3
txt.shx
  4
@extfont2.shx
  0
STYLE
  5
D6
330
3
100
AcDbSymbolTableRecord
100
AcDbTextStyleTableRecord
  2

 70
     1
 40
0.0
 41
1.0
 50
0.0
 71
     0
 42
2.5
  3
ltypeshp.shx
  4

  0
STYLE
  5
24A
330
3
100
AcDbSymbolTableRecord
100
AcDbTextStyleTableRecord
  2
simplex
 70
     0
 40
3.5
 41
1.0
 50
0.0
 71
     0
 42
3.5
  3
txt.shx
  4

  0
STYLE
  5
69E
330
3
100
AcDbSymbolTableRecord
100
AcDbTextStyleTableRecord
  2
MX_NOTE_STANDARD
 70
     0
 40
0.0
 41
1.0
 50
0.0
 71
     0
 42
4.2
  3
txt.shx
  4
extfont.shx
  0
STYLE
  5
3524
330
3
100
AcDbSymbolTableRecord
100
AcDbTextStyleTableRecord
  2
TEXTSTYLE_2
 70
     0
 40
0.0
 41
0.775
 50
0.0
 71
     0
 42
0.2
  3
gdt
  4

  0
STYLE
  5
3525
330
3
100
AcDbSymbolTableRecord
100
AcDbTextStyleTableRecord
  2
TEXTSTYLE_3
 70
     0
 40
0.0
 41
0.75
 50
0.0
 71
     0
 42
0.2
  3
txt
  4

  0
STYLE
  5
3526
330
3
100
AcDbSymbolTableRecord
100
AcDbTextStyleTableRecord
  2
TEXTSTYLE_13
 70
     0
 40
0.0
 41
1.0
 50
0.0
 71
     0
 42
0.2
  3
txt
  4

  0
STYLE
  5
519A
330
3
100
AcDbSymbolTableRecord
100
AcDbTextStyleTableRecord
  2
TEXTSTYLE_14
 70
     0
 40
0.0
 41
1.0
 50
0.0
 71
     0
 42
0.2
  3
txt
  4

  0
STYLE
  5
6F72
330
3
100
AcDbSymbolTableRecord
100
AcDbTextStyleTableRecord
  2
TEXTSTYLE_4
 70
     0
 40
0.0
 41
0.75
 50
0.0
 71
     0
 42
0.2
  3
txt
  4

  0
STYLE
  5
6F73
330
3
100
AcDbSymbolTableRecord
100
AcDbTextStyleTableRecord
  2
TEXTSTYLE_17
 70
     0
 40
0.0
 41
1.0
 50
0.0
 71
     0
 42
0.2
  3
txt
  4

  0
STYLE
  5
FE12
330
3
100
AcDbSymbolTableRecord
100
AcDbTextStyleTableRecord
  2
TEXTSTYLE_12
 70
     0
 40
0.0
 41
1.0
 50
0.0
 71
     0
 42
0.2
  3
txt
  4

  0
ENDTAB
  0
TABLE
  2
VIEW
  5
6
330
0
100
AcDbSymbolTable
 70
     0
  0
ENDTAB
  0
TABLE
  2
UCS
  5
7
330
0
100
AcDbSymbolTable
 70
     0
  0
ENDTAB
  0
TABLE
  2
APPID
  5
9
330
0
100
AcDbSymbolTable
 70
    11
  0
APPID
  5
12
330
9
100
AcDbSymbolTableRecord
100
AcDbRegAppTableRecord
  2
ACAD
 70
     0
  0
APPID
  5
D2
330
9
100
AcDbSymbolTableRecord
100
AcDbRegAppTableRecord
  2
AcAecLayerStandard
 70
     0
  0
APPID
  5
E6
330
9
100
AcDbSymbolTableRecord
100
AcDbRegAppTableRecord
  2
ACAD_DSTYLE_DIMTEXT_FILL
 70
     0
  0
APPID
  5
4C84
330
9
100
AcDbSymbolTableRecord
100
AcDbRegAppTableRecord
  2
ACAD_EXEMPT_FROM_CAD_STANDARDS
 70
     0
  0
APPID
  5
3493E
330
9
100
AcDbSymbolTableRecord
100
AcDbRegAppTableRecord
  2
DCO15
 70
     0
  0
APPID
  5
4366A
330
9
100
AcDbSymbolTableRecord
100
AcDbRegAppTableRecord
  2
ACAUTHENVIRON
 70
     0
  0
APPID
  5
4366D
330
9
100
AcDbSymbolTableRecord
100
AcDbRegAppTableRecord
  2
AcDbDynamicBlockTrueName
 70
     0
  0
APPID
  5
4366E
330
9
100
AcDbSymbolTableRecord
100
AcDbRegAppTableRecord
  2
AcDbDynamicBlockGUID
 70
     0
  0
APPID
  5
43670
330
9
100
AcDbSymbolTableRecord
100
AcDbRegAppTableRecord
  2
AcDbBlockRepETag
 70
     0
  0
APPID
  5
45C9F
330
9
100
AcDbSymbolTableRecord
100
AcDbRegAppTableRecord
  2
ACAD_DSTYLE_DIMEXT_ENABLED
 70
     0
  0
APPID
  5
45CA0
330
9
100
AcDbSymbolTableRecord
100
AcDbRegAppTableRecord
  2
ACAD_DSTYLE_DIMEXT_LENGTH
 70
     0
  0
ENDTAB
  0
TABLE
  2
DIMSTYLE
  5
A
330
0
100
AcDbSymbolTable
 70
    10
100
AcDbDimStyleTable
 71
     2
340
1BF
340
27
  0
DIMSTYLE
105
27
330
A
100
AcDbSymbolTableRecord
100
AcDbDimStyleTableRecord
  2
ISO-25
 70
     0
 41
2.5
 42
0.625
 43
3.75
 44
1.25
 73
     0
 74
     0
 77
     1
 78
     8
140
2.5
141
2.5
143
0.03937007874016
147
0.625
171
     3
172
     1
271
     2
272
     2
274
     3
278
    44
283
     0
284
     8
340
11
  0
DIMSTYLE
105
1BF
102
{ACAD_REACTORS
330
6099E
330
60984
330
6096A
330
60950
330
60920
330
60908
330
60938
330
608F0
330
608D8
330
61B1B
102
}
330
A
100
AcDbSymbolTableRecord
100
AcDbDimStyleTableRecord
  2
\M+18352\M+18373\M+1815B - ISO-25
 70
     0
 40
0.0
 41
3.5
 42
0.0
 44
1.5
 73
     0
 74
     0
 77
     1
 78
     8
140
3.5
147
2.299999999999998
176
   256
177
   256
178
   256
271
     2
272
     2
284
     8
340
24A
371
    -1
372
    -1
  0
DIMSTYLE
105
69F
330
A
100
AcDbSymbolTableRecord
100
AcDbDimStyleTableRecord
  2
MXDIMSTYLE
 70
     0
 41
2.5
 42
0.5
 43
3.75
 44
1.5
 73
     0
 74
     0
 77
     1
 78
     8
140
4.2
141
2.5
143
0.03937
147
1.0
171
     4
172
     1
173
     1
271
     2
272
     2
274
     4
283
     0
288
     1
340
69E
341
697
343
697
344
697
  0
DIMSTYLE
105
3527
330
A
100
AcDbSymbolTableRecord
100
AcDbDimStyleTableRecord
  2
STANDARD
 70
     0
 41
3.0
 47
0.001
 48
0.001
 71
     1
 73
     0
 74
     0
 77
     1
 78
     8
140
4.0
271
     3
272
     3
284
     8
340
11
341
34B1
342
34B1
343
34B1
344
34B1
  0
DIMSTYLE
105
3528
330
A
100
AcDbSymbolTableRecord
100
AcDbDimStyleTableRecord
  2
DIMSTYLE_1
 70
     0
 41
3.0
 73
     0
 74
     0
 77
     1
 78
     8
140
4.0
271
     3
272
     3
284
     8
340
11
341
34B1
342
34B1
343
34B1
344
34B1
  0
DIMSTYLE
105
3529
330
A
100
AcDbSymbolTableRecord
100
AcDbDimStyleTableRecord
  2
DIMSTYLE_2
 70
     0
 41
3.0
 47
0.001
 48
0.001
 73
     0
 74
     0
 77
     1
 78
     8
140
4.0
271
     3
272
     3
284
     8
340
11
341
34B1
342
34B1
343
34B1
344
34B1
  0
DIMSTYLE
105
352A
330
A
100
AcDbSymbolTableRecord
100
AcDbDimStyleTableRecord
  2
DIMSTYLE_3
 70
     0
 41
3.0
 47
-0.1
 48
0.3
 71
     1
 73
     0
 74
     0
 77
     1
 78
     8
140
4.0
146
0.5
271
     3
272
     3
284
     8
340
11
341
34B1
342
34B1
343
34B1
344
34B1
  0
DIMSTYLE
105
352B
330
A
100
AcDbSymbolTableRecord
100
AcDbDimStyleTableRecord
  2
DIMSTYLE_4
 70
     0
 41
3.0
 47
0.1
 48
0.1
 71
     1
 73
     0
 74
     0
 77
     1
 78
     8
140
4.0
271
     3
272
     3
284
     8
340
11
341
34B1
342
34B1
343
34B1
344
34B1
  0
DIMSTYLE
105
27245
330
A
100
AcDbSymbolTableRecord
100
AcDbDimStyleTableRecord
  2
DIMSTYLE_5
 70
     0
 41
3.0
 47
0.001
 48
0.001
 73
     0
 74
     0
 77
     1
 78
     8
140
4.0
271
     3
272
     3
284
     8
340
11
341
34B1
342
34B1
343
34B1
344
34B1
  0
DIMSTYLE
105
4771C
330
A
100
AcDbSymbolTableRecord
100
AcDbDimStyleTableRecord
  2
\M+18352\M+18373\M+1815B_-_ISO-25
 70
     0
 40
0.0
 41
3.5
 42
0.0
 44
1.5
 73
     0
 74
     0
 77
     1
 78
     8
140
3.5
147
2.299999999999998
176
   256
177
   256
178
   256
279
     2
284
     8
285
     8
286
     8
340
24A
  0
ENDTAB
  0
TABLE
  2
BLOCK_RECORD
  5
1
330
0
100
AcDbSymbolTable
 70
   100
  0
BLOCK_RECORD
  5
1F
102
{ACAD_XDICTIONARY
360
31EE
102
}
330
1
100
AcDbSymbolTableRecord
100
AcDbBlockTableRecord
  2
*Model_Space
340
22
  0
BLOCK_RECORD
  5
50
330
1
100
AcDbSymbolTableRecord
100
AcDbBlockTableRecord
  2
*Paper_Space
340
51
  0
BLOCK_RECORD
  5
55
330
1
100
AcDbSymbolTableRecord
100
AcDbBlockTableRecord
  2
*Paper_Space0
340
56
  0
BLOCK_RECORD
  5
680
102
{ACAD_XDICTIONARY
360
43668
102
}
330
1
100
AcDbSymbolTableRecord
100
AcDbBlockTableRecord
  2
zero block
340
0
102
{BLKREFS
331
68C
102
}
1001
ACAD
1000
DesignCenter Data
1002
{
1070
     1
1070
     4
1002
}
1001
AcDbDynamicBlockGUID
1000
{A89DF4EB-B2CB-439E-AC69-1EAC9F242D1C}
1001
AcDbBlockRepETag
1070
     1
1071
        7
  0
BLOCK_RECORD
  5
697
330
1
100
AcDbSymbolTableRecord
100
AcDbBlockTableRecord
  2
_OPEN30
340
0
  0
BLOCK_RECORD
  5
32F1
330
1
100
AcDbSymbolTableRecord
100
AcDbBlockTableRecord
  2
_None
340
0
102
{BLKREFS
331
5CE0B
331
5F1BF
102
}
  0
BLOCK_RECORD
  5
34B1
330
1
100
AcDbSymbolTableRecord
100
AcDbBlockTableRecord
  2
_OPEN
340
0
102
{BLKREFS
331
5CDDE
331
5CDDF
331
5CDE8
331
5CDE9
331
5CDF2
331
5CDF3
331
5CDFC
331
5CDFD
331
5CE03
331
5CE0C
331
5EDB1
331
5EDB8
331
5EDC0
331
5EDC1
331
5EDC9
331
5EDCA
331
5EDD2
331
5EDD3
331
5EDDB
331
5EDDC
331
5F1B0
331
5F1B1
331
5F1B7
331
5F1C0
331
5F192
331
5F193
331
5F19C
331
5F19D
331
5F1A6
331
5F1A7
331
5F61C
331
5F61D
331
5F625
331
5F626
331
5F62E
331
5F62F
331
5F637
331
5F638
331
5F64F
331
5F657
102
}
  0
BLOCK_RECORD
  5
45B07
330
1
100
AcDbSymbolTableRecord
100
AcDbBlockTableRecord
  2
*D7
340
0
  0
BLOCK_RECORD
  5
45B1F
330
1
100
AcDbSymbolTableRecord
100
AcDbBlockTableRecord
  2
*D8
340
0
  0
BLOCK_RECORD
  5
608D9
330
1
100
AcDbSymbolTableRecord
100
AcDbBlockTableRecord
  2
*D84
340
0
  0
BLOCK_RECORD
  5
608F1
330
1
100
AcDbSymbolTableRecord
100
AcDbBlockTableRecord
  2
*D85
340
0
  0
BLOCK_RECORD
  5
60909
330
1
100
AcDbSymbolTableRecord
100
AcDbBlockTableRecord
  2
*D86
340
0
  0
BLOCK_RECORD
  5
60921
330
1
100
AcDbSymbolTableRecord
100
AcDbBlockTableRecord
  2
*D87
340
0
  0
BLOCK_RECORD
  5
60939
330
1
100
AcDbSymbolTableRecord
100
AcDbBlockTableRecord
  2
*D88
340
0
  0
BLOCK_RECORD
  5
60951
330
1
100
AcDbSymbolTableRecord
100
AcDbBlockTableRecord
  2
*D89
340
0
  0
BLOCK_RECORD
  5
6096B
330
1
100
AcDbSymbolTableRecord
100
AcDbBlockTableRecord
  2
*D90
340
0
  0
BLOCK_RECORD
  5
60985
330
1
100
AcDbSymbolTableRecord
100
AcDbBlockTableRecord
  2
*D91
340
0
  0
BLOCK_RECORD
  5
6099F
330
1
100
AcDbSymbolTableRecord
100
AcDbBlockTableRecord
  2
*D92
340
0
  0
BLOCK_RECORD
  5
61B1C
330
1
100
AcDbSymbolTableRecord
100
AcDbBlockTableRecord
  2
*D98
340
0
  0
ENDTAB
  0
ENDSEC
  0
SECTION
  2
BLOCKS
  0
BLOCK
  5
20
330
1F
100
AcDbEntity
  8
0
100
AcDbBlockBegin
  2
*Model_Space
 70
     0
 10
0.0
 20
0.0
 30
0.0
  3
*Model_Space
  1

  0
ENDBLK
  5
21
330
1F
100
AcDbEntity
  8
0
100
AcDbBlockEnd
  0
BLOCK
  5
52
330
50
100
AcDbEntity
 67
     1
  8
0
100
AcDbBlockBegin
  2
*Paper_Space
 70
     0
 10
0.0
 20
0.0
 30
0.0
  3
*Paper_Space
  1

  0
ENDBLK
  5
53
330
50
100
AcDbEntity
 67
     1
  8
0
100
AcDbBlockEnd
  0
BLOCK
  5
57
330
55
100
AcDbEntity
 67
     1
  8
0
100
AcDbBlockBegin
  2
*Paper_Space0
 70
     0
 10
0.0
 20
0.0
 30
0.0
  3
*Paper_Space0
  1

  0
VIEWPORT
  5
71
102
{ACAD_XDICTIONARY
360
61E40
102
}
330
55
100
AcDbEntity
 67
     1
  8
0
100
AcDbViewport
 10
150.1652135264906
 20
101.599997546291
 30
0.0
 40
339.1973820494347
 41
164.5360435314421
 68
     0
 69
     0
 12
150.1652135264906
 22
101.599997546291
 13
0.0
 23
0.0
 14
10.0
 24
10.0
 15
10.0
 25
10.0
 16
0.0
 26
0.0
 36
1.0
 17
0.0
 27
0.0
 37
0.0
 42
50.0
 43
0.0
 44
0.0
 45
164.5360435314421
 50
0.0
 51
0.0
 72
  1000
 90
    32864
  1

281
     0
 71
     1
 74
     0
110
0.0
120
0.0
130
0.0
111
1.0
121
0.0
131
0.0
112
0.0
122
1.0
132
0.0
 79
     0
146
0.0
  0
VIEWPORT
  5
73
102
{ACAD_XDICTIONARY
360
61E42
102
}
330
55
100
AcDbEntity
 67
     1
  8
0
100
AcDbViewport
 10
133.3499939441681
 20
101.5999939441681
 30
0.0
 40
213.3599903106689
 41
162.5599903106689
 68
     0
 69
     0
 12
210.0
 22
148.5
 13
0.0
 23
0.0
 14
10.0
 24
10.0
 15
10.0
 25
10.0
 16
0.0
 26
0.0
 36
1.0
 17
0.0
 27
0.0
 37
0.0
 42
50.0
 43
0.0
 44
0.0
 45
324.0677920111345
 50
0.0
 51
0.0
 72
   100
 90
    32864
  1

281
     0
 71
     1
 74
     0
110
0.0
120
0.0
130
0.0
111
1.0
121
0.0
131
0.0
112
0.0
122
1.0
132
0.0
 79
     0
146
0.0
  0
ENDBLK
  5
58
330
55
100
AcDbEntity
 67
     1
  8
0
100
AcDbBlockEnd
  0
BLOCK
  5
68A
330
680
100
AcDbEntity
  8
0
100
AcDbBlockBegin
  2
zero block
 70
     0
 10
0.0
 20
0.0
 30
0.0
  3
zero block
  1

  0
HATCH
  5
43661
330
680
100
AcDbEntity
  8
0
 62
     7
100
AcDbHatch
 10
0.0
 20
0.0
 30
0.0
210
0.0
220
0.0
230
1.0
  2
SOLID
 70
     1
 71
     0
 91
        2
 92
        7
 72
     1
 73
     1
 93
        3
 10
0.0
 20
0.9999999999999875
 42
0.4142135623730915
 10
-1.0
 20
0.0
 42
0.0
 10
0.0
 20
0.0
 42
0.0
 97
        0
 92
        7
 72
     1
 73
     1
 93
        3
 10
1.000000000000007
 20
0.0
 42
0.0
 10
0.0
 20
0.0
 42
0.0
 10
0.0
 20
-1.0
 42
0.4142135623730974
 97
        0
 75
     0
 76
     1
 47
0.0090601366782909
 98
        2
 10
-0.380591363650975
 20
0.4885804701532896
 10
0.4350764810977559
 20
-0.4536738423704725
1001
AcDbBlockRepETag
1070
     1
1071
        0
1005
43661
  0
LINE
  5
43662
330
680
100
AcDbEntity
  8
0
 62
     7
 48
0.2
100
AcDbLine
 10
-1.0
 20
0.0
 30
0.0
 11
1.000000000000007
 21
0.0
 31
0.0
1001
AcDbBlockRepETag
1070
     1
1071
        1
1005
43662
  0
LINE
  5
43663
330
680
100
AcDbEntity
  8
0
 62
     7
 48
0.2
100
AcDbLine
 10
0.0
 20
-1.0
 30
0.0
 11
0.0
 21
0.9999999999999875
 31
0.0
1001
AcDbBlockRepETag
1070
     1
1071
        2
1005
43663
  0
ARC
  5
43664
330
680
100
AcDbEntity
  8
0
 62
     7
 48
0.2
100
AcDbCircle
 10
0.0
 20
0.0
 30
0.0
 40
1.0
100
AcDbArc
 50
270.0
 51
0.0
1001
AcDbBlockRepETag
1070
     1
1071
        3
1005
43664
  0
ARC
  5
43665
330
680
100
AcDbEntity
  8
0
 62
     7
 48
0.2
100
AcDbCircle
 10
0.0
 20
0.0
 30
0.0
 40
1.0
100
AcDbArc
 50
0.0
 51
90.0
1001
AcDbBlockRepETag
1070
     1
1071
        4
1005
43665
  0
ARC
  5
43666
330
680
100
AcDbEntity
  8
0
 62
     7
 48
0.2
100
AcDbCircle
 10
0.0
 20
0.0
 30
0.0
 40
1.0
100
AcDbArc
 50
180.0
 51
270.0
1001
AcDbBlockRepETag
1070
     1
1071
        5
1005
43666
  0
ARC
  5
43667
330
680
100
AcDbEntity
  8
0
 62
     7
 48
0.2
100
AcDbCircle
 10
0.0
 20
0.0
 30
0.0
 40
1.0
100
AcDbArc
 50
90.0
 51
180.0
1001
AcDbBlockRepETag
1070
     1
1071
        6
1005
43667
  0
ENDBLK
  5
68B
330
680
100
AcDbEntity
  8
0
100
AcDbBlockEnd
  0
BLOCK
  5
698
330
697
100
AcDbEntity
  8
0
  6
ByBlock
 62
     0
370
    -2
100
AcDbBlockBegin
  2
_OPEN30
 70
     2
 10
0.0
 20
0.0
 30
0.0
  3
_OPEN30
  1

  0
LINE
  5
699
330
697
100
AcDbEntity
  8
0
  6
ByBlock
 62
     0
370
    -2
100
AcDbLine
 10
-1.0
 20
0.267949
 30
0.0
 11
0.0
 21
0.0
 31
0.0
  0
LINE
  5
69A
330
697
100
AcDbEntity
  8
0
  6
ByBlock
 62
     0
370
    -2
100
AcDbLine
 10
0.0
 20
0.0
 30
0.0
 11
-1.0
 21
-0.267949
 31
0.0
  0
LINE
  5
69B
330
697
100
AcDbEntity
  8
0
  6
ByBlock
 62
     0
370
    -2
100
AcDbLine
 10
0.0
 20
0.0
 30
0.0
 11
-1.0
 21
0.0
 31
0.0
  0
ENDBLK
  5
69C
330
697
100
AcDbEntity
  8
0
  6
ByBlock
 62
     0
370
    -2
100
AcDbBlockEnd
  0
BLOCK
  5
32F2
330
32F1
100
AcDbEntity
  8
0
100
AcDbBlockBegin
  2
_None
 70
     0
 10
0.0
 20
0.0
 30
0.0
  3
_None
  1

  0
ENDBLK
  5
32F3
330
32F1
100
AcDbEntity
  8
0
100
AcDbBlockEnd
  0
BLOCK
  5
34B2
330
34B1
100
AcDbEntity
  8
0
100
AcDbBlockBegin
  2
_OPEN
 70
     0
 10
0.0
 20
0.0
 30
0.0
  3
_OPEN
  1

  0
LINE
  5
34B3
330
34B1
100
AcDbEntity
  8
0
  6
ByBlock
 62
     0
100
AcDbLine
 10
0.0
 20
0.0
 30
0.0
 11
-1.0
 21
0.1766666667
 31
0.0
  0
LINE
  5
34B4
330
34B1
100
AcDbEntity
  8
0
  6
ByBlock
 62
     0
100
AcDbLine
 10
-1.0
 20
-0.1766666667
 30
0.0
 11
0.0
 21
0.0
 31
0.0
  0
LINE
  5
34B5
330
34B1
100
AcDbEntity
  8
0
  6
ByBlock
 62
     0
100
AcDbLine
 10
-1.0
 20
0.0
 30
0.0
 11
0.0
 21
0.0
 31
0.0
  0
ENDBLK
  5
34B6
330
34B1
100
AcDbEntity
  8
0
  6
ByBlock
 62
     0
100
AcDbBlockEnd
  0
BLOCK
  5
45B11
330
45B07
100
AcDbEntity
  8
0
100
AcDbBlockBegin
  2
*D7
 70
     1
 10
0.0
 20
0.0
 30
0.0
  3
*D7
  1

  0
LINE
  5
5CCE5
330
45B07
100
AcDbEntity
  8
sk2
100
AcDbLine
 10
-0.0000000000000526
 20
-28.49999999999995
 30
0.0
 11
-0.0000000000000538
 21
-48.51991747839992
 31
0.0
  0
LINE
  5
5CCE6
330
45B07
100
AcDbEntity
  8
sk2
100
AcDbLine
 10
30.99999999999995
 20
-8.099999999999972
 30
0.0
 11
30.99999999999994
 21
-48.51991747839992
 31
0.0
  0
LINE
  5
5CCE7
330
45B07
100
AcDbEntity
  8
sk2
100
AcDbLine
 10
3.499999999999946
 20
-47.01991747839993
 30
0.0
 11
27.49999999999995
 21
-47.01991747839993
 31
0.0
  0
SOLID
  5
5CCE8
330
45B07
100
AcDbEntity
  8
sk2
100
AcDbTrace
 10
3.499999999999946
 20
-46.43658414506659
 30
0.0
 11
3.499999999999946
 21
-47.60325081173324
 31
0.0
 12
-0.0000000000000537
 22
-47.01991747839993
 32
0.0
 13
-0.0000000000000537
 23
-47.01991747839993
 33
0.0
  0
SOLID
  5
5CCE9
330
45B07
100
AcDbEntity
  8
sk2
100
AcDbTrace
 10
27.49999999999995
 20
-46.43658414506659
 30
0.0
 11
27.49999999999995
 21
-47.60325081173324
 31
0.0
 12
30.99999999999994
 22
-47.01991747839993
 32
0.0
 13
30.99999999999994
 23
-47.01991747839993
 33
0.0
  0
MTEXT
  5
5CCEA
330
45B07
100
AcDbEntity
  8
sk2
100
AcDbMText
 10
15.49999999999994
 20
-42.96991747839992
 30
0.0
 40
3.5
 41
0.0
 71
     5
 72
     1
  1
\A1;31
  7
simplex
 73
     1
 44
1.0
1001
ACAD
1000
MTEXTBEGIN
1070
    73
1070
     1
1070
    44
1040
1.0
1070
    74
1070
     0
1000
MTEXTEND
  0
POINT
  5
5CCEB
330
45B07
100
AcDbEntity
  8
Defpoints
 62
     0
100
AcDbPoint
 10
-0.0000000000000526
 20
-28.49999999999995
 30
0.0
  0
POINT
  5
5CCEC
330
45B07
100
AcDbEntity
  8
Defpoints
 62
     0
100
AcDbPoint
 10
30.99999999999995
 20
-8.099999999999972
 30
0.0
  0
POINT
  5
5CCED
330
45B07
100
AcDbEntity
  8
Defpoints
 62
     0
100
AcDbPoint
 10
30.99999999999994
 20
-47.01991747839993
 30
0.0
  0
ENDBLK
  5
45B12
330
45B07
100
AcDbEntity
  8
0
100
AcDbBlockEnd
  0
BLOCK
  5
45B29
330
45B1F
100
AcDbEntity
  8
0
100
AcDbBlockBegin
  2
*D8
 70
     1
 10
0.0
 20
0.0
 30
0.0
  3
*D8
  1

  0
LINE
  5
475A2
330
45B1F
100
AcDbEntity
  8
2
100
AcDbLine
 10
46.67862375679994
 20
31.50000000000006
 30
0.0
 11
83.68825656423609
 21
31.50000000000004
 31
0.0
  0
LINE
  5
475A3
330
45B1F
100
AcDbEntity
  8
2
100
AcDbLine
 10
82.18825656423609
 20
-31.49999999999995
 30
0.0
 11
82.18825656423609
 21
28.00000000000004
 31
0.0
  0
SOLID
  5
475A4
330
45B1F
100
AcDbEntity
  8
2
100
AcDbTrace
 10
81.60492323090277
 20
28.00000000000004
 30
0.0
 11
82.77158989756944
 21
28.00000000000004
 31
0.0
 12
82.18825656423609
 22
31.50000000000004
 32
0.0
 13
82.18825656423609
 23
31.50000000000004
 33
0.0
  0
MTEXT
  5
475A5
330
45B1F
100
AcDbEntity
  8
2
100
AcDbMText
 10
78.1382565642361
 20
-1.749999999999953
 30
0.0
 40
3.5
 41
0.0
 71
     5
 72
     1
  1
\A1;%%C63
  7
simplex
 11
0.0000000000000001
 21
1.0
 31
0.0
 73
     1
 44
1.0
1001
ACAD
1000
MTEXTBEGIN
1070
    73
1070
     1
1070
    44
1040
1.0
1070
    74
1070
     0
1000
MTEXTEND
  0
POINT
  5
475A6
330
45B1F
100
AcDbEntity
  8
Defpoints
 62
     0
100
AcDbPoint
 10
82.95119073979995
 20
-31.49999999999995
 30
0.0
  0
POINT
  5
475A7
330
45B1F
100
AcDbEntity
  8
Defpoints
 62
     0
100
AcDbPoint
 10
46.67862375679994
 20
31.50000000000006
 30
0.0
  0
POINT
  5
475A8
330
45B1F
100
AcDbEntity
  8
Defpoints
 62
     0
100
AcDbPoint
 10
82.18825656423609
 20
31.50000000000004
 30
0.0
  0
ENDBLK
  5
45B2A
330
45B1F
100
AcDbEntity
  8
0
100
AcDbBlockEnd
  0
BLOCK
  5
608E3
330
608D9
100
AcDbEntity
  8
0
100
AcDbBlockBegin
  2
*D84
 70
     1
 10
0.0
 20
0.0
 30
0.0
  3
*D84
  1

  0
LINE
  5
61AB1
330
608D9
100
AcDbEntity
  8
2
100
AcDbLine
 10
50.69768417579644
 20
24.02000000000001
 30
0.0
 11
75.22380017380959
 21
24.02
 31
0.0
  0
LINE
  5
61AB2
330
608D9
100
AcDbEntity
  8
2
100
AcDbLine
 10
73.72380017380959
 20
20.52
 30
0.0
 11
73.72380017380959
 21
-24.02000000000001
 31
0.0
  0
SOLID
  5
61AB3
330
608D9
100
AcDbEntity
  8
2
100
AcDbTrace
 10
73.14046684047626
 20
20.52
 30
0.0
 11
74.30713350714292
 21
20.52
 31
0.0
 12
73.72380017380959
 22
24.02
 32
0.0
 13
73.72380017380959
 23
24.02
 33
0.0
  0
MTEXT
  5
61AB4
330
608D9
100
AcDbEntity
  8
2
100
AcDbMText
 10
69.6738001738096
 20
-0.1723033375905624
 30
0.0
 40
3.5
 41
0.0
 71
     5
 72
     1
  1
\A1;%%C48.04 [%%C1.891"]
  7
simplex
 11
0.0000000000000001
 21
1.0
 31
0.0
 73
     1
 44
1.0
1001
ACAD
1000
MTEXTBEGIN
1070
    73
1070
     1
1070
    44
1040
1.0
1070
    74
1070
     0
1000
MTEXTEND
  0
POINT
  5
61AB5
330
608D9
100
AcDbEntity
  8
Defpoints
 62
     0
100
AcDbPoint
 10
50.69768417579644
 20
24.02000000000001
 30
0.0
  0
POINT
  5
61AB6
330
608D9
100
AcDbEntity
  8
Defpoints
 62
     0
100
AcDbPoint
 10
50.69768417579644
 20
-24.02000000000001
 30
0.0
  0
POINT
  5
61AB7
330
608D9
100
AcDbEntity
  8
Defpoints
 62
     0
100
AcDbPoint
 10
73.72380017380959
 20
-24.02000000000001
 30
0.0
  0
ENDBLK
  5
608E4
330
608D9
100
AcDbEntity
  8
0
100
AcDbBlockEnd
  0
BLOCK
  5
608FB
330
608F1
100
AcDbEntity
  8
0
100
AcDbBlockBegin
  2
*D85
 70
     1
 10
0.0
 20
0.0
 30
0.0
  3
*D85
  1

  0
LINE
  5
61B13
330
608F1
100
AcDbEntity
  8
2
100
AcDbLine
 10
47.41601732760005
 20
31.75000000000001
 30
0.0
 11
88.63589434491819
 21
31.74999999999999
 31
0.0
  0
LINE
  5
61B14
330
608F1
100
AcDbEntity
  8
2
100
AcDbLine
 10
87.1358943449182
 20
28.25
 30
0.0
 11
87.1358943449182
 21
-31.75000000000002
 31
0.0
  0
SOLID
  5
61B15
330
608F1
100
AcDbEntity
  8
2
100
AcDbTrace
 10
86.55256101158487
 20
28.25
 30
0.0
 11
87.71922767825152
 21
28.25
 31
0.0
 12
87.1358943449182
 22
31.75
 32
0.0
 13
87.1358943449182
 23
31.75
 33
0.0
  0
MTEXT
  5
61B16
330
608F1
100
AcDbEntity
  8
2
100
AcDbMText
 10
83.08589434491819
 20
-0.1771098223954363
 30
0.0
 40
3.5
 41
0.0
 71
     5
 72
     1
  1
\A1;%%C63.5 [%%C2.500"]
  7
simplex
 11
0.0000000000000001
 21
1.0
 31
0.0
 73
     1
 44
1.0
1001
ACAD
1000
MTEXTBEGIN
1070
    73
1070
     1
1070
    44
1040
1.0
1070
    74
1070
     0
1000
MTEXTEND
  0
POINT
  5
61B17
330
608F1
100
AcDbEntity
  8
Defpoints
 62
     0
100
AcDbPoint
 10
47.41601732760005
 20
31.75000000000001
 30
0.0
  0
POINT
  5
61B18
330
608F1
100
AcDbEntity
  8
Defpoints
 62
     0
100
AcDbPoint
 10
47.41601732760005
 20
-31.75000000000001
 30
0.0
  0
POINT
  5
61B19
330
608F1
100
AcDbEntity
  8
Defpoints
 62
     0
100
AcDbPoint
 10
87.1358943449182
 20
-31.75000000000002
 30
0.0
  0
ENDBLK
  5
608FC
330
608F1
100
AcDbEntity
  8
0
100
AcDbBlockEnd
  0
BLOCK
  5
60913
330
60909
100
AcDbEntity
  8
0
100
AcDbBlockBegin
  2
*D86
 70
     1
 10
0.0
 20
0.0
 30
0.0
  3
*D86
  1

  0
LINE
  5
61B01
330
60909
100
AcDbEntity
  8
sk2
100
AcDbLine
 10
4.000000000000028
 20
12.69999999999999
 30
0.0
 11
-14.30895007098786
 21
12.69999999999999
 31
0.0
  0
LINE
  5
61B02
330
60909
100
AcDbEntity
  8
sk2
100
AcDbLine
 10
4.000000000000028
 20
-12.69999999999999
 30
0.0
 11
-14.30895007098786
 21
-12.69999999999998
 31
0.0
  0
LINE
  5
61B03
330
60909
100
AcDbEntity
  8
sk2
100
AcDbLine
 10
-12.80895007098786
 20
9.199999999999995
 30
0.0
 11
-12.80895007098786
 21
-9.199999999999981
 31
0.0
  0
SOLID
  5
61B04
330
60909
100
AcDbEntity
  8
sk2
100
AcDbTrace
 10
-13.39228340432119
 20
9.199999999999995
 30
0.0
 11
-12.22561673765452
 21
9.199999999999995
 31
0.0
 12
-12.80895007098786
 22
12.69999999999999
 32
0.0
 13
-12.80895007098786
 23
12.69999999999999
 33
0.0
  0
SOLID
  5
61B05
330
60909
100
AcDbEntity
  8
sk2
100
AcDbTrace
 10
-13.3922834043212
 20
-9.199999999999981
 30
0.0
 11
-12.22561673765453
 21
-9.199999999999981
 31
0.0
 12
-12.80895007098786
 22
-12.69999999999998
 32
0.0
 13
-12.80895007098786
 23
-12.69999999999998
 33
0.0
  0
MTEXT
  5
61B06
330
60909
100
AcDbEntity
  8
sk2
100
AcDbMText
 10
-16.85895007098786
 20
0.0000000000000048
 30
0.0
 40
3.5
 41
0.0
 71
     5
 72
     1
  1
\A1;%%C25.4 [%%c1.000"]
  7
simplex
 11
0.0000000000000001
 21
1.0
 31
0.0
 73
     1
 44
1.0
1001
ACAD
1000
MTEXTBEGIN
1070
    73
1070
     1
1070
    44
1040
1.0
1070
    74
1070
     0
1000
MTEXTEND
  0
POINT
  5
61B07
330
60909
100
AcDbEntity
  8
Defpoints
 62
     0
100
AcDbPoint
 10
4.000000000000028
 20
12.69999999999999
 30
0.0
  0
POINT
  5
61B08
330
60909
100
AcDbEntity
  8
Defpoints
 62
     0
100
AcDbPoint
 10
4.000000000000028
 20
-12.69999999999999
 30
0.0
  0
POINT
  5
61B09
330
60909
100
AcDbEntity
  8
Defpoints
 62
     0
100
AcDbPoint
 10
-12.80895007098786
 20
-12.69999999999998
 30
0.0
  0
ENDBLK
  5
60914
330
60909
100
AcDbEntity
  8
0
100
AcDbBlockEnd
  0
BLOCK
  5
6092B
330
60921
100
AcDbEntity
  8
0
100
AcDbBlockBegin
  2
*D87
 70
     1
 10
0.0
 20
0.0
 30
0.0
  3
*D87
  1

  0
LINE
  5
61B0A
330
60921
100
AcDbEntity
  8
sk2
100
AcDbLine
 10
2.000000000000056
 20
30.16250000000002
 30
0.0
 11
-27.65806200077383
 21
30.16250000000003
 31
0.0
  0
LINE
  5
61B0B
330
60921
100
AcDbEntity
  8
sk2
100
AcDbLine
 10
2.000000000000028
 20
-30.16249999999997
 30
0.0
 11
-27.65806200077385
 21
-30.16249999999996
 31
0.0
  0
LINE
  5
61B0C
330
60921
100
AcDbEntity
  8
sk2
100
AcDbLine
 10
-26.15806200077383
 20
26.66250000000003
 30
0.0
 11
-26.15806200077385
 21
-26.66249999999996
 31
0.0
  0
SOLID
  5
61B0D
330
60921
100
AcDbEntity
  8
sk2
100
AcDbTrace
 10
-26.74139533410717
 20
26.66250000000003
 30
0.0
 11
-25.5747286674405
 21
26.66250000000003
 31
0.0
 12
-26.15806200077383
 22
30.16250000000003
 32
0.0
 13
-26.15806200077383
 23
30.16250000000003
 33
0.0
  0
SOLID
  5
61B0E
330
60921
100
AcDbEntity
  8
sk2
100
AcDbTrace
 10
-26.74139533410718
 20
-26.66249999999996
 30
0.0
 11
-25.57472866744051
 21
-26.66249999999996
 31
0.0
 12
-26.15806200077385
 22
-30.16249999999996
 32
0.0
 13
-26.15806200077385
 23
-30.16249999999996
 33
0.0
  0
MTEXT
  5
61B0F
330
60921
100
AcDbEntity
  8
sk2
100
AcDbMText
 10
-30.20806200077384
 20
-0.0567970440036442
 30
0.0
 40
3.5
 41
0.0
 71
     5
 72
     1
  1
\A1;%%C60.325 [%%c2.375"]
  7
simplex
 11
0.0000000000000001
 21
1.0
 31
0.0
 73
     1
 44
1.0
1001
ACAD
1000
MTEXTBEGIN
1070
    73
1070
     1
1070
    44
1040
1.0
1070
    74
1070
     0
1000
MTEXTEND
  0
POINT
  5
61B10
330
60921
100
AcDbEntity
  8
Defpoints
 62
     0
100
AcDbPoint
 10
2.000000000000056
 20
30.16250000000002
 30
0.0
  0
POINT
  5
61B11
330
60921
100
AcDbEntity
  8
Defpoints
 62
     0
100
AcDbPoint
 10
2.000000000000028
 20
-30.16249999999997
 30
0.0
  0
POINT
  5
61B12
330
60921
100
AcDbEntity
  8
Defpoints
 62
     0
100
AcDbPoint
 10
-26.15806200077385
 20
-30.16249999999996
 30
0.0
  0
ENDBLK
  5
6092C
330
60921
100
AcDbEntity
  8
0
100
AcDbBlockEnd
  0
BLOCK
  5
60943
330
60939
100
AcDbEntity
  8
0
100
AcDbBlockBegin
  2
*D88
 70
     1
 10
0.0
 20
0.0
 30
0.0
  3
*D88
  1

  0
LINE
  5
61AD3
330
60939
100
AcDbEntity
  8
sk2
100
AcDbLine
 10
0.0000000000000284
 20
-28.16249999999996
 30
0.0
 11
0.0000000000000267
 21
-56.61005773151498
 31
0.0
  0
LINE
  5
61AD4
330
60939
100
AcDbEntity
  8
sk2
100
AcDbLine
 10
24.00000000000003
 20
-12.3957475583
 30
0.0
 11
24.00000000000003
 21
-56.61005773151498
 31
0.0
  0
LINE
  5
61AD5
330
60939
100
AcDbEntity
  8
sk2
100
AcDbLine
 10
20.50000000000002
 20
-55.11005773151499
 30
0.0
 11
3.500000000000026
 21
-55.11005773151499
 31
0.0
  0
LINE
  5
61AD6
330
60939
100
AcDbEntity
  8
sk2
100
AcDbLine
 10
0.0000000000000268
 20
-55.11005773151499
 30
0.0
 11
-36.09999999999997
 21
-55.11005773151499
 31
0.0
  0
SOLID
  5
61AD7
330
60939
100
AcDbEntity
  8
sk2
100
AcDbTrace
 10
20.50000000000002
 20
-54.52672439818165
 30
0.0
 11
20.50000000000002
 21
-55.69339106484832
 31
0.0
 12
24.00000000000003
 22
-55.11005773151499
 32
0.0
 13
24.00000000000003
 23
-55.11005773151499
 33
0.0
  0
SOLID
  5
61AD8
330
60939
100
AcDbEntity
  8
sk2
100
AcDbTrace
 10
3.500000000000026
 20
-54.52672439818165
 30
0.0
 11
3.500000000000026
 21
-55.69339106484832
 31
0.0
 12
0.0000000000000268
 22
-55.11005773151499
 32
0.0
 13
0.0000000000000268
 23
-55.11005773151499
 33
0.0
  0
MTEXT
  5
61AD9
330
60939
100
AcDbEntity
  8
sk2
100
AcDbMText
 10
-19.79999999999997
 20
-51.06005773151498
 30
0.0
 40
3.5
 41
0.0
 71
     5
 72
     1
  1
\A1;24 [.945"]
  7
simplex
 73
     1
 44
1.0
1001
ACAD
1000
MTEXTBEGIN
1070
    73
1070
     1
1070
    44
1040
1.0
1070
    74
1070
     0
1000
MTEXTEND
  0
POINT
  5
61ADA
330
60939
100
AcDbEntity
  8
Defpoints
 62
     0
100
AcDbPoint
 10
0.0000000000000284
 20
-28.16249999999996
 30
0.0
  0
POINT
  5
61ADB
330
60939
100
AcDbEntity
  8
Defpoints
 62
     0
100
AcDbPoint
 10
24.00000000000003
 20
-12.3957475583
 30
0.0
  0
POINT
  5
61ADC
330
60939
100
AcDbEntity
  8
Defpoints
 62
     0
100
AcDbPoint
 10
24.00000000000003
 20
-55.11005773151499
 30
0.0
  0
ENDBLK
  5
60944
330
60939
100
AcDbEntity
  8
0
100
AcDbBlockEnd
  0
BLOCK
  5
6095C
330
60951
100
AcDbEntity
  8
0
100
AcDbBlockBegin
  2
*D89
 70
     1
 10
0.0
 20
0.0
 30
0.0
  3
*D89
  1

  0
LINE
  5
61A6B
330
60951
100
AcDbEntity
  8
2
100
AcDbLine
 10
50.80000000000004
 20
24.12223759951325
 30
0.0
 11
50.80000000000003
 21
-56.57200505834738
 31
0.0
  0
LINE
  5
61A6C
330
60951
100
AcDbEntity
  8
2
100
AcDbLine
 10
48.70000000000004
 20
17.2727259715336
 30
0.0
 11
48.70000000000004
 21
-56.57200505834737
 31
0.0
  0
LINE
  5
61A6D
330
60951
100
AcDbEntity
  8
2
100
AcDbLine
 10
45.20000000000004
 20
-55.07200505834737
 30
0.0
 11
41.70000000000004
 21
-55.07200505834737
 31
0.0
  0
LINE
  5
61A6E
330
60951
100
AcDbEntity
  8
2
100
AcDbLine
 10
54.30000000000003
 20
-55.07200505834737
 30
0.0
 11
104.9833333333334
 21
-55.07200505834737
 31
0.0
  0
SOLID
  5
61A6F
330
60951
100
AcDbEntity
  8
2
100
AcDbTrace
 10
45.20000000000004
 20
-54.48867172501404
 30
0.0
 11
45.20000000000004
 21
-55.65533839168071
 31
0.0
 12
48.70000000000004
 22
-55.07200505834737
 32
0.0
 13
48.70000000000004
 23
-55.07200505834737
 33
0.0
  0
SOLID
  5
61A70
330
60951
100
AcDbEntity
  8
2
100
AcDbTrace
 10
54.30000000000003
 20
-54.48867172501404
 30
0.0
 11
54.30000000000003
 21
-55.65533839168071
 31
0.0
 12
50.80000000000003
 22
-55.07200505834737
 32
0.0
 13
50.80000000000003
 23
-55.07200505834737
 33
0.0
  0
MTEXT
  5
61A71
330
60951
100
AcDbEntity
  8
2
100
AcDbMText
 10
81.39166666666671
 20
-51.02200505834737
 30
0.0
 40
3.5
 41
0.0
 71
     5
 72
     1
  1
\A1;2.1 [.083"](MAX)
  7
simplex
 73
     1
 44
1.0
1001
ACAD
1000
MTEXTBEGIN
1070
    73
1070
     1
1070
    44
1040
1.0
1070
    74
1070
     0
1000
MTEXTEND
  0
POINT
  5
61A72
330
60951
100
AcDbEntity
  8
Defpoints
 62
     0
100
AcDbPoint
 10
50.80000000000004
 20
24.12223759951325
 30
0.0
  0
POINT
  5
61A73
330
60951
100
AcDbEntity
  8
Defpoints
 62
     0
100
AcDbPoint
 10
48.70000000000004
 20
17.2727259715336
 30
0.0
  0
POINT
  5
61A74
330
60951
100
AcDbEntity
  8
Defpoints
 62
     0
100
AcDbPoint
 10
48.70000000000004
 20
-55.07200505834737
 30
0.0
  0
ENDBLK
  5
6095D
330
60951
100
AcDbEntity
  8
0
100
AcDbBlockEnd
  0
BLOCK
  5
60976
330
6096B
100
AcDbEntity
  8
0
100
AcDbBlockBegin
  2
*D90
 70
     1
 10
0.0
 20
0.0
 30
0.0
  3
*D90
  1

  0
LINE
  5
61A75
330
6096B
100
AcDbEntity
  8
2
100
AcDbLine
 10
50.80000000000004
 20
24.12223759951325
 30
0.0
 11
50.80000000000004
 21
59.23136219644209
 31
0.0
  0
LINE
  5
61A76
330
6096B
100
AcDbEntity
  8
2
100
AcDbLine
 10
48.80000000000004
 20
30.35185706252543
 30
0.0
 11
48.80000000000004
 21
59.23136219644209
 31
0.0
  0
LINE
  5
61A77
330
6096B
100
AcDbEntity
  8
2
100
AcDbLine
 10
54.30000000000004
 20
57.73136219644209
 30
0.0
 11
57.80000000000004
 21
57.73136219644209
 31
0.0
  0
LINE
  5
61A78
330
6096B
100
AcDbEntity
  8
2
100
AcDbLine
 10
45.30000000000003
 20
57.73136219644209
 30
0.0
 11
-77.71666666666661
 21
57.73136219644209
 31
0.0
  0
SOLID
  5
61A79
330
6096B
100
AcDbEntity
  8
2
100
AcDbTrace
 10
54.30000000000004
 20
58.31469552977543
 30
0.0
 11
54.30000000000004
 21
57.14802886310875
 31
0.0
 12
50.80000000000004
 22
57.73136219644209
 32
0.0
 13
50.80000000000004
 23
57.73136219644209
 33
0.0
  0
SOLID
  5
61A7A
330
6096B
100
AcDbEntity
  8
2
100
AcDbTrace
 10
45.30000000000003
 20
58.31469552977543
 30
0.0
 11
45.30000000000003
 21
57.14802886310875
 31
0.0
 12
48.80000000000004
 22
57.73136219644209
 32
0.0
 13
48.80000000000004
 23
57.73136219644209
 33
0.0
  0
MTEXT
  5
61A7B
330
6096B
100
AcDbEntity
  8
2
100
AcDbMText
 10
-17.95833333333328
 20
61.78136219644208
 30
0.0
 40
3.5
 41
0.0
 71
     5
 72
     1
  1
\A1;2 [.079"](APMX AT HIGH FEED PROCESS)
  7
simplex
 73
     1
 44
1.0
1001
ACAD
1000
MTEXTBEGIN
1070
    73
1070
     1
1070
    44
1040
1.0
1070
    74
1070
     0
1000
MTEXTEND
  0
POINT
  5
61A7C
330
6096B
100
AcDbEntity
  8
Defpoints
 62
     0
100
AcDbPoint
 10
50.80000000000004
 20
24.12223759951325
 30
0.0
  0
POINT
  5
61A7D
330
6096B
100
AcDbEntity
  8
Defpoints
 62
     0
100
AcDbPoint
 10
48.80000000000004
 20
30.35185706252543
 30
0.0
  0
POINT
  5
61A7E
330
6096B
100
AcDbEntity
  8
Defpoints
 62
     0
100
AcDbPoint
 10
48.80000000000004
 20
57.73136219644209
 30
0.0
  0
ENDBLK
  5
60977
330
6096B
100
AcDbEntity
  8
0
100
AcDbBlockEnd
  0
BLOCK
  5
60990
330
60985
100
AcDbEntity
  8
0
100
AcDbBlockBegin
  2
*D91
 70
     1
 10
0.0
 20
0.0
 30
0.0
  3
*D91
  1

  0
LINE
  5
61A7F
330
60985
100
AcDbEntity
  8
2
100
AcDbLine
 10
50.80000000000004
 20
24.12223759951325
 30
0.0
 11
50.80000000000004
 21
70.02410455375969
 31
0.0
  0
LINE
  5
61A80
330
60985
100
AcDbEntity
  8
2
100
AcDbLine
 10
47.80000000000003
 20
31.22176803755738
 30
0.0
 11
47.80000000000003
 21
70.02410455375969
 31
0.0
  0
LINE
  5
61A81
330
60985
100
AcDbEntity
  8
2
100
AcDbLine
 10
54.30000000000004
 20
68.52410455375968
 30
0.0
 11
57.80000000000004
 21
68.52410455375968
 31
0.0
  0
LINE
  5
61A82
330
60985
100
AcDbEntity
  8
2
100
AcDbLine
 10
44.30000000000004
 20
68.52410455375968
 30
0.0
 11
0.0333333333333812
 21
68.52410455375968
 31
0.0
  0
SOLID
  5
61A83
330
60985
100
AcDbEntity
  8
2
100
AcDbTrace
 10
54.30000000000004
 20
69.10743788709301
 30
0.0
 11
54.30000000000004
 21
67.94077122042636
 31
0.0
 12
50.80000000000004
 22
68.52410455375968
 32
0.0
 13
50.80000000000004
 23
68.52410455375968
 33
0.0
  0
SOLID
  5
61A84
330
60985
100
AcDbEntity
  8
2
100
AcDbTrace
 10
44.30000000000004
 20
69.10743788709301
 30
0.0
 11
44.30000000000004
 21
67.94077122042636
 31
0.0
 12
47.80000000000003
 22
68.52410455375968
 32
0.0
 13
47.80000000000003
 23
68.52410455375968
 33
0.0
  0
MTEXT
  5
61A85
330
60985
100
AcDbEntity
  8
2
100
AcDbMText
 10
20.41666666666671
 20
72.57410455375968
 30
0.0
 40
3.5
 41
0.0
 71
     5
 72
     1
  1
\A1;APMX3 [.118"]
  7
simplex
 73
     1
 44
1.0
1001
ACAD
1000
MTEXTBEGIN
1070
    73
1070
     1
1070
    44
1040
1.0
1070
    74
1070
     0
1000
MTEXTEND
  0
POINT
  5
61A86
330
60985
100
AcDbEntity
  8
Defpoints
 62
     0
100
AcDbPoint
 10
50.80000000000004
 20
24.12223759951325
 30
0.0
  0
POINT
  5
61A87
330
60985
100
AcDbEntity
  8
Defpoints
 62
     0
100
AcDbPoint
 10
47.80000000000003
 20
31.22176803755738
 30
0.0
  0
POINT
  5
61A88
330
60985
100
AcDbEntity
  8
Defpoints
 62
     0
100
AcDbPoint
 10
47.80000000000003
 20
68.52410455375968
 30
0.0
  0
ENDBLK
  5
60991
330
60985
100
AcDbEntity
  8
0
100
AcDbBlockEnd
  0
BLOCK
  5
609A9
330
6099F
100
AcDbEntity
  8
0
100
AcDbBlockBegin
  2
*D92
 70
     1
 10
0.0
 20
0.0
 30
0.0
  3
*D92
  1

  0
LINE
  5
61A89
330
6099F
100
AcDbEntity
  8
2
100
AcDbLine
 10
50.80000000000004
 20
24.12223759951325
 30
0.0
 11
50.80000000000004
 21
80.89967794086669
 31
0.0
  0
LINE
  5
61A8A
330
6099F
100
AcDbEntity
  8
2
100
AcDbLine
 10
0.0000000000000568
 20
24.02
 30
0.0
 11
0.0000000000000603
 21
80.89967794086669
 31
0.0
  0
LINE
  5
61A8B
330
6099F
100
AcDbEntity
  8
2
100
AcDbLine
 10
47.30000000000003
 20
79.39967794086669
 30
0.0
 11
3.50000000000006
 21
79.39967794086669
 31
0.0
  0
SOLID
  5
61A8C
330
6099F
100
AcDbEntity
  8
2
100
AcDbTrace
 10
47.30000000000003
 20
79.98301127420003
 30
0.0
 11
47.30000000000003
 21
78.81634460753336
 31
0.0
 12
50.80000000000004
 22
79.39967794086669
 32
0.0
 13
50.80000000000004
 23
79.39967794086669
 33
0.0
  0
SOLID
  5
61A8D
330
6099F
100
AcDbEntity
  8
2
100
AcDbTrace
 10
3.50000000000006
 20
79.98301127420003
 30
0.0
 11
3.50000000000006
 21
78.81634460753336
 31
0.0
 12
0.0000000000000602
 22
79.39967794086669
 32
0.0
 13
0.0000000000000602
 23
79.39967794086669
 33
0.0
  0
MTEXT
  5
61A8E
330
6099F
100
AcDbEntity
  8
2
100
AcDbMText
 10
25.40000000000005
 20
83.44967794086668
 30
0.0
 40
3.5
 41
0.0
 71
     5
 72
     1
  1
\A1;50.8 [2.000"]
  7
simplex
 73
     1
 44
1.0
1001
ACAD
1000
MTEXTBEGIN
1070
    73
1070
     1
1070
    44
1040
1.0
1070
    74
1070
     0
1000
MTEXTEND
  0
POINT
  5
61A8F
330
6099F
100
AcDbEntity
  8
Defpoints
 62
     0
100
AcDbPoint
 10
50.80000000000004
 20
24.12223759951325
 30
0.0
  0
POINT
  5
61A90
330
6099F
100
AcDbEntity
  8
Defpoints
 62
     0
100
AcDbPoint
 10
0.0000000000000568
 20
24.02
 30
0.0
  0
POINT
  5
61A91
330
6099F
100
AcDbEntity
  8
Defpoints
 62
     0
100
AcDbPoint
 10
0.0000000000000602
 20
79.39967794086669
 30
0.0
  0
ENDBLK
  5
609AA
330
6099F
100
AcDbEntity
  8
0
100
AcDbBlockEnd
  0
BLOCK
  5
61B24
330
61B1C
100
AcDbEntity
  8
0
100
AcDbBlockBegin
  2
*D98
 70
     1
 10
0.0
 20
0.0
 30
0.0
  3
*D98
  1

  0
LINE
  5
61B36
330
61B1C
100
AcDbEntity
  8
2
100
AcDbLine
 10
89.43945535453408
 20
51.96155888066669
 30
0.0
 11
51.82792361633795
 21
32.13633190211461
 31
0.0
  0
MTEXT
  5
61B37
330
61B1C
100
AcDbEntity
  8
2
100
AcDbMText
 10
70.29330558764003
 20
46.44771099120626
 30
0.0
 40
3.5
 41
0.0
 71
     5
 72
     1
  1
\A1;R1.5 [R.059"]
  7
simplex
 11
0.8846303035248013
 21
0.4662930688800959
 31
0.0
 73
     1
 44
1.0
1001
ACAD
1000
MTEXTBEGIN
1070
    73
1070
     1
1070
    44
1040
1.0
1070
    74
1070
     0
1000
MTEXTEND
  0
SOLID
  5
61B38
330
61B1C
100
AcDbEntity
  8
2
100
AcDbTrace
 10
51.5559193261579
 20
32.65236624583741
 30
0.0
 11
52.09992790651801
 21
31.62029755839182
 31
0.0
 12
48.73171755400115
 22
30.50430616103428
 32
0.0
 13
48.73171755400115
 23
30.50430616103428
 33
0.0
  0
LINE
  5
61B39
330
61B1C
100
AcDbEntity
  8
2
100
AcDbLine
 10
47.31477209871381
 20
29.80486655771406
 30
0.0
 11
47.49477209871382
 21
29.80486655771406
 31
0.0
  0
LINE
  5
61B3A
330
61B1C
100
AcDbEntity
  8
2
100
AcDbLine
 10
47.40477209871381
 20
29.71486655771406
 30
0.0
 11
47.40477209871381
 21
29.89486655771406
 31
0.0
  0
POINT
  5
61B3B
330
61B1C
100
AcDbEntity
  8
Defpoints
 62
     0
100
AcDbPoint
 10
48.73171755400115
 20
30.50430616103428
 30
0.0
  0
POINT
  5
61B3C
330
61B1C
100
AcDbEntity
  8
Defpoints
 62
     0
100
AcDbPoint
 10
47.40477209871381
 20
29.80486655771406
 30
0.0
  0
ENDBLK
  5
61B25
330
61B1C
100
AcDbEntity
  8
0
100
AcDbBlockEnd
  0
ENDSEC
  0
SECTION
  2
ENTITIES
  0
INSERT
  5
68C
330
1F
100
AcDbEntity
  8
0
100
AcDbBlockReference
  2
zero block
 10
0.0000000000000072
 20
0.0
 30
0.0
 50
180.0
  0
MTEXT
  5
5CD11
330
1F
100
AcDbEntity
  8
sk6
100
AcDbMText
 10
-12.46389686923112
 20
98.57378453863361
 30
0.0
 40
5.0
 41
85.25075165579854
 71
     1
 72
     5
  1
WJX14UR2_5005CA
  7
simplex
 73
     1
 44
1.0
1001
ACAD
1000
ACAD_MTEXT_DEFINED_HEIGHT_BEGIN
1070
    46
1040
0.0
1000
ACAD_MTEXT_DEFINED_HEIGHT_END
1000
MTEXTBEGIN
1070
    73
1070
     1
1070
    44
1040
1.0
1070
    74
1070
     0
1000
MTEXTEND
  0
DIMENSION
  5
608D8
330
1F
100
AcDbEntity
  8
2
100
AcDbDimension
  2
*D84
 10
73.72380017380959
 20
-24.02000000000001
 30
0.0
 11
73.72380017380959
 21
-0.1723033375905629
 31
0.0
 70
   160
  1
%%C<>
 71
     5
 42
48.04000000000001
  3
\M+18352\M+18373\M+1815B - ISO-25
100
AcDbAlignedDimension
 13
50.69768417579644
 23
24.02000000000001
 33
0.0
 14
50.69768417579644
 24
-24.02000000000001
 34
0.0
 50
90.0
100
AcDbRotatedDimension
1001
ACAD
1000
DSTYLE
1002
{
1070
     4
1000
%%C[]"
1070
    40
1040
1.0
1070
    76
1070
     1
1070
   143
1040
0.0393700787401575
1070
   170
1070
     1
1070
   171
1070
     3
1070
   173
1070
     1
1070
   271
1070
     8
1070
   285
1070
     4
1070
   344
1005
32F1
1002
}
  0
DIMENSION
  5
608F0
330
1F
100
AcDbEntity
  8
2
100
AcDbDimension
  2
*D85
 10
87.1358943449182
 20
-31.75000000000002
 30
0.0
 11
87.1358943449182
 21
-0.1771098223954368
 31
0.0
 70
   160
  1
%%C<>
 71
     5
 42
63.50000000000001
  3
\M+18352\M+18373\M+1815B - ISO-25
100
AcDbAlignedDimension
 13
47.41601732760005
 23
31.75000000000001
 33
0.0
 14
47.41601732760005
 24
-31.75000000000001
 34
0.0
 50
90.0
100
AcDbRotatedDimension
1001
ACAD
1000
DSTYLE
1002
{
1070
     4
1000
%%C[]"
1070
    40
1040
1.0
1070
    76
1070
     1
1070
   143
1040
0.0393700787401575
1070
   170
1070
     1
1070
   171
1070
     3
1070
   173
1070
     1
1070
   271
1070
     8
1070
   285
1070
     4
1070
   344
1005
32F1
1002
}
  0
DIMENSION
  5
60908
330
1F
100
AcDbEntity
  8
sk2
100
AcDbDimension
  2
*D86
 10
-12.80895007098786
 20
-12.69999999999998
 30
0.0
 11
-12.80895007098786
 21
0.0000000000000043
 31
0.0
 70
   160
  1
%%C<>
 71
     5
 42
25.39999999999998
  3
\M+18352\M+18373\M+1815B - ISO-25
100
AcDbAlignedDimension
 13
4.000000000000028
 23
12.69999999999999
 33
0.0
 14
4.000000000000028
 24
-12.69999999999999
 34
0.0
 50
90.0
100
AcDbRotatedDimension
1001
ACAD
1000
DSTYLE
1002
{
1070
     4
1000
%%c[]"
1070
    40
1040
1.0
1070
   143
1040
0.0393700787401575
1070
   170
1070
     1
1070
   171
1070
     3
1070
   271
1070
     8
1070
   285
1070
     4
1002
}
  0
DIMENSION
  5
60920
330
1F
100
AcDbEntity
  8
sk2
100
AcDbDimension
  2
*D87
 10
-26.15806200077385
 20
-30.16249999999996
 30
0.0
 11
-26.15806200077384
 21
-0.0567970440036447
 31
0.0
 70
   160
  1
%%C<>
 71
     5
 42
60.32499999999998
  3
\M+18352\M+18373\M+1815B - ISO-25
100
AcDbAlignedDimension
 13
2.000000000000056
 23
30.16250000000002
 33
0.0
 14
2.000000000000028
 24
-30.16249999999997
 34
0.0
 50
90.0
100
AcDbRotatedDimension
1001
ACAD
1000
DSTYLE
1002
{
1070
     4
1000
%%c[]"
1070
    40
1040
1.0
1070
   143
1040
0.0393700787401575
1070
   170
1070
     1
1070
   171
1070
     3
1070
   271
1070
     8
1070
   285
1070
     4
1002
}
  0
DIMENSION
  5
60938
330
1F
100
AcDbEntity
  8
sk2
100
AcDbDimension
  2
*D88
 10
24.00000000000003
 20
-55.11005773151499
 30
0.0
 11
-19.79999999999997
 21
-55.11005773151499
 31
0.0
 70
   160
 71
     5
 42
24.0
  3
\M+18352\M+18373\M+1815B - ISO-25
100
AcDbAlignedDimension
 13
0.0000000000000284
 23
-28.16249999999996
 33
0.0
 14
24.00000000000003
 24
-12.3957475583
 34
0.0
100
AcDbRotatedDimension
1001
ACAD
1000
DSTYLE
1002
{
1070
     4
1000
[]"
1070
    40
1040
1.0
1070
   143
1040
0.0393700787401575
1070
   170
1070
     1
1070
   171
1070
     3
1070
   271
1070
     8
1070
   285
1070
     4
1002
}
  0
DIMENSION
  5
60950
330
1F
100
AcDbEntity
  8
2
100
AcDbDimension
  2
*D89
 10
48.70000000000004
 20
-55.07200505834737
 30
0.0
 11
81.39166666666671
 21
-55.07200505834737
 31
0.0
 70
   160
  1
<>(MAX)
 71
     5
 42
2.099999999999994
  3
\M+18352\M+18373\M+1815B - ISO-25
100
AcDbAlignedDimension
 13
50.80000000000004
 23
24.12223759951325
 33
0.0
 14
48.70000000000004
 24
17.2727259715336
 34
0.0
100
AcDbRotatedDimension
1001
ACAD
1000
DSTYLE
1002
{
1070
     4
1000
"
1070
    40
1040
1.0
1070
   143
1040
0.0393700787401575
1070
   170
1070
     1
1070
   171
1070
     3
1070
   271
1070
     8
1070
   285
1070
     4
1002
}
  0
DIMENSION
  5
6096A
330
1F
100
AcDbEntity
  8
2
100
AcDbDimension
  2
*D90
 10
48.80000000000004
 20
57.73136219644209
 30
0.0
 11
-17.95833333333328
 21
61.78136219644208
 31
0.0
 70
    32
  1
<>(APMX AT HIGH FEED PROCESS)
 71
     5
 42
2.0
  3
\M+18352\M+18373\M+1815B - ISO-25
100
AcDbAlignedDimension
 13
50.80000000000004
 23
24.12223759951325
 33
0.0
 14
48.80000000000004
 24
30.35185706252543
 34
0.0
100
AcDbRotatedDimension
1001
ACAD
1000
DSTYLE
1002
{
1070
     4
1000
"
1070
    40
1040
1.0
1070
   143
1040
0.0393700787401575
1070
   170
1070
     1
1070
   171
1070
     3
1070
   271
1070
     8
1070
   285
1070
     4
1002
}
  0
DIMENSION
  5
60984
330
1F
100
AcDbEntity
  8
2
100
AcDbDimension
  2
*D91
 10
47.80000000000003
 20
68.52410455375968
 30
0.0
 11
20.41666666666671
 21
72.57410455375968
 31
0.0
 70
    32
  1
APMX<>
 71
     5
 42
3.0
  3
\M+18352\M+18373\M+1815B - ISO-25
100
AcDbAlignedDimension
 13
50.80000000000004
 23
24.12223759951325
 33
0.0
 14
47.80000000000003
 24
31.22176803755738
 34
0.0
100
AcDbRotatedDimension
1001
ACAD
1000
DSTYLE
1002
{
1070
     4
1000
"
1070
    40
1040
1.0
1070
   143
1040
0.0393700787401575
1070
   170
1070
     1
1070
   171
1070
     3
1070
   271
1070
     8
1070
   285
1070
     4
1002
}
  0
DIMENSION
  5
6099E
330
1F
100
AcDbEntity
  8
2
100
AcDbDimension
  2
*D92
 10
0.0000000000000602
 20
79.39967794086669
 30
0.0
 11
25.40000000000005
 21
83.44967794086668
 31
0.0
 70
    32
 71
     5
 42
50.79999999999998
  3
\M+18352\M+18373\M+1815B - ISO-25
100
AcDbAlignedDimension
 13
50.80000000000004
 23
24.12223759951325
 33
0.0
 14
0.0000000000000568
 24
24.02
 34
0.0
100
AcDbRotatedDimension
1001
ACAD
1000
DSTYLE
1002
{
1070
     4
1000
"
1070
    40
1040
1.0
1070
   143
1040
0.0393700787401575
1070
   170
1070
     1
1070
   171
1070
     3
1070
   271
1070
     8
1070
   285
1070
     4
1002
}
  0
LINE
  5
61861
330
1F
100
AcDbEntity
  8
cut
100
AcDbLine
 10
50.73637431680007
 20
24.5200570774
 30
0.0
 11
48.85047446150008
 21
30.68855755710001
 31
0.0
1001
ACAD
1000
RTMaterial
1005
0
  0
LINE
  5
61864
330
1F
100
AcDbEntity
  8
cut
100
AcDbLine
 10
47.27692188100007
 20
31.74353689500004
 30
0.0
 11
43.54838147420008
 21
31.39629204630006
 31
0.0
1001
ACAD
1000
RTMaterial
1005
0
  0
LINE
  5
61866
330
1F
100
AcDbEntity
  8
1
100
AcDbLine
 10
40.39800868930004
 20
-30.22480153729993
 30
0.0
 11
41.66764324700008
 21
-29.89837294
 31
0.0
1001
ACAD
1000
RTMaterial
1005
0
  0
LINE
  5
61867
330
1F
100
AcDbEntity
  8
1
100
AcDbLine
 10
36.29451001350006
 20
-30.25
 30
0.0
 11
40.19880382560003
 21
-30.25
 31
0.0
1001
ACAD
1000
RTMaterial
1005
0
  0
LINE
  5
61868
330
1F
100
AcDbEntity
  8
1
100
AcDbLine
 10
9.028098454300078
 20
-30.16249999999997
 30
0.0
 11
2.000000000000028
 21
-30.16249999999997
 31
0.0
1001
ACAD
1000
RTMaterial
1005
0
  0
LINE
  5
61869
330
1F
100
AcDbEntity
  8
1
100
AcDbLine
 10
41.93614761800003
 20
-29.87618164279997
 30
0.0
 11
46.79502517050005
 21
-30.29866702229992
 31
0.0
1001
ACAD
1000
RTMaterial
1005
0
  0
LINE
  5
6186A
330
1F
100
AcDbEntity
  8
1
100
AcDbLine
 10
27.33232496370002
 20
-27.9669026222
 30
0.0
 11
33.3707929663
 21
-29.81304755959996
 31
0.0
1001
ACAD
1000
RTMaterial
1005
0
  0
LINE
  5
6186B
330
1F
100
AcDbEntity
  8
1
100
AcDbLine
 10
48.04987040400002
 20
-29.44294012869995
 30
0.0
 11
49.50000000000002
 21
-24.53083532509999
 31
0.0
1001
ACAD
1000
RTMaterial
1005
0
  0
LINE
  5
6186C
330
1F
100
AcDbEntity
  8
1
100
AcDbLine
 10
13.99275900100005
 20
-28.54932065019994
 30
0.0
 11
10.90113142140004
 21
-29.79841927279995
 31
0.0
1001
ACAD
1000
RTMaterial
1005
0
  0
LINE
  5
6186D
330
1F
100
AcDbEntity
  8
sk3
100
AcDbLine
 10
13.83926112070006
 20
-13.1250462296
 30
0.0
 11
12.92774653970005
 21
-12.69999999999999
 31
0.0
1001
ACAD
1000
RTMaterial
1005
0
  0
LINE
  5
6186E
330
1F
100
AcDbEntity
  8
sk3
100
AcDbLine
 10
1.200000000000073
 20
-13.19999999999999
 30
0.0
 11
4.000000000000028
 21
-13.19999999999999
 31
0.0
1001
ACAD
1000
RTMaterial
1005
0
  0
LINE
  5
6186F
330
1F
100
AcDbEntity
  8
sk3
100
AcDbLine
 10
23.20000000000007
 20
-13.19999999999999
 30
0.0
 11
14.17735573010006
 21
-13.19999999999999
 31
0.0
1001
ACAD
1000
RTMaterial
1005
0
  0
LINE
  5
61870
330
1F
100
AcDbEntity
  8
sk3
100
AcDbLine
 10
12.92774653970005
 20
-12.69999999999999
 30
0.0
 11
4.000000000000028
 21
-12.69999999999999
 31
0.0
1001
ACAD
1000
RTMaterial
1005
0
  0
LINE
  5
61871
330
1F
100
AcDbEntity
  8
1
100
AcDbLine
 10
0.0000000000000284
 20
5.262499999999988
 30
0.0
 11
0.5000000000000285
 21
4.762499999999988
 31
0.0
1001
ACAD
1000
RTMaterial
1005
0
  0
LINE
  5
61872
330
1F
100
AcDbEntity
  8
1
100
AcDbLine
 10
4.56000000000003
 20
4.762499999999988
 30
0.0
 11
5.56000000000003
 21
3.762499999999988
 31
0.0
1001
ACAD
1000
RTMaterial
1005
0
  0
LINE
  5
61874
330
1F
100
AcDbEntity
  8
sk3
100
AcDbLine
 10
45.30000000000003
 20
-10.0
 30
0.0
 11
32.40000000000006
 21
-10.0
 31
0.0
1001
ACAD
1000
RTMaterial
1005
0
  0
LINE
  5
61876
330
1F
100
AcDbEntity
  8
sk3
100
AcDbLine
 10
46.30000000000004
 20
12.59852356610003
 30
0.0
 11
46.30000000000004
 21
-12.59852356609997
 31
0.0
1001
ACAD
1000
RTMaterial
1005
0
  0
LINE
  5
61877
330
1F
100
AcDbEntity
  8
sk3
100
AcDbLine
 10
45.30000000000003
 20
10.0
 30
0.0
 11
45.30000000000003
 21
-10.0
 31
0.0
1001
ACAD
1000
RTMaterial
1005
0
  0
LINE
  5
61878
330
1F
100
AcDbEntity
  8
sk3
100
AcDbLine
 10
31.50000000000003
 20
-6.849999999999965
 30
0.0
 11
24.40000000000007
 21
-6.849999999999965
 31
0.0
1001
ACAD
1000
RTMaterial
1005
0
  0
LINE
  5
61879
330
1F
100
AcDbEntity
  8
1
100
AcDbLine
 10
4.56000000000003
 20
-4.762499999999988
 30
0.0
 11
0.5000000000000285
 21
-4.762499999999988
 31
0.0
1001
ACAD
1000
RTMaterial
1005
0
  0
LINE
  5
6187A
330
1F
100
AcDbEntity
  8
sk3
100
AcDbLine
 10
1.200000000000073
 20
13.19999999999999
 30
0.0
 11
0.0000000000000284
 21
14.40000000000003
 31
0.0
1001
ACAD
1000
RTMaterial
1005
0
  0
LINE
  5
6187E
330
1F
100
AcDbEntity
  8
sk3
100
AcDbLine
 10
46.30000000000004
 20
11.0
 30
0.0
 11
45.30000000000003
 21
10.0
 31
0.0
1001
ACAD
1000
RTMaterial
1005
0
  0
LINE
  5
61880
330
1F
100
AcDbEntity
  8
4
100
AcDbLine
 10
53.25530620940006
 20
0.0
 30
0.0
 11
-2.700456876699973
 21
0.0
 31
0.0
1001
ACAD
1000
RTMaterial
1005
0
  0
LINE
  5
61881
330
1F
100
AcDbEntity
  8
sk3
100
AcDbLine
 10
31.50000000000003
 20
-6.849999999999965
 30
0.0
 11
32.00000000000003
 21
-7.349999999999965
 31
0.0
1001
ACAD
1000
RTMaterial
1005
0
  0
LINE
  5
61882
330
1F
100
AcDbEntity
  8
1
100
AcDbLine
 10
0.5000000000000285
 20
4.762499999999988
 30
0.0
 11
4.56000000000003
 21
4.762499999999988
 31
0.0
1001
ACAD
1000
RTMaterial
1005
0
  0
LINE
  5
61883
330
1F
100
AcDbEntity
  8
sk3
100
AcDbLine
 10
32.00000000000006
 20
9.600000000000022
 30
0.0
 11
32.00000000000003
 21
-9.599999999999965
 31
0.0
1001
ACAD
1000
RTMaterial
1005
0
  0
LINE
  5
61884
330
1F
100
AcDbEntity
  8
sk3
100
AcDbLine
 10
31.50000000000006
 20
6.850000000000022
 30
0.0
 11
31.50000000000003
 21
-6.849999999999965
 31
0.0
1001
ACAD
1000
RTMaterial
1005
0
  0
LINE
  5
61886
330
1F
100
AcDbEntity
  8
sk3
100
AcDbLine
 10
31.50000000000006
 20
6.850000000000022
 30
0.0
 11
24.40000000000009
 21
6.850000000000022
 31
0.0
1001
ACAD
1000
RTMaterial
1005
0
  0
LINE
  5
61887
330
1F
100
AcDbEntity
  8
sk3
100
AcDbLine
 10
46.30000000000004
 20
-11.0
 30
0.0
 11
45.30000000000003
 21
-10.0
 31
0.0
1001
ACAD
1000
RTMaterial
1005
0
  0
LINE
  5
61888
330
1F
100
AcDbEntity
  8
sk3
100
AcDbLine
 10
31.50000000000006
 20
6.850000000000022
 30
0.0
 11
32.00000000000006
 21
7.350000000000022
 31
0.0
1001
ACAD
1000
RTMaterial
1005
0
  0
LINE
  5
6188A
330
1F
100
AcDbEntity
  8
sk3
100
AcDbLine
 10
45.30000000000003
 20
10.0
 30
0.0
 11
32.40000000000009
 21
10.0
 31
0.0
1001
ACAD
1000
RTMaterial
1005
0
  0
LINE
  5
6188B
330
1F
100
AcDbEntity
  8
sk3
100
AcDbLine
 10
12.92774653970005
 20
12.69999999999999
 30
0.0
 11
4.000000000000028
 21
12.69999999999999
 31
0.0
1001
ACAD
1000
RTMaterial
1005
0
  0
LINE
  5
6188C
330
1F
100
AcDbEntity
  8
sk3
100
AcDbLine
 10
1.200000000000073
 20
13.19999999999999
 30
0.0
 11
4.000000000000028
 21
13.19999999999999
 31
0.0
1001
ACAD
1000
RTMaterial
1005
0
  0
LINE
  5
6188D
330
1F
100
AcDbEntity
  8
sk3
100
AcDbLine
 10
23.2000000000001
 20
13.19999999999999
 30
0.0
 11
14.17735573010006
 21
13.19999999999999
 31
0.0
1001
ACAD
1000
RTMaterial
1005
0
  0
LINE
  5
6188F
330
1F
100
AcDbEntity
  8
sk3
100
AcDbLine
 10
47.6637741533
 20
-18.8477910958
 30
0.0
 11
49.50000000000002
 21
-22.85453112289997
 31
0.0
1001
ACAD
1000
RTMaterial
1005
0
  0
LINE
  5
61890
330
1F
100
AcDbEntity
  8
sk3
100
AcDbLine
 10
24.00000000000003
 20
-12.3957475583
 30
0.0
 11
24.00000000000006
 21
12.38669269740001
 31
0.0
1001
ACAD
1000
RTMaterial
1005
0
  0
LINE
  5
61895
330
1F
100
AcDbEntity
  8
sk3
100
AcDbLine
 10
1.200000000000073
 20
-13.19999999999999
 30
0.0
 11
0.0000000000000284
 21
-14.39999999999997
 31
0.0
1001
ACAD
1000
RTMaterial
1005
0
  0
LINE
  5
6189B
330
1F
100
AcDbEntity
  8
1
100
AcDbLine
 10
5.56000000000003
 20
-3.762499999999988
 30
0.0
 11
4.56000000000003
 21
-4.762499999999988
 31
0.0
1001
ACAD
1000
RTMaterial
1005
0
  0
LINE
  5
618A1
330
1F
100
AcDbEntity
  8
1
100
AcDbLine
 10
0.5000000000000285
 20
-4.762499999999988
 30
0.0
 11
0.0000000000000284
 21
-5.262499999999988
 31
0.0
1001
ACAD
1000
RTMaterial
1005
0
  0
LINE
  5
618A2
330
1F
100
AcDbEntity
  8
sk3
100
AcDbLine
 10
13.83926112070006
 20
13.1250462296
 30
0.0
 11
12.92774653970005
 21
12.69999999999999
 31
0.0
1001
ACAD
1000
RTMaterial
1005
0
  0
LINE
  5
618B4
330
1F
100
AcDbEntity
  8
sk3
100
AcDbLine
 10
12.92774653970005
 20
12.69999999999999
 30
0.0
 11
12.92774653970005
 21
-12.69999999999999
 31
0.0
1001
ACAD
1000
RTMaterial
1005
0
  0
LINE
  5
618C2
330
1F
100
AcDbEntity
  8
1
100
AcDbLine
 10
9.028098454300106
 20
30.16250000000002
 30
0.0
 11
2.000000000000056
 21
30.16250000000002
 31
0.0
1001
ACAD
1000
RTMaterial
1005
0
  0
LINE
  5
618C4
330
1F
100
AcDbEntity
  8
1
100
AcDbLine
 10
5.56000000000003
 20
3.762499999999988
 30
0.0
 11
5.56000000000003
 21
-3.762499999999988
 31
0.0
1001
ACAD
1000
RTMaterial
1005
0
  0
LINE
  5
618C7
330
1F
100
AcDbEntity
  8
sk3
100
AcDbLine
 10
4.000000000000028
 20
-13.19999999999999
 30
0.0
 11
4.000000000000028
 21
-4.762499999999988
 31
0.0
1001
ACAD
1000
RTMaterial
1005
0
  0
LINE
  5
618C8
330
1F
100
AcDbEntity
  8
sk3
100
AcDbLine
 10
4.000000000000028
 20
4.762499999999988
 30
0.0
 11
4.000000000000028
 21
13.19999999999999
 31
0.0
1001
ACAD
1000
RTMaterial
1005
0
  0
LINE
  5
618C9
330
1F
100
AcDbEntity
  8
sk3
100
AcDbLine
 10
1.200000000000073
 20
13.19999999999999
 30
0.0
 11
1.200000000000073
 21
4.762499999999988
 31
0.0
1001
ACAD
1000
RTMaterial
1005
0
  0
LINE
  5
618CA
330
1F
100
AcDbEntity
  8
sk3
100
AcDbLine
 10
1.200000000000073
 20
-4.762499999999988
 30
0.0
 11
1.200000000000073
 21
-13.19999999999999
 31
0.0
1001
ACAD
1000
RTMaterial
1005
0
  0
LINE
  5
618CB
330
1F
100
AcDbEntity
  8
1
100
AcDbLine
 10
0.0000000000000284
 20
-28.16249720779996
 30
0.0
 11
0.0000000000000284
 21
-5.262499999999988
 31
0.0
1001
ACAD
1000
RTMaterial
1005
0
  0
LINE
  5
618CC
330
1F
100
AcDbEntity
  8
1
100
AcDbLine
 10
0.0000000000000106
 20
5.262500000000006
 30
0.0
 11
0.0000000000000568
 21
28.16249720780002
 31
0.0
1001
ACAD
1000
RTMaterial
1005
0
  0
ARC
  5
618D2
330
1F
100
AcDbEntity
  8
cut
100
AcDbCircle
 10
47.41601732760005
 20
30.25
 30
0.0
 40
1.5
100
AcDbArc
 50
16.99999999999887
 51
95.32069872130049
1001
ACAD
1000
RTMaterial
1005
0
  0
ARC
  5
618D7
330
1F
100
AcDbEntity
  8
1
100
AcDbCircle
 10
21.48489086930007
 20
-47.09299774150003
 30
0.0
 40
20.0
100
AcDbArc
 50
72.99999999999982
 51
111.9999999999995
1001
ACAD
1000
RTMaterial
1005
0
  0
ARC
  5
618D8
330
1F
100
AcDbEntity
  8
sk3
100
AcDbCircle
 10
61.30000000000004
 20
-12.59852356609997
 30
0.0
 40
15.0
100
AcDbArc
 50
180.0
 51
204.6212406696003
1001
ACAD
1000
RTMaterial
1005
0
  0
ARC
  5
618D9
330
1F
100
AcDbEntity
  8
sk3
100
AcDbCircle
 10
61.30000000000004
 20
12.59852356610003
 30
0.0
 40
15.0
100
AcDbArc
 50
171.7739670978993
 51
180.0
1001
ACAD
1000
RTMaterial
1005
0
  0
ARC
  5
618DB
330
1F
100
AcDbEntity
  8
1
100
AcDbCircle
 10
36.29451001350006
 20
-20.25
 30
0.0
 40
10.0
100
AcDbArc
 50
252.9999999999998
 51
270.0
1001
ACAD
1000
RTMaterial
1005
0
  0
ARC
  5
618DD
330
1F
100
AcDbEntity
  8
1
100
AcDbCircle
 10
9.028098454300078
 20
-25.16249999999997
 30
0.0
 40
5.0
100
AcDbArc
 50
270.0
 51
291.9999999999995
1001
ACAD
1000
RTMaterial
1005
0
  0
ARC
  5
618DE
330
1F
100
AcDbEntity
  8
1
100
AcDbCircle
 10
2.000000000000056
 20
28.16250000000002
 30
0.0
 40
2.0
100
AcDbArc
 50
90.0
 51
180.0
1001
ACAD
1000
RTMaterial
1005
0
  0
ARC
  5
618DF
330
1F
100
AcDbEntity
  8
1
100
AcDbCircle
 10
2.000000000000028
 20
-28.16249999999996
 30
0.0
 40
2.0
100
AcDbArc
 50
180.0
 51
270.0
1001
ACAD
1000
RTMaterial
1005
0
  0
ARC
  5
618E0
330
1F
100
AcDbEntity
  8
1
100
AcDbCircle
 10
46.89897443140004
 20
-29.10317777049994
 30
0.0
 40
1.199999999999999
100
AcDbArc
 50
265.0305601927997
 51
343.5525814034006
1001
ACAD
1000
RTMaterial
1005
0
  0
ARC
  5
618E1
330
1F
100
AcDbEntity
  8
sk3
100
AcDbCircle
 10
23.2000000000001
 20
12.40000000000003
 30
0.0
 40
0.8
100
AcDbArc
 50
0.0
 51
90.0
1001
ACAD
1000
RTMaterial
1005
0
  0
ARC
  5
618E2
330
1F
100
AcDbEntity
  8
sk3
100
AcDbCircle
 10
23.20000000000007
 20
-12.39999999999997
 30
0.0
 40
0.8
100
AcDbArc
 50
270.0
 51
0.0
1001
ACAD
1000
RTMaterial
1005
0
  0
ARC
  5
618E3
330
1F
100
AcDbEntity
  8
sk3
100
AcDbCircle
 10
14.17735573010006
 20
-12.39999999999997
 30
0.0
 40
0.8
100
AcDbArc
 50
245.0000000000003
 51
270.0
1001
ACAD
1000
RTMaterial
1005
0
  0
ARC
  5
618E4
330
1F
100
AcDbEntity
  8
sk3
100
AcDbCircle
 10
14.17735573010006
 20
12.40000000000003
 30
0.0
 40
0.8
100
AcDbArc
 50
90.0
 51
114.9999999999996
1001
ACAD
1000
RTMaterial
1005
0
  0
ARC
  5
618E5
330
1F
100
AcDbEntity
  8
1
100
AcDbCircle
 10
40.19880382560003
 20
-29.44999999999999
 30
0.0
 40
0.8
100
AcDbArc
 50
270.0
 51
284.4187049035003
1001
ACAD
1000
RTMaterial
1005
0
  0
ARC
  5
618E6
330
1F
100
AcDbEntity
  8
1
100
AcDbCircle
 10
41.86684811070003
 20
-30.67317447739998
 30
0.0
 40
0.8
100
AcDbArc
 50
85.0305601927997
 51
104.4187049035003
1001
ACAD
1000
RTMaterial
1005
0
  0
ARC
  5
618E7
330
1F
100
AcDbEntity
  8
sk3
100
AcDbCircle
 10
32.40000000000006
 20
-9.599999999999965
 30
0.0
 40
0.4
100
AcDbArc
 50
180.0
 51
270.0
1001
ACAD
1000
RTMaterial
1005
0
  0
ARC
  5
618E8
330
1F
100
AcDbEntity
  8
sk3
100
AcDbCircle
 10
32.40000000000009
 20
9.600000000000022
 30
0.0
 40
0.4
100
AcDbArc
 50
90.0
 51
180.0
1001
ACAD
1000
RTMaterial
1005
0
  0
ARC
  5
618E9
330
1F
100
AcDbEntity
  8
sk3
100
AcDbCircle
 10
24.40000000000007
 20
-7.25
 30
0.0
 40
0.4
100
AcDbArc
 50
90.0
 51
180.0
1001
ACAD
1000
RTMaterial
1005
0
  0
ARC
  5
618EA
330
1F
100
AcDbEntity
  8
sk3
100
AcDbCircle
 10
24.40000000000009
 20
7.25
 30
0.0
 40
0.4
100
AcDbArc
 50
180.0
 51
270.0
1001
ACAD
1000
RTMaterial
1005
0
  0
SPLINE
  5
618EF
330
1F
100
AcDbEntity
  8
cut
100
AcDbSpline
210
0.0
220
0.0
230
1.0
 70
     8
 71
     3
 72
    22
 73
    18
 74
     0
 42
0.0000000001
 43
0.0000000001
 40
0.0
 40
0.0
 40
0.0
 40
0.0
 40
0.0666666667
 40
0.1333333333
 40
0.2
 40
0.2666666667
 40
0.3333333333
 40
0.4
 40
0.4666666667000001
 40
0.5333333333
 40
0.6
 40
0.6666666667
 40
0.7333333333
 40
0.8
 40
0.8666666667000001
 40
0.9333333333
 40
1.0
 40
1.0
 40
1.0
 40
1.0
 10
50.77384048890005
 20
22.78309304779998
 30
0.0
 10
50.77543886920003
 20
22.81116028970001
 30
0.0
 10
50.77848124300007
 20
22.86680858230005
 30
0.0
 10
50.78254150230006
 20
22.94784763200005
 30
0.0
 10
50.78626178420003
 20
23.02937529680002
 30
0.0
 10
50.78969608190002
 20
23.11342055170002
 30
0.0
 10
50.79287489620006
 20
23.2018828496
 30
0.0
 10
50.79569807520008
 20
23.29340236950009
 30
0.0
 10
50.79809963790004
 20
23.38685013450004
 30
0.0
 10
50.80004034750007
 20
23.48101708830001
 30
0.0
 10
50.80149839580005
 20
23.57478948810006
 30
0.0
 10
50.80245904030002
 20
23.66682046880004
 30
0.0
 10
50.80292870130003
 20
23.75593540210002
 30
0.0
 10
50.80294656040004
 20
23.84065916430001
 30
0.0
 10
50.80256776010006
 20
23.9228600454
 30
0.0
 10
50.80181633980007
 20
24.00448512760005
 30
0.0
 10
50.80104366210005
 20
24.06069870910005
 30
0.0
 10
50.80058650510003
 20
24.08907291010002
 30
0.0
1001
ACAD
1000
RTMaterial
1005
0
  0
SPLINE
  5
618F0
330
1F
100
AcDbEntity
  8
cut
100
AcDbSpline
210
0.0
220
0.0
230
1.0
 70
     8
 71
     3
 72
    11
 73
     7
 74
     0
 42
0.0000000001
 43
0.0000000001
 40
0.0
 40
0.0
 40
0.0
 40
0.0
 40
0.25
 40
0.5
 40
0.75
 40
1.0
 40
1.0
 40
1.0
 40
1.0
 10
50.80000023460005
 20
24.12222664650006
 30
0.0
 10
50.79923528800006
 20
24.1579426861
 30
0.0
 10
50.79534370390004
 20
24.22815992099998
 30
0.0
 10
50.78199093940006
 20
24.3303587085
 30
0.0
 10
50.76236905490006
 20
24.4278770697
 30
0.0
 10
50.74559057580003
 20
24.48981707230007
 30
0.0
 10
50.73637431680007
 20
24.5200570774
 30
0.0
1001
ACAD
1000
RTMaterial
1005
0
  0
LINE
  5
618F1
330
1F
100
AcDbEntity
  8
cut
100
AcDbLine
 10
50.80058650510003
 20
24.08907291010002
 30
0.0
 11
50.80000023460005
 21
24.12222664650006
 31
0.0
1001
ACAD
1000
RTMaterial
1005
0
  0
SPLINE
  5
618F2
330
1F
100
AcDbEntity
  8
cut
100
AcDbSpline
210
0.0
220
0.0
230
1.0
 70
     8
 71
     3
 72
    11
 73
     7
 74
     0
 42
0.0000000001
 43
0.0000000001
 40
0.0
 40
0.0
 40
0.0
 40
0.0
 40
0.25
 40
0.5
 40
0.75
 40
1.0
 40
1.0
 40
1.0
 40
1.0
 10
43.54838147420008
 20
31.39629204630006
 30
0.0
 10
43.46819840570009
 20
31.38896472190004
 30
0.0
 10
43.29699741830006
 20
31.37397378100002
 30
0.0
 10
43.0067266512001
 20
31.35126337450004
 30
0.0
 10
42.68555759690008
 20
31.32948760540001
 30
0.0
 10
42.45095496570008
 20
31.3163203199
 30
0.0
 10
42.32850851780006
 20
31.3102859142
 30
0.0
1001
ACAD
1000
RTMaterial
1005
0
  0
SPLINE
  5
618F3
330
1F
100
AcDbEntity
  8
cut
100
AcDbSpline
210
0.0
220
0.0
230
1.0
 70
     8
 71
     3
 72
    10
 73
     6
 74
     0
 42
0.0000000001
 43
0.0000000001
 40
0.0
 40
0.0
 40
0.0
 40
0.0
 40
0.3333333333
 40
0.6666666667
 40
1.0
 40
1.0
 40
1.0
 40
1.0
 10
42.32850851780006
 20
31.3102859142
 30
0.0
 10
42.29727501820008
 20
31.3080306292
 30
0.0
 10
42.23658729800007
 20
31.30106718249999
 30
0.0
 10
42.15029857450008
 20
31.28401857330004
 30
0.0
 10
42.09696760330007
 20
31.26887251639999
 30
0.0
 10
42.07121398500009
 20
31.26045714910004
 30
0.0
1001
ACAD
1000
RTMaterial
1005
0
  0
SPLINE
  5
618F4
330
1F
100
AcDbEntity
  8
cut
100
AcDbSpline
210
0.0
220
0.0
230
1.0
 70
     8
 71
     3
 72
    10
 73
     6
 74
     0
 42
0.0000000001
 43
0.0000000001
 40
0.0
 40
0.0
 40
0.0
 40
0.0
 40
0.3333333333
 40
0.6666666667
 40
1.0
 40
1.0
 40
1.0
 40
1.0
 10
42.07121398500009
 20
31.26045714910004
 30
0.0
 10
42.06218698660006
 20
31.25750744679999
 30
0.0
 10
42.04428904430011
 20
31.25125199900003
 30
0.0
 10
42.01788076700006
 20
31.24077143050005
 30
0.0
 10
42.00063536720006
 20
31.23308487610001
 30
0.0
 10
41.99209503630004
 20
31.22906833980005
 30
0.0
1001
ACAD
1000
RTMaterial
1005
0
  0
SPLINE
  5
618F5
330
1F
100
AcDbEntity
  8
cut
100
AcDbSpline
210
0.0
220
0.0
230
1.0
 70
     8
 71
     3
 72
    22
 73
    18
 74
     0
 42
0.0000000001
 43
0.0000000001
 40
0.0
 40
0.0
 40
0.0
 40
0.0
 40
0.0666666667
 40
0.1333333333
 40
0.2
 40
0.2666666667
 40
0.3333333333
 40
0.4
 40
0.4666666667000001
 40
0.5333333333
 40
0.6
 40
0.6666666667
 40
0.7333333333
 40
0.8
 40
0.8666666667000001
 40
0.9333333333
 40
1.0
 40
1.0
 40
1.0
 40
1.0
 10
41.99209503630004
 20
31.22906833980005
 30
0.0
 10
41.96766217740008
 20
31.21757751290005
 30
0.0
 10
41.91927826210007
 20
31.19469105010006
 30
0.0
 10
41.84899533030005
 20
31.16105876050005
 30
0.0
 10
41.77844846760007
 20
31.12691872660003
 30
0.0
 10
41.70589839950008
 20
31.09138760989998
 30
0.0
 10
41.62971994320009
 20
31.05361916419997
 30
0.0
 10
41.55111062630004
 20
31.01415282279999
 30
0.0
 10
41.47105760210007
 20
30.97345103620006
 30
0.0
 10
41.39060607990006
 20
30.93203676870002
 30
0.0
 10
41.31070816720006
 20
30.89040137470005
 30
0.0
 10
41.23250753670004
 20
30.8491466767
 30
0.0
 10
41.15699444130007
 20
30.80881397640002
 30
0.0
 10
41.08539781920007
 20
30.77010937419999
 30
0.0
 10
41.01611318570007
 20
30.73222452390002
 30
0.0
 10
40.94748361430009
 20
30.69428955140001
 30
0.0
 10
40.90033492780008
 20
30.66795008750001
 30
0.0
 10
40.87656661940008
 20
30.65459865330002
 30
0.0
1001
ACAD
1000
RTMaterial
1005
0
  0
SPLINE
  5
618F6
330
1F
100
AcDbEntity
  8
cut
100
AcDbSpline
210
0.0
220
0.0
230
1.0
 70
     8
 71
     3
 72
    11
 73
     7
 74
     0
 42
0.0000000001
 43
0.0000000001
 40
0.0
 40
0.0
 40
0.0
 40
0.0
 40
0.25
 40
0.5
 40
0.75
 40
1.0
 40
1.0
 40
1.0
 40
1.0
 10
40.84884158400007
 20
30.63896181870007
 30
0.0
 10
40.82126933890009
 20
30.62335125880009
 30
0.0
 10
40.76680537940006
 20
30.58991435640002
 30
0.0
 10
40.68662425770009
 20
30.53240427110001
 30
0.0
 10
40.61000300530008
 20
30.46883998290002
 30
0.0
 10
40.56108951190009
 20
30.42229842620003
 30
0.0
 10
40.53723186550008
 20
30.39795773320003
 30
0.0
1001
ACAD
1000
RTMaterial
1005
0
  0
LINE
  5
618F7
330
1F
100
AcDbEntity
  8
cut
100
AcDbLine
 10
40.87656661940008
 20
30.65459865330002
 30
0.0
 11
40.84884158400007
 21
30.63896181870007
 31
0.0
1001
ACAD
1000
RTMaterial
1005
0
  0
SPLINE
  5
618F8
330
1F
100
AcDbEntity
  8
cut
100
AcDbSpline
210
0.0
220
0.0
230
1.0
 70
     8
 71
     3
 72
    20
 73
    16
 74
     0
 42
0.0000000001
 43
0.0000000001
 40
0.0
 40
0.0
 40
0.0
 40
0.0
 40
0.0769230769
 40
0.1538461538
 40
0.2307692308
 40
0.3076923077
 40
0.3846153846
 40
0.4615384615
 40
0.5384615385
 40
0.6153846154
 40
0.6923076923
 40
0.7692307692
 40
0.8461538462
 40
0.9230769231
 40
1.0
 40
1.0
 40
1.0
 40
1.0
 10
40.53723186550008
 20
30.39795773320003
 30
0.0
 10
40.47539719770009
 20
30.33487109680005
 30
0.0
 10
40.34495571230007
 20
30.20182942160005
 30
0.0
 10
40.12909034840009
 20
29.98182984690004
 30
0.0
 10
39.89257732340007
 20
29.74099127890003
 30
0.0
 10
39.63633720580009
 20
29.48031279470001
 30
0.0
 10
39.35801438890008
 20
29.19746743240001
 30
0.0
 10
39.05671412420009
 20
28.89163328290005
 30
0.0
 10
38.73138761990009
 20
28.56184642520003
 30
0.0
 10
38.3775677261001
 20
28.20370454319999
 30
0.0
 10
37.99057249130004
 20
27.81263830040001
 30
0.0
 10
37.56575878560005
 20
27.38417888330002
 30
0.0
 10
37.0982922020001
 20
26.91374465260003
 30
0.0
 10
36.58393173830007
 20
26.39744746560007
 30
0.0
 10
36.20532052150009
 20
26.01855608400007
 30
0.0
 10
36.00739137960005
 20
25.82084791670002
 30
0.0
1001
ACAD
1000
RTMaterial
1005
0
  0
SPLINE
  5
618F9
330
1F
100
AcDbEntity
  8
cut
100
AcDbSpline
210
0.0
220
0.0
230
1.0
 70
     8
 71
     3
 72
    15
 73
    11
 74
     0
 42
0.0000000001
 43
0.0000000001
 40
0.0
 40
0.0
 40
0.0
 40
0.0
 40
0.125
 40
0.25
 40
0.375
 40
0.5
 40
0.625
 40
0.75
 40
0.875
 40
1.0
 40
1.0
 40
1.0
 40
1.0
 10
36.00739137960005
 20
25.82084791670002
 30
0.0
 10
35.97992958240008
 20
25.79341677880007
 30
0.0
 10
35.92723216010006
 20
25.73604049860001
 30
0.0
 10
35.85425819710008
 20
25.64115097060005
 30
0.0
 10
35.7898080353001
 20
25.54065191210003
 30
0.0
 10
35.73346440800009
 20
25.43385484910004
 30
0.0
 10
35.68614708840011
 20
25.32186302590003
 30
0.0
 10
35.64815391310009
 20
25.20588043240002
 30
0.0
 10
35.61959496600008
 20
25.08571469540004
 30
0.0
 10
35.60730072970006
 20
25.00428114610003
 30
0.0
 10
35.60283569220008
 20
24.96310779470003
 30
0.0
1001
ACAD
1000
RTMaterial
1005
0
  0
LINE
  5
618FA
330
1F
100
AcDbEntity
  8
cut
100
AcDbLine
 10
35.60283569220008
 20
24.96310779470003
 30
0.0
 11
35.59980660170004
 21
24.93218141230006
 31
0.0
1001
ACAD
1000
RTMaterial
1005
0
  0
LINE
  5
618FB
330
1F
100
AcDbEntity
  8
cut
100
AcDbLine
 10
35.59980660170004
 20
24.93218141230006
 30
0.0
 11
35.59850311550008
 21
24.9007194953
 31
0.0
1001
ACAD
1000
RTMaterial
1005
0
  0
SPLINE
  5
618FC
330
1F
100
AcDbEntity
  8
cut
100
AcDbSpline
210
0.0
220
0.0
230
1.0
 70
     8
 71
     3
 72
    10
 73
     6
 74
     0
 42
0.0000000001
 43
0.0000000001
 40
0.0
 40
0.0
 40
0.0
 40
0.0
 40
0.3333333333
 40
0.6666666667
 40
1.0
 40
1.0
 40
1.0
 40
1.0
 10
35.59850311550008
 20
24.9007194953
 30
0.0
 10
35.59765431550005
 20
24.87324466640001
 30
0.0
 10
35.59749227390006
 20
24.81858192459998
 30
0.0
 10
35.60166017850008
 20
24.73717299830003
 30
0.0
 10
35.60733417380004
 20
24.68385497420002
 30
0.0
 10
35.61086566770007
 20
24.65738314220005
 30
0.0
1001
ACAD
1000
RTMaterial
1005
0
  0
SPLINE
  5
618FD
330
1F
100
AcDbEntity
  8
cut
100
AcDbSpline
210
0.0
220
0.0
230
1.0
 70
     8
 71
     3
 72
    14
 73
    10
 74
     0
 42
0.0000000001
 43
0.0000000001
 40
0.0
 40
0.0
 40
0.0
 40
0.0
 40
0.1428571429
 40
0.2857142857
 40
0.4285714286
 40
0.5714285714000001
 40
0.7142857143000001
 40
0.8571428570999998
 40
1.0
 40
1.0
 40
1.0
 40
1.0
 10
35.61086566770007
 20
24.65738314220005
 30
0.0
 10
35.61525745110009
 20
24.62446264080006
 30
0.0
 10
35.62625485780007
 20
24.55911807310008
 30
0.0
 10
35.64966103380005
 20
24.46223809620005
 30
0.0
 10
35.67978813330006
 20
24.3676343642
 30
0.0
 10
35.71671098880006
 20
24.27462254210002
 30
0.0
 10
35.76100816090008
 20
24.18344241690005
 30
0.0
 10
35.8130494757001
 20
24.09406963940006
 30
0.0
 10
35.85284569740009
 20
24.03624721690005
 30
0.0
 10
35.87413048280007
 20
24.00780891570003
 30
0.0
1001
ACAD
1000
RTMaterial
1005
0
  0
SPLINE
  5
618FE
330
1F
100
AcDbEntity
  8
cut
100
AcDbSpline
210
0.0
220
0.0
230
1.0
 70
     8
 71
     3
 72
    16
 73
    12
 74
     0
 42
0.0000000001
 43
0.0000000001
 40
0.0
 40
0.0
 40
0.0
 40
0.0
 40
0.1111111111
 40
0.2222222222
 40
0.3333333333
 40
0.4444444444000001
 40
0.5555555556
 40
0.6666666667
 40
0.7777777778
 40
0.8888888889
 40
1.0
 40
1.0
 40
1.0
 40
1.0
 10
35.87413048280007
 20
24.00780891570003
 30
0.0
 10
35.92919297940006
 20
23.93424069169999
 30
0.0
 10
36.04474464130004
 20
23.77988515050004
 30
0.0
 10
36.23417705600008
 20
23.52695546770008
 30
0.0
 10
36.4402973870001
 20
23.25188990440006
 30
0.0
 10
36.66377898160011
 20
22.95383291000002
 30
0.0
 10
36.90727285520007
 20
22.62930310320002
 30
0.0
 10
37.17204188860006
 20
22.27668727370002
 30
0.0
 10
37.45985319750008
 20
21.89371726489998
 30
0.0
 10
37.77208518010008
 20
21.47866595630006
 30
0.0
 10
37.99802820580004
 20
21.17866333650005
 30
0.0
 10
38.11533796640009
 20
21.02300877970003
 30
0.0
1001
ACAD
1000
RTMaterial
1005
0
  0
SPLINE
  5
618FF
330
1F
100
AcDbEntity
  8
cut
100
AcDbSpline
210
0.0
220
0.0
230
1.0
 70
     8
 71
     3
 72
    11
 73
     7
 74
     0
 42
0.0000000001
 43
0.0000000001
 40
0.0
 40
0.0
 40
0.0
 40
0.0
 40
0.25
 40
0.5
 40
0.75
 40
1.0
 40
1.0
 40
1.0
 40
1.0
 10
38.11533796640009
 20
21.02300877970003
 30
0.0
 10
38.16389345310006
 20
20.9585820625
 30
0.0
 10
38.26715425000009
 20
20.82206621050005
 30
0.0
 10
38.44162678380008
 20
20.59348234400005
 30
0.0
 10
38.63361197550006
 20
20.34455634430003
 30
0.0
 10
38.77438225120005
 20
20.16422670169999
 30
0.0
 10
38.84799208890007
 20
20.07063095370006
 30
0.0
1001
ACAD
1000
RTMaterial
1005
0
  0
SPLINE
  5
61900
330
1F
100
AcDbEntity
  8
cut
100
AcDbSpline
210
0.0
220
0.0
230
1.0
 70
     8
 71
     3
 72
    10
 73
     6
 74
     0
 42
0.0000000001
 43
0.0000000001
 40
0.0
 40
0.0
 40
0.0
 40
0.0
 40
0.3333333333
 40
0.6666666667
 40
1.0
 40
1.0
 40
1.0
 40
1.0
 10
38.84799208890007
 20
20.07063095370006
 30
0.0
 10
38.8672310143001
 20
20.04735495010004
 30
0.0
 10
38.90696611360011
 20
20.00308316940004
 30
0.0
 10
38.97027591370005
 20
19.94277891709998
 30
0.0
 10
39.01400986390007
 20
19.90723074760001
 30
0.0
 10
39.03627815450011
 20
19.89049260529998
 30
0.0
1001
ACAD
1000
RTMaterial
1005
0
  0
SPLINE
  5
61901
330
1F
100
AcDbEntity
  8
cut
100
AcDbSpline
210
0.0
220
0.0
230
1.0
 70
     8
 71
     3
 72
    10
 73
     6
 74
     0
 42
0.0000000001
 43
0.0000000001
 40
0.0
 40
0.0
 40
0.0
 40
0.0
 40
0.3333333333
 40
0.6666666667
 40
1.0
 40
1.0
 40
1.0
 40
1.0
 10
39.03627815450011
 20
19.89049260529998
 30
0.0
 10
39.04388200280005
 20
19.88477711069998
 30
0.0
 10
39.05935846490007
 20
19.87359401349999
 30
0.0
 10
39.08342629600009
 20
19.85757217880007
 30
0.0
 10
39.09999200510009
 20
19.84743495480006
 30
0.0
 10
39.10840894250009
 20
19.84249872700008
 30
0.0
1001
ACAD
1000
RTMaterial
1005
0
  0
SPLINE
  5
61902
330
1F
100
AcDbEntity
  8
cut
100
AcDbSpline
210
0.0
220
0.0
230
1.0
 70
     8
 71
     3
 72
    22
 73
    18
 74
     0
 42
0.0000000001
 43
0.0000000001
 40
0.0
 40
0.0
 40
0.0
 40
0.0
 40
0.0666666667
 40
0.1333333333
 40
0.2
 40
0.2666666667
 40
0.3333333333
 40
0.4
 40
0.4666666667000001
 40
0.5333333333
 40
0.6
 40
0.6666666667
 40
0.7333333333
 40
0.8
 40
0.8666666667000001
 40
0.9333333333
 40
1.0
 40
1.0
 40
1.0
 40
1.0
 10
39.10840894250009
 20
19.84249872700008
 30
0.0
 10
39.13237805330004
 20
19.82844171480002
 30
0.0
 10
39.17995666650006
 20
19.80067930749999
 30
0.0
 10
39.24940857960007
 20
19.76056537480002
 30
0.0
 10
39.31943581130008
 20
19.7205221639
 30
0.0
 10
39.39179969420008
 20
19.67958365180004
 30
0.0
 10
39.46815547130007
 20
19.63686508050006
 30
0.0
 10
39.54735177230009
 20
19.5930662664
 30
0.0
 10
39.62842524830006
 20
19.54875320240001
 30
0.0
 10
39.71033293730005
 20
19.50450456179999
 30
0.0
 10
39.79210418770009
 20
19.46084306410006
 30
0.0
 10
39.87255896060009
 20
19.41839106320003
 30
0.0
 10
39.95066033980009
 20
19.37767429770008
 30
0.0
 10
40.02509264210004
 20
19.33932729260004
 30
0.0
 10
40.09747633090007
 20
19.30245623940004
 30
0.0
 10
40.16951412210005
 20
19.26615855090006
 30
0.0
 10
40.21923814100006
 20
19.24137352900004
 30
0.0
 10
40.24436606720008
 20
19.22891913720002
 30
0.0
1001
ACAD
1000
RTMaterial
1005
0
  0
LINE
  5
61903
330
1F
100
AcDbEntity
  8
cut
100
AcDbLine
 10
40.24436606720008
 20
19.22891913720002
 30
0.0
 11
40.27380763990004
 21
19.21430378770003
 31
0.0
1001
ACAD
1000
RTMaterial
1005
0
  0
SPLINE
  5
61904
330
1F
100
AcDbEntity
  8
cut
100
AcDbSpline
210
0.0
220
0.0
230
1.0
 70
     8
 71
     3
 72
    10
 73
     6
 74
     0
 42
0.0000000001
 43
0.0000000001
 40
0.0
 40
0.0
 40
0.0
 40
0.0
 40
0.3333333333
 40
0.6666666667
 40
1.0
 40
1.0
 40
1.0
 40
1.0
 10
40.27380763990004
 20
19.21430378770003
 30
0.0
 10
40.31369709740005
 20
19.1944677596
 30
0.0
 10
40.39511782880004
 20
19.15743431360005
 30
0.0
 10
40.52289357240005
 20
19.10971225320003
 30
0.0
 10
40.61058712170006
 20
19.08366360920001
 30
0.0
 10
40.65518923320007
 20
19.07212568730006
 30
0.0
1001
ACAD
1000
RTMaterial
1005
0
  0
LINE
  5
61905
330
1F
100
AcDbEntity
  8
cut
100
AcDbLine
 10
40.65518923320007
 20
19.07212568730006
 30
0.0
 11
47.08869359390004
 21
17.40821104650001
 31
0.0
1001
ACAD
1000
RTMaterial
1005
0
  0
SPLINE
  5
61906
330
1F
100
AcDbEntity
  8
cut
100
AcDbSpline
210
0.0
220
0.0
230
1.0
 70
     8
 71
     3
 72
    14
 73
    10
 74
     0
 42
0.0000000001
 43
0.0000000001
 40
0.0
 40
0.0
 40
0.0
 40
0.0
 40
0.1428571429
 40
0.2857142857
 40
0.4285714286
 40
0.5714285714000001
 40
0.7142857143000001
 40
0.8571428570999998
 40
1.0
 40
1.0
 40
1.0
 40
1.0
 10
47.08869359390004
 20
17.40821104650001
 30
0.0
 10
47.13740838300006
 20
17.39561462180001
 30
0.0
 10
47.23440154200008
 20
17.37424871320001
 30
0.0
 10
47.38016454000003
 20
17.35359665220005
 30
0.0
 10
47.52151570200007
 20
17.34483493290003
 30
0.0
 10
47.65820209850002
 20
17.34795086600002
 30
0.0
 10
47.78745529800002
 20
17.36208553950007
 30
0.0
 10
47.9087797388
 20
17.38631184080003
 30
0.0
 10
47.98206151510001
 20
17.40788343640003
 30
0.0
 10
48.01710647600007
 20
17.41980835810005
 30
0.0
1001
ACAD
1000
RTMaterial
1005
0
  0
SPLINE
  5
61907
330
1F
100
AcDbEntity
  8
cut
100
AcDbSpline
210
0.0
220
0.0
230
1.0
 70
     8
 71
     3
 72
    10
 73
     6
 74
     0
 42
0.0000000001
 43
0.0000000001
 40
0.0
 40
0.0
 40
0.0
 40
0.0
 40
0.3333333333
 40
0.6666666667
 40
1.0
 40
1.0
 40
1.0
 40
1.0
 10
48.01710647600007
 20
17.41980835810005
 30
0.0
 10
48.02317606890003
 20
17.42187368840007
 30
0.0
 10
48.03517714000006
 20
17.4261358997
 30
0.0
 10
48.05277325910006
 20
17.43292444440004
 30
0.0
 10
48.06422056730005
 20
17.4376989593
 30
0.0
 10
48.06987613170005
 20
17.44014576889998
 30
0.0
1001
ACAD
1000
RTMaterial
1005
0
  0
SPLINE
  5
61908
330
1F
100
AcDbEntity
  8
cut
100
AcDbSpline
210
0.0
220
0.0
230
1.0
 70
     8
 71
     3
 72
    10
 73
     6
 74
     0
 42
0.0000000001
 43
0.0000000001
 40
0.0
 40
0.0
 40
0.0
 40
0.0
 40
0.3333333333
 40
0.6666666667
 40
1.0
 40
1.0
 40
1.0
 40
1.0
 10
48.06987613170005
 20
17.44014576889998
 30
0.0
 10
48.09296179520007
 20
17.45013349430002
 30
0.0
 10
48.13766793880003
 20
17.47113796180002
 30
0.0
 10
48.20073351080006
 20
17.5055081232
 30
0.0
 10
48.23967264620003
 20
17.52994349430003
 30
0.0
 10
48.25844612390003
 20
17.54250948180004
 30
0.0
1001
ACAD
1000
RTMaterial
1005
0
  0
SPLINE
  5
61909
330
1F
100
AcDbEntity
  8
cut
100
AcDbSpline
210
0.0
220
0.0
230
1.0
 70
     8
 71
     3
 72
    15
 73
    11
 74
     0
 42
0.0000000001
 43
0.0000000001
 40
0.0
 40
0.0
 40
0.0
 40
0.0
 40
0.125
 40
0.25
 40
0.375
 40
0.5
 40
0.625
 40
0.75
 40
0.875
 40
1.0
 40
1.0
 40
1.0
 40
1.0
 10
48.25844612390003
 20
17.54250948180004
 30
0.0
 10
48.28053911380002
 20
17.55729737780001
 30
0.0
 10
48.32355259160007
 20
17.5884780536
 30
0.0
 10
48.38503919700006
 20
17.64056889110003
 30
0.0
 10
48.44192662690002
 20
17.69663421160004
 30
0.0
 10
48.49496571900002
 20
17.75671399750001
 30
0.0
 10
48.54360645490001
 20
17.82021477290004
 30
0.0
 10
48.58802987570007
 20
17.88710726450006
 30
0.0
 10
48.62843030750005
 20
17.95716911470004
 30
0.0
 10
48.65275786450005
 20
18.00597847690005
 30
0.0
 10
48.66426485990004
 20
18.03090898779999
 30
0.0
1001
ACAD
1000
RTMaterial
1005
0
  0
SPLINE
  5
6190A
330
1F
100
AcDbEntity
  8
cut
100
AcDbSpline
210
0.0
220
0.0
230
1.0
 70
     8
 71
     3
 72
    16
 73
    12
 74
     0
 42
0.0000000001
 43
0.0000000001
 40
0.0
 40
0.0
 40
0.0
 40
0.0
 40
0.1111111111
 40
0.2222222222
 40
0.3333333333
 40
0.4444444444000001
 40
0.5555555556
 40
0.6666666667
 40
0.7777777778
 40
0.8888888889
 40
1.0
 40
1.0
 40
1.0
 40
1.0
 10
48.66426485990004
 20
18.03090898779999
 30
0.0
 10
48.70118395730006
 20
18.11089615500003
 30
0.0
 10
48.77877403440002
 20
18.27914423230004
 30
0.0
 10
48.90623097460005
 20
18.55604648849999
 30
0.0
 10
49.04514195660008
 20
18.85843027580006
 30
0.0
 10
49.19582399020007
 20
19.18710673410004
 30
0.0
 10
49.36001508080003
 20
19.54600218940004
 30
0.0
 10
49.53846736640006
 20
19.93691401450007
 30
0.0
 10
49.73226954280002
 20
20.36238775300006
 30
0.0
 10
49.94223075100004
 20
20.82437053620004
 30
0.0
 10
50.09390108930003
 20
21.15885174080006
 30
0.0
 10
50.17256837870005
 20
21.33254285100003
 30
0.0
1001
ACAD
1000
RTMaterial
1005
0
  0
SPLINE
  5
6190B
330
1F
100
AcDbEntity
  8
cut
100
AcDbSpline
210
0.0
220
0.0
230
1.0
 70
     8
 71
     3
 72
    11
 73
     7
 74
     0
 42
0.0000000001
 43
0.0000000001
 40
0.0
 40
0.0
 40
0.0
 40
0.0
 40
0.25
 40
0.5
 40
0.75
 40
1.0
 40
1.0
 40
1.0
 40
1.0
 10
50.17256837870005
 20
21.33254285100003
 30
0.0
 10
50.20614660820005
 20
21.40668090750001
 30
0.0
 10
50.27773605330006
 20
21.56410335930002
 30
0.0
 10
50.39927973090008
 20
21.82880127319998
 30
0.0
 10
50.53354902360005
 20
22.11816822310004
 30
0.0
 10
50.63232545910003
 20
22.32865527110005
 30
0.0
 10
50.68404129410007
 20
22.43816237790003
 30
0.0
1001
ACAD
1000
RTMaterial
1005
0
  0
SPLINE
  5
6190C
330
1F
100
AcDbEntity
  8
cut
100
AcDbSpline
210
0.0
220
0.0
230
1.0
 70
     8
 71
     3
 72
    10
 73
     6
 74
     0
 42
0.0000000001
 43
0.0000000001
 40
0.0
 40
0.0
 40
0.0
 40
0.0
 40
0.3333333333
 40
0.6666666667
 40
1.0
 40
1.0
 40
1.0
 40
1.0
 10
50.68404129410007
 20
22.43816237790003
 30
0.0
 10
50.69697519440004
 20
22.46729354800004
 30
0.0
 10
50.71989284710006
 20
22.52529872489998
 30
0.0
 10
50.74629385480003
 20
22.61174661360002
 30
0.0
 10
50.7585867013
 20
22.66780368920001
 30
0.0
 10
50.76355000890007
 20
22.69551294080003
 30
0.0
1001
ACAD
1000
RTMaterial
1005
0
  0
SPLINE
  5
6190D
330
1F
100
AcDbEntity
  8
cut
100
AcDbSpline
210
0.0
220
0.0
230
1.0
 70
     8
 71
     3
 72
    10
 73
     6
 74
     0
 42
0.0000000001
 43
0.0000000001
 40
0.0
 40
0.0
 40
0.0
 40
0.0
 40
0.3333333333
 40
0.6666666667
 40
1.0
 40
1.0
 40
1.0
 40
1.0
 10
50.76355000890007
 20
22.69551294080003
 30
0.0
 10
50.76467850780002
 20
22.70181314640002
 30
0.0
 10
50.76680680700005
 20
22.71435391090006
 30
0.0
 10
50.76959993680006
 20
22.73285869340003
 30
0.0
 10
50.77123908700006
 20
22.74524280600002
 30
0.0
 10
50.77199999940003
 20
22.75142569060006
 30
0.0
1001
ACAD
1000
RTMaterial
1005
0
  0
LINE
  5
6190E
330
1F
100
AcDbEntity
  8
cut
100
AcDbLine
 10
50.77199999940003
 20
22.75142569060006
 30
0.0
 11
50.77384048890005
 21
22.78309304779998
 31
0.0
1001
ACAD
1000
RTMaterial
1005
0
  0
DIMENSION
  5
61B1B
330
1F
100
AcDbEntity
  8
2
100
AcDbDimension
  2
*D98
 10
47.40477209871381
 20
29.80486655771406
 30
0.0
 11
72.18179251660441
 21
42.86495826193081
 31
0.0
 70
    36
 71
     5
 42
1.500000000000149
  3
\M+18352\M+18373\M+1815B - ISO-25
100
AcDbRadialDimension
 15
48.73171755400115
 25
30.50430616103428
 35
0.0
 40
0.0
1001
ACAD
1000
DSTYLE
1002
{
1070
     4
1000
"
1070
    40
1040
1.0
1070
   143
1040
0.0393700787401575
1070
   170
1070
     1
1070
   171
1070
     3
1070
   271
1070
     8
1070
   285
1070
     4
1002
}
  0
LINE
  5
61CC5
330
1F
100
AcDbEntity
  8
nocut
100
AcDbLine
 10
49.5
 20
24.53083532510004
 30
0.0
 11
49.49999999999994
 21
0.0
 31
0.0
1001
ACAD
1000
RTMaterial
1005
0
  0
LINE
  5
61CC7
330
1F
100
AcDbEntity
  8
nocut
100
AcDbLine
 10
48.04987040410003
 20
29.44294012870006
 30
0.0
 11
49.5
 21
24.53083532510004
 31
0.0
1001
ACAD
1000
RTMaterial
1005
0
  0
LINE
  5
61CC8
330
1F
100
AcDbEntity
  8
nocut
100
AcDbLine
 10
41.93614761800001
 20
29.87618164280002
 30
0.0
 11
46.79502517050003
 21
30.29866702230004
 31
0.0
1001
ACAD
1000
RTMaterial
1005
0
  0
LINE
  5
61CCA
330
1F
100
AcDbEntity
  8
nocut
100
AcDbLine
 10
40.3980086894
 20
30.22480153739997
 30
0.0
 11
41.66764324699999
 21
29.89837294
 31
0.0
1001
ACAD
1000
RTMaterial
1005
0
  0
LINE
  5
61CD8
330
1F
100
AcDbEntity
  8
1
100
AcDbLine
 10
49.50000000000017
 20
19.11733820379999
 30
0.0
 11
49.50000000000017
 21
-24.53083457529994
 31
0.0
1001
ACAD
1000
RTMaterial
1005
0
  0
LINE
  5
61CDF
330
1F
100
AcDbEntity
  8
1
100
AcDbLine
 10
39.36776434870012
 20
29.35322912750002
 30
0.0
 11
39.44999390730016
 21
29.05692130250003
 31
0.0
1001
ACAD
1000
RTMaterial
1005
0
  0
LINE
  5
61CE0
330
1F
100
AcDbEntity
  8
1
100
AcDbLine
 10
50.1725683822001
 20
20.66812303450001
 30
0.0
 11
48.66426457390014
 21
17.19032846649998
 31
0.0
1001
ACAD
1000
RTMaterial
1005
0
  0
LINE
  5
61CE1
330
1F
100
AcDbEntity
  8
1
100
AcDbLine
 10
38.70568974520012
 20
19.09142688470007
 30
0.0
 11
38.68198397060013
 21
19.20052582659997
 31
0.0
1001
ACAD
1000
RTMaterial
1005
0
  0
LINE
  5
61CE2
330
1F
100
AcDbEntity
  8
1
100
AcDbLine
 10
40.06680988040011
 20
29.54451325500003
 30
0.0
 11
40.06660472750013
 21
29.71912006629998
 31
0.0
1001
ACAD
1000
RTMaterial
1005
0
  0
LINE
  5
61CE8
330
1F
100
AcDbEntity
  8
1
100
AcDbLine
 10
40.06049625280013
 20
29.52743110610004
 30
0.0
 11
39.95694086590015
 21
29.24568573149997
 31
0.0
1001
ACAD
1000
RTMaterial
1005
0
  0
LINE
  5
61CED
330
1F
100
AcDbEntity
  8
1
100
AcDbLine
 10
46.84563416070012
 20
16.23754661949999
 30
0.0
 11
46.99519803190014
 21
16.31567162399995
 31
0.0
1001
ACAD
1000
RTMaterial
1005
0
  0
LINE
  5
61CEF
330
1F
100
AcDbEntity
  8
1
100
AcDbLine
 10
39.44999390730016
 20
29.05692130250003
 30
0.0
 11
39.64653312840017
 21
29.32561247659999
 31
0.0
1001
ACAD
1000
RTMaterial
1005
0
  0
LINE
  5
61CF0
330
1F
100
AcDbEntity
  8
1
100
AcDbLine
 10
46.89645248380009
 20
16.29331495489998
 30
0.0
 11
47.03651331910015
 21
16.32503456939997
 31
0.0
1001
ACAD
1000
RTMaterial
1005
0
  0
LINE
  5
61CF6
330
1F
100
AcDbEntity
  8
1
100
AcDbLine
 10
36.00739137310015
 20
24.8346252302
 30
0.0
 11
40.53723223530011
 21
29.67460514210001
 31
0.0
1001
ACAD
1000
RTMaterial
1005
0
  0
LINE
  5
61CF7
330
1F
100
AcDbEntity
  8
1
100
AcDbLine
 10
36.36450513620017
 20
25.43403849589998
 30
0.0
 11
39.95694086590015
 21
29.24568573149997
 31
0.0
1001
ACAD
1000
RTMaterial
1005
0
  0
LINE
  5
61CF8
330
1F
100
AcDbEntity
  8
1
100
AcDbLine
 10
39.44999390730016
 20
29.05692130250003
 30
0.0
 11
35.92206221530015
 21
25.35193263009996
 31
0.0
1001
ACAD
1000
RTMaterial
1005
0
  0
LINE
  5
61CFA
330
1F
100
AcDbEntity
  8
1
100
AcDbLine
 10
46.95154868910015
 20
16.32265476570001
 30
0.0
 11
47.46715151900014
 21
16.33714309309999
 31
0.0
1001
ACAD
1000
RTMaterial
1005
0
  0
LINE
  5
61CFB
330
1F
100
AcDbEntity
  8
1
100
AcDbLine
 10
42.48350082450014
 20
16.62907658399996
 30
0.0
 11
29.00411089360014
 21
17.42815793670002
 31
0.0
1001
ACAD
1000
RTMaterial
1005
0
  0
LINE
  5
61CFD
330
1F
100
AcDbEntity
  8
1
100
AcDbLine
 10
49.50000000000017
 20
15.31451784009999
 30
0.0
 11
43.8670336208001
 21
16.44956821879998
 31
0.0
1001
ACAD
1000
RTMaterial
1005
0
  0
LINE
  5
61CFE
330
1F
100
AcDbEntity
  8
1
100
AcDbLine
 10
46.42989448210011
 20
16.46153878310002
 30
0.0
 11
40.95033969430011
 21
17.7600531942
 31
0.0
1001
ACAD
1000
RTMaterial
1005
0
  0
LINE
  5
61CFF
330
1F
100
AcDbEntity
  8
1
100
AcDbLine
 10
47.08869359490011
 20
16.3766816877
 30
0.0
 11
40.65518933140015
 21
17.90125773890003
 31
0.0
1001
ACAD
1000
RTMaterial
1005
0
  0
LINE
  5
61D00
330
1F
100
AcDbEntity
  8
1
100
AcDbLine
 10
13.99275900100014
 20
28.5493206502
 30
0.0
 11
10.90113142140012
 21
29.79841927290005
 31
0.0
1001
ACAD
1000
RTMaterial
1005
0
  0
LINE
  5
61D01
330
1F
100
AcDbEntity
  8
1
100
AcDbLine
 10
35.59980660220018
 20
23.9373265644
 30
0.0
 11
35.49711073090018
 21
24.17598414399999
 31
0.0
1001
ACAD
1000
RTMaterial
1005
0
  0
LINE
  5
61D02
330
1F
100
AcDbEntity
  8
1
100
AcDbLine
 10
35.56161378160019
 20
23.73349035379999
 30
0.0
 11
35.56198681130016
 21
23.73240884180001
 31
0.0
1001
ACAD
1000
RTMaterial
1005
0
  0
LINE
  5
61D03
330
1F
100
AcDbEntity
  8
1
100
AcDbLine
 10
35.5619875466002
 20
23.73239025420003
 30
0.0
 11
35.67284547900013
 21
23.41109863439999
 31
0.0
1001
ACAD
1000
RTMaterial
1005
0
  0
LINE
  5
61D05
330
1F
100
AcDbEntity
  8
1
100
AcDbLine
 10
41.11227027530017
 20
30.13629314320002
 30
0.0
 11
41.11630795050015
 21
30.1384134027
 31
0.0
1001
ACAD
1000
RTMaterial
1005
0
  0
LINE
  5
61D06
330
1F
100
AcDbEntity
  8
1
100
AcDbLine
 10
41.99621888580018
 20
30.59647434360005
 30
0.0
 11
41.11631349810013
 21
30.13840064880003
 31
0.0
1001
ACAD
1000
RTMaterial
1005
0
  0
LINE
  5
61D07
330
1F
100
AcDbEntity
  8
1
100
AcDbLine
 10
41.11274123500018
 20
30.13653998990003
 30
0.0
 11
41.10328662630016
 21
30.13163051930002
 31
0.0
1001
ACAD
1000
RTMaterial
1005
0
  0
LINE
  5
61D09
330
1F
100
AcDbEntity
  8
1
100
AcDbLine
 10
36.36450513620017
 20
25.43403849589998
 30
0.0
 11
36.20055166590018
 21
25.43195154259996
 31
0.0
1001
ACAD
1000
RTMaterial
1005
0
  0
LINE
  5
61D0A
330
1F
100
AcDbEntity
  8
1
100
AcDbLine
 10
34.73964988620017
 20
23.5202514458
 30
0.0
 11
29.10403781490013
 21
23.85434019460001
 31
0.0
1001
ACAD
1000
RTMaterial
1005
0
  0
LINE
  5
61D0B
330
1F
100
AcDbEntity
  8
1
100
AcDbLine
 10
44.22872555170011
 20
22.41711576579996
 30
0.0
 11
44.35688749200011
 21
22.39918091799996
 31
0.0
1001
ACAD
1000
RTMaterial
1005
0
  0
LINE
  5
61D0C
330
1F
100
AcDbEntity
  8
1
100
AcDbLine
 10
42.0670873461001
 20
22.93429528430005
 30
0.0
 11
42.19524928650014
 21
22.91636043649999
 31
0.0
1001
ACAD
1000
RTMaterial
1005
0
  0
LINE
  5
61D0D
330
1F
100
AcDbEntity
  8
1
100
AcDbLine
 10
35.46887527120018
 20
23.4904759602
 30
0.0
 11
35.02739124410019
 21
23.60038271470006
 31
0.0
1001
ACAD
1000
RTMaterial
1005
0
  0
LINE
  5
61D0E
330
1F
100
AcDbEntity
  8
1
100
AcDbLine
 10
46.92260601640015
 20
16.19607573430005
 30
0.0
 11
46.42989448210011
 21
16.46153878310002
 31
0.0
1001
ACAD
1000
RTMaterial
1005
0
  0
LINE
  5
61D0F
330
1F
100
AcDbEntity
  8
1
100
AcDbLine
 10
39.52955241330011
 20
18.43492760890001
 30
0.0
 11
39.59838530920013
 21
18.38808099000005
 31
0.0
1001
ACAD
1000
RTMaterial
1005
0
  0
LINE
  5
61D10
330
1F
100
AcDbEntity
  8
1
100
AcDbLine
 10
39.59697432660016
 20
18.38903908049997
 30
0.0
 11
39.59833980130014
 21
18.38810573490002
 31
0.0
1001
ACAD
1000
RTMaterial
1005
0
  0
LINE
  5
61D11
330
1F
100
AcDbEntity
  8
1
100
AcDbLine
 10
39.1081501906001
 20
18.72372065629997
 30
0.0
 11
39.52955241330011
 21
18.43492760890001
 31
0.0
1001
ACAD
1000
RTMaterial
1005
0
  0
LINE
  5
61D12
330
1F
100
AcDbEntity
  8
1
100
AcDbLine
 10
39.59843071350014
 20
18.3880434198
 30
0.0
 11
39.60014443920011
 21
18.38684281960002
 31
0.0
1001
ACAD
1000
RTMaterial
1005
0
  0
LINE
  5
61D13
330
1F
100
AcDbEntity
  8
1
100
AcDbLine
 10
39.60014443920011
 20
18.38684281960002
 30
0.0
 11
39.60048519840012
 21
18.38659638890004
 31
0.0
1001
ACAD
1000
RTMaterial
1005
0
  0
LINE
  5
61D14
330
1F
100
AcDbEntity
  8
1
100
AcDbLine
 10
34.94245781410015
 20
24.70667048610005
 30
0.0
 11
35.25852006530013
 21
24.45522445239999
 31
0.0
1001
ACAD
1000
RTMaterial
1005
0
  0
LINE
  5
61D15
330
1F
100
AcDbEntity
  8
1
100
AcDbLine
 10
35.46887527120018
 20
23.4904759602
 30
0.0
 11
35.72376048760018
 21
23.28419755990001
 31
0.0
1001
ACAD
1000
RTMaterial
1005
0
  0
LINE
  5
61D16
330
1F
100
AcDbEntity
  8
1
100
AcDbLine
 10
35.45912382730015
 20
24.23485102259997
 30
0.0
 11
35.32245709430012
 21
24.39480221170004
 31
0.0
1001
ACAD
1000
RTMaterial
1005
0
  0
LINE
  5
61D17
330
1F
100
AcDbEntity
  8
1
100
AcDbLine
 10
35.21250562350016
 20
23.76875683140003
 30
0.0
 11
35.40519702050014
 21
23.50632856060002
 31
0.0
1001
ACAD
1000
RTMaterial
1005
0
  0
LINE
  5
61D18
330
1F
100
AcDbEntity
  8
1
100
AcDbLine
 10
38.7004973449001
 20
19.0184272889
 30
0.0
 11
39.13845721690012
 21
18.42196551820001
 31
0.0
1001
ACAD
1000
RTMaterial
1005
0
  0
LINE
  5
61D19
330
1F
100
AcDbEntity
  8
1
100
AcDbLine
 10
38.11533797680011
 20
19.97662787350003
 30
0.0
 11
35.87413073360014
 21
23.02894961880003
 31
0.0
1001
ACAD
1000
RTMaterial
1005
0
  0
LINE
  5
61D1B
330
1F
100
AcDbEntity
  8
1
100
AcDbLine
 10
41.10328662630016
 20
30.13163051930002
 30
0.0
 11
41.09330108410015
 21
30.12652894570005
 31
0.0
1001
ACAD
1000
RTMaterial
1005
0
  0
LINE
  5
61D1C
330
1F
100
AcDbEntity
  8
1
100
AcDbLine
 10
41.09330108410015
 20
30.12652894570005
 30
0.0
 11
41.08302635100014
 21
30.12138007850001
 31
0.0
1001
ACAD
1000
RTMaterial
1005
0
  0
LWPOLYLINE
  5
61D1D
330
1F
100
AcDbEntity
  8
1
100
AcDbPolyline
 90
        6
 70
     0
 43
0.0
 10
41.08302635100014
 20
30.12138007850001
 10
41.07258145220012
 20
30.11625178349999
 10
41.06188790400014
 20
30.11111312439999
 10
41.05067106560011
 20
30.10584485570002
 10
41.0388375870001
 20
30.1004213562
 10
41.03632639540012
 20
30.09928803380001
1001
ACAD
1000
RTMaterial
1005
0
  0
LINE
  5
61D1E
330
1F
100
AcDbEntity
  8
1
100
AcDbLine
 10
44.89630865150013
 20
24.53736161890004
 30
0.0
 11
45.02447059190012
 21
24.51942677110003
 31
0.0
1001
ACAD
1000
RTMaterial
1005
0
  0
LINE
  5
61D1F
330
1F
100
AcDbEntity
  8
1
100
AcDbLine
 10
42.73467044590012
 20
25.05454113740001
 30
0.0
 11
42.86283238630011
 21
25.03660628950001
 31
0.0
1001
ACAD
1000
RTMaterial
1005
0
  0
LINE
  5
61D20
330
1F
100
AcDbEntity
  8
1
100
AcDbLine
 10
27.33232496370019
 20
27.96690262229998
 30
0.0
 11
33.37079296630018
 21
29.81304755970007
 31
0.0
1001
ACAD
1000
RTMaterial
1005
0
  0
LINE
  5
61D21
330
1F
100
AcDbEntity
  8
1
100
AcDbLine
 10
41.28364217840018
 20
30.22561253680005
 30
0.0
 11
40.52632773360011
 21
30.07948708049998
 31
0.0
1001
ACAD
1000
RTMaterial
1005
0
  0
LINE
  5
61D22
330
1F
100
AcDbEntity
  8
1
100
AcDbLine
 10
36.29451001350017
 20
29.35294692269997
 30
0.0
 11
39.36776434870012
 21
29.35322912750002
 31
0.0
1001
ACAD
1000
RTMaterial
1005
0
  0
LINE
  5
61D24
330
1F
100
AcDbEntity
  8
1
100
AcDbLine
 10
36.29451001350017
 20
30.25000000000006
 30
0.0
 11
38.53960252110013
 21
30.25000000000006
 31
0.0
1001
ACAD
1000
RTMaterial
1005
0
  0
LINE
  5
61D26
330
1F
100
AcDbEntity
  8
1
100
AcDbLine
 10
43.54838147070014
 20
30.82175998920002
 30
0.0
 11
47.29789243810012
 21
31.2472327699
 31
0.0
1001
ACAD
1000
RTMaterial
1005
0
  0
LINE
  5
61D27
330
1F
100
AcDbEntity
  8
1
100
AcDbLine
 10
48.83271046770011
 20
30.2552039373
 30
0.0
 11
50.73637386900014
 21
23.89064797420002
 31
0.0
1001
ACAD
1000
RTMaterial
1005
0
  0
LINE
  5
61D2E
330
1F
100
AcDbEntity
  8
nocut
100
AcDbLine
 10
13.99275900099997
 20
28.54932065020006
 30
0.0
 11
10.90113142140001
 21
29.79841927280001
 31
0.0
1001
ACAD
1000
RTMaterial
1005
0
  0
LINE
  5
61D2F
330
1F
100
AcDbEntity
  8
nocut
100
AcDbLine
 10
0.0
 20
-0.0000000000000568
 30
0.0
 11
0.0
 21
28.16250000000002
 31
0.0
1001
ACAD
1000
RTMaterial
1005
0
  0
LINE
  5
61D30
330
1F
100
AcDbEntity
  8
nocut
100
AcDbLine
 10
33.37079296629998
 20
29.81304755960002
 30
0.0
 11
27.33232496369999
 21
27.96690262230004
 31
0.0
1001
ACAD
1000
RTMaterial
1005
0
  0
LINE
  5
61D31
330
1F
100
AcDbEntity
  8
nocut
100
AcDbLine
 10
9.028098454299993
 20
30.16250000000002
 30
0.0
 11
2.0
 21
30.16250000000002
 31
0.0
1001
ACAD
1000
RTMaterial
1005
0
  0
LINE
  5
61D32
330
1F
100
AcDbEntity
  8
nocut
100
AcDbLine
 10
40.19880382560001
 20
30.25
 30
0.0
 11
36.29451001350003
 21
30.25
 31
0.0
1001
ACAD
1000
RTMaterial
1005
0
  0
ARC
  5
61D34
330
1F
100
AcDbEntity
  8
nocut
100
AcDbCircle
 10
46.8989744314
 20
29.10317777050006
 30
0.0
 40
1.199999999999999
100
AcDbArc
 50
16.44741859659943
 51
94.96943980720029
1001
ACAD
1000
RTMaterial
1005
0
  0
ARC
  5
61D35
330
1F
100
AcDbEntity
  8
nocut
100
AcDbCircle
 10
40.19880382560001
 20
29.44999999999999
 30
0.0
 40
0.8
100
AcDbArc
 50
75.58129509649967
 51
90.0
1001
ACAD
1000
RTMaterial
1005
0
  0
ARC
  5
61D36
330
1F
100
AcDbEntity
  8
nocut
100
AcDbCircle
 10
41.86684811079999
 20
30.67317447739998
 30
0.0
 40
0.8
100
AcDbArc
 50
255.5812950964996
 51
274.9694398072003
1001
ACAD
1000
RTMaterial
1005
0
  0
ARC
  5
61D37
330
1F
100
AcDbEntity
  8
1
100
AcDbCircle
 10
21.48489086930013
 20
47.09299774149997
 30
0.0
 40
20.0
100
AcDbArc
 50
248.0000000000004
 51
287.0000000000002
1001
ACAD
1000
RTMaterial
1005
0
  0
ARC
  5
61D3B
330
1F
100
AcDbEntity
  8
1
100
AcDbCircle
 10
29.77342257020016
 20
30.40537487810002
 30
0.0
 40
13.0
100
AcDbArc
 50
230.4784509914006
 51
266.6073784632992
1001
ACAD
1000
RTMaterial
1005
0
  0
ARC
  5
61D3C
330
1F
100
AcDbEntity
  8
1
100
AcDbCircle
 10
41.89172261170011
 20
6.646602013699975
 30
0.0
 40
10.0
100
AcDbArc
 50
78.60737846329934
 51
86.6073784632992
1001
ACAD
1000
RTMaterial
1005
0
  0
ARC
  5
61D3D
330
1F
100
AcDbEntity
  8
1
100
AcDbCircle
 10
36.29451001350015
 20
20.25000000000006
 30
0.0
 40
10.0
100
AcDbArc
 50
90.0
 51
107.0000000000002
1001
ACAD
1000
RTMaterial
1005
0
  0
ARC
  5
61D3F
330
1F
100
AcDbEntity
  8
1
100
AcDbCircle
 10
26.90976484140018
 20
26.93414103229998
 30
0.0
 40
8.5
100
AcDbArc
 50
216.1354435508021
 51
230.4784509914006
1001
ACAD
1000
RTMaterial
1005
0
  0
ARC
  5
61D40
330
1F
100
AcDbEntity
  8
1
100
AcDbCircle
 10
9.028098454300106
 20
25.16250000000002
 30
0.0
 40
5.0
100
AcDbArc
 50
68.0000000000005
 51
90.0
1001
ACAD
1000
RTMaterial
1005
0
  0
ARC
  5
61D4F
330
1F
100
AcDbEntity
  8
nocut
100
AcDbCircle
 10
21.48489086929999
 20
47.09299774150003
 30
0.0
 40
20.0
100
AcDbArc
 50
248.000000000002
 51
287.0000000000018
1001
ACAD
1000
RTMaterial
1005
0
  0
ARC
  5
61D50
330
1F
100
AcDbEntity
  8
nocut
100
AcDbCircle
 10
36.29451001350003
 20
20.25
 30
0.0
 40
10.0
100
AcDbArc
 50
90.0
 51
107.0000000000017
1001
ACAD
1000
RTMaterial
1005
0
  0
ARC
  5
61D51
330
1F
100
AcDbEntity
  8
nocut
100
AcDbCircle
 10
9.028098454299993
 20
25.16250000000002
 30
0.0
 40
5.0
100
AcDbArc
 50
68.00000000000199
 51
90.0
1001
ACAD
1000
RTMaterial
1005
0
  0
ARC
  5
61D52
330
1F
100
AcDbEntity
  8
nocut
100
AcDbCircle
 10
2.0
 20
28.16250000000002
 30
0.0
 40
2.0
100
AcDbArc
 50
90.0
 51
180.0
1001
ACAD
1000
RTMaterial
1005
0
  0
SPLINE
  5
61D73
330
1F
100
AcDbEntity
  8
1
100
AcDbSpline
210
0.0
220
0.0
230
1.0
 70
     8
 71
     3
 72
    15
 73
    11
 74
     0
 42
0.0000000001
 43
0.0000000001
 40
0.0
 40
0.0
 40
0.0
 40
0.0
 40
0.1248035261
 40
0.2496613061
 40
0.3746006319
 40
0.499629273
 40
0.6247274788000001
 40
0.7498557666
 40
0.8749517093000001
 40
1.0
 40
1.0
 40
1.0
 40
1.0
 10
42.47838032410015
 20
25.16228701250003
 30
0.0
 10
42.44783736550016
 20
25.1665614259
 30
0.0
 10
42.38516764020011
 20
25.16643377729997
 30
0.0
 10
42.29520373160016
 20
25.1400459258
 30
0.0
 10
42.21603561710014
 20
25.08960108390005
 30
0.0
 10
42.15400880550015
 20
25.0190829174
 30
0.0
 10
42.11398861510014
 20
24.93407078960002
 30
0.0
 10
42.0991579195001
 20
24.84125838540001
 30
0.0
 10
42.11061583060012
 20
24.74804849229997
 30
0.0
 10
42.13532483530014
 20
24.69033065530005
 30
0.0
 10
42.15134785190014
 20
24.66390831079997
 30
0.0
1001
ACAD
1000
RTMaterial
1005
0
  0
SPLINE
  5
61D74
330
1F
100
AcDbEntity
  8
1
100
AcDbSpline
210
0.0
220
0.0
230
1.0
 70
     8
 71
     3
 72
    15
 73
    11
 74
     0
 42
0.0000000001
 43
0.0000000001
 40
0.0
 40
0.0
 40
0.0
 40
0.0
 40
0.1249745627
 40
0.2500150505
 40
0.3751191411999999
 40
0.5002276074000001
 40
0.6252937521000001
 40
0.7502820067
 40
0.8751804444999999
 40
1.0
 40
1.0
 40
1.0
 40
1.0
 10
41.8816746165001
 20
23.5343074232
 30
0.0
 10
41.85555894440011
 20
23.5180616339
 30
0.0
 10
41.80763141400013
 20
23.47796449309999
 30
0.0
 10
41.75539850510012
 20
23.40043859009995
 30
0.0
 10
41.72656800510014
 20
23.3114131259
 30
0.0
 10
41.72349063080014
 20
23.21789320280004
 30
0.0
 10
41.7463764758001
 20
23.12719355500002
 30
0.0
 10
41.79346557140013
 20
23.04640813380002
 30
0.0
 10
41.86098900880011
 20
22.98190126409997
 30
0.0
 10
41.91633388030015
 20
22.95303977189997
 30
0.0
 10
41.94529149140016
 20
22.9427896176
 30
0.0
1001
ACAD
1000
RTMaterial
1005
0
  0
SPLINE
  5
61D75
330
1F
100
AcDbEntity
  8
1
100
AcDbSpline
210
0.0
220
0.0
230
1.0
 70
     8
 71
     3
 72
     8
 73
     4
 74
     0
 42
0.0000000001
 43
0.0000000001
 40
0.0
 40
0.0
 40
0.0
 40
0.0
 40
1.0
 40
1.0
 40
1.0
 40
1.0
 10
41.94529149140016
 20
22.9427896176
 30
0.0
 10
41.96601284100012
 20
22.93545486100004
 30
0.0
 10
41.98758188900012
 20
22.93018391290002
 30
0.0
 10
42.00935145060009
 20
22.92714102420001
 30
0.0
1001
ACAD
1000
RTMaterial
1005
0
  0
SPLINE
  5
61D76
330
1F
100
AcDbEntity
  8
1
100
AcDbSpline
210
0.0
220
0.0
230
1.0
 70
     8
 71
     3
 72
    15
 73
    11
 74
     0
 42
0.0000000001
 43
0.0000000001
 40
0.0
 40
0.0
 40
0.0
 40
0.0
 40
0.1251602541
 40
0.2502837245
 40
0.3753592817
 40
0.5003790434000001
 40
0.6253432712000001
 40
0.7502586988
 40
0.8751367873999999
 40
1.0
 40
1.0
 40
1.0
 40
1.0
 10
42.90329743630013
 20
22.12582711530001
 30
0.0
 10
42.90179923510009
 20
22.1738559996
 30
0.0
 10
42.89038183010013
 20
22.26984805750004
 30
0.0
 10
42.84853007960015
 20
22.40847899310001
 30
0.0
 10
42.78322607950014
 20
22.53771762809998
 30
0.0
 10
42.6964624122001
 20
22.65355785540004
 30
0.0
 10
42.59089286730011
 20
22.75247416740001
 30
0.0
 10
42.46972643920014
 20
22.8314402648
 30
0.0
 10
42.33672157120014
 20
22.88803395649996
 30
0.0
 10
42.24272535220012
 20
22.9097200608
 30
0.0
 10
42.19524918950009
 20
22.91635974290006
 30
0.0
1001
ACAD
1000
RTMaterial
1005
0
  0
SPLINE
  5
61D77
330
1F
100
AcDbEntity
  8
1
100
AcDbSpline
210
0.0
220
0.0
230
1.0
 70
     8
 71
     3
 72
    11
 73
     7
 74
     0
 42
0.0000000001
 43
0.0000000001
 40
0.0
 40
0.0
 40
0.0
 40
0.0
 40
0.2502996486
 40
0.5003874572
 40
0.7502656923000001
 40
1.0
 40
1.0
 40
1.0
 40
1.0
 10
42.90329743630013
 20
22.12582711530001
 30
0.0
 10
42.90449150960012
 20
22.0875478726
 30
0.0
 10
42.92045373080014
 20
22.01077878450002
 30
0.0
 10
42.98224356880012
 20
21.91132663890005
 30
0.0
 10
43.07424018260014
 20
21.83903081610004
 30
0.0
 10
43.1487223479001
 20
21.81485657689996
 30
0.0
 10
43.1865651042001
 20
21.80956187640004
 30
0.0
1001
ACAD
1000
RTMaterial
1005
0
  0
SPLINE
  5
61D78
330
1F
100
AcDbEntity
  8
1
100
AcDbSpline
210
0.0
220
0.0
230
1.0
 70
     8
 71
     3
 72
     9
 73
     5
 74
     0
 42
0.0000000001
 43
0.0000000001
 40
0.0
 40
0.0
 40
0.0
 40
0.0
 40
0.5000427267000001
 40
1.0
 40
1.0
 40
1.0
 40
1.0
 10
44.63148275890012
 20
22.30941329579997
 30
0.0
 10
44.58889307850012
 20
22.33228481259999
 30
0.0
 10
44.4994988927001
 20
22.37056407430003
 30
0.0
 10
44.40475545710012
 20
22.39248417220006
 30
0.0
 10
44.35688746790009
 20
22.39918074509995
 30
0.0
1001
ACAD
1000
RTMaterial
1005
0
  0
SPLINE
  5
61D79
330
1F
100
AcDbEntity
  8
1
100
AcDbSpline
210
0.0
220
0.0
230
1.0
 70
     8
 71
     3
 72
     9
 73
     5
 74
     0
 42
0.0000000001
 43
0.0000000001
 40
0.0
 40
0.0
 40
0.0
 40
0.0
 40
0.7495490479000001
 40
1.0
 40
1.0
 40
1.0
 40
1.0
 10
44.63148275890012
 20
22.30941329579997
 30
0.0
 10
44.65699841180009
 20
22.29571087599999
 30
0.0
 10
44.69374088410012
 20
22.28187291950002
 30
0.0
 10
44.73175567550015
 20
22.27484143570001
 30
0.0
 10
44.74133955420012
 20
22.27350019500005
 30
0.0
1001
ACAD
1000
RTMaterial
1005
0
  0
SPLINE
  5
61D7A
330
1F
100
AcDbEntity
  8
1
100
AcDbSpline
210
0.0
220
0.0
230
1.0
 70
     8
 71
     3
 72
    15
 73
    11
 74
     0
 42
0.0000000001
 43
0.0000000001
 40
0.0
 40
0.0
 40
0.0
 40
0.0
 40
0.1249035286
 40
0.2498597456
 40
0.3748744754
 40
0.4999215358
 40
0.6249805071
 40
0.7500291854000001
 40
0.8750362872
 40
1.0
 40
1.0
 40
1.0
 40
1.0
 10
41.8816746165001
 20
23.5343074232
 30
0.0
 10
41.92712916270011
 20
23.56258335570004
 30
0.0
 10
42.01275478650012
 20
23.62822632590002
 30
0.0
 10
42.11950147220011
 20
23.74960353610004
 30
0.0
 10
42.20079789320016
 20
23.88944945680004
 30
0.0
 10
42.25348079570011
 20
24.04242007110003
 30
0.0
 10
42.27557978060014
 20
24.20270650800001
 30
0.0
 10
42.26623010370014
 20
24.36423575869998
 30
0.0
 10
42.22584054890012
 20
24.52081052210002
 30
0.0
 10
42.17911880780014
 20
24.61811332860003
 30
0.0
 10
42.15134785190014
 20
24.66390831079997
 30
0.0
1001
ACAD
1000
RTMaterial
1005
0
  0
SPLINE
  5
61D7B
330
1F
100
AcDbEntity
  8
1
100
AcDbSpline
210
0.0
220
0.0
230
1.0
 70
     8
 71
     3
 72
    11
 73
     7
 74
     0
 42
0.0000000001
 43
0.0000000001
 40
0.0
 40
0.0
 40
0.0
 40
0.0
 40
0.2497812734
 40
0.4996706779000001
 40
0.7497377359000001
 40
1.0
 40
1.0
 40
1.0
 40
1.0
 10
42.86283241050012
 20
25.03660646240002
 30
0.0
 10
42.94461745690012
 20
25.02516500570005
 30
0.0
 10
43.11279884980012
 20
25.0271867367
 30
0.0
 10
43.35190969140012
 20
25.10534996390004
 30
0.0
 10
43.55713000750012
 20
25.25110143239999
 30
0.0
 10
43.65907260210014
 20
25.38512981380001
 30
0.0
 10
43.69873652630014
 20
25.45774361290006
 30
0.0
1001
ACAD
1000
RTMaterial
1005
0
  0
SPLINE
  5
61D7C
330
1F
100
AcDbEntity
  8
1
100
AcDbSpline
210
0.0
220
0.0
230
1.0
 70
     8
 71
     3
 72
    11
 73
     7
 74
     0
 42
0.0000000001
 43
0.0000000001
 40
0.0
 40
0.0
 40
0.0
 40
0.0
 40
0.2497807494
 40
0.499671638
 40
0.7497263809
 40
1.0
 40
1.0
 40
1.0
 40
1.0
 10
44.03315477410012
 20
25.62622533110005
 30
0.0
 10
44.00043538250014
 20
25.63080320530003
 30
0.0
 10
43.9331511374001
 20
25.62999583670001
 30
0.0
 10
43.83749256760012
 20
25.5987242942
 30
0.0
 10
43.7553894578001
 20
25.5404158691
 30
0.0
 10
43.71460549100016
 20
25.48679534790006
 30
0.0
 10
43.69873652630014
 20
25.45774361290006
 30
0.0
1001
ACAD
1000
RTMaterial
1005
0
  0
SPLINE
  5
61D7D
330
1F
100
AcDbEntity
  8
1
100
AcDbSpline
210
0.0
220
0.0
230
1.0
 70
     8
 71
     3
 72
     8
 73
     4
 74
     0
 42
0.0000000001
 43
0.0000000001
 40
0.0
 40
0.0
 40
0.0
 40
0.0
 40
1.0
 40
1.0
 40
1.0
 40
1.0
 10
45.02447068880013
 20
24.51942746460003
 30
0.0
 10
45.06837702980016
 20
24.51328703270002
 30
0.0
 10
45.11292691320017
 20
24.51070004369996
 30
0.0
 10
45.15724861350014
 20
24.5117289058
 30
0.0
1001
ACAD
1000
RTMaterial
1005
0
  0
SPLINE
  5
61D7E
330
1F
100
AcDbEntity
  8
1
100
AcDbSpline
210
0.0
220
0.0
230
1.0
 70
     8
 71
     3
 72
     8
 73
     4
 74
     0
 42
0.0000000001
 43
0.0000000001
 40
0.0
 40
0.0
 40
0.0
 40
0.0
 40
1.0
 40
1.0
 40
1.0
 40
1.0
 10
45.21036842770013
 20
24.50864618329996
 30
0.0
 10
45.19280279690014
 20
24.51110145829995
 30
0.0
 10
45.17498023310014
 20
24.51214051890003
 30
0.0
 10
45.15724861350014
 20
24.5117289058
 30
0.0
1001
ACAD
1000
RTMaterial
1005
0
  0
SPLINE
  5
61D7F
330
1F
100
AcDbEntity
  8
1
100
AcDbSpline
210
0.0
220
0.0
230
1.0
 70
     8
 71
     3
 72
    27
 73
    23
 74
     0
 42
0.0000000001
 43
0.0000000001
 40
0.0
 40
0.0
 40
0.0
 40
0.0
 40
0.0623947125
 40
0.0936232012
 40
0.1248550523
 40
0.1872761331
 40
0.249720486
 40
0.2809806853999999
 40
0.3122477685
 40
0.3747459269
 40
0.4372685048
 40
0.4998100351
 40
0.5623628903000001
 40
0.6249181621000001
 40
0.6874666821
 40
0.7187637134
 40
0.7500560675
 40
0.8125675237000001
 40
0.8750532600999999
 40
0.9063133248999999
 40
0.9375658356999998
 40
1.0
 40
1.0
 40
1.0
 40
1.0
 10
44.05950983140013
 20
27.13858555680003
 30
0.0
 10
44.25193629360012
 20
27.11165455259999
 30
0.0
 10
44.5380014095001
 20
27.04646177720003
 30
0.0
 10
44.90332863380013
 20
26.91241804020001
 30
0.0
 10
45.25614513950012
 20
26.74783021180002
 30
0.0
 10
45.66907798350013
 20
26.48668086680004
 30
0.0
 10
46.03192559790011
 20
26.15935074040005
 30
0.0
 10
46.28575905840017
 20
25.86381458350002
 30
0.0
 10
46.51377234730012
 20
25.54773269269998
 30
0.0
 10
46.74736887060009
 20
25.11787580250001
 30
0.0
 10
46.93655792030011
 20
24.56238891049998
 30
0.0
 10
47.02953893030013
 20
23.98273902699998
 30
0.0
 10
47.02356925240013
 20
23.39560867630002
 30
0.0
 10
46.91888284570012
 20
22.81790732189995
 30
0.0
 10
46.75167973300012
 20
22.35777136549996
 30
0.0
 10
46.57312204660013
 20
22.01094716910001
 30
0.0
 10
46.3659780676001
 20
21.68052759329999
 30
0.0
 10
46.0557696693001
 20
21.30228688479997
 30
0.0
 10
45.68621714080012
 20
20.98193990930003
 30
0.0
 10
45.36177618950012
 20
20.76609409540004
 30
0.0
 10
45.02046205700009
 20
20.57858994500003
 30
0.0
 10
44.74726564290011
 20
20.47106600990003
 30
0.0
 10
44.56095852050014
 20
20.41547252189997
 30
0.0
1001
ACAD
1000
RTMaterial
1005
0
  0
SPLINE
  5
61D80
330
1F
100
AcDbEntity
  8
1
100
AcDbSpline
210
0.0
220
0.0
230
1.0
 70
     8
 71
     3
 72
     9
 73
     5
 74
     0
 42
0.0000000001
 43
0.0000000001
 40
0.0
 40
0.0
 40
0.0
 40
0.0
 40
0.4999358793999999
 40
1.0
 40
1.0
 40
1.0
 40
1.0
 10
43.10324918460014
 20
20.3051726942
 30
0.0
 10
43.34590717470013
 20
20.27121154729997
 30
0.0
 10
43.84001451640012
 20
20.25537894119998
 30
0.0
 10
44.32610550960015
 20
20.34539308590002
 30
0.0
 10
44.56095852050014
 20
20.41547252189997
 30
0.0
1001
ACAD
1000
RTMaterial
1005
0
  0
SPLINE
  5
61D81
330
1F
100
AcDbEntity
  8
1
100
AcDbSpline
210
0.0
220
0.0
230
1.0
 70
     8
 71
     3
 72
     9
 73
     5
 74
     0
 42
0.0000000001
 43
0.0000000001
 40
0.0
 40
0.0
 40
0.0
 40
0.0
 40
0.4999927562
 40
1.0
 40
1.0
 40
1.0
 40
1.0
 10
42.73467041420014
 20
25.05454087020002
 30
0.0
 10
42.68679942870011
 20
25.06124045130003
 30
0.0
 10
42.5920567042001
 20
25.08316147009998
 30
0.0
 10
42.50266179660013
 20
25.12143888759999
 30
0.0
 10
42.46007517900011
 20
25.14430875950001
 30
0.0
1001
ACAD
1000
RTMaterial
1005
0
  0
SPLINE
  5
61D82
330
1F
100
AcDbEntity
  8
1
100
AcDbSpline
210
0.0
220
0.0
230
1.0
 70
     8
 71
     3
 72
    27
 73
    23
 74
     0
 42
0.0000000001
 43
0.0000000001
 40
0.0
 40
0.0
 40
0.0
 40
0.0
 40
0.0624341643
 40
0.0936866751
 40
0.1249467399
 40
0.1874324763
 40
0.2499439325
 40
0.2812362866
 40
0.3125333179
 40
0.3750818379
 40
0.4376371097
 40
0.5001899649000001
 40
0.5627314952
 40
0.6252540731
 40
0.6877522315000001
 40
0.7190193145999999
 40
0.750279514
 40
0.8127238669
 40
0.8751449476999999
 40
0.9063767988
 40
0.9376052875
 40
1.0
 40
1.0
 40
1.0
 40
1.0
 10
42.60180049550013
 20
27.02828572909999
 30
0.0
 10
42.41549337300011
 20
26.97269224110005
 30
0.0
 10
42.14229695890014
 20
26.86516830599999
 30
0.0
 10
41.80098282640011
 20
26.67766415559999
 30
0.0
 10
41.47654187510011
 20
26.4618183417
 30
0.0
 10
41.10698934660013
 20
26.1414713662
 30
0.0
 10
40.79678094830012
 20
25.76323065769998
 30
0.0
 10
40.5896369693001
 20
25.43281108189996
 30
0.0
 10
40.41107928300016
 20
25.08598688550001
 30
0.0
 10
40.24387617020011
 20
24.62585092910001
 30
0.0
 10
40.13918976360009
 20
24.04814957470006
 30
0.0
 10
40.1332200856001
 20
23.46101922399999
 30
0.0
 10
40.22620109560011
 20
22.88136934049999
 30
0.0
 10
40.41539014540012
 20
22.32588244850001
 30
0.0
 10
40.64898666860011
 20
21.89602555829998
 30
0.0
 10
40.87699995760011
 20
21.57994366750001
 30
0.0
 10
41.13083341800012
 20
21.28440751060003
 30
0.0
 10
41.49368103250014
 20
20.95707738420003
 30
0.0
 10
41.90661387640012
 20
20.6959280392
 30
0.0
 10
42.25943038210016
 20
20.53134021079995
 30
0.0
 10
42.62475760640012
 20
20.3972964738
 30
0.0
 10
42.91082272230016
 20
20.33210369839998
 30
0.0
 10
43.10324918460014
 20
20.3051726942
 30
0.0
1001
ACAD
1000
RTMaterial
1005
0
  0
SPLINE
  5
61D83
330
1F
100
AcDbEntity
  8
1
100
AcDbSpline
210
0.0
220
0.0
230
1.0
 70
     8
 71
     3
 72
     9
 73
     5
 74
     0
 42
0.0000000001
 43
0.0000000001
 40
0.0
 40
0.0
 40
0.0
 40
0.0
 40
0.5000641206000001
 40
1.0
 40
1.0
 40
1.0
 40
1.0
 10
42.60180049550013
 20
27.02828572909999
 30
0.0
 10
42.83665350630013
 20
27.09836516509995
 30
0.0
 10
43.32274449960016
 20
27.18837930979999
 30
0.0
 10
43.81685184120016
 20
27.1725467037
 30
0.0
 10
44.05950983140013
 20
27.13858555680003
 30
0.0
1001
ACAD
1000
RTMaterial
1005
0
  0
SPLINE
  5
61D84
330
1F
100
AcDbEntity
  8
1
100
AcDbSpline
210
0.0
220
0.0
230
1.0
 70
     8
 71
     3
 72
    27
 73
    23
 74
     0
 42
0.0000000001
 43
0.0000000001
 40
0.0
 40
0.0
 40
0.0
 40
0.0
 40
0.0624427899
 40
0.0937102059
 40
0.1249873065
 40
0.1874900014
 40
0.2500207912
 40
0.281332068
 40
0.3126473387
 40
0.3752087474
 40
0.4377679573
 40
0.5003130489000001
 40
0.562834304
 40
0.6253256282000001
 40
0.6877854148
 40
0.7190421229
 40
0.7502924867000001
 40
0.8127033279999999
 40
0.8751043047999999
 40
0.9063425463999999
 40
0.9375810863999999
 40
1.0
 40
1.0
 40
1.0
 40
1.0
 10
42.94232396640012
 20
25.97105064409999
 30
0.0
 10
42.79539277940012
 20
25.92720681750001
 30
0.0
 10
42.58060998640013
 20
25.83932896290003
 30
0.0
 10
42.31641399380009
 20
25.68243870700002
 30
0.0
 10
42.06862895770012
 20
25.50031938450002
 30
0.0
 10
41.79416869050015
 20
25.22826111119997
 30
0.0
 10
41.57804740950012
 20
24.90778641489999
 30
0.0
 10
41.44516016180012
 20
24.6301893717
 30
0.0
 10
41.33998129080009
 20
24.34088299570004
 30
0.0
 10
41.26244809630009
 20
23.96191831290003
 30
0.0
 10
41.25975460630013
 20
23.4982065502
 30
0.0
 10
41.34731277650013
 20
23.04284949680004
 30
0.0
 10
41.52185035140013
 20
22.61342898610002
 30
0.0
 10
41.77654965750014
 20
22.22647533220004
 30
0.0
 10
42.04784489590013
 20
21.95151613850004
 30
0.0
 10
42.29346524210012
 20
21.76685663379999
 30
0.0
 10
42.5559012824001
 20
21.60721179430004
 30
0.0
 10
42.91144287640014
 20
21.45728126079996
 30
0.0
 10
43.28943248540014
 20
21.37992693230001
 30
0.0
 10
43.59607913320013
 20
21.36326475610002
 30
0.0
 10
43.90282932420013
 20
21.37673273850004
 30
0.0
 10
44.13052090720009
 20
21.4209095013
 30
0.0
 10
44.27739591200008
 20
21.46473656339998
 30
0.0
1001
ACAD
1000
RTMaterial
1005
0
  0
SPLINE
  5
61D85
330
1F
100
AcDbEntity
  8
1
100
AcDbSpline
210
0.0
220
0.0
230
1.0
 70
     8
 71
     3
 72
     8
 73
     4
 74
     0
 42
0.0000000001
 43
0.0000000001
 40
0.0
 40
0.0
 40
0.0
 40
0.0
 40
1.0
 40
1.0
 40
1.0
 40
1.0
 10
42.46007517900011
 20
25.14430875950001
 30
0.0
 10
42.44521713370011
 20
25.15228782930001
 30
0.0
 10
42.42969427700012
 20
25.1591326313
 30
0.0
 10
42.41378786170014
 20
25.1647373628
 30
0.0
1001
ACAD
1000
RTMaterial
1005
0
  0
SPLINE
  5
61D86
330
1F
100
AcDbEntity
  8
1
100
AcDbSpline
210
0.0
220
0.0
230
1.0
 70
     8
 71
     3
 72
    15
 73
    11
 74
     0
 42
0.0000000001
 43
0.0000000001
 40
0.0
 40
0.0
 40
0.0
 40
0.0
 40
0.1249035286
 40
0.2498597456
 40
0.3748744754
 40
0.4999215358
 40
0.6249805071
 40
0.7500291854000001
 40
0.8750362872
 40
1.0
 40
1.0
 40
1.0
 40
1.0
 10
45.33804526180012
 20
23.90147978430002
 30
0.0
 10
45.29259071570016
 20
23.87320385180004
 30
0.0
 10
45.20696509190014
 20
23.8075608817
 30
0.0
 10
45.1002184061001
 20
23.68618367140005
 30
0.0
 10
45.0189219852001
 20
23.54633775070005
 30
0.0
 10
44.96623908260011
 20
23.3933671364
 30
0.0
 10
44.94414009770008
 20
23.23308069950002
 30
0.0
 10
44.95348977470013
 20
23.07155144879999
 30
0.0
 10
44.99387932950009
 20
22.91497668540007
 30
0.0
 10
45.04060107050015
 20
22.81767387889999
 30
0.0
 10
45.06837202640014
 20
22.7718788967
 30
0.0
1001
ACAD
1000
RTMaterial
1005
0
  0
SPLINE
  5
61D87
330
1F
100
AcDbEntity
  8
1
100
AcDbSpline
210
0.0
220
0.0
230
1.0
 70
     8
 71
     3
 72
    11
 73
     7
 74
     0
 42
0.0000000001
 43
0.0000000001
 40
0.0
 40
0.0
 40
0.0
 40
0.0
 40
0.2502234889999999
 40
0.500298469
 40
0.7502309122
 40
1.0
 40
1.0
 40
1.0
 40
1.0
 10
44.18826050170014
 20
25.32789494009995
 30
0.0
 10
44.18738193160016
 20
25.35605987579998
 30
0.0
 10
44.17834669280011
 20
25.41241095049997
 30
0.0
 10
44.14383359440011
 20
25.49051195549998
 30
0.0
 10
44.09069112730015
 20
25.55728189920001
 30
0.0
 10
44.04499373170011
 20
25.59136592560003
 30
0.0
 10
44.02047704440014
 20
25.60515310239998
 30
0.0
1001
ACAD
1000
RTMaterial
1005
0
  0
SPLINE
  5
61D88
330
1F
100
AcDbEntity
  8
1
100
AcDbSpline
210
0.0
220
0.0
230
1.0
 70
     8
 71
     3
 72
     8
 73
     4
 74
     0
 42
0.0000000001
 43
0.0000000001
 40
0.0
 40
0.0
 40
0.0
 40
0.0
 40
1.0
 40
1.0
 40
1.0
 40
1.0
 10
44.02047704440014
 20
25.60515310239998
 30
0.0
 10
44.00372534580014
 20
25.61457356890003
 30
0.0
 10
43.98607943320013
 20
25.62255523399995
 30
0.0
 10
43.96793886180012
 20
25.62890222250002
 30
0.0
1001
ACAD
1000
RTMaterial
1005
0
  0
SPLINE
  5
61D89
330
1F
100
AcDbEntity
  8
1
100
AcDbSpline
210
0.0
220
0.0
230
1.0
 70
     8
 71
     3
 72
    15
 73
    11
 74
     0
 42
0.0000000001
 43
0.0000000001
 40
0.0
 40
0.0
 40
0.0
 40
0.0
 40
0.1248757498
 40
0.2497465242
 40
0.3746627943
 40
0.4996245048
 40
0.6246450574
 40
0.7497140269
 40
0.8748478632999999
 40
1.0
 40
1.0
 40
1.0
 40
1.0
 10
44.89630910700009
 20
24.53736488210001
 30
0.0
 10
44.84882795940012
 20
24.54400286320004
 30
0.0
 10
44.75482911740011
 20
24.5656887353
 30
0.0
 10
44.62182602220013
 20
24.62229104089999
 30
0.0
 10
44.50066206240012
 20
24.70125329670003
 30
0.0
 10
44.39509324340014
 20
24.80017002879999
 30
0.0
 10
44.30833499620013
 20
24.91600928409997
 30
0.0
 10
44.24302363240014
 20
25.04524596549999
 30
0.0
 10
44.20117945910016
 20
25.18387737710003
 30
0.0
 10
44.18975860220013
 20
25.27986928299998
 30
0.0
 10
44.18826050170014
 20
25.32789494009995
 30
0.0
1001
ACAD
1000
RTMaterial
1005
0
  0
SPLINE
  5
61D8A
330
1F
100
AcDbEntity
  8
1
100
AcDbSpline
210
0.0
220
0.0
230
1.0
 70
     8
 71
     3
 72
    15
 73
    11
 74
     0
 42
0.0000000001
 43
0.0000000001
 40
0.0
 40
0.0
 40
0.0
 40
0.0
 40
0.1249712139
 40
0.2500063639
 40
0.3751077101
 40
0.5002138165
 40
0.6252813567000001
 40
0.7502739849
 40
0.8751788063999999
 40
1.0
 40
1.0
 40
1.0
 40
1.0
 10
45.20988332150011
 20
23.91941463220002
 30
0.0
 10
45.23561795610009
 20
23.93542338930001
 30
0.0
 10
45.28290616920014
 20
23.97481993790007
 30
0.0
 10
45.33482816360009
 20
24.05086775759997
 30
0.0
 10
45.36412539220009
 20
24.13826456759995
 30
0.0
 10
45.36848178280012
 20
24.23033295939996
 30
0.0
 10
45.34759910600013
 20
24.32008100270002
 30
0.0
 10
45.30302708270011
 20
24.40069278689998
 30
0.0
 10
45.23823356150012
 20
24.46599500460002
 30
0.0
 10
45.18462647000013
 20
24.4961022814
 30
0.0
 10
45.15643963890011
 20
24.50714086240004
 30
0.0
1001
ACAD
1000
RTMaterial
1005
0
  0
LINE
  5
61D8B
330
1F
100
AcDbEntity
  8
1
100
AcDbLine
 10
45.15643963890011
 20
24.50714086240004
 30
0.0
 11
45.14295967390012
 21
24.51208316890001
 31
0.0
1001
ACAD
1000
RTMaterial
1005
0
  0
SPLINE
  5
61D8C
330
1F
100
AcDbEntity
  8
1
100
AcDbSpline
210
0.0
220
0.0
230
1.0
 70
     8
 71
     3
 72
    15
 73
    11
 74
     0
 42
0.0000000001
 43
0.0000000001
 40
0.0
 40
0.0
 40
0.0
 40
0.0
 40
0.1249599769
 40
0.2499720737
 40
0.3750190592
 40
0.5000784648
 40
0.6251259588
 40
0.7501389967000001
 40
0.8751002055
 40
1.0
 40
1.0
 40
1.0
 40
1.0
 10
44.94021008600014
 20
22.78981374450001
 30
0.0
 10
44.9124399288001
 20
22.83560740970006
 30
0.0
 10
44.86571936080014
 20
22.93291120890001
 30
0.0
 10
44.82532479970013
 20
23.08948483220001
 30
0.0
 10
44.81597766650014
 20
23.251016101
 30
0.0
 10
44.83807423670015
 20
23.41130267879998
 30
0.0
 10
44.8907593574001
 20
23.56427232790003
 30
0.0
 10
44.9720544197001
 20
23.70412119780002
 30
0.0
 10
45.07880505730014
 20
23.82549512720004
 30
0.0
 10
45.16443008250013
 20
23.89113951280001
 30
0.0
 10
45.20988332150011
 20
23.91941463220002
 30
0.0
1001
ACAD
1000
RTMaterial
1005
0
  0
SPLINE
  5
61D8D
330
1F
100
AcDbEntity
  8
1
100
AcDbSpline
210
0.0
220
0.0
230
1.0
 70
     8
 71
     3
 72
    15
 73
    11
 74
     0
 42
0.0000000001
 43
0.0000000001
 40
0.0
 40
0.0
 40
0.0
 40
0.0
 40
0.1249929242
 40
0.2500590293
 40
0.3751822011
 40
0.5002973722000001
 40
0.6253498794
 40
0.7503080916
 40
0.8751765463999999
 40
1.0
 40
1.0
 40
1.0
 40
1.0
 10
45.33804526180012
 20
23.90147978430002
 30
0.0
 10
45.36647647620014
 20
23.91916600420001
 30
0.0
 10
45.41825407460016
 20
23.96359446280002
 30
0.0
 10
45.47203307900014
 20
24.05027683229997
 30
0.0
 10
45.49736209100013
 20
24.14920992890001
 30
0.0
 10
45.49178386320017
 20
24.25116075030002
 30
0.0
 10
45.45585543510014
 20
24.34668983009999
 30
0.0
 10
45.39284854320015
 20
24.42692543860005
 30
0.0
 10
45.30873320320011
 20
24.48439867989999
 30
0.0
 10
45.24348446320016
 20
24.50401731610003
 30
0.0
 10
45.21036842770013
 20
24.50864618329996
 30
0.0
1001
ACAD
1000
RTMaterial
1005
0
  0
SPLINE
  5
61D8E
330
1F
100
AcDbEntity
  8
1
100
AcDbSpline
210
0.0
220
0.0
230
1.0
 70
     8
 71
     3
 72
    11
 73
     7
 74
     0
 42
0.0000000001
 43
0.0000000001
 40
0.0
 40
0.0
 40
0.0
 40
0.0
 40
0.2502689694
 40
0.5003316144
 40
0.7502220338
 40
1.0
 40
1.0
 40
1.0
 40
1.0
 10
43.39282141160015
 20
21.99597844240003
 30
0.0
 10
43.43248639780012
 20
22.06859418559998
 30
0.0
 10
43.53443080300013
 20
22.20262169710003
 30
0.0
 10
43.73965057940012
 20
22.34837729259999
 30
0.0
 10
43.97876130010013
 20
22.4265298917
 30
0.0
 10
44.14694222860009
 20
22.42856167629998
 30
0.0
 10
44.22872558340015
 20
22.4171160331
 30
0.0
1001
ACAD
1000
RTMaterial
1005
0
  0
SPLINE
  5
61D8F
330
1F
100
AcDbEntity
  8
1
100
AcDbSpline
210
0.0
220
0.0
230
1.0
 70
     8
 71
     3
 72
    15
 73
    11
 74
     0
 42
0.0000000001
 43
0.0000000001
 40
0.0
 40
0.0
 40
0.0
 40
0.0
 40
0.1251602541
 40
0.2502837245
 40
0.3753592817
 40
0.5003790434000001
 40
0.6253432712000001
 40
0.7502586988
 40
0.8751367873999999
 40
1.0
 40
1.0
 40
1.0
 40
1.0
 10
44.31642244210013
 20
25.30996009220002
 30
0.0
 10
44.31792064330011
 20
25.26193120790003
 30
0.0
 10
44.32933804820016
 20
25.16593915000004
 30
0.0
 10
44.37118979870013
 20
25.02730821450001
 30
0.0
 10
44.43649379880014
 20
24.89806957939999
 30
0.0
 10
44.52325746610012
 20
24.78222935210005
 30
0.0
 10
44.62882701100011
 20
24.68331304009996
 30
0.0
 10
44.74999343910013
 20
24.60434694269998
 30
0.0
 10
44.88299830710014
 20
24.54775325100002
 30
0.0
 10
44.97699452610009
 20
24.52606714670003
 30
0.0
 10
45.02447068880013
 20
24.51942746460003
 30
0.0
1001
ACAD
1000
RTMaterial
1005
0
  0
SPLINE
  5
61D90
330
1F
100
AcDbEntity
  8
1
100
AcDbSpline
210
0.0
220
0.0
230
1.0
 70
     8
 71
     3
 72
     8
 73
     4
 74
     0
 42
0.0000000001
 43
0.0000000001
 40
0.0
 40
0.0
 40
0.0
 40
0.0
 40
1.0
 40
1.0
 40
1.0
 40
1.0
 10
41.94833787320016
 20
22.94219820839999
 30
0.0
 10
41.96901142690012
 20
22.94232289509995
 30
0.0
 10
41.98970434120013
 20
22.94166331809998
 30
0.0
 10
42.01032834000017
 20
22.94022733720004
 30
0.0
1001
ACAD
1000
RTMaterial
1005
0
  0
SPLINE
  5
61D91
330
1F
100
AcDbEntity
  8
1
100
AcDbSpline
210
0.0
220
0.0
230
1.0
 70
     8
 71
     3
 72
     8
 73
     4
 74
     0
 42
0.0000000001
 43
0.0000000001
 40
0.0
 40
0.0
 40
0.0
 40
0.0
 40
1.0
 40
1.0
 40
1.0
 40
1.0
 10
42.01032834000017
 20
22.94022733720004
 30
0.0
 10
42.02930507680008
 20
22.93890604970005
 30
0.0
 10
42.04824742630012
 20
22.93692582450001
 30
0.0
 10
42.06708689060014
 20
22.93429202110002
 30
0.0
1001
ACAD
1000
RTMaterial
1005
0
  0
SPLINE
  5
61D92
330
1F
100
AcDbEntity
  8
1
100
AcDbSpline
210
0.0
220
0.0
230
1.0
 70
     8
 71
     3
 72
    15
 73
    11
 74
     0
 42
0.0000000001
 43
0.0000000001
 40
0.0
 40
0.0
 40
0.0
 40
0.0
 40
0.1248035261
 40
0.2496613061
 40
0.3746006319
 40
0.499629273
 40
0.6247274788000001
 40
0.7498557666
 40
0.8749517093000001
 40
1.0
 40
1.0
 40
1.0
 40
1.0
 10
44.74133955420012
 20
22.27350019500005
 30
0.0
 10
44.77188251280011
 20
22.26922578159997
 30
0.0
 10
44.83455223810011
 20
22.2693534302
 30
0.0
 10
44.92451614680009
 20
22.29574128170003
 30
0.0
 10
45.00368426130012
 20
22.34618612369997
 30
0.0
 10
45.06571107290011
 20
22.41670429009997
 30
0.0
 10
45.10573126320013
 20
22.50171641790001
 30
0.0
 10
45.12056195890011
 20
22.59452882210002
 30
0.0
 10
45.10910404780014
 20
22.68773871530004
 30
0.0
 10
45.08439504310013
 20
22.74545655220004
 30
0.0
 10
45.06837202640014
 20
22.7718788967
 30
0.0
1001
ACAD
1000
RTMaterial
1005
0
  0
SPLINE
  5
61D93
330
1F
100
AcDbEntity
  8
1
100
AcDbSpline
210
0.0
220
0.0
230
1.0
 70
     8
 71
     3
 72
    15
 73
    11
 74
     0
 42
0.0000000001
 43
0.0000000001
 40
0.0
 40
0.0
 40
0.0
 40
0.0
 40
0.1248198495
 40
0.2497009272
 40
0.3746642443
 40
0.4997044267000001
 40
0.6247961708
 40
0.7499053905
 40
0.8749776184999998
 40
1.0
 40
1.0
 40
1.0
 40
1.0
 10
44.67833385190011
 20
22.28885901159998
 30
0.0
 10
44.70643494080014
 20
22.29054707079996
 30
0.0
 10
44.76248083800015
 20
22.30123810570001
 30
0.0
 10
44.83949808410017
 20
22.33813410250002
 30
0.0
 10
44.90468423230015
 20
22.39345654960005
 30
0.0
 10
44.95367881610014
 20
22.46356538430001
 30
0.0
 10
44.98328990750013
 20
22.5438420127
 30
0.0
 10
44.9915495670001
 20
22.62902423790001
 30
0.0
 10
44.97796580560009
 20
22.71345342619998
 30
0.0
 10
44.95483118170011
 20
22.76570320180002
 30
0.0
 10
44.94021008600014
 20
22.78981374450001
 30
0.0
1001
ACAD
1000
RTMaterial
1005
0
  0
SPLINE
  5
61D94
330
1F
100
AcDbEntity
  8
1
100
AcDbSpline
210
0.0
220
0.0
230
1.0
 70
     8
 71
     3
 72
    11
 73
     7
 74
     0
 42
0.0000000001
 43
0.0000000001
 40
0.0
 40
0.0
 40
0.0
 40
0.0
 40
0.2497812734
 40
0.4996706779000001
 40
0.7497377359000001
 40
1.0
 40
1.0
 40
1.0
 40
1.0
 10
44.35688746790009
 20
22.39918074509995
 30
0.0
 10
44.27510242140016
 20
22.41062220180004
 30
0.0
 10
44.10692102850015
 20
22.40860047079997
 30
0.0
 10
43.86781018690015
 20
22.33043724360005
 30
0.0
 10
43.6625898708001
 20
22.18468577509998
 30
0.0
 10
43.56064727630013
 20
22.05065739380001
 30
0.0
 10
43.52098335200008
 20
21.97804359460002
 30
0.0
1001
ACAD
1000
RTMaterial
1005
0
  0
SPLINE
  5
61D95
330
1F
100
AcDbEntity
  8
1
100
AcDbSpline
210
0.0
220
0.0
230
1.0
 70
     8
 71
     3
 72
    11
 73
     7
 74
     0
 42
0.0000000001
 43
0.0000000001
 40
0.0
 40
0.0
 40
0.0
 40
0.0
 40
0.2502996486
 40
0.5003874572
 40
0.7502656923000001
 40
1.0
 40
1.0
 40
1.0
 40
1.0
 10
44.31642244210013
 20
25.30996009220002
 30
0.0
 10
44.31522836880009
 20
25.34823933490003
 30
0.0
 10
44.29926614750013
 20
25.42500842300001
 30
0.0
 10
44.23747630960014
 20
25.52446056860004
 30
0.0
 10
44.14547969580013
 20
25.59675639149998
 30
0.0
 10
44.07099753040012
 20
25.62093063060002
 30
0.0
 10
44.03315477410012
 20
25.62622533110005
 30
0.0
1001
ACAD
1000
RTMaterial
1005
0
  0
SPLINE
  5
61D96
330
1F
100
AcDbEntity
  8
1
100
AcDbSpline
210
0.0
220
0.0
230
1.0
 70
     8
 71
     3
 72
    11
 73
     7
 74
     0
 42
0.0000000001
 43
0.0000000001
 40
0.0
 40
0.0
 40
0.0
 40
0.0
 40
0.2497807494
 40
0.499671638
 40
0.7497263809
 40
1.0
 40
1.0
 40
1.0
 40
1.0
 10
43.1865651042001
 20
21.80956187640004
 30
0.0
 10
43.21928449580013
 20
21.80498400220006
 30
0.0
 10
43.28656874090012
 20
21.80579137090001
 30
0.0
 10
43.38222731070016
 20
21.83706291329997
 30
0.0
 10
43.46433042050011
 20
21.89537133839997
 30
0.0
 10
43.50511438730012
 20
21.94899185960003
 30
0.0
 10
43.52098335200008
 20
21.97804359460002
 30
0.0
1001
ACAD
1000
RTMaterial
1005
0
  0
SPLINE
  5
61D97
330
1F
100
AcDbEntity
  8
1
100
AcDbSpline
210
0.0
220
0.0
230
1.0
 70
     8
 71
     3
 72
    11
 73
     7
 74
     0
 42
0.0000000001
 43
0.0000000001
 40
0.0
 40
0.0
 40
0.0
 40
0.0
 40
0.2497849674
 40
0.4997030093000001
 40
0.7497650819000001
 40
1.0
 40
1.0
 40
1.0
 40
1.0
 10
43.12350790340014
 20
21.82491432979998
 30
0.0
 10
43.1511159635001
 20
21.82656262950002
 30
0.0
 10
43.20617701380013
 20
21.83693427110006
 30
0.0
 10
43.28207024050016
 20
21.87264649350004
 30
0.0
 10
43.34668885000013
 20
21.92619855009997
 30
0.0
 10
43.37953928300016
 20
21.97166249689997
 30
0.0
 10
43.39282141160015
 20
21.99597844240003
 30
0.0
1001
ACAD
1000
RTMaterial
1005
0
  0
SPLINE
  5
61D98
330
1F
100
AcDbEntity
  8
1
100
AcDbSpline
210
0.0
220
0.0
230
1.0
 70
     8
 71
     3
 72
     9
 73
     5
 74
     0
 42
0.0000000001
 43
0.0000000001
 40
0.0
 40
0.0
 40
0.0
 40
0.0
 40
0.5000427267000001
 40
1.0
 40
1.0
 40
1.0
 40
1.0
 10
42.5882371194001
 20
25.1263739117
 30
0.0
 10
42.63082679980016
 20
25.10350239490004
 30
0.0
 10
42.72022098560012
 20
25.06522313320005
 30
0.0
 10
42.81496442120015
 20
25.04330303530003
 30
0.0
 10
42.86283241050012
 20
25.03660646240002
 30
0.0
1001
ACAD
1000
RTMaterial
1005
0
  0
SPLINE
  5
61D99
330
1F
100
AcDbEntity
  8
1
100
AcDbSpline
210
0.0
220
0.0
230
1.0
 70
     8
 71
     3
 72
     9
 73
     5
 74
     0
 42
0.0000000001
 43
0.0000000001
 40
0.0
 40
0.0
 40
0.0
 40
0.0
 40
0.7495490479000001
 40
1.0
 40
1.0
 40
1.0
 40
1.0
 10
42.5882371194001
 20
25.1263739117
 30
0.0
 10
42.56272146650013
 20
25.14007633149998
 30
0.0
 10
42.5259789942001
 20
25.15391428800001
 30
0.0
 10
42.48796420280013
 20
25.16094577180002
 30
0.0
 10
42.47838032410015
 20
25.16228701250003
 30
0.0
1001
ACAD
1000
RTMaterial
1005
0
  0
SPLINE
  5
61D9A
330
1F
100
AcDbEntity
  8
1
100
AcDbSpline
210
0.0
220
0.0
230
1.0
 70
     8
 71
     3
 72
     8
 73
     4
 74
     0
 42
0.0000000001
 43
0.0000000001
 40
0.0
 40
0.0
 40
0.0
 40
0.0
 40
1.0
 40
1.0
 40
1.0
 40
1.0
 10
42.19524918950009
 20
22.91635974290006
 30
0.0
 10
42.15134284860011
 20
22.92250017480001
 30
0.0
 10
42.10679296510011
 20
22.92508716380002
 30
0.0
 10
42.06247126480014
 20
22.92405830170003
 30
0.0
1001
ACAD
1000
RTMaterial
1005
0
  0
SPLINE
  5
61D9B
330
1F
100
AcDbEntity
  8
1
100
AcDbSpline
210
0.0
220
0.0
230
1.0
 70
     8
 71
     3
 72
    27
 73
    23
 74
     0
 42
0.0000000001
 43
0.0000000001
 40
0.0
 40
0.0
 40
0.0
 40
0.0
 40
0.0624189136
 40
0.0936574536
 40
0.1248956952
 40
0.187296672
 40
0.2497075133
 40
0.2809578771
 40
0.3122145852
 40
0.3746743718
 40
0.4371656960000001
 40
0.4996869511
 40
0.5622320427
 40
0.6247912526000001
 40
0.6873526613
 40
0.718667932
 40
0.7499792088
 40
0.8125099985999998
 40
0.8750126935
 40
0.9062897940999999
 40
0.9375572100999999
 40
1.0
 40
1.0
 40
1.0
 40
1.0
 10
42.94232396640012
 20
25.97105064409999
 30
0.0
 10
43.08919897110013
 20
26.01487770619997
 30
0.0
 10
43.31689055420014
 20
26.05905446899999
 30
0.0
 10
43.62364074510014
 20
26.07252245140001
 30
0.0
 10
43.93028739290014
 20
26.05586027520002
 30
0.0
 10
44.30827700190014
 20
25.97850594670001
 30
0.0
 10
44.66381859590012
 20
25.82857541320005
 30
0.0
 10
44.92625463620015
 20
25.66893057369998
 30
0.0
 10
45.17187498240014
 20
25.48427106909997
 30
0.0
 10
45.44317022090012
 20
25.20931187530005
 30
0.0
 10
45.69786952690015
 20
24.82235822140001
 30
0.0
 10
45.87240710190013
 20
24.39293771070004
 30
0.0
 10
45.95996527200009
 20
23.93758065740002
 30
0.0
 10
45.95727178210012
 20
23.47386889470005
 30
0.0
 10
45.87973858750013
 20
23.09490421180004
 30
0.0
 10
45.7745597165001
 20
22.80559783590001
 30
0.0
 10
45.6416724688001
 20
22.52800079259998
 30
0.0
 10
45.42555118790011
 20
22.2075260963
 30
0.0
 10
45.1510909206001
 20
21.93546782300001
 30
0.0
 10
44.90330588450013
 20
21.7533485006
 30
0.0
 10
44.63910989200013
 20
21.5964582446
 30
0.0
 10
44.42432709890016
 20
21.50858039009995
 30
0.0
 10
44.27739591200008
 20
21.46473656339998
 30
0.0
1001
ACAD
1000
RTMaterial
1005
0
  0
SPLINE
  5
61D9C
330
1F
100
AcDbEntity
  8
1
100
AcDbSpline
210
0.0
220
0.0
230
1.0
 70
     8
 71
     3
 72
     8
 73
     4
 74
     0
 42
0.0000000001
 43
0.0000000001
 40
0.0
 40
0.0
 40
0.0
 40
0.0
 40
1.0
 40
1.0
 40
1.0
 40
1.0
 10
42.00935145060009
 20
22.92714102420001
 30
0.0
 10
42.02691708140014
 20
22.92468574920002
 30
0.0
 10
42.04473964520014
 20
22.92364668860006
 30
0.0
 10
42.06247126480014
 20
22.92405830170003
 30
0.0
1001
ACAD
1000
RTMaterial
1005
0
  0
SPLINE
  5
61D9D
330
1F
100
AcDbEntity
  8
1
100
AcDbSpline
210
0.0
220
0.0
230
1.0
 70
     8
 71
     3
 72
     9
 73
     5
 74
     0
 42
0.0000000001
 43
0.0000000001
 40
0.0
 40
0.0
 40
0.0
 40
0.0
 40
0.2479593616
 40
1.0
 40
1.0
 40
1.0
 40
1.0
 10
42.32850853960016
 20
30.69335756430002
 30
0.0
 10
42.42941804570015
 20
30.70315415890002
 30
0.0
 10
42.83629739970016
 20
30.74348745500004
 30
0.0
 10
43.24285298620018
 20
30.78709038699998
 30
0.0
 10
43.54838147070014
 20
30.82175998920002
 30
0.0
1001
ACAD
1000
RTMaterial
1005
0
  0
LINE
  5
61D9E
330
1F
100
AcDbEntity
  8
1
100
AcDbLine
 10
41.99621888410016
 20
30.59647412640004
 30
0.0
 11
42.00069532570014
 21
30.59878616399999
 31
0.0
1001
ACAD
1000
RTMaterial
1005
0
  0
LINE
  5
61D9F
330
1F
100
AcDbEntity
  8
1
100
AcDbLine
 10
42.00069532570014
 20
30.59878616399999
 30
0.0
 11
42.00934690440013
 21
30.60314276030005
 31
0.0
1001
ACAD
1000
RTMaterial
1005
0
  0
SPLINE
  5
61DA0
330
1F
100
AcDbEntity
  8
1
100
AcDbSpline
210
0.0
220
0.0
230
1.0
 70
     8
 71
     3
 72
     8
 73
     4
 74
     0
 42
0.0000000001
 43
0.0000000001
 40
0.0
 40
0.0
 40
0.0
 40
0.0
 40
1.0
 40
1.0
 40
1.0
 40
1.0
 10
42.00934690440013
 20
30.60314276030005
 30
0.0
 10
42.02951927940015
 20
30.6131305051
 30
0.0
 10
42.0501865073002
 20
30.6221763026
 30
0.0
 10
42.07121407220014
 20
30.63020881599999
 30
0.0
1001
ACAD
1000
RTMaterial
1005
0
  0
SPLINE
  5
61DA1
330
1F
100
AcDbEntity
  8
1
100
AcDbSpline
210
0.0
220
0.0
230
1.0
 70
     8
 71
     3
 72
     9
 73
     5
 74
     0
 42
0.0000000001
 43
0.0000000001
 40
0.0
 40
0.0
 40
0.0
 40
0.0
 40
0.2498748411
 40
1.0
 40
1.0
 40
1.0
 40
1.0
 10
38.84799209060015
 20
18.9715288763
 30
0.0
 10
38.78725203450012
 20
19.05545153309998
 30
0.0
 10
38.54388887870016
 20
19.39110663790006
 30
0.0
 10
38.29940300080011
 20
19.7259479434
 30
0.0
 10
38.11533797680011
 20
19.97662787350003
 30
0.0
1001
ACAD
1000
RTMaterial
1005
0
  0
SPLINE
  5
61DA2
330
1F
100
AcDbEntity
  8
1
100
AcDbSpline
210
0.0
220
0.0
230
1.0
 70
     8
 71
     3
 72
     8
 73
     4
 74
     0
 42
0.0000000001
 43
0.0000000001
 40
0.0
 40
0.0
 40
0.0
 40
0.0
 40
1.0
 40
1.0
 40
1.0
 40
1.0
 10
39.08711045230012
 20
18.73809488540002
 30
0.0
 10
39.06964549430012
 20
18.75000112489999
 30
0.0
 10
39.05266973610009
 20
18.76265897049995
 30
0.0
 10
39.03627825980016
 20
18.7760044867
 30
0.0
1001
ACAD
1000
RTMaterial
1005
0
  0
SPLINE
  5
61DA3
330
1F
100
AcDbEntity
  8
1
100
AcDbSpline
210
0.0
220
0.0
230
1.0
 70
     8
 71
     3
 72
     9
 73
     5
 74
     0
 42
0.0000000001
 43
0.0000000001
 40
0.0
 40
0.0
 40
0.0
 40
0.0
 40
0.2496740753
 40
1.0
 40
1.0
 40
1.0
 40
1.0
 10
50.6840412986001
 20
21.80162441460004
 30
0.0
 10
50.64012359090014
 20
21.7079080076
 30
0.0
 10
50.4655576811001
 20
21.33192962100003
 30
0.0
 10
50.29632321390017
 20
20.95347263000002
 30
0.0
 10
50.1725683822001
 20
20.66812303450001
 30
0.0
1001
ACAD
1000
RTMaterial
1005
0
  0
SPLINE
  5
61DA4
330
1F
100
AcDbEntity
  8
1
100
AcDbSpline
210
0.0
220
0.0
230
1.0
 70
     8
 71
     3
 72
     9
 73
     5
 74
     0
 42
0.0000000001
 43
0.0000000001
 40
0.0
 40
0.0
 40
0.0
 40
0.0
 40
0.2567257741
 40
1.0
 40
1.0
 40
1.0
 40
1.0
 10
40.52632737270011
 20
30.07948894750001
 30
0.0
 10
40.50254954030015
 20
30.07490027170002
 30
0.0
 10
40.41036415770008
 20
30.05485771619999
 30
0.0
 10
40.32002245250015
 20
30.02624642140001
 30
0.0
 10
40.25491881050015
 20
30.00022341049998
 30
0.0
1001
ACAD
1000
RTMaterial
1005
0
  0
SPLINE
  5
61DA5
330
1F
100
AcDbEntity
  8
1
100
AcDbSpline
210
0.0
220
0.0
230
1.0
 70
     8
 71
     3
 72
     9
 73
     5
 74
     0
 42
0.0000000001
 43
0.0000000001
 40
0.0
 40
0.0
 40
0.0
 40
0.0
 40
0.501675589
 40
1.0
 40
1.0
 40
1.0
 40
1.0
 10
35.87413047140015
 20
23.02894942850003
 30
0.0
 10
35.83126056910018
 20
23.08733436189999
 30
0.0
 10
35.75407605250016
 20
23.21005318810001
 30
0.0
 10
35.69630752550015
 20
23.34308159369999
 30
0.0
 10
35.67285567700011
 20
23.41110202619995
 30
0.0
1001
ACAD
1000
RTMaterial
1005
0
  0
LINE
  5
61DA6
330
1F
100
AcDbEntity
  8
1
100
AcDbLine
 10
34.94622493370016
 20
24.73733414089998
 30
0.0
 11
34.94245781410015
 21
24.70667048610005
 31
0.0
1001
ACAD
1000
RTMaterial
1005
0
  0
SPLINE
  5
61DA7
330
1F
100
AcDbEntity
  8
1
100
AcDbSpline
210
0.0
220
0.0
230
1.0
 70
     8
 71
     3
 72
     9
 73
     5
 74
     0
 42
0.0000000001
 43
0.0000000001
 40
0.0
 40
0.0
 40
0.0
 40
0.0
 40
0.2493217228
 40
1.0
 40
1.0
 40
1.0
 40
1.0
 10
34.99825798470013
 20
24.9699257414
 30
0.0
 10
34.99226998810016
 20
24.95103009320002
 30
0.0
 10
34.96991019660018
 20
24.87472605689999
 30
0.0
 10
34.95418734200015
 20
24.79648153030002
 30
0.0
 10
34.94622477320016
 20
24.73733415589999
 30
0.0
1001
ACAD
1000
RTMaterial
1005
0
  0
SPLINE
  5
61DA8
330
1F
100
AcDbEntity
  8
1
100
AcDbSpline
210
0.0
220
0.0
230
1.0
 70
     8
 71
     3
 72
     9
 73
     5
 74
     0
 42
0.0000000001
 43
0.0000000001
 40
0.0
 40
0.0
 40
0.0
 40
0.0
 40
0.2491657146
 40
1.0
 40
1.0
 40
1.0
 40
1.0
 10
35.02962477610012
 20
25.05913931869998
 30
0.0
 10
35.02678955770014
 20
25.05181382259997
 30
0.0
 10
35.01563842630017
 20
25.02232611280005
 30
0.0
 10
35.00540675410017
 20
24.99249058640004
 30
0.0
 10
34.99825614920016
 20
24.96992622479996
 30
0.0
1001
ACAD
1000
RTMaterial
1005
0
  0
SPLINE
  5
61DA9
330
1F
100
AcDbEntity
  8
1
100
AcDbSpline
210
0.0
220
0.0
230
1.0
 70
     8
 71
     3
 72
    11
 73
     7
 74
     0
 42
0.0000000001
 43
0.0000000001
 40
0.0
 40
0.0
 40
0.0
 40
0.0
 40
0.2482991202
 40
0.4971764117000001
 40
0.7476319500000001
 40
1.0
 40
1.0
 40
1.0
 40
1.0
 10
34.94050718130015
 20
24.67622662180003
 30
0.0
 10
34.93630294570019
 20
24.59645149299996
 30
0.0
 10
34.94135545220016
 20
24.43567462030001
 30
0.0
 10
34.98997944430013
 20
24.19890691299997
 30
0.0
 10
35.07954739080017
 20
23.97298619439999
 30
0.0
 10
35.16445032340019
 20
23.83420380770002
 30
0.0
 10
35.21250562350016
 20
23.76875683140003
 30
0.0
1001
ACAD
1000
RTMaterial
1005
0
  0
LINE
  5
61DAA
330
1F
100
AcDbEntity
  8
1
100
AcDbLine
 10
34.94245781410015
 20
24.70667048610005
 30
0.0
 11
34.94050718130015
 21
24.67622662180003
 31
0.0
1001
ACAD
1000
RTMaterial
1005
0
  0
SPLINE
  5
61DAB
330
1F
100
AcDbEntity
  8
1
100
AcDbSpline
210
0.0
220
0.0
230
1.0
 70
     8
 71
     3
 72
     9
 73
     5
 74
     0
 42
0.0000000001
 43
0.0000000001
 40
0.0
 40
0.0
 40
0.0
 40
0.0
 40
0.4973933731000001
 40
1.0
 40
1.0
 40
1.0
 40
1.0
 10
48.01710645110012
 20
16.46977213790006
 30
0.0
 10
47.93205807060013
 20
16.42900556630002
 30
0.0
 10
47.75195815030014
 20
16.36482623439997
 30
0.0
 10
47.56241613840012
 20
16.33981905750005
 30
0.0
 10
47.46715117370013
 20
16.33714200049996
 30
0.0
1001
ACAD
1000
RTMaterial
1005
0
  0
SPLINE
  5
61DAC
330
1F
100
AcDbEntity
  8
1
100
AcDbSpline
210
0.0
220
0.0
230
1.0
 70
     8
 71
     3
 72
     9
 73
     5
 74
     0
 42
0.0000000001
 43
0.0000000001
 40
0.0
 40
0.0
 40
0.0
 40
0.0
 40
0.2490451083
 40
1.0
 40
1.0
 40
1.0
 40
1.0
 10
48.25844602760014
 20
16.63197072079998
 30
0.0
 10
48.24383643410016
 20
16.61947283210003
 30
0.0
 10
48.18405202200011
 20
16.57061489619997
 30
0.0
 10
48.1198969556001
 20
16.52711555899998
 30
0.0
 10
48.06987463950014
 20
16.49781357490002
 30
0.0
1001
ACAD
1000
RTMaterial
1005
0
  0
SPLINE
  5
61DAD
330
1F
100
AcDbEntity
  8
1
100
AcDbSpline
210
0.0
220
0.0
230
1.0
 70
     8
 71
     3
 72
     9
 73
     5
 74
     0
 42
0.0000000001
 43
0.0000000001
 40
0.0
 40
0.0
 40
0.0
 40
0.0
 40
0.5012706207000001
 40
1.0
 40
1.0
 40
1.0
 40
1.0
 10
48.66426486190011
 20
17.19032833759996
 30
0.0
 10
48.6180779340001
 20
17.08383212320001
 30
0.0
 10
48.50380292410017
 20
16.88016326640002
 30
0.0
 10
48.34620827190014
 20
16.70704508759996
 30
0.0
 10
48.25844717840016
 20
16.63196919030002
 30
0.0
1001
ACAD
1000
RTMaterial
1005
0
  0
SPLINE
  5
61DAE
330
1F
100
AcDbEntity
  8
1
100
AcDbSpline
210
0.0
220
0.0
230
1.0
 70
     8
 71
     3
 72
     9
 73
     5
 74
     0
 42
0.0000000001
 43
0.0000000001
 40
0.0
 40
0.0
 40
0.0
 40
0.0
 40
0.4987360353
 40
1.0
 40
1.0
 40
1.0
 40
1.0
 10
48.26780067930013
 20
31.02903279259999
 30
0.0
 10
48.40100722700009
 20
30.93752037450002
 30
0.0
 10
48.63939949720014
 20
30.70781844430002
 30
0.0
 10
48.7861641111001
 20
30.41082330310002
 30
0.0
 10
48.83271046770011
 20
30.2552039373
 30
0.0
1001
ACAD
1000
RTMaterial
1005
0
  0
SPLINE
  5
61DAF
330
1F
100
AcDbEntity
  8
1
100
AcDbSpline
210
0.0
220
0.0
230
1.0
 70
     8
 71
     3
 72
     9
 73
     5
 74
     0
 42
0.0000000001
 43
0.0000000001
 40
0.0
 40
0.0
 40
0.0
 40
0.0
 40
0.2492241108
 40
1.0
 40
1.0
 40
1.0
 40
1.0
 10
47.9964334413001
 20
31.16447614079999
 30
0.0
 10
48.01527568590012
 20
31.15755368140003
 30
0.0
 10
48.09027415010013
 20
31.12815578850001
 30
0.0
 10
48.16275393750015
 20
31.09234492670004
 30
0.0
 10
48.21516481740014
 20
31.06218161909999
 30
0.0
1001
ACAD
1000
RTMaterial
1005
0
  0
SPLINE
  5
61DB0
330
1F
100
AcDbEntity
  8
1
100
AcDbSpline
210
0.0
220
0.0
230
1.0
 70
     8
 71
     3
 72
     9
 73
     5
 74
     0
 42
0.0000000001
 43
0.0000000001
 40
0.0
 40
0.0
 40
0.0
 40
0.0
 40
0.4950561726
 40
1.0
 40
1.0
 40
1.0
 40
1.0
 10
47.29789239620015
 20
31.24723309030003
 30
0.0
 10
47.41401482440011
 20
31.26040999029999
 30
0.0
 10
47.6523636861001
 20
31.26058865570002
 30
0.0
 10
47.8845445688001
 20
31.20558508619996
 30
0.0
 10
47.99643414750017
 20
31.16447792930001
 30
0.0
1001
ACAD
1000
RTMaterial
1005
0
  0
SPLINE
  5
61DB1
330
1F
100
AcDbEntity
  8
1
100
AcDbSpline
210
0.0
220
0.0
230
1.0
 70
     8
 71
     3
 72
     9
 73
     5
 74
     0
 42
0.0000000001
 43
0.0000000001
 40
0.0
 40
0.0
 40
0.0
 40
0.0
 40
0.7496191467000001
 40
1.0
 40
1.0
 40
1.0
 40
1.0
 10
50.76355001010012
 20
22.06029754089997
 30
0.0
 10
50.75165067370011
 20
21.99364299259997
 30
0.0
 10
50.72725769290014
 20
21.90597164680003
 30
0.0
 10
50.69316787790012
 20
21.82231640259999
 30
0.0
 10
50.6840412986001
 20
21.80162441460004
 30
0.0
1001
ACAD
1000
RTMaterial
1005
0
  0
SPLINE
  5
61DB2
330
1F
100
AcDbEntity
  8
1
100
AcDbSpline
210
0.0
220
0.0
230
1.0
 70
     8
 71
     3
 72
     8
 73
     4
 74
     0
 42
0.0000000001
 43
0.0000000001
 40
0.0
 40
0.0
 40
0.0
 40
0.0
 40
1.0
 40
1.0
 40
1.0
 40
1.0
 10
50.77200000000016
 20
22.11639177110004
 30
0.0
 10
50.76969744880011
 20
22.09762344870001
 30
0.0
 10
50.76687315900011
 20
22.07891227560003
 30
0.0
 10
50.76355001010012
 20
22.06029754089997
 30
0.0
1001
ACAD
1000
RTMaterial
1005
0
  0
LINE
  5
61DB3
330
1F
100
AcDbEntity
  8
1
100
AcDbLine
 10
50.77384042670013
 20
22.148097726
 30
0.0
 11
50.77200000000016
 21
22.11639177110004
 31
0.0
1001
ACAD
1000
RTMaterial
1005
0
  0
SPLINE
  5
61DB4
330
1F
100
AcDbEntity
  8
1
100
AcDbSpline
210
0.0
220
0.0
230
1.0
 70
     8
 71
     3
 72
     9
 73
     5
 74
     0
 42
0.0000000001
 43
0.0000000001
 40
0.0
 40
0.0
 40
0.0
 40
0.0
 40
0.2434504122
 40
1.0
 40
1.0
 40
1.0
 40
1.0
 10
50.80058650460012
 20
23.45515863970002
 30
0.0
 10
50.80229583500017
 20
23.34906893720006
 30
0.0
 10
50.80547568560013
 20
22.91323997519999
 30
0.0
 10
50.79255661040014
 20
22.47729462390004
 30
0.0
 10
50.77384150750015
 20
22.14809768390001
 30
0.0
1001
ACAD
1000
RTMaterial
1005
0
  0
LINE
  5
61DB5
330
1F
100
AcDbEntity
  8
1
100
AcDbLine
 10
50.80000000000012
 20
23.48834555560001
 30
0.0
 11
50.80058541810013
 21
23.45515860820001
 31
0.0
1001
ACAD
1000
RTMaterial
1005
0
  0
SPLINE
  5
61DB6
330
1F
100
AcDbEntity
  8
1
100
AcDbSpline
210
0.0
220
0.0
230
1.0
 70
     8
 71
     3
 72
     9
 73
     5
 74
     0
 42
0.0000000001
 43
0.0000000001
 40
0.0
 40
0.0
 40
0.0
 40
0.0
 40
0.2584941647
 40
1.0
 40
1.0
 40
1.0
 40
1.0
 10
50.73637431880013
 20
23.8906481102
 30
0.0
 10
50.74644869080015
 20
23.85696625869997
 30
0.0
 10
50.7810409261001
 20
23.72540113299999
 30
0.0
 10
50.7980680399001
 20
23.58917476689999
 30
0.0
 10
50.80000046890012
 20
23.48834557009997
 30
0.0
1001
ACAD
1000
RTMaterial
1005
0
  0
SPLINE
  5
61DB7
330
1F
100
AcDbEntity
  8
1
100
AcDbSpline
210
0.0
220
0.0
230
1.0
 70
     8
 71
     3
 72
     9
 73
     5
 74
     0
 42
0.0000000001
 43
0.0000000001
 40
0.0
 40
0.0
 40
0.0
 40
0.0
 40
0.2463661225
 40
1.0
 40
1.0
 40
1.0
 40
1.0
 10
40.22457528840016
 20
29.98805157000004
 30
0.0
 10
40.19767021230012
 20
29.97721952820001
 30
0.0
 10
40.0885692124001
 20
29.93298786899999
 30
0.0
 10
39.97991895460013
 20
29.8876432642
 30
0.0
 10
39.89831821680013
 20
29.85281536229996
 30
0.0
1001
ACAD
1000
RTMaterial
1005
0
  0
LINE
  5
61DB8
330
1F
100
AcDbEntity
  8
1
100
AcDbLine
 10
40.25491898160015
 20
30.00022297110002
 30
0.0
 11
40.22457568800013
 21
29.9880505498
 31
0.0
1001
ACAD
1000
RTMaterial
1005
0
  0
SPLINE
  5
61DB9
330
1F
100
AcDbEntity
  8
1
100
AcDbSpline
210
0.0
220
0.0
230
1.0
 70
     8
 71
     3
 72
     9
 73
     5
 74
     0
 42
0.0000000001
 43
0.0000000001
 40
0.0
 40
0.0
 40
0.0
 40
0.0
 40
0.2504623937
 40
1.0
 40
1.0
 40
1.0
 40
1.0
 10
42.07121399870018
 20
30.63020900480001
 30
0.0
 10
42.09190551000014
 20
30.63811314629999
 30
0.0
 10
42.17552444310015
 20
30.66699487100005
 30
0.0
 10
42.26270392690017
 20
30.68538458040001
 30
0.0
 10
42.32850853960016
 20
30.69335756430002
 30
0.0
1001
ACAD
1000
RTMaterial
1005
0
  0
SPLINE
  5
61DBA
330
1F
100
AcDbEntity
  8
1
100
AcDbSpline
210
0.0
220
0.0
230
1.0
 70
     8
 71
     3
 72
     9
 73
     5
 74
     0
 42
0.0000000001
 43
0.0000000001
 40
0.0
 40
0.0
 40
0.0
 40
0.0
 40
0.2578430942
 40
1.0
 40
1.0
 40
1.0
 40
1.0
 10
39.13845683910011
 20
18.42196523770002
 30
0.0
 10
39.15924828550016
 20
18.39364916720007
 30
0.0
 10
39.24353830460012
 20
18.28656315059999
 30
0.0
 10
39.3420894163001
 20
18.19068182720002
 30
0.0
 10
39.42142139670011
 20
18.12798780989999
 30
0.0
1001
ACAD
1000
RTMaterial
1005
0
  0
SPLINE
  5
61DBB
330
1F
100
AcDbEntity
  8
1
100
AcDbSpline
210
0.0
220
0.0
230
1.0
 70
     8
 71
     3
 72
    10
 73
     6
 74
     0
 42
0.0000000001
 43
0.0000000001
 40
0.0
 40
0.0
 40
0.0
 40
0.0
 40
0.2420301643
 40
0.6213861554
 40
1.0
 40
1.0
 40
1.0
 40
1.0
 10
39.44764154530015
 20
18.10732271570003
 30
0.0
 10
39.5185870163001
 20
18.05156356079999
 30
0.0
 10
39.70177293310013
 20
17.90972641360002
 30
0.0
 10
40.00110176370014
 20
17.6874069566
 30
0.0
 10
40.23170953930008
 20
17.52402483629998
 30
0.0
 10
40.34787227830014
 20
17.44382851210002
 30
0.0
1001
ACAD
1000
RTMaterial
1005
0
  0
LINE
  5
61DBC
330
1F
100
AcDbEntity
  8
1
100
AcDbLine
 10
39.42142168920014
 20
18.12798817880002
 30
0.0
 11
39.44764222320015
 21
18.10732357439997
 31
0.0
1001
ACAD
1000
RTMaterial
1005
0
  0
SPLINE
  5
61DBD
330
1F
100
AcDbEntity
  8
1
100
AcDbSpline
210
0.0
220
0.0
230
1.0
 70
     8
 71
     3
 72
     9
 73
     5
 74
     0
 42
0.0000000001
 43
0.0000000001
 40
0.0
 40
0.0
 40
0.0
 40
0.0
 40
0.2503103162
 40
1.0
 40
1.0
 40
1.0
 40
1.0
 10
39.03627813190013
 20
18.77600432949998
 30
0.0
 10
39.01869121010014
 20
18.79032314599999
 30
0.0
 10
38.95024611090014
 20
18.8497334338
 30
0.0
 10
38.88909065040014
 20
18.91744955570004
 30
0.0
 10
38.84799209060015
 20
18.9715288763
 30
0.0
1001
ACAD
1000
RTMaterial
1005
0
  0
SPLINE
  5
61DBE
330
1F
100
AcDbEntity
  8
1
100
AcDbSpline
210
0.0
220
0.0
230
1.0
 70
     8
 71
     3
 72
     8
 73
     4
 74
     0
 42
0.0000000001
 43
0.0000000001
 40
0.0
 40
0.0
 40
0.0
 40
0.0
 40
1.0
 40
1.0
 40
1.0
 40
1.0
 10
48.21516606920011
 20
31.06218370290003
 30
0.0
 10
48.23313719400011
 20
31.05184102399994
 30
0.0
 10
48.25071064330012
 20
31.04077427600004
 30
0.0
 10
48.26780117590016
 20
31.02903349119998
 30
0.0
1001
ACAD
1000
RTMaterial
1005
0
  0
SPLINE
  5
61DBF
330
1F
100
AcDbEntity
  8
1
100
AcDbSpline
210
0.0
220
0.0
230
1.0
 70
     8
 71
     3
 72
     8
 73
     4
 74
     0
 42
0.0000000001
 43
0.0000000001
 40
0.0
 40
0.0
 40
0.0
 40
0.0
 40
1.0
 40
1.0
 40
1.0
 40
1.0
 10
48.06987577540013
 20
16.49781142379999
 30
0.0
 10
48.05268869020011
 20
16.48774360979996
 30
0.0
 10
48.03506855170013
 20
16.47838134919999
 30
0.0
 10
48.01710679510012
 20
16.46977135060001
 30
0.0
1001
ACAD
1000
RTMaterial
1005
0
  0
SPLINE
  5
61DC0
330
1F
100
AcDbEntity
  8
1
100
AcDbSpline
210
0.0
220
0.0
230
1.0
 70
     8
 71
     3
 72
    11
 73
     7
 74
     0
 42
0.0000000001
 43
0.0000000001
 40
0.0
 40
0.0
 40
0.0
 40
0.0
 40
0.2476310057
 40
0.4970906347
 40
0.7482928707
 40
1.0
 40
1.0
 40
1.0
 40
1.0
 10
35.60283568390017
 20
23.9677057902
 30
0.0
 10
35.61162964010018
 20
24.04747922630003
 30
0.0
 10
35.64276209550016
 20
24.20642609740003
 30
0.0
 10
35.72783437200016
 20
24.43464275100001
 30
0.0
 10
35.8492878166002
 20
24.64724249970004
 30
0.0
 10
35.95164705950012
 20
24.77506433909997
 30
0.0
 10
36.00739137310015
 20
24.8346252302
 30
0.0
1001
ACAD
1000
RTMaterial
1005
0
  0
LINE
  5
61DC1
330
1F
100
AcDbEntity
  8
1
100
AcDbLine
 10
35.59980660220018
 20
23.9373265644
 30
0.0
 11
35.60283568390017
 21
23.9677057902
 31
0.0
1001
ACAD
1000
RTMaterial
1005
0
  0
LINE
  5
61DC2
330
1F
100
AcDbEntity
  8
1
100
AcDbLine
 10
35.59850311460016
 20
23.90651524790002
 30
0.0
 11
35.59980660220018
 21
23.9373265644
 31
0.0
1001
ACAD
1000
RTMaterial
1005
0
  0
SPLINE
  5
61DC3
330
1F
100
AcDbEntity
  8
1
100
AcDbSpline
210
0.0
220
0.0
230
1.0
 70
     8
 71
     3
 72
     9
 73
     5
 74
     0
 42
0.0000000001
 43
0.0000000001
 40
0.0
 40
0.0
 40
0.0
 40
0.0
 40
0.2484673022
 40
1.0
 40
1.0
 40
1.0
 40
1.0
 10
35.61086564910019
 20
23.67006399530004
 30
0.0
 10
35.60817961620015
 20
23.6895026464
 30
0.0
 10
35.59905462220016
 20
23.76796171890004
 30
0.0
 10
35.59662982020015
 20
23.8471905664
 30
0.0
 10
35.59850295050015
 20
23.90651525240003
 30
0.0
1001
ACAD
1000
RTMaterial
1005
0
  0
SPLINE
  5
61DC4
330
1F
100
AcDbEntity
  8
1
100
AcDbSpline
210
0.0
220
0.0
230
1.0
 70
     8
 71
     3
 72
     9
 73
     5
 74
     0
 42
0.0000000001
 43
0.0000000001
 40
0.0
 40
0.0
 40
0.0
 40
0.0
 40
0.2304774491
 40
1.0
 40
1.0
 40
1.0
 40
1.0
 10
35.49711073090018
 20
24.17598414399999
 30
0.0
 10
35.49497854210014
 20
24.1809391923
 30
0.0
 10
35.48470989370017
 20
24.20200227720005
 30
0.0
 10
35.47082357150018
 20
24.22115794640002
 30
0.0
 10
35.45912382730015
 20
24.23485102259997
 30
0.0
1001
ACAD
1000
RTMaterial
1005
0
  0
SPLINE
  5
61DC5
330
1F
100
AcDbEntity
  8
1
100
AcDbSpline
210
0.0
220
0.0
230
1.0
 70
     8
 71
     3
 72
     9
 73
     5
 74
     0
 42
0.0000000001
 43
0.0000000001
 40
0.0
 40
0.0
 40
0.0
 40
0.0
 40
0.2714774794
 40
1.0
 40
1.0
 40
1.0
 40
1.0
 10
35.25852006530013
 20
24.45522445239999
 30
0.0
 10
35.26475475970014
 20
24.45026438790006
 30
0.0
 10
35.28737015880015
 20
24.43157272899998
 30
0.0
 10
35.30856869040017
 20
24.41105683839999
 30
0.0
 10
35.32245709430012
 20
24.39480221170004
 30
0.0
1001
ACAD
1000
RTMaterial
1005
0
  0
SPLINE
  5
61DC6
330
1F
100
AcDbEntity
  8
1
100
AcDbSpline
210
0.0
220
0.0
230
1.0
 70
     8
 71
     3
 72
     9
 73
     5
 74
     0
 42
0.0000000001
 43
0.0000000001
 40
0.0
 40
0.0
 40
0.0
 40
0.0
 40
0.248159661
 40
1.0
 40
1.0
 40
1.0
 40
1.0
 10
47.46715117370013
 20
16.33714200049996
 30
0.0
 10
47.4356366386001
 20
16.33625640529999
 30
0.0
 10
47.30854980660012
 20
16.33696181470003
 30
0.0
 10
47.18163570580014
 20
16.35465678329996
 30
0.0
 10
47.08869359490011
 20
16.3766816877
 30
0.0
1001
ACAD
1000
RTMaterial
1005
0
  0
SPLINE
  5
61DC7
330
1F
100
AcDbEntity
  8
1
100
AcDbSpline
210
0.0
220
0.0
230
1.0
 70
     8
 71
     3
 72
     9
 73
     5
 74
     0
 42
0.0000000001
 43
0.0000000001
 40
0.0
 40
0.0
 40
0.0
 40
0.0
 40
0.2485144324
 40
1.0
 40
1.0
 40
1.0
 40
1.0
 10
35.67285567700011
 20
23.41110202619995
 30
0.0
 10
35.66565956030016
 20
23.43197385540003
 30
0.0
 10
35.63869749410017
 20
23.51663411460004
 30
0.0
 10
35.62000185680015
 20
23.60393161540003
 30
0.0
 10
35.61086372100019
 20
23.67006373750002
 30
0.0
1001
ACAD
1000
RTMaterial
1005
0
  0
SPLINE
  5
61DC8
330
1F
100
AcDbEntity
  8
1
100
AcDbSpline
210
0.0
220
0.0
230
1.0
 70
     8
 71
     3
 72
     9
 73
     5
 74
     0
 42
0.0000000001
 43
0.0000000001
 40
0.0
 40
0.0
 40
0.0
 40
0.0
 40
0.2594039192
 40
1.0
 40
1.0
 40
1.0
 40
1.0
 10
40.53723186860008
 20
29.67460548909997
 30
0.0
 10
40.56118534880011
 20
29.70019896210004
 30
0.0
 10
40.65664349550013
 20
29.79588924939998
 30
0.0
 10
40.76415774130009
 20
29.87961161560003
 30
0.0
 10
40.84884130670014
 20
29.93294618259995
 30
0.0
1001
ACAD
1000
RTMaterial
1005
0
  0
SPLINE
  5
61DC9
330
1F
100
AcDbEntity
  8
1
100
AcDbSpline
210
0.0
220
0.0
230
1.0
 70
     8
 71
     3
 72
     9
 73
     5
 74
     0
 42
0.0000000001
 43
0.0000000001
 40
0.0
 40
0.0
 40
0.0
 40
0.0
 40
0.2436363991
 40
1.0
 40
1.0
 40
1.0
 40
1.0
 10
40.87656657530016
 20
29.95037794430004
 30
0.0
 10
40.96517849750012
 20
30.00599098290002
 30
0.0
 10
41.33090718400015
 20
30.2310138684
 30
0.0
 10
41.70503022940013
 20
30.44239388379998
 30
0.0
 10
41.99209441640019
 20
30.59430997350001
 30
0.0
1001
ACAD
1000
RTMaterial
1005
0
  0
LINE
  5
61DCA
330
1F
100
AcDbEntity
  8
1
100
AcDbLine
 10
40.8488415718001
 20
29.93294575240003
 30
0.0
 11
40.87656714840017
 21
29.95037701070004
 31
0.0
1001
ACAD
1000
RTMaterial
1005
0
  0
SPLINE
  5
61DCB
330
1F
100
AcDbEntity
  8
1
100
AcDbSpline
210
0.0
220
0.0
230
1.0
 70
     8
 71
     3
 72
     9
 73
     5
 74
     0
 42
0.0000000001
 43
0.0000000001
 40
0.0
 40
0.0
 40
0.0
 40
0.0
 40
0.2435088423
 40
1.0
 40
1.0
 40
1.0
 40
1.0
 10
40.24436609570011
 20
18.06097427119999
 30
0.0
 10
40.1502615106001
 20
18.11143299970001
 30
0.0
 10
39.76562405420015
 20
18.32201558409997
 30
0.0
 10
39.38868685940014
 20
18.54666170189995
 30
0.0
 10
39.10840824270014
 20
18.72409830329997
 30
0.0
1001
ACAD
1000
RTMaterial
1005
0
  0
LINE
  5
61DCC
330
1F
100
AcDbEntity
  8
1
100
AcDbLine
 10
40.27380762730013
 20
18.04521954720002
 30
0.0
 11
40.24436661430013
 21
18.06097523630001
 31
0.0
1001
ACAD
1000
RTMaterial
1005
0
  0
SPLINE
  5
61DCD
330
1F
100
AcDbEntity
  8
1
100
AcDbSpline
210
0.0
220
0.0
230
1.0
 70
     8
 71
     3
 72
     9
 73
     5
 74
     0
 42
0.0000000001
 43
0.0000000001
 40
0.0
 40
0.0
 40
0.0
 40
0.0
 40
0.2574460055999999
 40
1.0
 40
1.0
 40
1.0
 40
1.0
 10
40.65518922360013
 20
17.90125727920002
 30
0.0
 10
40.62109568350012
 20
17.90933657720006
 30
0.0
 10
40.48972424520013
 20
17.94503361040006
 30
0.0
 10
40.3629484329001
 20
17.99760664170003
 30
0.0
 10
40.27380740500013
 20
18.04521913149995
 30
0.0
1001
ACAD
1000
RTMaterial
1005
0
  0
SPLINE
  5
61DCE
330
1F
100
AcDbEntity
  8
1
100
AcDbSpline
210
0.0
220
0.0
230
1.0
 70
     8
 71
     3
 72
     8
 73
     4
 74
     0
 42
0.0000000001
 43
0.0000000001
 40
0.0
 40
0.0
 40
0.0
 40
0.0
 40
1.0
 40
1.0
 40
1.0
 40
1.0
 10
39.10840893860012
 20
18.72409940239998
 30
0.0
 10
39.10123127690014
 20
18.72864338040006
 30
0.0
 10
39.09412964370011
 20
18.73330975070001
 30
0.0
 10
39.08711045230012
 20
18.73809488540002
 30
0.0
1001
ACAD
1000
RTMaterial
1005
0
  0
SPLINE
  5
61DCF
330
1F
100
AcDbEntity
  8
1
100
AcDbSpline
210
0.0
220
0.0
230
1.0
 70
     8
 71
     3
 72
    19
 73
    15
 74
     0
 42
0.0000000001
 43
0.0000000001
 40
0.0
 40
0.0
 40
0.0
 40
0.0
 40
0.2294098355
 40
0.4296828758000001
 40
0.6002902386
 40
0.7409079958
 40
0.7998923431999999
 40
0.8512852726
 40
0.8950551131999999
 40
0.9311717231999999
 40
0.9596129983
 40
0.9803839723000001
 40
0.9935949443
 40
1.0
 40
1.0
 40
1.0
 40
1.0
 10
39.19573630650015
 20
30.12254678939996
 30
0.0
 10
39.13568782120015
 20
30.12803254339997
 30
0.0
 10
39.02328802470012
 20
30.1391023178
 30
0.0
 10
38.86650832830017
 20
30.15690904250005
 30
0.0
 10
38.73317175990016
 20
30.17415955180002
 30
0.0
 10
38.63689074830015
 20
30.18831113509998
 30
0.0
 10
38.57179957560012
 20
30.19904952390005
 30
0.0
 10
38.53191005480019
 20
30.20619278189997
 30
0.0
 10
38.49806692340016
 20
30.21283824390002
 30
0.0
 10
38.47021366850018
 20
30.21901021259998
 30
0.0
 10
38.44859895210019
 20
30.22447657660001
 30
0.0
 10
38.43265793760017
 20
30.22963198790006
 30
0.0
 10
38.42342301430014
 20
30.23341896559998
 30
0.0
 10
38.41855914550015
 20
30.2372215035
 30
0.0
 10
38.41855714410016
 20
30.23890502
 30
0.0
1001
ACAD
1000
RTMaterial
1005
0
  0
SPLINE
  5
61DD0
330
1F
100
AcDbEntity
  8
1
100
AcDbSpline
210
0.0
220
0.0
230
1.0
 70
     8
 71
     3
 72
    14
 73
    10
 74
     0
 42
0.0000000001
 43
0.0000000001
 40
0.0
 40
0.0
 40
0.0
 40
0.0
 40
0.2803856707999999
 40
0.4150080412
 40
0.5449304711
 40
0.6693067967000001
 40
0.7872043992000001
 40
0.8977040517
 40
1.0
 40
1.0
 40
1.0
 40
1.0
 10
20.04495022890012
 20
21.92172441600002
 30
0.0
 10
19.8243517936001
 20
22.02304843930006
 30
0.0
 10
19.50505639340014
 20
22.18994876890002
 30
0.0
 10
19.10753466060009
 20
22.44444622809999
 30
0.0
 10
18.83555684210012
 20
22.6433898121
 30
0.0
 10
18.5887566404001
 20
22.85100644009998
 30
0.0
 10
18.3704555595001
 20
23.06512058979996
 30
0.0
 10
18.18411035190013
 20
23.28299612890004
 30
0.0
 10
18.07921784900014
 20
23.43506014619999
 30
0.0
 10
18.0338586031001
 20
23.5111301334
 30
0.0
1001
ACAD
1000
RTMaterial
1005
0
  0
SPLINE
  5
61DD1
330
1F
100
AcDbEntity
  8
1
100
AcDbSpline
210
0.0
220
0.0
230
1.0
 70
     8
 71
     3
 72
     9
 73
     5
 74
     0
 42
0.0000000001
 43
0.0000000001
 40
0.0
 40
0.0
 40
0.0
 40
0.0
 40
0.2569235788
 40
1.0
 40
1.0
 40
1.0
 40
1.0
 10
46.87867034600015
 20
16.03775767500002
 30
0.0
 10
46.87697954750013
 20
16.0315424959
 30
0.0
 10
46.87050513050013
 20
16.00732297579998
 30
0.0
 10
46.86443869370015
 20
15.98299359600003
 30
0.0
 10
46.86020574150012
 20
15.96485200149999
 30
0.0
1001
ACAD
1000
RTMaterial
1005
0
  0
SPLINE
  5
61DD2
330
1F
100
AcDbEntity
  8
1
100
AcDbSpline
210
0.0
220
0.0
230
1.0
 70
     8
 71
     3
 72
     8
 73
     4
 74
     0
 42
0.0000000001
 43
0.0000000001
 40
0.0
 40
0.0
 40
0.0
 40
0.0
 40
1.0
 40
1.0
 40
1.0
 40
1.0
 10
46.92260601640015
 20
16.19607573430005
 30
0.0
 10
46.90769232730014
 20
16.14337828769999
 30
0.0
 10
46.89304689140016
 20
16.09060418810003
 30
0.0
 10
46.87867034600015
 20
16.03775767500002
 30
0.0
1001
ACAD
1000
RTMaterial
1005
0
  0
SPLINE
  5
61DD3
330
1F
100
AcDbEntity
  8
1
100
AcDbSpline
210
0.0
220
0.0
230
1.0
 70
     8
 71
     3
 72
     9
 73
     5
 74
     0
 42
0.0000000001
 43
0.0000000001
 40
0.0
 40
0.0
 40
0.0
 40
0.0
 40
0.2609446799
 40
1.0
 40
1.0
 40
1.0
 40
1.0
 10
47.58518587090015
 20
15.79518399509999
 30
0.0
 10
47.5871873269001
 20
15.78629218420002
 30
0.0
 10
47.59531867260011
 20
15.75232463269998
 30
0.0
 10
47.60537163640015
 20
15.71879843670001
 30
0.0
 10
47.61411528860008
 20
15.69451062610005
 30
0.0
1001
ACAD
1000
RTMaterial
1005
0
  0
LINE
  5
61DD4
330
1F
100
AcDbEntity
  8
1
100
AcDbLine
 10
38.53625622810012
 20
18.25522187199999
 30
0.0
 11
38.53493412690011
 21
18.25830277220006
 31
0.0
1001
ACAD
1000
RTMaterial
1005
0
  0
SPLINE
  5
61DD5
330
1F
100
AcDbEntity
  8
1
100
AcDbSpline
210
0.0
220
0.0
230
1.0
 70
     8
 71
     3
 72
     9
 73
     5
 74
     0
 42
0.0000000001
 43
0.0000000001
 40
0.0
 40
0.0
 40
0.0
 40
0.0
 40
0.2294414125
 40
1.0
 40
1.0
 40
1.0
 40
1.0
 10
40.40486342030016
 20
17.43218483520002
 30
0.0
 10
40.42213066170012
 20
17.43713654500004
 30
0.0
 10
40.4968182038001
 20
17.46064763070001
 30
0.0
 10
40.56905866020009
 20
17.4920274932
 30
0.0
 10
40.62227448570013
 20
17.52044449990001
 30
0.0
1001
ACAD
1000
RTMaterial
1005
0
  0
SPLINE
  5
61DD6
330
1F
100
AcDbEntity
  8
1
100
AcDbSpline
210
0.0
220
0.0
230
1.0
 70
     8
 71
     3
 72
    11
 73
     7
 74
     0
 42
0.0000000001
 43
0.0000000001
 40
0.0
 40
0.0
 40
0.0
 40
0.0
 40
0.2704930689
 40
0.5192792559
 40
0.7574417321000001
 40
1.0
 40
1.0
 40
1.0
 40
1.0
 10
38.76618041340015
 20
18.13572901589998
 30
0.0
 10
38.73645213900011
 20
18.1762243023
 30
0.0
 10
38.68268434610013
 20
18.25660534889999
 30
0.0
 10
38.62357879690012
 20
18.38521266660001
 30
0.0
 10
38.59551895720012
 20
18.51911129379999
 30
0.0
 10
38.6003306670001
 20
18.60941423560001
 30
0.0
 10
38.60807861910013
 20
18.65379072549996
 30
0.0
1001
ACAD
1000
RTMaterial
1005
0
  0
LINE
  5
61DD7
330
1F
100
AcDbEntity
  8
1
100
AcDbLine
 10
38.63502995870016
 20
18.06861953189997
 30
0.0
 11
38.6331884774001
 21
18.07458806799997
 31
0.0
1001
ACAD
1000
RTMaterial
1005
0
  0
LINE
  5
61DD8
330
1F
100
AcDbEntity
  8
1
100
AcDbLine
 10
38.6331884774001
 20
18.07458806799997
 30
0.0
 11
38.63115910110014
 21
18.0812789885
 31
0.0
1001
ACAD
1000
RTMaterial
1005
0
  0
SPLINE
  5
61DD9
330
1F
100
AcDbEntity
  8
1
100
AcDbSpline
210
0.0
220
0.0
230
1.0
 70
     8
 71
     3
 72
    11
 73
     7
 74
     0
 42
0.0000000001
 43
0.0000000001
 40
0.0
 40
0.0
 40
0.0
 40
0.0
 40
0.2753439782
 40
0.5400961313
 40
0.7868094084
 40
1.0
 40
1.0
 40
1.0
 40
1.0
 10
38.63115910110014
 20
18.0812789885
 30
0.0
 10
38.61645530440012
 20
18.13020255949999
 30
0.0
 10
38.59290519860014
 20
18.22785752790003
 30
0.0
 10
38.57471055210016
 20
18.37299424100001
 30
0.0
 10
38.57266995810011
 20
18.50767561829997
 30
0.0
 10
38.58048845300016
 20
18.59285313460003
 30
0.0
 10
38.58658685820012
 20
18.63193407149998
 30
0.0
1001
ACAD
1000
RTMaterial
1005
0
  0
SPLINE
  5
61DDA
330
1F
100
AcDbEntity
  8
1
100
AcDbSpline
210
0.0
220
0.0
230
1.0
 70
     8
 71
     3
 72
     8
 73
     4
 74
     0
 42
0.0000000001
 43
0.0000000001
 40
0.0
 40
0.0
 40
0.0
 40
0.0
 40
1.0
 40
1.0
 40
1.0
 40
1.0
 10
38.48801708800016
 20
18.29605770110004
 30
0.0
 10
38.4967410293001
 20
18.27955113579998
 30
0.0
 10
38.50576154410016
 20
18.26319789869996
 30
0.0
 10
38.51507173690015
 20
18.24701475439997
 30
0.0
1001
ACAD
1000
RTMaterial
1005
0
  0
SPLINE
  5
61DDB
330
1F
100
AcDbEntity
  8
1
100
AcDbSpline
210
0.0
220
0.0
230
1.0
 70
     8
 71
     3
 72
     9
 73
     5
 74
     0
 42
0.0000000001
 43
0.0000000001
 40
0.0
 40
0.0
 40
0.0
 40
0.0
 40
0.2488625638
 40
1.0
 40
1.0
 40
1.0
 40
1.0
 10
38.51507173690015
 20
18.24701475439997
 30
0.0
 10
38.52338119480015
 20
18.23257110540004
 30
0.0
 10
38.55769891630013
 20
18.17507190920003
 30
0.0
 10
38.59575334270011
 20
18.1197977919
 30
0.0
 10
38.62630616640013
 20
18.07984693970002
 30
0.0
1001
ACAD
1000
RTMaterial
1005
0
  0
SPLINE
  5
61DDC
330
1F
100
AcDbEntity
  8
1
100
AcDbSpline
210
0.0
220
0.0
230
1.0
 70
     8
 71
     3
 72
     9
 73
     5
 74
     0
 42
0.0000000001
 43
0.0000000001
 40
0.0
 40
0.0
 40
0.0
 40
0.0
 40
0.2520056646
 40
1.0
 40
1.0
 40
1.0
 40
1.0
 10
34.89321737300017
 20
23.2912735864
 30
0.0
 10
34.87815352020013
 20
23.30890419920002
 30
0.0
 10
34.82039755340017
 20
23.38056423130002
 30
0.0
 10
34.77099311840019
 20
23.45897133170002
 30
0.0
 10
34.73964988620017
 20
23.5202514458
 30
0.0
1001
ACAD
1000
RTMaterial
1005
0
  0
SPLINE
  5
61DDD
330
1F
100
AcDbEntity
  8
1
100
AcDbSpline
210
0.0
220
0.0
230
1.0
 70
     8
 71
     3
 72
    12
 73
     8
 74
     0
 42
0.0000000001
 43
0.0000000001
 40
0.0
 40
0.0
 40
0.0
 40
0.0
 40
0.0628634526
 40
0.1453449728
 40
0.3677502033
 40
0.6590457815000001
 40
1.0
 40
1.0
 40
1.0
 40
1.0
 10
38.53960259830015
 20
30.24999993540002
 30
0.0
 10
38.57438154040014
 20
30.24999983060002
 30
0.0
 10
38.65478998560016
 20
30.24870191709999
 30
0.0
 10
38.8581635832002
 20
30.2429326363
 30
0.0
 10
39.18779102010015
 20
30.23114178189997
 30
0.0
 10
39.66042358270014
 20
30.21716609229998
 30
0.0
 10
40.01017983430014
 20
30.21125743320005
 30
0.0
 10
40.19880382560015
 20
30.20957498939998
 30
0.0
1001
ACAD
1000
RTMaterial
1005
0
  0
SPLINE
  5
61DDE
330
1F
100
AcDbEntity
  8
1
100
AcDbSpline
210
0.0
220
0.0
230
1.0
 70
     8
 71
     3
 72
    21
 73
    17
 74
     0
 42
0.0000000001
 43
0.0000000001
 40
0.0
 40
0.0
 40
0.0
 40
0.0
 40
0.1750337536
 40
0.2562708331
 40
0.3318903372
 40
0.4007209547
 40
0.4618081118
 40
0.5149565135000001
 40
0.5614522684000001
 40
0.6044009189000001
 40
0.6477650803000001
 40
0.6945944186000001
 40
0.7463051407
 40
0.8031289446999998
 40
0.8647237762000001
 40
1.0
 40
1.0
 40
1.0
 40
1.0
 10
35.90833411630013
 20
17.01880721790002
 30
0.0
 10
35.83973510290014
 20
17.03207124189998
 30
0.0
 10
35.73969606680009
 20
17.05402451769998
 30
0.0
 10
35.6125003877001
 20
17.09127542009997
 30
0.0
 10
35.52769107280011
 20
17.12189079540002
 30
0.0
 10
35.45303367780014
 20
17.15624165700001
 30
0.0
 10
35.39060054410015
 20
17.19469558549997
 30
0.0
 10
35.34232748400012
 20
17.23766172699999
 30
0.0
 10
35.3101653852001
 20
17.28562892629998
 30
0.0
 10
35.29622409390015
 20
17.33785676089997
 30
0.0
 10
35.30030260340016
 20
17.39168391589999
 30
0.0
 10
35.31943110830014
 20
17.4454950992
 30
0.0
 10
35.35085134390016
 20
17.49924753820005
 30
0.0
 10
35.39256359800015
 20
17.55301131799996
 30
0.0
 10
35.46191237170012
 20
17.62694162740001
 30
0.0
 10
35.52147181730016
 20
17.67852765320003
 30
0.0
 10
35.56352359980014
 20
17.71240342589999
 30
0.0
1001
ACAD
1000
RTMaterial
1005
0
  0
SPLINE
  5
61DDF
330
1F
100
AcDbEntity
  8
1
100
AcDbSpline
210
0.0
220
0.0
230
1.0
 70
     8
 71
     3
 72
    12
 73
     8
 74
     0
 42
0.0000000001
 43
0.0000000001
 40
0.0
 40
0.0
 40
0.0
 40
0.0
 40
0.1140249529
 40
0.2299189303
 40
0.4707124424000001
 40
0.7272391470999999
 40
1.0
 40
1.0
 40
1.0
 40
1.0
 10
40.69522859430009
 20
17.39413082160001
 30
0.0
 10
40.61869442880009
 20
17.34924803170003
 30
0.0
 10
40.46024404770008
 20
17.26559062070004
 30
0.0
 10
40.12247661920014
 20
17.12296606430004
 30
0.0
 10
39.6616956827001
 20
16.99194427079999
 30
0.0
 10
39.06830984450011
 20
16.90166871420001
 30
0.0
 10
38.65686767840015
 20
16.87569664369999
 30
0.0
 10
38.44475309150011
 20
16.86846027530004
 30
0.0
1001
ACAD
1000
RTMaterial
1005
0
  0
SPLINE
  5
61DE0
330
1F
100
AcDbEntity
  8
1
100
AcDbSpline
210
0.0
220
0.0
230
1.0
 70
     8
 71
     3
 72
     9
 73
     5
 74
     0
 42
0.0000000001
 43
0.0000000001
 40
0.0
 40
0.0
 40
0.0
 40
0.0
 40
0.2481886055
 40
1.0
 40
1.0
 40
1.0
 40
1.0
 10
42.41773692280014
 20
17.00253237840002
 30
0.0
 10
42.27520463240011
 20
17.03479704110003
 30
0.0
 10
41.70095086370014
 20
17.16495867489999
 30
0.0
 10
41.12681993120014
 20
17.29566182799999
 30
0.0
 10
40.69522859430009
 20
17.39413082160001
 30
0.0
1001
ACAD
1000
RTMaterial
1005
0
  0
SPLINE
  5
61DE1
330
1F
100
AcDbEntity
  8
1
100
AcDbSpline
210
0.0
220
0.0
230
1.0
 70
     8
 71
     3
 72
    11
 73
     7
 74
     0
 42
0.0000000001
 43
0.0000000001
 40
0.0
 40
0.0
 40
0.0
 40
0.0
 40
0.2409548601
 40
0.4913901994
 40
0.7460843523000001
 40
1.0
 40
1.0
 40
1.0
 40
1.0
 10
38.26272446870013
 20
19.18619977329996
 30
0.0
 10
38.02696624020013
 20
19.48069269759997
 30
0.0
 10
37.55083212310012
 20
20.08500317670002
 30
0.0
 10
36.8396575133001
 20
21.01164649309999
 30
0.0
 10
36.12729538360009
 20
21.96285207149998
 30
0.0
 10
35.65751022040013
 20
22.60581048530003
 30
0.0
 10
35.42507126550018
 20
22.92830263449997
 30
0.0
1001
ACAD
1000
RTMaterial
1005
0
  0
SPLINE
  5
61DE2
330
1F
100
AcDbEntity
  8
1
100
AcDbSpline
210
0.0
220
0.0
230
1.0
 70
     8
 71
     3
 72
     9
 73
     5
 74
     0
 42
0.0000000001
 43
0.0000000001
 40
0.0
 40
0.0
 40
0.0
 40
0.0
 40
0.2540488909
 40
1.0
 40
1.0
 40
1.0
 40
1.0
 10
43.19357154090016
 20
16.82389373399997
 30
0.0
 10
43.12793233120015
 20
16.83928333570003
 30
0.0
 10
42.8694945474001
 20
16.89958149040007
 30
0.0
 10
42.61081151590014
 20
16.95882658649998
 30
0.0
 10
42.41773692280014
 20
17.00253237840002
 30
0.0
1001
ACAD
1000
RTMaterial
1005
0
  0
SPLINE
  5
61DE3
330
1F
100
AcDbEntity
  8
1
100
AcDbSpline
210
0.0
220
0.0
230
1.0
 70
     8
 71
     3
 72
     9
 73
     5
 74
     0
 42
0.0000000001
 43
0.0000000001
 40
0.0
 40
0.0
 40
0.0
 40
0.0
 40
0.2499866556
 40
1.0
 40
1.0
 40
1.0
 40
1.0
 10
47.58518587090015
 20
15.79518399509999
 30
0.0
 10
47.21921666770009
 20
15.88081606610001
 30
0.0
 10
45.75528708880011
 20
16.22347108509996
 30
0.0
 10
44.29144262760013
 20
16.56648967960001
 30
0.0
 10
43.19357154090016
 20
16.82389373399997
 30
0.0
1001
ACAD
1000
RTMaterial
1005
0
  0
SPLINE
  5
61DE4
330
1F
100
AcDbEntity
  8
1
100
AcDbSpline
210
0.0
220
0.0
230
1.0
 70
     8
 71
     3
 72
    15
 73
    11
 74
     0
 42
0.0000000001
 43
0.0000000001
 40
0.0
 40
0.0
 40
0.0
 40
0.0
 40
0.1250128088
 40
0.250020807
 40
0.3750228637
 40
0.5000190810000001
 40
0.6250118835000001
 40
0.7500041828000001
 40
0.8749993432
 40
1.0
 40
1.0
 40
1.0
 40
1.0
 10
34.73964988620017
 20
23.5202514458
 30
0.0
 10
34.68845418510014
 20
23.6179267892
 30
0.0
 10
34.61104905100015
 20
23.82759024430004
 30
0.0
 10
34.58027849230016
 20
24.16063803570001
 30
0.0
 10
34.63715779560013
 20
24.4904953894
 30
0.0
 10
34.77872174050018
 20
24.79382802449999
 30
0.0
 10
34.99550484540012
 20
25.04893871040002
 30
0.0
 10
35.27231085120016
 20
25.2373240481
 30
0.0
 10
35.58889583890019
 20
25.3456242451
 30
0.0
 10
35.81205771540013
 20
25.35955616659999
 30
0.0
 10
35.92206221530015
 20
25.35193263009996
 30
0.0
1001
ACAD
1000
RTMaterial
1005
0
  0
SPLINE
  5
61DE5
330
1F
100
AcDbEntity
  8
1
100
AcDbSpline
210
0.0
220
0.0
230
1.0
 70
     8
 71
     3
 72
     9
 73
     5
 74
     0
 42
0.0000000001
 43
0.0000000001
 40
0.0
 40
0.0
 40
0.0
 40
0.0
 40
0.2557125182
 40
1.0
 40
1.0
 40
1.0
 40
1.0
 10
34.96329949200012
 20
23.6176505469
 30
0.0
 10
34.95552674900014
 20
23.61990550740001
 30
0.0
 10
34.92521074620018
 20
23.62899896380003
 30
0.0
 10
34.89521616010015
 20
23.63916186450001
 30
0.0
 10
34.87311036190013
 20
23.64730078689996
 30
0.0
1001
ACAD
1000
RTMaterial
1005
0
  0
SPLINE
  5
61DE6
330
1F
100
AcDbEntity
  8
1
100
AcDbSpline
210
0.0
220
0.0
230
1.0
 70
     8
 71
     3
 72
     9
 73
     5
 74
     0
 42
0.0000000001
 43
0.0000000001
 40
0.0
 40
0.0
 40
0.0
 40
0.0
 40
0.2479499989
 40
1.0
 40
1.0
 40
1.0
 40
1.0
 10
35.02739124410019
 20
23.60038271470006
 30
0.0
 10
35.02206747290015
 20
23.60170805909996
 30
0.0
 10
35.00062188390015
 20
23.60715540059999
 30
0.0
 10
34.97928077330013
 20
23.61301419699998
 30
0.0
 10
34.96329949200012
 20
23.6176505469
 30
0.0
1001
ACAD
1000
RTMaterial
1005
0
  0
SPLINE
  5
61DE7
330
1F
100
AcDbEntity
  8
1
100
AcDbSpline
210
0.0
220
0.0
230
1.0
 70
     8
 71
     3
 72
    10
 73
     6
 74
     0
 42
0.0000000001
 43
0.0000000001
 40
0.0
 40
0.0
 40
0.0
 40
0.0
 40
0.445450532
 40
0.6993382725
 40
1.0
 40
1.0
 40
1.0
 40
1.0
 10
35.42507126550018
 20
22.92830263449997
 30
0.0
 10
35.32530888130012
 20
22.99955393979997
 30
0.0
 10
35.17068959080015
 20
23.11431861250003
 30
0.0
 10
34.95661227310015
 20
23.2873173365
 30
0.0
 10
34.84196656630016
 20
23.38822258430003
 30
0.0
 10
34.78182787840015
 20
23.44505798759997
 30
0.0
1001
ACAD
1000
RTMaterial
1005
0
  0
SPLINE
  5
61DE8
330
1F
100
AcDbEntity
  8
1
100
AcDbSpline
210
0.0
220
0.0
230
1.0
 70
     8
 71
     3
 72
     9
 73
     5
 74
     0
 42
0.0000000001
 43
0.0000000001
 40
0.0
 40
0.0
 40
0.0
 40
0.0
 40
0.2486526729
 40
1.0
 40
1.0
 40
1.0
 40
1.0
 10
40.19880382560015
 20
30.20957498939998
 30
0.0
 10
40.21547327330014
 20
30.2094263052
 30
0.0
 10
40.28247978350018
 20
30.2068439917
 30
0.0
 10
40.34917815920013
 20
30.19622759180004
 30
0.0
 10
40.39800868940014
 20
30.18386306420001
 30
0.0
1001
ACAD
1000
RTMaterial
1005
0
  0
SPLINE
  5
61DE9
330
1F
100
AcDbEntity
  8
1
100
AcDbSpline
210
0.0
220
0.0
230
1.0
 70
     8
 71
     3
 72
     9
 73
     5
 74
     0
 42
0.0000000001
 43
0.0000000001
 40
0.0
 40
0.0
 40
0.0
 40
0.0
 40
0.2552675992
 40
1.0
 40
1.0
 40
1.0
 40
1.0
 10
34.73171734130014
 20
23.72021933030004
 30
0.0
 10
34.72220519540016
 20
23.72667271329999
 30
0.0
 10
34.68571165940014
 20
23.753061962
 30
0.0
 10
34.65247643710015
 20
23.7840199863
 30
0.0
 10
34.63041290190015
 20
23.80927484290004
 30
0.0
1001
ACAD
1000
RTMaterial
1005
0
  0
SPLINE
  5
61DEA
330
1F
100
AcDbEntity
  8
1
100
AcDbSpline
210
0.0
220
0.0
230
1.0
 70
     8
 71
     3
 72
     9
 73
     5
 74
     0
 42
0.0000000001
 43
0.0000000001
 40
0.0
 40
0.0
 40
0.0
 40
0.0
 40
0.2495934914
 40
1.0
 40
1.0
 40
1.0
 40
1.0
 10
34.87310497250016
 20
23.64728148610004
 30
0.0
 10
34.86066598230016
 20
23.65186025250006
 30
0.0
 10
34.81140329880017
 20
23.67174359110004
 30
0.0
 10
34.76469561930012
 20
23.69784634579997
 30
0.0
 10
34.73171734130014
 20
23.72021933030004
 30
0.0
1001
ACAD
1000
RTMaterial
1005
0
  0
SPLINE
  5
61DEB
330
1F
100
AcDbEntity
  8
1
100
AcDbSpline
210
0.0
220
0.0
230
1.0
 70
     8
 71
     3
 72
    10
 73
     6
 74
     0
 42
0.0000000001
 43
0.0000000001
 40
0.0
 40
0.0
 40
0.0
 40
0.0
 40
0.2952798992
 40
0.5506090782000001
 40
1.0
 40
1.0
 40
1.0
 40
1.0
 10
38.53493412690011
 20
18.25830277220006
 30
0.0
 10
38.50371356270012
 20
18.34108337200001
 30
0.0
 10
38.45114371960011
 20
18.49761258820001
 30
0.0
 10
38.37097228880009
 20
18.7863780239
 30
0.0
 10
38.32606008220011
 20
18.99290091290004
 30
0.0
 10
38.30126421220013
 20
19.12524544390004
 30
0.0
1001
ACAD
1000
RTMaterial
1005
0
  0
SPLINE
  5
61DEC
330
1F
100
AcDbEntity
  8
1
100
AcDbSpline
210
0.0
220
0.0
230
1.0
 70
     8
 71
     3
 72
     9
 73
     5
 74
     0
 42
0.0000000001
 43
0.0000000001
 40
0.0
 40
0.0
 40
0.0
 40
0.0
 40
0.251964637
 40
1.0
 40
1.0
 40
1.0
 40
1.0
 10
40.39800868940014
 20
30.18386306420001
 30
0.0
 10
40.42251892650014
 20
30.17765675220005
 30
0.0
 10
40.51981912330015
 20
30.15311874180003
 30
0.0
 10
40.61721155150016
 20
30.12894665750002
 30
0.0
 10
40.69011186320014
 20
30.11105903129999
 30
0.0
1001
ACAD
1000
RTMaterial
1005
0
  0
SPLINE
  5
61DED
330
1F
100
AcDbEntity
  8
1
100
AcDbSpline
210
0.0
220
0.0
230
1.0
 70
     8
 71
     3
 72
     8
 73
     4
 74
     0
 42
0.0000000001
 43
0.0000000001
 40
0.0
 40
0.0
 40
0.0
 40
0.0
 40
1.0
 40
1.0
 40
1.0
 40
1.0
 10
40.7614654442001
 20
17.60526915159999
 30
0.0
 10
40.82846476470012
 20
17.65149492799998
 30
0.0
 10
40.89185832090016
 20
17.70343464320001
 30
0.0
 10
40.95033969430011
 20
17.7600531942
 30
0.0
1001
ACAD
1000
RTMaterial
1005
0
  0
SPLINE
  5
61DEE
330
1F
100
AcDbEntity
  8
1
100
AcDbSpline
210
0.0
220
0.0
230
1.0
 70
     8
 71
     3
 72
     9
 73
     5
 74
     0
 42
0.0000000001
 43
0.0000000001
 40
0.0
 40
0.0
 40
0.0
 40
0.0
 40
0.2495208058
 40
1.0
 40
1.0
 40
1.0
 40
1.0
 10
40.62227448570013
 20
17.52044449990001
 30
0.0
 10
40.6342372054001
 20
17.52683253729998
 30
0.0
 10
40.6818132204001
 20
17.55311493729999
 30
0.0
 10
40.72789227010014
 20
17.5821055431
 30
0.0
 10
40.7614654442001
 20
17.60526915159999
 30
0.0
1001
ACAD
1000
RTMaterial
1005
0
  0
SPLINE
  5
61DEF
330
1F
100
AcDbEntity
  8
1
100
AcDbSpline
210
0.0
220
0.0
230
1.0
 70
     8
 71
     3
 72
    11
 73
     7
 74
     0
 42
0.0000000001
 43
0.0000000001
 40
0.0
 40
0.0
 40
0.0
 40
0.0
 40
0.2592820613
 40
0.5128397195000001
 40
0.7581493322
 40
1.0
 40
1.0
 40
1.0
 40
1.0
 10
38.62630616640013
 20
18.07984693970002
 30
0.0
 10
38.70546415730013
 20
17.97634000299996
 30
0.0
 10
38.88975060180013
 20
17.79102628920003
 30
0.0
 10
39.22485866260013
 20
17.60026565420003
 30
0.0
 10
39.58981693160012
 20
17.50769273880002
 30
0.0
 10
39.83767875190011
 20
17.51069115360002
 30
0.0
 10
39.95812746940016
 20
17.52698397430004
 30
0.0
1001
ACAD
1000
RTMaterial
1005
0
  0
SPLINE
  5
61DF0
330
1F
100
AcDbEntity
  8
1
100
AcDbSpline
210
0.0
220
0.0
230
1.0
 70
     8
 71
     3
 72
     9
 73
     5
 74
     0
 42
0.0000000001
 43
0.0000000001
 40
0.0
 40
0.0
 40
0.0
 40
0.0
 40
0.2432113586
 40
1.0
 40
1.0
 40
1.0
 40
1.0
 10
38.58658685820012
 20
18.63193407149998
 30
0.0
 10
38.58839786730016
 20
18.6435420066
 30
0.0
 10
38.59729749050013
 20
18.69103659540002
 30
0.0
 10
38.61184807810014
 20
18.73743152579999
 30
0.0
 10
38.62551116150013
 20
18.77133902060001
 30
0.0
1001
ACAD
1000
RTMaterial
1005
0
  0
SPLINE
  5
61DF1
330
1F
100
AcDbEntity
  8
1
100
AcDbSpline
210
0.0
220
0.0
230
1.0
 70
     8
 71
     3
 72
     9
 73
     5
 74
     0
 42
0.0000000001
 43
0.0000000001
 40
0.0
 40
0.0
 40
0.0
 40
0.0
 40
0.255975389
 40
1.0
 40
1.0
 40
1.0
 40
1.0
 10
38.60807861910013
 20
18.65379072549996
 30
0.0
 10
38.60960350390013
 20
18.66252452149996
 30
0.0
 10
38.61613500360011
 20
18.69653977689995
 30
0.0
 10
38.62502262850012
 20
18.73011545280002
 30
0.0
 10
38.63307621930011
 20
18.75459457290003
 30
0.0
1001
ACAD
1000
RTMaterial
1005
0
  0
SPLINE
  5
61DF2
330
1F
100
AcDbEntity
  8
1
100
AcDbSpline
210
0.0
220
0.0
230
1.0
 70
     8
 71
     3
 72
     9
 73
     5
 74
     0
 42
0.0000000001
 43
0.0000000001
 40
0.0
 40
0.0
 40
0.0
 40
0.0
 40
0.2527650133
 40
1.0
 40
1.0
 40
1.0
 40
1.0
 10
38.63307621930011
 20
18.75459457290003
 30
0.0
 10
38.63438497930014
 20
18.75857258629998
 30
0.0
 10
38.6397136815001
 20
18.77426040839998
 30
0.0
 10
38.64565219240012
 20
18.78974198180003
 30
0.0
 10
38.6504416895001
 20
18.80115806920002
 30
0.0
1001
ACAD
1000
RTMaterial
1005
0
  0
SPLINE
  5
61DF3
330
1F
100
AcDbEntity
  8
1
100
AcDbSpline
210
0.0
220
0.0
230
1.0
 70
     8
 71
     3
 72
     9
 73
     5
 74
     0
 42
0.0000000001
 43
0.0000000001
 40
0.0
 40
0.0
 40
0.0
 40
0.0
 40
0.2603198609
 40
1.0
 40
1.0
 40
1.0
 40
1.0
 10
38.68988450690011
 20
18.89506443990001
 30
0.0
 10
38.69017887420012
 20
18.91074546649997
 30
0.0
 10
38.69273143690015
 20
18.97093727129998
 30
0.0
 10
38.70122085360009
 20
19.0309589684
 30
0.0
 10
38.71149328990015
 20
19.07432322839997
 30
0.0
1001
ACAD
1000
RTMaterial
1005
0
  0
SPLINE
  5
61DF4
330
1F
100
AcDbEntity
  8
1
100
AcDbSpline
210
0.0
220
0.0
230
1.0
 70
     8
 71
     3
 72
     9
 73
     5
 74
     0
 42
0.0000000001
 43
0.0000000001
 40
0.0
 40
0.0
 40
0.0
 40
0.0
 40
0.2978919932
 40
1.0
 40
1.0
 40
1.0
 40
1.0
 10
38.71149328990015
 20
19.07432322839997
 30
0.0
 10
38.71080516620015
 20
19.07598055519997
 30
0.0
 10
38.70857344550012
 20
19.08157153220003
 30
0.0
 10
38.70659640020011
 20
19.08729569849998
 30
0.0
 10
38.70568974520012
 20
19.09142688470007
 30
0.0
1001
ACAD
1000
RTMaterial
1005
0
  0
SPLINE
  5
61DF5
330
1F
100
AcDbEntity
  8
1
100
AcDbSpline
210
0.0
220
0.0
230
1.0
 70
     8
 71
     3
 72
    15
 73
    11
 74
     0
 42
0.0000000001
 43
0.0000000001
 40
0.0
 40
0.0
 40
0.0
 40
0.0
 40
0.0261799133
 40
0.0474078734
 40
0.0754043452
 40
0.1530488078
 40
0.2606462595
 40
0.3988135478
 40
0.5679291135
 40
1.0
 40
1.0
 40
1.0
 40
1.0
 10
38.41855714410016
 20
30.23890502
 30
0.0
 10
38.41855586570014
 20
30.23998031530005
 30
0.0
 10
38.42022758150014
 20
30.24163697790005
 30
0.0
 10
38.42296831190018
 20
30.2428645041
 30
0.0
 10
38.42797531770012
 20
30.24449646220006
 30
0.0
 10
38.43659249470014
 20
30.24603189680005
 30
0.0
 10
38.44980603000019
 20
30.24751571680003
 30
0.0
 10
38.46681047640018
 20
30.24864028009995
 30
0.0
 10
38.49715911580015
 20
30.24980902570002
 30
0.0
 10
38.52185601040017
 20
30.24999998880003
 30
0.0
 10
38.53960259830015
 20
30.24999993540002
 30
0.0
1001
ACAD
1000
RTMaterial
1005
0
  0
SPLINE
  5
61DF6
330
1F
100
AcDbEntity
  8
1
100
AcDbSpline
210
0.0
220
0.0
230
1.0
 70
     8
 71
     3
 72
     9
 73
     5
 74
     0
 42
0.0000000001
 43
0.0000000001
 40
0.0
 40
0.0
 40
0.0
 40
0.0
 40
0.264177565
 40
1.0
 40
1.0
 40
1.0
 40
1.0
 10
18.0338586031001
 20
23.5111301334
 30
0.0
 10
18.01710601570016
 20
23.53922515750003
 30
0.0
 10
17.95634492530013
 20
23.64708449899996
 30
0.0
 10
17.90670852040011
 20
23.7615811151
 30
0.0
 10
17.8798279583001
 20
23.84863524259998
 30
0.0
1001
ACAD
1000
RTMaterial
1005
0
  0
SPLINE
  5
61DF7
330
1F
100
AcDbEntity
  8
1
100
AcDbSpline
210
0.0
220
0.0
230
1.0
 70
     8
 71
     3
 72
     9
 73
     5
 74
     0
 42
0.0000000001
 43
0.0000000001
 40
0.0
 40
0.0
 40
0.0
 40
0.0
 40
0.248661516
 40
1.0
 40
1.0
 40
1.0
 40
1.0
 10
34.69236441020016
 20
24.59801330420004
 30
0.0
 10
34.69466039420016
 20
24.6009780178
 30
0.0
 10
34.70395528000015
 20
24.61285295369999
 30
0.0
 10
34.71349390680015
 20
24.62453698180002
 30
0.0
 10
34.72078952140018
 20
24.63320569790005
 30
0.0
1001
ACAD
1000
RTMaterial
1005
0
  0
SPLINE
  5
61DF8
330
1F
100
AcDbEntity
  8
1
100
AcDbSpline
210
0.0
220
0.0
230
1.0
 70
     8
 71
     3
 72
    15
 73
    11
 74
     0
 42
0.0000000001
 43
0.0000000001
 40
0.0
 40
0.0
 40
0.0
 40
0.0
 40
0.0516652681
 40
0.1063937441
 40
0.2224573718
 40
0.3446528371
 40
0.4710161775000001
 40
0.6003694753000001
 40
0.7319619090999999
 40
1.0
 40
1.0
 40
1.0
 40
1.0
 10
35.56352359980014
 20
17.71240342589999
 30
0.0
 10
35.60482249250015
 20
17.74567269110002
 30
0.0
 10
35.69238418250012
 20
17.81106910229999
 30
0.0
 10
35.88161290820017
 20
17.93895224930003
 30
0.0
 10
36.1389893174001
 20
18.09481986290001
 30
0.0
 10
36.46583857160016
 20
18.27721663930003
 30
0.0
 10
36.80869267270009
 20
18.45872718140003
 30
0.0
 10
37.16260217590014
 20
18.63984998399996
 30
0.0
 10
37.6480792654001
 20
18.88304976500001
 30
0.0
 10
38.0160923419001
 20
19.06425836470004
 30
0.0
 10
38.26272446870013
 20
19.18619977329996
 30
0.0
1001
ACAD
1000
RTMaterial
1005
0
  0
SPLINE
  5
61DF9
330
1F
100
AcDbEntity
  8
1
100
AcDbSpline
210
0.0
220
0.0
230
1.0
 70
     8
 71
     3
 72
     9
 73
     5
 74
     0
 42
0.0000000001
 43
0.0000000001
 40
0.0
 40
0.0
 40
0.0
 40
0.0
 40
0.5000010678
 40
1.0
 40
1.0
 40
1.0
 40
1.0
 10
33.37079296630018
 20
28.90145409720003
 30
0.0
 10
33.84232515090017
 20
29.05044112369996
 30
0.0
 10
34.80953230180015
 20
29.27684594549999
 30
0.0
 10
35.80000253710014
 20
29.3529015103
 30
0.0
 10
36.29451001350017
 20
29.35294692269997
 30
0.0
1001
ACAD
1000
RTMaterial
1005
0
  0
SPLINE
  5
61DFA
330
1F
100
AcDbEntity
  8
1
100
AcDbSpline
210
0.0
220
0.0
230
1.0
 70
     8
 71
     3
 72
     9
 73
     5
 74
     0
 42
0.0000000001
 43
0.0000000001
 40
0.0
 40
0.0
 40
0.0
 40
0.0
 40
0.2034012481
 40
1.0
 40
1.0
 40
1.0
 40
1.0
 10
34.76185565070014
 20
23.47914052610002
 30
0.0
 10
34.77828449110015
 20
23.4671243542
 30
0.0
 10
34.86086390080013
 20
23.41054575320004
 30
0.0
 10
34.95140509510017
 20
23.36574971579995
 30
0.0
 10
35.02566881030018
 20
23.33677717439997
 30
0.0
1001
ACAD
1000
RTMaterial
1005
0
  0
SPLINE
  5
61DFB
330
1F
100
AcDbEntity
  8
1
100
AcDbSpline
210
0.0
220
0.0
230
1.0
 70
     8
 71
     3
 72
    15
 73
    11
 74
     0
 42
0.0000000001
 43
0.0000000001
 40
0.0
 40
0.0
 40
0.0
 40
0.0
 40
0.127811115
 40
0.2552218654
 40
0.3819112238
 40
0.5076684438
 40
0.6323859769000001
 40
0.7560191386000001
 40
0.8785559059999998
 40
1.0
 40
1.0
 40
1.0
 40
1.0
 10
28.00416334350016
 20
23.87585259030004
 30
0.0
 10
27.77977191530019
 20
23.87002002110006
 30
0.0
 10
27.33059945130018
 20
23.88196733320001
 30
0.0
 10
26.66530494240013
 20
23.97907951449997
 30
0.0
 10
26.02032685540016
 20
24.15578224239999
 30
0.0
 10
25.40446380160015
 20
24.40307396380001
 30
0.0
 10
24.8211485457002
 20
24.70738242240003
 30
0.0
 10
24.27007410180014
 20
25.05582202610003
 30
0.0
 10
23.74935885380015
 20
25.4382199424
 30
0.0
 10
23.41944565900016
 20
25.71203674449999
 30
0.0
 10
23.25889699740017
 20
25.85244578759995
 30
0.0
1001
ACAD
1000
RTMaterial
1005
0
  0
SPLINE
  5
61DFC
330
1F
100
AcDbEntity
  8
1
100
AcDbSpline
210
0.0
220
0.0
230
1.0
 70
     8
 71
     3
 72
     9
 73
     5
 74
     0
 42
0.0000000001
 43
0.0000000001
 40
0.0
 40
0.0
 40
0.0
 40
0.0
 40
0.5000064152000001
 40
1.0
 40
1.0
 40
1.0
 40
1.0
 10
29.10403781490013
 20
23.85434019460001
 30
0.0
 10
28.92096935030017
 20
23.86519280720006
 30
0.0
 10
28.55441808740014
 20
23.88027465369999
 30
0.0
 10
28.18748658220014
 20
23.88061768079996
 30
0.0
 10
28.00416334350016
 20
23.87585259030004
 30
0.0
1001
ACAD
1000
RTMaterial
1005
0
  0
SPLINE
  5
61DFD
330
1F
100
AcDbEntity
  8
1
100
AcDbSpline
210
0.0
220
0.0
230
1.0
 70
     8
 71
     3
 72
     8
 73
     4
 74
     0
 42
0.0000000001
 43
0.0000000001
 40
0.0
 40
0.0
 40
0.0
 40
0.0
 40
1.0
 40
1.0
 40
1.0
 40
1.0
 10
33.37079296630018
 20
28.90145409720003
 30
0.0
 10
31.64861208460016
 20
28.35730755340001
 30
0.0
 10
29.9267118766002
 20
27.8122715765
 30
0.0
 10
28.20514760880016
 20
27.26617733379999
 30
0.0
1001
ACAD
1000
RTMaterial
1005
0
  0
SPLINE
  5
61DFE
330
1F
100
AcDbEntity
  8
1
100
AcDbSpline
210
0.0
220
0.0
230
1.0
 70
     8
 71
     3
 72
     9
 73
     5
 74
     0
 42
0.0000000001
 43
0.0000000001
 40
0.0
 40
0.0
 40
0.0
 40
0.0
 40
0.5023614560000001
 40
1.0
 40
1.0
 40
1.0
 40
1.0
 10
35.42507126550018
 20
22.92830263449997
 30
0.0
 10
35.32249101050016
 20
22.9644344957
 30
0.0
 10
35.12673374020014
 20
23.06315038470007
 30
0.0
 10
34.96320156520014
 20
23.20936464780004
 30
0.0
 10
34.89321737300017
 20
23.2912735864
 30
0.0
1001
ACAD
1000
RTMaterial
1005
0
  0
SPLINE
  5
61DFF
330
1F
100
AcDbEntity
  8
1
100
AcDbSpline
210
0.0
220
0.0
230
1.0
 70
     8
 71
     3
 72
     9
 73
     5
 74
     0
 42
0.0000000001
 43
0.0000000001
 40
0.0
 40
0.0
 40
0.0
 40
0.0
 40
0.2497470839
 40
1.0
 40
1.0
 40
1.0
 40
1.0
 10
27.33232496370019
 20
26.980905355
 30
0.0
 10
27.40477490860016
 20
27.00529388170003
 30
0.0
 10
27.69508590140018
 20
27.10229887409997
 30
0.0
 10
27.98625260870014
 20
27.1967420524
 30
0.0
 10
28.20514760880016
 20
27.26617733379999
 30
0.0
1001
ACAD
1000
RTMaterial
1005
0
  0
SPLINE
  5
61E00
330
1F
100
AcDbEntity
  8
1
100
AcDbSpline
210
0.0
220
0.0
230
1.0
 70
     8
 71
     3
 72
     9
 73
     5
 74
     0
 42
0.0000000001
 43
0.0000000001
 40
0.0
 40
0.0
 40
0.0
 40
0.0
 40
0.2447898237
 40
1.0
 40
1.0
 40
1.0
 40
1.0
 10
38.62551116150013
 20
18.77133902060001
 30
0.0
 10
38.62976813710015
 20
18.78190350099998
 30
0.0
 10
38.64822306150012
 20
18.82462691610004
 30
0.0
 10
38.67085479540009
 20
18.86552378530001
 30
0.0
 10
38.68988450690011
 20
18.89506443990001
 30
0.0
1001
ACAD
1000
RTMaterial
1005
0
  0
SPLINE
  5
61E01
330
1F
100
AcDbEntity
  8
1
100
AcDbSpline
210
0.0
220
0.0
230
1.0
 70
     8
 71
     3
 72
     9
 73
     5
 74
     0
 42
0.0000000001
 43
0.0000000001
 40
0.0
 40
0.0
 40
0.0
 40
0.0
 40
0.2430587711
 40
1.0
 40
1.0
 40
1.0
 40
1.0
 10
35.02566881030018
 20
23.33677717439997
 30
0.0
 10
35.04824837660019
 20
23.3279681967
 30
0.0
 10
35.14224350580017
 20
23.29460037990003
 30
0.0
 10
35.24038375710015
 20
23.27294763949999
 30
0.0
 10
35.31526521280014
 20
23.26346251019999
 30
0.0
1001
ACAD
1000
RTMaterial
1005
0
  0
SPLINE
  5
61E02
330
1F
100
AcDbEntity
  8
1
100
AcDbSpline
210
0.0
220
0.0
230
1.0
 70
     8
 71
     3
 72
     9
 73
     5
 74
     0
 42
0.0000000001
 43
0.0000000001
 40
0.0
 40
0.0
 40
0.0
 40
0.0
 40
0.2432542058
 40
1.0
 40
1.0
 40
1.0
 40
1.0
 10
34.72078952140018
 20
24.63320569790005
 30
0.0
 10
34.73821700430014
 20
24.65391319309998
 30
0.0
 10
34.81288424100015
 20
24.73647142960004
 30
0.0
 10
34.89874050550017
 20
24.80871749009998
 30
0.0
 10
34.96773379220016
 20
24.85697853079995
 30
0.0
1001
ACAD
1000
RTMaterial
1005
0
  0
SPLINE
  5
61E03
330
1F
100
AcDbEntity
  8
1
100
AcDbSpline
210
0.0
220
0.0
230
1.0
 70
     8
 71
     3
 72
     9
 73
     5
 74
     0
 42
0.0000000001
 43
0.0000000001
 40
0.0
 40
0.0
 40
0.0
 40
0.0
 40
0.4832884024000001
 40
1.0
 40
1.0
 40
1.0
 40
1.0
 10
38.30126421220013
 20
19.12524544390004
 30
0.0
 10
38.29637834660014
 20
18.98724225019998
 30
0.0
 10
38.32096826610012
 20
18.69943227699997
 30
0.0
 10
38.41902991990014
 20
18.42658828989999
 30
0.0
 10
38.48801708800016
 20
18.29605770110004
 30
0.0
1001
ACAD
1000
RTMaterial
1005
0
  0
SPLINE
  5
61E04
330
1F
100
AcDbEntity
  8
1
100
AcDbSpline
210
0.0
220
0.0
230
1.0
 70
     8
 71
     3
 72
    11
 73
     7
 74
     0
 42
0.0000000001
 43
0.0000000001
 40
0.0
 40
0.0
 40
0.0
 40
0.0
 40
0.2415811219
 40
0.4900190876
 40
0.7434395572
 40
1.0
 40
1.0
 40
1.0
 40
1.0
 10
23.25889699740017
 20
25.85244578759995
 30
0.0
 10
23.59036258530014
 20
25.93035531360005
 30
0.0
 10
24.2619714009002
 20
26.09155701020001
 30
0.0
 10
25.27643122700013
 20
26.3542850796
 30
0.0
 10
26.30446557280019
 20
26.64769012439996
 30
0.0
 10
26.98961030660016
 20
26.86553873060001
 30
0.0
 10
27.33232496370019
 20
26.980905355
 30
0.0
1001
ACAD
1000
RTMaterial
1005
0
  0
SPLINE
  5
61E05
330
1F
100
AcDbEntity
  8
1
100
AcDbSpline
210
0.0
220
0.0
230
1.0
 70
     8
 71
     3
 72
    10
 73
     6
 74
     0
 42
0.0000000001
 43
0.0000000001
 40
0.0
 40
0.0
 40
0.0
 40
0.0
 40
0.5726460787
 40
0.8121149776999999
 40
1.0
 40
1.0
 40
1.0
 40
1.0
 10
38.48036146660013
 20
18.6181037435
 30
0.0
 10
38.48278838030012
 20
18.55197895430001
 30
0.0
 10
38.49189732660017
 20
18.45824158570002
 30
0.0
 10
38.51386759960013
 20
18.34475519049999
 30
0.0
 10
38.52572760520013
 20
18.29680331920002
 30
0.0
 10
38.53124370370011
 20
18.2758056403
 30
0.0
1001
ACAD
1000
RTMaterial
1005
0
  0
SPLINE
  5
61E06
330
1F
100
AcDbEntity
  8
1
100
AcDbSpline
210
0.0
220
0.0
230
1.0
 70
     8
 71
     3
 72
    11
 73
     7
 74
     0
 42
0.0000000001
 43
0.0000000001
 40
0.0
 40
0.0
 40
0.0
 40
0.0
 40
0.4047923713000001
 40
0.7279788898000001
 40
0.9406099315999998
 40
1.0
 40
1.0
 40
1.0
 40
1.0
 10
38.53124370370011
 20
18.2758056403
 30
0.0
 10
38.53197086500012
 20
18.27303761490003
 30
0.0
 10
38.53321603280011
 20
18.2683961976
 30
0.0
 10
38.53513061420012
 20
18.26083872329997
 30
0.0
 10
38.53571605020011
 20
18.25885603430004
 30
0.0
 10
38.53652204250017
 20
18.25489682399996
 30
0.0
 10
38.53625622810012
 20
18.25522187199999
 30
0.0
1001
ACAD
1000
RTMaterial
1005
0
  0
SPLINE
  5
61E07
330
1F
100
AcDbEntity
  8
1
100
AcDbSpline
210
0.0
220
0.0
230
1.0
 70
     8
 71
     3
 72
     9
 73
     5
 74
     0
 42
0.0000000001
 43
0.0000000001
 40
0.0
 40
0.0
 40
0.0
 40
0.0
 40
0.5032946643000001
 40
1.0
 40
1.0
 40
1.0
 40
1.0
 10
38.6134965481001
 20
19.29470084049995
 30
0.0
 10
38.56552202550012
 20
19.1885857227
 30
0.0
 10
38.4945291213001
 20
18.96590383739999
 30
0.0
 10
38.47614609710013
 20
18.73295761229997
 30
0.0
 10
38.48036146660013
 20
18.6181037435
 30
0.0
1001
ACAD
1000
RTMaterial
1005
0
  0
SPLINE
  5
61E08
330
1F
100
AcDbEntity
  8
1
100
AcDbSpline
210
0.0
220
0.0
230
1.0
 70
     8
 71
     3
 72
    21
 73
    17
 74
     0
 42
0.0000000001
 43
0.0000000001
 40
0.0
 40
0.0
 40
0.0
 40
0.0
 40
0.0184020422
 40
0.0369917495
 40
0.0757661268
 40
0.1181331567
 40
0.1649688639
 40
0.2165101442
 40
0.2726149928999999
 40
0.3329521249
 40
0.3971172701
 40
0.4646799897
 40
0.5352272391
 40
0.6836838687000001
 40
0.8395198905999999
 40
1.0
 40
1.0
 40
1.0
 40
1.0
 10
17.86284697290011
 20
24.36035938360004
 30
0.0
 10
17.87276904060013
 20
24.39438824339999
 30
0.0
 10
17.89770383930011
 20
24.46145072680002
 30
0.0
 10
17.96760434070012
 20
24.5900333619
 30
0.0
 10
18.09288924180009
 20
24.73843577100002
 30
0.0
 10
18.28936079740015
 20
24.88944722989999
 30
0.0
 10
18.52811618480012
 20
25.01954683399998
 30
0.0
 10
18.80423463010015
 20
25.13163974610006
 30
0.0
 10
19.11318865420014
 20
25.22863134950001
 30
0.0
 10
19.45078548010014
 20
25.31318875369999
 30
0.0
 10
19.81322266280011
 20
25.38777306970002
 30
0.0
 10
20.19708649820012
 20
25.45474242439997
 30
0.0
 10
20.74279330990015
 20
25.5379312746
 30
0.0
 10
21.45878027610013
 20
25.63142408290003
 30
0.0
 10
22.3475062115001
 20
25.73915389410001
 30
0.0
 10
22.95224538780016
 20
25.81349348880002
 30
0.0
 10
23.25889699740017
 20
25.85244578759995
 30
0.0
1001
ACAD
1000
RTMaterial
1005
0
  0
SPLINE
  5
61E09
330
1F
100
AcDbEntity
  8
1
100
AcDbSpline
210
0.0
220
0.0
230
1.0
 70
     8
 71
     3
 72
    10
 73
     6
 74
     0
 42
0.0000000001
 43
0.0000000001
 40
0.0
 40
0.0
 40
0.0
 40
0.0
 40
0.5216962041
 40
0.7643042089000001
 40
1.0
 40
1.0
 40
1.0
 40
1.0
 10
17.8798279583001
 20
23.84863524259998
 30
0.0
 10
17.8532296149001
 20
23.93477539589998
 30
0.0
 10
17.82789727270011
 20
24.06659057009995
 30
0.0
 10
17.83486372600015
 20
24.23982561640003
 30
0.0
 10
17.8514457449001
 20
24.32125757610004
 30
0.0
 10
17.86284697290011
 20
24.36035938360004
 30
0.0
1001
ACAD
1000
RTMaterial
1005
0
  0
SPLINE
  5
61E0A
330
1F
100
AcDbEntity
  8
1
100
AcDbSpline
210
0.0
220
0.0
230
1.0
 70
     8
 71
     3
 72
     8
 73
     4
 74
     0
 42
0.0000000001
 43
0.0000000001
 40
0.0
 40
0.0
 40
0.0
 40
0.0
 40
1.0
 40
1.0
 40
1.0
 40
1.0
 10
39.79811400750015
 20
17.83869308549998
 30
0.0
 10
39.78344268980015
 20
17.83355756750001
 30
0.0
 10
39.7686179690001
 20
17.82883979110005
 30
0.0
 10
39.75367299800013
 20
17.82456557170002
 30
0.0
1001
ACAD
1000
RTMaterial
1005
0
  0
SPLINE
  5
61E0B
330
1F
100
AcDbEntity
  8
1
100
AcDbSpline
210
0.0
220
0.0
230
1.0
 70
     8
 71
     3
 72
    13
 73
     9
 74
     0
 42
0.0000000001
 43
0.0000000001
 40
0.0
 40
0.0
 40
0.0
 40
0.0
 40
0.2694770627
 40
0.5256572772000001
 40
0.6485830701
 40
0.7681678292000001
 40
0.8850158507999999
 40
1.0
 40
1.0
 40
1.0
 40
1.0
 10
39.75367167570016
 20
17.82456390479996
 30
0.0
 10
39.66645142550016
 20
17.79961754220005
 30
0.0
 10
39.48981356870013
 20
17.77067436670001
 30
0.0
 10
39.26954555730015
 20
17.79208228320004
 30
0.0
 10
39.1095188229001
 20
17.84470121300001
 30
0.0
 10
39.00130783550014
 20
17.89995408619995
 30
0.0
 10
38.90564038290012
 20
17.97042569350003
 30
0.0
 10
38.8512340324001
 20
18.02701597129999
 30
0.0
 10
38.82693421770012
 20
18.05714699089998
 30
0.0
1001
ACAD
1000
RTMaterial
1005
0
  0
SPLINE
  5
61E0C
330
1F
100
AcDbEntity
  8
1
100
AcDbSpline
210
0.0
220
0.0
230
1.0
 70
     8
 71
     3
 72
     9
 73
     5
 74
     0
 42
0.0000000001
 43
0.0000000001
 40
0.0
 40
0.0
 40
0.0
 40
0.0
 40
0.255631992
 40
1.0
 40
1.0
 40
1.0
 40
1.0
 10
38.82693421770012
 20
18.05714699089998
 30
0.0
 10
38.82162016170014
 20
18.06373515979999
 30
0.0
 10
38.80094294340017
 20
18.08959566649997
 30
0.0
 10
38.78076573430013
 20
18.115861171
 30
0.0
 10
38.76618041340015
 20
18.13572901589998
 30
0.0
1001
ACAD
1000
RTMaterial
1005
0
  0
ELLIPSE
  5
61E0D
330
1F
100
AcDbEntity
  8
1
100
AcDbEllipse
 10
17.62546407980017
 20
0.0000000000000568
 30
0.0
 11
-34.954110605
 21
-23.2851585031
 31
0.0
210
0.0
220
0.0
230
1.0
 40
0.5524295597
 41
-2.5505397397
 42
-2.541086288
1001
ACAD
1000
RTMaterial
1005
0
  0
ELLIPSE
  5
61E0E
330
1F
100
AcDbEntity
  8
1
100
AcDbEllipse
 10
34.4385238215001
 20
0.0000000000000568
 30
0.0
 11
4.580524180200002
 21
30.2297114844
 31
0.0
210
0.0
220
0.0
230
1.0
 40
0.2418325815
 41
-0.1509966545
 42
-0.0646555147
1001
ACAD
1000
RTMaterial
1005
0
  0
ELLIPSE
  5
61E0F
330
1F
100
AcDbEntity
  8
1
100
AcDbEllipse
 10
39.06467293640015
 20
18.28562263649996
 30
0.0
 11
-1.043936498199999
 21
1.406219163899999
 31
0.0
210
0.0
220
0.0
230
1.0
 40
0.0840271573
 41
0.8150634667
 42
0.8700870223
1001
ACAD
1000
RTMaterial
1005
0
  0
ELLIPSE
  5
61E10
330
1F
100
AcDbEntity
  8
1
100
AcDbEllipse
 10
38.56957306740014
 20
17.8867858877
 30
0.0
 11
-2.158538196999999
 21
0.5080989954000002
 31
0.0
210
0.0
220
0.0
230
1.0
 40
0.0189620868
 41
-4.0091532226
 42
-3.361436625799999
1001
ACAD
1000
RTMaterial
1005
0
  0
ELLIPSE
  5
61E11
330
1F
100
AcDbEntity
  8
1
100
AcDbEllipse
 10
38.44691301220016
 20
24.99986223409996
 30
0.0
 11
-2.522367721899999
 21
0.3806746899000002
 31
0.0
210
0.0
220
0.0
230
1.0
 40
0.0812499867
 41
-0.46007086
 42
-0.1994716665
1001
ACAD
1000
RTMaterial
1005
0
  0
ELLIPSE
  5
61E12
330
1F
100
AcDbEntity
  8
1
100
AcDbEllipse
 10
39.87731129710011
 20
26.51754385149997
 30
0.0
 11
0.5612192389000003
 21
3.5976554455
 31
0.0
210
0.0
220
0.0
230
1.0
 40
0.137316117
 41
0.5927524476000001
 42
0.6014719655
1001
ACAD
1000
RTMaterial
1005
0
  0
ELLIPSE
  5
61E13
330
1F
100
AcDbEntity
  8
1
100
AcDbEllipse
 10
41.31374261810009
 20
21.42926289890005
 30
0.0
 11
5.666870391600002
 21
12.5653026789
 31
0.0
210
0.0
220
0.0
230
1.0
 40
0.1010410836
 41
1.819195403
 42
1.826823477399999
1001
ACAD
1000
RTMaterial
1005
0
  0
ELLIPSE
  5
61E14
330
1F
100
AcDbEntity
  8
1
100
AcDbEllipse
 10
35.99192175400018
 20
23.00073567680005
 30
0.0
 11
-2.3701875655
 21
0.3525254196000001
 31
0.0
210
0.0
220
0.0
230
1.0
 40
0.0700311318
 41
-1.464172001699999
 42
-1.270882900699999
1001
ACAD
1000
RTMaterial
1005
0
  0
ELLIPSE
  5
61E15
330
1F
100
AcDbEntity
  8
1
100
AcDbEllipse
 10
40.33308663930012
 20
27.00113074180001
 30
0.0
 11
-0.3684395063999998
 21
2.542851898999999
 31
0.0
210
0.0
220
0.0
230
1.0
 40
0.3760865682
 41
-0.1049020823
 42
0.3663439441
1001
ACAD
1000
RTMaterial
1005
0
  0
ELLIPSE
  5
61E16
330
1F
100
AcDbEntity
  8
1
100
AcDbEllipse
 10
51.1113555683001
 20
0.0000000000000568
 30
0.0
 11
-10.6094010346
 21
29.8928676475
 31
0.0
210
0.0
220
0.0
230
1.0
 40
0.43683336
 41
0.0338099545
 42
0.0902885477
1001
ACAD
1000
RTMaterial
1005
0
  0
LINE
  5
61E17
330
1F
100
AcDbEntity
  8
nocut
100
AcDbLine
 10
0.0
 20
0.0
 30
0.0
 11
49.5
 21
0.0
 31
0.0
  0
VIEWPORT
  5
6B
102
{ACAD_XDICTIONARY
360
61E3C
102
}
330
50
100
AcDbEntity
 67
     1
  8
0
100
AcDbViewport
 10
155.3592437148233
 20
160.4455827878762
 30
0.0
 40
349.5854424261001
 41
282.2272140146125
 68
     1
 69
     1
 12
155.3592437148233
 22
160.4455827878762
 13
0.0
 23
0.0
 14
10.0
 24
10.0
 15
10.0
 25
10.0
 16
0.0
 26
0.0
 36
1.0
 17
0.0
 27
0.0
 37
0.0
 42
50.0
 43
0.0
 44
0.0
 45
282.2272140146125
 50
0.0
 51
0.0
 72
  1000
 90
    32864
  1

281
     0
 71
     1
 74
     0
110
0.0
120
0.0
130
0.0
111
1.0
121
0.0
131
0.0
112
0.0
122
1.0
132
0.0
 79
     0
146
0.0
  0
VIEWPORT
  5
6D
102
{ACAD_XDICTIONARY
360
61E3E
102
}
330
50
100
AcDbEntity
 67
     1
  8
0
100
AcDbViewport
 10
133.3499939441681
 20
101.5999939441681
 30
0.0
 40
213.3599903106689
 41
162.5599903106689
 68
     2
 69
     2
 12
210.0
 22
148.5
 13
0.0
 23
0.0
 14
10.0
 24
10.0
 15
10.0
 25
10.0
 16
0.0
 26
0.0
 36
1.0
 17
0.0
 27
0.0
 37
0.0
 42
50.0
 43
0.0
 44
0.0
 45
324.0677920111345
 50
0.0
 51
0.0
 72
   100
 90
    32864
  1

281
     0
 71
     1
 74
     0
110
0.0
120
0.0
130
0.0
111
1.0
121
0.0
131
0.0
112
0.0
122
1.0
132
0.0
 79
     0
146
0.0
  0
ENDSEC
  0
SECTION
  2
OBJECTS
  0
DICTIONARY
  5
C
330
0
100
AcDbDictionary
281
     1
  3
ACAD_COLOR
350
85
  3
ACAD_GROUP
350
D
  3
ACAD_LAYOUT
350
1A
  3
ACAD_MATERIAL
350
84
  3
ACAD_MLINESTYLE
350
17
  3
ACAD_PLOTSETTINGS
350
19
  3
ACAD_PLOTSTYLENAME
350
E
  3
ACAD_TABLESTYLE
350
A1
  3
ACDBHEADERROUNDTRIPXREC
350
61E37
  3
AcDbVariableDictionary
350
5E
  3
ASE_INDEX_DICTIONARY
350
349E9
  3
DWGPROPS
350
61E36
  0
DICTIONARY
  5
E2
330
2
100
AcDbDictionary
280
     1
281
     1
  3
ACAD_LAYERFILTERS
360
61E25
  3
ACAD_LAYERSTATES
360
3759A
  3
ACLYDICTIONARY
360
61E24
  0
DICTIONARY
  5
31EE
330
1F
100
AcDbDictionary
280
     1
281
     1
  3
ACAD_SORTENTS
360
31EF
  0
DICTIONARY
  5
43668
330
680
100
AcDbDictionary
280
     1
281
     1
  3
ACAD_SORTENTS
360
43669
  0
DICTIONARY
  5
61E40
330
71
100
AcDbDictionary
280
     1
281
     1
  3
ACAD_XREC_ROUNDTRIP
360
61E41
  0
DICTIONARY
  5
61E42
330
73
100
AcDbDictionary
280
     1
281
     1
  3
ACAD_XREC_ROUNDTRIP
360
61E43
  0
DICTIONARY
  5
61E3C
330
6B
100
AcDbDictionary
280
     1
281
     1
  3
ACAD_XREC_ROUNDTRIP
360
61E3D
  0
DICTIONARY
  5
61E3E
330
6D
100
AcDbDictionary
280
     1
281
     1
  3
ACAD_XREC_ROUNDTRIP
360
61E3F
  0
DICTIONARY
  5
85
102
{ACAD_REACTORS
330
C
102
}
330
C
100
AcDbDictionary
281
     1
  0
DICTIONARY
  5
D
102
{ACAD_REACTORS
330
C
102
}
330
C
100
AcDbDictionary
281
     1
  0
DICTIONARY
  5
1A
102
{ACAD_REACTORS
330
C
102
}
330
C
100
AcDbDictionary
281
     1
  3
\M+1838C\M+18343\M+18341\M+18345\M+183671
350
51
  3
\M+1838C\M+18343\M+18341\M+18345\M+183672
350
56
  3
Model
350
22
  0
DICTIONARY
  5
84
102
{ACAD_REACTORS
330
C
102
}
330
C
100
AcDbDictionary
281
     1
  0
DICTIONARY
  5
17
102
{ACAD_REACTORS
330
C
102
}
330
C
100
AcDbDictionary
281
     1
  3
Standard
350
18
  0
DICTIONARY
  5
19
102
{ACAD_REACTORS
330
C
102
}
330
C
100
AcDbDictionary
281
     1
  0
ACDBDICTIONARYWDFLT
  5
E
102
{ACAD_REACTORS
330
C
102
}
330
C
100
AcDbDictionary
281
     1
  3
Normal
350
F
100
AcDbDictionaryWithDefault
340
F
  0
DICTIONARY
  5
A1
102
{ACAD_REACTORS
330
C
102
}
330
C
100
AcDbDictionary
281
     1
  3
Standard
350
A2
  0
DICTIONARY
  5
61E37
102
{ACAD_REACTORS
330
C
102
}
330
C
100
AcDbDictionary
281
     1
  0
DICTIONARY
  5
5E
102
{ACAD_REACTORS
330
C
102
}
330
C
100
AcDbDictionary
281
     1
  3
CTABLESTYLE
350
B8
  3
DIMASSOC
350
5F
  3
HIDETEXT
350
63
  3
PROJECTNAME
350
31CE
  0
DICTIONARY
  5
349E9
102
{ACAD_REACTORS
330
C
102
}
330
C
100
AcDbDictionary
281
     1
  3
ASEBlockHierarchyIndexRecord
350
349EA
1001
DCO15
1040
1842496176.844
  0
XRECORD
  5
61E36
102
{ACAD_REACTORS
330
C
102
}
330
C
100
AcDbXrecord
280
     1
  1
DWGPROPS COOKIE
  2

  3

  4

  6

  7

  8

  9

300
=
301
=
302
=
303
=
304
=
305
=
306
=
307
=
308
=
309
=
 40
2.03898605324074
 41
2455489.391063368
 42
2458416.678185671
  1

 90
        0
  0
DICTIONARY
  5
61E25
102
{ACAD_REACTORS
330
E2
102
}
330
E2
100
AcDbDictionary
281
     1
  0
DICTIONARY
  5
3759A
102
{ACAD_REACTORS
330
E2
102
}
330
E2
100
AcDbDictionary
281
     1
  0
DICTIONARY
  5
61E24
102
{ACAD_REACTORS
330
E2
102
}
330
E2
100
AcDbDictionary
281
     1
1001
ACAD
1000
<All
  0
SORTENTSTABLE
  5
31EF
102
{ACAD_REACTORS
330
31EE
102
}
330
31EE
100
AcDbSortentsTable
330
1F
331
618E3
  5
618E9
331
61905
  5
6190B
331
61874
  5
61874
331
618D2
  5
618D8
331
618F4
  5
618FA
331
618E1
  5
618E7
331
61903
  5
61909
331
61872
  5
61872
331
618F2
  5
618F8
331
61883
  5
61885
331
61861
  5
61861
331
6096A
  5
6096A
331
61901
  5
61907
331
61870
  5
61870
331
618F0
  5
618F6
331
61881
  5
61883
331
618DF
  5
618E5
331
60920
  5
60920
331
61890
  5
61892
331
6186E
  5
6186E
331
618CC
  5
618CE
331
618FF
  5
61905
331
618DD
  5
618E3
331
6186C
  5
6186C
331
618CA
  5
618CC
331
6190E
  5
61914
331
618FD
  5
61903
331
618DB
  5
618E1
331
608D8
  5
608D8
331
6186A
  5
6186A
331
6188C
  5
6188E
331
618C8
  5
618CA
331
618EA
  5
618F0
331
6190C
  5
61912
331
618FB
  5
61901
331
618D9
  5
618DF
331
60984
  5
60984
331
5CD11
  5
5CD11
331
61868
  5
61868
331
6188A
  5
6188C
331
618E8
  5
618EE
331
6190A
  5
61910
331
61879
  5
61879
331
6189B
  5
6189D
331
618F9
  5
618FF
331
618D7
  5
618DD
331
61888
  5
6188A
331
618A2
  5
618A4
331
618C4
  5
618C6
331
618E6
  5
618EC
331
61908
  5
6190E
331
61877
  5
61877
331
618F7
  5
618FD
331
61866
  5
61866
331
618C2
  5
618C4
331
618E4
  5
618EA
331
61906
  5
6190C
331
618F5
  5
618FB
331
61886
  5
61888
331
61864
  5
61864
331
618E2
  5
618E8
331
61904
  5
6190A
331
61895
  5
61897
331
618F3
  5
618F9
331
61884
  5
61886
331
6099E
  5
6099E
331
60938
  5
60938
331
608F0
  5
608F0
331
618E0
  5
618E6
331
61902
  5
61908
331
61871
  5
61871
331
618F1
  5
618F7
331
61882
  5
61884
331
61900
  5
61906
331
6186F
  5
6186F
331
618EF
  5
618F5
331
61880
  5
61880
331
618DE
  5
618E4
331
6188F
  5
61891
331
6186D
  5
6186D
331
618CB
  5
618CD
331
6187E
  5
6187E
331
618FE
  5
61904
331
68C
  5
435D5
331
6186B
  5
6186B
331
6188D
  5
6188F
331
618C9
  5
618CB
331
6190D
  5
61913
331
618FC
  5
61902
331
61869
  5
61869
331
6188B
  5
6188D
331
618C7
  5
618C9
331
618E9
  5
618EF
331
6190B
  5
61911
331
6187A
  5
6187A
331
60950
  5
60950
331
618FA
  5
61900
331
618D8
  5
618DE
331
60908
  5
60908
331
618E7
  5
618ED
331
61909
  5
6190F
331
61878
  5
61878
331
618F8
  5
618FE
331
618B4
  5
618B6
331
61867
  5
61867
331
618A1
  5
618A3
331
618E5
  5
618EB
331
61907
  5
6190D
331
61876
  5
61876
331
618F6
  5
618FC
331
61887
  5
61889
  0
SORTENTSTABLE
  5
43669
102
{ACAD_REACTORS
330
43668
102
}
330
43668
100
AcDbSortentsTable
330
680
  0
XRECORD
  5
61E41
102
{ACAD_REACTORS
330
61E40
102
}
330
61E40
100
AcDbXrecord
280
     1
102
SHADEPLOT
 70
     0
  0
XRECORD
  5
61E43
102
{ACAD_REACTORS
330
61E42
102
}
330
61E42
100
AcDbXrecord
280
     1
102
SHADEPLOT
 70
     0
  0
XRECORD
  5
61E3D
102
{ACAD_REACTORS
330
61E3C
102
}
330
61E3C
100
AcDbXrecord
280
     1
102
SHADEPLOT
 70
     0
  0
XRECORD
  5
61E3F
102
{ACAD_REACTORS
330
61E3E
102
}
330
61E3E
100
AcDbXrecord
280
     1
102
SHADEPLOT
 70
     0
  0
LAYOUT
  5
51
102
{ACAD_XDICTIONARY
360
B2
102
}
102
{ACAD_REACTORS
330
1A
102
}
330
1A
100
AcDbPlotSettings
  1

  2
none_device
  4
Letter_(8.50_x_11.00_Inches)
  6

 40
6.349999904632567
 41
6.349999904632567
 42
6.350006103515625
 43
6.350006103515625
 44
215.8999938964844
 45
279.3999938964844
 46
0.0
 47
0.0
 48
0.0
 49
0.0
140
0.0
141
0.0
142
1.0
143
1.0
 70
   688
 72
     1
 73
     1
 74
     5
  7

 75
    16
147
1.0
148
0.0
149
0.0
100
AcDbLayout
  1
\M+1838C\M+18343\M+18341\M+18345\M+183671
 70
     1
 71
     1
 10
-6.350006103515625
 20
-6.349999904632567
 11
273.0499877929688
 21
209.5499939918518
 12
0.0
 22
0.0
 32
0.0
 14
26.66999878883364
 24
20.31999878883365
 34
0.0
 15
240.0299890995025
 25
182.8799890995025
 35
0.0
146
0.0
 13
0.0
 23
0.0
 33
0.0
 16
1.0
 26
0.0
 36
0.0
 17
0.0
 27
1.0
 37
0.0
 76
     0
330
50
331
6B
  0
LAYOUT
  5
56
102
{ACAD_XDICTIONARY
360
B5
102
}
102
{ACAD_REACTORS
330
1A
102
}
330
1A
100
AcDbPlotSettings
  1

  2
none_device
  4
Letter_(8.50_x_11.00_Inches)
  6

 40
6.349999904632567
 41
6.349999904632567
 42
6.350006103515625
 43
6.350006103515625
 44
215.8999938964844
 45
279.3999938964844
 46
0.0
 47
0.0
 48
0.0
 49
0.0
140
0.0
141
0.0
142
1.0
143
1.0
 70
   688
 72
     1
 73
     1
 74
     5
  7

 75
    16
147
1.0
148
0.0
149
0.0
100
AcDbLayout
  1
\M+1838C\M+18343\M+18341\M+18345\M+183672
 70
     1
 71
     2
 10
-6.350006103515625
 20
-6.349999904632567
 11
273.0499877929688
 21
209.5499939918518
 12
0.0
 22
0.0
 32
0.0
 14
26.66999878883363
 24
20.31999878883363
 34
0.0
 15
240.0299890995026
 25
182.8799890995025
 35
0.0
146
0.0
 13
0.0
 23
0.0
 33
0.0
 16
1.0
 26
0.0
 36
0.0
 17
0.0
 27
1.0
 37
0.0
 76
     0
330
55
331
71
  0
LAYOUT
  5
22
102
{ACAD_XDICTIONARY
360
61E38
102
}
102
{ACAD_REACTORS
330
1A
102
}
330
1A
100
AcDbPlotSettings
  1

  2
none_device
  4
ANSI_A_(8.50_x_11.00_Inches)
  6

 40
6.349999904632567
 41
19.04999923706055
 42
6.350006103515625
 43
19.04998779296875
 44
215.8999938964844
 45
279.3999938964844
 46
0.0
 47
0.0
 48
0.0
 49
0.0
140
0.0
141
0.0
142
1.0
143
78.436453180766
 70
 11952
 72
     0
 73
     1
 74
     0
  7

 75
     0
147
0.0127491741332998
148
0.0
149
0.0
100
AcDbLayout
  1
Model
 70
     1
 71
     0
 10
0.0
 20
0.0
 11
12.0
 21
9.0
 12
0.0
 22
0.0
 32
0.0
 14
0.0
 24
0.0
 34
0.0
 15
0.0
 25
0.0
 35
0.0
146
0.0
 13
0.0
 23
0.0
 33
0.0
 16
1.0
 26
0.0
 36
0.0
 17
0.0
 27
1.0
 37
0.0
 76
     0
330
1F
  0
MLINESTYLE
  5
18
102
{ACAD_REACTORS
330
17
102
}
330
17
100
AcDbMlineStyle
  2
STANDARD
 70
     0
  3

 62
   256
 51
90.0
 52
90.0
 71
     2
 49
0.5
 62
   256
  6
BYLAYER
 49
-0.5
 62
   256
  6
BYLAYER
  0
ACDBPLACEHOLDER
  5
F
102
{ACAD_REACTORS
330
E
102
}
330
E
  0
TABLESTYLE
  5
A2
102
{ACAD_REACTORS
330
A1
102
}
330
A1
100
AcDbTableStyle
  3
Standard
 70
     0
 71
     0
 40
1.5
 41
1.5
280
     0
281
     0
  7
Standard
140
4.5
170
     2
 62
     0
 63
     7
283
     0
274
    -2
284
     1
 64
     0
275
    -2
285
     1
 65
     0
276
    -2
286
     1
 66
     0
277
    -2
287
     1
 67
     0
278
    -2
288
     1
 68
     0
279
    -2
289
     1
 69
     0
  7
Standard
140
6.0
170
     5
 62
     0
 63
     7
283
     0
274
    -2
284
     1
 64
     0
275
    -2
285
     1
 65
     0
276
    -2
286
     1
 66
     0
277
    -2
287
     1
 67
     0
278
    -2
288
     1
 68
     0
279
    -2
289
     1
 69
     0
  7
Standard
140
4.5
170
     5
 62
     0
 63
     7
283
     0
274
    -2
284
     1
 64
     0
275
    -2
285
     1
 65
     0
276
    -2
286
     1
 66
     0
277
    -2
287
     1
 67
     0
278
    -2
288
     1
 68
     0
279
    -2
289
     1
 69
     0
  0
DICTIONARYVAR
  5
B8
102
{ACAD_REACTORS
330
5E
102
}
330
5E
100
DictionaryVariables
280
     0
  1
STANDARD
  0
DICTIONARYVAR
  5
5F
102
{ACAD_REACTORS
330
5E
102
}
330
5E
100
DictionaryVariables
280
     0
  1
2
  0
DICTIONARYVAR
  5
63
102
{ACAD_REACTORS
330
5E
102
}
330
5E
100
DictionaryVariables
280
     0
  1
1
  0
DICTIONARYVAR
  5
31CE
102
{ACAD_REACTORS
330
5E
102
}
330
5E
100
DictionaryVariables
280
     0
  1

  0
XRECORD
  5
349EA
102
{ACAD_REACTORS
330
349E9
102
}
330
349E9
100
AcDbXrecord
280
     1
330
68C
330
431D
330
431E
330
4329
330
4334
330
4335
330
4B09
330
4B0A
330
5153
330
5154
330
515D
330
515E
330
516A
330
516B
330
5177
330
5178
330
85B4
330
85B5
330
8620
330
8621
330
862A
330
862B
330
8637
330
8638
330
8644
330
8645
330
9773
330
9774
330
977D
330
977E
330
978A
330
978B
330
9797
330
9798
330
BD86
330
BD87
330
BD8F
330
BD90
330
BD98
330
BDA0
330
BDA1
330
BDDD
330
BDDE
330
BDE7
330
BDE8
330
BDF4
330
BDF5
330
BE01
330
BE02
330
E473
330
E474
330
E48D
330
E48E
330
E485
330
E47C
330
E47D
330
E4CC
330
E4CD
330
E4D7
330
E4D8
330
1C63B
330
1C63C
330
1C705
330
1C706
330
1C719
330
1C71A
330
1C72E
330
1C72F
330
1C738
330
1C739
330
27043
330
27044
330
2703A
330
2703B
330
2CF2C
330
2CF2D
330
2CF38
330
2CF39
330
2CF42
330
2CF43
330
2CF4F
330
2CF50
330
2CF59
330
2CF5A
330
2FA31
330
2FA32
330
2FA3D
330
2FA3E
330
2FA4A
330
2FA4B
330
2FA54
330
2FA55
330
329D8
330
329D9
330
329E1
330
329E2
330
329EA
330
329EB
330
329F3
330
329F4
330
32E63
330
32E64
330
32E6F
330
32E70
330
32E79
330
32E7A
330
32E88
330
32E89
330
32E92
330
32E93
  0
DICTIONARY
  5
B2
330
51
100
AcDbDictionary
280
     1
281
     1
  3
ACAD_XREC_ROUNDTRIP
360
61E3A
  3
ADSK_XREC_LAYOUTTHUMBNAIL
360
B3
  0
DICTIONARY
  5
B5
330
56
100
AcDbDictionary
280
     1
281
     1
  3
ACAD_XREC_ROUNDTRIP
360
61E3B
  3
ADSK_XREC_LAYOUTTHUMBNAIL
360
B6
  0
DICTIONARY
  5
61E38
330
22
100
AcDbDictionary
280
     1
281
     1
  3
ACAD_XREC_ROUNDTRIP
360
61E39
  0
XRECORD
  5
61E3A
102
{ACAD_REACTORS
330
B2
102
}
330
B2
100
AcDbXrecord
280
     1
102
SHADEPLOT
 70
     0
102
SHADEPLOTRESLEVEL
 70
     2
102
SHADEPLOTCUSTOMDPI
 70
   300
  0
XRECORD
  5
B3
102
{ACAD_REACTORS
330
B2
102
}
330
B2
100
AcDbXrecord
280
     1
310
28000000B40000008B0000000100080000000000BC61000000000000000000000001000000000000FFFFFF0000000000FFFFFF000000000000000000000000000000000000000000000000000000000000000000330000006600000099000000CC000000FF00000000330000333300006633000099330000CC330000FF3300
310
0000660000336600006666000099660000CC660000FF66000000990000339900006699000099990000CC990000FF99000000CC000033CC000066CC000099CC0000CCCC0000FFCC000000FF000033FF000066FF000099FF0000CCFF0000FFFF000000003300330033006600330099003300CC003300FF003300003333003333
310
33006633330099333300CC333300FF33330000663300336633006666330099663300CC663300FF66330000993300339933006699330099993300CC993300FF99330000CC330033CC330066CC330099CC3300CCCC3300FFCC330000FF330033FF330066FF330099FF3300CCFF3300FFFF330000006600330066006600660099
310
006600CC006600FF00660000336600333366006633660099336600CC336600FF33660000666600336666006666660099666600CC666600FF66660000996600339966006699660099996600CC996600FF99660000CC660033CC660066CC660099CC6600CCCC6600FFCC660000FF660033FF660066FF660099FF6600CCFF6600
310
FFFF660000009900330099006600990099009900CC009900FF00990000339900333399006633990099339900CC339900FF33990000669900336699006666990099669900CC669900FF66990000999900339999006699990099999900CC999900FF99990000CC990033CC990066CC990099CC9900CCCC9900FFCC990000FF99
310
0033FF990066FF990099FF9900CCFF9900FFFF99000000CC003300CC006600CC009900CC00CC00CC00FF00CC000033CC003333CC006633CC009933CC00CC33CC00FF33CC000066CC003366CC006666CC009966CC00CC66CC00FF66CC000099CC003399CC006699CC009999CC00CC99CC00FF99CC0000CCCC0033CCCC0066CC
310
CC0099CCCC00CCCCCC00FFCCCC0000FFCC0033FFCC0066FFCC0099FFCC00CCFFCC00FFFFCC000000FF003300FF006600FF009900FF00CC00FF00FF00FF000033FF003333FF006633FF009933FF00CC33FF00FF33FF000066FF003366FF006666FF009966FF00CC66FF00FF66FF000099FF003399FF006699FF009999FF00CC
310
99FF00FF99FF0000CCFF0033CCFF0066CCFF0099CCFF00CCCCFF00FFCCFF0000FFFF0033FFFF0066FFFF0099FFFF00CCFFFF00FFFFFF00000000000D0D0D001A1A1A00282828003535350043434300505050005D5D5D006B6B6B00787878008686860093939300A1A1A100AEAEAE00BBBBBB00C9C9C900D6D6D600E4E4E400
310
F1F1F100FFFFFF0000000000000000000000000000000000000000000000000000000000000000000000000000000000EFEFEFE2E2E2E2E2E2E2E2E2E2E2E2E2E2E2E2E2E2E2E2E2E2E2E2E2E2E2E2E2E2E2E2E2E2E2E2E2E2E2E2E2E2E2E2E2E2E2E2E2E2E2E2E2E2E2E2E2E2E2E2E2E2E2E2E2E2E2E2E2E2E2E2E2E2E2E2
310
E2E2E2E2E2E2E2E2E2E2E2E2E2E2E2E2E2E2E2E2E2E2E2E2E2E2E2E2E2E2E2E2E2E2E2E2E2E2E2E2E2E2E2E2E2E2E2E2E2E2E2E2E2E2E2E2E2E2E2E2E2E2E2E2E2E2E2E2E2E2E2E2E2E2E2E2E2E2E2E2E2E2E2E2E2E2E2E2E2E2E2E2E2E2E2E2E2E2E2E2E2E2E2E2E2E2E2E2E2E2E2E2E2E2E2E2E2E2E2E2E2E2E2E2E2E2E2
310
E2E2E2E2E2E2E2E2E2E2E2E2E2E2E2E2E2E2E2E2E2E2E2E2E2E2E2E2E2E2E2E2E2E2E2E2E2E2E2E2E2E2E2E2E2E2E2E2E2E2E2E2E2E2E2E2E2E2E2E2E2E2E2E2E2E2E2E2E2E2E2E2E2E2E2E2E2E2E2E2E2E2E2E2E2E2E2E2E2E2E2E2E2E2E2E2E2E2E2E2E2E2E2E2E2E2E2E2E2E2E2E2E2E2E2E2E2E2E2E2E2E2E2E2E2E2E2
310
E2E2E2E2E2E2E2E2E2E2E2E2E2E2E2E2E2E2E2E2E2E2E2E2E2E2E2E2F5F5F5F5F5F5F5F5F5F5F5F5F5F5F5F5F5F5F5F5F5F5F5F5F5F5F5F5F5F5F5F5F5F5F5F5F5F5F5F5F5F5F5F5F5F5F5F5F5F5F5F5F5F5F5F5F5F5F5F5F5F5F5F5F5F5F5F5F5F5F5F5F5F5F5F5F5F5F5F5F5F5F5F5F5F5F5F5F5F5F5F5F5F5F5F5F5F5F5
310
F5F5F5F5F5F5F5F5F5F5F5F5F5F5F5F5F5F5F5F5F5F5F5F5F5F5F5F5F5F5F5F5F5F5F5F5F5F5F5F5F5F5F5F5F5F5F5F5F5F5F5F5F5F5F5F5F5F5F5F5F5F5F5F5F5F5F5F5F5F5F5F5F5F5F5F5F5F5F5E2E2F5F5F5F5F5F5F5F5F5F5F5F5F5F5F5F5F5F5F5F5F5F5F5F5F5F5F5F5F5F5F5F5F5F5F5F5F5F5F5F5F5F5F5F5F5F5
310
F5F5F5F5F5F5F5F5F5F5F5F5F5F5F5F5F5F5F5F5F5F5F5F5F5F5F5F5F5F5F5F5F5F5F5F5F5F5F5F5F5F5F5F5F5F5F5F5F5F5F5F5F5F5F5F5F5F5F5F5F5F5F5F5F5F5F5F5F5F5F5F5F5F5F5F5F5F5F5F5F5F5F5F5F5F5F5F5F5F5F5F5F5F5F5F5F5F5F5F5F5F5F5F5F5F5F5F5F5F5F5F5F5F5F5F5F5F5F5F5F5F5F5F5F5F5F5
310
F5F5F5F5F5E2E2F5F5F5F5F5F5F5F5F5F5F5F5F5F5F5F5F5F5F5F5F5F5F5F5F5F5F5F5F5F5F5F5F5F5F5F5F5F5F5F5F5F5F5F5F5F5F5F5F5F5F5F5F5F5F5F5F5F5F5F5F5F5F5F5F5F5F5F5F5F5F5F5F5F5F5F5F5F5F5F5F5F5F5F5F5F5F5F5F5F5F5F5F5F5F5F5F5F5F5F5F5F5F5F5F5F5F5F5F5F5F5F5F5F5F5F5F5F5F5F5
310
F5F5F5F5F5F5F5F5F5F5F5F5F5F5F5F5F5F5F5F5F5F5F5F5F5F5F5F5F5F5F5F5F5F5F5F5F5F5F5F5F5F5F5F5F5F5F5F5F5F5F5F5F5F5F5F5F5F5E2E2F5F5F5F5E2E2E2E2E2E2E2E2F5F5F5F5F5F5F5F5F5E2E2E2E2E2E2E2E2E2E2E2E2E2E2E2F5F5F5F5F5F5F5F5F5E2E2E2E2E2E2E2E2E2E2E2E2E2E2E2E2F5F5F5F5F5F5
310
F5F5E2E2E2E2E2E2E2E2E2E2E2E2E2E2E2E2F5F5F5F5F5F5F5F5E2E2E2E2E2E2E2E2E2E2E2E2E2E2E2E2F5F5F5F5F5F5F5F5E2E2E2E2E2E2E2E2E2E2E2E2E2E2E2E2F5F5F5F5F5F5F5F5F5E2E2E2E2E2E2E2E2E2E2E2E2E2E2E2F5F5F5F5F5F5F5F5F5E2E2E2E2E2E2E2E2F5F5F5F5E2E2F5F5F5F5E2F5F5F5F5F5F5F5F5F5
310
F5F5F5F5F5F5F5F5F5F5F5F5F5F5F5F5F5F5F5F5F5F5F5F5F5F5F5F5F5F5F5F5F5F5F5F5F5F5F5F5F5F5F5F5F5F5F5F5F5F5F5F5F5F5F5F5F5F5F5F5F5F5F5F5F5F5F5F5F5F5F5F5F5F5F5F5F5F5F5F5F5F5F5F5F5F5F5F5F5F5F5F5F5F5F5F5F5F5F5F5F5F5F5F5F5F5F5F5F5F5F5F5F5F5F5F5F5F5F5F5F5F5F5F5F5F5F5
310
F5F5F5F5F5F5F5F5F5F5F5F5F5F5F5F5F5F5F5F5F5F5F5F5F5F5F5F5F5F5F5F5E2F5F5F5F5E2E2F5F5F5F5E2F5F5F5F5F5F5F5F5F5F5F5F5F5F5F5F5F5F5F5F5F5F5F5F5F5F5F5F5F5F5F5F5F5F5F5F5F5F5F5F5F5F5F5F5F5F5F5F5F5F5F5F5F5F5F5F5F5F5F5F5F5F5F5F5F5F5F5F5F5F5F5F5F5F5F5F5F5F5F5F5F5F5F5
310
F5F5F5F5F5F5F5F5F5F5F5F5F5F5F5F5F5F5F5F5F5F5F5F5F5F5F5F5F5F5F5F5F5F5F5F5F5F5F5F5F5F5F5F5F5F5F5F5F5F5F5F5F5F5F5F5F5F5F5F5F5F5F5F5F5F5F5F5F5F5F5F5F5F5F5F5F5F5F5F5F5F5F5F5F5E2F5F5F5F5E2E2F5F5F5F5E2F5F5F5F5F5F5F5F5F5F5F5F5F5F5F5F5F5F5F5F5F5F5F5F5F5F5F5F5F5F5
310
F5F5F5F5F5F5F5F5F5F5F5F5F5F5F5F5F5F5F5F5F5F5F5F5F5F5F5F5F5F5F5F5F5F5F5F5F5F5F5F5F5F5F5F5F5F5F5F5F5F5F5F5F5F5F5F5F5F5F5F5F5F5F5F5F5F5F5F5F5F5F5F5F5F5F5F5F5F5F5F5F5F5F5F5F5F5F5F5F5F5F5F5F5F5F5F5F5F5F5F5F5F5F5F5F5F5F5F5F5F5F5F5F5F5F5F5F5F5F5F5F5F5F5F5F5F5F5
310
F5F5F5F5F5F5F5F5F5F5F5E2F5F5F5F5E2E2F5F5F5F5E2F5F5F5F5F5F5F5F5F5F5F5F5F5F5F5F5F5F5F5F5F5F5F5F5F5F5F5F5F5F5F5F5F5F5F5F5F5F5F5F5F5F5F5F5F5F5F5F5F5F5F5F5F5F5F5F5F5F5F5F5F5F5F5F5F5F5F5F5F5F5F5F5F5F5F5F5F5F5F5F5F5F5F5F5F5F5F5F5F5F5F5F5F5F5F5F5F5F5F5F5F5F5F5F5
310
F5F5F5F5F5F5F5F5F5F5F5F5F5F5F5F5F5F5F5F5F5F5F5F5F5F5F5F5F5F5F5F5F5F5F5F5F5F5F5F5F5F5F5F5F5F5F5F5F5F5F5F5F5F5F5F5F5F5F5F5F5F5F5F5E2F5F5F5F5E2E2F5F5F5F5E2F5F5F5F5F5F5F5F5F5F5F5F5F5F5F5F5F5F5F5F5F5F5F5F5F5F5F5F5F5F5F5F5F5F5F5F5F5F5F5F5F5F5F5F5F5F5F5F5F5F5F5
310
F5F5F5F5F5F5F5F5F5F5F5F5F5F5F5F5F5F5F5F5F5F5F5F5F5F5F5F5F5F5F5F5F5F5F5F5F5F5F5F5F5F5F5F5F5F5F5F5F5F5F5F5F5F5F5F5F5F5F5F5F5F5F5F5F5F5F5F5F5F5F5F5F5F5F5F5F5F5F5F5F5F5F5F5F5F5F5F5F5F5F5F5F5F5F5F5F5F5F5F5F5F5F5F5F5F5F5F5F5F5F5F5F5F5F5F5F5E2F5F5F5F5E2E2F5F5F5
310
F5E2F5F5F5F5F5F5F5F5F5F5F5F5F5F5F5F5F5F5F5F5F5F5F5F5F5F5F5F5F5F5F5F5F5F5F5F5F5F5F5F5F5F5F5F5F5F5F5F5F5F5F5F5F5F5F5F5F5F5F5F5F5F5F5F5F5F5F5F5F5F5F5F5F5F5F5F5F5F5F5F5F5F5F5F5F5F5F5F5F5F5F5F5F5F5F5F5F5F5F5F5F5F5F5F5F5F5F5F5F5F5F5F5F5F5F5F5F5F5F5F5F5F5F5F5F5
310
F5F5F5F5F5F5F5F5F5F5F5F5F5F5F5F5F5F5F5F5F5F5F5F5F5F5F5F5F5F5F5F5F5F5F5F5F5F5F5F5F5F5F5E2F5F5F5F5E2E2F5F5F5F5E2F5F5F5F5F5F5F5F5F5F5F5F5F5F5F5F5F5F5F5F5F5F5F5F5F5F5F5F5F5F5F5F5F5F5F5F5F5F5F5F5F5F5F5F5F5F5F5F5F5F5F5F5F5F5F5F5F5F5F5F5F5F5F5F5F5F5F5F5F5F5F5F5
310
F5F5F5F5F5F5F5F5F5F5F5F5F5F5F5F5F5F5F5F5F5F5F5F5F5F5F5F5F5F5F5F5F5F5F5F5F5F5F5F5F5F5F5F5F5F5F5F5F5F5F5F5F5F5F5F5F5F5F5F5F5F5F5F5F5F5F5F5F5F5F5F5F5F5F5F5F5F5F5F5F5F5F5F5F5F5F5F5F5F5F5F5F5F5F5F5E2F5F5F5F5E2E2F5F5F5F5E2F5F5F5F5F5F5F5F5F5F5F5F5F5F5F5F5F5F5F5
310
F5F5F5F5F5F5F5F5F5F5F5F5F5F5F5F5F5F5F5F5F5F5F5F5F5F5F5F5F5F5F5F5F5F5F5F5F5F5F5F5F5F5F5F5F5F5F5F5F5F5F5F5F5F5F5F5F5F5F5F5F5F5F5F5F5F5F5F5F5F5F5F5F5F5F5F5F5F5F5F5F5F5F5F5F5F5F5F5F5F5F5F5F5F5F5F5F5F5F5F5F5F5F5F5F5F5F5F5F5F5F5F5F5F5F5F5F5F5F5F5F5F5F5F5F5F5F5
310
F5F5F5F5F5F5F5F5F5F5F5F5F5F5F5F5F5F5F5F5F5F5E2F5F5F5F5E2E2F5F5F5F5F5F5F5F5F5F5F5F5F5F5F5F5F5F5F5F5F5F5F5F5F5F5F5F5F5F5F5F5F5F5F5F5F5F5F5F5F5F5F5F5F5F5F5F5F5F5F5F5F5F5F5F5F5F5F5F5F5F5F5F5F5F5F5F5F5F5F5F5F5F5F5F5F5F5F5F5F5F5F5F5F5F5F5F5F5F5F5F5F5F5F5F5F5F5
310
F5F5F5F5F5F5F5F5F5F5F5F5F5F5F5F5F5F5F5F5F5F5F5F5F5F5F5F5F5F5F5F5F5F5F5F5F5F5F5F5F5F5F5F5F5F5F5F5F5F5F5F5F5F5F5F5F5F5F5F5F5F5F5F5F5F5F5F5F5F5F5F5F5F5F5F5F5F5F5F5E2E2F5F5F5F5F5F5F5F5F5F5F5F5F5F5F5F5F5F5F5F5F5F5F5F5F5F5F5F5F5F5F5F5F5F5F5F5F5F5F5F5F5F5F5F5F5
310
F5F5F5F5F5F5F5F5F5F5F5F5F5F5F5F5F5F5F5F5F5F5F5F5F5F5F5F5F5F5F5F5F5F5F5F5F5F5F5F5F5F5F5F5F5F5F5F5F5F5F5F5F5F5F5F5F5F5F5F5F5F5F5F5F5F5F5F5F5F5F5F5F5F5F5F5F5F5F5F5F5F5F5F5F5F5F5F5F5F5F5F5F5F5F5F5F5F5F5F5F5F5F5F5F5F5F5F5F5F5F5F5F5F5F5F5F5F5F5F5F5F5F5F5F5F5F5
310
F5F5F5F5F5F5E2E2F5F5F5F5F5F5F5F5F5F5F5F5F5F5F5F5F5F5F5F5F5F5F5F5F5F5F5F5F5F5F5F5F5F5F5F5F5F5F5F5F5F5F5F5F5F5F5F5F5F5F5F5F5F5F5F5F5F5F5F5F5F5F5F5F5F5F5F5F5F5F5F5F5F5F5F5F5F5F5F5F5F5F5F5F5F5F5F5F5F5F5F5F5F5F5F5F5F5F5F5F5F5F5F5F5F5F5F5F5F5F5F5F5F5F5F5F5F5F5
310
F5F5F5F5F5F5F5F5F5F5F5F5F5F5F5F5F5F5F5F5F5F5F5F5F5F5F5F5F5F5F5F5F5F5F5F5F5F5F5F5F5F5F5F5F5F5F5F5F5F5F5F5F5F5F5F5F5F5F5E2E2F5F5F5F5F5F5F5F5F5F5F5F5F5F5F5F5F5F5F5F5F5F5F5F5F5F5F5F5F5F5F5F5F5F5F5F5F5F5F5F5F5F5F5F5F5F5F5F5F5F5F5F5F5F5F5F5F5F5F5F5F5F5F5F5F5F5
310
F5F5F5F5F5F5F5F5F5F5F5F5F5F5F5F5F5F5F5F5F5F5F5F5F5F5F5F5F5F5F5F5F5F5F5F5F5F5F5F5F5F5F5F5F5F5F5F5F5F5F5F5F5F5F5F5F5F5F5F5F5F5F5F5F5F5F5F5F5F5F5F5F5F5F5F5F5F5F5F5F5F5F5F5F5F5F5F5F5F5F5F5F5F5F5F5F5F5F5F5F5F5F5F5F5F5F5F5F5F5F5F5E2E2F5F5F5F5F5F5F5F5F5F5F5F5F5
310
F5F5F5F5F5F5F5F5E2E2E2E2E2E2E2E2E2E2E2E2E2E2E2E2E2E2E2E2E2E2E2E2E2E2E2E2E2E2E2E2E2E2E2E2E2E2E2E2E2E2E2E2E2E2E2E2E2E2E2E2E2E2E2E2E2E2E2E2E2E2E2E2E2E2E2E2E2E2E2E2E2E2E2E2E2E2E2E2E2E2E2E2E2E2E2E2E2E2E2E2E2E2E2E2E2E2E2E2E2E2E2E2E2E2E2E2E2E2E2E2E2E2E2E2E2E2E2
310
E2E2E2E2E2E2E2E2E2E2E2E2E2E2E2E2E2F5F5F5F5F5F5F5F5F5F5F5F5F5F5F5F5F5F5F5F5F5E2E2F5F5F5F5F5F5F5F5F5F5F5F5F5F5F5F5F5F5F5F5F5E22D2D2D2DF5F5F5F5E2F5F5F5F5F5F5F52DF5F5F5F5F5F5F5F5F5F5F5F5F5F5F5F5F5F5E2F5F5F5F5F5F5F5F5F5F5F5F5F5F5F5F5F5F5F5F5F5F5F5F5F5F5F5F5F5
310
F5F5F5F5F5F5F5F5F5F5F5F5F5F5F5F5F5F5F5F5F5F5F5F5F5F5F5F5F5F5F5F5F5F5F5F5F5F5F5F5F5F5F5F5F5F5F5F5F5F5F5F5F5F5F5F5F5F5F5F5F5F5F5F5F5F5F5F5F5E2F5F5F5F5F5F5F5F5F5F5F5F5F5F5F5F5F5F5F5F5F5E2E2F5F5F5F5F5F5F5F5F5F5F5F5F5F5F5F5F5F5F5F5F5E2DCF5F52DF5F5F5F5E2F5F5F5
310
F5F5F5F52DF5F5F5F5F5F5F5F5F5F5F5F5F5F5F5F5F5F5E2F5F5F5F5F5F5F5F5F5F5F5F5F5F5F5F5F5F5F5F5F5F5F5F5F5F5F5F5F5F5F5F5F5F5F5F5F5F5F5F5F5F5F5F5F5F5F5F5F5F5F5F5F5F5F5F5F5F5F5F5F5F5F5F5F5F5F5F5F5F5F5F5F5F5F5F5F5F5F5F5F5F5F5F5F5F5F5F5F5F5F5F5F5F5F5F5F5F5E2F5F5F5F5
310
F5F5F5F5F5F5F5F5F5F5F5F5F5F5F5F5F5E2E2F5F5F5F5F5F5F5F5F5F5F5F5F5F5F5F5F5F5F5F5F5E2DCF5F52DF5F5F5F5E2F5F5F5F5F5F5F52DF5F5F5F5F5F5F5F5F5F5F5F5F5F5F5F5F5F5E2E2F5F5F5F5F5F5F5F5F5F5F5F5F5F5F5F5F5F5F5F5F5F5F5F5F5F5F5F5F5F5F5F5F5F5F5F5F5F5F5F5F5F5F5F5F5F5F5F5F5
310
F5F5F5F5F5F5F5F5F5F5F5F5F5F5F5F5F5F5F5F5F5F5F5F5F5F5F5F5F5F5F5F5F5F5F5F5F5F5F5F5F5F5F5F5F5F5F5F5E2F5F5F5F5F5F5F5F5F5F5F5F5F5F5F5F5F5F5F5F5F5E2E2F5F5F5F5F5F5F5F5F5F5F5F5F5F5F5F5F5F5F5F5F5E2BEF5F52D2D2D2D2D2D2D2D2D2D2D2D2D2DE2E2E2E2E2E2E2E2E2E2E2E2E2E2E2E2
310
E2E2E2E2F5F5F5F5F5F5F5F5F5F5F5F5F5F5F5F5F5F5F5F5F5F5F5F5F5F5F5F5F5F5F5F5F5F5F5F5F5F5F5F5F5F5F5F5F5F5F5F5F5F5F5F5F5F5F5F5F5F5F5F5F5F5F5F5F5F5F5F5F5F5F5F5F5F5F5F5F5F5F5F5F5F5F5F5F5F5F5F5F5F5F5F5F5F5F5F5F5E2F5F5F5F5F5F5F5F5F5F5F5F5F5F5F5F5F5F5F5F5F5E2E2F5F5
310
F5F5E2F5F5F5F5F5F5F5F5F5F5F5F5F5F5F5F5E2DCF5F5F5F5F5F5F5E2F5F5F5F5F5F5F5E2F5F5F5F5F5F5F5F5F5F5F5F5F5F5F5F5F5F5F5F5F5F5F5F5F5F5F5F5F5F5F5F5F5F5F5F5F5F5F5F5F5F5F5F5F5F5F5F5F5F5F5F5F5F5F5F5F5F5F5F5F5F5F5F5F5F5F5F5F5F5F5F5F5F5F5F5F5F5F5F5F5F5F5F5F5F5F5F5F5F5
310
F5F5F5F5F5F5F5F5F5F5F5F5F5F5F5F5F5F5F5F5F5F5F5F5F5F5F5E2F5F5F5F5F5F5F5F5F5F5F5F5F5F5F5F5E2F5F5F5F5E2E2F5F5F5F5E2F5F5F5F5F5F5F5F5F5F5F5F5F5F5F5F5E2F5F5F5F5F5F5F5F5E2F5F5F5F5F5F5F5E2F5F5F5F5F5F5F5F5F5F5F5F5F5F5F5F5F5F5F5F5F5F5F5F5F5F5F5F5F5F5F5F5F5F5F5F5F5
310
F5F5F5F5F5F5F5F5F5F5F5F5F5F5F5F5F5F5F5F5F5F5F5F5F5F5F5F5F5F5F5F5F5F5F5F5F5F5F5F5F5F5F5F5F5F5F5F5F5F5F5F5F5F5F5F5F5F5F5F5F5F5F5F5F5F5F5F5F5F5F5F5F5F5F5F5F5F5F5F5E2F5F5F5F5F5F5F5F5F5F5F5F5F5F5F5F5E2F5F5F5F5E2E2F5F5F5F5E2F5F5F5F5F5F5F5F5F5F5F5F5F5F5F5F5E2E2
310
E2E2E2E2E2E2E2E2F5F5F5F5F5F5F5E2F5F5F5F5F5F5F5F5F5F5F5F5F5F5F5F5F5F5F5F5F5F5F5F5F5F5F5F5F5F5F5F5F5F5F5F5F5F5F5F5F5F5F5F5F5F5F5F5F5F5F5F5F5F5F5F5F5F5F5F5F5F5F5F5F5F5F5F5F5F5F5F5F5F5F5F5F5F5F5F5F5F5F5F5F5F5F5F5F5F5F5F5F5F5F5F5F5F5F5F5F5F5F5F5F5F5F5F5F5F5F5
310
F5F5F5F5F5F5E2F5F5F5F5F5F5F5F5F5F5F5F5F5F5F5F5E2F5F5F5F5E2E2F5F5F5F5E2F5F5F5F5F5F5F5F5F5F5F5F5F5F5F5F5E2E2E2E2F5F5F5F5F5F5F5F5F5F5F5F5F5E2F5F5F5F5F5F5F5F5F5F5F5F5F5F5F5F5F5F5F5F5F5F5F5F5F5F5F5F5F5F5F5F5F5F5F5F5F5F5F5F5F5F5F5F5F5F5F5F5F5F5F5F5F5F5F5F5F5F5
310
F5F5F5F5F5F5F5F5F5F5F5F5F5F5F5F5F5F5F5F5F5F5F5F5F5F5F5F5F5F5F5F5F5F5F5F5F5F5F5F5F5F5F5F5F5F5F5F5F5F5F5F5F5F5F5F5F5F5F5E2F5F5F5F5F5F5F5F5F5F5F5F5F5F5F5F5E2F5F5F5F5E2E2F5F5F5F5E2F5F5F5F5F5F5F5F5F5F5F5F5F5F5F5F5E2E2E2E2F5F5F5F5F5F5F5F5F5F5F5F5F5E2F5F5F5F5F5
310
F5F5F5F5F5F5F5F5F5F5F5F5F5F5F5F5F5F5F5F5F5F5F5F5F5F5F5F5F5F5F5F5F5F5F5F5F5F5F5F5F5F5F5F5F5F5F5F5F5F5F5F5F5F5F5F5F5F5F5F5F5F5F5F5F5F5F5F5F5F5F5F5F5F5F5F5F5F5F5F5F5F5F5F5F5F5F5F5F5F5F5F5F5F5F5F5F5F5F5F5F5F5F5F5F5F5F5F5F5F5F5F5E2F5F5F5F5F5F5F5F5F5F5F5F5F5F5
310
F5F5E2F5F5F5F5E2E2F5F5F5F5E2F5F5F5F5F5F5F5F5F5F5F5F5F5F5F5F5E2F5F5F5F5F5F5F5F5F5F5F5F5F5F5F5F5E2F5F5F5F5F5F5F5F5F5F5F5F5F5F5F5F5F5F5F5F5F5F5F5F5F5F5F5F5F5F5F5F5F5F5F5F5F5F5F5F5F5F5F5F5F5F5F5F5F5F5F5F5F5F5F5F5F5F5F5F5F5F5F5F5F5F5F5F5F5F5F5F5F5F5F5F5F5F5F5
310
F5F5F5F5F5F5F5F5F5F5F5F5F5F5F5F5F5F5F5F5F5F5F5F5F5F5F5F5F5F5F5F5F5F5F5F5F5F5E2F5F5F5F5F5F5F5F5F5F5F5F5F5F5F5F5E2F5F5F5F5E2E2F5F5F5F5E2F5F5F5F5F5F5F5F5F5F5F5F5F5F5F5F5E2E2E2E2E2E2E2E2E2E2E2E2E2E2E2E2E2E2F5F5F5F5F5F5F5F5F5F5F5F5F5F5F5F5F5F5F5F5F5F5F5F5F5F5
310
F5F5F5F5F5F5F5F5F5F5F5F5F5F5F5F5F5F5F5F5F5F5F5F5F5F5F5F5F5F5F5F5F5F5F5F5F5F5F5F5F5F5F5F5F5F5F5F5F5F5F5F5F5F5F5F5F5F5F5F5F5F5F5F5F5F5F5F5F5F5F5F5F5F5F5F5F5F5F5F5F5F5F5F5F5F5F5F5F5F5F5E2F5F5F5F5F5F5F5F5F5F5F5F5F5F5F5F5E2F5F5F5F5E2E2F5F5F5F5E2F5F5F5F5F5F5F5
310
F5F5F5F5F5F5F5F5F5E2E2E2F5F5F5F5F5F5F5F5F5F5F5F5F5F5F5F5F5F5F5F5F5F5F5F5F5F5F5F5F5F5F5F5F5F5F5F5F5F5F5F5F5F5F5F5F5F5F5F5F5F5F5F5F5F5F5F5F5F5F5F5F5F5F5F5F5F5F5F5F5F5F5F5F5F5F5F5F5F5F5F5F5F5F5F5F5F5F5F5F5F5F5F5F5F5F5F5F5F5F5F5F5F5F5F5F5F5F5F5F5F5F5F5F5F5F5
310
F5F5F5F5F5F5F5F5F5F5F5F5F5F5F5F5F5E2F5F5F5F5F5F5F5F5F5F5F5F5F5F5F5F5E2F5F5F5F5E2E2F5F5F5F5E2F5F5F5F5F5F5F5F5F5F5F5F5F5F5F5F5E2E2E2F5F5F5F5F5F5F5F5F5F5F5F5F5F5F5F5F5F5F5F5F5F5F5F5F5F5F5F5F5F5F5F5F5F5F5F5F5F5F5F5F5F5F5F5F5F5F5F5F5F5F5F5F5F5F5F5F5F5F5F5F5F5
310
F5F5F5F5F5F5F5F5F5F5F5F5F5F5F5F5F5F5F5F5F5F5F5F5F5F5F5F5F5F5F5F5F5F5F5F5F5F5F5F5F5F5F5F5F5F5F5F5F5F5F5F5F5F5F5F5F5F5F5F5F5F5F5F5F5F5F5F5F5F5E2F5F5F5F5F5F5F5F5F5F5F5F5F5F5F5F5E2F5F5F5F5E2E2F5F5F5F5E2F5F5F5F5F5F5F5F5F5F5F5F5F5F5F5F5E2F5F5F5F5F5F5F5F5F5F5F5
310
F5F5F5F5F5F5F5F5F5F5F5F5F5F5F5F5F5F5F5F5F5F5F5F5F5F5F5F5F5F5F5F5F5F5F5F5F5F5F5F5F5F5F5F5F5F5F5F5F5F5F5F5F5F5F5F5F5F5F5F5F5F5F5F5F5F5F5F5F5F5F5F5F5F5F5F5F5F5F5F5F5F5F5F5F5F5F5F5F5F5F5F5F5F5F5F5F5F5F5F5F5F5F5F5F5F5F5F5F5F5F5F5F5F5F5F5F5F5F5F5F5F5F5E2F5F5F5
310
F5F5F5F5F5F5F5F5F5F5F5F5F5E2F5F5F5F5E2E2F5F5F5F5E2F5F5F5F5F5F5F5F5F5F5F5F5F5F5F5F5E20F0F0F0F0F0F0F0F0F0F0FF5F5F5F5F5F5F5F5F5F5F5F5F5F5F5F5F5F5F5F5F5F5F5F5F5F5F5F5F5F5F5F5F5F5F5F5F5F5F5F5F5F5F5F5F5F5F5F5F5F5F5F5F5F5F5F5F5F5F5F5F5F5F5F5F5F5F5F5F5F5F5F5F5F5
310
F5F5F5F5F5F5F5F5F5F5F5F5F5F5F5F5F5F5F5F5F5F5F5F5F5F5F5F5F5F5F5F5F5F5F5F5F5F5F5F5F5F5F5F5F5F5F5F5F5E2F5F5F5F5F5F5F5F5F5F5F5F5F5F5F5F5E2F5F5F5F5E2E2F5F5F5F5E2F5F5F5F5F5F5F5F5F5F5F5F5F5F5F5F5E20F0F0F0F0F0F0F0F0F0FF5F5F5F5F5F5F5F5F5F5F5F5F5F5F5F5F5F5F5F5F5F5
310
F5F5F5F5F5F5F5F5F5F5F5F5F5F5F5F5F5F5F5F5F5F5F5F5F5F5F5F5F5F5F5F5F5F5F5F5F5F5F5F5F5F5F5F5F5F5F5F5F5F5F5F5F5F5F5F5F5F5F5F5F5F5F5F5F5F5F5F5F5F5F5F5F5F5F5F5F5F5F5F5F5F5F5F5F5F5F5F5F5F5F5F5F5F5F5F5F5F5F5F5F5F5E2F5F5F5F5F5F5F5F5F5F5F5F5F5F5F5F5E2F5F5F5F5E2E2F5
310
F5F5F5E2F5F5F5F5F5F5F5F5F5F5F5F5F5F5F5F5E2F5F5F5F5F5F5F5F5F5F5F5F5F5F5F5F5F5F5F5F5F5F5F5F5F5F5F5F5F5F5F5F5F5F5F5F5F5F5F5F5F5F5F5F5F5F5F5F5F5F5F5F5F5F5F5F5F5F5F5F5F5F5F5F5F5F5F5F5F5F5F5F5F5F5F5F5F5F5F5F5F5F5F5F5F5F5F5F5F5F5F5F5F5F5F5F5F5F5F5F5F5F5F5F5F5F5
310
F5F5F5F5F5F5F5F5F5F5F5F5F5F5F5F5F5F5F5F5F5F5F5F5F5F5F5F5E2F5F5F5F5F5F5F5F5F5F5F5F5F5F5F5F5E2F5F5F5F5E2E2F5F5F5F5E2F5F5F5F5F5F5F5F5F5F5F5F5F5F5F5F5E2F5F5F5F5F5F5F5F5F5F5F5F5F5F5F5F5F5F5F5F5F5F5F5F5F5F5F5F5F5F5F5F5F5F5F5F5F5F5F5F5F5F5F5F5F5F5F5F5F5F5F5F5F5
310
F5F5F5F5F5F5F5F5F5F5F5F5F5F5F5F5F5F5F5F5F5F5F5F5F5F5F5F5F5F5F5F5F5F5F5F5F5F5F5F5F5F5F5F5F5F5F5F5F5F5F5F5F5F5F5F5F5F5F5F5F5F5F5F5F5F5F5F5F5F5F5F5F5F5F5F5F5F5F5F5F5E2F5F5F5F5F5F5F5F5F5F5F5F5F5F5F5F5E2F5F5F5F5E2E2F5F5F5F5E2F5F5F5F5F5F5F5F5F5F5F5F5F5F5F5F5E2
310
F5F5F5F5F5F5F5F5F5F5F5F5F5F5F5F5F5F5F5F5F5F5F5F5F5F5F5F5F5F5F5F5F5F5F5F5F5F5F5F5F5F5F5F5F5F5F5F5F5F5F5F5F5F5F5F5F5F5F5F5F5F5F5F5F5F5F5F5F5F5F5F5F5F5F5F5F5F5F5F5F5F5F5F5F5F5F5F5F5F5F5F5F5F5F5F5F5F5F5F5F5F5F5F5F5F5F5F5F5F5F5F5F5F5F5F5F5F5F5F5F5F5F5F5F5F5F5
310
F5F5F5F5F5F5F5E2F5F5F5F5F5F5F5F5F5F5F5F5F5F5F5F5E2F5F5F5F5E2E2F5F5F5F5E2F5F5F5F5F5F5F5F5F5F5F5F5F5F5F5F5E2F5F5F5F5F5F5F5F5F5F5F5F5F5F5F5F5F5F5F5F5F5F5F5F5F5F5F5F5F5F5F5F5F5F5F5F5F5F5F5F5F5F5F5F5F5F5F5F5F5F5F5F5F5F5F5F5F5F5F5F5F5F5F5F5F5F5F5F5F5F5F5F5F5F5
310
F5F5F5F5F5F5F5F5F5F5F5F5F5F5F5F5F5F5F5F5F5F5F5F5F5F5F5F5F5F5F5F5F5F5F5F5F5F5F5F5F5F5F5F5F5F5F5F5F5F5F5F5F5F5F5F5F5F5F5F5E2F5F5F5F5F5F5F5F5F5F5F5F5F5F5F5F5E2F5F5F5F5E2E2F5F5F5F5F5F5F5F5F5F5F5F5F5F5F5F5F5F5F5F5F5E2F5F5F5F5F5F5F5F5F5F5F5F5F5F5F5F5F5F5F5F5F5
310
F5F5F5F5F5F5F5F5F5F5F5F5F5F5F5F5F5F5F5F5F5F5F5F5F5F5F5F5F5F5F5F5F5F5F5F5F5F5F5F5F5F5F5F5F5F5F5F5F5F5F5F5F5F5F5F5F5F5F5F5F5F5F5F5F5F5F5F5F5F5F5F5F5F5F5F5F5F5F5F5F5F5F5F5F5F5F5F5F5F5F5F5F5F5F5F5F5F5F5F5F5F5F5F5F5F5F5F5F5F5F5F5F5E2F5F5F5F5F5F5F5F5F5F5F5F5F5
310
F5F5F5F5F5F5F5F5E2E2F5F5F5F5F5F5F5F5F5F5F5F5F5F5F5F5F5F5F5F5F5E2F5F5F5F5F5F5F5F5F5F5F5F5F5F5F5F5F5F5F5F5F5F5F5F5F5F5F5F5F5F5F5F5F5F5F5F5F5F5F5F5F5F5F5F5F5F5F5F5F5F5F5F5F5F5F5F5F5F5F5F5F5F5F5F5F5F5F5F5F5F5F5F5F5F5F5F5F5F5F5F5F5F5F5F5F5F5F5F5F5F5F5F5F5F5F5
310
F5F5F5F5F5F5F5F5F5F5F5F5F5F5F5F5F5F5F5F5F5F5F5F5F5F5F5F5F5F5F5F5F5F5F5F5F5F5F5E2F5F5F5F5F5F5F5F5F5F5F5F5F5F5F5F5F5F5F5F5F5E2E2F5F5F5F5F5F5F5F5F5F5F5F5F5F5F5F5F5F5F5F5F5E2F5F5F5F5F5F5F5F5F5F5F5F5F5F5F5F5F5F5F5F5F5F5F5F5F5F5F5F5F5F5F5F5F5F5F5F5F5F5F5F5F5F5
310
F5F5F5F5F5F5F5F5F5F5F5F5F5F5F5F5F5F5F5F5F5F5F5F5F5F5F5F5F5F5F5F5F5F5F5F5F5F5F5F5F5F5F5F5F5F5F5F5F5F5F5F5F5F5F5F5F5F5F5F5F5F5F5F5F5F5F5F5F5F5F5F5F5F5F5F5F5F5F5F5F5F5F5F5F5F5F5F5F5F5F5F5E2F5F5F5F5F5F5F5F5F5F5F5F5F5F5F5F5F5F5F5F5F5E2E2F5F5F5F5F5F5F5F5F5F5F5
310
F5F5F5F5F5F5F5F5F5F5E2F5F5F5F5F5F5F5F5F5F5F5F5F5F5F5F5F5F5F5F5F5F5F5F5F5F5F5F5F5F5F5F5F5F5F5F5F5F5F5F5F5F5F5F5F5F5F5F5F5F5F5F5F5F5F5F5F5F5F5F5F5F5F5F5F5F5F5F5F5F5F5F5F5F5F5F5F5F5F5F5F5F5F5F5F5F5F5F5F5F5F5F5F5F5F5F5F5F5F5F5F5F5F5F5F5F5F5F5F5F5F5F5F5F5F5F5
310
F5F5F5F5F5F5F5F5F5F5F5F5F5F5F5F5F5F5E2F5F5F5F5F5F5F5F5F5F5F5F5F5F5F5F5F5F5F5F5F5E2E2F5F5F5F5F5F5F5F5F5F5F5F5F5F5F5F5F5F5F5F5F5E2F5F5F5F5F5F5F5F5F5F5F5F5F5F5F5F5F5F5F5F5F5F5F5F5F5F5F5F5F5F5F5F5F5F5F5F5F5F5F5F5F5F5F5F5F5F5F5F5F5F5F5F5F5F5F5F5F5F5F5F5F5F5F5
310
F5F5F5F5F5F5F5F5F5F5F5F5F5F5F5F5F5F5F5F5F5F5F5F5F5F5F5F5F5F5F5F5F5F5F5F5F5F5F5F5F5F5F5F5F5F5F5F5F5F5F5F5F5F5F5F5F5F5F5F5F5F5F5F5F5F5F5F5F5F5F5E2F5F5F5F5F5F5F5F5F5F5F5F5F5F5F5F5F5F5F5F5F5E2E2F5F5F5F5F5F5F5F5F5F5F5F5F5F5F5F5F5F5F5F5F5E2F5F5F5F5F5F5F5F5F5F5
310
F5F5F5F5F5F5F5F5F5F5F5F5F5F5F5F5F5F5F5F5F5F5F5F5F5F5F5F5F5F5F5F5F5F5F5F5F5F5F5F5F5F5F5F5F5F5F5F5F5F5F5F5F5F5F5F5F5F5F5F5F5F5F5F5F5F5F5F5F5F5F5F5F5F5F5F5F5F5F5F5F5F5F5F5F5F5F5F5F5F5F5F5F5F5F5F5F5F5F5F5F5F5F5F5F5F5F5F5F5F5F5F5F5F5F5F5F5F5F5F5F5F5F5F5E2F5F5
310
F5F5F5F5F5F5F5F5F5F5F5F5F5F5F5F5F5F5F5E2E2F5F5F5F5F5F5F5F5F5F5F5F5F5F5F5F5F5F5F5F5F5E2F5F5F5F5F5F5F5F5F5F5F5F5F5F5F5F5F5F5F5F5F5F5F5F5F5F5F5F5F5F5F5F5F5F5F5F5F5F5F5F5F5F5F5F5F5F5F5F5F5F5F5F5F5F5F5F5F5F5F5F5F5F5F5F5F5F5F5F5F5F5F5F5F5F5F5F5F5F5F5F5F5F5F5F5
310
F5F5F5F5F5F5F5F5F5F5F5F5F5F5F5F5F5F5F5F5F5F5F5F5F5F5F5F5F5F5F5F5F5F5F5F5F5F5F5F5F5F5F5F5F5F5F5F5F5F5E2F5F5F5F5F5F5F5F5F5F5F5F5F5F5F5F5F5F5F5F5F5E2E2F5F5F5F5F5F5F5F5F5F5F5F5F5F5F5F5F5F5F5F5F5E2F5F5F5F5F5F5F5F5F5F5F5F5F5F5F5F5F5F5F5F5F5F5F5F5F5F5F5F5F5F5F5
310
F5F5F5F5F5F5F5F5F5F5F5F5F5F5F5F5F5F5F5F5F5F5F5F5F5F5F5F5F5F5F5F5F5F5F5F5F5F5F5F5F5F5F5F5F5F5F5F5F5F5F5F5F5F5F5F5F5F5F5F5F5F5F5F5F5F5F5F5F5F5F5F5F5F5F5F5F5F5F5F5F5F5F5F5F5F5F5F5F5F5F5F5F5F5F5F5F5F5F5F5F5F5F5E2F5F5F5F5F5F5F5F5F5F5F5F5F5F5F5F5F5F5F5F5F5E2E2
310
F5F5F5F5F5F5F5F5F5F5F5F5F5F5F5F5F5F5F5F5F5E2F5F5F5F5F5F5F5F5F5F5F5F5F5F5F5F5F5F5F5F5F5F5F5F5F5F5F5F5F5F5F5F5F5F5F5F5F5F5F5F5F5F5F5F5F5F5F5F5F5F5F5F5F5F5F5F5F5F5F5F5F5F5F5F5F5F5F5F5F5F5F5F5F5F5F5F5F5F5F5F5F5F5F5F5F5F5F5F5F5F5F5F5F5F5F5F5F5F5F5F5F5F5F5F5F5
310
F5F5F5F5F5F5F5F5F5F5F5F5F5F5F5F5F5F5F5F5F5F5F5F5F5F5F5F5F5E2F5F5F5F5F5F5F5F5F5F5F5F5F5F5F5F5F5F5F5F5F5E2E2F5F5F5F5F5F5F5F5F5F5F5F5F5F5F5F5F5F5F5F5F5E2F5F5F5F5F5F5F5F5F5F5F5F5F5F5F5F5F5F5F5F5F5F5F5F5F5F5F5F5F5F5F5F5F5F5F5F5F5F5F5F5F5F5F5F5F5F5F5F5F5F5F5F5
310
F5F5F5F5F5F5F5F5F5F5F5F5F5F5F5F5F5F5F5F5F5F5F5F5F5F5F5F5F5F5F5F5F5F5F5F5F5F5F5F5F5F5F5F5F5F5F5F5F5F5F5F5F5F5F5F5F5F5F5F5F5F5F5F5F5F5F5F5F5F5F5F5F5F5F5F5F5F5F5F5F5F5E2F5F5F5F5F5F5F5F5F5F5F5F5F5F5F5F5F5F5F5F5F5E2E2F5F5F5F5E2F5F5F5F5F5F5F5F5F5F5F5F5F5F5F5F5
310
E2F5F5F5F5F5F5F5F5F5F5F5F5F5F5F5F5F5F5F5F5F5F5F5F5F5F5F5F5F5F5F5F5F5F5F5F5F5F5F5F5F5F5F5F5F5F5F5F5F5F5F5F5F5F5F5F5F5F5F5F5F5F5F5F5F5F5F5F5F5F5F5F5F5F5F5F5F5F5F5F5F5F5F5F5F5F5F5F5F5F5F5F5F5F5F5F5F5F5F5F5F5F5F5F5F5F5F5F5F5F5F5F5F5F5F5F5F5F5F5F5F5F5F5F5F5F5
310
F5F5F5F5F5F5F5F5E2F5F5F5F5F5F5F5F5F5F5F5F5F5F5F5F5E2F5F5F5F5E2E2F5F5F5F5E2F5F5F5F5F5F5F5F5F5F5F5F5F5F5F5F5E2F5F5F5F5F5F5F5F5F5F5F5F5F5F5F5F5F5F5F5F5F5F5F5F5F5F5F5F5F5F5F5F5F5F5F5F5F5F5F5F5F5F5F5F5F5F5F5F5F5F5F5F5F5F5F5F5F5F5F5F5F5F5F5F5F5F5F5F5F5F5F5F5F5
310
F5F5F5F5F5F5F5F5F5F5F5F5F5F5F5F5F5F5F5F5F5F5F5F5F5F5F5F5F5F5F5F5F5F5F5F5F5F5F5F5F5F5F5F5F5F5F5F5F5F5F5F5F5F5F5F5F5F5F5F5F5E2F5F5F5F5F5F5F5F5F5F5F5F5F5F5F5F5E2F5F5F5F5E2E2F5F5F5F5E2F5F5F5F5F5F5F5F5F5F5F5F5F5F5F5F5E2F5F5F5F5F5F5F5F5F5F5F5F5F5F5F5F5F5F5F5F5
310
F5F5F5F5F5F5F5F5F5F5F5F5F5F5F5F5F5F5F5F5F5F5F5F5F5F5F5F5F5F5F5F5F5F5F5F5F5F5F5F5F5F5F5F5F5F5F5F5F5F5F5F5F5F5F5F5F5F5F5F5F5F5F5F5F5F5F5F5F5F5F5F5F5F5F5F5F5F5F5F5F5F5F5F5F5F5F5F5F5F5F5F5F5F5F5F5F5F5F5F5F5F5F5F5F5F5F5F5F5F5F5F5F5F5E2F5F5F5F5F5F5F5F5F5F5F5F5
310
F5F5F5F5E2F5F5F5F5E2E2F5F5F5F5E2F5F5F5F5F5F5F5F5F5F5F5F5F5F5F5F5E2F5F5F5F5F5F5F5F5F5F5F5F5F5F5F5F5F5F5F5F5F5F5F5F5F5F5F5F5F5F5F5F5F5F5F5F5F5F5F5F5F5F5F5F5F5F5F5F5F5F5F5F5F5F5F5F5F5F5F5F5F5F5F5F5F5F5F5F5F5F5F5F5F5F5F5F5F5F5F5F5F5F5F5F5F5F5F5F5F5F5F5F5F5F5
310
F5F5F5F5F5F5F5F5F5F5F5F5F5F5F5F5F5F5F5F5F5F5F5F5F5F5F5F5F5F5F5F5F5F5F5F5F5F5F5F5E2F5F5F5F5F5F5F5F5F5F5F5F5F5F5F5F5E2F5F5F5F5E2E2F5F5F5F5E2F5F5F5F5F5F5F5F5F5F5F5F5F5F5F5F5E2F5F5F5F5F5F5F5F5F5F5F5F5F5F5F5F5F5F5F5F5F5F5F5F5F5F5F5F5F5F5F5F5F5F5F5F5F5F5F5F5F5
310
F5F5F5F5F5F5F5F5F5F5F5F5F5F5F5F5F5F5F5F5F5F5F5F5F5F5F5F5F5F5F5F5F5F5F5F5F5F5F5F5F5F5F5F5F5F5F5F5F5F5F5F5F5F5F5F5F5F5F5F5F5F5F5F5F5F5F5F5F5F5F5F5F5F5F5F5F5F5F5F5F5F5F5F5F5F5F5F5F5F5F5F5F5E2F5F5F5F5F5F5F5F5F5F5F5F5F5F5F5F5E2F5F5F5F5E2E2F5F5F5F5E2F5F5F5F5F5
310
F5F5F5F5F5F5F5F5F5F5F5E2F5F5F5F5F5F5F5F5F5F5F5F5F5F5F5F5F5F5F5F5F5F5F5F5F5F5F5F5F5F5F5F5F5F5F5F5F5F5F5F5F5F5F5F5F5F5F5F5F5F5F5F5F5F5F5F5F5F5F5F5F5F5F5F5F5F5F5F5F5F5F5F5F5F5F5F5F5F5F5F5F5F5F5F5F5F5F5F5F5F5F5F5F5F5F5F5F5F5F5F5F5F5F5F5F5F5F5F5F5F5F5F5F5F5F5
310
F5F5F5F5F5F5F5F5F5F5F5F5F5F5F5F5F5F5F5E2F5F5F5F5F5F5F5F5F5F5F5F5F5F5F5F5E2F5F5F5F5E2E2F5F5F5F5E2F5F5F5F5F5F5F5F5F5F5F5F5F5F5F5F5E2F5F5F5F5F5F5F5F5F5F5F5F5F5F5F5F5F5F5F5F5F5F5F5F5F5F5F5F5F5F5F5F5F5F5F5F5F5F5F5F5F5F5F5F5F5F5F5F5F5F5F5F5F5F5F5F5F5F5F5F5F5F5
310
F5F5F5F5F5F5F5F5F5F5F5F5F5F5F5F5F5F5F5F5F5F5F5F5F5F5F5F5F5F5F5F5F5F5F5F5F5F5F5F5F5F5F5F5F5F5F5F5F5F5F5F5F5F5F5F5F5F5F5F5F5F5F5F5F5F5F5F5F5F5F5F5E2F5F5F5F5F5F5F5F5F5F5F5F5F5F5F5F5E2F5F5F5F5E2E2F5F5F5F5E2F5F5F5F5F5F5F5F5F5F5F5F5F5F5F5F5E2F5F5F5F5F5F5F5F5F5
310
F5F5F5F5F5F5F5F5F5F5F5F5F5F5F5F5F5F5F5F5F5F5F5F5F5F5F5F5F5F5F5F5F5F5F5F5F5F5F5F5F5F5F5F5F5F5F5F5F5F5F5F5F5F5F5F5F5F5F5F5F5F5F5F5F5F5F5F5F5F5F5F5F5F5F5F5F5F5F5F5F5F5F5F5F5F5F5F5F5F5F5F5F5F5F5F5F5F5F5F5F5F5F5F5F5F5F5F5F5F5F5F5F5F5F5F5F5F5F5F5F5F5F5F5F5E2F5
310
F5F5F5F5F5F5F5F5F5F5F5F5F5F5F5E2F5F5F5F5E2E2F5F5F5F5E2F5F5F5F5F5F5F5F5F5F5F5F5F5F5F5F5E2F5F5F5F5F5F5F5F5F5F5F5F5F5F5F5F5F5F5F5F5F5F5F5F5F5F5F5F5F5F5F5F5F5F5F5F5F5F5F5F5F5F5F5F5F5F5F5F5F5F5F5F5F5F5F5F5F5F5F5F5F5F5F5F5F5F5F5F5F5F5F5F5F5F5F5F5F5F5F5F5F5F5F5
310
F5F5F5F5F5F5F5F5F5F5F5F5F5F5F5F5F5F5F5F5F5F5F5F5F5F5F5F5F5F5F5F5F5F5F5F5F5F5F5F5F5F5F5F5F5F5F5F5F5F5F5E2F5F5F5F5F5F5F5F5F5F5F5F5F5F5F5F5E2F5F5F5F5E2E2F5F5F5F5E2F5F5F5F5F5F5F5F5F5F5F5F5F5F5F5F5E2F5F5F5F5F5F5F5F5F5F5F5F5F5F5F5F5F5F5F5F5F5F5F5F5F5F5F5F5F5F5
310
F5F5F5F5F5F5F5F5F5F5F5F5F5F5F5F5F5F5F5F5F5F5F5F5F5F5F5F5F5F5F5F5F5F5F5F5F5F5F5F5F5F5F5F5F5F5F5F5F5F5F5F5F5F5F5F5F5F5F5F5F5F5F5F5F5F5F5F5F5F5F5F5F5F5F5F5F5F5F5F5F5F5F5F5F5F5F5F5F5F5F5F5F5F5F5F5F5F5F5F5F5F5F5F5E2F5F5F5F5F5F5F5F5F5F5F5F5F5F5F5F5E2F5F5F5F5E2
310
E2F5F5F5F5E2F5F5F5F5F5F5F5F5F5F5F5F5F5F5F5F5E2F5F5F5F5F5F5F5F5F5F5F5F5F5F5F5F5F5F5F5F5F5F5F5F5F5F5F5F5F5F5F5F5F5F5F5F5F5F5F5F5F5F5F5F5F5F5F5F5F5F5F5F5F5F5F5F5F5F5F5F5F5F5F5F5F5F5F5F5F5F5F5F5F5F5F5F5F5F5F5F5F5F5F5F5F5F5F5F5F5F5F5F5F5F5F5F5F5F5F5F5F5F5F5F5
310
F5F5F5F5F5F5F5F5F5F5F5F5F5F5F5F5F5F5F5F5F5F5F5F5F5F5F5F5F5F5E2F5F5F5F5F5F5F5F5F5F5F5F5F5F5F5F5E2F5F5F5F5E2E2F5F5F5F5E2F5F5F5F5F5F5F5F5F5F5F5F5F5F5F5F5E2F5F5F5F5F5F5F5F5F5F5F5F5F5F5F5F5F5F5F5F5F5F5F5F5F5F5F5F5F5F5F5F5F5F5F5F5F5F5F5F5F5F5F5F5F5F5F5F5F5F5F5
310
F5F5F5F5F5F5F5F5F5F5F5F5F5F5F5F5F5F5F5F5F5F5F5F5F5F5F5F5F5F5F5F5F5F5F5F5F5F5F5F5F5F5F5F5F5F5F5F5F5F5F5F5F5F5F5F5F5F5F5F5F5F5F5F5F5F5F5F5F5F5F5F5F5F5F5F5F5F5F5F5F5F5F5E2F5F5F5F5F5F5F5F5F5F5F5F5F5F5F5F5E2F5F5F5F5E2E2F5F5F5F5E2F5F5F5F5F5F5F5F5F5F5F5F5F5F5F5
310
F5E2F5F5F5F5F5F5F5F5F5F5F5F5F5F5F5F5F5F5F5F5F5F5F5F5F5F5F5F5F5F5F5F5F5F5F5F5F5F5F5F5F5F5F5F5F5F5F5F5F5F5F5F5F5F5F5F5F5F5F5F5F5F5F5F5F5F5F5F5F5F5F5F5F5F5F5F5F5F5F5F5F5F5F5F5F5F5F5F5F5F5F5F5F5F5F5F5F5F5F5F5F5F5F5F5F5F5F5F5F5F5F5F5F5F5F5F5F5F5F5F5F5F5F5F5F5
310
F5F5F5F5F5F5F5F5F5E2F5F5F5F5F5F5F5F5F5F5F5F5F5F5F5F5E2F5F5F5F5E2E2F5F5F5F5E2F5F5F5F5F5F5F5F5F5F5F5F5F5F5F5F5E2F5F5F5F5F5F5F5F5F5F5F5F5F5F5F5F5F5F5F5F5F5F5F5F5F5F5F5F5F5F5F5F5F5F5F5F5F5F5F5F5F5F5F5F5F5F5F5F5F5F5F5F5F5F5F5F5F5F5F5F5F5F5F5F5F5F5F5F5F5F5F5F5
310
F5F5F5F5F5F5F5F5F5F5F5F5F5F5F5F5F5F5F5F5F5F5F5F5F5F5F5F5F5F5F5F5F5F5F5F5F5F5F5F5F5F5F5F5F5F5F5F5F5F5F5F5F5F5F5F5F5F5F5F5F5F5E2F5F5F5F5F5F5F5F5F5F5F5F5F5F5F5F5E2F5F5F5F5E2E2F5F5F5F5E2F5F5F5F5F5F5F5F5F5F5F5F5F5F5F5F5E2F5F5F5F5F5F5F5F5F5F5F5F5F5F5F5F5F5F5F5
310
F5F5F5F5F5F5F5F5F5F5F5F5F5F5F5F5F5F5F5F5F5F5F5F5F5F5F5F5F5F5F5F5F5F5F5F5F5F5F5F5F5F5F5F5F5F5F5F5F5F5F5F5F5F5F5F5F5F5F5F5F5F5F5F5F5F5F5F5F5F5F5F5F5F5F5F5F5F5F5F5F5F5F5F5F5F5F5F5F5F5F5F5F5F5F5F5F5F5F5F5F5F5F5F5F5F5F5F5F5F5F5F5F5F5F5E2F5F5F5F5F5F5F5F5F5F5F5
310
F5F5F5F5F5E2F5F5F5F5E2E2F5F5F5F5E2F5F5F5F5F5F5F5F5F5F5F5F5F5F5F5F5E2F5F5F5F5F5F5F5F5F5F5F5F5F5F5F5F5F5F5F5F5F5F5F5F5F5F5F5F5F5F5F5F5F5F5F5F5F5F5F5F5F5F5F5F5F5F5F5F5F5F5F5F5F5F5F5F5F5F5F5F5F5F5F5F5F5F5F5F5F5F5F5F5F5F5F5F5F5F5F5F5F5F5F5F5F5F5F5F5F5F5F5F5F5
310
F5F5F5F5F5F5F5F5F5F5F5F5F5F5F5F5F5F5F5F5F5F5F5F5F5F5F5F5F5F5F5F5F5F5F5F5F5F5F5F5F5E2F5F5F5F5F5F5F5F5F5F5F5F5F5F5F5F5E2F5F5F5F5E2E2F5F5F5F5F5F5F5F5F5F5F5F5F5F5F5F5F5F5F5F5F5E2F5F5F5F5F5F5F5F5F5F5F5F5F5F5F5F5F5F5F5F5F5F5F5F5F5F5F5F5F5F5F5F5F5F5F5F5F5F5F5F5
310
F5F5F5F5F5F5F5F5F5F5F5F5F5F5F5F5F5F5F5F5F5F5F5F5F5F5F5F5F5F5F5F5F5F5F5F5F5F5F5F5F5F5F5F5F5F5F5F5F5F5F5F5F5F5F5F5F5F5F5F5F5F5F5F5F5F5F5F5F5F5F5F5F5F5F5F5F5F5F5F5F5F5F5F5F5F5F5F5F5F5F5F5F5F5E2F5F5F5F5F5F5F5F5F5F5F5F5F5F5F5F5F5F5F5F5F5E2E2F5F5F5F5F5F5F5F5F5
310
F5F5F5F5F5F5F5F5F5F5F5F5E2F5F5F5F5F5F5F5F5F5F5F5F5F5F5F5F5F5F5F5F5F5F5F5F5F5F5F5F5F5F5F5F5F5F5F5F5F5F5F5F5F5F5F5F5F5F5F5F5F5F5F5F5F5F5F5F5F5F5F5F5F5F5F5F5F5F5F5F5F5F5F5F5F5F5F5F5F5F5F5F5F5F5F5F5F5F5F5F5F5F5F5F5F5F5F5F5F5F5F5F5F5F5F5F5F5F5F5F5F5F5F5F5F5F5
310
F5F5F5F5F5F5F5F5F5F5F5F5F5F5F5F5F5F5F5F5E2F5F5F5F5F5F5F5F5F5F5F5F5F5F5F5F5F5F5F5F5F5E2E2F5F5F5F5F5F5F5F5F5F5F5F5F5F5F5F5F5F5F5F5F5E2F5F5F5F5F5F5F5F5F5F5F5F5F5F5F5F5F5F5F5F5F5F5F5F5F5F5F5F5F5F5F5F5F5F5F5F5F5F5F5F5F5F5F5F5F5F5F5F5F5F5F5F5F5F5F5F5F5F5F5F5F5
310
F5F5F5F5F5F5F5F5F5F5F5F5F5F5F5F5F5F5F5F5F5F5F5F5F5F5F5F5F5F5F5F5F5F5F5F5F5F5F5F5F5F5F5F5F5F5F5F5F5F5F5F5F5F5F5F5F5F5F5F5F5F5F5F5F5F5F5F5F5F5F5F5F5E2F5F5F5F5F5F5F5F5F5F5F5F5F5F5F5F5F5F5F5F5F5E2E2F5F5F5F5F5F5F5F5F5F5F5F5F5F5F5F5F5F5F5F5F5E2F5F5F5F5F5F5F5F5
310
F5F5F5F5F5F5F5F5F5F5F5F5F5F5F5F5F5F5F5F5F5F5F5F5F5F5F5F5F5F5F5F5F5F5F5F5F5F5F5F5F5F5F5F5F5F5F5F5F5F5F5F5F5F5F5F5F5F5F5F5F5F5F5F5F5F5F5F5F5F5F5F5F5F5F5F5F5F5F5F5F5F5F5F5F5F5F5F5F5F5F5F5F5F5F5F5F5F5DCF5F5F5F5F5F5F5F5F5F5F5F5F5F5F5F5F5F5F5F5F5F5F5F5F5F5F5E2
310
F5F5F5F5F5F5F5F5F5F5F5F5F5F5F5F5F5F5F5F5F5E2E2F5F5F5F5F5F5F5F5F5F5F5F5F5F5F5F5F5F5F5F5F5E2F5F5F5F5F5F5F5F5F5F5F5F5F5F5F5F5F5F5F5F5F5F5F5F5F5F5F5F5F5F5F5F5F5F5F5F5F5F5F5F5F5F5F5F5F5F5F5F5F5F5F5F5F5F5F5F5F5F5F5F5F5F5F5F5F5F5F5F5F5F5F5F5F5F5F5F5F5F5F5F5F5E2
310
ECE2E2E2E2E2E2E2E2E2E2E2E2E2E2E2E2E2E2E2E2E2E2E2DCE2E2E2E2E2E2E2E2E2E2E2E2E2E2E2E2E2E2E2E2E2E2E2ECE2F5F5E2F5F5F5F5F5F5F5F5F5F5F5F5F5F5F5F5F5F5F5F5F5E2E2F5F5F5F5F5F5F5F5F5F5F5F5F5F5F5F5F5F5F5F5F5E2F5F5F5F5F5F5F5F5F5F5F5F5F5F5F5F5F5F5F5F5F5F5F5F5F5F5F5F5F5
310
F5F5F5F5F5F5F5F5F5F5F5F5F5F5F5F5F5F5F5F5F5F5F5F5F5F5F5F5F5F5F5F5F5F5F5F5F5F5F5F5F5F5F5F5F5F5F5F5F5F5F5E2F5F5ECF5F5F5F5F5F5F5F5F5F5F5F5F5F5F5F5F5F5F5F5F5F5DCF5F5F5F5F5F5F5F5F5F5F5F5F5F5F5F5F5F5F5F5F5F5ECF5F5E2F5E2F5F5F5F5F5F5F5F5F5F5F5F5F5F5F5F5F5F5F5F5F5
310
E2E2F5F5F5F5F5F5F5F5F5F5F5F5F5F5F5F5F5F5F5F5F5E2F5F5F5F5F5F5F5F5F5F5F5F5F5F5F5F5F5F5F5F5F5F5F5F5F5F5F5F5F5F5F5F5F5F5F5F5F5F5F5F5F5F5F5F5F5F5F5F5F5F5F5F5F5F5F5F5F5F5F5F5F5F5F5F5F5F5F5F5F5F5F5F5F5F5F5F5F5F5F5E2F5F5F5F5ECF5F5F5F5F5F5F5F5F5F5F5F5F5F5F5F5F5F5
310
F5F5F5DCF5F5F5F5F5F5F5F5F5F5F5F5F5F5F5F5F5F5F5F5F5ECF5F5F5F5E2E2F5F5F5F5F5F5F5F5F5F5F5F5F5F5F5F5F5F5F5F5F5E2E2F5F5F5F5F5F5F5F5F5F5F5F5F5F5F5F5F5F5F5F5F5E2F5F5F5F5F5F5F5F5F5F5F5F5F5F5F5F5F5F5F5F5F5F5F5F5F5F5F5F5F5F5F5F5F5F5F5F5F5F5F5F5F5F5F5F5F5F5F5F5F5F5
310
F5F5F5F5F5F5F5F5F5F5F5F5F5F5F5F5F5F5F5F5F5F5F5F5F5F5F5F5E2E2E2E2E2E2ECE2E2E2E2E2E2E2E2E2ECECECECECECE2ECECECECECDCECECECECECE2ECECECECECECE2E2E2E2E2E2E2E2ECE2E2E2E2E2E2E2F5F5F5F5F5F5F5F5F5F5F5F5F5F5F5F5F5F5F5F5F5E2E2F5F5F5F5F5F5F5F5F5F5F5F5F5F5F5F5F5F5F5
310
F5F5E2F5F5F5F5F5F5F5F5F5F5F5F5F5F5F5F5F5F5F5F5F5F5F5F5F5F5F5F5F5F5F5F5F5F5F5F5F5F5F5F5F5F5F5F5F5F5F5F5F5F5F5F5F5F5F5F5F5F5F5F5F5F5F5F5F5F5F5F5F5F5F5F5F5F5F5F5F5F5E2F5F5F5F5F5F5F5F5F5F5F5F5F5F5F5ECF5F5F5F5F5F5F5F5F5F5F5DCF5F5F5F5F5F5F5F5F5F5ECF5F5F5F5F5F5
310
F5F5F5F5F5F5F5F5F5E2E2F5F5F5F5F5F5F5F5F5F5F5F5F5F5F5F5F5F5F5F5F5E2E2F5F5F5F5E2F5F5F5F5F5F5F5F5F5F5F5F5F5F5F5F5E2F5F5F5F5F5F5F5F5F5F5F5F5F5F5F5F5F5F5F5F5F5F5F5F5F5F5F5F5F5F5F5F5F5F5F5F5F5F5F5F5F5F5F5F5F5F5F5F5F5F5F5F5F5F5F5F5F5F5F5F5F5F5F5F5F5F5F5F5F5F5F5
310
F5F5F5F5F5F5F5E2F5F5F5F5F5F5F5F5F5F5F5F5F5F5F5ECECECECECECECECECECECECECECECECECECECECECECECECF5F5F5F5F5F5F5F5F5F5F5F5F5F5F5E2E2F5F5F5F5F5F5F5F5F5F5F5F5F5F5F5F5E2F5F5F5F5E2E2F5F5F5F5E2F5F5F5F5F5F5F5F5F5F5F5F5F5F5F5F5E2F5F5F5F5F5F5F5F5F5F5F5F5F5F5F5F5F5F5
310
F5F5F5F5F5F5F5F5F5F5F5F5F5F5F5F5F5F5F5F5F5F5F5F5F5F5F5F5F5F5F5F5F5F5F5F5F5F5F5F5F5F5F5F5F5F5F5F5F5F5F5F5F5F5F5F5F5F5F5F5F5E2F5F5F5F5F5F5F5F5F5F5F5F5F5F5F5F5F5F5F5ECF5F5F5F5F5F5DCF5F5F5F5F5ECF5F5F5F5F5F5F5F5F5F5F5F5F5F5F5F5F5F5F5F5E2E2F5F5F5F5F5F5F5F5F5F5
310
F5F5F5F5F5F5E2F5F5F5F5E2E2F5F5F5F5E2F5F5F5F5F5F5F5F5F5F5F5F5F5F5F5F5E2F5F5F5F5F5F5F5F5F5F5F5F5F5F5F5F5F5F5F5F5F5F5F5F5F5F5F5F5F5F5F5F5F5F5F5F5F5F5F5F5F5F5F5F5F5F5F5F5F5F5F5F5F5F5F5F5F5F5F5F5F5F5F5F5F5F5F5F5F5F5F5F5F5F5F5F5F5F5F5F5E2F5F5F5F5F5F5F5F5F5F5F5
310
F5F5F5F5F5ECECECECECECF5ECECECECECF5ECECECECECF5F5F5F5F5F5F5F5F5F5F5F5F5F5F5F5F5E2F5E2F5F5F5F5F5F5F5F5F5F5F5F5F5F5F5F5E2F5F5F5F5E2E2F5F5F5F5E2F5F5F5F5F5F5F5F5F5F5F5F5F5F5F5F5E2F5F5F5F5F5F5F5F5F5F5F5F5F5F5F5F5F5F5F5F5F5F5F5F5F5F5F5F5F5F5F5F5F5F5F5F5F5F5F5
310
F5F5F5F5F5F5F5F5F5F5F5F5F5F5F5F5F5F5F5F5F5F5F5F5F5F5F5F5F5F5F5F5F5F5F5F5F5F5F5F5F5F5E2E2F5F5F5F5F5F5F5F5F5F5F5F5F5F5ECF5F5F5F5F5F5F5F5DCF5F5F5F5F5F5F5ECF5F5F5F5F5F5F5F5F5F5F5F5F5F5F5E2E2F5F5E2F5F5F5F5F5F5F5F5F5F5F5F5F5F5F5F5E2F5F5F5F5E2E2F5F5F5F5E2F5F5F5
310
F5F5F5F5F5F5F5F5F5F5F5F5F5E2F5F5F5F5F5F5F5F5F5F5F5F5F5F5F5F5F5F5F5F5F5F5F5F5F5F5F5F5F5F5F5F5F5F5F5F5F5F5F5F5F5F5F5F5F5F5F5F5F5F5F5F5F5F5F5F5F5F5F5F5F5F5F5F5F5F5F5F5F5F5F5F5F5F5F5F5F5F5F5F5F5F5F5E2F5F5F5F5F5F5F5F5F5F5F5F5F5ECF5F5F5F5F5F5F5F5DCF5F5F5F5F5F5
310
F5ECF5F5F5F5F5F5F5F5F5F5F5F5F5E2E2F5F5F5F5E2F5F5F5F5F5F5F5F5F5F5F5F5F5F5F5F5E2F5F5F5F5E2E2F5F5F5F5E2F5F5F5F5F5F5F5F5F5F5F5F5F5F5F5F5E2F5F5F5F5F5F5F5F5F5F5F5F5F5F5F5F5F5F5F5F5F5F5F5F5F5F5F5F5F5F5F5F5F5F5F5F5F5F5F5F5F5F5F5F5F5F5F5F5F5F5F5F5F5F5F5F5F5F5F5F5
310
F5F5F5F5F5F5F5F5F5F5F5F5F5F5F5F5F5F5F5F5F5F5F5F5E2E2F5F5F5F5F5F5F5F5F5F5F5ECF5F5F5F5F5F5F5F5DCF5F5F5F5F5F5F5ECF5F5F5F5F5F5F5F5F5F5F5F5E2F5F5F5F5F5F5E2F5F5F5F5F5F5F5F5F5F5F5F5F5F5F5F5E2F5F5F5F5E2E2F5F5F5F5E2F5F5F5F5F5F5F5F5F5F5F5F5F5F5F5F5E2F5F5F5F5F5F5F5
310
F5F5F5F5F5F5F5F5F5F5F5F5F5F5F5F5F5F5F5F5F5F5F5F5F5F5F5F5F5F5F5F5F5F5F5F5F5F5F5F5F5F5F5F5F5F5F5F5F5F5F5F5F5F5F5F5F5F5F5F5F5F5F5F5F5F5F5F5F5F5F5F5F5F5F5F5F5F5F5E2F5F5F5F5F5F5F5F5F5F5ECF5F5F5F5F5F5F5F5DCF5F5F5F5F5F5F5ECF5F5F5F5F5F5F5F5F5F5E2E2F5F5F5F5F5F5F5
310
E2F5F5F5F5F5F5F5F5F5F5F5F5F5F5F5F5E2F5F5F5F5E2E2F5F5F5F5E2F5F5F5F5F5F5F5F5F5F5F5F5F5F5F5F5E2F5F5F5F5F5F5F5F5F5F5F5F5F5F5F5F5F5F5F5F5F5F5F5F5F5F5F5F5F5F5F5F5F5F5F5F5F5F5F5F5F5F5F5F5F5F5F5F5F5F5F5F5F5F5F5F5F5F5F5F5F5F5F5F5F5F5F5F5F5F5F5F5F5F5F5F5F5F5F5F5F5
310
F5F5F5F5F5F5E2E2F5F5F5F5F5F5F5F5F5ECECECECECF5ECECECECECF5ECECECECECF5F5F5F5F5F5F5F5E2E2F5F5F5F5F5F5F5F5F5E2F5F5F5F5F5F5F5F5F5F5F5F5F5F5F5F5E2F5F5F5F5E2E2F5F5F5F5E2F5F5F5F5F5F5F5F5F5F5F5F5F5F5F5F5E2F5F5F5F5F5F5F5F5F5F5F5F5F5F5F5F5F5F5F5F5F5F5F5F5F5F5F5F5
310
F5F5F5F5F5F5F5F5F5F5F5F5F5F5F5F5F5F5F5F5F5F5F5F5F5F5F5F5F5F5F5F5F5F5F5F5F5F5F5F5F5F5F5F5F5F5F5F5F5F5F5F5F5F5F5F5F5F5F5F5F5E2E2F5F5F5F5F5F5F5ECF5F5F5F5F5F5F5DCF5F5F5F5F5F5F5ECF5F5F5F5F5F5F5E2F5F5F5F5F5F5F5F5F5F5F5E2F5F5F5F5F5F5F5F5F5F5F5F5F5F5F5F5E2F5F5F5
310
F5E2E2F5F5F5F5E2F5F5F5F5F5F5F5F5F5F5F5F5F5F5F5F5E2F5F5F5F5F5F5F5F5F5F5F5F5F5F5F5F5F5F5F5F5F5F5F5F5F5F5F5F5F5F5F5F5F5F5F5F5F5F5F5F5F5F5F5F5F5F5F5F5F5F5F5F5F5F5F5F5F5F5F5F5F5F5F5F5F5F5F5F5F5F5F5F5F5F5F5F5F5F5F5F5F5F5F5F5F5F5F5F5F5F5E2F5F5F5F5F5F5F5ECF5F5F5
310
F5F5F5F5DCF5F5F5F5F5F5F5ECF5F5F5F5F5F5F5E2F5F5F5F5F5F5F5F5F5F5F5E2F5F5F5F5F5F5F5F5F5F5F5F5F5F5F5F5E2F5F5F5F5E2E2F5F5F5F5E2F5F5F5F5F5F5F5F5F5F5F5F5F5F5F5F5E2F5F5F5F5F5F5F5F5F5F5F5F5F5F5F5F5F5F5F5F5F5F5F5F5F5F5F5F5F5F5F5F5F5F5F5F5F5F5F5F5F5F5F5F5F5F5F5F5F5
310
F5F5F5F5F5F5F5F5F5F5F5F5F5F5F5F5F5F5F5F5F5F5F5F5F5F5F5F5F5F5F5F5F5F5F5F5F5F5F5F5F5E2F5F5F5F5F5F5F5ECF5F5F5F5F5F5F5DCF5F5F5F5F5F5F5ECF5F5F5F5F5F5F5E2F5F5F5F5F5F5F5F5F5F5F5E2F5F5F5F5F5F5F5F5F5F5F5F5F5F5F5F5E2F5F5F5F5E2E2F5F5F5F5E2F5F5F5F5F5F5F5F5F5F5F5F5F5
310
F5F5F5E2F5F5F5F5F5F5F5F5F5F5F5F5F5F5F5F5F5F5F5F5F5F5F5F5F5F5F5F5F5F5F5F5F5F5F5F5F5F5F5F5F5F5F5F5F5F5F5F5F5F5F5F5F5F5F5F5F5F5F5F5F5F5F5F5F5F5F5F5F5F5F5F5F5F5F5F5F5F5F5F5F5F5F5F5F5F5F5F5F5F5E2F5F5F5F5F5F5F5ECF5F5F5F5E2E2E2E2E2E2E2F5F5F5F5ECF5F5F5F5F5F5F5E2
310
F5F5F5F5F5F5F5F5F5F5F5E2F5F5F5F5F5F5F5F5F5F5F5F5F5F5F5F5E2F5F5F5F5E2E2F5F5F5F5E2F5F5F5F5F5F5F5F5F5F5F5F5F5F5F5F5E2F5F5F5F5F5F5F5F5F5F5F5F5F5F5F5F5F5F5F5F5F5F5F5F5F5F5F5F5F5F5F5F5F5F5F5F5F5F5F5F5F5F5F5F5F5F5F5F5F5F5F5F5F5F5F5F5F5F5F5F5F5F5F5F5F5F5F5F5F5F5
310
F5F5F5F5F5F5F5F5F5F5F5F5F5F5F5F5F5F5F5F5E2F5F5F5F5F5F5F5ECECECECECECF5F5DCF5F5ECECECECECECF5F5F5F5F5F5F5E2F5F5F5F5F5F5F5F5F5F5F5E2F5F5F5F5F5F5F5F5F5F5F5F5F5F5F5F5E2F5F5F5F5E2E2F5F5F5F5E2F5F5F5F5F5F5F5F5F5F5F5F5F5F5F5F5E2F5F5F5F5F5F5F5F5F5F5F5F5F5F5F5F5F5
310
F5F5F5F5F5F5F5F5F5F5F5F5F5F5F5F5F5F5F5F5F5F5F5F5F5F5F5F5F5F5F5F5F5F5F5F5F5F5F5F5F5F5F5F5F5F5F5F5F5F5F5F5F5F5F5F5F5F5F5F5F5F5F5F5F5F5F5F5F5F5F5F5F5E2F5F5F5F5F5F5F5ECF5F5F5F5E2F5F5DCF5F5E2F5F5F5F5ECF5F5F5F5F5F5F5E2F5F5F5F5F5F5F5F5F5F5F5E2F5F5F5F5F5F5F5F5F5
310
F5F5F5F5F5F5F5E2F5F5F5F5E2E2F5F5F5F5E2F5F5F5F5F5F5F5F5F5F5F5F5F5F5F5F5E2F5F5F5F5F5F5F5F5F5F5F5F5F5F5F5F5F5F5F5F5F5F5F5F5F5F5F5F5F5F5F5F5F5F5F5F5F5F5F5F5F5F5F5F5F5F5F5F5F5F5F5F5F5F5F5F5F5F5F5F5F5F5F5F5F5F5F5F5F5F5F5F5F5F5F5F5F5F5F5F5F5F5F5F5F5F5F5F5F5F5E2
310
E2E2E2E2E2E2E2E2E2E2E2E2ECF5F5DCF5F5E2E2E2E2E2E2E2E2E2E2E2E2E2E2F5F5F5F5F5F5F5F5F5F5F5E2F5F5F5F5F5F5F5F5F5F5F5F5F5F5F5F5E2F5F5F5F5E2E2F5F5F5F5E2F5F5F5F5F5F5F5F5F5F5F5F5F5F5F5F5E2F5F5F5F5F5F5F5F5F5F5F5F5F5F5F5F5F5F5F5F5F5F5F5F5F5F5F5F5F5F5F5F5F5F5F5F5F5F5
310
F5F5F5F5F5F5F5F5F5F5F5F5F5F5F5F5F5F5F5F5F5F5F5F5F5F5F5F5F5F5F5F5F5F5F5F5F5F5F5F5F5F5F5F5F5F5F5F5F5F5F5F5F5F5F5F5F5F5F5F5F5F5F5F5F5F5F5F5DCF5F5F5F5F5F5F5F5F5F5F5F5F5F5F5F5F5F5F5F5F5F5F5F5F5F5F5E2F5F5F5F5F5F5F5F5F5F5F5F5F5F5F5F5E2F5F5F5F5E2E2F5F5F5F5F5F5F5
310
F5F5F5F5F5F5F5F5F5F5F5F5F5F5E2F5F5F5F5F5F5F5F5F5F5F5F5F5F5F5F5F5F5F5F5F5F5F5F5F5F5F5F5F5F5F5F5F5F5F5F5F5F5F5F5F5F5F5F5F5F5F5F5F5F5F5F5F5F5F5F5F5F5F5F5F5F5F5F5F5F5F5F5F5F5F5F5F5F5F5F5F5F5F5F5F5F5F5F5F5F5F5F5F5F5F5F5F5F5F5F5F5F5F5F5F5F5F5F5F5F5F5F5F5F5F5F5
310
F5F5F5F5F5F5F5F5F5F5F5F5F5F5F5F5F5F5F5F5F5F5E2F5F5F5F5F5F5F5F5F5F5F5F5F5F5F5F5F5F5F5F5F5E2E2F5F5F5F5F5F5F5F5F5F5F5F5F5F5F5F5F5F5F5F5F5E2F5F5F5F5F5F5F5F5F5F5F5F5F5F5F5F5F5F5F5F5F5F5F5F5F5F5F5F5F5F5F5F5F5F5F5F5F5F5F5F5F5F5F5F5F5F5F5F5F5F5F5F5F5F5F5F5F5F5F5
310
F5F5F5F5F5F5F5F5F5F5F5F5F5F5F5F5F5F5F5F5F5F5F5F5F5F5F5F5F5F5F5F5F5F5F5F5F5F5F5F5F5F5F5F5F5F5F5F5F5F5F5F5F5F5F5F5F5F5F5F5F5F5F5F5F5F5F5F5F5F5F5F5F5F5F5E2F5F5F5F5F5F5F5F5F5F5F5F5F5F5F5F5F5F5F5F5F5E2E2F5F5F5F5F5F5F5F5F5F5F5F5F5F5F5F5F5F5F5F5F5E2F5F5F5F5F5F5
310
F5F5F5F5F5F5F5F5F5F5F5F5F5F5F5F5F5F5F5F5F5F5F5F5F5F5F5F5F5F5F5F5F5F5F5F5F5F5F5F5F5F5F5F5F5F5F5F5F5F5F5F5F5F5F5F5F5F5F5F5F5F5F5F5F5F5F5F5F5F5F5F5F5F5F5F5F5F5F5F5F5F5F5F5F5F5F5F5F5F5F5F5F5F5F5F5F5F5F5F5F5F5F5F5F5F5F5F5F5F5F5F5F5F5F5F5F5F5F5F5F5F5F5F5F5F5F5
310
F5E2F5F5F5F5F5F5F5F5F5F5F5F5F5F5F5F5F5F5F5F5F5E2E2F5F5F5F5F5F5F5F5F5F5F5F5F5F5F5F5F5F5F5F5F5E2F5F5F5F5F5F5F5F5F5F5F5F5F5F5F5F5F5F5F5F5F5F5F5F5F5F5F5F5F5F5F5F5F5F5F5F5F5F5F5F5F5F5F5F5F5F5F5F5F5F5F5F5F5F5F5F5F5F5F5F5F5F5F5F5F5F5F5F5F5F5F5F5F5F5F5F5F5F5F5F5
310
F5F5F5F5F5F5F5F5F5F5F5F5F5F5F5F5F5F5F5F5F5F5F5F5F5F5F5F5F5F5F5F5F5F5F5F5F5F5F5F5F5F5F5F5F5F5F5F5F5F5F5F5F5F5E2F5F5F5F5F5F5F5F5F5F5F5F5F5F5F5F5F5F5F5F5F5E2E2F5F5F5F5F5F5F5F5F5F5F5F5F5F5F5F5F5F5F5F5F5E2F5F5F5F5F5F5F5F5F5F5F5F5F5F5F5F5F5F5F5F5F5F5F5F5F5F5F5
310
F5F5F5F5F5F5F5F5F5F5F5F5F5F5F5F5F5F5F5F5F5F5F5F5F5F5F5F5F5F5F5F5F5F5F5F5F5F5F5F5F5F5F5F5F5F5F5F5F5F5F5F5F5F5F5F5F5F5F5F5F5F5F5F5F5F5F5F5F5F5F5F5F5F5F5F5F5F5F5F5F5F5F5F5F5F5F5F5F5F5F5F5F5F5F5F5F5F5F5F5F5F5F5F5F5F5F5E2F5F5F5F5F5F5F5F5F5F5F5F5F5F5F5F5F5F5F5
310
F5F5E2E2F5F5F5F5F5F5F5F5F5F5F5F5F5F5F5F5F5F5F5F5F5E2F5F5F5F5F5F5F5F5F5F5F5F5F5F5F5F5F5F5F5F5F5F5F5F5F5F5F5F5F5F5F5F5F5F5F5F5F5F5F5F5F5F5F5F5F5F5F5F5F5F5F5F5F5F5F5F5F5F5F5F5F5F5F5F5F5F5F5F5F5F5F5F5F5F5F5F5F5F5F5F5F5F5F5F5F5F5F5F5F5F5F5F5F5F5F5F5F5F5F5F5F5
310
F5F5F5F5F5F5F5F5F5F5F5F5F5F5F5F5F5F5F5F5F5F5F5F5F5F5F5F5F5F5F5F5F5E2F5F5F5F5F5F5F5F5F5F5F5F5F5F5F5F5F5F5F5F5F5E2E2F5F5F5F5F5F5F5F5F5F5F5F5F5F5F5F5F5F5F5F5F5E2F5F5F5F5F5F5F5F5F5F5F5F5F5F5F5F5F5F5F5F5F5F5F5F5F5F5F5F5F5F5F5F5F5F5F5F5F5F5F5F5F5F5F5F5F5F5F5F5
310
F5F5F5F5F5F5F5F5F5F5F5F5F5F5F5F5F5F5F5F5F5F5F5F5F5F5F5F5F5F5F5F5F5F5F5F5F5F5F5F5F5F5F5F5F5F5F5F5F5F5F5F5F5F5F5F5F5F5F5F5F5F5F5F5F5F5F5F5F5F5F5F5F5F5F5F5F5F5F5F5F5F5F5F5F5F5E2F5F5F5F5F5F5F5F5F5F5F5F5F5F5F5F5F5F5F5F5F5E2E2F5F5F5F5F5F5F5F5F5F5F5F5F5F5F5F5F5
310
F5F5F5F5E2F5F5F5F5F5F5F5F5F5F5F5F5F5F5F5F5F5F5F5F5F5F5F5F5F5F5F5F5F5F5F5F5F5F5F5F5F5F5F5F5F5F5F5F5F5F5F5F5F5F5F5F5F5F5F5F5F5F5F5F5F5F5F5F5F5F5F5F5F5F5F5F5F5F5F5F5F5F5F5F5F5F5F5F5F5F5F5F5F5F5F5F5F5F5F5F5F5F5F5F5F5F5F5F5F5F5F5F5F5F5F5F5F5F5F5F5F5F5F5F5F5F5
310
F5F5F5F5F5F5F5F5F5F5F5F5E2F5F5F5F5F5F5F5F5F5F5F5F5F5F5F5F5F5F5F5F5F5E2E2F5F5F5F5F5F5F5F5F5F5F5F5F5F5F5F5F5F5F5F5F5E2F5F5F5F5F5F5F5F5F5F5F5F5F5F5F5F5F5F5F5F5F5F5F5F5F5F5F5F5F5F5F5F5F5F5F5F5F5F5F5F5F5F5F5F5F5F5F5F5F5F5F5F5F5F5F5F5F5F5F5F5F5F5F5F5F5F5F5F5F5
310
F5F5F5F5F5F5F5F5F5F5F5F5F5F5F5F5F5F5F5F5F5F5F5F5F5F5F5F5F5F5F5F5F5F5F5F5F5F5F5F5F5F5F5F5F5F5F5F5F5F5F5F5F5F5F5F5F5F5F5F5F5F5F5F5F5E2F5F5F5F5F5F5F5F5F5F5F5F5F5F5F5F5F5F5F5F5F5E2E2F5F5F5F5F5F5F5F5F5F5F5F5F5F5F5F5F5F5F5F5F5E2F5F5F5F5F5F5F5F5F5F5F5F5F5F5F5F5
310
F5F5F5F5F5F5F5F5F5F5F5F5F5F5F5F5F5F5F5F5F5F5F5F5F5F5F5F5F5F5F5F5F5F5F5F5F5F5F5F5F5F5F5F5F5F5F5F5F5F5F5F5F5F5F5F5F5F5F5F5F5F5F5F5F5F5F5F5F5F5F5F5F5F5F5F5F5F5F5F5F5F5F5F5F5F5F5F5F5F5F5F5F5F5F5F5F5F5F5F5F5F5F5F5F5F5F5F5F5F5F5F5F5F5F5F5F5F5E2F5F5F5F5F5F5F5F5
310
F5F5F5F5F5F5F5F5F5F5F5F5F5E2E2F5F5F5F5E2F5F5F5F5F5F5F5F5F5F5F5F5F5F5F5F5E2F5F5F5F5F5F5F5F5F5F5F5F5F5F5F5F5F5F5F5F5F5F5F5F5F5F5F5F5F5F5F5F5F5F5F5F5F5F5F5F5F5F5F5F5F5F5F5F5F5F5F5F5F5F5F5F5F5F5F5F5F5F5F5F5F5F5F5F5F5F5F5F5F5F5F5F5F5F5F5F5F5F5F5F5F5F5F5F5F5F5
310
F5F5F5F5F5F5F5F5F5F5F5F5F5F5F5F5F5F5F5F5F5F5F5F5F5F5F5F5F5F5F5F5F5F5F5F5F5F5F5F5F5F5F5F5E2F5F5F5F5F5F5F5F5F5F5F5F5F5F5F5F5E2F5F5F5F5E2E2F5F5F5F5E2F5F5F5F5F5F5F5F5F5F5F5F5F5F5F5F5E2F5F5F5F5F5F5F5F5F5F5F5F5F5F5F5F5F5F5F5F5F5F5F5F5F5F5F5F5F5F5F5F5F5F5F5F5F5
310
F5F5F5F5F5F5F5F5F5F5F5F5F5F5F5F5F5F5F5F5F5F5F5F5F5F5F5F5F5F5F5F5F5F5F5F5F5F5F5F5F5F5F5F5F5F5F5F5F5F5F5F5F5F5F5F5F5F5F5F5F5F5F5F5F5F5F5F5F5F5F5F5F5F5F5F5F5F5F5F5F5F5F5F5F5F5F5F5F5F5F5F5F5F5F5F5F5E2F5F5F5F5F5F5F5F5F5F5F5F5F5F5F5F5E2F5F5F5F5E2E2F5F5F5F5E2F5
310
F5F5F5F5F5F5F5F5F5F5F5F5F5F5F5E2F5F5F5F5F5F5F5F5F5F5F5F5F5F5F5F5F5F5F5F5F5F5F5F5F5F5F5F5F5F5F5F5F5F5F5F5F5F5F5F5F5F5F5F5F5F5F5F5F5F5F5F5F5F5F5F5F5F5F5F5F5F5F5F5F5F5F5F5F5F5F5F5F5F5F5F5F5F5F5F5F5F5F5F5F5F5F5F5F5F5F5F5F5F5F5F5F5F5F5F5F5F5F5F5F5F5F5F5F5F5F5
310
F5F5F5F5F5F5F5F5F5F5F5F5F5F5F5F5F5F5F5F5F5F5F5E2F5F5F5F5F5F5F5F5F5F5F5F5F5F5F5F5E2F5F5F5F5E2E2F5F5F5F5E2F5F5F5F5F5F5F5F5F5F5F5F5F5F5F5F5E2F5F5F5F5F5F5F5F5F5F5F5F5F5F5F5F5F5F5F5F5F5F5F5F5F5F5F5F5F5F5F5F5F5F5F5F5F5F5F5F5F5F5F5F5F5F5F5F5F5F5F5F5F5F5F5F5F5F5
310
F5F5F5F5F5F5F5F5F5F5F5F5F5F5F5F5F5F5F5F5F5F5F5F5F5F5F5F5F5F5F5F5F5F5F5F5F5F5F5F5F5F5F5F5F5F5F5F5F5F5F5F5F5F5F5F5F5F5F5F5F5F5F5F5F5F5F5F5F5F5F5F5F5F5F5F5E2F5F5F5F5F5F5F5F5F5F5F5F5F5F5F5F5E2F5F5F5F5E2E2F5F5F5F5E2F5F5F5F5F5F5F5F5F5F5F5F5F5F5F5F5E2F5F5F5F5F5
310
F5F5F5F5F5F5F5F5F5F5F5F5F5F5F5F5F5F5F5F5F5F5F5F5F5F5F5F5F5F5F5F5F5F5F5F5F5F5F5F5F5F5F5F5F5F5F5F5F5F5F5F5F5F5F5F5F5F5F5F5F5F5F5F5F5F5F5F5F5F5F5F5F5F5F5F5F5F5F5F5F5F5F5F5F5F5F5F5F5F5F5F5F5F5F5F5F5F5F5F5F5F5F5F5F5F5F5F5F5F5F5F5F5F5F5F5F5F5F5F5F5F5F5F5F5F5F5
310
F5F5E2F5F5F5F5F5F5F5F5F5F5F5F5F5F5F5F5E2F5F5F5F5E2E2F5F5F5F5E2F5F5F5F5F5F5F5F5F5F5F5F5F5F5F5F5E2F5F5F5F5F5F5F5F5F5F5F5F5F5F5F5F5F5F5F5F5F5F5F5F5F5F5F5F5F5F5F5F5F5F5F5F5F5F5F5F5F5F5F5F5F5F5F5F5F5F5F5F5F5F5F5F5F5F5F5F5F5F5F5F5F5F5F5F5F5F5F5F5F5F5F5F5F5F5F5
310
F5F5F5F5F5F5F5F5F5F5F5F5F5F5F5F5F5F5F5F5F5F5F5F5F5F5F5F5F5F5F5F5F5F5F5F5F5F5F5F5F5F5F5F5F5F5F5F5F5F5F5F5F5F5F5E2F5F5F5F5F5F5F5F5F5F5F5F5F5F5F5F5E2F5F5F5F5E2E2F5F5F5F5E2F5F5F5F5F5F5F5F5F5F5F5F5F5F5F5F5E2F5F5F5F5F5F5F5F5F5F5F5F5F5F5F5F5F5F5F5F5F5F5F5F5F5F5
310
F5F5F5F5F5F5F5F5F5F5F5F5F5F5F5F5F5F5F5F5F5F5F5F5F5F5F5F5F5F5F5F5F5F5F5F5F5F5F5F5F5F5F5F5F5F5F5F5F5F5F5F5F5F5F5F5F5F5F5F5F5F5F5F5F5F5F5F5F5F5F5F5F5F5F5F5F5F5F5F5F5F5F5F5F5F5F5F5F5F5F5F5F5F5F5F5F5F5F5F5F5F5F5F5F5F5F5F5E2F5F5F5F5F5F5F5F5F5F5F5F5F5F5F5F5E2F5
310
F5F5F5E2E2F5F5F5F5E2F5F5F5F5F5F5F5F5F5F5F5F5F5F5F5F5E2F5F5F5F5F5F5F5F5F5F5F5F5F5F5F5F5F5F5F5F5F5F5F5F5F5F5F5F5F5F5F5F5F5F5F5F5F5F5F5F5F5F5F5F5F5F5F5F5F5F5F5F5F5F5F5F5F5F5F5F5F5F5F5F5F5F5F5F5F5F5F5F5F5F5F5F5F5F5F5F5F5F5F5F5F5F5F5F5F5F5F5F5F5F5F5F5F5F5F5F5
310
F5F5F5F5F5F5F5F5F5F5F5F5F5F5F5F5F5F5F5F5F5F5F5F5F5F5F5F5F5F5F5F5F5F5E2F5F5F5F5F5F5F5F5F5F5F5F5F5F5F5F5E2F5F5F5F5E2E2F5F5F5F5E2F5F5F5F5F5F5F5F5F5F5F5F5F5F5F5F5E2F5F5F5F5F5F5F5F5F5F5F5F5F5F5F5F5F5F5F5F5F5F5F5F5F5F5F5F5F5F5F5F5F5F5F5F5F5F5F5F5F5F5F5F5F5F5F5
310
F5F5F5F5F5F5F5F5F5F5F5F5F5F5F5F5F5F5F5F5F5F5F5F5F5F5F5F5F5F5F5F5F5F5F5F5F5F5F5F5F5F5F5F5F5F5F5F5F5F5F5F5F5F5F5F5F5F5F5F5F5F5F5F5F5F5F5F5F5F5F5F5F5F5F5F5F5F5F5F5F5F5F5F5F5F5F5E2F5F5F5F5F5F5F5F5F5F5F5F5F5F5F5F5E2F5F5F5F5E2E2F5F5F5F5E2F5F5F5F5F5F5F5F5F5F5F5
310
F5F5F5F5F5E2F5F5F5F5F5F5F5F5F5F5F5F5F5F5F5F5F5F5F5F5F5F5F5F5F5F5F5F5F5F5F5F5F5F5F5F5F5F5F5F5F5F5F5F5F5F5F5F5F5F5F5F5F5F5F5F5F5F5F5F5F5F5F5F5F5F5F5F5F5F5F5F5F5F5F5F5F5F5F5F5F5F5F5F5F5F5F5F5F5F5F5F5F5F5F5F5F5F5F5F5F5F5F5F5F5F5F5F5F5F5F5F5F5F5F5F5F5F5F5F5F5
310
F5F5F5F5F5F5F5F5F5F5F5F5F5E2F5F5F5F5F5F5F5F5F5F5F5F5F5F5F5F5E2F5F5F5F5E2E2F5F5F5F5E2F5F5F5F5F5F5F5F5F5F5F5F5F5F5F5F5E2F5F5F5F5F5F5F5F5F5F5F5F5F5F5F5F5F5F5F5F5F5F5F5F5F5F5F5F5F5F5F5F5F5F5F5F5F5F5F5F5F5F5F5F5F5F5F5F5F5F5F5F5F5F5F5F5F5F5F5F5F5F5F5F5F5F5F5F5
310
F5F5F5F5F5F5F5F5F5F5F5F5F5F5F5F5F5F5F5F5F5F5F5F5F5F5F5F5F5F5F5F5F5F5F5F5F5F5F5F5F5F5F5F5F5F5F5F5F5F5F5F5F5F5F5F5F5F5F5F5F5F5F5F5F5F5E2F5F5F5F5F5F5F5F5F5F5F5F5F5F5F5F5E2F5F5F5F5E2E2F5F5F5F5E2F5F5F5F5F5F5F5F5F5F5F5F5F5F5F5F5E2F5F5F5F5F5F5F5F5F5F5F5F5F5F5F5
310
F5F5F5F5F5F5F5F5F5F5F5F5F5F5F5F5F5F5F5F5F5F5F5F5F5F5F5F5F5F5F5F5F5F5F5F5F5F5F5F5F5F5F5F5F5F5F5F5F5F5F5F5F5F5F5F5F5F5F5F5F5F5F5F5F5F5F5F5F5F5F5F5F5F5F5F5F5F5F5F5F5F5F5F5F5F5F5F5F5F5F5F5F5F5F5F5F5F5F5F5F5F5F5F5F5F5F5F5F5F5F5F5F5F5F5F5F5F5F5E2F5F5F5F5F5F5F5
310
F5F5F5F5F5F5F5F5F5E2F5F5F5F5E2E2F5F5F5F5E2F5F5F5F5F5F5F5F5F5F5F5F5F5F5F5F5E2F5F5F5F5F5F5F5F5F5F5F5F5F5F5F5F5F5F5F5F5F5F5F5F5F5F5F5F5F5F5F5F5F5F5F5F5F5F5F5F5F5F5F5F5F5F5F5F5F5F5F5F5F5F5F5F5F5F5F5F5F5F5F5F5F5F5F5F5F5F5F5F5F5F5F5F5F5F5F5F5F5F5F5F5F5F5F5F5F5
310
F5F5F5F5F5F5F5F5F5F5F5F5F5F5F5F5F5F5F5F5F5F5F5F5F5F5F5F5F5F5F5F5F5F5F5F5F5F5F5F5F5F5F5F5F5E2F5F5F5F5F5F5F5F5F5F5F5F5F5F5F5F5E2F5F5F5F5E2E2F5F5F5F5E2F5F5F5F5F5F5F5F5F5F5F5F5F5F5F5F5E2F5F5F5F5F5F5F5F5F5F5F5F5F5F5F5F5F5F5F5F5F5F5F5F5F5F5F5F5F5F5F5F5F5F5F5F5
310
F5F5F5F5F5F5F5F5F5F5F5F5F5F5F5F5F5F5F5F5F5F5F5F5F5F5F5F5F5F5F5F5F5F5F5F5F5F5F5F5F5F5F5F5F5F5F5F5F5F5F5F5F5F5F5F5F5F5F5F5F5F5F5F5F5F5F5F5F5F5F5F5F5F5F5F5F5F5F5F5F5F5F5F5F5F5F5F5F5F5F5F5F5F5F5F5F5F5E2F5F5F5F5F5F5F5F5F5F5F5F5F5F5F5F5E2F5F5F5F5E2E2F5F5F5F5E2
310
F5F5F5F5F5F5F5F5F5F5F5F5F5F5F5F5E2F5F5F5F5F5F5F5F5F5F5F5F5F5F5F5F5F5F5F5F5F5F5F5F5F5F5F5F5F5F5F5F5F5F5F5F5F5F5F5F5F5F5F5F5F5F5F5F5F5F5F5F5F5F5F5F5F5F5F5F5F5F5F5F5F5F5F5F5F5F5F5F5F5F5F5F5F5F5F5F5F5F5F5F5F5F5F5F5F5F5F5F5F5F5F5F5F5F5F5F5F5F5F5F5F5F5F5F5F5F5
310
F5F5F5F5F5F5F5F5F5F5F5F5F5F5F5F5F5F5F5F5F5F5F5F5E2F5F5F5F5F5F5F5F5F5F5F5F5F5F5F5F5E2F5F5F5F5E2E2F5F5F5F5E2F5F5F5F5F5F5F5F5F5F5F5F5F5F5F5F5E2F5F5F5F5F5F5F5F5F5F5F5F5F5F5F5F5F5F5F5F5F5F5F5F5F5F5F5F5F5F5F5F5F5F5F5F5F5F5F5F5F5F5F5F5F5F5F5F5F5F5F5F5F5F5F5F5F5
310
F5F5F5F5F5F5F5F5F5F5F5F5F5F5F5F5F5F5F5F5F5F5F5F5F5F5F5F5F5F5F5F5F5F5F5F5F5F5F5F5F5F5F5F5F5F5F5F5F5F5F5F5F5F5F5F5F5F5F5F5F5F5F5F5F5F5F5F5F5F5F5F5F5F5F5F5F5E2F5F5F5F5F5F5F5F5F5F5F5F5F5F5F5F5E2F5F5F5F5E2E2F5F5F5F5F5F5F5F5F5F5F5F5F5F5F5F5F5F5F5F5F5E2F5F5F5F5
310
F5F5F5F5F5F5F5F5F5F5F5F5F5F5F5F5F5F5F5F5F5F5F5F5F5F5F5F5F5F5F5F5F5F5F5F5F5F5F5F5F5F5F5F5F5F5F5F5F5F5F5F5F5F5F5F5F5F5F5F5F5F5F5F5F5F5F5F5F5F5F5F5F5F5F5F5F5F5F5F5F5F5F5F5F5F5F5F5F5F5F5F5F5F5F5F5F5F5F5F5F5F5F5F5F5F5F5F5F5F5F5F5F5F5F5F5F5F5F5F5F5F5F5F5F5F5F5
310
F5F5F5E2F5F5F5F5F5F5F5F5F5F5F5F5F5F5F5F5F5F5F5F5F5E2E2F5F5F5F5F5F5F5F5F5F5F5F5F5F5F5F5F5F5F5F5F5E2F5F5F5F5F5F5F5F5F5F5F5F5F5F5F5F5F5F5F5F5F5F5F5F5F5F5F5F5F5F5F5F5F5F5F5F5F5F5F5F5F5F5F5F5F5F5F5F5F5F5F5F5F5F5F5F5F5F5F5F5F5F5F5F5F5F5F5F5F5F5F5F5F5F5F5F5F5F5
310
F5F5F5F5F5F5F5F5F5F5F5F5F5F5F5F5F5F5F5F5F5F5F5F5F5F5F5F5F5F5F5F5F5F5F5F5F5F5F5F5F5F5F5F5F5F5F5F5F5F5F5F5F5F5F5F5E2F5F5F5F5F5F5F5F5F5F5F5F5F5F5F5F5F5F5F5F5F5E2E2F5F5F5F5F5F5F5F5F5F5F5F5F5F5F5F5F5F5F5F5F5E2F5F5F5F5F5F5F5F5F5F5F5F5F5F5F5F5F5F5F5F5F5F5F5F5F5
310
F5F5F5F5F5F5F5F5F5F5F5F5F5F5F5F5F5F5F5F5F5F5F5F5F5F5F5F5F5F5F5F5F5F5F5F5F5F5F5F5F5F5F5F5F5F5F5F5F5F5F5F5F5F5F5F5F5F5F5F5F5F5F5F5F5F5F5F5F5F5F5F5F5F5F5F5F5F5F5F5F5F5F5F5F5F5F5F5F5F5F5F5F5F5F5F5F5F5F5F5F5F5F5F5F5F5F5F5F5E2F5F5F5F5F5F5F5F5F5F5F5F5F5F5F5F5F5
310
F5F5F5F5E2E2F5F5F5F5F5F5F5F5F5F5F5F5F5F5F5F5F5F5F5F5F5E2F5F5F5F5F5F5F5F5F5F5F5F5F5F5F5F5F5F5F5F5F5F5F5F5F5F5F5F5F5F5F5F5F5F5F5F5F5F5F5F5F5F5F5F5F5F5F5F5F5F5F5F5F5F5F5F5F5F5F5F5F5F5F5F5F5F5F5F5F5F5F5F5F5F5F5F5F5F5F5F5F5F5F5F5F5F5F5F5F5F5F5F5F5F5F5F5F5F5F5
310
F5F5F5F5F5F5F5F5F5F5F5F5F5F5F5F5F5F5F5F5F5F5F5F5F5F5F5F5F5F5F5F5F5F5F5E2F5F5F5F5F5F5F5F5F5F5F5F5F5F5F5F5F5F5F5F5F5E2E2F5F5F5F5F5F5F5F5F5F5F5F5F5F5F5F5F5F5F5F5F5E2E2E2E2E2E2E2E2E2E2E2E2E2E2E2E2E2E2E2E2E2E2E2E2E2E2E2E2E2E2E2E2E2E2E2E2E2E2E2E2E2E2E2E2E2E2E2
310
E2E2E2E2E2E2E2E2E2E2E2E2E2E2E2E2E2E2E2E2E2E2E2E2E2E2E2E2E2E2E2E2E2E2E2E2E2E2E2E2E2E2E2E2E2E2E2E2E2E2E2E2E2E2E2E2E2E2E2E2E2E2E2E2E2E2E2E2E2E2E2E2E2E2E2E2E2E2E2E2E2E2E2E2E2E2E2E2E2F5F5F5F5F5F5F5F5F5F5F5F5F5F5F5F5F5F5F5F5F5E2E2F5F5F5F5F5F5F5F5F5F5F5F5F5F5F5
310
F5F5F5F5F5F5F5F5F5F5F5F5F5F5F5F5F5F5F5F5F5F5F5F5F5F5F5F5F5F5F5F5F5F5F5F5F5F5F5F5F5F5F5F5F5F5F5F5F5F5F5F5F5F5F5F5F5F5F5F5F5F5F5F5F5F5F5F5F5F5F5F5F5F5F5F5F5F5F5F5F5F5F5F5F5F5F5F5F5F5F5F5F5F5F5F5F5F5F5F5F5F5F5F5F5F5F5F5F5F5F5F5F5F5F5F5F5F5F5F5F5F5F5F5F5F5F5
310
F5F5F5F5F5F5F5F5F5F5F5F5F5F5F5F5F5F5F5F5F5F5F5F5F5F5F5F5F5F5F5F5F5F5F5F5E2E2F5F5F5F5F5F5F5F5F5F5F5F5F5F5F5F5F5F5F5F5F5F5F5F5F5F5F5F5F5F5F5F5F5F5F5F5F5F5F5F5F5F5F5F5F5F5F5F5F5F5F5F5F5F5F5F5F5F5F5F5F5F5F5F5F5F5F5F5F5F5F5F5F5F5F5F5F5F5F5F5F5F5F5F5F5F5F5F5F5
310
F5F5F5F5F5F5F5F5F5F5F5F5F5F5F5F5F5F5F5F5F5F5F5F5F5F5F5F5F5F5F5F5F5F5F5F5F5F5F5F5F5F5F5F5F5F5F5F5F5F5F5F5F5F5F5F5F5F5F5F5F5F5F5F5F5F5F5F5F5F5F5F5F5F5F5F5F5F5F5F5F5F5F5F5F5F5F5F5F5E2E2F5F5F5F5F5F5F5F5F5F5F5F5F5F5F5F5F5F5F5F5F5F5F5F5F5F5F5F5F5F5F5F5F5F5F5F5
310
F5F5F5F5F5F5F5F5F5F5F5F5F5F5F5F5F5F5F5F5F5F5F5F5F5F5F5F5F5F5F5F5F5F5F5F5F5F5F5F5F5F5F5F5F5F5F5F5F5F5F5F5F5F5F5F5F5F5F5F5F5F5F5F5F5F5F5F5F5F5F5F5F5F5F5F5F5F5F5F5F5F5F5F5F5F5F5F5F5F5F5F5F5F5F5F5F5F5F5F5F5F5F5F5F5F5F5F5F5F5F5F5F5F5F5F5F5F5F5F5F5F5F5F5F5F5F5
310
F5F5F5F5F5F5F5F5F5F5F5F5F5F5F5E2E2F5F5F5F5F5F5F5F5F5F5F5F5F5F5F5F5F5F5F5F5F5F5F5F5F5F5F5F5F5F5F5F5F5F5F5F5F5F5F5F5F5F5F5F5F5F5F5F5F5F5F5F5F5F5F5F5F5F5F5F5F5F5F5F5F5F5F5F5F5F5F5F5F5F5F5F5F5F5F5F5F5F5F5F5F5F5F5F5F5F5F5F5F5F5F5F5F5F5F5F5F5F5F5F5F5F5F5F5F5F5
310
F5F5F5F5F5F5F5F5F5F5F5F5F5F5F5F5F5F5F5F5F5F5F5F5F5F5F5F5F5F5F5F5F5F5F5F5F5F5F5F5F5F5F5F5F5F5F5F5F5F5F5F5F5F5F5F5F5F5F5F5F5F5F5F5F5F5F5F5E2E2F5F5F5F5E2F5F5F5F5F5F5F5F5F5F5F5F5F5F5F5F5F5F5F5F5F5F5F5F5F5F5F5F5F5F5F5F5F5F5F5F5F5F5F5F5F5F5F5F5F5F5F5F5F5F5F5F5
310
F5F5F5F5F5F5F5F5F5F5F5F5F5F5F5F5F5F5F5F5F5F5F5F5F5F5F5F5F5F5F5F5F5F5F5F5F5F5F5F5F5F5F5F5F5F5F5F5F5F5F5F5F5F5F5F5F5F5F5F5F5F5F5F5F5F5F5F5F5F5F5F5F5F5F5F5F5F5F5F5F5F5F5F5F5F5F5F5F5F5F5F5F5F5F5F5F5F5F5F5F5F5F5F5F5F5F5F5F5F5F5F5F5F5F5F5E2F5F5F5F5E2E2F5F5F5F5
310
E2F5F5F5F5F5F5F5F5F5F5F5F5F5F5F5F5F5F5F5F5F5F5F5F5F5F5F5F5F5F5F5F5F5F5F5F5F5F5F5F5F5F5F5F5F5F5F5F5F5F5F5F5F5F5F5F5F5F5F5F5F5F5F5F5F5F5F5F5F5F5F5F5F5F5F5F5F5F5F5F5F5F5F5F5F5F5F5F5F5F5F5F5F5F5F5F5F5F5F5F5F5F5F5F5F5F5F5F5F5F5F5F5F5F5F5F5F5F5F5F5F5F5F5F5F5F5
310
F5F5F5F5F5F5F5F5F5F5F5F5F5F5F5F5F5F5F5F5F5F5F5F5F5F5F5F5F5F5F5F5F5F5F5F5F5F5F5F5F5F5E2F5F5F5F5E2E2F5F5F5F5E2F5F5F5F5F5F5F5F5F5F5F5F5F5F5F5F5F5F5F5F5F5F5F5F5F5F5F5F5F5F5F5F5F5F5F5F5F5F5F5F5F5F5F5F5F5F5F5F5F5F5F5F5F5F5F5F5F5F5F5F5F5F5F5F5F5F5F5F5F5F5F5F5F5
310
F5F5F5F5F5F5F5F5F5F5F5F5F5F5F5F5F5F5F5F5F5F5F5F5F5F5F5F5F5F5F5F5F5F5F5F5F5F5F5F5F5F5F5F5F5F5F5F5F5F5F5F5F5F5F5F5F5F5F5F5F5F5F5F5F5F5F5F5F5F5F5F5F5F5F5F5F5F5F5F5F5F5F5F5F5F5F5F5F5F5F5F5F5F5F5E2F5F5F5F5E2E2F5F5F5F5E2F5F5F5F5F5F5F5F5F5F5F5F5F5F5F5F5F5F5F5F5
310
F5F5F5F5F5F5F5F5F5F5F5F5F5F5F5F5F5F5F5F5F5F5F5F5F5F5F5F5F5F5F5F5F5F5F5F5F5F5F5F5F5F5F5F5F5F5F5F5F5F5F5F5F5F5F5F5F5F5F5F5F5F5F5F5F5F5F5F5F5F5F5F5F5F5F5F5F5F5F5F5F5F5F5F5F5F5F5F5F5F5F5F5F5F5F5F5F5F5F5F5F5F5F5F5F5F5F5F5F5F5F5F5F5F5F5F5F5F5F5F5F5F5F5F5F5F5F5
310
F5F5F5F5F5F5F5F5F5F5F5F5F5F5F5F5F5F5F5F5F5E2F5F5F5F5E2E2F5F5F5F5E2F5F5F5F5F5F5F5F5F5F5F5F5F5F5F5F5F5F5F5F5F5F5F5F5F5F5F5F5F5F5F5F5F5F5F5F5F5F5F5F5F5F5F5F5F5F5F5F5F5F5F5F5F5F5F5F5F5F5F5F5F5F5F5F5F5F5F5F5F5F5F5F5F5F5F5F5F5F5F5F5F5F5F5F5F5F5F5F5F5F5F5F5F5F5
310
F5F5F5F5F5F5F5F5F5F5F5F5F5F5F5F5F5F5F5F5F5F5F5F5F5F5F5F5F5F5F5F5F5F5F5F5F5F5F5F5F5F5F5F5F5F5F5F5F5F5F5F5F5F5F5F5F5F5F5F5F5F5F5F5F5F5F5F5F5F5F5F5F5F5E2F5F5F5F5E2E2F5F5F5F5E2F5F5F5F5F5F5F5F5F5F5F5F5F5F5F5F5F5F5F5F5F5F5F5F5F5F5F5F5F5F5F5F5F5F5F5F5F5F5F5F5F5
310
F5F5F5F5F5F5F5F5F5F5F5F5F5F5F5F5F5F5F5F5F5F5F5F5F5F5F5F5F5F5F5F5F5F5F5F5F5F5F5F5F5F5F5F5F5F5F5F5F5F5F5F5F5F5F5F5F5F5F5F5F5F5F5F5F5F5F5F5F5F5F5F5F5F5F5F5F5F5F5F5F5F5F5F5F5F5F5F5F5F5F5F5F5F5F5F5F5F5F5F5F5F5F5F5F5F5F5F5F5F5F5F5F5F5F5F5F5F5F5F5F5F5F5F5F5F5F5
310
E2F5F5F5F5E2E2F5F5F5F5E2F5F5F5F5F5F5F5F5F5F5F5F5F5F5F5F5F5F5F5F5F5F5F5F5F5F5F5F5F5F5F5F5F5F5F5F5F5F5F5F5F5F5F5F5F5F5F5F5F5F5F5F5F5F5F5F5F5F5F5F5F5F5F5F5F5F5F5F5F5F5F5F5F5F5F5F5F5F5F5F5F5F5F5F5F5F5F5F5F5F5F5F5F5F5F5F5F5F5F5F5F5F5F5F5F5F5F5F5F5F5F5F5F5F5F5
310
F5F5F5F5F5F5F5F5F5F5F5F5F5F5F5F5F5F5F5F5F5F5F5F5F5F5F5F5F5F5F5F5F5F5F5F5F5F5F5F5F5F5F5F5F5F5F5F5F5F5F5F5F5E2F5F5F5F5E2E2F5F5F5F5E2F5F5F5F5F5F5F5F5F5F5F5F5F5F5F5F5F5F5F5F5F5F5F5F5F5F5F5F5F5F5F5F5F5F5F5F5F5F5F5F5F5F5F5F5F5F5F5F5F5F5F5F5F5F5F5F5F5F5F5F5F5F5
310
F5F5F5F5F5F5F5F5F5F5F5F5F5F5F5F5F5F5F5F5F5F5F5F5F5F5F5F5F5F5F5F5F5F5F5F5F5F5F5F5F5F5F5F5F5F5F5F5F5F5F5F5F5F5F5F5F5F5F5F5F5F5F5F5F5F5F5F5F5F5F5F5F5F5F5F5F5F5F5F5F5F5F5F5F5F5F5F5F5F5F5F5F5F5F5F5F5F5F5F5F5F5F5F5F5F5E2F5F5F5F5E2E2F5F5F5F5E2E2E2E2E2E2E2E2F5F5
310
F5F5F5F5F5F5F5E2E2E2E2E2E2E2E2E2E2E2E2E2E2E2F5F5F5F5F5F5F5F5F5E2E2E2E2E2E2E2E2E2E2E2E2E2E2E2E2F5F5F5F5F5F5F5F5E2E2E2E2E2E2E2E2E2E2E2E2E2E2E2E2F5F5F5F5F5F5F5F5E2E2E2E2E2E2E2E2E2E2E2E2E2E2E2E2F5F5F5F5F5F5F5F5E2E2E2E2E2E2E2E2E2E2E2E2E2E2E2E2F5F5F5F5F5F5F5F5
310
F5E2E2E2E2E2E2E2E2E2E2E2E2E2E2E2F5F5F5F5F5F5F5F5F5E2E2E2E2E2E2E2E2F5F5F5F5E2E2F5F5F5F5F5F5F5F5F5F5F5F5F5F5F5F5F5F5F5F5F5F5F5F5F5F5F5F5F5F5F5F5F5F5F5F5F5F5F5F5F5F5F5F5F5F5F5F5F5F5F5F5F5F5F5F5F5F5F5F5F5F5F5F5F5F5F5F5F5F5F5F5F5F5F5F5F5F5F5F5F5F5F5F5F5F5F5F5
310
F5F5F5F5F5F5F5F5F5F5F5F5F5F5F5F5F5F5F5F5F5F5F5F5F5F5F5F5F5F5F5F5F5F5F5F5F5F5F5F5F5F5F5F5F5F5F5F5F5F5F5F5F5F5F5F5F5F5F5F5F5F5F5F5F5F5F5F5F5F5F5F5F5F5F5F5F5F5F5F5F5F5F5F5F5F5F5F5F5F5E2E2F5F5F5F5F5F5F5F5F5F5F5F5F5F5F5F5F5F5F5F5F5F5F5F5F5F5F5F5F5F5F5F5F5F5F5
310
F5F5F5F5F5F5F5F5F5F5F5F5F5F5F5F5F5F5F5F5F5F5F5F5F5F5F5F5F5F5F5F5F5F5F5F5F5F5F5F5F5F5F5F5F5F5F5F5F5F5F5F5F5F5F5F5F5F5F5F5F5F5F5F5F5F5F5F5F5F5F5F5F5F5F5F5F5F5F5F5F5F5F5F5F5F5F5F5F5F5F5F5F5F5F5F5F5F5F5F5F5F5F5F5F5F5F5F5F5F5F5F5F5F5F5F5F5F5F5F5F5F5F5F5F5F5F5
310
F5F5F5F5F5F5F5F5F5F5F5F5F5F5F5F5E2E2F5F5F5F5F5F5F5F5F5F5F5F5F5F5F5F5F5F5F5F5F5F5F5F5F5F5F5F5F5F5F5F5F5F5F5F5F5F5F5F5F5F5F5F5F5F5F5F5F5F5F5F5F5F5F5F5F5F5F5F5F5F5F5F5F5F5F5F5F5F5F5F5F5F5F5F5F5F5F5F5F5F5F5F5F5F5F5F5F5F5F5F5F5F5F5F5F5F5F5F5F5F5F5F5F5F5F5F5F5
310
F5F5F5F5F5F5F5F5F5F5F5F5F5F5F5F5F5F5F5F5F5F5F5F5F5F5F5F5F5F5F5F5F5F5F5F5F5F5F5F5F5F5F5F5F5F5F5F5F5F5F5F5F5F5F5F5F5F5F5F5F5F5F5F5F5F5F5F5F5E2E2E2E2E2E2E2E2E2E2E2E2E2E2E2E2E2E2E2E2E2E2E2E2E2E2E2E2E2E2E2E2E2E2E2E2E2E2E2E2E2E2E2E2E2E2E2E2E2E2E2E2E2E2E2E2E2E2
310
E2E2E2E2E2E2E2E2E2E2E2E2E2E2E2E2E2E2E2E2E2E2E2E2E2E2E2E2E2E2E2E2E2E2E2E2E2E2E2E2E2E2E2E2E2E2E2E2E2E2E2E2E2E2E2E2E2E2E2E2E2E2E2E2E2E2E2E2E2E2E2E2E2E2E2E2E2E2E2E2E2E2E2E2E2E2E2E2E2E2E2E2E2E2E2E2E2E2E2E2E2E2E2E2E2E2E2E2E2E2E2E2E2E2E2E2E2E2E2E2E2E2E2EFEFEFEF
310
EFEFEFEFEFEFEFEFEFEFEFEFEFEFEFEFEFEFEFEFEFEFEFEFEFEFEFEFEFEFEFEFEFEFEFEFEFEFEFEFEFEFEFEFEFEFEFEFEFEFEFEFEFEFEFEFEFEFEFEFEFEFEFEFEFEFEFEFEFEFEFEFEFEFEFEFEFEFEFEFEFEFEFEFEFEFEFEFEFEFEFEFEFEFEFEFEFEFEFEFEFEFEFEFEFEFEFEFEFEFEFEFEFEFEFEFEFEFEFEFEFEFEFEFEFEFEF
310
EFEFEFEFEFEFEFEFEFEFEFEFEFEFEFEFEFEFEFEFEFEFEFEFEFEFEFEFEFEFEFEFEFEFEFEFEFEFEFEFEFEFEFEFEFEFEFEFEF
  0
XRECORD
  5
61E3B
102
{ACAD_REACTORS
330
B5
102
}
330
B5
100
AcDbXrecord
280
     1
102
SHADEPLOT
 70
     0
102
SHADEPLOTRESLEVEL
 70
     2
102
SHADEPLOTCUSTOMDPI
 70
   300
  0
XRECORD
  5
B6
102
{ACAD_REACTORS
330
B5
102
}
330
B5
100
AcDbXrecord
280
     1
310
28000000B40000008B0000000100080000000000BC610000000000000000000000010000000000000000000000000000FFFFFF000000000000000000000000000000000000000000000000000000000000000000330000006600000099000000CC000000FF00000000330000333300006633000099330000CC330000FF3300
310
0000660000336600006666000099660000CC660000FF66000000990000339900006699000099990000CC990000FF99000000CC000033CC000066CC000099CC0000CCCC0000FFCC000000FF000033FF000066FF000099FF0000CCFF0000FFFF000000003300330033006600330099003300CC003300FF003300003333003333
310
33006633330099333300CC333300FF33330000663300336633006666330099663300CC663300FF66330000993300339933006699330099993300CC993300FF99330000CC330033CC330066CC330099CC3300CCCC3300FFCC330000FF330033FF330066FF330099FF3300CCFF3300FFFF330000006600330066006600660099
310
006600CC006600FF00660000336600333366006633660099336600CC336600FF33660000666600336666006666660099666600CC666600FF66660000996600339966006699660099996600CC996600FF99660000CC660033CC660066CC660099CC6600CCCC6600FFCC660000FF660033FF660066FF660099FF6600CCFF6600
310
FFFF660000009900330099006600990099009900CC009900FF00990000339900333399006633990099339900CC339900FF33990000669900336699006666990099669900CC669900FF66990000999900339999006699990099999900CC999900FF99990000CC990033CC990066CC990099CC9900CCCC9900FFCC990000FF99
310
0033FF990066FF990099FF9900CCFF9900FFFF99000000CC003300CC006600CC009900CC00CC00CC00FF00CC000033CC003333CC006633CC009933CC00CC33CC00FF33CC000066CC003366CC006666CC009966CC00CC66CC00FF66CC000099CC003399CC006699CC009999CC00CC99CC00FF99CC0000CCCC0033CCCC0066CC
310
CC0099CCCC00CCCCCC00FFCCCC0000FFCC0033FFCC0066FFCC0099FFCC00CCFFCC00FFFFCC000000FF003300FF006600FF009900FF00CC00FF00FF00FF000033FF003333FF006633FF009933FF00CC33FF00FF33FF000066FF003366FF006666FF009966FF00CC66FF00FF66FF000099FF003399FF006699FF009999FF00CC
310
99FF00FF99FF0000CCFF0033CCFF0066CCFF0099CCFF00CCCCFF00FFCCFF0000FFFF0033FFFF0066FFFF0099FFFF00CCFFFF00FFFFFF00000000000D0D0D001A1A1A00282828003535350043434300505050005D5D5D006B6B6B00787878008686860093939300A1A1A100AEAEAE00BBBBBB00C9C9C900D6D6D600E4E4E400
310
F1F1F100FFFFFF0000000000000000000000000000000000000000000000000000000000000000000000000000000000F5F5F5F5F5F5F5F5F5F5F5F5F5F5F5F5F5F5F5F5F5F5F5F5F5F5F5F5F5F5F5F5F5F5F5F5F5F5F5F5F5F5F5F5F5F5F5F5F5F5F5F5F5F5F5F5F5F5F5F5F5F5F5F5F5F5F5F5F5F5F5F5F5F5F5F5F5F5F5
310
F5F5F5F5F5F5F5F5F5F5F5F5F5F5F5F5F5F5F5F5F5F5F5F5F5F5F5F5F5F5F5F5F5F5F5F5F5F5F5F5F5F5F5F5F5F5F5F5F5F5F5F5F5F5F5F5F5F5F5F5F5F5F5F5F5F5F5F5F5F5F5F5F5F5F5F5F5F5F5F5F5F5F5F5F5F5F5F5F5F5F5F5F5F5F5F5F5F5F5F5F5F5E2E2E2E2E2E2E2E2E2E2E2E2E2E2E2E2E2E2E2E2E2E2E2E2E2
310
E2E2E2E2E2E2E2E2E2E2E2E2E2E2E2E2E2E2E2E2E2E2E2E2E2E2E2E2E2E2E2E2E2E2E2E2E2E2E2E2E2E2E2E2E2E2E2E2E2E2E2E2E2E2E2E2E2E2E2E2E2E2E2E2E2E2E2E2E2E2E2E2E2E2E2E2E2E2E2E2E2E2E2E2E2E2E2E2E2E2E2E2E2E2E2E2E2E2E2E2E2E2E2E2E2E2E2E2E2E2E2E2E2E2E2E2E2E2E2E2E2E2E2E2E2E2E2
310
E2E2E2E2E2E2E2E2E2E2E2E2E2E2E2E2E2E2E2E2E2E2E2E2E2E2F5F5E2E2E2E2E2E2E2E2E2E2E2E2E2E2E2E2E2E2E2E2E2E2E2E2E2E2E2E2E2E2E2E2E2E2E2E2E2E2E2E2E2E2E2E2E2E2E2E2E2E2E2E2E2E2E2E2E2E2E2E2E2E2E2E2E2E2E2E2E2E2E2E2E2E2E2E2E2E2E2E2E2E2E2E2E2E2E2E2E2E2E2E2E2E2E2E2E2E2E2
310
E2E2E2E2E2E2E2E2E2E2E2E2E2E2E2E2E2E2E2E2E2E2E2E2E2E2E2E2E2E2E2E2E2E2E2E2E2E2E2E2E2E2E2E2E2E2E2E2E2E2E2E2E2E2E2E2E2E2E2E2E2E2E2E2E2E2E2E2E2E2E2E2E2E2E2E2E2E2E2F5F5E2E2E2E2E2E2E2E2E2E2E2E2E2E2E2E2E2E2E2E2E2E2E2E2E2E2E2E2E2E2E2E2E2E2E2E2E2E2E2E2E2E2E2E2E2E2
310
E2E2E2E2E2E2E2E2E2E2E2E2E2E2E2E2E2E2E2E2E2E2E2E2E2E2E2E2E2E2E2E2E2E2E2E2E2E2E2E2E2E2E2E2E2E2E2E2E2E2E2E2E2E2E2E2E2E2E2E2E2E2E2E2E2E2E2E2E2E2E2E2E2E2E2E2E2E2E2E2E2E2E2E2E2E2E2E2E2E2E2E2E2E2E2E2E2E2E2E2E2E2E2E2E2E2E2E2E2E2E2E2E2E2E2E2E2E2E2E2E2E2E2E2E2E2E2
310
E2E2E2E2E2F5F5E2E2E2E2E2E2E2E2E2E2E2E2E2E2E2E2E2E2E2E2E2E2E2E2E2E2E2E2E2E2E2E2E2E2E2E2E2E2E2E2E2E2E2E2E2E2E2E2E2E2E2E2E2E2E2E2E2E2E2E2E2E2E2E2E2E2E2E2E2E2E2E2E2E2E2E2E2E2E2E2E2E2E2E2E2E2E2E2E2E2E2E2E2E2E2E2E2E2E2E2E2E2E2E2E2E2E2E2E2E2E2E2E2E2E2E2E2E2E2E2
310
E2E2E2E2E2E2E2E2E2E2E2E2E2E2E2E2E2E2E2E2E2E2E2E2E2E2E2E2E2E2E2E2E2E2E2E2E2E2E2E2E2E2E2E2E2E2E2E2E2E2E2E2E2E2E2E2E2E2F5F5E2E2E2F5F5F5F5F5F5F5F5E2E2E2E2E2E2E2E2E2F5F5F5F5F5F5F5F5F5F5F5F5F5F5F5F5E2E2E2E2E2E2E2E2E2F5F5F5F5F5F5F5F5F5F5F5F5F5F5F5E2E2E2E2E2E2E2
310
E2E2F5F5F5F5F5F5F5F5F5F5F5F5F5F5F5F5E2E2E2E2E2E2E2E2F5F5F5F5F5F5F5F5F5F5F5F5F5F5F5F5E2E2E2E2E2E2E2E2E2F5F5F5F5F5F5F5F5F5F5F5F5F5F5F5E2E2E2E2E2E2E2E2E2F5F5F5F5F5F5F5F5F5F5F5F5F5F5F5F5E2E2E2E2E2E2E2E2E2F5F5F5F5F5F5F5F5E2E2E2F5F5E2E2E2F5E2E2E2E2E2E2E2E2E2E2
310
E2E2E2E2E2E2E2E2E2E2E2E2E2E2E2E2E2E2E2E2E2E2E2E2E2E2E2E2E2E2E2E2E2E2E2E2E2E2E2E2E2E2E2E2E2E2E2E2E2E2E2E2E2E2E2E2E2E2E2E2E2E2E2E2E2E2E2E2E2E2E2E2E2E2E2E2E2E2E2E2E2E2E2E2E2E2E2E2E2E2E2E2E2E2E2E2E2E2E2E2E2E2E2E2E2E2E2E2E2E2E2E2E2E2E2E2E2E2E2E2E2E2E2E2E2E2E2
310
E2E2E2E2E2E2E2E2E2E2E2E2E2E2E2E2E2E2E2E2E2E2E2E2E2E2E2E2E2E2E2E2E2F5E2E2E2F5F5E2E2E2F5E2E2E2E2E2E2E2E2E2E2E2E2E2E2E2E2E2E2E2E2E2E2E2E2E2E2E2E2E2E2E2E2E2E2E2E2E2E2E2E2E2E2E2E2E2E2E2E2E2E2E2E2E2E2E2E2E2E2E2E2E2E2E2E2E2E2E2E2E2E2E2E2E2E2E2E2E2E2E2E2E2E2E2E2
310
E2E2E2E2E2E2E2E2E2E2E2E2E2E2E2E2E2E2E2E2E2E2E2E2E2E2E2E2E2E2E2E2E2E2E2E2E2E2E2E2E2E2E2E2E2E2E2E2E2E2E2E2E2E2E2E2E2E2E2E2E2E2E2E2E2E2E2E2E2E2E2E2E2E2E2E2E2E2E2E2E2E2E2E2E2E2F5E2E2E2F5F5E2E2E2F5E2E2E2E2E2E2E2E2E2E2E2E2E2E2E2E2E2E2E2E2E2E2E2E2E2E2E2E2E2E2E2
310
E2E2E2E2E2E2E2E2E2E2E2E2E2E2E2E2E2E2E2E2E2E2E2E2E2E2E2E2E2E2E2E2E2E2E2E2E2E2E2E2E2E2E2E2E2E2E2E2E2E2E2E2E2E2E2E2E2E2E2E2E2E2E2E2E2E2E2E2E2E2E2E2E2E2E2E2E2E2E2E2E2E2E2E2E2E2E2E2E2E2E2E2E2E2E2E2E2E2E2E2E2E2E2E2E2E2E2E2E2E2E2E2E2E2E2E2E2E2E2E2E2E2E2E2E2E2E2
310
E2E2E2E2E2E2E2E2E2E2E2E2F5E2E2E2F5F5E2E2E2F5E2E2E2E2E2E2E2E2E2E2E2E2E2E2E2E2E2E2E2E2E2E2E2E2E2E2E2E2E2E2E2E2E2E2E2E2E2E2E2E2E2E2E2E2E2E2E2E2E2E2E2E2E2E2E2E2E2E2E2E2E2E2E2E2E2E2E2E2E2E2E2E2E2E2E2E2E2E2E2E2E2E2E2E2E2E2E2E2E2E2E2E2E2E2E2E2E2E2E2E2E2E2E2E2E2
310
E2E2E2E2E2E2E2E2E2E2E2E2E2E2E2E2E2E2E2E2E2E2E2E2E2E2E2E2E2E2E2E2E2E2E2E2E2E2E2E2E2E2E2E2E2E2E2E2E2E2E2E2E2E2E2E2E2E2E2E2E2E2E2E2E2F5E2E2E2F5F5E2E2E2F5E2E2E2E2E2E2E2E2E2E2E2E2E2E2E2E2E2E2E2E2E2E2E2E2E2E2E2E2E2E2E2E2E2E2E2E2E2E2E2E2E2E2E2E2E2E2E2E2E2E2E2E2
310
E2E2E2E2E2E2E2E2E2E2E2E2E2E2E2E2E2E2E2E2E2E2E2E2E2E2E2E2E2E2E2E2E2E2E2E2E2E2E2E2E2E2E2E2E2E2E2E2E2E2E2E2E2E2E2E2E2E2E2E2E2E2E2E2E2E2E2E2E2E2E2E2E2E2E2E2E2E2E2E2E2E2E2E2E2E2E2E2E2E2E2E2E2E2E2E2E2E2E2E2E2E2E2E2E2E2E2E2E2E2E2E2E2E2E2E2E2E2F5E2E2E2F5F5E2E2E2
310
F5E2E2E2E2E2E2E2E2E2E2E2E2E2E2E2E2E2E2E2E2E2E2E2E2E2E2E2E2E2E2E2E2E2E2E2E2E2E2E2E2E2E2E2E2E2E2E2E2E2E2E2E2E2E2E2E2E2E2E2E2E2E2E2E2E2E2E2E2E2E2E2E2E2E2E2E2E2E2E2E2E2E2E2E2E2E2E2E2E2E2E2E2E2E2E2E2E2E2E2E2E2E2E2E2E2E2E2E2E2E2E2E2E2E2E2E2E2E2E2E2E2E2E2E2E2E2
310
E2E2E2E2E2E2E2E2E2E2E2E2E2E2E2E2E2E2E2E2E2E2E2E2E2E2E2E2E2E2E2E2E2E2E2E2E2E2E2E2E2E2E2E2F5E2E2E2F5F5E2E2E2F5E2E2E2E2E2E2E2E2E2E2E2E2E2E2E2E2E2E2E2E2E2E2E2E2E2E2E2E2E2E2E2E2E2E2E2E2E2E2E2E2E2E2E2E2E2E2E2E2E2E2E2E2E2E2E2E2E2E2E2E2E2E2E2E2E2E2E2E2E2E2E2E2E2
310
E2E2E2E2E2E2E2E2E2E2E2E2E2E2E2E2E2E2E2E2E2E2E2E2E2E2E2E2E2E2E2E2E2E2E2E2E2E2E2E2E2E2E2E2E2E2E2E2E2E2E2E2E2E2E2E2E2E2E2E2E2E2E2E2E2E2E2E2E2E2E2E2E2E2E2E2E2E2E2E2E2E2E2E2E2E2E2E2E2E2E2E2E2E2E2E2E2F5E2E2E2F5F5E2E2E2F5E2E2E2E2E2E2E2E2E2E2E2E2E2E2E2E2E2E2E2E2
310
E2E2E2E2E2E2E2E2E2E2E2E2E2E2E2E2E2E2E2E2E2E2E2E2E2E2E2E2E2E2E2E2E2E2E2E2E2E2E2E2E2E2E2E2E2E2E2E2E2E2E2E2E2E2E2E2E2E2E2E2E2E2E2E2E2E2E2E2E2E2E2E2E2E2E2E2E2E2E2E2E2E2E2E2E2E2E2E2E2E2E2E2E2E2E2E2E2E2E2E2E2E2E2E2E2E2E2E2E2E2E2E2E2E2E2E2E2E2E2E2E2E2E2E2E2E2E2
310
E2E2E2E2E2E2E2E2E2E2E2E2E2E2E2E2E2E2E2E2E2E2E2F5E2E2E2F5F5E2E2E2E2E2E2E2E2E2E2E2E2E2E2E2E2E2E2E2E2E2E2E2E2E2E2E2E2E2E2E2E2E2E2E2E2E2E2E2E2E2E2E2E2E2E2E2E2E2E2E2E2E2E2E2E2E2E2E2E2E2E2E2E2E2E2E2E2E2E2E2E2E2E2E2E2E2E2E2E2E2E2E2E2E2E2E2E2E2E2E2E2E2E2E2E2E2E2
310
E2E2E2E2E2E2E2E2E2E2E2E2E2E2E2E2E2E2E2E2E2E2E2E2E2E2E2E2E2E2E2E2E2E2E2E2E2E2E2E2E2E2E2E2E2E2E2E2E2E2E2E2E2E2E2E2E2E2E2E2E2E2E2E2E2E2E2E2E2E2E2E2E2E2E2E2E2E2E2E2F5F5E2E2E2E2E2E2E2E2E2E2E2E2E2E2E2E2E2E2E2E2E2E2E2E2E2E2E2E2E2E2E2E2E2E2E2E2E2E2E2E2E2E2E2E2E2
310
E2E2E2E2E2E2E2E2E2E2E2E2E2E2E2E2E2E2E2E2E2E2E2E2E2E2E2E2E2E2E2E2E2E2E2E2E2E2E2E2E2E2E2E2E2E2E2E2E2E2E2E2E2E2E2E2E2E2E2E2E2E2E2E2E2E2E2E2E2E2E2E2E2E2E2E2E2E2E2E2E2E2E2E2E2E2E2E2E2E2E2E2E2E2E2E2E2E2E2E2E2E2E2E2E2E2E2E2E2E2E2E2E2E2E2E2E2E2E2E2E2E2E2E2E2E2E2
310
E2E2E2E2E2E2F5F5E2E2E2E2E2E2E2E2E2E2E2E2E2E2E2E2E2E2E2E2E2E2E2E2E2E2E2E2E2E2E2E2E2E2E2E2E2E2E2E2E2E2E2E2E2E2E2E2E2E2E2E2E2E2E2E2E2E2E2E2E2E2E2E2E2E2E2E2E2E2E2E2E2E2E2E2E2E2E2E2E2E2E2E2E2E2E2E2E2E2E2E2E2E2E2E2E2E2E2E2E2E2E2E2E2E2E2E2E2E2E2E2E2E2E2E2E2E2E2
310
E2E2E2E2E2E2E2E2E2E2E2E2E2E2E2E2E2E2E2E2E2E2E2E2E2E2E2E2E2E2E2E2E2E2E2E2E2E2E2E2E2E2E2E2E2E2E2E2E2E2E2E2E2E2E2E2E2E2E2F5F5E2E2E2E2E2E2E2E2E2E2E2E2E2E2E2E2E2E2E2E2E2E2E2E2E2E2E2E2E2E2E2E2E2E2E2E2E2E2E2E2E2E2E2E2E2E2E2E2E2E2E2E2E2E2E2E2E2E2E2E2E2E2E2E2E2E2
310
E2E2E2E2E2E2E2E2E2E2E2E2E2E2E2E2E2E2E2E2E2E2E2E2E2E2E2E2E2E2E2E2E2E2E2E2E2E2E2E2E2E2E2E2E2E2E2E2E2E2E2E2E2E2E2E2E2E2E2E2E2E2E2E2E2E2E2E2E2E2E2E2E2E2E2E2E2E2E2E2E2E2E2E2E2E2E2E2E2E2E2E2E2E2E2E2E2E2E2E2E2E2E2E2E2E2E2E2E2E2E2E2F5F5E2E2E2E2E2E2E2E2E2E2E2E2E2
310
E2E2E2E2E2E2E2F5F5F5F5F5F5F5F5F5F5F5F5F5F5F5F5F5F5F5F5F5F5F5F5F5F5F5F5F5F5F5F5F5F5F5F5F5F5F5F5F5F5F5F5F5F5F5F5F5F5F5F5F5F5F5F5F5F5F5F5F5F5F5F5F5F5F5F5F5F5F5F5F5F5F5F5F5F5F5F5F5F5F5F5F5F5F5F5F5F5F5F5F5F5F5F5F5F5F5F5F5F5F5F5F5F5F5F5F5F5F5F5F5F5F5F5F5F5F5F5
310
F5F5F5F5F5F5F5F5F5F5F5F5F5F5F5F5F5F5E2E2E2E2E2E2E2E2E2E2E2E2E2E2E2E2E2E2E2E2F5F5E2E2E2E2E2E2E2E2E2E2E2E2E2E2E2E2E2E2E2E2F5E2E2E2E2E2E2E2E2E2E2E2E2E2E2E2E2E2E2E2E2E2E2E2E2E2E2E2E2E2E2E2E2E2E2E2E2E2E2E2E2E2E2E2E2E2E2E2E2E2E2E2E2E2E2E2E2E2E2E2E2E2E2E2E2E2E2
310
E2E2E2E2E2E2E2E2E2E2E2E2E2E2E2E2E2E2E2E2E2E2E2E2E2E2E2E2E2E2E2E2E2E2E2E2E2E2E2E2E2E2E2E2E2E2E2E2E2E2E2E2E2E2E2E2E2E2E2E2E2E2E2E2E2E2E2E2E2E2F5E2E2E2E2E2E2E2E2E2E2E2E2E2E2E2E2E2E2E2E2F5F5E2E2E2E2E2E2E2E2E2E2E2E2E2E2E2E2E2E2E2E2F5E2E2E2E2E2E2E2E2E2E2E2E2E2
310
E2E2E2E2E2E2E2E2E2E2E2E2E2E2E2E2E2E2E2E2E2E2E2E2E2E2E2E2E2E2E2E2E2E2E2E2E2E2E2E2E2E2E2E2E2E2E2E2E2E2E2E2E2E2E2E2E2E2E2E2E2E2E2E2E2E2E2E2E2E2E2E2E2E2E2E2E2E2E2E2E2E2E2E2E2E2E2E2E2E2E2E2E2E2E2E2E2E2E2E2E2E2E2E2E2E2E2E2E2E2E2E2E2E2E2E2E2E2E2E2E2E2E2F5E2E2E2
310
E2E2E2E2E2E2E2E2E2E2E2E2E2E2E2E2E2F5F5E2E2E2E2E2E2E2E2E2E2E2E2E2E2E2E2E2E2E2E2F5E2E2E2E2E2E2E2E2E2E2E2E2E2E2E2E2E2E2E2E2E2E2E2E2E2E2E2E2E2E2E2E2E2E2E2E2E2E2E2E2E2E2E2E2E2E2E2E2E2E2E2E2E2E2E2E2E2E2E2E2E2E2E2E2E2E2E2E2E2E2E2E2E2E2E2E2E2E2E2E2E2E2E2E2E2E2E2
310
E2E2E2E2E2E2E2E2E2E2E2E2E2E2E2E2E2E2E2E2E2E2E2E2E2E2E2E2E2E2E2E2E2E2E2E2E2E2E2E2E2E2E2E2E2E2E2E2E2F5E2E2E2E2E2E2E2E2E2E2E2E2E2E2E2E2E2E2E2E2F5F5E2E2E2E2E2E2E2E2E2E2E2E2E2E2E2E2E2E2E2E2F5E2E2E2E2E2E2E2E2E2E2E2E2E2E2E2E2E2E2E2E2E2E2E2E2E2E2E2E2E2E2E2E2E2E2
310
E2E2E2E2E2E2E2E2E2E2E2E2E2E2E2E2E2E2E2E2E2E2E2E2E2E2E2E2E2E2E2E2E2E2E2E2E2E2E2E2E2E2E2E2E2E2E2E2E2E2E2E2E2E2E2E2E2E2E2E2E2E2E2E2E2E2E2E2E2E2E2E2E2E2E2E2E2E2E2E2E2E2E2E2E2E2E2E2E2E2E2E2E2E2E2E2E2E2E2E2E2E2F5E2E2E2E2E2E2E2E2E2E2E2E2E2E2E2E2E2E2E2E2F5F5E2E2
310
E2F5E2E2E2E2E2E2E2E2E2E2E2E2E2E2E2E2F5E2E2E2E2E2E2E2E2E2E2E2E2E2E2E2E2E2E2E2E2E2E2E2E2E2E2E2E2E2E2E2E2E2E2E2E2E2E2E2E2E2E2E2E2E2E2E2E2E2E2E2E2E2E2E2E2E2E2E2E2E2E2E2E2E2E2E2E2E2E2E2E2E2E2E2E2E2E2E2E2E2E2E2E2E2E2E2E2E2E2E2E2E2E2E2E2E2E2E2E2E2E2E2E2E2E2E2E2
310
E2E2E2E2E2E2E2E2E2E2E2E2E2E2E2E2E2E2E2E2E2E2E2E2E2E2E2E2F5E2E2E2E2E2E2E2E2E2E2E2E2E2E2E2E2F5E2E2E2F5F5E2E2E2F5E2E2E2E2E2E2E2E2E2E2E2E2E2E2E2E2F5E2E2E2E2E2E2E2E2E2E2E2E2E2E2E2E2E2E2E2E2E2E2E2E2E2E2E2E2E2E2E2E2E2E2E2E2E2E2E2E2E2E2E2E2E2E2E2E2E2E2E2E2E2E2E2
310
E2E2E2E2E2E2E2E2E2E2E2E2E2E2E2E2E2E2E2E2E2E2E2E2E2E2E2E2E2E2E2E2E2E2E2E2E2E2E2E2E2E2E2E2E2E2E2E2E2E2E2E2E2E2E2E2E2E2E2E2E2E2E2E2E2E2E2E2E2E2E2E2E2E2E2E2E2E2E2E2E2F5E2E2E2E2E2E2E2E2E2E2E2E2E2E2E2E2F5E2E2E2F5F5E2E2E2F5E2E2E2E2E2E2E2E2E2E2E2E2E2E2E2E2F5E2E2
310
E2E2E2E2E2E2E2E2E2E2E2E2E2E2E2E2E2E2E2E2E2E2E2E2E2E2E2E2E2E2E2E2E2E2E2E2E2E2E2E2E2E2E2E2E2E2E2E2E2E2E2E2E2E2E2E2E2E2E2E2E2E2E2E2E2E2E2E2E2E2E2E2E2E2E2E2E2E2E2E2E2E2E2E2E2E2E2E2E2E2E2E2E2E2E2E2E2E2E2E2E2E2E2E2E2E2E2E2E2E2E2E2E2E2E2E2E2E2E2E2E2E2E2E2E2E2E2
310
E2E2E2E2E2E2E2F5E2E2E2E2E2E2E2E2E2E2E2E2E2E2E2E2F5E2E2E2F5F5E2E2E2F5E2E2E2E2E2E2E2E2E2E2E2E2E2E2E2E2F5E2E2E2E2E2E2E2E2E2E2E2E2E2E2E2E2E2E2E2E2E2E2E2E2E2E2E2E2E2E2E2E2E2E2E2E2E2E2E2E2E2E2E2E2E2E2E2E2E2E2E2E2E2E2E2E2E2E2E2E2E2E2E2E2E2E2E2E2E2E2E2E2E2E2E2E2
310
E2E2E2E2E2E2E2E2E2E2E2E2E2E2E2E2E2E2E2E2E2E2E2E2E2E2E2E2E2E2E2E2E2E2E2E2E2E2E2E2E2E2E2E2E2E2E2E2E2E2E2E2E2E2E2E2E2E2E2E2F5E2E2E2E2E2E2E2E2E2E2E2E2E2E2E2E2F5E2E2E2F5F5E2E2E2F5E2E2E2E2E2E2E2E2E2E2E2E2E2E2E2E2F5E2E2E2E2E2E2E2E2E2E2E2E2E2E2E2E2E2E2E2E2E2E2E2
310
E2E2E2E2E2E2E2E2E2E2E2E2E2E2E2E2E2E2E2E2E2E2E2E2E2E2E2E2E2E2E2E2E2E2E2E2E2E2E2E2E2E2E2E2E2E2E2E2E2E2E2E2E2E2E2E2E2E2E2E2E2E2E2E2E2E2E2E2E2E2E2E2E2E2E2E2E2E2E2E2E2E2E2E2E2E2E2E2E2E2E2E2E2E2E2E2E2E2E2E2E2E2E2E2E2E2E2E2E2E2E2E2E2F5E2E2E2E2E2E2E2E2E2E2E2E2E2
310
E2E2E2F5E2E2E2F5F5E2E2E2F5E2E2E2E2E2E2E2E2E2E2E2E2E2E2E2E2F5E2E2E2E2E2E2E2E2E2E2E2E2E2E2E2E2E2E2E2E2E2E2E2E2E2E2E2E2E2E2E2E2E2E2E2E2E2E2E2E2E2E2E2E2E2E2E2E2E2E2E2E2E2E2E2E2E2E2E2E2E2E2E2E2E2E2E2E2E2E2E2E2E2E2E2E2E2E2E2E2E2E2E2E2E2E2E2E2E2E2E2E2E2E2E2E2E2
310
E2E2E2E2E2E2E2E2E2E2E2E2E2E2E2E2E2E2E2E2E2E2E2E2E2E2E2E2E2E2E2E2E2E2E2E2E2E2E2F5E2E2E2E2E2E2E2E2E2E2E2E2E2E2E2E2F5E2E2E2F5F5E2E2E2F5E2E2E2E2E2E2E2E2E2E2E2E2E2E2E2E2F5E2E2E2E2E2E2E2E2E2E2E2E2E2E2E2E2E2E2E2E2E2E2E2E2E2E2E2E2E2E2E2E2E2E2E2E2E2E2E2E2E2E2E2E2
310
E2E2E2E2E2E2E2E2E2E2E2E2E2E2E2E2E2E2E2E2E2E2E2E2E2E2E2E2E2E2E2E2E2E2E2E2E2E2E2E2E2E2E2E2E2E2E2E2E2E2E2E2E2E2E2E2E2E2E2E2E2E2E2E2E2E2E2E2E2E2E2E2E2E2E2E2E2E2E2E2E2E2E2E2E2E2E2E2E2E2E2E2F5E2E2E2E2E2E2E2E2E2E2E2E2E2E2E2E2F5E2E2E2F5F5E2E2E2F5E2E2E2E2E2E2E2E2
310
E2E2E2E2E2E2E2E2F5E2E2E2E2E2E2E2E2E2E2E2E2E2E2E2E2E2E2E2E2E2E2E2E2E2E2E2E2E2E2E2E2E2E2E2E2E2E2E2E2E2E2E2E2E2E2E2E2E2E2E2E2E2E2E2E2E2E2E2E2E2E2E2E2E2E2E2E2E2E2E2E2E2E2E2E2E2E2E2E2E2E2E2E2E2E2E2E2E2E2E2E2E2E2E2E2E2E2E2E2E2E2E2E2E2E2E2E2E2E2E2E2E2E2E2E2E2E2
310
E2E2E2E2E2E2E2E2E2E2E2E2E2E2E2E2E2E2F5E2E2E2E2E2E2E2E2E2E2E2E2E2E2E2E2F5E2E2E2F5F5E2E2E2F5E2E2E2E2E2E2E2E2E2E2E2E2E2E2E2E2F5E2E2E2E2E2E2E2E2E2E2E2E2E2E2E2E2E2E2E2E2E2E2E2E2E2E2E2E2E2E2E2E2E2E2E2E2E2E2E2E2E2E2E2E2E2E2E2E2E2E2E2E2E2E2E2E2E2E2E2E2E2E2E2E2E2
310
E2E2E2E2E2E2E2E2E2E2E2E2E2E2E2E2E2E2E2E2E2E2E2E2E2E2E2E2E2E2E2E2E2E2E2E2E2E2E2E2E2E2E2E2E2E2E2E2E2E2E2E2E2E2E2E2E2E2E2E2E2E2E2E2E2E2E2E2E2E2E2F5E2E2E2E2E2E2E2E2E2E2E2E2E2E2E2E2F5E2E2E2F5F5E2E2E2F5E2E2E2E2E2E2E2E2E2E2E2E2E2E2E2E2F5E2E2E2E2E2E2E2E2E2E2E2E2
310
E2E2E2E2E2E2E2E2E2E2E2E2E2E2E2E2E2E2E2E2E2E2E2E2E2E2E2E2E2E2E2E2E2E2E2E2E2E2E2E2E2E2E2E2E2E2E2E2E2E2E2E2E2E2E2E2E2E2E2E2E2E2E2E2E2E2E2E2E2E2E2E2E2E2E2E2E2E2E2E2E2E2E2E2E2E2E2E2E2E2E2E2E2E2E2E2E2E2E2E2E2E2E2E2E2E2E2E2E2E2E2E2E2E2E2E2E2E2E2E2E2E2E2E2F5E2E2
310
E2E2E2E2E2E2E2E2E2E2E2E2E2E2F5E2E2E2F5F5E2E2E2F5E2E2E2E2E2E2E2E2E2E2E2E2E2E2E2E2F5E2E2E2E2E2E2E2E2E2E2E2E2E2E2E2E2E2E2E2E2E2E2E2E2E2E2E2E2E2E2E2E2E2E2E2E2E2E2E2E2E2E2E2E2E2E2E2E2E2E2E2E2E2E2E2E2E2E2E2E2E2E2E2E2E2E2E2E2E2E2E2E2E2E2E2E2E2E2E2E2E2E2E2E2E2E2
310
E2E2E2E2E2E2E2E2E2E2E2E2E2E2E2E2E2E2E2E2E2E2E2E2E2E2E2E2E2E2E2E2E2E2E2E2E2E2E2E2E2E2E2E2E2E2E2E2E2E2F5E2E2E2E2E2E2E2E2E2E2E2E2E2E2E2E2F5E2E2E2F5F5E2E2E2F5E2E2E2E2E2E2E2E2E2E2E2E2E2E2E2E2F5E2E2E2E2E2E2E2E2E2E2E2E2E2E2E2E2E2E2E2E2E2E2E2E2E2E2E2E2E2E2E2E2E2
310
E2E2E2E2E2E2E2E2E2E2E2E2E2E2E2E2E2E2E2E2E2E2E2E2E2E2E2E2E2E2E2E2E2E2E2E2E2E2E2E2E2E2E2E2E2E2E2E2E2E2E2E2E2E2E2E2E2E2E2E2E2E2E2E2E2E2E2E2E2E2E2E2E2E2E2E2E2E2E2E2E2E2E2E2E2E2E2E2E2E2E2E2E2E2E2E2E2E2E2E2E2E2E2F5E2E2E2E2E2E2E2E2E2E2E2E2E2E2E2E2F5E2E2E2F5F5E2
310
E2E2F5E2E2E2E2E2E2E2E2E2E2E2E2E2E2E2E2F5E2E2E2E2E2E2E2E2E2E2E2E2E2E2E2E2E2E2E2E2E2E2E2E2E2E2E2E2E2E2E2E2E2E2E2E2E2E2E2E2E2E2E2E2E2E2E2E2E2E2E2E2E2E2E2E2E2E2E2E2E2E2E2E2E2E2E2E2E2E2E2E2E2E2E2E2E2E2E2E2E2E2E2E2E2E2E2E2E2E2E2E2E2E2E2E2E2E2E2E2E2E2E2E2E2E2E2
310
E2E2E2E2E2E2E2E2E2E2E2E2E2E2E2E2E2E2E2E2E2E2E2E2E2E2E2E2E2F5E2E2E2E2E2E2E2E2E2E2E2E2E2E2E2E2F5E2E2E2F5F5E2E2E2F5E2E2E2E2E2E2E2E2E2E2E2E2E2E2E2E2F5E2E2E2E2E2E2E2E2E2E2E2E2E2E2E2E2E2E2E2E2E2E2E2E2E2E2E2E2E2E2E2E2E2E2E2E2E2E2E2E2E2E2E2E2E2E2E2E2E2E2E2E2E2E2
310
E2E2E2E2E2E2E2E2E2E2E2E2E2E2E2E2E2E2E2E2E2E2E2E2E2E2E2E2E2E2E2E2E2E2E2E2E2E2E2E2E2E2E2E2E2E2E2E2E2E2E2E2E2E2E2E2E2E2E2E2E2E2E2E2E2E2E2E2E2E2E2E2E2E2E2E2E2E2E2E2E2E2F5E2E2E2E2E2E2E2E2E2E2E2E2E2E2E2E2F5E2E2E2F5F5E2E2E2F5E2E2E2E2E2E2E2E2E2E2E2E2E2E2E2E2F5E2
310
E2E2E2E2E2E2E2E2E2E2E2E2E2E2E2E2E2E2E2E2E2E2E2E2E2E2E2E2E2E2E2E2E2E2E2E2E2E2E2E2E2E2E2E2E2E2E2E2E2E2E2E2E2E2E2E2E2E2E2E2E2E2E2E2E2E2E2E2E2E2E2E2E2E2E2E2E2E2E2E2E2E2E2E2E2E2E2E2E2E2E2E2E2E2E2E2E2E2E2E2E2E2E2E2E2E2E2E2E2E2E2E2E2E2E2E2E2E2E2E2E2E2E2E2E2E2E2
310
E2E2E2E2E2E2E2E2F5E2E2E2E2E2E2E2E2E2E2E2E2E2E2E2E2F5E2E2E2F5F5E2E2E2F5E2E2E2E2E2E2E2E2E2E2E2E2E2E2E2E2F5E2E2E2E2E2E2E2E2E2E2E2E2E2E2E2E2E2E2E2E2E2E2E2E2E2E2E2E2E2E2E2E2E2E2E2E2E2E2E2E2E2E2E2E2E2E2E2E2E2E2E2E2E2E2E2E2E2E2E2E2E2E2E2E2E2E2E2E2E2E2E2E2E2E2E2
310
E2E2E2E2E2E2E2E2E2E2E2E2E2E2E2E2E2E2E2E2E2E2E2E2E2E2E2E2E2E2E2E2E2E2E2E2E2E2E2E2E2E2E2E2E2E2E2E2E2E2E2E2E2E2E2E2E2E2E2E2E2F5E2E2E2E2E2E2E2E2E2E2E2E2E2E2E2E2F5E2E2E2F5F5E2E2E2F5E2E2E2E2E2E2E2E2E2E2E2E2E2E2E2E2F5E2E2E2E2E2E2E2E2E2E2E2E2E2E2E2E2E2E2E2E2E2E2
310
E2E2E2E2E2E2E2E2E2E2E2E2E2E2E2E2E2E2E2E2E2E2E2E2E2E2E2E2E2E2E2E2E2E2E2E2E2E2E2E2E2E2E2E2E2E2E2E2E2E2E2E2E2E2E2E2E2E2E2E2E2E2E2E2E2E2E2E2E2E2E2E2E2E2E2E2E2E2E2E2E2E2E2E2E2E2E2E2E2E2E2E2E2E2E2E2E2E2E2E2E2E2E2E2E2E2E2E2E2E2E2E2E2E2F5E2E2E2E2E2E2E2E2E2E2E2E2
310
E2E2E2E2F5E2E2E2F5F5E2E2E2E2E2E2E2E2E2E2E2E2E2E2E2E2E2E2E2E2F5E2E2E2E2E2E2E2E2E2E2E2E2E2E2E2E2E2E2E2E2E2E2E2E2E2E2E2E2E2E2E2E2E2E2E2E2E2E2E2E2E2E2E2E2E2E2E2E2E2E2E2E2E2E2E2E2E2E2E2E2E2E2E2E2E2E2E2E2E2E2E2E2E2E2E2E2E2E2E2E2E2E2E2E2E2E2E2E2E2E2E2E2E2E2E2E2
310
E2E2E2E2E2E2E2E2E2E2E2E2E2E2E2E2E2E2E2E2E2E2E2E2E2E2E2E2E2E2E2E2E2E2E2E2E2E2E2E2F5E2E2E2E2E2E2E2E2E2E2E2E2E2E2E2E2E2E2E2E2F5F5E2E2E2E2E2E2E2E2E2E2E2E2E2E2E2E2E2E2E2E2F5E2E2E2E2E2E2E2E2E2E2E2E2E2E2E2E2E2E2E2E2E2E2E2E2E2E2E2E2E2E2E2E2E2E2E2E2E2E2E2E2E2E2E2
310
E2E2E2E2E2E2E2E2E2E2E2E2E2E2E2E2E2E2E2E2E2E2E2E2E2E2E2E2E2E2E2E2E2E2E2E2E2E2E2E2E2E2E2E2E2E2E2E2E2E2E2E2E2E2E2E2E2E2E2E2E2E2E2E2E2E2E2E2E2E2E2E2E2E2E2E2E2E2E2E2E2E2E2E2E2E2E2E2E2E2E2E2E2F5E2E2E2E2E2E2E2E2E2E2E2E2E2E2E2E2E2E2E2E2F5F5E2E2E2E2E2E2E2E2E2E2E2
310
E2E2E2E2E2E2E2E2E2F5E2E2E2E2E2E2E2E2E2E2E2E2E2E2E2E2E2E2E2E2E2E2E2E2E2E2E2E2E2E2E2E2E2E2E2E2E2E2E2E2E2E2E2E2E2E2E2E2E2E2E2E2E2E2E2E2E2E2E2E2E2E2E2E2E2E2E2E2E2E2E2E2E2E2E2E2E2E2E2E2E2E2E2E2E2E2E2E2E2E2E2E2E2E2E2E2E2E2E2E2E2E2E2E2E2E2E2E2E2E2E2E2E2E2E2E2E2
310
E2E2E2E2E2E2E2E2E2E2E2E2E2E2E2E2E2E2E2F5E2E2E2E2E2E2E2E2E2E2E2E2E2E2E2E2E2E2E2E2F5F5E2E2E2E2E2E2E2E2E2E2E2E2E2E2E2E2E2E2E2E2F5E2E2E2E2E2E2E2E2E2E2E2E2E2E2E2E2E2E2E2E2E2E2E2E2E2E2E2E2E2E2E2E2E2E2E2E2E2E2E2E2E2E2E2E2E2E2E2E2E2E2E2E2E2E2E2E2E2E2E2E2E2E2E2E2
310
E2E2E2E2E2E2E2E2E2E2E2E2E2E2E2E2E2E2E2E2E2E2E2E2E2E2E2E2E2E2E2E2E2E2E2E2E2E2E2E2E2E2E2E2E2E2E2E2E2E2E2E2E2E2E2E2E2E2E2E2E2E2E2E2E2E2E2E2E2E2E2E2F5E2E2E2E2E2E2E2E2E2E2E2E2E2E2E2E2E2E2E2E2F5F5E2E2E2E2E2E2E2E2E2E2E2E2E2E2E2E2E2E2E2E2F5E2E2E2E2E2E2E2E2E2E2E2
310
E2E2E2E2E2E2E2E2E2E2E2E2E2E2E2E2E2E2E2E2E2E2E2E2E2E2E2E2E2E2E2E2E2E2E2E2E2E2E2E2E2E2E2E2E2E2E2E2E2E2E2E2E2E2E2E2E2E2E2E2E2E2E2E2E2E2E2E2E2E2E2E2E2E2E2E2E2E2E2E2E2E2E2E2E2E2E2E2E2E2E2E2E2E2E2E2E2E2E2E2E2E2E2E2E2E2E2E2E2E2E2E2E2E2E2E2E2E2E2E2E2E2E2E2E2F5E2
310
E2E2E2E2E2E2E2E2E2E2E2E2E2E2E2E2E2E2E2F5F5E2E2E2E2E2E2E2E2E2E2E2E2E2E2E2E2E2E2E2E2F5E2E2E2E2E2E2E2E2E2E2E2E2E2E2E2E2E2E2E2E2E2E2E2E2E2E2E2E2E2E2E2E2E2E2E2E2E2E2E2E2E2E2E2E2E2E2E2E2E2E2E2E2E2E2E2E2E2E2E2E2E2E2E2E2E2E2E2E2E2E2E2E2E2E2E2E2E2E2E2E2E2E2E2E2E2
310
E2E2E2E2E2E2E2E2E2E2E2E2E2E2E2E2E2E2E2E2E2E2E2E2E2E2E2E2E2E2E2E2E2E2E2E2E2E2E2E2E2E2E2E2E2E2E2E2E2E2E2F5E2E2E2E2E2E2E2E2E2E2E2E2E2E2E2E2E2E2E2E2F5F5E2E2E2E2E2E2E2E2E2E2E2E2E2E2E2E2E2E2E2E2F5E2E2E2E2E2E2E2E2E2E2E2E2E2E2E2E2E2E2E2E2E2E2E2E2E2E2E2E2E2E2E2E2
310
E2E2E2E2E2E2E2E2E2E2E2E2E2E2E2E2E2E2E2E2E2E2E2E2E2E2E2E2E2E2E2E2E2E2E2E2E2E2E2E2E2E2E2E2E2E2E2E2E2E2E2E2E2E2E2E2E2E2E2E2E2E2E2E2E2E2E2E2E2E2E2E2E2E2E2E2E2E2E2E2E2E2E2E2E2E2E2E2E2E2E2E2E2E2E2E2E2E2E2E2E2E2E2E2F5E2E2E2E2E2E2E2E2E2E2E2E2E2E2E2E2E2E2E2E2F5F5
310
E2E2E2E2E2E2E2E2E2E2E2E2E2E2E2E2E2E2E2E2F5E2E2E2E2E2E2E2E2E2E2E2E2E2E2E2E2E2E2E2E2E2E2E2E2E2E2E2E2E2E2E2E2E2E2E2E2E2E2E2E2E2E2E2E2E2E2E2E2E2E2E2E2E2E2E2E2E2E2E2E2E2E2E2E2E2E2E2E2E2E2E2E2E2E2E2E2E2E2E2E2E2E2E2E2E2E2E2E2E2E2E2E2E2E2E2E2E2E2E2E2E2E2E2E2E2E2
310
E2E2E2E2E2E2E2E2E2E2E2E2E2E2E2E2E2E2E2E2E2E2E2E2E2E2E2E2E2E2F5E2E2E2E2E2E2E2E2E2E2E2E2E2E2E2E2E2E2E2E2F5F5E2E2E2E2E2E2E2E2E2E2E2E2E2E2E2E2E2E2E2E2F5E2E2E2E2E2E2E2E2E2E2E2E2E2E2E2E2E2E2E2E2E2E2E2E2E2E2E2E2E2E2E2E2E2E2E2E2E2E2E2E2E2E2E2E2E2E2E2E2E2E2E2E2E2
310
E2E2E2E2E2E2E2E2E2E2E2E2E2E2E2E2E2E2E2E2E2E2E2E2E2E2E2E2E2E2E2E2E2E2E2E2E2E2E2E2E2E2E2E2E2E2E2E2E2E2E2E2E2E2E2E2E2E2E2E2E2E2E2E2E2E2E2E2E2E2E2E2E2E2E2E2E2E2E2E2E2E2E2F5E2E2E2E2E2E2E2E2E2E2E2E2E2E2E2E2E2E2E2E2F5F5E2E2E2F5E2E2E2E2E2E2E2E2E2E2E2E2E2E2E2E2F5
310
E2E2E2E2E2E2E2E2E2E2E2E2E2E2E2E2E2E2E2E2E2E2E2E2E2E2E2E2E2E2E2E2E2E2E2E2E2E2E2E2E2E2E2E2E2E2E2E2E2E2E2E2E2E2E2E2E2E2E2E2E2E2E2E2E2E2E2E2E2E2E2E2E2E2E2E2E2E2E2E2E2E2E2E2E2E2E2E2E2E2E2E2E2E2E2E2E2E2E2E2E2E2E2E2E2E2E2E2E2E2E2E2E2E2E2E2E2E2E2E2E2E2E2E2E2E2E2
310
E2E2E2E2E2E2E2E2E2F5E2E2E2E2E2E2E2E2E2E2E2E2E2E2E2E2F5E2E2E2F5F5E2E2E2F5E2E2E2E2E2E2E2E2E2E2E2E2E2E2E2E2F5E2E2E2E2E2E2E2E2E2E2E2E2E2E2E2E2E2E2E2E2E2E2E2E2E2E2E2E2E2E2E2E2E2E2E2E2E2E2E2E2E2E2E2E2E2E2E2E2E2E2E2E2E2E2E2E2E2E2E2E2E2E2E2E2E2E2E2E2E2E2E2E2E2E2
310
E2E2E2E2E2E2E2E2E2E2E2E2E2E2E2E2E2E2E2E2E2E2E2E2E2E2E2E2E2E2E2E2E2E2E2E2E2E2E2E2E2E2E2E2E2E2E2E2E2E2E2E2E2E2E2E2E2E2E2E2E2E2F5E2E2E2E2E2E2E2E2E2E2E2E2E2E2E2E2F5E2E2E2F5F5E2E2E2F5E2E2E2E2E2E2E2E2E2E2E2E2E2E2E2E2F5E2E2E2E2E2E2E2E2E2E2E2E2E2E2E2E2E2E2E2E2E2
310
E2E2E2E2E2E2E2E2E2E2E2E2E2E2E2E2E2E2E2E2E2E2E2E2E2E2E2E2E2E2E2E2E2E2E2E2E2E2E2E2E2E2E2E2E2E2E2E2E2E2E2E2E2E2E2E2E2E2E2E2E2E2E2E2E2E2E2E2E2E2E2E2E2E2E2E2E2E2E2E2E2E2E2E2E2E2E2E2E2E2E2E2E2E2E2E2E2E2E2E2E2E2E2E2E2E2E2E2E2E2E2E2E2E2E2F5E2E2E2E2E2E2E2E2E2E2E2
310
E2E2E2E2E2F5E2E2E2F5F5E2E2E2F5E2E2E2E2E2E2E2E2E2E2E2E2E2E2E2E2F5E2E2E2E2E2E2E2E2E2E2E2E2E2E2E2E2E2E2E2E2E2E2E2E2E2E2E2E2E2E2E2E2E2E2E2E2E2E2E2E2E2E2E2E2E2E2E2E2E2E2E2E2E2E2E2E2E2E2E2E2E2E2E2E2E2E2E2E2E2E2E2E2E2E2E2E2E2E2E2E2E2E2E2E2E2E2E2E2E2E2E2E2E2E2E2
310
E2E2E2E2E2E2E2E2E2E2E2E2E2E2E2E2E2E2E2E2E2E2E2E2E2E2E2E2E2E2E2E2E2E2E2E2E2E2E2E2E2F5E2E2E2E2E2E2E2E2E2E2E2E2E2E2E2E2F5E2E2E2F5F5E2E2E2F5E2E2E2E2E2E2E2E2E2E2E2E2E2E2E2E2F5E2E2E2E2E2E2E2E2E2E2E2E2E2E2E2E2E2E2E2E2E2E2E2E2E2E2E2E2E2E2E2E2E2E2E2E2E2E2E2E2E2E2
310
E2E2E2E2E2E2E2E2E2E2E2E2E2E2E2E2E2E2E2E2E2E2E2E2E2E2E2E2E2E2E2E2E2E2E2E2E2E2E2E2E2E2E2E2E2E2E2E2E2E2E2E2E2E2E2E2E2E2E2E2E2E2E2E2E2E2E2E2E2E2E2E2E2E2E2E2E2E2E2E2E2E2E2E2E2E2E2E2E2E2E2E2E2E2F5E2E2E2E2E2E2E2E2E2E2E2E2E2E2E2E2F5E2E2E2F5F5E2E2E2F5E2E2E2E2E2E2
310
E2E2E2E2E2E2E2E2E2E2F5E2E2E2E2E2E2E2E2E2E2E2E2E2E2E2E2E2E2E2E2E2E2E2E2E2E2E2E2E2E2E2E2E2E2E2E2E2E2E2E2E2E2E2E2E2E2E2E2E2E2E2E2E2E2E2E2E2E2E2E2E2E2E2E2E2E2E2E2E2E2E2E2E2E2E2E2E2E2E2E2E2E2E2E2E2E2E2E2E2E2E2E2E2E2E2E2E2E2E2E2E2E2E2E2E2E2E2E2E2E2E2E2E2E2E2E2
310
E2E2E2E2E2E2E2E2E2E2E2E2E2E2E2E2E2E2E2E2F5E2E2E2E2E2E2E2E2E2E2E2E2E2E2E2E2F5E2E2E2F5F5E2E2E2F5E2E2E2E2E2E2E2E2E2E2E2E2E2E2E2E2F5E2E2E2E2E2E2E2E2E2E2E2E2E2E2E2E2E2E2E2E2E2E2E2E2E2E2E2E2E2E2E2E2E2E2E2E2E2E2E2E2E2E2E2E2E2E2E2E2E2E2E2E2E2E2E2E2E2E2E2E2E2E2E2
310
E2E2E2E2E2E2E2E2E2E2E2E2E2E2E2E2E2E2E2E2E2E2E2E2E2E2E2E2E2E2E2E2E2E2E2E2E2E2E2E2E2E2E2E2E2E2E2E2E2E2E2E2E2E2E2E2E2E2E2E2E2E2E2E2E2E2E2E2E2E2E2E2E2F5E2E2E2E2E2E2E2E2E2E2E2E2E2E2E2E2F5E2E2E2F5F5E2E2E2F5E2E2E2E2E2E2E2E2E2E2E2E2E2E2E2E2F5E2E2E2E2E2E2E2E2E2E2
310
E2E2E2E2E2E2E2E2E2E2E2E2E2E2E2E2E2E2E2E2E2E2E2E2E2E2E2E2E2E2E2E2E2E2E2E2E2E2E2E2E2E2E2E2E2E2E2E2E2E2E2E2E2E2E2E2E2E2E2E2E2E2E2E2E2E2E2E2E2E2E2E2E2E2E2E2E2E2E2E2E2E2E2E2E2E2E2E2E2E2E2E2E2E2E2E2E2E2E2E2E2E2E2E2E2E2E2E2E2E2E2E2E2E2E2E2E2E2E2E2E2E2E2E2E2E2F5
310
E2E2E2E2E2E2E2E2E2E2E2E2E2E2E2E2F5E2E2E2F5F5E2E2E2F5E2E2E2E2E2E2E2E2E2E2E2E2E2E2E2E2F5E2E2E2E2E2E2E2E2E2E2E2E2E2E2E2E2E2E2E2E2E2E2E2E2E2E2E2E2E2E2E2E2E2E2E2E2E2E2E2E2E2E2E2E2E2E2E2E2E2E2E2E2E2E2E2E2E2E2E2E2E2E2E2E2E2E2E2E2E2E2E2E2E2E2E2E2E2E2E2E2E2E2E2E2
310
E2E2E2E2E2E2E2E2E2E2E2E2E2E2E2E2E2E2E2E2E2E2E2E2E2E2E2E2E2E2E2E2E2E2E2E2E2E2E2E2E2E2E2E2E2E2E2E2E2E2E2E2F5E2E2E2E2E2E2E2E2E2E2E2E2E2E2E2E2F5E2E2E2F5F5E2E2E2F5E2E2E2E2E2E2E2E2E2E2E2E2E2E2E2E2F5E2E2E2E2E2E2E2E2E2E2E2E2E2E2E2E2E2E2E2E2E2E2E2E2E2E2E2E2E2E2E2
310
E2E2E2E2E2E2E2E2E2E2E2E2E2E2E2E2E2E2E2E2E2E2E2E2E2E2E2E2E2E2E2E2E2E2E2E2E2E2E2E2E2E2E2E2E2E2E2E2E2E2E2E2E2E2E2E2E2E2E2E2E2E2E2E2E2E2E2E2E2E2E2E2E2E2E2E2E2E2E2E2E2E2E2E2E2E2E2E2E2E2E2E2E2E2E2E2E2E2E2E2E2E2E2E2E2F5E2E2E2E2E2E2E2E2E2E2E2E2E2E2E2E2F5E2E2E2F5
310
F5E2E2E2F5E2E2E2E2E2E2E2E2E2E2E2E2E2E2E2E2F5E2E2E2E2E2E2E2E2E2E2E2E2E2E2E2E2E2E2E2E2E2E2E2E2E2E2E2E2E2E2E2E2E2E2E2E2E2E2E2E2E2E2E2E2E2E2E2E2E2E2E2E2E2E2E2E2E2E2E2E2E2E2E2E2E2E2E2E2E2E2E2E2E2E2E2E2E2E2E2E2E2E2E2E2E2E2E2E2E2E2E2E2E2E2E2E2E2E2E2E2E2E2E2E2E2
310
E2E2E2E2E2E2E2E2E2E2E2E2E2E2E2E2E2E2E2E2E2E2E2E2E2E2E2E2E2E2E2F5E2E2E2E2E2E2E2E2E2E2E2E2E2E2E2E2F5E2E2E2F5F5E2E2E2F5E2E2E2E2E2E2E2E2E2E2E2E2E2E2E2E2F5E2E2E2E2E2E2E2E2E2E2E2E2E2E2E2E2E2E2E2E2E2E2E2E2E2E2E2E2E2E2E2E2E2E2E2E2E2E2E2E2E2E2E2E2E2E2E2E2E2E2E2E2
310
E2E2E2E2E2E2E2E2E2E2E2E2E2E2E2E2E2E2E2E2E2E2E2E2E2E2E2E2E2E2E2E2E2E2E2E2E2E2E2E2E2E2E2E2E2E2E2E2E2E2E2E2E2E2E2E2E2E2E2E2E2E2E2E2E2E2E2E2E2E2E2E2E2E2E2E2E2E2E2E2E2E2E2E2F5E2E2E2E2E2E2E2E2E2E2E2E2E2E2E2E2F5E2E2E2F5F5E2E2E2F5E2E2E2E2E2E2E2E2E2E2E2E2E2E2E2E2
310
F5E2E2E2E2E2E2E2E2E2E2E2E2E2E2E2E2E2E2E2E2E2E2E2E2E2E2E2E2E2E2E2E2E2E2E2E2E2E2E2E2E2E2E2E2E2E2E2E2E2E2E2E2E2E2E2E2E2E2E2E2E2E2E2E2E2E2E2E2E2E2E2E2E2E2E2E2E2E2E2E2E2E2E2E2E2E2E2E2E2E2E2E2E2E2E2E2E2E2E2E2E2E2E2E2E2E2E2E2E2E2E2E2E2E2E2E2E2E2E2E2E2E2E2E2E2E2
310
E2E2E2E2E2E2E2E2E2E2F5E2E2E2E2E2E2E2E2E2E2E2E2E2E2E2E2F5E2E2E2F5F5E2E2E2F5E2E2E2E2E2E2E2E2E2E2E2E2E2E2E2E2F5E2E2E2E2E2E2E2E2E2E2E2E2E2E2E2E2E2E2E2E2E2E2E2E2E2E2E2E2E2E2E2E2E2E2E2E2E2E2E2E2E2E2E2E2E2E2E2E2E2E2E2E2E2E2E2E2E2E2E2E2E2E2E2E2E2E2E2E2E2E2E2E2E2
310
E2E2E2E2E2E2E2E2E2E2E2E2E2E2E2E2E2E2E2E2E2E2E2E2E2E2E2E2E2E2E2E2E2E2E2E2E2E2E2E2E2E2E2E2E2E2E2E2E2E2E2E2E2E2E2E2E2E2E2E2E2E2E2F5E2E2E2E2E2E2E2E2E2E2E2E2E2E2E2E2F5E2E2E2F5F5E2E2E2F5E2E2E2E2E2E2E2E2E2E2E2E2E2E2E2E2F5E2E2E2E2E2E2E2E2E2E2E2E2E2E2E2E2E2E2E2E2
310
E2E2E2E2E2E2E2E2E2E2E2E2E2E2E2E2E2E2E2E2E2E2E2E2E2E2E2E2E2E2E2E2E2E2E2E2E2E2E2E2E2E2E2E2E2E2E2E2E2E2E2E2E2E2E2E2E2E2E2E2E2E2E2E2E2E2E2E2E2E2E2E2E2E2E2E2E2E2E2E2E2E2E2E2E2E2E2E2E2E2E2E2E2E2E2E2E2E2E2E2E2E2E2E2E2E2E2E2E2E2E2E2E2E2E2E2F5E2E2E2E2E2E2E2E2E2E2
310
E2E2E2E2E2E2F5E2E2E2F5F5E2E2E2F5E2E2E2E2E2E2E2E2E2E2E2E2E2E2E2E2F5E2E2E2E2E2E2E2E2E2E2E2E2E2E2E2E2E2E2E2E2E2E2E2E2E2E2E2E2E2E2E2E2E2E2E2E2E2E2E2E2E2E2E2E2E2E2E2E2E2E2E2E2E2E2E2E2E2E2E2E2E2E2E2E2E2E2E2E2E2E2E2E2E2E2E2E2E2E2E2E2E2E2E2E2E2E2E2E2E2E2E2E2E2E2
310
E2E2E2E2E2E2E2E2E2E2E2E2E2E2E2E2E2E2E2E2E2E2E2E2E2E2E2E2E2E2E2E2E2E2E2E2E2E2E2E2E2E2F5E2E2E2E2E2E2E2E2E2E2E2E2E2E2E2E2F5E2E2E2F5F5E2E2E2E2E2E2E2E2E2E2E2E2E2E2E2E2E2E2E2E2F5E2E2E2E2E2E2E2E2E2E2E2E2E2E2E2E2E2E2E2E2E2E2E2E2E2E2E2E2E2E2E2E2E2E2E2E2E2E2E2E2E2
310
E2E2E2E2E2E2E2E2E2E2E2E2E2E2E2E2E2E2E2E2E2E2E2E2E2E2E2E2E2E2E2E2E2E2E2E2E2E2E2E2E2E2E2E2E2E2E2E2E2E2E2E2E2E2E2E2E2E2E2E2E2E2E2E2E2E2E2E2E2E2E2E2E2E2E2E2E2E2E2E2E2E2E2E2E2E2E2E2E2E2E2E2E2E2E2F5E2E2E2E2E2E2E2E2E2E2E2E2E2E2E2E2E2E2E2E2F5F5E2E2E2E2E2E2E2E2E2
310
E2E2E2E2E2E2E2E2E2E2E2F5E2E2E2E2E2E2E2E2E2E2E2E2E2E2E2E2E2E2E2E2E2E2E2E2E2E2E2E2E2E2E2E2E2E2E2E2E2E2E2E2E2E2E2E2E2E2E2E2E2E2E2E2E2E2E2E2E2E2E2E2E2E2E2E2E2E2E2E2E2E2E2E2E2E2E2E2E2E2E2E2E2E2E2E2E2E2E2E2E2E2E2E2E2E2E2E2E2E2E2E2E2E2E2E2E2E2E2E2E2E2E2E2E2E2E2
310
E2E2E2E2E2E2E2E2E2E2E2E2E2E2E2E2E2E2E2E2E2F5E2E2E2E2E2E2E2E2E2E2E2E2E2E2E2E2E2E2E2E2F5F5E2E2E2E2E2E2E2E2E2E2E2E2E2E2E2E2E2E2E2E2F5E2E2E2E2E2E2E2E2E2E2E2E2E2E2E2E2E2E2E2E2E2E2E2E2E2E2E2E2E2E2E2E2E2E2E2E2E2E2E2E2E2E2E2E2E2E2E2E2E2E2E2E2E2E2E2E2E2E2E2E2E2E2
310
E2E2E2E2E2E2E2E2E2E2E2E2E2E2E2E2E2E2E2E2E2E2E2E2E2E2E2E2E2E2E2E2E2E2E2E2E2E2E2E2E2E2E2E2E2E2E2E2E2E2E2E2E2E2E2E2E2E2E2E2E2E2E2E2E2E2E2E2E2E2E2E2E2E2F5E2E2E2E2E2E2E2E2E2E2E2E2E2E2E2E2E2E2E2E2F5F5E2E2E2E2E2E2E2E2E2E2E2E2E2E2E2E2E2E2E2E2F5E2E2E2E2E2E2E2E2E2
310
E2E2E2E2E2E2E2E2E2E2E2E2E2E2E2E2E2E2E2E2E2E2E2E2E2E2E2E2E2E2E2E2E2E2E2E2E2E2E2E2E2E2E2E2E2E2E2E2E2E2E2E2E2E2E2E2E2E2E2E2E2E2E2E2E2E2E2E2E2E2E2E2E2E2E2E2E2E2E2E2E2E2E2E2E2E2E2E2E2E2E2E2E2E2E2E2E2E2E2E2E2E2E2E2E2E2E2E2E2E2E2E2E2E2E2E2E2E2E2E2E2E2E2E2E2E2E2
310
F5E2E2E2E2E2E2E2E2E2E2E2E2E2E2E2E2E2E2E2E2F5F5E2E2E2E2E2E2E2E2E2E2E2E2E2E2E2E2E2E2E2E2F5E2E2E2E2E2E2E2E2E2E2E2E2E2E2E2E2E2E2E2E2E2E2E2E2E2E2E2E2E2E2E2E2E2E2E2E2E2E2E2E2E2E2E2E2E2E2E2E2E2E2E2E2E2E2E2E2E2E2E2E2E2E2E2E2E2E2E2E2E2E2E2E2E2E2E2E2E2E2E2E2E2E2E2
310
E2E2E2E2E2E2E2E2E2E2E2E2E2E2E2E2E2E2E2E2E2E2E2E2E2E2E2E2E2E2E2E2E2E2E2E2E2E2E2E2E2E2E2E2E2E2E2E2E2E2E2E2E2F5E2E2E2E2E2E2E2E2E2E2E2E2E2E2E2E2E2E2E2E2F5F5E2E2E2E2E2E2E2E2E2E2E2E2E2E2E2E2E2E2E2E2F5E2E2E2E2E2E2E2E2E2E2E2E2E2E2E2E2E2E2E2E2E2E2E2E2E2E2E2E2E2E2
310
E2E2E2E2E2E2E2E2E2E2E2E2E2E2E2E2E2E2E2E2E2E2E2E2E2E2E2E2E2E2E2E2E2E2E2E2E2E2E2E2E2E2E2E2E2E2E2E2E2E2E2E2E2E2E2E2E2E2E2E2E2E2E2E2E2E2E2E2E2E2E2E2E2E2E2E2E2E2E2E2E2E2E2E2E2E2E2E2E2E2E2E2E2E2E2E2E2E2E2E2E2E2E2E2E2E2F5E2E2E2E2E2E2E2E2E2E2E2E2E2E2E2E2E2E2E2E2
310
F5F5E2E2E2E2E2E2E2E2E2E2E2E2E2E2E2E2E2E2E2E2F5E2E2E2E2E2E2E2E2E2E2E2E2E2E2E2E2E2E2E2E2E2E2E2E2E2E2E2E2E2E2E2E2E2E2E2E2E2E2E2E2E2E2E2E2E2E2E2E2E2E2E2E2E2E2E2E2E2E2E2E2E2E2E2E2E2E2E2E2E2E2E2E2E2E2E2E2E2E2E2E2E2E2E2E2E2E2E2E2E2E2E2E2E2E2E2E2E2E2E2E2E2E2E2E2
310
E2E2E2E2E2E2E2E2E2E2E2E2E2E2E2E2E2E2E2E2E2E2E2E2E2E2E2E2E2E2E2E2F5E2E2E2E2E2E2E2E2E2E2E2E2E2E2E2E2E2E2E2E2F5F5E2E2E2E2E2E2E2E2E2E2E2E2E2E2E2E2E2E2E2E2F5E2E2E2E2E2E2E2E2E2E2E2E2E2E2E2E2E2E2E2E2E2E2E2E2E2E2E2E2E2E2E2E2E2E2E2E2E2E2E2E2E2E2E2E2E2E2E2E2E2E2E2
310
E2E2E2E2E2E2E2E2E2E2E2E2E2E2E2E2E2E2E2E2E2E2E2E2E2E2E2E2E2E2E2E2E2E2E2E2E2E2E2E2E2E2E2E2E2E2E2E2E2E2E2E2E2E2E2E2E2E2E2E2E2E2E2E2E2E2E2E2E2E2E2E2E2E2E2E2E2E2E2E2E2E2E2E2E2F5E2E2E2E2E2E2E2E2E2E2E2E2E2E2E2E2E2E2E2E2F5F5E2E2E2E2E2E2E2E2E2E2E2E2E2E2E2E2E2E2E2
310
E2F5E2E2E2E2E2E2E2E2E2E2E2E2E2E2E2E2E2E2E2E2E2E2E2E2E2E2E2E2E2E2E2E2E2E2E2E2E2E2E2E2E2E2E2E2E2E2E2E2E2E2E2E2E2E2E2E2E2E2E2E2E2E2E2E2E2E2E2E2E2E2E2E2E2E2E2E2E2E2E2E2E2E2E2E2E2E2E2E2E2E2E2E2E2E2E2E2E2E2E2E2E2E2E2E2E2E2E2E2E2E2E2E2E2E2E2E2E2E2E2E2E2E2E2E2E2
310
E2E2E2E2E2E2E2E2E2E2E2F5E2E2E2E2E2E2E2E2E2E2E2E2E2E2E2E2E2E2E2E2F5F5E2E2E2E2E2E2E2E2E2E2E2E2E2E2E2E2E2E2E2E2F5E2E2E2E2E2E2E2E2E2E2E2E2E2E2E2E2E2E2E2E2E2E2E2E2E2E2E2E2E2E2E2E2E2E2E2E2E2E2E2E2E2E2E2E2E2E2E2E2E2E2E2E2E2E2E2E2E2E2E2E2E2E2E2E2E2E2E2E2E2E2E2E2
310
E2E2E2E2E2E2E2E2E2E2E2E2E2E2E2E2E2E2E2E2E2E2E2E2E2E2E2E2E2E2E2E2E2E2E2E2E2E2E2E2E2E2E2E2E2E2E2E2E2E2E2E2E2E2E2E2E2E2E2E2E2E2E2E2F5E2E2E2E2E2E2E2E2E2E2E2E2E2E2E2E2E2E2E2E2F5F5E2E2E2F5E2E2E2E2E2E2E2E2E2E2E2E2E2E2E2E2F5E2E2E2E2E2E2E2E2E2E2E2E2E2E2E2E2E2E2E2
310
E2E2E2E2E2E2E2E2E2E2E2E2E2E2E2E2E2E2E2E2E2E2E2E2E2E2E2E2E2E2E2E2E2E2E2E2E2E2E2E2E2E2E2E2E2E2E2E2E2E2E2E2E2E2E2E2E2E2E2E2E2E2E2E2E2E2E2E2E2E2E2E2E2E2E2E2E2E2E2E2E2E2E2E2E2E2E2E2E2E2E2E2E2E2E2E2E2E2E2E2E2E2E2E2E2E2E2E2E2E2E2E2E2E2E2E2E2F5E2E2E2E2E2E2E2E2E2
310
E2E2E2E2E2E2E2F5E2E2E2F5F5E2E2E2F5E2E2E2E2E2E2E2E2E2E2E2E2E2E2E2E2F5E2E2E2E2E2E2E2E2E2E2E2E2E2E2E2E2E2E2E2E2E2E2E2E2E2E2E2E2E2E2E2E2E2E2E2E2E2E2E2E2E2E2E2E2E2E2E2E2E2E2E2E2E2E2E2E2E2E2E2E2E2E2E2E2E2E2E2E2E2E2E2E2E2E2E2E2E2E2E2E2E2E2E2E2E2E2E2E2E2E2E2E2E2
310
E2E2E2E2E2E2E2E2E2E2E2E2E2E2E2E2E2E2E2E2E2E2E2E2E2E2E2E2E2E2E2E2E2E2E2E2E2E2E2E2E2E2E2F5E2E2E2E2E2E2E2E2E2E2E2E2E2E2E2E2F5E2E2E2F5F5E2E2E2F5E2E2E2E2E2E2E2E2E2E2E2E2E2E2E2E2F5E2E2E2E2E2E2E2E2E2E2E2E2E2E2E2E2E2E2E2E2E2E2E2E2E2E2E2E2E2E2E2E2E2E2E2E2E2E2E2E2
310
E2E2E2E2E2E2E2E2E2E2E2E2E2E2E2E2E2E2E2E2E2E2E2E2E2E2E2E2E2E2E2E2E2E2E2E2E2E2E2E2E2E2E2E2E2E2E2E2E2E2E2E2E2E2E2E2E2E2E2E2E2E2E2E2E2E2E2E2E2E2E2E2E2E2E2E2E2E2E2E2E2E2E2E2E2E2E2E2E2E2E2E2E2E2E2E2F5E2E2E2E2E2E2E2E2E2E2E2E2E2E2E2E2F5E2E2E2F5F5E2E2E2F5E2E2E2E2
310
E2E2E2E2E2E2E2E2E2E2E2E2F5E2E2E2E2E2E2E2E2E2E2E2E2E2E2E2E2E2E2E2E2E2E2E2E2E2E2E2E2E2E2E2E2E2E2E2E2E2E2E2E2E2E2E2E2E2E2E2E2E2E2E2E2E2E2E2E2E2E2E2E2E2E2E2E2E2E2E2E2E2E2E2E2E2E2E2E2E2E2E2E2E2E2E2E2E2E2E2E2E2E2E2E2E2E2E2E2E2E2E2E2E2E2E2E2E2E2E2E2E2E2E2E2E2E2
310
E2E2E2E2E2E2E2E2E2E2E2E2E2E2E2E2E2E2E2E2E2E2F5E2E2E2E2E2E2E2E2E2E2E2E2E2E2E2E2F5E2E2E2F5F5E2E2E2F5E2E2E2E2E2E2E2E2E2E2E2E2E2E2E2E2F5E2E2E2E2E2E2E2E2E2E2E2E2E2E2E2E2E2E2E2E2E2E2E2E2E2E2E2E2E2E2E2E2E2E2E2E2E2E2E2E2E2E2E2E2E2E2E2E2E2E2E2E2E2E2E2E2E2E2E2E2E2
310
E2E2E2E2E2E2E2E2E2E2E2E2E2E2E2E2E2E2E2E2E2E2E2E2E2E2E2E2E2E2E2E2E2E2E2E2E2E2E2E2E2E2E2E2E2E2E2E2E2E2E2E2E2E2E2E2E2E2E2E2E2E2E2E2E2E2E2E2E2E2E2E2E2E2E2F5E2E2E2E2E2E2E2E2E2E2E2E2E2E2E2E2F5E2E2E2F5F5E2E2E2F5E2E2E2E2E2E2E2E2E2E2E2E2E2E2E2E2F5E2E2E2E2E2E2E2E2
310
E2E2E2E2E2E2E2E2E2E2E2E2E2E2E2E2E2E2E2E2E2E2E2E2E2E2E2E2E2E2E2E2E2E2E2E2E2E2E2E2E2E2E2E2E2E2E2E2E2E2E2E2E2E2E2E2E2E2E2E2E2E2E2E2E2E2E2E2E2E2E2E2E2E2E2E2E2E2E2E2E2E2E2E2E2E2E2E2E2E2E2E2E2E2E2E2E2E2E2E2E2E2E2E2E2E2E2E2E2E2E2E2E2E2E2E2E2E2E2E2E2E2E2E2E2E2E2
310
E2F5E2E2E2E2E2E2E2E2E2E2E2E2E2E2E2E2F5E2E2E2F5F5E2E2E2F5E2E2E2E2E2E2E2E2E2E2E2E2E2E2E2E2F5E2E2E2E2E2E2E2E2E2E2E2E2E2E2E2E2E2E2E2E2E2E2E2E2E2E2E2E2E2E2E2E2E2E2E2E2E2E2E2E2E2E2E2E2E2E2E2E2E2E2E2E2E2E2E2E2E2E2E2E2E2E2E2E2E2E2E2E2E2E2E2E2E2E2E2E2E2E2E2E2E2E2
310
E2E2E2E2E2E2E2E2E2E2E2E2E2E2E2E2E2E2E2E2E2E2E2E2E2E2E2E2E2E2E2E2E2E2E2E2E2E2E2E2E2E2E2E2E2E2E2E2E2E2E2E2E2E2F5E2E2E2E2E2E2E2E2E2E2E2E2E2E2E2E2F5E2E2E2F5F5E2E2E2F5E2E2E2E2E2E2E2E2E2E2E2E2E2E2E2E2F5E2E2E2E2E2E2E2E2E2E2E2E2E2E2E2E2E2E2E2E2E2E2E2E2E2E2E2E2E2
310
E2E2E2E2E2E2E2E2E2E2E2E2E2E2E2E2E2E2E2E2E2E2E2E2E2E2E2E2E2E2E2E2E2E2E2E2E2E2E2E2E2E2E2E2E2E2E2E2E2E2E2E2E2E2E2E2E2E2E2E2E2E2E2E2E2E2E2E2E2E2E2E2E2E2E2E2E2E2E2E2E2E2E2E2E2E2E2E2E2E2E2E2E2E2E2E2E2E2E2E2E2E2E2E2E2E2E2F5E2E2E2E2E2E2E2E2E2E2E2E2E2E2E2E2F5E2E2
310
E2F5F5E2E2E2F5E2E2E2E2E2E2E2E2E2E2E2E2E2E2E2E2F5E2E2E2E2E2E2E2E2E2E2E2E2E2E2E2E2E2E2E2E2E2E2E2E2E2E2E2E2E2E2E2E2E2E2E2E2E2E2E2E2E2E2E2E2E2E2E2E2E2E2E2E2E2E2E2E2E2E2E2E2E2E2E2E2E2E2E2E2E2E2E2E2E2E2E2E2E2E2E2E2E2E2E2E2E2E2E2E2E2E2E2E2E2E2E2E2E2E2E2E2E2E2E2
310
E2E2E2E2E2E2E2E2E2E2E2E2E2E2E2E2E2E2E2E2E2E2E2E2E2E2E2E2E2E2E2E2E2F5E2E2E2E2E2E2E2E2E2E2E2E2E2E2E2E2F5E2E2E2F5F5E2E2E2F5E2E2E2E2E2E2E2E2E2E2E2E2E2E2E2E2F5E2E2E2E2E2E2E2E2E2E2E2E2E2E2E2E2E2E2E2E2E2E2E2E2E2E2E2E2E2E2E2E2E2E2E2E2E2E2E2E2E2E2E2E2E2E2E2E2E2E2
310
E2E2E2E2E2E2E2E2E2E2E2E2E2E2E2E2E2E2E2E2E2E2E2E2E2E2E2E2E2E2E2E2E2E2E2E2E2E2E2E2E2E2E2E2E2E2E2E2E2E2E2E2E2E2E2E2E2E2E2E2E2E2E2E2E2E2E2E2E2E2E2E2E2E2E2E2E2E2E2E2E2E2E2E2E2E2F5E2E2E2E2E2E2E2E2E2E2E2E2E2E2E2E2F5E2E2E2F5F5E2E2E2F5E2E2E2E2E2E2E2E2E2E2E2E2E2E2
310
E2E2F5E2E2E2E2E2E2E2E2E2E2E2E2E2E2E2E2E2E2E2E2E2E2E2E2E2E2E2E2E2E2E2E2E2E2E2E2E2E2E2E2E2E2E2E2E2E2E2E2E2E2E2E2E2E2E2E2E2E2E2E2E2E2E2E2E2E2E2E2E2E2E2E2E2E2E2E2E2E2E2E2E2E2E2E2E2E2E2E2E2E2E2E2E2E2E2E2E2E2E2E2E2E2E2E2E2E2E2E2E2E2E2E2E2E2E2E2E2E2E2E2E2E2E2E2
310
E2E2E2E2E2E2E2E2E2E2E2E2F5E2E2E2E2E2E2E2E2E2E2E2E2E2E2E2E2F5E2E2E2F5F5E2E2E2F5E2E2E2E2E2E2E2E2E2E2E2E2E2E2E2E2F5E2E2E2E2E2E2E2E2E2E2E2E2E2E2E2E2E2E2E2E2E2E2E2E2E2E2E2E2E2E2E2E2E2E2E2E2E2E2E2E2E2E2E2E2E2E2E2E2E2E2E2E2E2E2E2E2E2E2E2E2E2E2E2E2E2E2E2E2E2E2E2
310
E2E2E2E2E2E2E2E2E2E2E2E2E2E2E2E2E2E2E2E2E2E2E2E2E2E2E2E2E2E2E2E2E2E2E2E2E2E2E2E2E2E2E2E2E2E2E2E2E2E2E2E2E2E2E2E2E2E2E2E2E2E2E2E2E2F5E2E2E2E2E2E2E2E2E2E2E2E2E2E2E2E2F5E2E2E2F5F5E2E2E2F5E2E2E2E2E2E2E2E2E2E2E2E2E2E2E2E2F5E2E2E2E2E2E2E2E2E2E2E2E2E2E2E2E2E2E2
310
E2E2E2E2E2E2E2E2E2E2E2E2E2E2E2E2E2E2E2E2E2E2E2E2E2E2E2E2E2E2E2E2E2E2E2E2E2E2E2E2E2E2E2E2E2E2E2E2E2E2E2E2E2E2E2E2E2E2E2E2E2E2E2E2E2E2E2E2E2E2E2E2E2E2E2E2E2E2E2E2E2E2E2E2E2E2E2E2E2E2E2E2E2E2E2E2E2E2E2E2E2E2E2E2E2E2E2E2E2E2E2E2E2E2E2E2E2E2F5E2E2E2E2E2E2E2E2
310
E2E2E2E2E2E2E2E2F5E2E2E2F5F5E2E2E2F5E2E2E2E2E2E2E2E2E2E2E2E2E2E2E2E2F5E2E2E2E2E2E2E2E2E2E2E2E2E2E2E2E2E2E2E2E2E2E2E2E2E2E2E2E2E2E2E2E2E2E2E2E2E2E2E2E2E2E2E2E2E2E2E2E2E2E2E2E2E2E2E2E2E2E2E2E2E2E2E2E2E2E2E2E2E2E2E2E2E2E2E2E2E2E2E2E2E2E2E2E2E2E2E2E2E2E2E2E2
310
E2E2E2E2E2E2E2E2E2E2E2E2E2E2E2E2E2E2E2E2E2E2E2E2E2E2E2E2E2E2E2E2E2E2E2E2E2E2E2E2E2E2E2E2F5E2E2E2E2E2E2E2E2E2E2E2E2E2E2E2E2F5E2E2E2F5F5E2E2E2F5E2E2E2E2E2E2E2E2E2E2E2E2E2E2E2E2F5E2E2E2E2E2E2E2E2E2E2E2E2E2E2E2E2E2E2E2E2E2E2E2E2E2E2E2E2E2E2E2E2E2E2E2E2E2E2E2
310
E2E2E2E2E2E2E2E2E2E2E2E2E2E2E2E2E2E2E2E2E2E2E2E2E2E2E2E2E2E2E2E2E2E2E2E2E2E2E2E2E2E2E2E2E2E2E2E2E2E2E2E2E2E2E2E2E2E2E2E2E2E2E2E2E2E2E2E2E2E2E2E2E2E2E2E2E2E2E2E2E2E2E2E2E2E2E2E2E2E2E2E2E2E2E2E2E2F5E2E2E2E2E2E2E2E2E2E2E2E2E2E2E2E2F5E2E2E2F5F5E2E2E2F5E2E2E2
310
E2E2E2E2E2E2E2E2E2E2E2E2E2F5E2E2E2E2E2E2E2E2E2E2E2E2E2E2E2E2E2E2E2E2E2E2E2E2E2E2E2E2E2E2E2E2E2E2E2E2E2E2E2E2E2E2E2E2E2E2E2E2E2E2E2E2E2E2E2E2E2E2E2E2E2E2E2E2E2E2E2E2E2E2E2E2E2E2E2E2E2E2E2E2E2E2E2E2E2E2E2E2E2E2E2E2E2E2E2E2E2E2E2E2E2E2E2E2E2E2E2E2E2E2E2E2E2
310
E2E2E2E2E2E2E2E2E2E2E2E2E2E2E2E2E2E2E2E2E2E2E2F5E2E2E2E2E2E2E2E2E2E2E2E2E2E2E2E2F5E2E2E2F5F5E2E2E2E2E2E2E2E2E2E2E2E2E2E2E2E2E2E2E2E2F5E2E2E2E2E2E2E2E2E2E2E2E2E2E2E2E2E2E2E2E2E2E2E2E2E2E2E2E2E2E2E2E2E2E2E2E2E2E2E2E2E2E2E2E2E2E2E2E2E2E2E2E2E2E2E2E2E2E2E2E2
310
E2E2E2E2E2E2E2E2E2E2E2E2E2E2E2E2E2E2E2E2E2E2E2E2E2E2E2E2E2E2E2E2E2E2E2E2E2E2E2E2E2E2E2E2E2E2E2E2E2E2E2E2E2E2E2E2E2E2E2E2E2E2E2E2E2E2E2E2E2E2E2E2E2E2E2E2F5E2E2E2E2E2E2E2E2E2E2E2E2E2E2E2E2E2E2E2E2F5F5E2E2E2E2E2E2E2E2E2E2E2E2E2E2E2E2E2E2E2E2F5E2E2E2E2E2E2E2
310
E2E2E2E2E2E2E2E2E2E2E2E2E2E2E2E2E2E2E2E2E2E2E2E2E2E2E2E2E2E2E2E2E2E2E2E2E2E2E2E2E2E2E2E2E2E2E2E2E2E2E2E2E2E2E2E2E2E2E2E2E2E2E2E2E2E2E2E2E2E2E2E2E2E2E2E2E2E2E2E2E2E2E2E2E2E2E2E2E2E2E2E2E2E2E2E2E2E2E2E2E2E2E2E2E2E2E2E2E2E2E2E2E2E2E2E2E2E2E2E2E2E2E2E2E2E2E2
310
E2E2F5E2E2E2E2E2E2E2E2E2E2E2E2E2E2E2E2E2E2E2E2F5F5E2E2E2E2E2E2E2E2E2E2E2E2E2E2E2E2E2E2E2E2F5E2E2E2E2E2E2E2E2E2E2E2E2E2E2E2E2E2E2E2E2E2E2E2E2E2E2E2E2E2E2E2E2E2E2E2E2E2E2E2E2E2E2E2E2E2E2E2E2E2E2E2E2E2E2E2E2E2E2E2E2E2E2E2E2E2E2E2E2E2E2E2E2E2E2E2E2E2E2E2E2E2
310
E2E2E2E2E2E2E2E2E2E2E2E2E2E2E2E2E2E2E2E2E2E2E2E2E2E2E2E2E2E2E2E2E2E2E2E2E2E2E2E2E2E2E2E2E2E2E2E2E2E2E2E2E2E2E2F5E2E2E2E2E2E2E2E2E2E2E2E2E2E2E2E2E2E2E2E2F5F5E2E2E2E2E2E2E2E2E2E2E2E2E2E2E2E2E2E2E2E2F5E2E2E2E2E2E2E2E2E2E2E2E2E2E2E2E2E2E2E2E2E2E2E2E2E2E2E2E2
310
E2E2E2E2E2E2E2E2E2E2E2E2E2E2E2E2E2E2E2E2E2E2E2E2E2E2E2E2E2E2E2E2E2E2E2E2E2E2E2E2E2E2E2E2E2E2E2E2E2E2E2E2E2E2E2E2E2E2E2E2E2E2E2E2E2E2E2E2E2E2E2E2E2E2E2E2E2E2E2E2E2E2E2E2E2E2E2E2E2E2E2E2E2E2E2E2E2E2E2E2E2E2E2E2E2E2E2E2F5E2E2E2E2E2E2E2E2E2E2E2E2E2E2E2E2E2E2
310
E2E2F5F5E2E2E2E2E2E2E2E2E2E2E2E2E2E2E2E2E2E2E2E2F5E2E2E2E2E2E2E2E2E2E2E2E2E2E2E2E2E2E2E2E2E2E2E2E2E2E2E2E2E2E2E2E2E2E2E2E2E2E2E2E2E2E2E2E2E2E2E2E2E2E2E2E2E2E2E2E2E2E2E2E2E2E2E2E2E2E2E2E2E2E2E2E2E2E2E2E2E2E2E2E2E2E2E2E2E2E2E2E2E2E2E2E2E2E2E2E2E2E2E2E2E2E2
310
E2E2E2E2E2E2E2E2E2E2E2E2E2E2E2E2E2E2E2E2E2E2E2E2E2E2E2E2E2E2E2E2E2E2F5E2E2E2E2E2E2E2E2E2E2E2E2E2E2E2E2E2E2E2E2F5F5E2E2E2E2E2E2E2E2E2E2E2E2E2E2E2E2E2E2E2E2F5E2E2E2E2E2E2E2E2E2E2E2E2E2E2E2E2E2E2E2E2E2E2E2E2E2E2E2E2E2E2E2E2E2E2E2E2E2E2E2E2E2E2E2E2E2E2E2E2E2
310
E2E2E2E2E2E2E2E2E2E2E2E2E2E2E2E2E2E2E2E2E2E2E2E2E2E2E2E2E2E2E2E2E2E2E2E2E2E2E2E2E2E2E2E2E2E2E2E2E2E2E2E2E2E2E2E2E2E2E2E2E2E2E2E2E2E2E2E2E2E2E2E2E2E2E2E2E2E2E2E2E2E2E2E2E2E2E2F5E2E2E2E2E2E2E2E2E2E2E2E2E2E2E2E2E2E2E2E2F5F5E2E2E2E2E2E2E2E2E2E2E2E2E2E2E2E2E2
310
E2E2E2F5E2E2E2E2E2E2E2E2E2E2E2E2E2E2E2E2E2E2E2E2E2E2E2E2E2E2E2E2E2E2E2E2E2E2E2E2E2E2E2E2E2E2E2E2E2E2E2E2E2E2E2E2E2E2E2E2E2E2E2E2E2E2E2E2E2E2E2E2E2E2E2E2E2E2E2E2E2E2E2E2E2E2E2E2E2E2E2E2E2E2E2E2E2E2E2E2E2E2E2E2E2E2E2E2E2E2E2E2E2E2E2E2E2E2E2E2E2E2E2E2E2E2E2
310
E2E2E2E2E2E2E2E2E2E2E2E2E2F5E2E2E2E2E2E2E2E2E2E2E2E2E2E2E2E2E2E2E2E2F5F5E2E2E2E2E2E2E2E2E2E2E2E2E2E2E2E2E2E2E2E2F5E2E2E2E2E2E2E2E2E2E2E2E2E2E2E2E2E2E2E2E2E2E2E2E2E2E2E2E2E2E2E2E2E2E2E2E2E2E2E2E2E2E2E2E2E2E2E2E2E2E2E2E2E2E2E2E2E2E2E2E2E2E2E2E2E2E2E2E2E2E2
310
E2E2E2E2E2E2E2E2E2E2E2E2E2E2E2E2E2E2E2E2E2E2E2E2E2E2E2E2E2E2E2E2E2E2E2E2E2E2E2E2E2E2E2E2E2E2E2E2E2E2E2E2E2E2E2E2E2E2E2E2E2E2E2E2E2E2F5E2E2E2E2E2E2E2E2E2E2E2E2E2E2E2E2E2E2E2E2F5F5E2E2E2E2E2E2E2E2E2E2E2E2E2E2E2E2E2E2E2E2F5E2E2E2E2E2E2E2E2E2E2E2E2E2E2E2E2E2
310
E2E2E2E2E2E2E2E2E2E2E2E2E2E2E2E2E2E2E2E2E2E2E2E2E2E2E2E2E2E2E2E2E2E2E2E2E2E2E2E2E2E2E2E2E2E2E2E2E2E2E2E2E2E2E2E2E2E2E2E2E2E2E2E2E2E2E2E2E2E2E2E2E2E2E2E2E2E2E2E2E2E2E2E2E2E2E2E2E2E2E2E2E2E2E2E2E2E2E2E2E2E2E2E2E2E2E2E2E2E2E2E2E2E2E2E2E2E2E2F5E2E2E2E2E2E2E2
310
E2E2E2E2E2E2E2E2E2E2E2E2E2F5F5E2E2E2F5E2E2E2E2E2E2E2E2E2E2E2E2E2E2E2E2F5E2E2E2E2E2E2E2E2E2E2E2E2E2E2E2E2E2E2E2E2E2E2E2E2E2E2E2E2E2E2E2E2E2E2E2E2E2E2E2E2E2E2E2E2E2E2E2E2E2E2E2E2E2E2E2E2E2E2E2E2E2E2E2E2E2E2E2E2E2E2E2E2E2E2E2E2E2E2E2E2E2E2E2E2E2E2E2E2E2E2E2
310
E2E2E2E2E2E2E2E2E2E2E2E2E2E2E2E2E2E2E2E2E2E2E2E2E2E2E2E2E2E2E2E2E2E2E2E2E2E2E2E2E2E2E2E2E2F5E2E2E2E2E2E2E2E2E2E2E2E2E2E2E2E2F5E2E2E2F5F5E2E2E2F5E2E2E2E2E2E2E2E2E2E2E2E2E2E2E2E2F5E2E2E2E2E2E2E2E2E2E2E2E2E2E2E2E2E2E2E2E2E2E2E2E2E2E2E2E2E2E2E2E2E2E2E2E2E2E2
310
E2E2E2E2E2E2E2E2E2E2E2E2E2E2E2E2E2E2E2E2E2E2E2E2E2E2E2E2E2E2E2E2E2E2E2E2E2E2E2E2E2E2E2E2E2E2E2E2E2E2E2E2E2E2E2E2E2E2E2E2E2E2E2E2E2E2E2E2E2E2E2E2E2E2E2E2E2E2E2E2E2E2E2E2E2E2E2E2E2E2E2E2E2E2E2E2E2E2F5E2E2E2E2E2E2E2E2E2E2E2E2E2E2E2E2F5E2E2E2F5F5E2E2E2F5E2E2
310
E2E2E2E2E2E2E2E2E2E2E2E2E2E2F5E2E2E2E2E2E2E2E2E2E2E2E2E2E2E2E2E2E2E2E2E2E2E2E2E2E2E2E2E2E2E2E2E2E2E2E2E2E2E2E2E2E2E2E2E2E2E2E2E2E2E2E2E2E2E2E2E2E2E2E2E2E2E2E2E2E2E2E2E2E2E2E2E2E2E2E2E2E2E2E2E2E2E2E2E2E2E2E2E2E2E2E2E2E2E2E2E2E2E2E2E2E2E2E2E2E2E2E2E2E2E2E2
310
E2E2E2E2E2E2E2E2E2E2E2E2E2E2E2E2E2E2E2E2E2E2E2E2F5E2E2E2E2E2E2E2E2E2E2E2E2E2E2E2E2F5E2E2E2F5F5E2E2E2F5E2E2E2E2E2E2E2E2E2E2E2E2E2E2E2E2F5E2E2E2E2E2E2E2E2E2E2E2E2E2E2E2E2E2E2E2E2E2E2E2E2E2E2E2E2E2E2E2E2E2E2E2E2E2E2E2E2E2E2E2E2E2E2E2E2E2E2E2E2E2E2E2E2E2E2E2
310
E2E2E2E2E2E2E2E2E2E2E2E2E2E2E2E2E2E2E2E2E2E2E2E2E2E2E2E2E2E2E2E2E2E2E2E2E2E2E2E2E2E2E2E2E2E2E2E2E2E2E2E2E2E2E2E2E2E2E2E2E2E2E2E2E2E2E2E2E2E2E2E2E2E2E2E2E2F5E2E2E2E2E2E2E2E2E2E2E2E2E2E2E2E2F5E2E2E2F5F5E2E2E2F5E2E2E2E2E2E2E2E2E2E2E2E2E2E2E2E2F5E2E2E2E2E2E2
310
E2E2E2E2E2E2E2E2E2E2E2E2E2E2E2E2E2E2E2E2E2E2E2E2E2E2E2E2E2E2E2E2E2E2E2E2E2E2E2E2E2E2E2E2E2E2E2E2E2E2E2E2E2E2E2E2E2E2E2E2E2E2E2E2E2E2E2E2E2E2E2E2E2E2E2E2E2E2E2E2E2E2E2E2E2E2E2E2E2E2E2E2E2E2E2E2E2E2E2E2E2E2E2E2E2E2E2E2E2E2E2E2E2E2E2E2E2E2E2E2E2E2E2E2E2E2E2
310
E2E2E2F5E2E2E2E2E2E2E2E2E2E2E2E2E2E2E2E2F5E2E2E2F5F5E2E2E2F5E2E2E2E2E2E2E2E2E2E2E2E2E2E2E2E2F5E2E2E2E2E2E2E2E2E2E2E2E2E2E2E2E2E2E2E2E2E2E2E2E2E2E2E2E2E2E2E2E2E2E2E2E2E2E2E2E2E2E2E2E2E2E2E2E2E2E2E2E2E2E2E2E2E2E2E2E2E2E2E2E2E2E2E2E2E2E2E2E2E2E2E2E2E2E2E2E2
310
E2E2E2E2E2E2E2E2E2E2E2E2E2E2E2E2E2E2E2E2E2E2E2E2E2E2E2E2E2E2E2E2E2E2E2E2E2E2E2E2E2E2E2E2E2E2E2E2E2E2E2E2E2E2E2E2F5E2E2E2E2E2E2E2E2E2E2E2E2E2E2E2E2F5E2E2E2F5F5E2E2E2F5E2E2E2E2E2E2E2E2E2E2E2E2E2E2E2E2F5E2E2E2E2E2E2E2E2E2E2E2E2E2E2E2E2E2E2E2E2E2E2E2E2E2E2E2
310
E2E2E2E2E2E2E2E2E2E2E2E2E2E2E2E2E2E2E2E2E2E2E2E2E2E2E2E2E2E2E2E2E2E2E2E2E2E2E2E2E2E2E2E2E2E2E2E2E2E2E2E2E2E2E2E2E2E2E2E2E2E2E2E2E2E2E2E2E2E2E2E2E2E2E2E2E2E2E2E2E2E2E2E2E2E2E2E2E2E2E2E2E2E2E2E2E2E2E2E2E2E2E2E2E2E2E2E2E2F5E2E2E2E2E2E2E2E2E2E2E2E2E2E2E2E2F5
310
E2E2E2F5F5E2E2E2F5E2E2E2E2E2E2E2E2E2E2E2E2E2E2E2E2F5E2E2E2E2E2E2E2E2E2E2E2E2E2E2E2E2E2E2E2E2E2E2E2E2E2E2E2E2E2E2E2E2E2E2E2E2E2E2E2E2E2E2E2E2E2E2E2E2E2E2E2E2E2E2E2E2E2E2E2E2E2E2E2E2E2E2E2E2E2E2E2E2E2E2E2E2E2E2E2E2E2E2E2E2E2E2E2E2E2E2E2E2E2E2E2E2E2E2E2E2E2
310
E2E2E2E2E2E2E2E2E2E2E2E2E2E2E2E2E2E2E2E2E2E2E2E2E2E2E2E2E2E2E2E2E2E2E2F5E2E2E2E2E2E2E2E2E2E2E2E2E2E2E2E2F5E2E2E2F5F5E2E2E2F5E2E2E2E2E2E2E2E2E2E2E2E2E2E2E2E2F5E2E2E2E2E2E2E2E2E2E2E2E2E2E2E2E2E2E2E2E2E2E2E2E2E2E2E2E2E2E2E2E2E2E2E2E2E2E2E2E2E2E2E2E2E2E2E2E2
310
E2E2E2E2E2E2E2E2E2E2E2E2E2E2E2E2E2E2E2E2E2E2E2E2E2E2E2E2E2E2E2E2E2E2E2E2E2E2E2E2E2E2E2E2E2E2E2E2E2E2E2E2E2E2E2E2E2E2E2E2E2E2E2E2E2E2E2E2E2E2E2E2E2E2E2E2E2E2E2E2E2E2E2E2E2E2E2E2F5E2E2E2E2E2E2E2E2E2E2E2E2E2E2E2E2F5E2E2E2F5F5E2E2E2F5E2E2E2E2E2E2E2E2E2E2E2E2
310
E2E2E2E2F5E2E2E2E2E2E2E2E2E2E2E2E2E2E2E2E2E2E2E2E2E2E2E2E2E2E2E2E2E2E2E2E2E2E2E2E2E2E2E2E2E2E2E2E2E2E2E2E2E2E2E2E2E2E2E2E2E2E2E2E2E2E2E2E2E2E2E2E2E2E2E2E2E2E2E2E2E2E2E2E2E2E2E2E2E2E2E2E2E2E2E2E2E2E2E2E2E2E2E2E2E2E2E2E2E2E2E2E2E2E2E2E2E2E2E2E2E2E2E2E2E2E2
310
E2E2E2E2E2E2E2E2E2E2E2E2E2E2F5E2E2E2E2E2E2E2E2E2E2E2E2E2E2E2E2F5E2E2E2F5F5E2E2E2F5E2E2E2E2E2E2E2E2E2E2E2E2E2E2E2E2F5E2E2E2E2E2E2E2E2E2E2E2E2E2E2E2E2E2E2E2E2E2E2E2E2E2E2E2E2E2E2E2E2E2E2E2E2E2E2E2E2E2E2E2E2E2E2E2E2E2E2E2E2E2E2E2E2E2E2E2E2E2E2E2E2E2E2E2E2E2
310
E2E2E2E2E2E2E2E2E2E2E2E2E2E2E2E2E2E2E2E2E2E2E2E2E2E2E2E2E2E2E2E2E2E2E2E2E2E2E2E2E2E2E2E2E2E2E2E2E2E2E2E2E2E2E2E2E2E2E2E2E2E2E2E2E2E2E2F5E2E2E2E2E2E2E2E2E2E2E2E2E2E2E2E2F5E2E2E2F5F5E2E2E2F5E2E2E2E2E2E2E2E2E2E2E2E2E2E2E2E2F5E2E2E2E2E2E2E2E2E2E2E2E2E2E2E2E2
310
E2E2E2E2E2E2E2E2E2E2E2E2E2E2E2E2E2E2E2E2E2E2E2E2E2E2E2E2E2E2E2E2E2E2E2E2E2E2E2E2E2E2E2E2E2E2E2E2E2E2E2E2E2E2E2E2E2E2E2E2E2E2E2E2E2E2E2E2E2E2E2E2E2E2E2E2E2E2E2E2E2E2E2E2E2E2E2E2E2E2E2E2E2E2E2E2E2E2E2E2E2E2E2E2E2E2E2E2E2E2E2E2E2E2E2E2E2E2E2E2F5E2E2E2E2E2E2
310
E2E2E2E2E2E2E2E2E2E2F5E2E2E2F5F5E2E2E2F5E2E2E2E2E2E2E2E2E2E2E2E2E2E2E2E2F5E2E2E2E2E2E2E2E2E2E2E2E2E2E2E2E2E2E2E2E2E2E2E2E2E2E2E2E2E2E2E2E2E2E2E2E2E2E2E2E2E2E2E2E2E2E2E2E2E2E2E2E2E2E2E2E2E2E2E2E2E2E2E2E2E2E2E2E2E2E2E2E2E2E2E2E2E2E2E2E2E2E2E2E2E2E2E2E2E2E2
310
E2E2E2E2E2E2E2E2E2E2E2E2E2E2E2E2E2E2E2E2E2E2E2E2E2E2E2E2E2E2E2E2E2E2E2E2E2E2E2E2E2E2E2E2E2E2F5E2E2E2E2E2E2E2E2E2E2E2E2E2E2E2E2F5E2E2E2F5F5E2E2E2F5E2E2E2E2E2E2E2E2E2E2E2E2E2E2E2E2F5E2E2E2E2E2E2E2E2E2E2E2E2E2E2E2E2E2E2E2E2E2E2E2E2E2E2E2E2E2E2E2E2E2E2E2E2E2
310
E2E2E2E2E2E2E2E2E2E2E2E2E2E2E2E2E2E2E2E2E2E2E2E2E2E2E2E2E2E2E2E2E2E2E2E2E2E2E2E2E2E2E2E2E2E2E2E2E2E2E2E2E2E2E2E2E2E2E2E2E2E2E2E2E2E2E2E2E2E2E2E2E2E2E2E2E2E2E2E2E2E2E2E2E2E2E2E2E2E2E2E2E2E2E2E2E2E2E2F5E2E2E2E2E2E2E2E2E2E2E2E2E2E2E2E2F5E2E2E2F5F5E2E2E2F5E2
310
E2E2E2E2E2E2E2E2E2E2E2E2E2E2E2F5E2E2E2E2E2E2E2E2E2E2E2E2E2E2E2E2E2E2E2E2E2E2E2E2E2E2E2E2E2E2E2E2E2E2E2E2E2E2E2E2E2E2E2E2E2E2E2E2E2E2E2E2E2E2E2E2E2E2E2E2E2E2E2E2E2E2E2E2E2E2E2E2E2E2E2E2E2E2E2E2E2E2E2E2E2E2E2E2E2E2E2E2E2E2E2E2E2E2E2E2E2E2E2E2E2E2E2E2E2E2E2
310
E2E2E2E2E2E2E2E2E2E2E2E2E2E2E2E2E2E2E2E2E2E2E2E2E2F5E2E2E2E2E2E2E2E2E2E2E2E2E2E2E2E2F5E2E2E2F5F5E2E2E2F5E2E2E2E2E2E2E2E2E2E2E2E2E2E2E2E2F5E2E2E2E2E2E2E2E2E2E2E2E2E2E2E2E2E2E2E2E2E2E2E2E2E2E2E2E2E2E2E2E2E2E2E2E2E2E2E2E2E2E2E2E2E2E2E2E2E2E2E2E2E2E2E2E2E2E2
310
E2E2E2E2E2E2E2E2E2E2E2E2E2E2E2E2E2E2E2E2E2E2E2E2E2E2E2E2E2E2E2E2E2E2E2E2E2E2E2E2E2E2E2E2E2E2E2E2E2E2E2E2E2E2E2E2E2E2E2E2E2E2E2E2E2E2E2E2E2E2E2E2E2E2E2E2E2E2F5E2E2E2E2E2E2E2E2E2E2E2E2E2E2E2E2F5E2E2E2F5F5E2E2E2F5E2E2E2E2E2E2E2E2E2E2E2E2E2E2E2E2F5E2E2E2E2E2
310
E2E2E2E2E2E2E2E2E2E2E2E2E2E2E2E2E2E2E2E2E2E2E2E2E2E2E2E2E2E2E2E2E2E2E2E2E2E2E2E2E2E2E2E2E2E2E2E2E2E2E2E2E2E2E2E2E2E2E2E2E2E2E2E2E2E2E2E2E2E2E2E2E2E2E2E2E2E2E2E2E2E2E2E2E2E2E2E2E2E2E2E2E2E2E2E2E2E2E2E2E2E2E2E2E2E2E2E2E2E2E2E2E2E2E2E2E2E2E2E2E2E2E2E2E2E2E2
310
E2E2E2E2F5E2E2E2E2E2E2E2E2E2E2E2E2E2E2E2E2F5E2E2E2F5F5E2E2E2E2E2E2E2E2E2E2E2E2E2E2E2E2E2E2E2E2F5E2E2E2E2E2E2E2E2E2E2E2E2E2E2E2E2E2E2E2E2E2E2E2E2E2E2E2E2E2E2E2E2E2E2E2E2E2E2E2E2E2E2E2E2E2E2E2E2E2E2E2E2E2E2E2E2E2E2E2E2E2E2E2E2E2E2E2E2E2E2E2E2E2E2E2E2E2E2E2
310
E2E2E2E2E2E2E2E2E2E2E2E2E2E2E2E2E2E2E2E2E2E2E2E2E2E2E2E2E2E2E2E2E2E2E2E2E2E2E2E2E2E2E2E2E2E2E2E2E2E2E2E2E2E2E2E2E2F5E2E2E2E2E2E2E2E2E2E2E2E2E2E2E2E2E2E2E2E2F5F5E2E2E2E2E2E2E2E2E2E2E2E2E2E2E2E2E2E2E2E2F5E2E2E2E2E2E2E2E2E2E2E2E2E2E2E2E2E2E2E2E2E2E2E2E2E2E2
310
E2E2E2E2E2E2E2E2E2E2E2E2E2E2E2E2E2E2E2E2E2E2E2E2E2E2E2E2E2E2E2E2E2E2E2E2E2E2E2E2E2E2E2E2E2E2E2E2E2E2E2E2E2E2E2E2E2E2E2E2E2E2E2E2E2E2E2E2E2E2E2E2E2E2E2E2E2E2E2E2E2E2E2E2E2E2E2E2E2E2E2E2E2E2E2E2E2E2E2E2E2E2E2E2E2E2E2E2E2E2F5E2E2E2E2E2E2E2E2E2E2E2E2E2E2E2E2
310
E2E2E2E2F5F5E2E2E2E2E2E2E2E2E2E2E2E2E2E2E2E2E2E2E2E2F5E2E2E2E2E2E2E2E2E2E2E2E2E2E2E2E2E2E2E2E2E2E2E2E2E2E2E2E2E2E2E2E2E2E2E2E2E2E2E2E2E2E2E2E2E2E2E2E2E2E2E2E2E2E2E2E2E2E2E2E2E2E2E2E2E2E2E2E2E2E2E2E2E2E2E2E2E2E2E2E2E2E2E2E2E2E2E2E2E2E2E2E2E2E2E2E2E2E2E2E2
310
E2E2E2E2E2E2E2E2E2E2E2E2E2E2E2E2E2E2E2E2E2E2E2E2E2E2E2E2E2E2E2E2E2E2E2E2F5E2E2E2E2E2E2E2E2E2E2E2E2E2E2E2E2E2E2E2E2F5F5E2E2E2E2E2E2E2E2E2E2E2E2E2E2E2E2E2E2E2E2F5E2E2E2E2E2E2E2E2E2E2E2E2E2E2E2E2E2E2E2E2E2E2E2E2E2E2E2E2E2E2E2E2E2E2E2E2E2E2E2E2E2E2E2E2E2E2E2
310
E2E2E2E2E2E2E2E2E2E2E2E2E2E2E2E2E2E2E2E2E2E2E2E2E2E2E2E2E2E2E2E2E2E2E2E2E2E2E2E2E2E2E2E2E2E2E2E2E2E2E2E2E2E2E2E2E2E2E2E2E2E2E2E2E2E2E2E2E2E2E2E2E2E2E2E2E2E2E2E2E2E2E2E2E2E2E2E2E2F5E2E2E2E2E2E2E2E2E2E2E2E2E2E2E2E2E2E2E2E2F5F5E2E2E2E2E2E2E2E2E2E2E2E2E2E2E2
310
E2E2E2E2E2F5F5F5F5F5F5F5F5F5F5F5F5F5F5F5F5F5F5F5F5F5F5F5F5F5F5F5F5F5F5F5F5F5F5F5F5F5F5F5F5F5F5F5F5F5F5F5F5F5F5F5F5F5F5F5F5F5F5F5F5F5F5F5F5F5F5F5F5F5F5F5F5F5F5F5F5F5F5F5F5F5F5F5F5F5F5F5F5F5F5F5F5F5F5F5F5F5F5F5F5F5F5F5F5F5F5F5F5F5F5F5F5F5F5F5F5F5F5F5F5F5F5
310
F5F5F5F5F5F5F5F5F5F5F5F5F5F5F5F5E2E2E2E2E2E2E2E2E2E2E2E2E2E2E2E2E2E2E2E2F5F5E2E2E2E2E2E2E2E2E2E2E2E2E2E2E2E2E2E2E2E2E2E2E2E2E2E2E2E2E2E2E2E2E2E2E2E2E2E2E2E2E2E2E2E2E2E2E2E2E2E2E2E2E2E2E2E2E2E2E2E2E2E2E2E2E2E2E2E2E2E2E2E2E2E2E2E2E2E2E2E2E2E2E2E2E2E2E2E2E2
310
E2E2E2E2E2E2E2E2E2E2E2E2E2E2E2E2E2E2E2E2E2E2E2E2E2E2E2E2E2E2E2E2E2E2E2E2E2E2E2E2E2E2E2E2E2E2E2E2E2E2E2E2E2E2E2E2E2E2E2E2E2E2E2E2E2E2E2E2E2E2E2E2E2E2E2E2E2E2E2E2E2E2E2E2E2E2E2E2E2F5F5E2E2E2E2E2E2E2E2E2E2E2E2E2E2E2E2E2E2E2E2E2E2E2E2E2E2E2E2E2E2E2E2E2E2E2E2
310
E2E2E2E2E2E2E2E2E2E2E2E2E2E2E2E2E2E2E2E2E2E2E2E2E2E2E2E2E2E2E2E2E2E2E2E2E2E2E2E2E2E2E2E2E2E2E2E2E2E2E2E2E2E2E2E2E2E2E2E2E2E2E2E2E2E2E2E2E2E2E2E2E2E2E2E2E2E2E2E2E2E2E2E2E2E2E2E2E2E2E2E2E2E2E2E2E2E2E2E2E2E2E2E2E2E2E2E2E2E2E2E2E2E2E2E2E2E2E2E2E2E2E2E2E2E2E2
310
E2E2E2E2E2E2E2E2E2E2E2E2E2E2E2F5F5E2E2E2E2E2E2E2E2E2E2E2E2E2E2E2E2E2E2E2E2E2E2E2E2E2E2E2E2E2E2E2E2E2E2E2E2E2E2E2E2E2E2E2E2E2E2E2E2E2E2E2E2E2E2E2E2E2E2E2E2E2E2E2E2E2E2E2E2E2E2E2E2E2E2E2E2E2E2E2E2E2E2E2E2E2E2E2E2E2E2E2E2E2E2E2E2E2E2E2E2E2E2E2E2E2E2E2E2E2E2
310
E2E2E2E2E2E2E2E2E2E2E2E2E2E2E2E2E2E2E2E2E2E2E2E2E2E2E2E2E2E2E2E2E2E2E2E2E2E2E2E2E2E2E2E2E2E2E2E2E2E2E2E2E2E2E2E2E2E2E2E2E2E2E2E2E2E2E2E2F5F5E2E2E2E2E2E2E2E2E2E2E2E2E2E2E2E2E2E2E2E2E2E2E2E2E2E2E2E2E2E2E2E2E2E2E2E2E2E2E2E2E2E2E2E2E2E2E2E2E2E2E2E2E2E2E2E2E2
310
E2E2E2E2E2E2E2E2E2E2E2E2E2E2E2E2E2E2E2E2E2E2E2E2E2E2E2E2E2E2E2E2E2E2E2E2E2E2E2E2E2E2E2E2E2E2E2E2E2E2E2E2E2E2E2E2E2E2E2E2E2E2E2E2E2E2E2E2E2E2E2E2E2E2E2E2E2E2E2E2E2E2E2E2E2E2E2E2E2E2E2E2E2E2E2E2E2E2E2E2E2E2E2E2E2E2E2E2E2E2E2E2E2E2E2E2E2E2E2E2E2F5F5E2E2E2F5
310
E2E2E2E2E2E2E2E2E2E2E2E2E2E2E2E2E2E2E2E2E2E2E2E2E2E2E2E2E2E2E2E2E2E2E2E2E2E2E2E2E2E2E2E2E2E2E2E2E2E2E2E2E2E2E2E2E2E2E2E2E2E2E2E2E2E2E2E2E2E2E2E2E2E2E2E2E2E2E2E2E2E2E2E2E2E2E2E2E2E2E2E2E2E2E2E2E2E2E2E2E2E2E2E2E2E2E2E2E2E2E2E2E2E2E2E2E2E2E2E2E2E2E2E2E2E2E2
310
E2E2E2E2E2E2E2E2E2E2E2E2E2E2E2E2E2E2E2E2E2E2E2E2E2E2E2E2E2E2E2E2E2E2E2E2E2E2E2E2E2E2E2F5E2E2E2F5F5E2E2E2F5E2E2E2E2E2E2E2E2E2E2E2E2E2E2E2E2E2E2E2E2E2E2E2E2E2E2E2E2E2E2E2E2E2E2E2E2E2E2E2E2E2E2E2E2E2E2E2E2E2E2E2E2E2E2E2E2E2E2E2E2E2E2E2E2E2E2E2E2E2E2E2E2E2E2
310
E2E2E2E2E2E2E2E2E2E2E2E2E2E2E2E2E2E2E2E2E2E2E2E2E2E2E2E2E2E2E2E2E2E2E2E2E2E2E2E2E2E2E2E2E2E2E2E2E2E2E2E2E2E2E2E2E2E2E2E2E2E2E2E2E2E2E2E2E2E2E2E2E2E2E2E2E2E2E2E2E2E2E2E2E2E2E2E2E2E2E2E2E2E2E2E2F5E2E2E2F5F5E2E2E2F5E2E2E2E2E2E2E2E2E2E2E2E2E2E2E2E2E2E2E2E2E2
310
E2E2E2E2E2E2E2E2E2E2E2E2E2E2E2E2E2E2E2E2E2E2E2E2E2E2E2E2E2E2E2E2E2E2E2E2E2E2E2E2E2E2E2E2E2E2E2E2E2E2E2E2E2E2E2E2E2E2E2E2E2E2E2E2E2E2E2E2E2E2E2E2E2E2E2E2E2E2E2E2E2E2E2E2E2E2E2E2E2E2E2E2E2E2E2E2E2E2E2E2E2E2E2E2E2E2E2E2E2E2E2E2E2E2E2E2E2E2E2E2E2E2E2E2E2E2E2
310
E2E2E2E2E2E2E2E2E2E2E2E2E2E2E2E2E2E2E2E2E2E2F5E2E2E2F5F5E2E2E2F5E2E2E2E2E2E2E2E2E2E2E2E2E2E2E2E2E2E2E2E2E2E2E2E2E2E2E2E2E2E2E2E2E2E2E2E2E2E2E2E2E2E2E2E2E2E2E2E2E2E2E2E2E2E2E2E2E2E2E2E2E2E2E2E2E2E2E2E2E2E2E2E2E2E2E2E2E2E2E2E2E2E2E2E2E2E2E2E2E2E2E2E2E2E2E2
310
E2E2E2E2E2E2E2E2E2E2E2E2E2E2E2E2E2E2E2E2E2E2E2E2E2E2E2E2E2E2E2E2E2E2E2E2E2E2E2E2E2E2E2E2E2E2E2E2E2E2E2E2E2E2E2E2E2E2E2E2E2E2E2E2E2E2E2E2E2E2E2E2E2E2E2F5E2E2E2F5F5E2E2E2F5E2E2E2E2E2E2E2E2E2E2E2E2E2E2E2E2E2E2E2E2E2E2E2E2E2E2E2E2E2E2E2E2E2E2E2E2E2E2E2E2E2E2
310
E2E2E2E2E2E2E2E2E2E2E2E2E2E2E2E2E2E2E2E2E2E2E2E2E2E2E2E2E2E2E2E2E2E2E2E2E2E2E2E2E2E2E2E2E2E2E2E2E2E2E2E2E2E2E2E2E2E2E2E2E2E2E2E2E2E2E2E2E2E2E2E2E2E2E2E2E2E2E2E2E2E2E2E2E2E2E2E2E2E2E2E2E2E2E2E2E2E2E2E2E2E2E2E2E2E2E2E2E2E2E2E2E2E2E2E2E2E2E2E2E2E2E2E2E2E2E2
310
E2F5E2E2E2F5F5E2E2E2F5E2E2E2E2E2E2E2E2E2E2E2E2E2E2E2E2E2E2E2E2E2E2E2E2E2E2E2E2E2E2E2E2E2E2E2E2E2E2E2E2E2E2E2E2E2E2E2E2E2E2E2E2E2E2E2E2E2E2E2E2E2E2E2E2E2E2E2E2E2E2E2E2E2E2E2E2E2E2E2E2E2E2E2E2E2E2E2E2E2E2E2E2E2E2E2E2E2E2E2E2E2E2E2E2E2E2E2E2E2E2E2E2E2E2E2E2
310
E2E2E2E2E2E2E2E2E2E2E2E2E2E2E2E2E2E2E2E2E2E2E2E2E2E2E2E2E2E2E2E2E2E2E2E2E2E2E2E2E2E2E2E2E2E2E2E2E2E2E2E2E2E2F5E2E2E2F5F5E2E2E2F5E2E2E2E2E2E2E2E2E2E2E2E2E2E2E2E2E2E2E2E2E2E2E2E2E2E2E2E2E2E2E2E2E2E2E2E2E2E2E2E2E2E2E2E2E2E2E2E2E2E2E2E2E2E2E2E2E2E2E2E2E2E2E2
310
E2E2E2E2E2E2E2E2E2E2E2E2E2E2E2E2E2E2E2E2E2E2E2E2E2E2E2E2E2E2E2E2E2E2E2E2E2E2E2E2E2E2E2E2E2E2E2E2E2E2E2E2E2E2E2E2E2E2E2E2E2E2E2E2E2E2E2E2E2E2E2E2E2E2E2E2E2E2E2E2E2E2E2E2E2E2E2E2E2E2E2E2E2E2E2E2E2E2E2E2E2E2E2E2E2E2E2F5E2E2E2F5F5E2E2E2F5E2E2E2E2E2E2E2E2E2E2
310
E2E2E2E2E2E2E2E2E2E2E2E2E2E2E2E2E2E2E2E2E2E2E2E2E2E2E2E2E2E2E2E2E2E2E2E2E2E2E2E2E2E2E2E2E2E2E2E2E2E2E2E2E2E2E2E2E2E2E2E2E2E2E2E2E2E2E2E2E2E2E2E2E2E2E2E2E2E2E2E2E2E2E2E2E2E2E2E2E2E2E2E2E2E2E2E2E2E2E2E2E2E2E2E2E2E2E2E2E2E2E2E2E2E2E2E2E2E2E2E2E2E2E2E2E2E2E2
310
E2E2E2E2E2E2E2E2E2E2E2E2E2E2E2E2E2E2E2E2E2E2E2E2E2E2E2E2E2E2E2E2E2F5E2E2E2F5F5E2E2E2F5F5F5F5F5F5F5F5E2E2E2E2E2E2E2E2E2F5F5F5F5F5F5F5F5F5F5F5F5F5F5F5F5E2E2E2E2E2E2E2E2E2F5F5F5F5F5F5F5F5F5F5F5F5F5F5F5E2E2E2E2E2E2E2E2E2F5F5F5F5F5F5F5F5F5F5F5F5F5F5F5F5E2E2E2
310
E2E2E2E2E2F5F5F5F5F5F5F5F5F5F5F5F5F5F5F5F5E2E2E2E2E2E2E2E2E2F5F5F5F5F5F5F5F5F5F5F5F5F5F5F5E2E2E2E2E2E2E2E2E2F5F5F5F5F5F5F5F5F5F5F5F5F5F5F5F5E2E2E2E2E2E2E2E2E2F5F5F5F5F5F5F5F5E2E2E2F5F5E2E2E2E2E2E2E2E2E2E2E2E2E2E2E2E2E2E2E2E2E2E2E2E2E2E2E2E2E2E2E2E2E2E2E2
310
E2E2E2E2E2E2E2E2E2E2E2E2E2E2E2E2E2E2E2E2E2E2E2E2E2E2E2E2E2E2E2E2E2E2E2E2E2E2E2E2E2E2E2E2E2E2E2E2E2E2E2E2E2E2E2E2E2E2E2E2E2E2E2E2E2E2E2E2E2E2E2E2E2E2E2E2E2E2E2E2E2E2E2E2E2E2E2E2E2E2E2E2E2E2E2E2E2E2E2E2E2E2E2E2E2E2E2E2E2E2E2E2E2E2E2E2E2E2E2E2E2E2E2E2E2E2E2
310
E2E2E2E2E2E2E2E2E2E2E2E2E2E2E2E2F5F5E2E2E2E2E2E2E2E2E2E2E2E2E2E2E2E2E2E2E2E2E2E2E2E2E2E2E2E2E2E2E2E2E2E2E2E2E2E2E2E2E2E2E2E2E2E2E2E2E2E2E2E2E2E2E2E2E2E2E2E2E2E2E2E2E2E2E2E2E2E2E2E2E2E2E2E2E2E2E2E2E2E2E2E2E2E2E2E2E2E2E2E2E2E2E2E2E2E2E2E2E2E2E2E2E2E2E2E2E2
310
E2E2E2E2E2E2E2E2E2E2E2E2E2E2E2E2E2E2E2E2E2E2E2E2E2E2E2E2E2E2E2E2E2E2E2E2E2E2E2E2E2E2E2E2E2E2E2E2E2E2E2E2E2E2E2E2E2E2E2E2E2E2E2E2E2E2E2E2E2F5F5E2E2E2E2E2E2E2E2E2E2E2E2E2E2E2E2E2E2E2E2E2E2E2E2E2E2E2E2E2E2E2E2E2E2E2E2E2E2E2E2E2E2E2E2E2E2E2E2E2E2E2E2E2E2E2E2
310
E2E2E2E2E2E2E2E2E2E2E2E2E2E2E2E2E2E2E2E2E2E2E2E2E2E2E2E2E2E2E2E2E2E2E2E2E2E2E2E2E2E2E2E2E2E2E2E2E2E2E2E2E2E2E2E2E2E2E2E2E2E2E2E2E2E2E2E2E2E2E2E2E2E2E2E2E2E2E2E2E2E2E2E2E2E2E2E2E2E2E2E2E2E2E2E2E2E2E2E2E2E2E2E2E2E2E2E2E2E2E2E2E2E2E2E2E2E2E2E2E2E2F5F5E2E2E2
310
E2E2E2E2E2E2E2E2E2E2E2E2E2E2E2E2E2E2E2E2E2E2E2E2E2E2E2E2E2E2E2E2E2E2E2E2E2E2E2E2E2E2E2E2E2E2E2E2E2E2E2E2E2E2E2E2E2E2E2E2E2E2E2E2E2E2E2E2E2E2E2E2E2E2E2E2E2E2E2E2E2E2E2E2E2E2E2E2E2E2E2E2E2E2E2E2E2E2E2E2E2E2E2E2E2E2E2E2E2E2E2E2E2E2E2E2E2E2E2E2E2E2E2E2E2E2E2
310
E2E2E2E2E2E2E2E2E2E2E2E2E2E2E2E2E2E2E2E2E2E2E2E2E2E2E2E2E2E2E2E2E2E2E2E2E2E2E2E2E2E2E2E2E2E2E2E2F5
  0
XRECORD
  5
61E39
102
{ACAD_REACTORS
330
61E38
102
}
330
61E38
100
AcDbXrecord
280
     1
102
SHADEPLOT
 70
     0
102
SHADEPLOTRESLEVEL
 70
     2
102
SHADEPLOTCUSTOMDPI
 70
   300
  0
ENDSEC
  0
EOF
