  0
SECTION
  2
HEADER
  9
$ACADVER
  1
AC1015
  9
$ACADMAINTVER
 70
    20
  9
$DWGCODEPAGE
  3
ANSI_936
  9
$INSBASE
 10
0.0
 20
0.0
 30
0.0
  9
$EXTMIN
 10
-207.1336412165575
 20
-56.61005773151498
 30
0.0
  9
$EXTMAX
 10
358.5795235932718
 20
98.57378453863365
 30
0.0
  9
$LIMMIN
 10
0.0
 20
0.0
  9
$LIMMAX
 10
420.0
 20
297.0
  9
$ORTHOMODE
 70
     0
  9
$REGENMODE
 70
     1
  9
$FILLMODE
 70
     1
  9
$QTEXTMODE
 70
     0
  9
$MIRRTEXT
 70
     1
  9
$LTSCALE
 40
1.0
  9
$ATTMODE
 70
     1
  9
$TEXTSIZE
 40
3.5
  9
$TRACEWID
 40
1.0
  9
$TEXTSTYLE
  7
simplex
  9
$CLAYER
  8
0
  9
$CELTYPE
  6
ByLayer
  9
$CECOLOR
 62
   256
  9
$CELTSCALE
 40
1.0
  9
$DISPSILH
 70
     0
  9
$DIMSCALE
 40
0.0
  9
$DIMASZ
 40
3.5
  9
$DIMEXO
 40
0.0
  9
$DIMDLI
 40
0.38
  9
$DIMRND
 40
0.0
  9
$DIMDLE
 40
0.0
  9
$DIMEXE
 40
1.5
  9
$DIMTP
 40
0.0
  9
$DIMTM
 40
0.0
  9
$DIMTXT
 40
3.5
  9
$DIMCEN
 40
0.09
  9
$DIMTSZ
 40
0.0
  9
$DIMTOL
 70
     0
  9
$DIMLIM
 70
     0
  9
$DIMTIH
 70
     0
  9
$DIMTOH
 70
     0
  9
$DIMSE1
 70
     0
  9
$DIMSE2
 70
     0
  9
$DIMTAD
 70
     1
  9
$DIMZIN
 70
     8
  9
$DIMBLK
  1

  9
$DIMASO
 70
     1
  9
$DIMSHO
 70
     1
  9
$DIMPOST
  1

  9
$DIMAPOST
  1

  9
$DIMALT
 70
     0
  9
$DIMALTD
 70
     2
  9
$DIMALTF
 40
25.4
  9
$DIMLFAC
 40
1.0
  9
$DIMTOFL
 70
     0
  9
$DIMTVP
 40
0.0
  9
$DIMTIX
 70
     0
  9
$DIMSOXD
 70
     0
  9
$DIMSAH
 70
     0
  9
$DIMBLK1
  1

  9
$DIMBLK2
  1

  9
$DIMSTYLE
  2
\M+18352\M+18373\M+1815B - ISO-25
  9
$DIMCLRD
 70
   256
  9
$DIMCLRE
 70
   256
  9
$DIMCLRT
 70
   256
  9
$DIMTFAC
 40
1.0
  9
$DIMGAP
 40
2.299999999999998
  9
$DIMJUST
 70
     0
  9
$DIMSD1
 70
     0
  9
$DIMSD2
 70
     0
  9
$DIMTOLJ
 70
     1
  9
$DIMTZIN
 70
     8
  9
$DIMALTZ
 70
     0
  9
$DIMALTTZ
 70
     0
  9
$DIMUPT
 70
     0
  9
$DIMDEC
 70
     2
  9
$DIMTDEC
 70
     2
  9
$DIMALTU
 70
     2
  9
$DIMALTTD
 70
     2
  9
$DIMTXSTY
  7
simplex
  9
$DIMAUNIT
 70
     0
  9
$DIMADEC
 70
     0
  9
$DIMALTRND
 40
0.0
  9
$DIMAZIN
 70
     0
  9
$DIMDSEP
 70
    46
  9
$DIMATFIT
 70
     3
  9
$DIMFRAC
 70
     0
  9
$DIMLDRBLK
  1

  9
$DIMLUNIT
 70
     2
  9
$DIMLWD
 70
    -1
  9
$DIMLWE
 70
    -1
  9
$DIMTMOVE
 70
     0
  9
$LUNITS
 70
     2
  9
$LUPREC
 70
     4
  9
$SKETCHINC
 40
1.0
  9
$FILLETRAD
 40
1.5
  9
$AUNITS
 70
     0
  9
$AUPREC
 70
     0
  9
$MENU
  1
.
  9
$ELEVATION
 40
0.0
  9
$PELEVATION
 40
0.0
  9
$THICKNESS
 40
0.0
  9
$LIMCHECK
 70
     0
  9
$CHAMFERA
 40
10.0
  9
$CHAMFERB
 40
10.0
  9
$CHAMFERC
 40
20.0
  9
$CHAMFERD
 40
0.0
  9
$SKPOLY
 70
     0
  9
$TDCREATE
 40
2455489.391063368
  9
$TDUCREATE
 40
2455489.057730035
  9
$TDUPDATE
 40
2458416.674161979
  9
$TDUUPDATE
 40
2458416.340828646
  9
$TDINDWG
 40
2.0349713889
  9
$TDUSRTIMER
 40
2.0349196759
  9
$USRTIMER
 70
     1
  9
$ANGBASE
 50
0.0
  9
$ANGDIR
 70
     0
  9
$PDMODE
 70
     0
  9
$PDSIZE
 40
0.0
  9
$PLINEWID
 40
0.0
  9
$SPLFRAME
 70
     0
  9
$SPLINETYPE
 70
     6
  9
$SPLINESEGS
 70
     8
  9
$HANDSEED
  5
61B5C
  9
$SURFTAB1
 70
     6
  9
$SURFTAB2
 70
     6
  9
$SURFTYPE
 70
     6
  9
$SURFU
 70
     6
  9
$SURFV
 70
     6
  9
$UCSBASE
  2

  9
$UCSNAME
  2

  9
$UCSORG
 10
0.0
 20
0.0
 30
0.0
  9
$UCSXDIR
 10
1.0
 20
0.0
 30
0.0
  9
$UCSYDIR
 10
0.0
 20
1.0
 30
0.0
  9
$UCSORTHOREF
  2

  9
$UCSORTHOVIEW
 70
     0
  9
$UCSORGTOP
 10
0.0
 20
0.0
 30
0.0
  9
$UCSORGBOTTOM
 10
0.0
 20
0.0
 30
0.0
  9
$UCSORGLEFT
 10
0.0
 20
0.0
 30
0.0
  9
$UCSORGRIGHT
 10
0.0
 20
0.0
 30
0.0
  9
$UCSORGFRONT
 10
0.0
 20
0.0
 30
0.0
  9
$UCSORGBACK
 10
0.0
 20
0.0
 30
0.0
  9
$PUCSBASE
  2

  9
$PUCSNAME
  2

  9
$PUCSORG
 10
0.0
 20
0.0
 30
0.0
  9
$PUCSXDIR
 10
1.0
 20
0.0
 30
0.0
  9
$PUCSYDIR
 10
0.0
 20
1.0
 30
0.0
  9
$PUCSORTHOREF
  2

  9
$PUCSORTHOVIEW
 70
     0
  9
$PUCSORGTOP
 10
0.0
 20
0.0
 30
0.0
  9
$PUCSORGBOTTOM
 10
0.0
 20
0.0
 30
0.0
  9
$PUCSORGLEFT
 10
0.0
 20
0.0
 30
0.0
  9
$PUCSORGRIGHT
 10
0.0
 20
0.0
 30
0.0
  9
$PUCSORGFRONT
 10
0.0
 20
0.0
 30
0.0
  9
$PUCSORGBACK
 10
0.0
 20
0.0
 30
0.0
  9
$USERI1
 70
     0
  9
$USERI2
 70
     0
  9
$USERI3
 70
     0
  9
$USERI4
 70
     0
  9
$USERI5
 70
     0
  9
$USERR1
 40
0.0
  9
$USERR2
 40
0.0
  9
$USERR3
 40
0.0
  9
$USERR4
 40
0.0
  9
$USERR5
 40
0.0
  9
$WORLDVIEW
 70
     1
  9
$SHADEDGE
 70
     3
  9
$SHADEDIF
 70
    70
  9
$TILEMODE
 70
     1
  9
$MAXACTVP
 70
    64
  9
$PINSBASE
 10
0.0
 20
0.0
 30
0.0
  9
$PLIMCHECK
 70
     0
  9
$PEXTMIN
 10
26.66999878883364
 20
20.31999878883365
 30
0.0
  9
$PEXTMAX
 10
240.0299890995025
 20
182.8799890995025
 30
0.0
  9
$PLIMMIN
 10
-6.350006103515625
 20
-6.349999904632567
  9
$PLIMMAX
 10
273.0499877929688
 20
209.5499939918518
  9
$UNITMODE
 70
     0
  9
$VISRETAIN
 70
     1
  9
$PLINEGEN
 70
     0
  9
$PSLTSCALE
 70
     1
  9
$TREEDEPTH
 70
  3020
  9
$CMLSTYLE
  2
Standard
  9
$CMLJUST
 70
     0
  9
$CMLSCALE
 40
20.0
  9
$PROXYGRAPHICS
 70
     1
  9
$MEASUREMENT
 70
     1
  9
$CELWEIGHT
370
    -1
  9
$ENDCAPS
280
     0
  9
$JOINSTYLE
280
     0
  9
$LWDISPLAY
290
     0
  9
$INSUNITS
 70
     4
  9
$HYPERLINKBASE
  1

  9
$STYLESHEET
  1

  9
$XEDIT
290
     1
  9
$CEPSNTYPE
380
     0
  9
$PSTYLEMODE
290
     1
  9
$FINGERPRINTGUID
  2
{601DDA01-5B13-4A4C-8F56-1333B78D855B}
  9
$VERSIONGUID
  2
{B0703523-7305-4928-A85C-71F70962EB88}
  9
$EXTNAMES
290
     1
  9
$PSVPSCALE
 40
0.0
  9
$OLESTARTUP
290
     0
  0
ENDSEC
  0
SECTION
  2
CLASSES
  0
CLASS
  1
ACDBDICTIONARYWDFLT
  2
AcDbDictionaryWithDefault
  3
ObjectDBX Classes
 90
        0
280
     0
281
     0
  0
CLASS
  1
ACDBPLACEHOLDER
  2
AcDbPlaceHolder
  3
ObjectDBX Classes
 90
        0
280
     0
281
     0
  0
CLASS
  1
LAYOUT
  2
AcDbLayout
  3
ObjectDBX Classes
 90
        0
280
     0
281
     0
  0
CLASS
  1
DICTIONARYVAR
  2
AcDbDictionaryVar
  3
ObjectDBX Classes
 90
        0
280
     0
281
     0
  0
CLASS
  1
TABLESTYLE
  2
AcDbTableStyle
  3
ObjectDBX Classes
 90
     2047
280
     0
281
     0
  0
CLASS
  1
SORTENTSTABLE
  2
AcDbSortentsTable
  3
ObjectDBX Classes
 90
        0
280
     0
281
     0
  0
CLASS
  1
DIMASSOC
  2
AcDbDimAssoc
  3
"AcDbDimAssoc|Product Desc:     AcDim ARX App For Dimension|Company:          Autodesk, Inc.|WEB Address:      www.autodesk.com"
 90
        0
280
     0
281
     0
  0
CLASS
  1
ACAD_EVALUATION_GRAPH
  2
AcDbEvalGraph
  3
ObjectDBX Classes
 90
    33921
280
     0
281
     0
  0
CLASS
  1
ACAECUSTOBJ
  2
AcAeEditorObj
  3
AcAeEditorObj
 90
    33792
280
     0
281
     0
  0
CLASS
  1
ACDB_DYNAMICBLOCKPURGEPREVENTER_VERSION
  2
AcDbDynamicBlockPurgePreventer
  3
ObjectDBX Classes
 90
    33921
280
     0
281
     0
  0
ENDSEC
  0
SECTION
  2
TABLES
  0
TABLE
  2
VPORT
  5
8
330
0
100
AcDbSymbolTable
 70
    45
  0
VPORT
  5
61B4D
330
8
100
AcDbSymbolTableRecord
100
AcDbViewportTableRecord
  2
*Active
 70
     0
 10
0.0
 20
0.0
 11
1.0
 21
1.0
 12
35.41174031092771
 22
0.099207762930206
 13
0.0
 23
0.0
 14
10.0
 24
10.0
 15
10.0
 25
10.0
 16
0.0
 26
0.0
 36
1.0
 17
0.0
 27
0.0
 37
0.0
 40
365.7600283256495
 41
1.381443298969072
 42
50.0
 43
0.0
 44
0.0
 50
0.0
 51
0.0
 71
     0
 72
  1000
 73
     1
 74
     1
 75
     0
 76
     0
 77
     0
 78
     0
281
     0
 65
     1
110
0.0
120
0.0
130
0.0
111
1.0
121
0.0
131
0.0
112
0.0
122
1.0
132
0.0
 79
     0
146
0.0
  0
ENDTAB
  0
TABLE
  2
LTYPE
  5
5
330
0
100
AcDbSymbolTable
 70
     4
  0
LTYPE
  5
14
330
5
100
AcDbSymbolTableRecord
100
AcDbLinetypeTableRecord
  2
ByBlock
 70
     0
  3

 72
    65
 73
     0
 40
0.0
  0
LTYPE
  5
15
330
5
100
AcDbSymbolTableRecord
100
AcDbLinetypeTableRecord
  2
ByLayer
 70
     0
  3

 72
    65
 73
     0
 40
0.0
  0
LTYPE
  5
16
330
5
100
AcDbSymbolTableRecord
100
AcDbLinetypeTableRecord
  2
Continuous
 70
     0
  3
Solid line
 72
    65
 73
     0
 40
0.0
  0
LTYPE
  5
D7
330
5
100
AcDbSymbolTableRecord
100
AcDbLinetypeTableRecord
  2
HIDDEN
 70
     0
  3
Hidden __ __ __ __ __ __ __ __ __ __ __ __ __ _
 72
    65
 73
     2
 40
9.524999999999996
 49
6.349999999999997
 74
     0
 49
-3.174999999999998
 74
     0
  0
LTYPE
  5
D9
330
5
100
AcDbSymbolTableRecord
100
AcDbLinetypeTableRecord
  2
CENTER
 70
     0
  3
Center ____ _ ____ _ ____ _ ____ _ ____ _ ____
 72
    65
 73
     4
 40
50.8
 49
31.75
 74
     0
 49
-6.349999999999997
 74
     0
 49
6.349999999999997
 74
     0
 49
-6.349999999999997
 74
     0
  0
LTYPE
  5
35815
330
5
100
AcDbSymbolTableRecord
100
AcDbLinetypeTableRecord
  2
PHANTOM
 70
     0
  3
_____ _ _ _____ _ _ _____ _ _ _____
 72
    65
 73
     6
 40
0.8
 49
0.45
 74
     0
 49
-0.05
 74
     0
 49
0.1
 74
     0
 49
-0.05
 74
     0
 49
0.1
 74
     0
 49
-0.05
 74
     0
  0
ENDTAB
  0
TABLE
  2
LAYER
  5
2
102
{ACAD_XDICTIONARY
360
E2
102
}
330
0
100
AcDbSymbolTable
 70
    49
  0
LAYER
  5
10
330
2
100
AcDbSymbolTableRecord
100
AcDbLayerTableRecord
  2
0
 70
     0
 62
     7
  6
Continuous
370
    -3
390
F
  0
LAYER
  5
D1
330
2
100
AcDbSymbolTableRecord
100
AcDbLayerTableRecord
  2
1
 70
     0
 62
     4
  6
Continuous
370
    50
390
F
1001
AcAecLayerStandard
1000

1000

  0
LAYER
  5
D3
330
2
100
AcDbSymbolTableRecord
100
AcDbLayerTableRecord
  2
2
 70
     0
 62
     7
  6
Continuous
370
    25
390
F
1001
AcAecLayerStandard
1000

1000

  0
LAYER
  5
D4
330
2
100
AcDbSymbolTableRecord
100
AcDbLayerTableRecord
  2
3
 70
     0
 62
     1
  6
HIDDEN
370
    35
390
F
1001
AcAecLayerStandard
1000

1000

  0
LAYER
  5
D8
330
2
100
AcDbSymbolTableRecord
100
AcDbLayerTableRecord
  2
4
 70
     0
 62
     2
  6
CENTER
370
    25
390
F
1001
AcAecLayerStandard
1000

1000

  0
LAYER
  5
DA
330
2
100
AcDbSymbolTableRecord
100
AcDbLayerTableRecord
  2
6
 70
     0
 62
     5
  6
Continuous
370
    35
390
F
1001
AcAecLayerStandard
1000

1000

  0
LAYER
  5
DB
330
2
100
AcDbSymbolTableRecord
100
AcDbLayerTableRecord
  2
cut
 70
     0
 62
     1
  6
Continuous
370
    25
390
F
1001
AcAecLayerStandard
1000

1000

  0
LAYER
  5
DC
330
2
100
AcDbSymbolTableRecord
100
AcDbLayerTableRecord
  2
nocut
 70
     0
 62
     7
  6
Continuous
370
    25
390
F
1001
AcAecLayerStandard
1000

1000

  0
LAYER
  5
DD
330
2
100
AcDbSymbolTableRecord
100
AcDbLayerTableRecord
  2
sk1
 70
     0
 62
     4
  6
Continuous
370
    50
390
F
1001
AcAecLayerStandard
1000

1000

  0
LAYER
  5
DE
330
2
100
AcDbSymbolTableRecord
100
AcDbLayerTableRecord
  2
sk2
 70
     0
 62
     7
  6
Continuous
370
    25
390
F
1001
AcAecLayerStandard
1000

1000

  0
LAYER
  5
DF
330
2
100
AcDbSymbolTableRecord
100
AcDbLayerTableRecord
  2
sk3
 70
     0
 62
     1
  6
HIDDEN
370
    35
390
F
1001
AcAecLayerStandard
1000

1000

  0
LAYER
  5
E0
330
2
100
AcDbSymbolTableRecord
100
AcDbLayerTableRecord
  2
sk4
 70
     0
 62
     2
  6
CENTER
370
    25
390
F
1001
AcAecLayerStandard
1000

1000

  0
LAYER
  5
E1
330
2
100
AcDbSymbolTableRecord
100
AcDbLayerTableRecord
  2
sk6
 70
     0
 62
     5
  6
Continuous
370
    35
390
F
1001
AcAecLayerStandard
1000

1000

  0
LAYER
  5
31B6
330
2
100
AcDbSymbolTableRecord
100
AcDbLayerTableRecord
  2
Defpoints
 70
     0
 62
     7
  6
Continuous
290
     0
370
    -3
390
F
  0
ENDTAB
  0
TABLE
  2
STYLE
  5
3
330
0
100
AcDbSymbolTable
 70
    11
  0
STYLE
  5
11
330
3
100
AcDbSymbolTableRecord
100
AcDbTextStyleTableRecord
  2
Standard
 70
     0
 40
0.0
 41
1.0
 50
0.0
 71
     0
 42
2.5
  3
txt.shx
  4
@extfont2.shx
  0
STYLE
  5
D6
330
3
100
AcDbSymbolTableRecord
100
AcDbTextStyleTableRecord
  2

 70
     1
 40
0.0
 41
1.0
 50
0.0
 71
     0
 42
2.5
  3
ltypeshp.shx
  4

  0
STYLE
  5
24A
330
3
100
AcDbSymbolTableRecord
100
AcDbTextStyleTableRecord
  2
simplex
 70
     0
 40
3.5
 41
1.0
 50
0.0
 71
     0
 42
3.5
  3
txt.shx
  4

  0
STYLE
  5
69E
330
3
100
AcDbSymbolTableRecord
100
AcDbTextStyleTableRecord
  2
MX_NOTE_STANDARD
 70
     0
 40
0.0
 41
1.0
 50
0.0
 71
     0
 42
4.2
  3
txt.shx
  4
extfont.shx
  0
STYLE
  5
3524
330
3
100
AcDbSymbolTableRecord
100
AcDbTextStyleTableRecord
  2
TEXTSTYLE_2
 70
     0
 40
0.0
 41
0.775
 50
0.0
 71
     0
 42
0.2
  3
gdt
  4

  0
STYLE
  5
3525
330
3
100
AcDbSymbolTableRecord
100
AcDbTextStyleTableRecord
  2
TEXTSTYLE_3
 70
     0
 40
0.0
 41
0.75
 50
0.0
 71
     0
 42
0.2
  3
txt
  4

  0
STYLE
  5
3526
330
3
100
AcDbSymbolTableRecord
100
AcDbTextStyleTableRecord
  2
TEXTSTYLE_13
 70
     0
 40
0.0
 41
1.0
 50
0.0
 71
     0
 42
0.2
  3
txt
  4

  0
STYLE
  5
519A
330
3
100
AcDbSymbolTableRecord
100
AcDbTextStyleTableRecord
  2
TEXTSTYLE_14
 70
     0
 40
0.0
 41
1.0
 50
0.0
 71
     0
 42
0.2
  3
txt
  4

  0
STYLE
  5
6F72
330
3
100
AcDbSymbolTableRecord
100
AcDbTextStyleTableRecord
  2
TEXTSTYLE_4
 70
     0
 40
0.0
 41
0.75
 50
0.0
 71
     0
 42
0.2
  3
txt
  4

  0
STYLE
  5
6F73
330
3
100
AcDbSymbolTableRecord
100
AcDbTextStyleTableRecord
  2
TEXTSTYLE_17
 70
     0
 40
0.0
 41
1.0
 50
0.0
 71
     0
 42
0.2
  3
txt
  4

  0
STYLE
  5
FE12
330
3
100
AcDbSymbolTableRecord
100
AcDbTextStyleTableRecord
  2
TEXTSTYLE_12
 70
     0
 40
0.0
 41
1.0
 50
0.0
 71
     0
 42
0.2
  3
txt
  4

  0
ENDTAB
  0
TABLE
  2
VIEW
  5
6
330
0
100
AcDbSymbolTable
 70
     0
  0
ENDTAB
  0
TABLE
  2
UCS
  5
7
330
0
100
AcDbSymbolTable
 70
     0
  0
ENDTAB
  0
TABLE
  2
APPID
  5
9
330
0
100
AcDbSymbolTable
 70
    11
  0
APPID
  5
12
330
9
100
AcDbSymbolTableRecord
100
AcDbRegAppTableRecord
  2
ACAD
 70
     0
  0
APPID
  5
D2
330
9
100
AcDbSymbolTableRecord
100
AcDbRegAppTableRecord
  2
AcAecLayerStandard
 70
     0
  0
APPID
  5
E6
330
9
100
AcDbSymbolTableRecord
100
AcDbRegAppTableRecord
  2
ACAD_DSTYLE_DIMTEXT_FILL
 70
     0
  0
APPID
  5
4C84
330
9
100
AcDbSymbolTableRecord
100
AcDbRegAppTableRecord
  2
ACAD_EXEMPT_FROM_CAD_STANDARDS
 70
     0
  0
APPID
  5
3493E
330
9
100
AcDbSymbolTableRecord
100
AcDbRegAppTableRecord
  2
DCO15
 70
     0
  0
APPID
  5
4366A
330
9
100
AcDbSymbolTableRecord
100
AcDbRegAppTableRecord
  2
ACAUTHENVIRON
 70
     0
  0
APPID
  5
4366D
330
9
100
AcDbSymbolTableRecord
100
AcDbRegAppTableRecord
  2
AcDbDynamicBlockTrueName
 70
     0
  0
APPID
  5
4366E
330
9
100
AcDbSymbolTableRecord
100
AcDbRegAppTableRecord
  2
AcDbDynamicBlockGUID
 70
     0
  0
APPID
  5
43670
330
9
100
AcDbSymbolTableRecord
100
AcDbRegAppTableRecord
  2
AcDbBlockRepETag
 70
     0
  0
APPID
  5
45C9F
330
9
100
AcDbSymbolTableRecord
100
AcDbRegAppTableRecord
  2
ACAD_DSTYLE_DIMEXT_ENABLED
 70
     0
  0
APPID
  5
45CA0
330
9
100
AcDbSymbolTableRecord
100
AcDbRegAppTableRecord
  2
ACAD_DSTYLE_DIMEXT_LENGTH
 70
     0
  0
ENDTAB
  0
TABLE
  2
DIMSTYLE
  5
A
330
0
100
AcDbSymbolTable
 70
    10
100
AcDbDimStyleTable
 71
     2
340
1BF
340
27
  0
DIMSTYLE
105
27
330
A
100
AcDbSymbolTableRecord
100
AcDbDimStyleTableRecord
  2
ISO-25
 70
     0
 41
2.5
 42
0.625
 43
3.75
 44
1.25
 73
     0
 74
     0
 77
     1
 78
     8
140
2.5
141
2.5
143
0.03937007874016
147
0.625
171
     3
172
     1
271
     2
272
     2
274
     3
278
    44
283
     0
284
     8
340
11
  0
DIMSTYLE
105
1BF
102
{ACAD_REACTORS
330
6099E
330
60984
330
6096A
330
60950
330
60920
330
60908
330
60938
330
608F0
330
608D8
330
61B1B
102
}
330
A
100
AcDbSymbolTableRecord
100
AcDbDimStyleTableRecord
  2
\M+18352\M+18373\M+1815B - ISO-25
 70
     0
 40
0.0
 41
3.5
 42
0.0
 44
1.5
 73
     0
 74
     0
 77
     1
 78
     8
140
3.5
147
2.299999999999998
176
   256
177
   256
178
   256
271
     2
272
     2
284
     8
340
24A
371
    -1
372
    -1
  0
DIMSTYLE
105
69F
330
A
100
AcDbSymbolTableRecord
100
AcDbDimStyleTableRecord
  2
MXDIMSTYLE
 70
     0
 41
2.5
 42
0.5
 43
3.75
 44
1.5
 73
     0
 74
     0
 77
     1
 78
     8
140
4.2
141
2.5
143
0.03937
147
1.0
171
     4
172
     1
173
     1
271
     2
272
     2
274
     4
283
     0
288
     1
340
69E
341
697
343
697
344
697
  0
DIMSTYLE
105
3527
330
A
100
AcDbSymbolTableRecord
100
AcDbDimStyleTableRecord
  2
STANDARD
 70
     0
 41
3.0
 47
0.001
 48
0.001
 71
     1
 73
     0
 74
     0
 77
     1
 78
     8
140
4.0
271
     3
272
     3
284
     8
340
11
341
34B1
342
34B1
343
34B1
344
34B1
  0
DIMSTYLE
105
3528
330
A
100
AcDbSymbolTableRecord
100
AcDbDimStyleTableRecord
  2
DIMSTYLE_1
 70
     0
 41
3.0
 73
     0
 74
     0
 77
     1
 78
     8
140
4.0
271
     3
272
     3
284
     8
340
11
341
34B1
342
34B1
343
34B1
344
34B1
  0
DIMSTYLE
105
3529
330
A
100
AcDbSymbolTableRecord
100
AcDbDimStyleTableRecord
  2
DIMSTYLE_2
 70
     0
 41
3.0
 47
0.001
 48
0.001
 73
     0
 74
     0
 77
     1
 78
     8
140
4.0
271
     3
272
     3
284
     8
340
11
341
34B1
342
34B1
343
34B1
344
34B1
  0
DIMSTYLE
105
352A
330
A
100
AcDbSymbolTableRecord
100
AcDbDimStyleTableRecord
  2
DIMSTYLE_3
 70
     0
 41
3.0
 47
-0.1
 48
0.3
 71
     1
 73
     0
 74
     0
 77
     1
 78
     8
140
4.0
146
0.5
271
     3
272
     3
284
     8
340
11
341
34B1
342
34B1
343
34B1
344
34B1
  0
DIMSTYLE
105
352B
330
A
100
AcDbSymbolTableRecord
100
AcDbDimStyleTableRecord
  2
DIMSTYLE_4
 70
     0
 41
3.0
 47
0.1
 48
0.1
 71
     1
 73
     0
 74
     0
 77
     1
 78
     8
140
4.0
271
     3
272
     3
284
     8
340
11
341
34B1
342
34B1
343
34B1
344
34B1
  0
DIMSTYLE
105
27245
330
A
100
AcDbSymbolTableRecord
100
AcDbDimStyleTableRecord
  2
DIMSTYLE_5
 70
     0
 41
3.0
 47
0.001
 48
0.001
 73
     0
 74
     0
 77
     1
 78
     8
140
4.0
271
     3
272
     3
284
     8
340
11
341
34B1
342
34B1
343
34B1
344
34B1
  0
DIMSTYLE
105
4771C
330
A
100
AcDbSymbolTableRecord
100
AcDbDimStyleTableRecord
  2
\M+18352\M+18373\M+1815B_-_ISO-25
 70
     0
 40
0.0
 41
3.5
 42
0.0
 44
1.5
 73
     0
 74
     0
 77
     1
 78
     8
140
3.5
147
2.299999999999998
176
   256
177
   256
178
   256
279
     2
284
     8
285
     8
286
     8
340
24A
  0
ENDTAB
  0
TABLE
  2
BLOCK_RECORD
  5
1
330
0
100
AcDbSymbolTable
 70
    99
  0
BLOCK_RECORD
  5
1F
102
{ACAD_XDICTIONARY
360
31EE
102
}
330
1
100
AcDbSymbolTableRecord
100
AcDbBlockTableRecord
  2
*Model_Space
340
22
  0
BLOCK_RECORD
  5
50
330
1
100
AcDbSymbolTableRecord
100
AcDbBlockTableRecord
  2
*Paper_Space
340
51
  0
BLOCK_RECORD
  5
55
330
1
100
AcDbSymbolTableRecord
100
AcDbBlockTableRecord
  2
*Paper_Space0
340
56
  0
BLOCK_RECORD
  5
680
102
{ACAD_XDICTIONARY
360
43668
102
}
330
1
100
AcDbSymbolTableRecord
100
AcDbBlockTableRecord
  2
zero block
340
0
102
{BLKREFS
331
68C
102
}
1001
ACAD
1000
DesignCenter Data
1002
{
1070
     1
1070
     4
1002
}
1001
AcDbDynamicBlockGUID
1000
{A89DF4EB-B2CB-439E-AC69-1EAC9F242D1C}
1001
AcDbBlockRepETag
1070
     1
1071
        7
  0
BLOCK_RECORD
  5
697
330
1
100
AcDbSymbolTableRecord
100
AcDbBlockTableRecord
  2
_OPEN30
340
0
  0
BLOCK_RECORD
  5
32F1
330
1
100
AcDbSymbolTableRecord
100
AcDbBlockTableRecord
  2
_None
340
0
102
{BLKREFS
331
5CE0B
331
5F1BF
102
}
  0
BLOCK_RECORD
  5
34B1
330
1
100
AcDbSymbolTableRecord
100
AcDbBlockTableRecord
  2
_OPEN
340
0
102
{BLKREFS
331
5CDDE
331
5CDDF
331
5CDE8
331
5CDE9
331
5CDF2
331
5CDF3
331
5CDFC
331
5CDFD
331
5CE03
331
5CE0C
331
5EDB1
331
5EDB8
331
5EDC0
331
5EDC1
331
5EDC9
331
5EDCA
331
5EDD2
331
5EDD3
331
5EDDB
331
5EDDC
331
5F1B0
331
5F1B1
331
5F1B7
331
5F1C0
331
5F192
331
5F193
331
5F19C
331
5F19D
331
5F1A6
331
5F1A7
331
5F61C
331
5F61D
331
5F625
331
5F626
331
5F62E
331
5F62F
331
5F637
331
5F638
331
5F64F
331
5F657
102
}
  0
BLOCK_RECORD
  5
45B07
330
1
100
AcDbSymbolTableRecord
100
AcDbBlockTableRecord
  2
*D7
340
0
  0
BLOCK_RECORD
  5
45B1F
330
1
100
AcDbSymbolTableRecord
100
AcDbBlockTableRecord
  2
*D8
340
0
  0
BLOCK_RECORD
  5
608D9
330
1
100
AcDbSymbolTableRecord
100
AcDbBlockTableRecord
  2
*D84
340
0
  0
BLOCK_RECORD
  5
608F1
330
1
100
AcDbSymbolTableRecord
100
AcDbBlockTableRecord
  2
*D85
340
0
  0
BLOCK_RECORD
  5
60909
330
1
100
AcDbSymbolTableRecord
100
AcDbBlockTableRecord
  2
*D86
340
0
  0
BLOCK_RECORD
  5
60921
330
1
100
AcDbSymbolTableRecord
100
AcDbBlockTableRecord
  2
*D87
340
0
  0
BLOCK_RECORD
  5
60939
330
1
100
AcDbSymbolTableRecord
100
AcDbBlockTableRecord
  2
*D88
340
0
  0
BLOCK_RECORD
  5
60951
330
1
100
AcDbSymbolTableRecord
100
AcDbBlockTableRecord
  2
*D89
340
0
  0
BLOCK_RECORD
  5
6096B
330
1
100
AcDbSymbolTableRecord
100
AcDbBlockTableRecord
  2
*D90
340
0
  0
BLOCK_RECORD
  5
60985
330
1
100
AcDbSymbolTableRecord
100
AcDbBlockTableRecord
  2
*D91
340
0
  0
BLOCK_RECORD
  5
6099F
330
1
100
AcDbSymbolTableRecord
100
AcDbBlockTableRecord
  2
*D92
340
0
  0
BLOCK_RECORD
  5
61B1C
330
1
100
AcDbSymbolTableRecord
100
AcDbBlockTableRecord
  2
*D98
340
0
  0
ENDTAB
  0
ENDSEC
  0
SECTION
  2
BLOCKS
  0
BLOCK
  5
20
330
1F
100
AcDbEntity
  8
0
100
AcDbBlockBegin
  2
*Model_Space
 70
     0
 10
0.0
 20
0.0
 30
0.0
  3
*Model_Space
  1

  0
ENDBLK
  5
21
330
1F
100
AcDbEntity
  8
0
100
AcDbBlockEnd
  0
BLOCK
  5
52
330
50
100
AcDbEntity
 67
     1
  8
0
100
AcDbBlockBegin
  2
*Paper_Space
 70
     0
 10
0.0
 20
0.0
 30
0.0
  3
*Paper_Space
  1

  0
ENDBLK
  5
53
330
50
100
AcDbEntity
 67
     1
  8
0
100
AcDbBlockEnd
  0
BLOCK
  5
57
330
55
100
AcDbEntity
 67
     1
  8
0
100
AcDbBlockBegin
  2
*Paper_Space0
 70
     0
 10
0.0
 20
0.0
 30
0.0
  3
*Paper_Space0
  1

  0
VIEWPORT
  5
71
102
{ACAD_XDICTIONARY
360
61B58
102
}
330
55
100
AcDbEntity
 67
     1
  8
0
100
AcDbViewport
 10
150.1652135264906
 20
101.599997546291
 30
0.0
 40
339.1973820494347
 41
164.5360435314421
 68
     0
 69
     0
 12
150.1652135264906
 22
101.599997546291
 13
0.0
 23
0.0
 14
10.0
 24
10.0
 15
10.0
 25
10.0
 16
0.0
 26
0.0
 36
1.0
 17
0.0
 27
0.0
 37
0.0
 42
50.0
 43
0.0
 44
0.0
 45
164.5360435314421
 50
0.0
 51
0.0
 72
  1000
 90
    32864
  1

281
     0
 71
     1
 74
     0
110
0.0
120
0.0
130
0.0
111
1.0
121
0.0
131
0.0
112
0.0
122
1.0
132
0.0
 79
     0
146
0.0
  0
VIEWPORT
  5
73
102
{ACAD_XDICTIONARY
360
61B5A
102
}
330
55
100
AcDbEntity
 67
     1
  8
0
100
AcDbViewport
 10
133.3499939441681
 20
101.5999939441681
 30
0.0
 40
213.3599903106689
 41
162.5599903106689
 68
     0
 69
     0
 12
210.0
 22
148.5
 13
0.0
 23
0.0
 14
10.0
 24
10.0
 15
10.0
 25
10.0
 16
0.0
 26
0.0
 36
1.0
 17
0.0
 27
0.0
 37
0.0
 42
50.0
 43
0.0
 44
0.0
 45
324.0677920111345
 50
0.0
 51
0.0
 72
   100
 90
    32864
  1

281
     0
 71
     1
 74
     0
110
0.0
120
0.0
130
0.0
111
1.0
121
0.0
131
0.0
112
0.0
122
1.0
132
0.0
 79
     0
146
0.0
  0
ENDBLK
  5
58
330
55
100
AcDbEntity
 67
     1
  8
0
100
AcDbBlockEnd
  0
BLOCK
  5
68A
330
680
100
AcDbEntity
  8
0
100
AcDbBlockBegin
  2
zero block
 70
     0
 10
0.0
 20
0.0
 30
0.0
  3
zero block
  1

  0
HATCH
  5
43661
330
680
100
AcDbEntity
  8
0
 62
     7
100
AcDbHatch
 10
0.0
 20
0.0
 30
0.0
210
0.0
220
0.0
230
1.0
  2
SOLID
 70
     1
 71
     0
 91
        2
 92
        7
 72
     1
 73
     1
 93
        3
 10
0.0
 20
0.9999999999999875
 42
0.4142135623730915
 10
-1.0
 20
0.0
 42
0.0
 10
0.0
 20
0.0
 42
0.0
 97
        0
 92
        7
 72
     1
 73
     1
 93
        3
 10
1.000000000000007
 20
0.0
 42
0.0
 10
0.0
 20
0.0
 42
0.0
 10
0.0
 20
-1.0
 42
0.4142135623730974
 97
        0
 75
     0
 76
     1
 47
0.0090601366782909
 98
        2
 10
-0.380591363650975
 20
0.4885804701532896
 10
0.4350764810977559
 20
-0.4536738423704725
1001
AcDbBlockRepETag
1070
     1
1071
        0
1005
43661
  0
LINE
  5
43662
330
680
100
AcDbEntity
  8
0
 62
     7
 48
0.2
100
AcDbLine
 10
-1.0
 20
0.0
 30
0.0
 11
1.000000000000007
 21
0.0
 31
0.0
1001
AcDbBlockRepETag
1070
     1
1071
        1
1005
43662
  0
LINE
  5
43663
330
680
100
AcDbEntity
  8
0
 62
     7
 48
0.2
100
AcDbLine
 10
0.0
 20
-1.0
 30
0.0
 11
0.0
 21
0.9999999999999875
 31
0.0
1001
AcDbBlockRepETag
1070
     1
1071
        2
1005
43663
  0
ARC
  5
43664
330
680
100
AcDbEntity
  8
0
 62
     7
 48
0.2
100
AcDbCircle
 10
0.0
 20
0.0
 30
0.0
 40
1.0
100
AcDbArc
 50
270.0
 51
0.0
1001
AcDbBlockRepETag
1070
     1
1071
        3
1005
43664
  0
ARC
  5
43665
330
680
100
AcDbEntity
  8
0
 62
     7
 48
0.2
100
AcDbCircle
 10
0.0
 20
0.0
 30
0.0
 40
1.0
100
AcDbArc
 50
0.0
 51
90.0
1001
AcDbBlockRepETag
1070
     1
1071
        4
1005
43665
  0
ARC
  5
43666
330
680
100
AcDbEntity
  8
0
 62
     7
 48
0.2
100
AcDbCircle
 10
0.0
 20
0.0
 30
0.0
 40
1.0
100
AcDbArc
 50
180.0
 51
270.0
1001
AcDbBlockRepETag
1070
     1
1071
        5
1005
43666
  0
ARC
  5
43667
330
680
100
AcDbEntity
  8
0
 62
     7
 48
0.2
100
AcDbCircle
 10
0.0
 20
0.0
 30
0.0
 40
1.0
100
AcDbArc
 50
90.0
 51
180.0
1001
AcDbBlockRepETag
1070
     1
1071
        6
1005
43667
  0
ENDBLK
  5
68B
330
680
100
AcDbEntity
  8
0
100
AcDbBlockEnd
  0
BLOCK
  5
698
330
697
100
AcDbEntity
  8
0
  6
ByBlock
 62
     0
370
    -2
100
AcDbBlockBegin
  2
_OPEN30
 70
     2
 10
0.0
 20
0.0
 30
0.0
  3
_OPEN30
  1

  0
LINE
  5
699
330
697
100
AcDbEntity
  8
0
  6
ByBlock
 62
     0
370
    -2
100
AcDbLine
 10
-1.0
 20
0.267949
 30
0.0
 11
0.0
 21
0.0
 31
0.0
  0
LINE
  5
69A
330
697
100
AcDbEntity
  8
0
  6
ByBlock
 62
     0
370
    -2
100
AcDbLine
 10
0.0
 20
0.0
 30
0.0
 11
-1.0
 21
-0.267949
 31
0.0
  0
LINE
  5
69B
330
697
100
AcDbEntity
  8
0
  6
ByBlock
 62
     0
370
    -2
100
AcDbLine
 10
0.0
 20
0.0
 30
0.0
 11
-1.0
 21
0.0
 31
0.0
  0
ENDBLK
  5
69C
330
697
100
AcDbEntity
  8
0
  6
ByBlock
 62
     0
370
    -2
100
AcDbBlockEnd
  0
BLOCK
  5
32F2
330
32F1
100
AcDbEntity
  8
0
100
AcDbBlockBegin
  2
_None
 70
     0
 10
0.0
 20
0.0
 30
0.0
  3
_None
  1

  0
ENDBLK
  5
32F3
330
32F1
100
AcDbEntity
  8
0
100
AcDbBlockEnd
  0
BLOCK
  5
34B2
330
34B1
100
AcDbEntity
  8
0
100
AcDbBlockBegin
  2
_OPEN
 70
     0
 10
0.0
 20
0.0
 30
0.0
  3
_OPEN
  1

  0
LINE
  5
34B3
330
34B1
100
AcDbEntity
  8
0
  6
ByBlock
 62
     0
100
AcDbLine
 10
0.0
 20
0.0
 30
0.0
 11
-1.0
 21
0.1766666667
 31
0.0
  0
LINE
  5
34B4
330
34B1
100
AcDbEntity
  8
0
  6
ByBlock
 62
     0
100
AcDbLine
 10
-1.0
 20
-0.1766666667
 30
0.0
 11
0.0
 21
0.0
 31
0.0
  0
LINE
  5
34B5
330
34B1
100
AcDbEntity
  8
0
  6
ByBlock
 62
     0
100
AcDbLine
 10
-1.0
 20
0.0
 30
0.0
 11
0.0
 21
0.0
 31
0.0
  0
ENDBLK
  5
34B6
330
34B1
100
AcDbEntity
  8
0
  6
ByBlock
 62
     0
100
AcDbBlockEnd
  0
BLOCK
  5
45B11
330
45B07
100
AcDbEntity
  8
0
100
AcDbBlockBegin
  2
*D7
 70
     1
 10
0.0
 20
0.0
 30
0.0
  3
*D7
  1

  0
LINE
  5
5CCE5
330
45B07
100
AcDbEntity
  8
sk2
100
AcDbLine
 10
-0.0000000000000526
 20
-28.49999999999995
 30
0.0
 11
-0.0000000000000538
 21
-48.51991747839992
 31
0.0
  0
LINE
  5
5CCE6
330
45B07
100
AcDbEntity
  8
sk2
100
AcDbLine
 10
30.99999999999995
 20
-8.099999999999972
 30
0.0
 11
30.99999999999994
 21
-48.51991747839992
 31
0.0
  0
LINE
  5
5CCE7
330
45B07
100
AcDbEntity
  8
sk2
100
AcDbLine
 10
3.499999999999946
 20
-47.01991747839993
 30
0.0
 11
27.49999999999995
 21
-47.01991747839993
 31
0.0
  0
SOLID
  5
5CCE8
330
45B07
100
AcDbEntity
  8
sk2
100
AcDbTrace
 10
3.499999999999946
 20
-46.43658414506659
 30
0.0
 11
3.499999999999946
 21
-47.60325081173324
 31
0.0
 12
-0.0000000000000537
 22
-47.01991747839993
 32
0.0
 13
-0.0000000000000537
 23
-47.01991747839993
 33
0.0
  0
SOLID
  5
5CCE9
330
45B07
100
AcDbEntity
  8
sk2
100
AcDbTrace
 10
27.49999999999995
 20
-46.43658414506659
 30
0.0
 11
27.49999999999995
 21
-47.60325081173324
 31
0.0
 12
30.99999999999994
 22
-47.01991747839993
 32
0.0
 13
30.99999999999994
 23
-47.01991747839993
 33
0.0
  0
MTEXT
  5
5CCEA
330
45B07
100
AcDbEntity
  8
sk2
100
AcDbMText
 10
15.49999999999994
 20
-42.96991747839992
 30
0.0
 40
3.5
 41
0.0
 71
     5
 72
     1
  1
\A1;31
  7
simplex
 73
     1
 44
1.0
1001
ACAD
1000
MTEXTBEGIN
1070
    73
1070
     1
1070
    44
1040
1.0
1070
    74
1070
     0
1000
MTEXTEND
  0
POINT
  5
5CCEB
330
45B07
100
AcDbEntity
  8
Defpoints
 62
     0
100
AcDbPoint
 10
-0.0000000000000526
 20
-28.49999999999995
 30
0.0
  0
POINT
  5
5CCEC
330
45B07
100
AcDbEntity
  8
Defpoints
 62
     0
100
AcDbPoint
 10
30.99999999999995
 20
-8.099999999999972
 30
0.0
  0
POINT
  5
5CCED
330
45B07
100
AcDbEntity
  8
Defpoints
 62
     0
100
AcDbPoint
 10
30.99999999999994
 20
-47.01991747839993
 30
0.0
  0
ENDBLK
  5
45B12
330
45B07
100
AcDbEntity
  8
0
100
AcDbBlockEnd
  0
BLOCK
  5
45B29
330
45B1F
100
AcDbEntity
  8
0
100
AcDbBlockBegin
  2
*D8
 70
     1
 10
0.0
 20
0.0
 30
0.0
  3
*D8
  1

  0
LINE
  5
475A2
330
45B1F
100
AcDbEntity
  8
2
100
AcDbLine
 10
46.67862375679994
 20
31.50000000000006
 30
0.0
 11
83.68825656423609
 21
31.50000000000004
 31
0.0
  0
LINE
  5
475A3
330
45B1F
100
AcDbEntity
  8
2
100
AcDbLine
 10
82.18825656423609
 20
-31.49999999999995
 30
0.0
 11
82.18825656423609
 21
28.00000000000004
 31
0.0
  0
SOLID
  5
475A4
330
45B1F
100
AcDbEntity
  8
2
100
AcDbTrace
 10
81.60492323090277
 20
28.00000000000004
 30
0.0
 11
82.77158989756944
 21
28.00000000000004
 31
0.0
 12
82.18825656423609
 22
31.50000000000004
 32
0.0
 13
82.18825656423609
 23
31.50000000000004
 33
0.0
  0
MTEXT
  5
475A5
330
45B1F
100
AcDbEntity
  8
2
100
AcDbMText
 10
78.1382565642361
 20
-1.749999999999953
 30
0.0
 40
3.5
 41
0.0
 71
     5
 72
     1
  1
\A1;%%C63
  7
simplex
 11
0.0000000000000001
 21
1.0
 31
0.0
 73
     1
 44
1.0
1001
ACAD
1000
MTEXTBEGIN
1070
    73
1070
     1
1070
    44
1040
1.0
1070
    74
1070
     0
1000
MTEXTEND
  0
POINT
  5
475A6
330
45B1F
100
AcDbEntity
  8
Defpoints
 62
     0
100
AcDbPoint
 10
82.95119073979995
 20
-31.49999999999995
 30
0.0
  0
POINT
  5
475A7
330
45B1F
100
AcDbEntity
  8
Defpoints
 62
     0
100
AcDbPoint
 10
46.67862375679994
 20
31.50000000000006
 30
0.0
  0
POINT
  5
475A8
330
45B1F
100
AcDbEntity
  8
Defpoints
 62
     0
100
AcDbPoint
 10
82.18825656423609
 20
31.50000000000004
 30
0.0
  0
ENDBLK
  5
45B2A
330
45B1F
100
AcDbEntity
  8
0
100
AcDbBlockEnd
  0
BLOCK
  5
608E3
330
608D9
100
AcDbEntity
  8
0
100
AcDbBlockBegin
  2
*D84
 70
     1
 10
0.0
 20
0.0
 30
0.0
  3
*D84
  1

  0
LINE
  5
61AB1
330
608D9
100
AcDbEntity
  8
2
100
AcDbLine
 10
50.69768417579644
 20
24.02000000000001
 30
0.0
 11
75.22380017380959
 21
24.02
 31
0.0
  0
LINE
  5
61AB2
330
608D9
100
AcDbEntity
  8
2
100
AcDbLine
 10
73.72380017380959
 20
20.52
 30
0.0
 11
73.72380017380959
 21
-24.02000000000001
 31
0.0
  0
SOLID
  5
61AB3
330
608D9
100
AcDbEntity
  8
2
100
AcDbTrace
 10
73.14046684047626
 20
20.52
 30
0.0
 11
74.30713350714292
 21
20.52
 31
0.0
 12
73.72380017380959
 22
24.02
 32
0.0
 13
73.72380017380959
 23
24.02
 33
0.0
  0
MTEXT
  5
61AB4
330
608D9
100
AcDbEntity
  8
2
100
AcDbMText
 10
69.6738001738096
 20
-0.1723033375905624
 30
0.0
 40
3.5
 41
0.0
 71
     5
 72
     1
  1
\A1;%%C48.04 [%%C1.891"]
  7
simplex
 11
0.0000000000000001
 21
1.0
 31
0.0
 73
     1
 44
1.0
1001
ACAD
1000
MTEXTBEGIN
1070
    73
1070
     1
1070
    44
1040
1.0
1070
    74
1070
     0
1000
MTEXTEND
  0
POINT
  5
61AB5
330
608D9
100
AcDbEntity
  8
Defpoints
 62
     0
100
AcDbPoint
 10
50.69768417579644
 20
24.02000000000001
 30
0.0
  0
POINT
  5
61AB6
330
608D9
100
AcDbEntity
  8
Defpoints
 62
     0
100
AcDbPoint
 10
50.69768417579644
 20
-24.02000000000001
 30
0.0
  0
POINT
  5
61AB7
330
608D9
100
AcDbEntity
  8
Defpoints
 62
     0
100
AcDbPoint
 10
73.72380017380959
 20
-24.02000000000001
 30
0.0
  0
ENDBLK
  5
608E4
330
608D9
100
AcDbEntity
  8
0
100
AcDbBlockEnd
  0
BLOCK
  5
608FB
330
608F1
100
AcDbEntity
  8
0
100
AcDbBlockBegin
  2
*D85
 70
     1
 10
0.0
 20
0.0
 30
0.0
  3
*D85
  1

  0
LINE
  5
61B13
330
608F1
100
AcDbEntity
  8
2
100
AcDbLine
 10
47.41601732760005
 20
31.75000000000001
 30
0.0
 11
88.63589434491819
 21
31.74999999999999
 31
0.0
  0
LINE
  5
61B14
330
608F1
100
AcDbEntity
  8
2
100
AcDbLine
 10
87.1358943449182
 20
28.25
 30
0.0
 11
87.1358943449182
 21
-31.75000000000002
 31
0.0
  0
SOLID
  5
61B15
330
608F1
100
AcDbEntity
  8
2
100
AcDbTrace
 10
86.55256101158487
 20
28.25
 30
0.0
 11
87.71922767825152
 21
28.25
 31
0.0
 12
87.1358943449182
 22
31.75
 32
0.0
 13
87.1358943449182
 23
31.75
 33
0.0
  0
MTEXT
  5
61B16
330
608F1
100
AcDbEntity
  8
2
100
AcDbMText
 10
83.08589434491819
 20
-0.1771098223954363
 30
0.0
 40
3.5
 41
0.0
 71
     5
 72
     1
  1
\A1;%%C63.5 [%%C2.500"]
  7
simplex
 11
0.0000000000000001
 21
1.0
 31
0.0
 73
     1
 44
1.0
1001
ACAD
1000
MTEXTBEGIN
1070
    73
1070
     1
1070
    44
1040
1.0
1070
    74
1070
     0
1000
MTEXTEND
  0
POINT
  5
61B17
330
608F1
100
AcDbEntity
  8
Defpoints
 62
     0
100
AcDbPoint
 10
47.41601732760005
 20
31.75000000000001
 30
0.0
  0
POINT
  5
61B18
330
608F1
100
AcDbEntity
  8
Defpoints
 62
     0
100
AcDbPoint
 10
47.41601732760005
 20
-31.75000000000001
 30
0.0
  0
POINT
  5
61B19
330
608F1
100
AcDbEntity
  8
Defpoints
 62
     0
100
AcDbPoint
 10
87.1358943449182
 20
-31.75000000000002
 30
0.0
  0
ENDBLK
  5
608FC
330
608F1
100
AcDbEntity
  8
0
100
AcDbBlockEnd
  0
BLOCK
  5
60913
330
60909
100
AcDbEntity
  8
0
100
AcDbBlockBegin
  2
*D86
 70
     1
 10
0.0
 20
0.0
 30
0.0
  3
*D86
  1

  0
LINE
  5
61B01
330
60909
100
AcDbEntity
  8
sk2
100
AcDbLine
 10
4.000000000000028
 20
12.69999999999999
 30
0.0
 11
-14.30895007098786
 21
12.69999999999999
 31
0.0
  0
LINE
  5
61B02
330
60909
100
AcDbEntity
  8
sk2
100
AcDbLine
 10
4.000000000000028
 20
-12.69999999999999
 30
0.0
 11
-14.30895007098786
 21
-12.69999999999998
 31
0.0
  0
LINE
  5
61B03
330
60909
100
AcDbEntity
  8
sk2
100
AcDbLine
 10
-12.80895007098786
 20
9.199999999999995
 30
0.0
 11
-12.80895007098786
 21
-9.199999999999981
 31
0.0
  0
SOLID
  5
61B04
330
60909
100
AcDbEntity
  8
sk2
100
AcDbTrace
 10
-13.39228340432119
 20
9.199999999999995
 30
0.0
 11
-12.22561673765452
 21
9.199999999999995
 31
0.0
 12
-12.80895007098786
 22
12.69999999999999
 32
0.0
 13
-12.80895007098786
 23
12.69999999999999
 33
0.0
  0
SOLID
  5
61B05
330
60909
100
AcDbEntity
  8
sk2
100
AcDbTrace
 10
-13.3922834043212
 20
-9.199999999999981
 30
0.0
 11
-12.22561673765453
 21
-9.199999999999981
 31
0.0
 12
-12.80895007098786
 22
-12.69999999999998
 32
0.0
 13
-12.80895007098786
 23
-12.69999999999998
 33
0.0
  0
MTEXT
  5
61B06
330
60909
100
AcDbEntity
  8
sk2
100
AcDbMText
 10
-16.85895007098786
 20
0.0000000000000048
 30
0.0
 40
3.5
 41
0.0
 71
     5
 72
     1
  1
\A1;%%C25.4 [%%c1.000"]
  7
simplex
 11
0.0000000000000001
 21
1.0
 31
0.0
 73
     1
 44
1.0
1001
ACAD
1000
MTEXTBEGIN
1070
    73
1070
     1
1070
    44
1040
1.0
1070
    74
1070
     0
1000
MTEXTEND
  0
POINT
  5
61B07
330
60909
100
AcDbEntity
  8
Defpoints
 62
     0
100
AcDbPoint
 10
4.000000000000028
 20
12.69999999999999
 30
0.0
  0
POINT
  5
61B08
330
60909
100
AcDbEntity
  8
Defpoints
 62
     0
100
AcDbPoint
 10
4.000000000000028
 20
-12.69999999999999
 30
0.0
  0
POINT
  5
61B09
330
60909
100
AcDbEntity
  8
Defpoints
 62
     0
100
AcDbPoint
 10
-12.80895007098786
 20
-12.69999999999998
 30
0.0
  0
ENDBLK
  5
60914
330
60909
100
AcDbEntity
  8
0
100
AcDbBlockEnd
  0
BLOCK
  5
6092B
330
60921
100
AcDbEntity
  8
0
100
AcDbBlockBegin
  2
*D87
 70
     1
 10
0.0
 20
0.0
 30
0.0
  3
*D87
  1

  0
LINE
  5
61B0A
330
60921
100
AcDbEntity
  8
sk2
100
AcDbLine
 10
2.000000000000056
 20
30.16250000000002
 30
0.0
 11
-27.65806200077383
 21
30.16250000000003
 31
0.0
  0
LINE
  5
61B0B
330
60921
100
AcDbEntity
  8
sk2
100
AcDbLine
 10
2.000000000000028
 20
-30.16249999999997
 30
0.0
 11
-27.65806200077385
 21
-30.16249999999996
 31
0.0
  0
LINE
  5
61B0C
330
60921
100
AcDbEntity
  8
sk2
100
AcDbLine
 10
-26.15806200077383
 20
26.66250000000003
 30
0.0
 11
-26.15806200077385
 21
-26.66249999999996
 31
0.0
  0
SOLID
  5
61B0D
330
60921
100
AcDbEntity
  8
sk2
100
AcDbTrace
 10
-26.74139533410717
 20
26.66250000000003
 30
0.0
 11
-25.5747286674405
 21
26.66250000000003
 31
0.0
 12
-26.15806200077383
 22
30.16250000000003
 32
0.0
 13
-26.15806200077383
 23
30.16250000000003
 33
0.0
  0
SOLID
  5
61B0E
330
60921
100
AcDbEntity
  8
sk2
100
AcDbTrace
 10
-26.74139533410718
 20
-26.66249999999996
 30
0.0
 11
-25.57472866744051
 21
-26.66249999999996
 31
0.0
 12
-26.15806200077385
 22
-30.16249999999996
 32
0.0
 13
-26.15806200077385
 23
-30.16249999999996
 33
0.0
  0
MTEXT
  5
61B0F
330
60921
100
AcDbEntity
  8
sk2
100
AcDbMText
 10
-30.20806200077384
 20
-0.0567970440036442
 30
0.0
 40
3.5
 41
0.0
 71
     5
 72
     1
  1
\A1;%%C60.325 [%%c2.375"]
  7
simplex
 11
0.0000000000000001
 21
1.0
 31
0.0
 73
     1
 44
1.0
1001
ACAD
1000
MTEXTBEGIN
1070
    73
1070
     1
1070
    44
1040
1.0
1070
    74
1070
     0
1000
MTEXTEND
  0
POINT
  5
61B10
330
60921
100
AcDbEntity
  8
Defpoints
 62
     0
100
AcDbPoint
 10
2.000000000000056
 20
30.16250000000002
 30
0.0
  0
POINT
  5
61B11
330
60921
100
AcDbEntity
  8
Defpoints
 62
     0
100
AcDbPoint
 10
2.000000000000028
 20
-30.16249999999997
 30
0.0
  0
POINT
  5
61B12
330
60921
100
AcDbEntity
  8
Defpoints
 62
     0
100
AcDbPoint
 10
-26.15806200077385
 20
-30.16249999999996
 30
0.0
  0
ENDBLK
  5
6092C
330
60921
100
AcDbEntity
  8
0
100
AcDbBlockEnd
  0
BLOCK
  5
60943
330
60939
100
AcDbEntity
  8
0
100
AcDbBlockBegin
  2
*D88
 70
     1
 10
0.0
 20
0.0
 30
0.0
  3
*D88
  1

  0
LINE
  5
61AD3
330
60939
100
AcDbEntity
  8
sk2
100
AcDbLine
 10
0.0000000000000284
 20
-28.16249999999996
 30
0.0
 11
0.0000000000000267
 21
-56.61005773151498
 31
0.0
  0
LINE
  5
61AD4
330
60939
100
AcDbEntity
  8
sk2
100
AcDbLine
 10
24.00000000000003
 20
-12.3957475583
 30
0.0
 11
24.00000000000003
 21
-56.61005773151498
 31
0.0
  0
LINE
  5
61AD5
330
60939
100
AcDbEntity
  8
sk2
100
AcDbLine
 10
20.50000000000002
 20
-55.11005773151499
 30
0.0
 11
3.500000000000026
 21
-55.11005773151499
 31
0.0
  0
LINE
  5
61AD6
330
60939
100
AcDbEntity
  8
sk2
100
AcDbLine
 10
0.0000000000000268
 20
-55.11005773151499
 30
0.0
 11
-36.09999999999997
 21
-55.11005773151499
 31
0.0
  0
SOLID
  5
61AD7
330
60939
100
AcDbEntity
  8
sk2
100
AcDbTrace
 10
20.50000000000002
 20
-54.52672439818165
 30
0.0
 11
20.50000000000002
 21
-55.69339106484832
 31
0.0
 12
24.00000000000003
 22
-55.11005773151499
 32
0.0
 13
24.00000000000003
 23
-55.11005773151499
 33
0.0
  0
SOLID
  5
61AD8
330
60939
100
AcDbEntity
  8
sk2
100
AcDbTrace
 10
3.500000000000026
 20
-54.52672439818165
 30
0.0
 11
3.500000000000026
 21
-55.69339106484832
 31
0.0
 12
0.0000000000000268
 22
-55.11005773151499
 32
0.0
 13
0.0000000000000268
 23
-55.11005773151499
 33
0.0
  0
MTEXT
  5
61AD9
330
60939
100
AcDbEntity
  8
sk2
100
AcDbMText
 10
-19.79999999999997
 20
-51.06005773151498
 30
0.0
 40
3.5
 41
0.0
 71
     5
 72
     1
  1
\A1;24 [.945"]
  7
simplex
 73
     1
 44
1.0
1001
ACAD
1000
MTEXTBEGIN
1070
    73
1070
     1
1070
    44
1040
1.0
1070
    74
1070
     0
1000
MTEXTEND
  0
POINT
  5
61ADA
330
60939
100
AcDbEntity
  8
Defpoints
 62
     0
100
AcDbPoint
 10
0.0000000000000284
 20
-28.16249999999996
 30
0.0
  0
POINT
  5
61ADB
330
60939
100
AcDbEntity
  8
Defpoints
 62
     0
100
AcDbPoint
 10
24.00000000000003
 20
-12.3957475583
 30
0.0
  0
POINT
  5
61ADC
330
60939
100
AcDbEntity
  8
Defpoints
 62
     0
100
AcDbPoint
 10
24.00000000000003
 20
-55.11005773151499
 30
0.0
  0
ENDBLK
  5
60944
330
60939
100
AcDbEntity
  8
0
100
AcDbBlockEnd
  0
BLOCK
  5
6095C
330
60951
100
AcDbEntity
  8
0
100
AcDbBlockBegin
  2
*D89
 70
     1
 10
0.0
 20
0.0
 30
0.0
  3
*D89
  1

  0
LINE
  5
61A6B
330
60951
100
AcDbEntity
  8
2
100
AcDbLine
 10
50.80000000000004
 20
24.12223759951325
 30
0.0
 11
50.80000000000003
 21
-56.57200505834738
 31
0.0
  0
LINE
  5
61A6C
330
60951
100
AcDbEntity
  8
2
100
AcDbLine
 10
48.70000000000004
 20
17.2727259715336
 30
0.0
 11
48.70000000000004
 21
-56.57200505834737
 31
0.0
  0
LINE
  5
61A6D
330
60951
100
AcDbEntity
  8
2
100
AcDbLine
 10
45.20000000000004
 20
-55.07200505834737
 30
0.0
 11
41.70000000000004
 21
-55.07200505834737
 31
0.0
  0
LINE
  5
61A6E
330
60951
100
AcDbEntity
  8
2
100
AcDbLine
 10
54.30000000000003
 20
-55.07200505834737
 30
0.0
 11
104.9833333333334
 21
-55.07200505834737
 31
0.0
  0
SOLID
  5
61A6F
330
60951
100
AcDbEntity
  8
2
100
AcDbTrace
 10
45.20000000000004
 20
-54.48867172501404
 30
0.0
 11
45.20000000000004
 21
-55.65533839168071
 31
0.0
 12
48.70000000000004
 22
-55.07200505834737
 32
0.0
 13
48.70000000000004
 23
-55.07200505834737
 33
0.0
  0
SOLID
  5
61A70
330
60951
100
AcDbEntity
  8
2
100
AcDbTrace
 10
54.30000000000003
 20
-54.48867172501404
 30
0.0
 11
54.30000000000003
 21
-55.65533839168071
 31
0.0
 12
50.80000000000003
 22
-55.07200505834737
 32
0.0
 13
50.80000000000003
 23
-55.07200505834737
 33
0.0
  0
MTEXT
  5
61A71
330
60951
100
AcDbEntity
  8
2
100
AcDbMText
 10
81.39166666666671
 20
-51.02200505834737
 30
0.0
 40
3.5
 41
0.0
 71
     5
 72
     1
  1
\A1;2.1 [.083"](MAX)
  7
simplex
 73
     1
 44
1.0
1001
ACAD
1000
MTEXTBEGIN
1070
    73
1070
     1
1070
    44
1040
1.0
1070
    74
1070
     0
1000
MTEXTEND
  0
POINT
  5
61A72
330
60951
100
AcDbEntity
  8
Defpoints
 62
     0
100
AcDbPoint
 10
50.80000000000004
 20
24.12223759951325
 30
0.0
  0
POINT
  5
61A73
330
60951
100
AcDbEntity
  8
Defpoints
 62
     0
100
AcDbPoint
 10
48.70000000000004
 20
17.2727259715336
 30
0.0
  0
POINT
  5
61A74
330
60951
100
AcDbEntity
  8
Defpoints
 62
     0
100
AcDbPoint
 10
48.70000000000004
 20
-55.07200505834737
 30
0.0
  0
ENDBLK
  5
6095D
330
60951
100
AcDbEntity
  8
0
100
AcDbBlockEnd
  0
BLOCK
  5
60976
330
6096B
100
AcDbEntity
  8
0
100
AcDbBlockBegin
  2
*D90
 70
     1
 10
0.0
 20
0.0
 30
0.0
  3
*D90
  1

  0
LINE
  5
61A75
330
6096B
100
AcDbEntity
  8
2
100
AcDbLine
 10
50.80000000000004
 20
24.12223759951325
 30
0.0
 11
50.80000000000004
 21
59.23136219644209
 31
0.0
  0
LINE
  5
61A76
330
6096B
100
AcDbEntity
  8
2
100
AcDbLine
 10
48.80000000000004
 20
30.35185706252543
 30
0.0
 11
48.80000000000004
 21
59.23136219644209
 31
0.0
  0
LINE
  5
61A77
330
6096B
100
AcDbEntity
  8
2
100
AcDbLine
 10
54.30000000000004
 20
57.73136219644209
 30
0.0
 11
57.80000000000004
 21
57.73136219644209
 31
0.0
  0
LINE
  5
61A78
330
6096B
100
AcDbEntity
  8
2
100
AcDbLine
 10
45.30000000000003
 20
57.73136219644209
 30
0.0
 11
-77.71666666666661
 21
57.73136219644209
 31
0.0
  0
SOLID
  5
61A79
330
6096B
100
AcDbEntity
  8
2
100
AcDbTrace
 10
54.30000000000004
 20
58.31469552977543
 30
0.0
 11
54.30000000000004
 21
57.14802886310875
 31
0.0
 12
50.80000000000004
 22
57.73136219644209
 32
0.0
 13
50.80000000000004
 23
57.73136219644209
 33
0.0
  0
SOLID
  5
61A7A
330
6096B
100
AcDbEntity
  8
2
100
AcDbTrace
 10
45.30000000000003
 20
58.31469552977543
 30
0.0
 11
45.30000000000003
 21
57.14802886310875
 31
0.0
 12
48.80000000000004
 22
57.73136219644209
 32
0.0
 13
48.80000000000004
 23
57.73136219644209
 33
0.0
  0
MTEXT
  5
61A7B
330
6096B
100
AcDbEntity
  8
2
100
AcDbMText
 10
-17.95833333333328
 20
61.78136219644208
 30
0.0
 40
3.5
 41
0.0
 71
     5
 72
     1
  1
\A1;2 [.079"](APMX AT HIGH FEED PROCESS)
  7
simplex
 73
     1
 44
1.0
1001
ACAD
1000
MTEXTBEGIN
1070
    73
1070
     1
1070
    44
1040
1.0
1070
    74
1070
     0
1000
MTEXTEND
  0
POINT
  5
61A7C
330
6096B
100
AcDbEntity
  8
Defpoints
 62
     0
100
AcDbPoint
 10
50.80000000000004
 20
24.12223759951325
 30
0.0
  0
POINT
  5
61A7D
330
6096B
100
AcDbEntity
  8
Defpoints
 62
     0
100
AcDbPoint
 10
48.80000000000004
 20
30.35185706252543
 30
0.0
  0
POINT
  5
61A7E
330
6096B
100
AcDbEntity
  8
Defpoints
 62
     0
100
AcDbPoint
 10
48.80000000000004
 20
57.73136219644209
 30
0.0
  0
ENDBLK
  5
60977
330
6096B
100
AcDbEntity
  8
0
100
AcDbBlockEnd
  0
BLOCK
  5
60990
330
60985
100
AcDbEntity
  8
0
100
AcDbBlockBegin
  2
*D91
 70
     1
 10
0.0
 20
0.0
 30
0.0
  3
*D91
  1

  0
LINE
  5
61A7F
330
60985
100
AcDbEntity
  8
2
100
AcDbLine
 10
50.80000000000004
 20
24.12223759951325
 30
0.0
 11
50.80000000000004
 21
70.02410455375969
 31
0.0
  0
LINE
  5
61A80
330
60985
100
AcDbEntity
  8
2
100
AcDbLine
 10
47.80000000000003
 20
31.22176803755738
 30
0.0
 11
47.80000000000003
 21
70.02410455375969
 31
0.0
  0
LINE
  5
61A81
330
60985
100
AcDbEntity
  8
2
100
AcDbLine
 10
54.30000000000004
 20
68.52410455375968
 30
0.0
 11
57.80000000000004
 21
68.52410455375968
 31
0.0
  0
LINE
  5
61A82
330
60985
100
AcDbEntity
  8
2
100
AcDbLine
 10
44.30000000000004
 20
68.52410455375968
 30
0.0
 11
0.0333333333333812
 21
68.52410455375968
 31
0.0
  0
SOLID
  5
61A83
330
60985
100
AcDbEntity
  8
2
100
AcDbTrace
 10
54.30000000000004
 20
69.10743788709301
 30
0.0
 11
54.30000000000004
 21
67.94077122042636
 31
0.0
 12
50.80000000000004
 22
68.52410455375968
 32
0.0
 13
50.80000000000004
 23
68.52410455375968
 33
0.0
  0
SOLID
  5
61A84
330
60985
100
AcDbEntity
  8
2
100
AcDbTrace
 10
44.30000000000004
 20
69.10743788709301
 30
0.0
 11
44.30000000000004
 21
67.94077122042636
 31
0.0
 12
47.80000000000003
 22
68.52410455375968
 32
0.0
 13
47.80000000000003
 23
68.52410455375968
 33
0.0
  0
MTEXT
  5
61A85
330
60985
100
AcDbEntity
  8
2
100
AcDbMText
 10
20.41666666666671
 20
72.57410455375968
 30
0.0
 40
3.5
 41
0.0
 71
     5
 72
     1
  1
\A1;APMX3 [.118"]
  7
simplex
 73
     1
 44
1.0
1001
ACAD
1000
MTEXTBEGIN
1070
    73
1070
     1
1070
    44
1040
1.0
1070
    74
1070
     0
1000
MTEXTEND
  0
POINT
  5
61A86
330
60985
100
AcDbEntity
  8
Defpoints
 62
     0
100
AcDbPoint
 10
50.80000000000004
 20
24.12223759951325
 30
0.0
  0
POINT
  5
61A87
330
60985
100
AcDbEntity
  8
Defpoints
 62
     0
100
AcDbPoint
 10
47.80000000000003
 20
31.22176803755738
 30
0.0
  0
POINT
  5
61A88
330
60985
100
AcDbEntity
  8
Defpoints
 62
     0
100
AcDbPoint
 10
47.80000000000003
 20
68.52410455375968
 30
0.0
  0
ENDBLK
  5
60991
330
60985
100
AcDbEntity
  8
0
100
AcDbBlockEnd
  0
BLOCK
  5
609A9
330
6099F
100
AcDbEntity
  8
0
100
AcDbBlockBegin
  2
*D92
 70
     1
 10
0.0
 20
0.0
 30
0.0
  3
*D92
  1

  0
LINE
  5
61A89
330
6099F
100
AcDbEntity
  8
2
100
AcDbLine
 10
50.80000000000004
 20
24.12223759951325
 30
0.0
 11
50.80000000000004
 21
80.89967794086669
 31
0.0
  0
LINE
  5
61A8A
330
6099F
100
AcDbEntity
  8
2
100
AcDbLine
 10
0.0000000000000568
 20
24.02
 30
0.0
 11
0.0000000000000603
 21
80.89967794086669
 31
0.0
  0
LINE
  5
61A8B
330
6099F
100
AcDbEntity
  8
2
100
AcDbLine
 10
47.30000000000003
 20
79.39967794086669
 30
0.0
 11
3.50000000000006
 21
79.39967794086669
 31
0.0
  0
SOLID
  5
61A8C
330
6099F
100
AcDbEntity
  8
2
100
AcDbTrace
 10
47.30000000000003
 20
79.98301127420003
 30
0.0
 11
47.30000000000003
 21
78.81634460753336
 31
0.0
 12
50.80000000000004
 22
79.39967794086669
 32
0.0
 13
50.80000000000004
 23
79.39967794086669
 33
0.0
  0
SOLID
  5
61A8D
330
6099F
100
AcDbEntity
  8
2
100
AcDbTrace
 10
3.50000000000006
 20
79.98301127420003
 30
0.0
 11
3.50000000000006
 21
78.81634460753336
 31
0.0
 12
0.0000000000000602
 22
79.39967794086669
 32
0.0
 13
0.0000000000000602
 23
79.39967794086669
 33
0.0
  0
MTEXT
  5
61A8E
330
6099F
100
AcDbEntity
  8
2
100
AcDbMText
 10
25.40000000000005
 20
83.44967794086668
 30
0.0
 40
3.5
 41
0.0
 71
     5
 72
     1
  1
\A1;50.8 [2.000"]
  7
simplex
 73
     1
 44
1.0
1001
ACAD
1000
MTEXTBEGIN
1070
    73
1070
     1
1070
    44
1040
1.0
1070
    74
1070
     0
1000
MTEXTEND
  0
POINT
  5
61A8F
330
6099F
100
AcDbEntity
  8
Defpoints
 62
     0
100
AcDbPoint
 10
50.80000000000004
 20
24.12223759951325
 30
0.0
  0
POINT
  5
61A90
330
6099F
100
AcDbEntity
  8
Defpoints
 62
     0
100
AcDbPoint
 10
0.0000000000000568
 20
24.02
 30
0.0
  0
POINT
  5
61A91
330
6099F
100
AcDbEntity
  8
Defpoints
 62
     0
100
AcDbPoint
 10
0.0000000000000602
 20
79.39967794086669
 30
0.0
  0
ENDBLK
  5
609AA
330
6099F
100
AcDbEntity
  8
0
100
AcDbBlockEnd
  0
BLOCK
  5
61B24
330
61B1C
100
AcDbEntity
  8
0
100
AcDbBlockBegin
  2
*D98
 70
     1
 10
0.0
 20
0.0
 30
0.0
  3
*D98
  1

  0
LINE
  5
61B36
330
61B1C
100
AcDbEntity
  8
2
100
AcDbLine
 10
89.43945535453408
 20
51.96155888066669
 30
0.0
 11
51.82792361633795
 21
32.13633190211461
 31
0.0
  0
MTEXT
  5
61B37
330
61B1C
100
AcDbEntity
  8
2
100
AcDbMText
 10
70.29330558764003
 20
46.44771099120626
 30
0.0
 40
3.5
 41
0.0
 71
     5
 72
     1
  1
\A1;R1.5 [R.059"]
  7
simplex
 11
0.8846303035248013
 21
0.4662930688800959
 31
0.0
 73
     1
 44
1.0
1001
ACAD
1000
MTEXTBEGIN
1070
    73
1070
     1
1070
    44
1040
1.0
1070
    74
1070
     0
1000
MTEXTEND
  0
SOLID
  5
61B38
330
61B1C
100
AcDbEntity
  8
2
100
AcDbTrace
 10
51.5559193261579
 20
32.65236624583741
 30
0.0
 11
52.09992790651801
 21
31.62029755839182
 31
0.0
 12
48.73171755400115
 22
30.50430616103428
 32
0.0
 13
48.73171755400115
 23
30.50430616103428
 33
0.0
  0
LINE
  5
61B39
330
61B1C
100
AcDbEntity
  8
2
100
AcDbLine
 10
47.31477209871381
 20
29.80486655771406
 30
0.0
 11
47.49477209871382
 21
29.80486655771406
 31
0.0
  0
LINE
  5
61B3A
330
61B1C
100
AcDbEntity
  8
2
100
AcDbLine
 10
47.40477209871381
 20
29.71486655771406
 30
0.0
 11
47.40477209871381
 21
29.89486655771406
 31
0.0
  0
POINT
  5
61B3B
330
61B1C
100
AcDbEntity
  8
Defpoints
 62
     0
100
AcDbPoint
 10
48.73171755400115
 20
30.50430616103428
 30
0.0
  0
POINT
  5
61B3C
330
61B1C
100
AcDbEntity
  8
Defpoints
 62
     0
100
AcDbPoint
 10
47.40477209871381
 20
29.80486655771406
 30
0.0
  0
ENDBLK
  5
61B25
330
61B1C
100
AcDbEntity
  8
0
100
AcDbBlockEnd
  0
ENDSEC
  0
SECTION
  2
ENTITIES
  0
INSERT
  5
68C
330
1F
100
AcDbEntity
  8
0
100
AcDbBlockReference
  2
zero block
 10
0.0000000000000072
 20
0.0
 30
0.0
 50
180.0
  0
MTEXT
  5
5CD11
330
1F
100
AcDbEntity
  8
sk6
100
AcDbMText
 10
-12.46389686923112
 20
98.57378453863361
 30
0.0
 40
5.0
 41
85.25075165579854
 71
     1
 72
     5
  1
WJX14UR2_5004CA
  7
simplex
 73
     1
 44
1.0
1001
ACAD
1000
ACAD_MTEXT_DEFINED_HEIGHT_BEGIN
1070
    46
1040
0.0
1000
ACAD_MTEXT_DEFINED_HEIGHT_END
1000
MTEXTBEGIN
1070
    73
1070
     1
1070
    44
1040
1.0
1070
    74
1070
     0
1000
MTEXTEND
  0
DIMENSION
  5
608D8
330
1F
100
AcDbEntity
  8
2
100
AcDbDimension
  2
*D84
 10
73.72380017380959
 20
-24.02000000000001
 30
0.0
 11
73.72380017380959
 21
-0.1723033375905629
 31
0.0
 70
   160
  1
%%C<>
 71
     5
 42
48.04000000000001
  3
\M+18352\M+18373\M+1815B - ISO-25
100
AcDbAlignedDimension
 13
50.69768417579644
 23
24.02000000000001
 33
0.0
 14
50.69768417579644
 24
-24.02000000000001
 34
0.0
 50
90.0
100
AcDbRotatedDimension
1001
ACAD
1000
DSTYLE
1002
{
1070
     4
1000
%%C[]"
1070
    40
1040
1.0
1070
    76
1070
     1
1070
   143
1040
0.0393700787401575
1070
   170
1070
     1
1070
   171
1070
     3
1070
   173
1070
     1
1070
   271
1070
     8
1070
   285
1070
     4
1070
   344
1005
32F1
1002
}
  0
DIMENSION
  5
608F0
330
1F
100
AcDbEntity
  8
2
100
AcDbDimension
  2
*D85
 10
87.1358943449182
 20
-31.75000000000002
 30
0.0
 11
87.1358943449182
 21
-0.1771098223954368
 31
0.0
 70
   160
  1
%%C<>
 71
     5
 42
63.50000000000001
  3
\M+18352\M+18373\M+1815B - ISO-25
100
AcDbAlignedDimension
 13
47.41601732760005
 23
31.75000000000001
 33
0.0
 14
47.41601732760005
 24
-31.75000000000001
 34
0.0
 50
90.0
100
AcDbRotatedDimension
1001
ACAD
1000
DSTYLE
1002
{
1070
     4
1000
%%C[]"
1070
    40
1040
1.0
1070
    76
1070
     1
1070
   143
1040
0.0393700787401575
1070
   170
1070
     1
1070
   171
1070
     3
1070
   173
1070
     1
1070
   271
1070
     8
1070
   285
1070
     4
1070
   344
1005
32F1
1002
}
  0
DIMENSION
  5
60908
330
1F
100
AcDbEntity
  8
sk2
100
AcDbDimension
  2
*D86
 10
-12.80895007098786
 20
-12.69999999999998
 30
0.0
 11
-12.80895007098786
 21
0.0000000000000043
 31
0.0
 70
   160
  1
%%C<>
 71
     5
 42
25.39999999999998
  3
\M+18352\M+18373\M+1815B - ISO-25
100
AcDbAlignedDimension
 13
4.000000000000028
 23
12.69999999999999
 33
0.0
 14
4.000000000000028
 24
-12.69999999999999
 34
0.0
 50
90.0
100
AcDbRotatedDimension
1001
ACAD
1000
DSTYLE
1002
{
1070
     4
1000
%%c[]"
1070
    40
1040
1.0
1070
   143
1040
0.0393700787401575
1070
   170
1070
     1
1070
   171
1070
     3
1070
   271
1070
     8
1070
   285
1070
     4
1002
}
  0
DIMENSION
  5
60920
330
1F
100
AcDbEntity
  8
sk2
100
AcDbDimension
  2
*D87
 10
-26.15806200077385
 20
-30.16249999999996
 30
0.0
 11
-26.15806200077384
 21
-0.0567970440036447
 31
0.0
 70
   160
  1
%%C<>
 71
     5
 42
60.32499999999998
  3
\M+18352\M+18373\M+1815B - ISO-25
100
AcDbAlignedDimension
 13
2.000000000000056
 23
30.16250000000002
 33
0.0
 14
2.000000000000028
 24
-30.16249999999997
 34
0.0
 50
90.0
100
AcDbRotatedDimension
1001
ACAD
1000
DSTYLE
1002
{
1070
     4
1000
%%c[]"
1070
    40
1040
1.0
1070
   143
1040
0.0393700787401575
1070
   170
1070
     1
1070
   171
1070
     3
1070
   271
1070
     8
1070
   285
1070
     4
1002
}
  0
DIMENSION
  5
60938
330
1F
100
AcDbEntity
  8
sk2
100
AcDbDimension
  2
*D88
 10
24.00000000000003
 20
-55.11005773151499
 30
0.0
 11
-19.79999999999997
 21
-55.11005773151499
 31
0.0
 70
   160
 71
     5
 42
24.0
  3
\M+18352\M+18373\M+1815B - ISO-25
100
AcDbAlignedDimension
 13
0.0000000000000284
 23
-28.16249999999996
 33
0.0
 14
24.00000000000003
 24
-12.3957475583
 34
0.0
100
AcDbRotatedDimension
1001
ACAD
1000
DSTYLE
1002
{
1070
     4
1000
[]"
1070
    40
1040
1.0
1070
   143
1040
0.0393700787401575
1070
   170
1070
     1
1070
   171
1070
     3
1070
   271
1070
     8
1070
   285
1070
     4
1002
}
  0
DIMENSION
  5
60950
330
1F
100
AcDbEntity
  8
2
100
AcDbDimension
  2
*D89
 10
48.70000000000004
 20
-55.07200505834737
 30
0.0
 11
81.39166666666671
 21
-55.07200505834737
 31
0.0
 70
   160
  1
<>(MAX)
 71
     5
 42
2.099999999999994
  3
\M+18352\M+18373\M+1815B - ISO-25
100
AcDbAlignedDimension
 13
50.80000000000004
 23
24.12223759951325
 33
0.0
 14
48.70000000000004
 24
17.2727259715336
 34
0.0
100
AcDbRotatedDimension
1001
ACAD
1000
DSTYLE
1002
{
1070
     4
1000
"
1070
    40
1040
1.0
1070
   143
1040
0.0393700787401575
1070
   170
1070
     1
1070
   171
1070
     3
1070
   271
1070
     8
1070
   285
1070
     4
1002
}
  0
DIMENSION
  5
6096A
330
1F
100
AcDbEntity
  8
2
100
AcDbDimension
  2
*D90
 10
48.80000000000004
 20
57.73136219644209
 30
0.0
 11
-17.95833333333328
 21
61.78136219644208
 31
0.0
 70
    32
  1
<>(APMX AT HIGH FEED PROCESS)
 71
     5
 42
2.0
  3
\M+18352\M+18373\M+1815B - ISO-25
100
AcDbAlignedDimension
 13
50.80000000000004
 23
24.12223759951325
 33
0.0
 14
48.80000000000004
 24
30.35185706252543
 34
0.0
100
AcDbRotatedDimension
1001
ACAD
1000
DSTYLE
1002
{
1070
     4
1000
"
1070
    40
1040
1.0
1070
   143
1040
0.0393700787401575
1070
   170
1070
     1
1070
   171
1070
     3
1070
   271
1070
     8
1070
   285
1070
     4
1002
}
  0
DIMENSION
  5
60984
330
1F
100
AcDbEntity
  8
2
100
AcDbDimension
  2
*D91
 10
47.80000000000003
 20
68.52410455375968
 30
0.0
 11
20.41666666666671
 21
72.57410455375968
 31
0.0
 70
    32
  1
APMX<>
 71
     5
 42
3.0
  3
\M+18352\M+18373\M+1815B - ISO-25
100
AcDbAlignedDimension
 13
50.80000000000004
 23
24.12223759951325
 33
0.0
 14
47.80000000000003
 24
31.22176803755738
 34
0.0
100
AcDbRotatedDimension
1001
ACAD
1000
DSTYLE
1002
{
1070
     4
1000
"
1070
    40
1040
1.0
1070
   143
1040
0.0393700787401575
1070
   170
1070
     1
1070
   171
1070
     3
1070
   271
1070
     8
1070
   285
1070
     4
1002
}
  0
DIMENSION
  5
6099E
330
1F
100
AcDbEntity
  8
2
100
AcDbDimension
  2
*D92
 10
0.0000000000000602
 20
79.39967794086669
 30
0.0
 11
25.40000000000005
 21
83.44967794086668
 31
0.0
 70
    32
 71
     5
 42
50.79999999999998
  3
\M+18352\M+18373\M+1815B - ISO-25
100
AcDbAlignedDimension
 13
50.80000000000004
 23
24.12223759951325
 33
0.0
 14
0.0000000000000568
 24
24.02
 34
0.0
100
AcDbRotatedDimension
1001
ACAD
1000
DSTYLE
1002
{
1070
     4
1000
"
1070
    40
1040
1.0
1070
   143
1040
0.0393700787401575
1070
   170
1070
     1
1070
   171
1070
     3
1070
   271
1070
     8
1070
   285
1070
     4
1002
}
  0
LINE
  5
61860
330
1F
100
AcDbEntity
  8
nocut
100
AcDbLine
 10
49.5
 20
24.53083532510004
 30
0.0
 11
49.5
 21
0.0
 31
0.0
1001
ACAD
1000
RTMaterial
1005
0
  0
LINE
  5
61861
330
1F
100
AcDbEntity
  8
cut
100
AcDbLine
 10
50.73637431680007
 20
24.5200570774
 30
0.0
 11
48.85047446150008
 21
30.68855755710001
 31
0.0
1001
ACAD
1000
RTMaterial
1005
0
  0
LINE
  5
61862
330
1F
100
AcDbEntity
  8
nocut
100
AcDbLine
 10
48.04987040410003
 20
29.44294012870006
 30
0.0
 11
49.5
 21
24.53083532510004
 31
0.0
1001
ACAD
1000
RTMaterial
1005
0
  0
LINE
  5
61863
330
1F
100
AcDbEntity
  8
nocut
100
AcDbLine
 10
41.93614761800001
 20
29.87618164280002
 30
0.0
 11
46.79502517050003
 21
30.29866702230004
 31
0.0
1001
ACAD
1000
RTMaterial
1005
0
  0
LINE
  5
61864
330
1F
100
AcDbEntity
  8
cut
100
AcDbLine
 10
47.27692188100007
 20
31.74353689500004
 30
0.0
 11
43.54838147420008
 21
31.39629204630006
 31
0.0
1001
ACAD
1000
RTMaterial
1005
0
  0
LINE
  5
61865
330
1F
100
AcDbEntity
  8
nocut
100
AcDbLine
 10
40.3980086894
 20
30.22480153739997
 30
0.0
 11
41.66764324699999
 21
29.89837294
 31
0.0
1001
ACAD
1000
RTMaterial
1005
0
  0
LINE
  5
61866
330
1F
100
AcDbEntity
  8
1
100
AcDbLine
 10
40.39800868930004
 20
-30.22480153729993
 30
0.0
 11
41.66764324700008
 21
-29.89837294
 31
0.0
1001
ACAD
1000
RTMaterial
1005
0
  0
LINE
  5
61867
330
1F
100
AcDbEntity
  8
1
100
AcDbLine
 10
36.29451001350006
 20
-30.25
 30
0.0
 11
40.19880382560003
 21
-30.25
 31
0.0
1001
ACAD
1000
RTMaterial
1005
0
  0
LINE
  5
61868
330
1F
100
AcDbEntity
  8
1
100
AcDbLine
 10
9.028098454300078
 20
-30.16249999999997
 30
0.0
 11
2.000000000000028
 21
-30.16249999999997
 31
0.0
1001
ACAD
1000
RTMaterial
1005
0
  0
LINE
  5
61869
330
1F
100
AcDbEntity
  8
1
100
AcDbLine
 10
41.93614761800003
 20
-29.87618164279997
 30
0.0
 11
46.79502517050005
 21
-30.29866702229992
 31
0.0
1001
ACAD
1000
RTMaterial
1005
0
  0
LINE
  5
6186A
330
1F
100
AcDbEntity
  8
1
100
AcDbLine
 10
27.33232496370002
 20
-27.9669026222
 30
0.0
 11
33.3707929663
 21
-29.81304755959996
 31
0.0
1001
ACAD
1000
RTMaterial
1005
0
  0
LINE
  5
6186B
330
1F
100
AcDbEntity
  8
1
100
AcDbLine
 10
48.04987040400002
 20
-29.44294012869995
 30
0.0
 11
49.50000000000002
 21
-24.53083532509999
 31
0.0
1001
ACAD
1000
RTMaterial
1005
0
  0
LINE
  5
6186C
330
1F
100
AcDbEntity
  8
1
100
AcDbLine
 10
13.99275900100005
 20
-28.54932065019994
 30
0.0
 11
10.90113142140004
 21
-29.79841927279995
 31
0.0
1001
ACAD
1000
RTMaterial
1005
0
  0
LINE
  5
6186D
330
1F
100
AcDbEntity
  8
sk3
100
AcDbLine
 10
13.83926112070006
 20
-13.1250462296
 30
0.0
 11
12.92774653970005
 21
-12.69999999999999
 31
0.0
1001
ACAD
1000
RTMaterial
1005
0
  0
LINE
  5
6186E
330
1F
100
AcDbEntity
  8
sk3
100
AcDbLine
 10
1.200000000000073
 20
-13.19999999999999
 30
0.0
 11
4.000000000000028
 21
-13.19999999999999
 31
0.0
1001
ACAD
1000
RTMaterial
1005
0
  0
LINE
  5
6186F
330
1F
100
AcDbEntity
  8
sk3
100
AcDbLine
 10
23.20000000000007
 20
-13.19999999999999
 30
0.0
 11
14.17735573010006
 21
-13.19999999999999
 31
0.0
1001
ACAD
1000
RTMaterial
1005
0
  0
LINE
  5
61870
330
1F
100
AcDbEntity
  8
sk3
100
AcDbLine
 10
12.92774653970005
 20
-12.69999999999999
 30
0.0
 11
4.000000000000028
 21
-12.69999999999999
 31
0.0
1001
ACAD
1000
RTMaterial
1005
0
  0
LINE
  5
61871
330
1F
100
AcDbEntity
  8
1
100
AcDbLine
 10
0.0000000000000284
 20
5.262499999999988
 30
0.0
 11
0.5000000000000285
 21
4.762499999999988
 31
0.0
1001
ACAD
1000
RTMaterial
1005
0
  0
LINE
  5
61872
330
1F
100
AcDbEntity
  8
1
100
AcDbLine
 10
4.56000000000003
 20
4.762499999999988
 30
0.0
 11
5.56000000000003
 21
3.762499999999988
 31
0.0
1001
ACAD
1000
RTMaterial
1005
0
  0
LINE
  5
61873
330
1F
100
AcDbEntity
  8
1
100
AcDbLine
 10
49.50000000000002
 20
-24.53083521799994
 30
0.0
 11
49.50000000000002
 21
19.11733820370006
 31
0.0
1001
ACAD
1000
RTMaterial
1005
0
  0
LINE
  5
61874
330
1F
100
AcDbEntity
  8
sk3
100
AcDbLine
 10
45.30000000000003
 20
-10.0
 30
0.0
 11
32.40000000000006
 21
-10.0
 31
0.0
1001
ACAD
1000
RTMaterial
1005
0
  0
LINE
  5
61875
330
1F
100
AcDbEntity
  8
1
100
AcDbLine
 10
39.37032194680006
 20
29.35478025800006
 30
0.0
 11
39.45216012030005
 21
29.05988275880009
 31
0.0
1001
ACAD
1000
RTMaterial
1005
0
  0
LINE
  5
61876
330
1F
100
AcDbEntity
  8
sk3
100
AcDbLine
 10
46.30000000000004
 20
12.59852356610003
 30
0.0
 11
46.30000000000004
 21
-12.59852356609997
 31
0.0
1001
ACAD
1000
RTMaterial
1005
0
  0
LINE
  5
61877
330
1F
100
AcDbEntity
  8
sk3
100
AcDbLine
 10
45.30000000000003
 20
10.0
 30
0.0
 11
45.30000000000003
 21
-10.0
 31
0.0
1001
ACAD
1000
RTMaterial
1005
0
  0
LINE
  5
61878
330
1F
100
AcDbEntity
  8
sk3
100
AcDbLine
 10
31.50000000000003
 20
-6.849999999999965
 30
0.0
 11
24.40000000000007
 21
-6.849999999999965
 31
0.0
1001
ACAD
1000
RTMaterial
1005
0
  0
LINE
  5
61879
330
1F
100
AcDbEntity
  8
1
100
AcDbLine
 10
4.56000000000003
 20
-4.762499999999988
 30
0.0
 11
0.5000000000000285
 21
-4.762499999999988
 31
0.0
1001
ACAD
1000
RTMaterial
1005
0
  0
LINE
  5
6187A
330
1F
100
AcDbEntity
  8
sk3
100
AcDbLine
 10
1.200000000000073
 20
13.19999999999999
 30
0.0
 11
0.0000000000000284
 21
14.40000000000003
 31
0.0
1001
ACAD
1000
RTMaterial
1005
0
  0
LINE
  5
6187B
330
1F
100
AcDbEntity
  8
1
100
AcDbLine
 10
50.17256838210002
 20
20.66812303450007
 30
0.0
 11
48.66426457390005
 21
17.19032846639999
 31
0.0
1001
ACAD
1000
RTMaterial
1005
0
  0
LINE
  5
6187C
330
1F
100
AcDbEntity
  8
1
100
AcDbLine
 10
38.70568974520006
 20
19.09142688460002
 30
0.0
 11
38.68198397050008
 21
19.20052582630006
 31
0.0
1001
ACAD
1000
RTMaterial
1005
0
  0
LINE
  5
6187D
330
1F
100
AcDbEntity
  8
1
100
AcDbLine
 10
40.06680988030007
 20
29.54451325500003
 30
0.0
 11
40.06660472750008
 21
29.71912006630009
 31
0.0
1001
ACAD
1000
RTMaterial
1005
0
  0
LINE
  5
6187E
330
1F
100
AcDbEntity
  8
sk3
100
AcDbLine
 10
46.30000000000004
 20
11.0
 30
0.0
 11
45.30000000000003
 21
10.0
 31
0.0
1001
ACAD
1000
RTMaterial
1005
0
  0
LINE
  5
6187F
330
1F
100
AcDbEntity
  8
1
100
AcDbLine
 10
49.50000000000002
 20
13.30684841730004
 30
0.0
 11
48.04843225430008
 21
11.8966078446
 31
0.0
1001
ACAD
1000
RTMaterial
1005
0
  0
LINE
  5
61880
330
1F
100
AcDbEntity
  8
4
100
AcDbLine
 10
53.25530620940006
 20
0.0
 30
0.0
 11
-2.700456876699973
 21
0.0
 31
0.0
1001
ACAD
1000
RTMaterial
1005
0
  0
LINE
  5
61881
330
1F
100
AcDbEntity
  8
sk3
100
AcDbLine
 10
31.50000000000003
 20
-6.849999999999965
 30
0.0
 11
32.00000000000003
 21
-7.349999999999965
 31
0.0
1001
ACAD
1000
RTMaterial
1005
0
  0
LINE
  5
61882
330
1F
100
AcDbEntity
  8
1
100
AcDbLine
 10
0.5000000000000285
 20
4.762499999999988
 30
0.0
 11
4.56000000000003
 21
4.762499999999988
 31
0.0
1001
ACAD
1000
RTMaterial
1005
0
  0
LINE
  5
61883
330
1F
100
AcDbEntity
  8
sk3
100
AcDbLine
 10
32.00000000000006
 20
9.600000000000022
 30
0.0
 11
32.00000000000003
 21
-9.599999999999965
 31
0.0
1001
ACAD
1000
RTMaterial
1005
0
  0
LINE
  5
61884
330
1F
100
AcDbEntity
  8
sk3
100
AcDbLine
 10
31.50000000000006
 20
6.850000000000022
 30
0.0
 11
31.50000000000003
 21
-6.849999999999965
 31
0.0
1001
ACAD
1000
RTMaterial
1005
0
  0
LINE
  5
61885
330
1F
100
AcDbEntity
  8
1
100
AcDbLine
 10
40.06049625280008
 20
29.52743110610004
 30
0.0
 11
39.9569408659001
 21
29.24568573150003
 31
0.0
1001
ACAD
1000
RTMaterial
1005
0
  0
LINE
  5
61886
330
1F
100
AcDbEntity
  8
sk3
100
AcDbLine
 10
31.50000000000006
 20
6.850000000000022
 30
0.0
 11
24.40000000000009
 21
6.850000000000022
 31
0.0
1001
ACAD
1000
RTMaterial
1005
0
  0
LINE
  5
61887
330
1F
100
AcDbEntity
  8
sk3
100
AcDbLine
 10
46.30000000000004
 20
-11.0
 30
0.0
 11
45.30000000000003
 21
-10.0
 31
0.0
1001
ACAD
1000
RTMaterial
1005
0
  0
LINE
  5
61888
330
1F
100
AcDbEntity
  8
sk3
100
AcDbLine
 10
31.50000000000006
 20
6.850000000000022
 30
0.0
 11
32.00000000000006
 21
7.350000000000022
 31
0.0
1001
ACAD
1000
RTMaterial
1005
0
  0
LINE
  5
61889
330
1F
100
AcDbEntity
  8
1
100
AcDbLine
 10
46.84563416070003
 20
16.23754661950005
 30
0.0
 11
46.99519803190006
 21
16.31567162390001
 31
0.0
1001
ACAD
1000
RTMaterial
1005
0
  0
LINE
  5
6188A
330
1F
100
AcDbEntity
  8
sk3
100
AcDbLine
 10
45.30000000000003
 20
10.0
 30
0.0
 11
32.40000000000009
 21
10.0
 31
0.0
1001
ACAD
1000
RTMaterial
1005
0
  0
LINE
  5
6188B
330
1F
100
AcDbEntity
  8
sk3
100
AcDbLine
 10
12.92774653970005
 20
12.69999999999999
 30
0.0
 11
4.000000000000028
 21
12.69999999999999
 31
0.0
1001
ACAD
1000
RTMaterial
1005
0
  0
LINE
  5
6188C
330
1F
100
AcDbEntity
  8
sk3
100
AcDbLine
 10
1.200000000000073
 20
13.19999999999999
 30
0.0
 11
4.000000000000028
 21
13.19999999999999
 31
0.0
1001
ACAD
1000
RTMaterial
1005
0
  0
LINE
  5
6188D
330
1F
100
AcDbEntity
  8
sk3
100
AcDbLine
 10
23.2000000000001
 20
13.19999999999999
 30
0.0
 11
14.17735573010006
 21
13.19999999999999
 31
0.0
1001
ACAD
1000
RTMaterial
1005
0
  0
LINE
  5
6188E
330
1F
100
AcDbEntity
  8
1
100
AcDbLine
 10
35.39113400120007
 20
13.00719231639999
 30
0.0
 11
42.85676591180006
 21
12.75364820410004
 31
0.0
1001
ACAD
1000
RTMaterial
1005
0
  0
LINE
  5
6188F
330
1F
100
AcDbEntity
  8
sk3
100
AcDbLine
 10
47.6637741533
 20
-18.8477910958
 30
0.0
 11
49.50000000000002
 21
-22.85453112289997
 31
0.0
1001
ACAD
1000
RTMaterial
1005
0
  0
LINE
  5
61890
330
1F
100
AcDbEntity
  8
sk3
100
AcDbLine
 10
24.00000000000003
 20
-12.3957475583
 30
0.0
 11
24.00000000000006
 21
12.38669269740001
 31
0.0
1001
ACAD
1000
RTMaterial
1005
0
  0
LINE
  5
61891
330
1F
100
AcDbEntity
  8
1
100
AcDbLine
 10
39.45216012030005
 20
29.05988275880009
 30
0.0
 11
39.64653312840011
 21
29.32561247660004
 31
0.0
1001
ACAD
1000
RTMaterial
1005
0
  0
LINE
  5
61892
330
1F
100
AcDbEntity
  8
1
100
AcDbLine
 10
36.00739137300008
 20
24.83462523010002
 30
0.0
 11
40.53723223530005
 21
29.67460514210001
 31
0.0
1001
ACAD
1000
RTMaterial
1005
0
  0
LINE
  5
61893
330
1F
100
AcDbEntity
  8
1
100
AcDbLine
 10
36.36450513620008
 20
25.43403849590004
 30
0.0
 11
39.9569408659001
 21
29.24568573150003
 31
0.0
1001
ACAD
1000
RTMaterial
1005
0
  0
LINE
  5
61894
330
1F
100
AcDbEntity
  8
1
100
AcDbLine
 10
39.45216012030005
 20
29.05988275880009
 30
0.0
 11
35.92205008510007
 21
25.35260641820002
 31
0.0
1001
ACAD
1000
RTMaterial
1005
0
  0
LINE
  5
61895
330
1F
100
AcDbEntity
  8
sk3
100
AcDbLine
 10
1.200000000000073
 20
-13.19999999999999
 30
0.0
 11
0.0000000000000284
 21
-14.39999999999997
 31
0.0
1001
ACAD
1000
RTMaterial
1005
0
  0
LINE
  5
61896
330
1F
100
AcDbEntity
  8
1
100
AcDbLine
 10
46.8964524838
 20
16.29331495489998
 30
0.0
 11
47.03651331910006
 21
16.32503456940003
 31
0.0
1001
ACAD
1000
RTMaterial
1005
0
  0
LINE
  5
61897
330
1F
100
AcDbEntity
  8
1
100
AcDbLine
 10
46.95154868900002
 20
16.32265476570001
 30
0.0
 11
47.46715151890007
 21
16.33714309310005
 31
0.0
1001
ACAD
1000
RTMaterial
1005
0
  0
LINE
  5
61898
330
1F
100
AcDbEntity
  8
1
100
AcDbLine
 10
29.0036098129001
 20
15.90869813380004
 30
0.0
 11
42.29679682540009
 21
15.20516241760003
 31
0.0
1001
ACAD
1000
RTMaterial
1005
0
  0
LINE
  5
61899
330
1F
100
AcDbEntity
  8
1
100
AcDbLine
 10
49.28784181520004
 20
14.00618125080001
 30
0.0
 11
43.83305254030003
 21
15.03725142140001
 31
0.0
1001
ACAD
1000
RTMaterial
1005
0
  0
LINE
  5
6189A
330
1F
100
AcDbEntity
  8
1
100
AcDbLine
 10
44.13010907010002
 20
12.56163730520006
 30
0.0
 11
46.92150423610004
 21
11.81137070610003
 31
0.0
1001
ACAD
1000
RTMaterial
1005
0
  0
LINE
  5
6189B
330
1F
100
AcDbEntity
  8
1
100
AcDbLine
 10
5.56000000000003
 20
-3.762499999999988
 30
0.0
 11
4.56000000000003
 21
-4.762499999999988
 31
0.0
1001
ACAD
1000
RTMaterial
1005
0
  0
LINE
  5
6189C
330
1F
100
AcDbEntity
  8
1
100
AcDbLine
 10
46.42989448210002
 20
16.46153878300004
 30
0.0
 11
40.95033969430011
 21
17.7600531942
 31
0.0
1001
ACAD
1000
RTMaterial
1005
0
  0
LINE
  5
6189D
330
1F
100
AcDbEntity
  8
1
100
AcDbLine
 10
47.08869359490003
 20
16.37668168770005
 30
0.0
 11
40.65518933130005
 21
17.90125773880004
 31
0.0
1001
ACAD
1000
RTMaterial
1005
0
  0
LINE
  5
6189E
330
1F
100
AcDbEntity
  8
1
100
AcDbLine
 10
35.59980660210011
 20
23.93732656440005
 30
0.0
 11
35.49711073080004
 21
24.17598414400004
 31
0.0
1001
ACAD
1000
RTMaterial
1005
0
  0
LINE
  5
6189F
330
1F
100
AcDbEntity
  8
1
100
AcDbLine
 10
35.56161378150006
 20
23.73349035370006
 30
0.0
 11
35.56198681130008
 21
23.73240884170002
 31
0.0
1001
ACAD
1000
RTMaterial
1005
0
  0
LINE
  5
618A0
330
1F
100
AcDbEntity
  8
1
100
AcDbLine
 10
35.56198754660011
 20
23.73239025410004
 30
0.0
 11
35.67284547900005
 21
23.4110986343
 31
0.0
1001
ACAD
1000
RTMaterial
1005
0
  0
LINE
  5
618A1
330
1F
100
AcDbEntity
  8
1
100
AcDbLine
 10
0.5000000000000285
 20
-4.762499999999988
 30
0.0
 11
0.0000000000000284
 21
-5.262499999999988
 31
0.0
1001
ACAD
1000
RTMaterial
1005
0
  0
LINE
  5
618A2
330
1F
100
AcDbEntity
  8
sk3
100
AcDbLine
 10
13.83926112070006
 20
13.1250462296
 30
0.0
 11
12.92774653970005
 21
12.69999999999999
 31
0.0
1001
ACAD
1000
RTMaterial
1005
0
  0
LINE
  5
618A3
330
1F
100
AcDbEntity
  8
1
100
AcDbLine
 10
35.79156183490005
 20
22.45611730460002
 30
0.0
 11
29.10403781490004
 21
22.8525651978
 31
0.0
1001
ACAD
1000
RTMaterial
1005
0
  0
LINE
  5
618A4
330
1F
100
AcDbEntity
  8
1
100
AcDbLine
 10
44.22872555160004
 20
22.41711576580002
 30
0.0
 11
44.35688749200008
 21
22.39918091790003
 31
0.0
1001
ACAD
1000
RTMaterial
1005
0
  0
LINE
  5
618A5
330
1F
100
AcDbEntity
  8
1
100
AcDbLine
 10
42.06708734610006
 20
22.93429528429999
 30
0.0
 11
42.19524928640007
 21
22.9163604364
 31
0.0
1001
ACAD
1000
RTMaterial
1005
0
  0
LINE
  5
618A6
330
1F
100
AcDbEntity
  8
1
100
AcDbLine
 10
35.46887527120009
 20
23.49047596020006
 30
0.0
 11
35.0273912441001
 21
23.60038271460002
 31
0.0
1001
ACAD
1000
RTMaterial
1005
0
  0
LINE
  5
618A7
330
1F
100
AcDbEntity
  8
1
100
AcDbLine
 10
13.99275900100008
 20
28.54932065020006
 30
0.0
 11
10.90113142140006
 21
29.79841927280001
 31
0.0
1001
ACAD
1000
RTMaterial
1005
0
  0
LINE
  5
618A8
330
1F
100
AcDbEntity
  8
1
100
AcDbLine
 10
46.92260601630002
 20
16.19607573429999
 30
0.0
 11
46.42989448210002
 21
16.46153878300004
 31
0.0
1001
ACAD
1000
RTMaterial
1005
0
  0
LINE
  5
618A9
330
1F
100
AcDbEntity
  8
1
100
AcDbLine
 10
39.52955241330005
 20
18.43492760890001
 30
0.0
 11
39.59838530920007
 21
18.38808098999999
 31
0.0
1001
ACAD
1000
RTMaterial
1005
0
  0
LINE
  5
618AA
330
1F
100
AcDbEntity
  8
1
100
AcDbLine
 10
39.59697432660011
 20
18.38903908040004
 30
0.0
 11
39.5983398012001
 21
18.38810573489996
 31
0.0
1001
ACAD
1000
RTMaterial
1005
0
  0
LINE
  5
618AB
330
1F
100
AcDbEntity
  8
1
100
AcDbLine
 10
39.10815019060004
 20
18.72372065620004
 30
0.0
 11
39.52955241330005
 21
18.43492760890001
 31
0.0
1001
ACAD
1000
RTMaterial
1005
0
  0
LINE
  5
618AC
330
1F
100
AcDbEntity
  8
1
100
AcDbLine
 10
39.59843071350008
 20
18.38804341980005
 30
0.0
 11
39.60014443920005
 21
18.38684281960002
 31
0.0
1001
ACAD
1000
RTMaterial
1005
0
  0
LINE
  5
618AD
330
1F
100
AcDbEntity
  8
1
100
AcDbLine
 10
39.60014443920005
 20
18.38684281960002
 30
0.0
 11
39.60048519840007
 21
18.38659638880006
 31
0.0
1001
ACAD
1000
RTMaterial
1005
0
  0
LINE
  5
618AE
330
1F
100
AcDbEntity
  8
1
100
AcDbLine
 10
35.46887527120009
 20
23.49047596020006
 30
0.0
 11
35.72376048760009
 21
23.28419755990001
 31
0.0
1001
ACAD
1000
RTMaterial
1005
0
  0
LINE
  5
618AF
330
1F
100
AcDbEntity
  8
1
100
AcDbLine
 10
35.45912382730006
 20
24.23485102260003
 30
0.0
 11
35.32245709430009
 21
24.39480221169998
 31
0.0
1001
ACAD
1000
RTMaterial
1005
0
  0
LINE
  5
618B0
330
1F
100
AcDbEntity
  8
1
100
AcDbLine
 10
35.79156183490005
 20
22.45611730460002
 30
0.0
 11
35.45826890030009
 21
22.90469564490002
 31
0.0
1001
ACAD
1000
RTMaterial
1005
0
  0
LINE
  5
618B1
330
1F
100
AcDbEntity
  8
1
100
AcDbLine
 10
35.21250562350008
 20
23.76875683140003
 30
0.0
 11
35.40519702050005
 21
23.50632856060008
 31
0.0
1001
ACAD
1000
RTMaterial
1005
0
  0
LINE
  5
618B2
330
1F
100
AcDbEntity
  8
1
100
AcDbLine
 10
38.70049734480005
 20
19.0184272889
 30
0.0
 11
39.13845721690007
 21
18.42196551810008
 31
0.0
1001
ACAD
1000
RTMaterial
1005
0
  0
LINE
  5
618B3
330
1F
100
AcDbEntity
  8
1
100
AcDbLine
 10
38.11533797680011
 20
19.97662787349998
 30
0.0
 11
35.87413073360011
 21
23.02894961880008
 31
0.0
1001
ACAD
1000
RTMaterial
1005
0
  0
LINE
  5
618B4
330
1F
100
AcDbEntity
  8
sk3
100
AcDbLine
 10
12.92774653970005
 20
12.69999999999999
 30
0.0
 11
12.92774653970005
 21
-12.69999999999999
 31
0.0
1001
ACAD
1000
RTMaterial
1005
0
  0
LINE
  5
618B5
330
1F
100
AcDbEntity
  8
1
100
AcDbLine
 10
41.11227027530008
 20
30.13629314320002
 30
0.0
 11
41.11630795050007
 21
30.13841340260007
 31
0.0
1001
ACAD
1000
RTMaterial
1005
0
  0
LINE
  5
618B6
330
1F
100
AcDbEntity
  8
1
100
AcDbLine
 10
41.99621888580009
 20
30.59647434350001
 30
0.0
 11
41.11631349810005
 21
30.13840064880009
 31
0.0
1001
ACAD
1000
RTMaterial
1005
0
  0
LINE
  5
618B7
330
1F
100
AcDbEntity
  8
1
100
AcDbLine
 10
41.1127412350001
 20
30.13653998980004
 30
0.0
 11
41.10328662630007
 21
30.13163051919998
 31
0.0
1001
ACAD
1000
RTMaterial
1005
0
  0
LINE
  5
618B8
330
1F
100
AcDbEntity
  8
1
100
AcDbLine
 10
41.10328662630007
 20
30.13163051919998
 30
0.0
 11
41.09330108400008
 21
30.12652894569999
 31
0.0
1001
ACAD
1000
RTMaterial
1005
0
  0
LINE
  5
618B9
330
1F
100
AcDbEntity
  8
1
100
AcDbLine
 10
41.09330108400008
 20
30.12652894569999
 30
0.0
 11
41.08302635100005
 21
30.12138007850001
 31
0.0
1001
ACAD
1000
RTMaterial
1005
0
  0
LWPOLYLINE
  5
618BA
330
1F
100
AcDbEntity
  8
1
100
AcDbPolyline
 90
        6
 70
     0
 43
0.0
 10
41.08302635100005
 20
30.12138007850001
 10
41.07258145220003
 20
30.11625178349999
 10
41.06188790400006
 20
30.11111312430001
 10
41.05067106550007
 20
30.10584485570002
 10
41.0388375870001
 20
30.10042135620006
 10
41.03632639540006
 20
30.09928803370002
1001
ACAD
1000
RTMaterial
1005
0
  0
LINE
  5
618BB
330
1F
100
AcDbEntity
  8
1
100
AcDbLine
 10
36.36450513620008
 20
25.43403849590004
 30
0.0
 11
36.2005516659001
 21
25.43195154250003
 31
0.0
1001
ACAD
1000
RTMaterial
1005
0
  0
LINE
  5
618BC
330
1F
100
AcDbEntity
  8
1
100
AcDbLine
 10
44.89630865150004
 20
24.53736161890004
 30
0.0
 11
45.02447059180005
 21
24.51942677099999
 31
0.0
1001
ACAD
1000
RTMaterial
1005
0
  0
LINE
  5
618BD
330
1F
100
AcDbEntity
  8
1
100
AcDbLine
 10
42.73467044590003
 20
25.05454113730008
 30
0.0
 11
42.86283238630002
 21
25.03660628950007
 31
0.0
1001
ACAD
1000
RTMaterial
1005
0
  0
LINE
  5
618BE
330
1F
100
AcDbEntity
  8
1
100
AcDbLine
 10
34.94245781410007
 20
24.7066704861
 30
0.0
 11
35.25852006530005
 21
24.45522445239999
 31
0.0
1001
ACAD
1000
RTMaterial
1005
0
  0
LINE
  5
618BF
330
1F
100
AcDbEntity
  8
1
100
AcDbLine
 10
27.33232496370005
 20
27.96690262230004
 30
0.0
 11
33.37079296630003
 21
29.81304755960002
 31
0.0
1001
ACAD
1000
RTMaterial
1005
0
  0
LINE
  5
618C0
330
1F
100
AcDbEntity
  8
1
100
AcDbLine
 10
41.2836421784001
 20
30.2256125367
 30
0.0
 11
40.52632773360011
 21
30.07948708050003
 31
0.0
1001
ACAD
1000
RTMaterial
1005
0
  0
LINE
  5
618C1
330
1F
100
AcDbEntity
  8
1
100
AcDbLine
 10
36.29451001350009
 20
29.35449807430001
 30
0.0
 11
39.37032194680006
 21
29.35478025800006
 31
0.0
1001
ACAD
1000
RTMaterial
1005
0
  0
LINE
  5
618C2
330
1F
100
AcDbEntity
  8
1
100
AcDbLine
 10
9.028098454300106
 20
30.16250000000002
 30
0.0
 11
2.000000000000056
 21
30.16250000000002
 31
0.0
1001
ACAD
1000
RTMaterial
1005
0
  0
LINE
  5
618C3
330
1F
100
AcDbEntity
  8
1
100
AcDbLine
 10
36.29451001350009
 20
30.25
 30
0.0
 11
38.53960252100007
 21
30.25
 31
0.0
1001
ACAD
1000
RTMaterial
1005
0
  0
LINE
  5
618C4
330
1F
100
AcDbEntity
  8
1
100
AcDbLine
 10
5.56000000000003
 20
3.762499999999988
 30
0.0
 11
5.56000000000003
 21
-3.762499999999988
 31
0.0
1001
ACAD
1000
RTMaterial
1005
0
  0
LINE
  5
618C5
330
1F
100
AcDbEntity
  8
1
100
AcDbLine
 10
43.54838147060007
 20
30.82175998920002
 30
0.0
 11
47.29789243800007
 21
31.2472327699
 31
0.0
1001
ACAD
1000
RTMaterial
1005
0
  0
LINE
  5
618C6
330
1F
100
AcDbEntity
  8
1
100
AcDbLine
 10
48.83271046770011
 20
30.25520393720001
 30
0.0
 11
50.73637386900006
 21
23.89064797410004
 31
0.0
1001
ACAD
1000
RTMaterial
1005
0
  0
LINE
  5
618C7
330
1F
100
AcDbEntity
  8
sk3
100
AcDbLine
 10
4.000000000000028
 20
-13.19999999999999
 30
0.0
 11
4.000000000000028
 21
-4.762499999999988
 31
0.0
1001
ACAD
1000
RTMaterial
1005
0
  0
LINE
  5
618C8
330
1F
100
AcDbEntity
  8
sk3
100
AcDbLine
 10
4.000000000000028
 20
4.762499999999988
 30
0.0
 11
4.000000000000028
 21
13.19999999999999
 31
0.0
1001
ACAD
1000
RTMaterial
1005
0
  0
LINE
  5
618C9
330
1F
100
AcDbEntity
  8
sk3
100
AcDbLine
 10
1.200000000000073
 20
13.19999999999999
 30
0.0
 11
1.200000000000073
 21
4.762499999999988
 31
0.0
1001
ACAD
1000
RTMaterial
1005
0
  0
LINE
  5
618CA
330
1F
100
AcDbEntity
  8
sk3
100
AcDbLine
 10
1.200000000000073
 20
-4.762499999999988
 30
0.0
 11
1.200000000000073
 21
-13.19999999999999
 31
0.0
1001
ACAD
1000
RTMaterial
1005
0
  0
LINE
  5
618CB
330
1F
100
AcDbEntity
  8
1
100
AcDbLine
 10
0.0000000000000284
 20
-28.16249720779996
 30
0.0
 11
0.0000000000000284
 21
-5.262499999999988
 31
0.0
1001
ACAD
1000
RTMaterial
1005
0
  0
LINE
  5
618CC
330
1F
100
AcDbEntity
  8
1
100
AcDbLine
 10
0.0000000000000106
 20
5.262500000000006
 30
0.0
 11
0.0000000000000568
 21
28.16249720780002
 31
0.0
1001
ACAD
1000
RTMaterial
1005
0
  0
LINE
  5
618CD
330
1F
100
AcDbEntity
  8
nocut
100
AcDbLine
 10
13.99275900099997
 20
28.54932065020006
 30
0.0
 11
10.90113142140001
 21
29.79841927280001
 31
0.0
1001
ACAD
1000
RTMaterial
1005
0
  0
LINE
  5
618CE
330
1F
100
AcDbEntity
  8
nocut
100
AcDbLine
 10
0.0
 20
-0.0000000000000568
 30
0.0
 11
0.0
 21
28.16250000000002
 31
0.0
1001
ACAD
1000
RTMaterial
1005
0
  0
LINE
  5
618CF
330
1F
100
AcDbEntity
  8
nocut
100
AcDbLine
 10
33.37079296629998
 20
29.81304755960002
 30
0.0
 11
27.33232496369999
 21
27.96690262230004
 31
0.0
1001
ACAD
1000
RTMaterial
1005
0
  0
LINE
  5
618D0
330
1F
100
AcDbEntity
  8
nocut
100
AcDbLine
 10
9.028098454299993
 20
30.16250000000002
 30
0.0
 11
2.0
 21
30.16250000000002
 31
0.0
1001
ACAD
1000
RTMaterial
1005
0
  0
LINE
  5
618D1
330
1F
100
AcDbEntity
  8
nocut
100
AcDbLine
 10
40.19880382560001
 20
30.25
 30
0.0
 11
36.29451001350003
 21
30.25
 31
0.0
1001
ACAD
1000
RTMaterial
1005
0
  0
ARC
  5
618D2
330
1F
100
AcDbEntity
  8
cut
100
AcDbCircle
 10
47.41601732760005
 20
30.25
 30
0.0
 40
1.5
100
AcDbArc
 50
16.99999999999887
 51
95.32069872130049
1001
ACAD
1000
RTMaterial
1005
0
  0
ARC
  5
618D3
330
1F
100
AcDbEntity
  8
nocut
100
AcDbCircle
 10
46.8989744314
 20
29.10317777050006
 30
0.0
 40
1.199999999999999
100
AcDbArc
 50
16.44741859659943
 51
94.96943980720029
1001
ACAD
1000
RTMaterial
1005
0
  0
ARC
  5
618D4
330
1F
100
AcDbEntity
  8
nocut
100
AcDbCircle
 10
40.19880382560001
 20
29.44999999999999
 30
0.0
 40
0.8
100
AcDbArc
 50
75.58129509649967
 51
90.0
1001
ACAD
1000
RTMaterial
1005
0
  0
ARC
  5
618D5
330
1F
100
AcDbEntity
  8
nocut
100
AcDbCircle
 10
41.86684811079999
 20
30.67317447739998
 30
0.0
 40
0.8
100
AcDbArc
 50
255.5812950964996
 51
274.9694398072003
1001
ACAD
1000
RTMaterial
1005
0
  0
ARC
  5
618D6
330
1F
100
AcDbEntity
  8
1
100
AcDbCircle
 10
21.4848908693001
 20
47.09299774150003
 30
0.0
 40
20.0
100
AcDbArc
 50
248.0000000000004
 51
287.0000000000002
1001
ACAD
1000
RTMaterial
1005
0
  0
ARC
  5
618D7
330
1F
100
AcDbEntity
  8
1
100
AcDbCircle
 10
21.48489086930007
 20
-47.09299774150003
 30
0.0
 40
20.0
100
AcDbArc
 50
72.99999999999982
 51
111.9999999999995
1001
ACAD
1000
RTMaterial
1005
0
  0
ARC
  5
618D8
330
1F
100
AcDbEntity
  8
sk3
100
AcDbCircle
 10
61.30000000000004
 20
-12.59852356609997
 30
0.0
 40
15.0
100
AcDbArc
 50
180.0
 51
204.6212406696003
1001
ACAD
1000
RTMaterial
1005
0
  0
ARC
  5
618D9
330
1F
100
AcDbEntity
  8
sk3
100
AcDbCircle
 10
61.30000000000004
 20
12.59852356610003
 30
0.0
 40
15.0
100
AcDbArc
 50
171.7739670978993
 51
180.0
1001
ACAD
1000
RTMaterial
1005
0
  0
ARC
  5
618DA
330
1F
100
AcDbEntity
  8
1
100
AcDbCircle
 10
36.29451001350009
 20
20.25
 30
0.0
 40
10.0
100
AcDbArc
 50
90.0
 51
107.0000000000002
1001
ACAD
1000
RTMaterial
1005
0
  0
ARC
  5
618DB
330
1F
100
AcDbEntity
  8
1
100
AcDbCircle
 10
36.29451001350006
 20
-20.25
 30
0.0
 40
10.0
100
AcDbArc
 50
252.9999999999998
 51
270.0
1001
ACAD
1000
RTMaterial
1005
0
  0
ARC
  5
618DC
330
1F
100
AcDbEntity
  8
1
100
AcDbCircle
 10
9.028098454300078
 20
25.16250000000002
 30
0.0
 40
5.0
100
AcDbArc
 50
68.0000000000005
 51
90.0
1001
ACAD
1000
RTMaterial
1005
0
  0
ARC
  5
618DD
330
1F
100
AcDbEntity
  8
1
100
AcDbCircle
 10
9.028098454300078
 20
-25.16249999999997
 30
0.0
 40
5.0
100
AcDbArc
 50
270.0
 51
291.9999999999995
1001
ACAD
1000
RTMaterial
1005
0
  0
ARC
  5
618DE
330
1F
100
AcDbEntity
  8
1
100
AcDbCircle
 10
2.000000000000056
 20
28.16250000000002
 30
0.0
 40
2.0
100
AcDbArc
 50
90.0
 51
180.0
1001
ACAD
1000
RTMaterial
1005
0
  0
ARC
  5
618DF
330
1F
100
AcDbEntity
  8
1
100
AcDbCircle
 10
2.000000000000028
 20
-28.16249999999996
 30
0.0
 40
2.0
100
AcDbArc
 50
180.0
 51
270.0
1001
ACAD
1000
RTMaterial
1005
0
  0
ARC
  5
618E0
330
1F
100
AcDbEntity
  8
1
100
AcDbCircle
 10
46.89897443140004
 20
-29.10317777049994
 30
0.0
 40
1.199999999999999
100
AcDbArc
 50
265.0305601927997
 51
343.5525814034006
1001
ACAD
1000
RTMaterial
1005
0
  0
ARC
  5
618E1
330
1F
100
AcDbEntity
  8
sk3
100
AcDbCircle
 10
23.2000000000001
 20
12.40000000000003
 30
0.0
 40
0.8
100
AcDbArc
 50
0.0
 51
90.0
1001
ACAD
1000
RTMaterial
1005
0
  0
ARC
  5
618E2
330
1F
100
AcDbEntity
  8
sk3
100
AcDbCircle
 10
23.20000000000007
 20
-12.39999999999997
 30
0.0
 40
0.8
100
AcDbArc
 50
270.0
 51
0.0
1001
ACAD
1000
RTMaterial
1005
0
  0
ARC
  5
618E3
330
1F
100
AcDbEntity
  8
sk3
100
AcDbCircle
 10
14.17735573010006
 20
-12.39999999999997
 30
0.0
 40
0.8
100
AcDbArc
 50
245.0000000000003
 51
270.0
1001
ACAD
1000
RTMaterial
1005
0
  0
ARC
  5
618E4
330
1F
100
AcDbEntity
  8
sk3
100
AcDbCircle
 10
14.17735573010006
 20
12.40000000000003
 30
0.0
 40
0.8
100
AcDbArc
 50
90.0
 51
114.9999999999996
1001
ACAD
1000
RTMaterial
1005
0
  0
ARC
  5
618E5
330
1F
100
AcDbEntity
  8
1
100
AcDbCircle
 10
40.19880382560003
 20
-29.44999999999999
 30
0.0
 40
0.8
100
AcDbArc
 50
270.0
 51
284.4187049035003
1001
ACAD
1000
RTMaterial
1005
0
  0
ARC
  5
618E6
330
1F
100
AcDbEntity
  8
1
100
AcDbCircle
 10
41.86684811070003
 20
-30.67317447739998
 30
0.0
 40
0.8
100
AcDbArc
 50
85.0305601927997
 51
104.4187049035003
1001
ACAD
1000
RTMaterial
1005
0
  0
ARC
  5
618E7
330
1F
100
AcDbEntity
  8
sk3
100
AcDbCircle
 10
32.40000000000006
 20
-9.599999999999965
 30
0.0
 40
0.4
100
AcDbArc
 50
180.0
 51
270.0
1001
ACAD
1000
RTMaterial
1005
0
  0
ARC
  5
618E8
330
1F
100
AcDbEntity
  8
sk3
100
AcDbCircle
 10
32.40000000000009
 20
9.600000000000022
 30
0.0
 40
0.4
100
AcDbArc
 50
90.0
 51
180.0
1001
ACAD
1000
RTMaterial
1005
0
  0
ARC
  5
618E9
330
1F
100
AcDbEntity
  8
sk3
100
AcDbCircle
 10
24.40000000000007
 20
-7.25
 30
0.0
 40
0.4
100
AcDbArc
 50
90.0
 51
180.0
1001
ACAD
1000
RTMaterial
1005
0
  0
ARC
  5
618EA
330
1F
100
AcDbEntity
  8
sk3
100
AcDbCircle
 10
24.40000000000009
 20
7.25
 30
0.0
 40
0.4
100
AcDbArc
 50
180.0
 51
270.0
1001
ACAD
1000
RTMaterial
1005
0
  0
ARC
  5
618EB
330
1F
100
AcDbEntity
  8
nocut
100
AcDbCircle
 10
21.48489086929999
 20
47.09299774150003
 30
0.0
 40
20.0
100
AcDbArc
 50
248.000000000002
 51
287.0000000000018
1001
ACAD
1000
RTMaterial
1005
0
  0
ARC
  5
618EC
330
1F
100
AcDbEntity
  8
nocut
100
AcDbCircle
 10
36.29451001350003
 20
20.25
 30
0.0
 40
10.0
100
AcDbArc
 50
90.0
 51
107.0000000000017
1001
ACAD
1000
RTMaterial
1005
0
  0
ARC
  5
618ED
330
1F
100
AcDbEntity
  8
nocut
100
AcDbCircle
 10
9.028098454299993
 20
25.16250000000002
 30
0.0
 40
5.0
100
AcDbArc
 50
68.00000000000199
 51
90.0
1001
ACAD
1000
RTMaterial
1005
0
  0
ARC
  5
618EE
330
1F
100
AcDbEntity
  8
nocut
100
AcDbCircle
 10
2.0
 20
28.16250000000002
 30
0.0
 40
2.0
100
AcDbArc
 50
90.0
 51
180.0
1001
ACAD
1000
RTMaterial
1005
0
  0
SPLINE
  5
618EF
330
1F
100
AcDbEntity
  8
cut
100
AcDbSpline
210
0.0
220
0.0
230
1.0
 70
     8
 71
     3
 72
    22
 73
    18
 74
     0
 42
0.0000000001
 43
0.0000000001
 40
0.0
 40
0.0
 40
0.0
 40
0.0
 40
0.0666666667
 40
0.1333333333
 40
0.2
 40
0.2666666667
 40
0.3333333333
 40
0.4
 40
0.4666666667000001
 40
0.5333333333
 40
0.6
 40
0.6666666667
 40
0.7333333333
 40
0.8
 40
0.8666666667000001
 40
0.9333333333
 40
1.0
 40
1.0
 40
1.0
 40
1.0
 10
50.77384048890005
 20
22.78309304779998
 30
0.0
 10
50.77543886920003
 20
22.81116028970001
 30
0.0
 10
50.77848124300007
 20
22.86680858230005
 30
0.0
 10
50.78254150230006
 20
22.94784763200005
 30
0.0
 10
50.78626178420003
 20
23.02937529680002
 30
0.0
 10
50.78969608190002
 20
23.11342055170002
 30
0.0
 10
50.79287489620006
 20
23.2018828496
 30
0.0
 10
50.79569807520008
 20
23.29340236950009
 30
0.0
 10
50.79809963790004
 20
23.38685013450004
 30
0.0
 10
50.80004034750007
 20
23.48101708830001
 30
0.0
 10
50.80149839580005
 20
23.57478948810006
 30
0.0
 10
50.80245904030002
 20
23.66682046880004
 30
0.0
 10
50.80292870130003
 20
23.75593540210002
 30
0.0
 10
50.80294656040004
 20
23.84065916430001
 30
0.0
 10
50.80256776010006
 20
23.9228600454
 30
0.0
 10
50.80181633980007
 20
24.00448512760005
 30
0.0
 10
50.80104366210005
 20
24.06069870910005
 30
0.0
 10
50.80058650510003
 20
24.08907291010002
 30
0.0
1001
ACAD
1000
RTMaterial
1005
0
  0
SPLINE
  5
618F0
330
1F
100
AcDbEntity
  8
cut
100
AcDbSpline
210
0.0
220
0.0
230
1.0
 70
     8
 71
     3
 72
    11
 73
     7
 74
     0
 42
0.0000000001
 43
0.0000000001
 40
0.0
 40
0.0
 40
0.0
 40
0.0
 40
0.25
 40
0.5
 40
0.75
 40
1.0
 40
1.0
 40
1.0
 40
1.0
 10
50.80000023460005
 20
24.12222664650006
 30
0.0
 10
50.79923528800006
 20
24.1579426861
 30
0.0
 10
50.79534370390004
 20
24.22815992099998
 30
0.0
 10
50.78199093940006
 20
24.3303587085
 30
0.0
 10
50.76236905490006
 20
24.4278770697
 30
0.0
 10
50.74559057580003
 20
24.48981707230007
 30
0.0
 10
50.73637431680007
 20
24.5200570774
 30
0.0
1001
ACAD
1000
RTMaterial
1005
0
  0
LINE
  5
618F1
330
1F
100
AcDbEntity
  8
cut
100
AcDbLine
 10
50.80058650510003
 20
24.08907291010002
 30
0.0
 11
50.80000023460005
 21
24.12222664650006
 31
0.0
1001
ACAD
1000
RTMaterial
1005
0
  0
SPLINE
  5
618F2
330
1F
100
AcDbEntity
  8
cut
100
AcDbSpline
210
0.0
220
0.0
230
1.0
 70
     8
 71
     3
 72
    11
 73
     7
 74
     0
 42
0.0000000001
 43
0.0000000001
 40
0.0
 40
0.0
 40
0.0
 40
0.0
 40
0.25
 40
0.5
 40
0.75
 40
1.0
 40
1.0
 40
1.0
 40
1.0
 10
43.54838147420008
 20
31.39629204630006
 30
0.0
 10
43.46819840570009
 20
31.38896472190004
 30
0.0
 10
43.29699741830006
 20
31.37397378100002
 30
0.0
 10
43.0067266512001
 20
31.35126337450004
 30
0.0
 10
42.68555759690008
 20
31.32948760540001
 30
0.0
 10
42.45095496570008
 20
31.3163203199
 30
0.0
 10
42.32850851780006
 20
31.3102859142
 30
0.0
1001
ACAD
1000
RTMaterial
1005
0
  0
SPLINE
  5
618F3
330
1F
100
AcDbEntity
  8
cut
100
AcDbSpline
210
0.0
220
0.0
230
1.0
 70
     8
 71
     3
 72
    10
 73
     6
 74
     0
 42
0.0000000001
 43
0.0000000001
 40
0.0
 40
0.0
 40
0.0
 40
0.0
 40
0.3333333333
 40
0.6666666667
 40
1.0
 40
1.0
 40
1.0
 40
1.0
 10
42.32850851780006
 20
31.3102859142
 30
0.0
 10
42.29727501820008
 20
31.3080306292
 30
0.0
 10
42.23658729800007
 20
31.30106718249999
 30
0.0
 10
42.15029857450008
 20
31.28401857330004
 30
0.0
 10
42.09696760330007
 20
31.26887251639999
 30
0.0
 10
42.07121398500009
 20
31.26045714910004
 30
0.0
1001
ACAD
1000
RTMaterial
1005
0
  0
SPLINE
  5
618F4
330
1F
100
AcDbEntity
  8
cut
100
AcDbSpline
210
0.0
220
0.0
230
1.0
 70
     8
 71
     3
 72
    10
 73
     6
 74
     0
 42
0.0000000001
 43
0.0000000001
 40
0.0
 40
0.0
 40
0.0
 40
0.0
 40
0.3333333333
 40
0.6666666667
 40
1.0
 40
1.0
 40
1.0
 40
1.0
 10
42.07121398500009
 20
31.26045714910004
 30
0.0
 10
42.06218698660006
 20
31.25750744679999
 30
0.0
 10
42.04428904430011
 20
31.25125199900003
 30
0.0
 10
42.01788076700006
 20
31.24077143050005
 30
0.0
 10
42.00063536720006
 20
31.23308487610001
 30
0.0
 10
41.99209503630004
 20
31.22906833980005
 30
0.0
1001
ACAD
1000
RTMaterial
1005
0
  0
SPLINE
  5
618F5
330
1F
100
AcDbEntity
  8
cut
100
AcDbSpline
210
0.0
220
0.0
230
1.0
 70
     8
 71
     3
 72
    22
 73
    18
 74
     0
 42
0.0000000001
 43
0.0000000001
 40
0.0
 40
0.0
 40
0.0
 40
0.0
 40
0.0666666667
 40
0.1333333333
 40
0.2
 40
0.2666666667
 40
0.3333333333
 40
0.4
 40
0.4666666667000001
 40
0.5333333333
 40
0.6
 40
0.6666666667
 40
0.7333333333
 40
0.8
 40
0.8666666667000001
 40
0.9333333333
 40
1.0
 40
1.0
 40
1.0
 40
1.0
 10
41.99209503630004
 20
31.22906833980005
 30
0.0
 10
41.96766217740008
 20
31.21757751290005
 30
0.0
 10
41.91927826210007
 20
31.19469105010006
 30
0.0
 10
41.84899533030005
 20
31.16105876050005
 30
0.0
 10
41.77844846760007
 20
31.12691872660003
 30
0.0
 10
41.70589839950008
 20
31.09138760989998
 30
0.0
 10
41.62971994320009
 20
31.05361916419997
 30
0.0
 10
41.55111062630004
 20
31.01415282279999
 30
0.0
 10
41.47105760210007
 20
30.97345103620006
 30
0.0
 10
41.39060607990006
 20
30.93203676870002
 30
0.0
 10
41.31070816720006
 20
30.89040137470005
 30
0.0
 10
41.23250753670004
 20
30.8491466767
 30
0.0
 10
41.15699444130007
 20
30.80881397640002
 30
0.0
 10
41.08539781920007
 20
30.77010937419999
 30
0.0
 10
41.01611318570007
 20
30.73222452390002
 30
0.0
 10
40.94748361430009
 20
30.69428955140001
 30
0.0
 10
40.90033492780008
 20
30.66795008750001
 30
0.0
 10
40.87656661940008
 20
30.65459865330002
 30
0.0
1001
ACAD
1000
RTMaterial
1005
0
  0
SPLINE
  5
618F6
330
1F
100
AcDbEntity
  8
cut
100
AcDbSpline
210
0.0
220
0.0
230
1.0
 70
     8
 71
     3
 72
    11
 73
     7
 74
     0
 42
0.0000000001
 43
0.0000000001
 40
0.0
 40
0.0
 40
0.0
 40
0.0
 40
0.25
 40
0.5
 40
0.75
 40
1.0
 40
1.0
 40
1.0
 40
1.0
 10
40.84884158400007
 20
30.63896181870007
 30
0.0
 10
40.82126933890009
 20
30.62335125880009
 30
0.0
 10
40.76680537940006
 20
30.58991435640002
 30
0.0
 10
40.68662425770009
 20
30.53240427110001
 30
0.0
 10
40.61000300530008
 20
30.46883998290002
 30
0.0
 10
40.56108951190009
 20
30.42229842620003
 30
0.0
 10
40.53723186550008
 20
30.39795773320003
 30
0.0
1001
ACAD
1000
RTMaterial
1005
0
  0
LINE
  5
618F7
330
1F
100
AcDbEntity
  8
cut
100
AcDbLine
 10
40.87656661940008
 20
30.65459865330002
 30
0.0
 11
40.84884158400007
 21
30.63896181870007
 31
0.0
1001
ACAD
1000
RTMaterial
1005
0
  0
SPLINE
  5
618F8
330
1F
100
AcDbEntity
  8
cut
100
AcDbSpline
210
0.0
220
0.0
230
1.0
 70
     8
 71
     3
 72
    20
 73
    16
 74
     0
 42
0.0000000001
 43
0.0000000001
 40
0.0
 40
0.0
 40
0.0
 40
0.0
 40
0.0769230769
 40
0.1538461538
 40
0.2307692308
 40
0.3076923077
 40
0.3846153846
 40
0.4615384615
 40
0.5384615385
 40
0.6153846154
 40
0.6923076923
 40
0.7692307692
 40
0.8461538462
 40
0.9230769231
 40
1.0
 40
1.0
 40
1.0
 40
1.0
 10
40.53723186550008
 20
30.39795773320003
 30
0.0
 10
40.47539719770009
 20
30.33487109680005
 30
0.0
 10
40.34495571230007
 20
30.20182942160005
 30
0.0
 10
40.12909034840009
 20
29.98182984690004
 30
0.0
 10
39.89257732340007
 20
29.74099127890003
 30
0.0
 10
39.63633720580009
 20
29.48031279470001
 30
0.0
 10
39.35801438890008
 20
29.19746743240001
 30
0.0
 10
39.05671412420009
 20
28.89163328290005
 30
0.0
 10
38.73138761990009
 20
28.56184642520003
 30
0.0
 10
38.3775677261001
 20
28.20370454319999
 30
0.0
 10
37.99057249130004
 20
27.81263830040001
 30
0.0
 10
37.56575878560005
 20
27.38417888330002
 30
0.0
 10
37.0982922020001
 20
26.91374465260003
 30
0.0
 10
36.58393173830007
 20
26.39744746560007
 30
0.0
 10
36.20532052150009
 20
26.01855608400007
 30
0.0
 10
36.00739137960005
 20
25.82084791670002
 30
0.0
1001
ACAD
1000
RTMaterial
1005
0
  0
SPLINE
  5
618F9
330
1F
100
AcDbEntity
  8
cut
100
AcDbSpline
210
0.0
220
0.0
230
1.0
 70
     8
 71
     3
 72
    15
 73
    11
 74
     0
 42
0.0000000001
 43
0.0000000001
 40
0.0
 40
0.0
 40
0.0
 40
0.0
 40
0.125
 40
0.25
 40
0.375
 40
0.5
 40
0.625
 40
0.75
 40
0.875
 40
1.0
 40
1.0
 40
1.0
 40
1.0
 10
36.00739137960005
 20
25.82084791670002
 30
0.0
 10
35.97992958240008
 20
25.79341677880007
 30
0.0
 10
35.92723216010006
 20
25.73604049860001
 30
0.0
 10
35.85425819710008
 20
25.64115097060005
 30
0.0
 10
35.7898080353001
 20
25.54065191210003
 30
0.0
 10
35.73346440800009
 20
25.43385484910004
 30
0.0
 10
35.68614708840011
 20
25.32186302590003
 30
0.0
 10
35.64815391310009
 20
25.20588043240002
 30
0.0
 10
35.61959496600008
 20
25.08571469540004
 30
0.0
 10
35.60730072970006
 20
25.00428114610003
 30
0.0
 10
35.60283569220008
 20
24.96310779470003
 30
0.0
1001
ACAD
1000
RTMaterial
1005
0
  0
LINE
  5
618FA
330
1F
100
AcDbEntity
  8
cut
100
AcDbLine
 10
35.60283569220008
 20
24.96310779470003
 30
0.0
 11
35.59980660170004
 21
24.93218141230006
 31
0.0
1001
ACAD
1000
RTMaterial
1005
0
  0
LINE
  5
618FB
330
1F
100
AcDbEntity
  8
cut
100
AcDbLine
 10
35.59980660170004
 20
24.93218141230006
 30
0.0
 11
35.59850311550008
 21
24.9007194953
 31
0.0
1001
ACAD
1000
RTMaterial
1005
0
  0
SPLINE
  5
618FC
330
1F
100
AcDbEntity
  8
cut
100
AcDbSpline
210
0.0
220
0.0
230
1.0
 70
     8
 71
     3
 72
    10
 73
     6
 74
     0
 42
0.0000000001
 43
0.0000000001
 40
0.0
 40
0.0
 40
0.0
 40
0.0
 40
0.3333333333
 40
0.6666666667
 40
1.0
 40
1.0
 40
1.0
 40
1.0
 10
35.59850311550008
 20
24.9007194953
 30
0.0
 10
35.59765431550005
 20
24.87324466640001
 30
0.0
 10
35.59749227390006
 20
24.81858192459998
 30
0.0
 10
35.60166017850008
 20
24.73717299830003
 30
0.0
 10
35.60733417380004
 20
24.68385497420002
 30
0.0
 10
35.61086566770007
 20
24.65738314220005
 30
0.0
1001
ACAD
1000
RTMaterial
1005
0
  0
SPLINE
  5
618FD
330
1F
100
AcDbEntity
  8
cut
100
AcDbSpline
210
0.0
220
0.0
230
1.0
 70
     8
 71
     3
 72
    14
 73
    10
 74
     0
 42
0.0000000001
 43
0.0000000001
 40
0.0
 40
0.0
 40
0.0
 40
0.0
 40
0.1428571429
 40
0.2857142857
 40
0.4285714286
 40
0.5714285714000001
 40
0.7142857143000001
 40
0.8571428570999998
 40
1.0
 40
1.0
 40
1.0
 40
1.0
 10
35.61086566770007
 20
24.65738314220005
 30
0.0
 10
35.61525745110009
 20
24.62446264080006
 30
0.0
 10
35.62625485780007
 20
24.55911807310008
 30
0.0
 10
35.64966103380005
 20
24.46223809620005
 30
0.0
 10
35.67978813330006
 20
24.3676343642
 30
0.0
 10
35.71671098880006
 20
24.27462254210002
 30
0.0
 10
35.76100816090008
 20
24.18344241690005
 30
0.0
 10
35.8130494757001
 20
24.09406963940006
 30
0.0
 10
35.85284569740009
 20
24.03624721690005
 30
0.0
 10
35.87413048280007
 20
24.00780891570003
 30
0.0
1001
ACAD
1000
RTMaterial
1005
0
  0
SPLINE
  5
618FE
330
1F
100
AcDbEntity
  8
cut
100
AcDbSpline
210
0.0
220
0.0
230
1.0
 70
     8
 71
     3
 72
    16
 73
    12
 74
     0
 42
0.0000000001
 43
0.0000000001
 40
0.0
 40
0.0
 40
0.0
 40
0.0
 40
0.1111111111
 40
0.2222222222
 40
0.3333333333
 40
0.4444444444000001
 40
0.5555555556
 40
0.6666666667
 40
0.7777777778
 40
0.8888888889
 40
1.0
 40
1.0
 40
1.0
 40
1.0
 10
35.87413048280007
 20
24.00780891570003
 30
0.0
 10
35.92919297940006
 20
23.93424069169999
 30
0.0
 10
36.04474464130004
 20
23.77988515050004
 30
0.0
 10
36.23417705600008
 20
23.52695546770008
 30
0.0
 10
36.4402973870001
 20
23.25188990440006
 30
0.0
 10
36.66377898160011
 20
22.95383291000002
 30
0.0
 10
36.90727285520007
 20
22.62930310320002
 30
0.0
 10
37.17204188860006
 20
22.27668727370002
 30
0.0
 10
37.45985319750008
 20
21.89371726489998
 30
0.0
 10
37.77208518010008
 20
21.47866595630006
 30
0.0
 10
37.99802820580004
 20
21.17866333650005
 30
0.0
 10
38.11533796640009
 20
21.02300877970003
 30
0.0
1001
ACAD
1000
RTMaterial
1005
0
  0
SPLINE
  5
618FF
330
1F
100
AcDbEntity
  8
cut
100
AcDbSpline
210
0.0
220
0.0
230
1.0
 70
     8
 71
     3
 72
    11
 73
     7
 74
     0
 42
0.0000000001
 43
0.0000000001
 40
0.0
 40
0.0
 40
0.0
 40
0.0
 40
0.25
 40
0.5
 40
0.75
 40
1.0
 40
1.0
 40
1.0
 40
1.0
 10
38.11533796640009
 20
21.02300877970003
 30
0.0
 10
38.16389345310006
 20
20.9585820625
 30
0.0
 10
38.26715425000009
 20
20.82206621050005
 30
0.0
 10
38.44162678380008
 20
20.59348234400005
 30
0.0
 10
38.63361197550006
 20
20.34455634430003
 30
0.0
 10
38.77438225120005
 20
20.16422670169999
 30
0.0
 10
38.84799208890007
 20
20.07063095370006
 30
0.0
1001
ACAD
1000
RTMaterial
1005
0
  0
SPLINE
  5
61900
330
1F
100
AcDbEntity
  8
cut
100
AcDbSpline
210
0.0
220
0.0
230
1.0
 70
     8
 71
     3
 72
    10
 73
     6
 74
     0
 42
0.0000000001
 43
0.0000000001
 40
0.0
 40
0.0
 40
0.0
 40
0.0
 40
0.3333333333
 40
0.6666666667
 40
1.0
 40
1.0
 40
1.0
 40
1.0
 10
38.84799208890007
 20
20.07063095370006
 30
0.0
 10
38.8672310143001
 20
20.04735495010004
 30
0.0
 10
38.90696611360011
 20
20.00308316940004
 30
0.0
 10
38.97027591370005
 20
19.94277891709998
 30
0.0
 10
39.01400986390007
 20
19.90723074760001
 30
0.0
 10
39.03627815450011
 20
19.89049260529998
 30
0.0
1001
ACAD
1000
RTMaterial
1005
0
  0
SPLINE
  5
61901
330
1F
100
AcDbEntity
  8
cut
100
AcDbSpline
210
0.0
220
0.0
230
1.0
 70
     8
 71
     3
 72
    10
 73
     6
 74
     0
 42
0.0000000001
 43
0.0000000001
 40
0.0
 40
0.0
 40
0.0
 40
0.0
 40
0.3333333333
 40
0.6666666667
 40
1.0
 40
1.0
 40
1.0
 40
1.0
 10
39.03627815450011
 20
19.89049260529998
 30
0.0
 10
39.04388200280005
 20
19.88477711069998
 30
0.0
 10
39.05935846490007
 20
19.87359401349999
 30
0.0
 10
39.08342629600009
 20
19.85757217880007
 30
0.0
 10
39.09999200510009
 20
19.84743495480006
 30
0.0
 10
39.10840894250009
 20
19.84249872700008
 30
0.0
1001
ACAD
1000
RTMaterial
1005
0
  0
SPLINE
  5
61902
330
1F
100
AcDbEntity
  8
cut
100
AcDbSpline
210
0.0
220
0.0
230
1.0
 70
     8
 71
     3
 72
    22
 73
    18
 74
     0
 42
0.0000000001
 43
0.0000000001
 40
0.0
 40
0.0
 40
0.0
 40
0.0
 40
0.0666666667
 40
0.1333333333
 40
0.2
 40
0.2666666667
 40
0.3333333333
 40
0.4
 40
0.4666666667000001
 40
0.5333333333
 40
0.6
 40
0.6666666667
 40
0.7333333333
 40
0.8
 40
0.8666666667000001
 40
0.9333333333
 40
1.0
 40
1.0
 40
1.0
 40
1.0
 10
39.10840894250009
 20
19.84249872700008
 30
0.0
 10
39.13237805330004
 20
19.82844171480002
 30
0.0
 10
39.17995666650006
 20
19.80067930749999
 30
0.0
 10
39.24940857960007
 20
19.76056537480002
 30
0.0
 10
39.31943581130008
 20
19.7205221639
 30
0.0
 10
39.39179969420008
 20
19.67958365180004
 30
0.0
 10
39.46815547130007
 20
19.63686508050006
 30
0.0
 10
39.54735177230009
 20
19.5930662664
 30
0.0
 10
39.62842524830006
 20
19.54875320240001
 30
0.0
 10
39.71033293730005
 20
19.50450456179999
 30
0.0
 10
39.79210418770009
 20
19.46084306410006
 30
0.0
 10
39.87255896060009
 20
19.41839106320003
 30
0.0
 10
39.95066033980009
 20
19.37767429770008
 30
0.0
 10
40.02509264210004
 20
19.33932729260004
 30
0.0
 10
40.09747633090007
 20
19.30245623940004
 30
0.0
 10
40.16951412210005
 20
19.26615855090006
 30
0.0
 10
40.21923814100006
 20
19.24137352900004
 30
0.0
 10
40.24436606720008
 20
19.22891913720002
 30
0.0
1001
ACAD
1000
RTMaterial
1005
0
  0
LINE
  5
61903
330
1F
100
AcDbEntity
  8
cut
100
AcDbLine
 10
40.24436606720008
 20
19.22891913720002
 30
0.0
 11
40.27380763990004
 21
19.21430378770003
 31
0.0
1001
ACAD
1000
RTMaterial
1005
0
  0
SPLINE
  5
61904
330
1F
100
AcDbEntity
  8
cut
100
AcDbSpline
210
0.0
220
0.0
230
1.0
 70
     8
 71
     3
 72
    10
 73
     6
 74
     0
 42
0.0000000001
 43
0.0000000001
 40
0.0
 40
0.0
 40
0.0
 40
0.0
 40
0.3333333333
 40
0.6666666667
 40
1.0
 40
1.0
 40
1.0
 40
1.0
 10
40.27380763990004
 20
19.21430378770003
 30
0.0
 10
40.31369709740005
 20
19.1944677596
 30
0.0
 10
40.39511782880004
 20
19.15743431360005
 30
0.0
 10
40.52289357240005
 20
19.10971225320003
 30
0.0
 10
40.61058712170006
 20
19.08366360920001
 30
0.0
 10
40.65518923320007
 20
19.07212568730006
 30
0.0
1001
ACAD
1000
RTMaterial
1005
0
  0
LINE
  5
61905
330
1F
100
AcDbEntity
  8
cut
100
AcDbLine
 10
40.65518923320007
 20
19.07212568730006
 30
0.0
 11
47.08869359390004
 21
17.40821104650001
 31
0.0
1001
ACAD
1000
RTMaterial
1005
0
  0
SPLINE
  5
61906
330
1F
100
AcDbEntity
  8
cut
100
AcDbSpline
210
0.0
220
0.0
230
1.0
 70
     8
 71
     3
 72
    14
 73
    10
 74
     0
 42
0.0000000001
 43
0.0000000001
 40
0.0
 40
0.0
 40
0.0
 40
0.0
 40
0.1428571429
 40
0.2857142857
 40
0.4285714286
 40
0.5714285714000001
 40
0.7142857143000001
 40
0.8571428570999998
 40
1.0
 40
1.0
 40
1.0
 40
1.0
 10
47.08869359390004
 20
17.40821104650001
 30
0.0
 10
47.13740838300006
 20
17.39561462180001
 30
0.0
 10
47.23440154200008
 20
17.37424871320001
 30
0.0
 10
47.38016454000003
 20
17.35359665220005
 30
0.0
 10
47.52151570200007
 20
17.34483493290003
 30
0.0
 10
47.65820209850002
 20
17.34795086600002
 30
0.0
 10
47.78745529800002
 20
17.36208553950007
 30
0.0
 10
47.9087797388
 20
17.38631184080003
 30
0.0
 10
47.98206151510001
 20
17.40788343640003
 30
0.0
 10
48.01710647600007
 20
17.41980835810005
 30
0.0
1001
ACAD
1000
RTMaterial
1005
0
  0
SPLINE
  5
61907
330
1F
100
AcDbEntity
  8
cut
100
AcDbSpline
210
0.0
220
0.0
230
1.0
 70
     8
 71
     3
 72
    10
 73
     6
 74
     0
 42
0.0000000001
 43
0.0000000001
 40
0.0
 40
0.0
 40
0.0
 40
0.0
 40
0.3333333333
 40
0.6666666667
 40
1.0
 40
1.0
 40
1.0
 40
1.0
 10
48.01710647600007
 20
17.41980835810005
 30
0.0
 10
48.02317606890003
 20
17.42187368840007
 30
0.0
 10
48.03517714000006
 20
17.4261358997
 30
0.0
 10
48.05277325910006
 20
17.43292444440004
 30
0.0
 10
48.06422056730005
 20
17.4376989593
 30
0.0
 10
48.06987613170005
 20
17.44014576889998
 30
0.0
1001
ACAD
1000
RTMaterial
1005
0
  0
SPLINE
  5
61908
330
1F
100
AcDbEntity
  8
cut
100
AcDbSpline
210
0.0
220
0.0
230
1.0
 70
     8
 71
     3
 72
    10
 73
     6
 74
     0
 42
0.0000000001
 43
0.0000000001
 40
0.0
 40
0.0
 40
0.0
 40
0.0
 40
0.3333333333
 40
0.6666666667
 40
1.0
 40
1.0
 40
1.0
 40
1.0
 10
48.06987613170005
 20
17.44014576889998
 30
0.0
 10
48.09296179520007
 20
17.45013349430002
 30
0.0
 10
48.13766793880003
 20
17.47113796180002
 30
0.0
 10
48.20073351080006
 20
17.5055081232
 30
0.0
 10
48.23967264620003
 20
17.52994349430003
 30
0.0
 10
48.25844612390003
 20
17.54250948180004
 30
0.0
1001
ACAD
1000
RTMaterial
1005
0
  0
SPLINE
  5
61909
330
1F
100
AcDbEntity
  8
cut
100
AcDbSpline
210
0.0
220
0.0
230
1.0
 70
     8
 71
     3
 72
    15
 73
    11
 74
     0
 42
0.0000000001
 43
0.0000000001
 40
0.0
 40
0.0
 40
0.0
 40
0.0
 40
0.125
 40
0.25
 40
0.375
 40
0.5
 40
0.625
 40
0.75
 40
0.875
 40
1.0
 40
1.0
 40
1.0
 40
1.0
 10
48.25844612390003
 20
17.54250948180004
 30
0.0
 10
48.28053911380002
 20
17.55729737780001
 30
0.0
 10
48.32355259160007
 20
17.5884780536
 30
0.0
 10
48.38503919700006
 20
17.64056889110003
 30
0.0
 10
48.44192662690002
 20
17.69663421160004
 30
0.0
 10
48.49496571900002
 20
17.75671399750001
 30
0.0
 10
48.54360645490001
 20
17.82021477290004
 30
0.0
 10
48.58802987570007
 20
17.88710726450006
 30
0.0
 10
48.62843030750005
 20
17.95716911470004
 30
0.0
 10
48.65275786450005
 20
18.00597847690005
 30
0.0
 10
48.66426485990004
 20
18.03090898779999
 30
0.0
1001
ACAD
1000
RTMaterial
1005
0
  0
SPLINE
  5
6190A
330
1F
100
AcDbEntity
  8
cut
100
AcDbSpline
210
0.0
220
0.0
230
1.0
 70
     8
 71
     3
 72
    16
 73
    12
 74
     0
 42
0.0000000001
 43
0.0000000001
 40
0.0
 40
0.0
 40
0.0
 40
0.0
 40
0.1111111111
 40
0.2222222222
 40
0.3333333333
 40
0.4444444444000001
 40
0.5555555556
 40
0.6666666667
 40
0.7777777778
 40
0.8888888889
 40
1.0
 40
1.0
 40
1.0
 40
1.0
 10
48.66426485990004
 20
18.03090898779999
 30
0.0
 10
48.70118395730006
 20
18.11089615500003
 30
0.0
 10
48.77877403440002
 20
18.27914423230004
 30
0.0
 10
48.90623097460005
 20
18.55604648849999
 30
0.0
 10
49.04514195660008
 20
18.85843027580006
 30
0.0
 10
49.19582399020007
 20
19.18710673410004
 30
0.0
 10
49.36001508080003
 20
19.54600218940004
 30
0.0
 10
49.53846736640006
 20
19.93691401450007
 30
0.0
 10
49.73226954280002
 20
20.36238775300006
 30
0.0
 10
49.94223075100004
 20
20.82437053620004
 30
0.0
 10
50.09390108930003
 20
21.15885174080006
 30
0.0
 10
50.17256837870005
 20
21.33254285100003
 30
0.0
1001
ACAD
1000
RTMaterial
1005
0
  0
SPLINE
  5
6190B
330
1F
100
AcDbEntity
  8
cut
100
AcDbSpline
210
0.0
220
0.0
230
1.0
 70
     8
 71
     3
 72
    11
 73
     7
 74
     0
 42
0.0000000001
 43
0.0000000001
 40
0.0
 40
0.0
 40
0.0
 40
0.0
 40
0.25
 40
0.5
 40
0.75
 40
1.0
 40
1.0
 40
1.0
 40
1.0
 10
50.17256837870005
 20
21.33254285100003
 30
0.0
 10
50.20614660820005
 20
21.40668090750001
 30
0.0
 10
50.27773605330006
 20
21.56410335930002
 30
0.0
 10
50.39927973090008
 20
21.82880127319998
 30
0.0
 10
50.53354902360005
 20
22.11816822310004
 30
0.0
 10
50.63232545910003
 20
22.32865527110005
 30
0.0
 10
50.68404129410007
 20
22.43816237790003
 30
0.0
1001
ACAD
1000
RTMaterial
1005
0
  0
SPLINE
  5
6190C
330
1F
100
AcDbEntity
  8
cut
100
AcDbSpline
210
0.0
220
0.0
230
1.0
 70
     8
 71
     3
 72
    10
 73
     6
 74
     0
 42
0.0000000001
 43
0.0000000001
 40
0.0
 40
0.0
 40
0.0
 40
0.0
 40
0.3333333333
 40
0.6666666667
 40
1.0
 40
1.0
 40
1.0
 40
1.0
 10
50.68404129410007
 20
22.43816237790003
 30
0.0
 10
50.69697519440004
 20
22.46729354800004
 30
0.0
 10
50.71989284710006
 20
22.52529872489998
 30
0.0
 10
50.74629385480003
 20
22.61174661360002
 30
0.0
 10
50.7585867013
 20
22.66780368920001
 30
0.0
 10
50.76355000890007
 20
22.69551294080003
 30
0.0
1001
ACAD
1000
RTMaterial
1005
0
  0
SPLINE
  5
6190D
330
1F
100
AcDbEntity
  8
cut
100
AcDbSpline
210
0.0
220
0.0
230
1.0
 70
     8
 71
     3
 72
    10
 73
     6
 74
     0
 42
0.0000000001
 43
0.0000000001
 40
0.0
 40
0.0
 40
0.0
 40
0.0
 40
0.3333333333
 40
0.6666666667
 40
1.0
 40
1.0
 40
1.0
 40
1.0
 10
50.76355000890007
 20
22.69551294080003
 30
0.0
 10
50.76467850780002
 20
22.70181314640002
 30
0.0
 10
50.76680680700005
 20
22.71435391090006
 30
0.0
 10
50.76959993680006
 20
22.73285869340003
 30
0.0
 10
50.77123908700006
 20
22.74524280600002
 30
0.0
 10
50.77199999940003
 20
22.75142569060006
 30
0.0
1001
ACAD
1000
RTMaterial
1005
0
  0
LINE
  5
6190E
330
1F
100
AcDbEntity
  8
cut
100
AcDbLine
 10
50.77199999940003
 20
22.75142569060006
 30
0.0
 11
50.77384048890005
 21
22.78309304779998
 31
0.0
1001
ACAD
1000
RTMaterial
1005
0
  0
SPLINE
  5
6190F
330
1F
100
AcDbEntity
  8
1
100
AcDbSpline
210
0.0
220
0.0
230
1.0
 70
     8
 71
     3
 72
    15
 73
    11
 74
     0
 42
0.0000000001
 43
0.0000000001
 40
0.0
 40
0.0
 40
0.0
 40
0.0
 40
0.1248035261
 40
0.2496613061
 40
0.3746006319
 40
0.499629273
 40
0.6247274788000001
 40
0.7498557666
 40
0.8749517093000001
 40
1.0
 40
1.0
 40
1.0
 40
1.0
 10
42.47838032410007
 20
25.16228701250003
 30
0.0
 10
42.44783736550002
 20
25.16656142580001
 30
0.0
 10
42.38516764020007
 20
25.16643377730003
 30
0.0
 10
42.29520373150004
 20
25.14004592570001
 30
0.0
 10
42.21603561700007
 20
25.08960108380006
 30
0.0
 10
42.15400880540008
 20
25.0190829174
 30
0.0
 10
42.11398861510005
 20
24.93407078960002
 30
0.0
 10
42.09915791940002
 20
24.84125838540001
 30
0.0
 10
42.11061583060003
 20
24.74804849220004
 30
0.0
 10
42.13532483520006
 20
24.69033065529999
 30
0.0
 10
42.15134785190005
 20
24.66390831080003
 30
0.0
1001
ACAD
1000
RTMaterial
1005
0
  0
SPLINE
  5
61910
330
1F
100
AcDbEntity
  8
1
100
AcDbSpline
210
0.0
220
0.0
230
1.0
 70
     8
 71
     3
 72
    15
 73
    11
 74
     0
 42
0.0000000001
 43
0.0000000001
 40
0.0
 40
0.0
 40
0.0
 40
0.0
 40
0.1249745627
 40
0.2500150505
 40
0.3751191411999999
 40
0.5002276074000001
 40
0.6252937521000001
 40
0.7502820067
 40
0.8751804444999999
 40
1.0
 40
1.0
 40
1.0
 40
1.0
 10
41.88167461650002
 20
23.5343074232
 30
0.0
 10
41.85555894440002
 20
23.51806163380008
 30
0.0
 10
41.80763141390005
 20
23.47796449310004
 30
0.0
 10
41.75539850500004
 20
23.40043859000002
 30
0.0
 10
41.72656800510006
 20
23.31141312590006
 30
0.0
 10
41.72349063070007
 20
23.21789320270005
 30
0.0
 10
41.74637647570003
 20
23.12719355500002
 30
0.0
 10
41.7934655713
 20
23.04640813380007
 30
0.0
 10
41.86098900880003
 20
22.98190126400005
 30
0.0
 10
41.91633388030001
 20
22.95303977180004
 30
0.0
 10
41.94529149140007
 20
22.94278961760006
 30
0.0
1001
ACAD
1000
RTMaterial
1005
0
  0
SPLINE
  5
61911
330
1F
100
AcDbEntity
  8
1
100
AcDbSpline
210
0.0
220
0.0
230
1.0
 70
     8
 71
     3
 72
     8
 73
     4
 74
     0
 42
0.0000000001
 43
0.0000000001
 40
0.0
 40
0.0
 40
0.0
 40
0.0
 40
1.0
 40
1.0
 40
1.0
 40
1.0
 10
41.94529149140007
 20
22.94278961760006
 30
0.0
 10
41.96601284100004
 20
22.93545486099998
 30
0.0
 10
41.98758188900003
 20
22.93018391279998
 30
0.0
 10
42.0093514506
 20
22.92714102420001
 30
0.0
1001
ACAD
1000
RTMaterial
1005
0
  0
SPLINE
  5
61912
330
1F
100
AcDbEntity
  8
1
100
AcDbSpline
210
0.0
220
0.0
230
1.0
 70
     8
 71
     3
 72
    15
 73
    11
 74
     0
 42
0.0000000001
 43
0.0000000001
 40
0.0
 40
0.0
 40
0.0
 40
0.0
 40
0.1251602541
 40
0.2502837245
 40
0.3753592817
 40
0.5003790434000001
 40
0.6253432712000001
 40
0.7502586988
 40
0.8751367873999999
 40
1.0
 40
1.0
 40
1.0
 40
1.0
 10
42.90329743620006
 20
22.12582711520008
 30
0.0
 10
42.90179923500008
 20
22.17385599950006
 30
0.0
 10
42.89038183010004
 20
22.26984805750004
 30
0.0
 10
42.84853007960006
 20
22.40847899300007
 30
0.0
 10
42.78322607950005
 20
22.53771762800005
 30
0.0
 10
42.69646241220002
 20
22.65355785540004
 30
0.0
 10
42.59089286730002
 20
22.75247416740001
 30
0.0
 10
42.46972643920005
 20
22.83144026480005
 30
0.0
 10
42.33672157120006
 20
22.88803395650001
 30
0.0
 10
42.24272535220004
 20
22.90972006080005
 30
0.0
 10
42.19524918950006
 20
22.9163597429
 30
0.0
1001
ACAD
1000
RTMaterial
1005
0
  0
SPLINE
  5
61913
330
1F
100
AcDbEntity
  8
1
100
AcDbSpline
210
0.0
220
0.0
230
1.0
 70
     8
 71
     3
 72
    11
 73
     7
 74
     0
 42
0.0000000001
 43
0.0000000001
 40
0.0
 40
0.0
 40
0.0
 40
0.0
 40
0.2502996486
 40
0.5003874572
 40
0.7502656923000001
 40
1.0
 40
1.0
 40
1.0
 40
1.0
 10
42.90329743620006
 20
22.12582711520008
 30
0.0
 10
42.90449150950005
 20
22.08754787250001
 30
0.0
 10
42.92045373080006
 20
22.01077878450008
 30
0.0
 10
42.98224356880004
 20
21.91132663880006
 30
0.0
 10
43.07424018250006
 20
21.83903081599999
 30
0.0
 10
43.14872234790008
 20
21.81485657690001
 30
0.0
 10
43.18656510420001
 20
21.80956187639998
 30
0.0
1001
ACAD
1000
RTMaterial
1005
0
  0
SPLINE
  5
61914
330
1F
100
AcDbEntity
  8
1
100
AcDbSpline
210
0.0
220
0.0
230
1.0
 70
     8
 71
     3
 72
     9
 73
     5
 74
     0
 42
0.0000000001
 43
0.0000000001
 40
0.0
 40
0.0
 40
0.0
 40
0.0
 40
0.5000427267000001
 40
1.0
 40
1.0
 40
1.0
 40
1.0
 10
44.63148275890003
 20
22.30941329580003
 30
0.0
 10
44.58889307850003
 20
22.33228481250001
 30
0.0
 10
44.49949889270008
 20
22.37056407430003
 30
0.0
 10
44.40475545710003
 20
22.3924841722
 30
0.0
 10
44.35688746780002
 20
22.39918074510001
 30
0.0
1001
ACAD
1000
RTMaterial
1005
0
  0
SPLINE
  5
61915
330
1F
100
AcDbEntity
  8
1
100
AcDbSpline
210
0.0
220
0.0
230
1.0
 70
     8
 71
     3
 72
     9
 73
     5
 74
     0
 42
0.0000000001
 43
0.0000000001
 40
0.0
 40
0.0
 40
0.0
 40
0.0
 40
0.7495490479000001
 40
1.0
 40
1.0
 40
1.0
 40
1.0
 10
44.63148275890003
 20
22.30941329580003
 30
0.0
 10
44.65699841180006
 20
22.29571087590006
 30
0.0
 10
44.69374088410003
 20
22.28187291950007
 30
0.0
 10
44.73175567550007
 20
22.27484143570001
 30
0.0
 10
44.74133955420003
 20
22.273500195
 30
0.0
1001
ACAD
1000
RTMaterial
1005
0
  0
SPLINE
  5
61916
330
1F
100
AcDbEntity
  8
1
100
AcDbSpline
210
0.0
220
0.0
230
1.0
 70
     8
 71
     3
 72
    15
 73
    11
 74
     0
 42
0.0000000001
 43
0.0000000001
 40
0.0
 40
0.0
 40
0.0
 40
0.0
 40
0.1249035286
 40
0.2498597456
 40
0.3748744754
 40
0.4999215358
 40
0.6249805071
 40
0.7500291854000001
 40
0.8750362872
 40
1.0
 40
1.0
 40
1.0
 40
1.0
 10
41.88167461650002
 20
23.5343074232
 30
0.0
 10
41.92712916260004
 20
23.56258335569998
 30
0.0
 10
42.01275478640005
 20
23.62822632580003
 30
0.0
 10
42.11950147220003
 20
23.74960353610004
 30
0.0
 10
42.20079789310003
 20
23.88944945680004
 30
0.0
 10
42.25348079570003
 20
24.04242007099998
 30
0.0
 10
42.27557978060005
 20
24.20270650800006
 30
0.0
 10
42.26623010360007
 20
24.36423575870004
 30
0.0
 10
42.22584054890003
 20
24.52081052210002
 30
0.0
 10
42.17911880780005
 20
24.61811332860003
 30
0.0
 10
42.15134785190005
 20
24.66390831080003
 30
0.0
1001
ACAD
1000
RTMaterial
1005
0
  0
SPLINE
  5
61917
330
1F
100
AcDbEntity
  8
1
100
AcDbSpline
210
0.0
220
0.0
230
1.0
 70
     8
 71
     3
 72
    11
 73
     7
 74
     0
 42
0.0000000001
 43
0.0000000001
 40
0.0
 40
0.0
 40
0.0
 40
0.0
 40
0.2497812734
 40
0.4996706779000001
 40
0.7497377359000001
 40
1.0
 40
1.0
 40
1.0
 40
1.0
 10
42.86283241040004
 20
25.03660646240002
 30
0.0
 10
42.94461745690003
 20
25.02516500569999
 30
0.0
 10
43.11279884980004
 20
25.0271867367
 30
0.0
 10
43.35190969140003
 20
25.10534996389998
 30
0.0
 10
43.55713000750003
 20
25.25110143239999
 30
0.0
 10
43.65907260200006
 20
25.38512981370002
 30
0.0
 10
43.69873652630005
 20
25.4577436129
 30
0.0
1001
ACAD
1000
RTMaterial
1005
0
  0
SPLINE
  5
61918
330
1F
100
AcDbEntity
  8
1
100
AcDbSpline
210
0.0
220
0.0
230
1.0
 70
     8
 71
     3
 72
    11
 73
     7
 74
     0
 42
0.0000000001
 43
0.0000000001
 40
0.0
 40
0.0
 40
0.0
 40
0.0
 40
0.2497807494
 40
0.499671638
 40
0.7497263809
 40
1.0
 40
1.0
 40
1.0
 40
1.0
 10
44.03315477410004
 20
25.62622533110005
 30
0.0
 10
44.00043538250005
 20
25.63080320530003
 30
0.0
 10
43.93315113740001
 20
25.62999583660007
 30
0.0
 10
43.83749256760004
 20
25.5987242942
 30
0.0
 10
43.75538945780002
 20
25.54041586910006
 30
0.0
 10
43.71460549100001
 20
25.4867953479
 30
0.0
 10
43.69873652630005
 20
25.4577436129
 30
0.0
1001
ACAD
1000
RTMaterial
1005
0
  0
SPLINE
  5
61919
330
1F
100
AcDbEntity
  8
1
100
AcDbSpline
210
0.0
220
0.0
230
1.0
 70
     8
 71
     3
 72
     8
 73
     4
 74
     0
 42
0.0000000001
 43
0.0000000001
 40
0.0
 40
0.0
 40
0.0
 40
0.0
 40
1.0
 40
1.0
 40
1.0
 40
1.0
 10
45.02447068880004
 20
24.51942746460003
 30
0.0
 10
45.06837702970003
 20
24.51328703270008
 30
0.0
 10
45.11292691320003
 20
24.51070004370007
 30
0.0
 10
45.15724861350006
 20
24.51172890580006
 30
0.0
1001
ACAD
1000
RTMaterial
1005
0
  0
SPLINE
  5
6191A
330
1F
100
AcDbEntity
  8
1
100
AcDbSpline
210
0.0
220
0.0
230
1.0
 70
     8
 71
     3
 72
     8
 73
     4
 74
     0
 42
0.0000000001
 43
0.0000000001
 40
0.0
 40
0.0
 40
0.0
 40
0.0
 40
1.0
 40
1.0
 40
1.0
 40
1.0
 10
45.21036842770004
 20
24.50864618330002
 30
0.0
 10
45.19280279690005
 20
24.51110145820002
 30
0.0
 10
45.17498023310006
 20
24.51214051890003
 30
0.0
 10
45.15724861350006
 20
24.51172890580006
 30
0.0
1001
ACAD
1000
RTMaterial
1005
0
  0
SPLINE
  5
6191B
330
1F
100
AcDbEntity
  8
1
100
AcDbSpline
210
0.0
220
0.0
230
1.0
 70
     8
 71
     3
 72
    27
 73
    23
 74
     0
 42
0.0000000001
 43
0.0000000001
 40
0.0
 40
0.0
 40
0.0
 40
0.0
 40
0.0623947125
 40
0.0936232012
 40
0.1248550523
 40
0.1872761331
 40
0.249720486
 40
0.2809806853999999
 40
0.3122477685
 40
0.3747459269
 40
0.4372685048
 40
0.4998100351
 40
0.5623628903000001
 40
0.6249181621000001
 40
0.6874666821
 40
0.7187637134
 40
0.7500560675
 40
0.8125675237000001
 40
0.8750532600999999
 40
0.9063133248999999
 40
0.9375658356999998
 40
1.0
 40
1.0
 40
1.0
 40
1.0
 10
44.0595098313
 20
27.13858555680003
 30
0.0
 10
44.25193629360004
 20
27.11165455260005
 30
0.0
 10
44.53800140950008
 20
27.04646177720003
 30
0.0
 10
44.90332863380004
 20
26.91241804020007
 30
0.0
 10
45.25614513950009
 20
26.74783021180002
 30
0.0
 10
45.66907798350004
 20
26.48668086680004
 30
0.0
 10
46.03192559790008
 20
26.15935074040005
 30
0.0
 10
46.28575905840003
 20
25.86381458350002
 30
0.0
 10
46.51377234730003
 20
25.54773269260005
 30
0.0
 10
46.74736887060001
 20
25.11787580250001
 30
0.0
 10
46.93655792030003
 20
24.56238891050003
 30
0.0
 10
47.02953893030005
 20
23.98273902700004
 30
0.0
 10
47.02356925230006
 20
23.39560867630007
 30
0.0
 10
46.91888284570004
 20
22.81790732180002
 30
0.0
 10
46.75167973290004
 20
22.35777136540002
 30
0.0
 10
46.57312204660004
 20
22.01094716910006
 30
0.0
 10
46.36597806760002
 20
21.68052759330004
 30
0.0
 10
46.05576966930008
 20
21.30228688470004
 30
0.0
 10
45.68621714080004
 20
20.98193990930003
 30
0.0
 10
45.36177618950008
 20
20.76609409529999
 30
0.0
 10
45.02046205700006
 20
20.57858994500003
 30
0.0
 10
44.74726564290008
 20
20.47106600989997
 30
0.0
 10
44.56095852050006
 20
20.41547252180004
 30
0.0
1001
ACAD
1000
RTMaterial
1005
0
  0
SPLINE
  5
6191C
330
1F
100
AcDbEntity
  8
1
100
AcDbSpline
210
0.0
220
0.0
230
1.0
 70
     8
 71
     3
 72
     9
 73
     5
 74
     0
 42
0.0000000001
 43
0.0000000001
 40
0.0
 40
0.0
 40
0.0
 40
0.0
 40
0.4999358793999999
 40
1.0
 40
1.0
 40
1.0
 40
1.0
 10
43.10324918460006
 20
20.30517269410006
 30
0.0
 10
43.34590717470004
 20
20.27121154720004
 30
0.0
 10
43.84001451630004
 20
20.25537894120004
 30
0.0
 10
44.32610550960006
 20
20.34539308590007
 30
0.0
 10
44.56095852050006
 20
20.41547252180004
 30
0.0
1001
ACAD
1000
RTMaterial
1005
0
  0
SPLINE
  5
6191D
330
1F
100
AcDbEntity
  8
1
100
AcDbSpline
210
0.0
220
0.0
230
1.0
 70
     8
 71
     3
 72
     9
 73
     5
 74
     0
 42
0.0000000001
 43
0.0000000001
 40
0.0
 40
0.0
 40
0.0
 40
0.0
 40
0.4999927562
 40
1.0
 40
1.0
 40
1.0
 40
1.0
 10
42.73467041420005
 20
25.05454087010003
 30
0.0
 10
42.68679942870003
 20
25.06124045130008
 30
0.0
 10
42.59205670420001
 20
25.08316146999999
 30
0.0
 10
42.50266179660004
 20
25.12143888750001
 30
0.0
 10
42.46007517900003
 20
25.14430875950007
 30
0.0
1001
ACAD
1000
RTMaterial
1005
0
  0
SPLINE
  5
6191E
330
1F
100
AcDbEntity
  8
1
100
AcDbSpline
210
0.0
220
0.0
230
1.0
 70
     8
 71
     3
 72
    27
 73
    23
 74
     0
 42
0.0000000001
 43
0.0000000001
 40
0.0
 40
0.0
 40
0.0
 40
0.0
 40
0.0624341643
 40
0.0936866751
 40
0.1249467399
 40
0.1874324763
 40
0.2499439325
 40
0.2812362866
 40
0.3125333179
 40
0.3750818379
 40
0.4376371097
 40
0.5001899649000001
 40
0.5627314952
 40
0.6252540731
 40
0.6877522315000001
 40
0.7190193145999999
 40
0.750279514
 40
0.8127238669
 40
0.8751449476999999
 40
0.9063767988
 40
0.9376052875
 40
1.0
 40
1.0
 40
1.0
 40
1.0
 10
42.60180049540005
 20
27.02828572910005
 30
0.0
 10
42.41549337300003
 20
26.97269224100001
 30
0.0
 10
42.14229695890006
 20
26.86516830590006
 30
0.0
 10
41.80098282640003
 20
26.67766415560004
 30
0.0
 10
41.47654187510002
 20
26.4618183417
 30
0.0
 10
41.10698934660004
 20
26.14147136620005
 30
0.0
 10
40.79678094830007
 20
25.76323065760005
 30
0.0
 10
40.5896369693001
 20
25.43281108180003
 30
0.0
 10
40.41107928290012
 20
25.08598688550006
 30
0.0
 10
40.24387617020011
 20
24.62585092910007
 30
0.0
 10
40.13918976350004
 20
24.04814957460002
 30
0.0
 10
40.13322008560004
 20
23.46101922389999
 30
0.0
 10
40.22620109560006
 20
22.88136934050005
 30
0.0
 10
40.41539014530008
 20
22.32588244840008
 30
0.0
 10
40.64898666860011
 20
21.89602555830004
 30
0.0
 10
40.87699995750006
 20
21.57994366750001
 30
0.0
 10
41.13083341800003
 20
21.28440751050005
 30
0.0
 10
41.49368103240002
 20
20.95707738419998
 30
0.0
 10
41.90661387640003
 20
20.6959280392
 30
0.0
 10
42.25943038210002
 20
20.53134021070002
 30
0.0
 10
42.62475760640003
 20
20.39729647380005
 30
0.0
 10
42.91082272230002
 20
20.33210369830005
 30
0.0
 10
43.10324918460006
 20
20.30517269410006
 30
0.0
1001
ACAD
1000
RTMaterial
1005
0
  0
SPLINE
  5
6191F
330
1F
100
AcDbEntity
  8
1
100
AcDbSpline
210
0.0
220
0.0
230
1.0
 70
     8
 71
     3
 72
     9
 73
     5
 74
     0
 42
0.0000000001
 43
0.0000000001
 40
0.0
 40
0.0
 40
0.0
 40
0.0
 40
0.5000641206000001
 40
1.0
 40
1.0
 40
1.0
 40
1.0
 10
42.60180049540005
 20
27.02828572910005
 30
0.0
 10
42.83665350630005
 20
27.09836516500002
 30
0.0
 10
43.32274449960002
 20
27.18837930970006
 30
0.0
 10
43.81685184120001
 20
27.17254670370005
 30
0.0
 10
44.0595098313
 20
27.13858555680003
 30
0.0
1001
ACAD
1000
RTMaterial
1005
0
  0
SPLINE
  5
61920
330
1F
100
AcDbEntity
  8
1
100
AcDbSpline
210
0.0
220
0.0
230
1.0
 70
     8
 71
     3
 72
    27
 73
    23
 74
     0
 42
0.0000000001
 43
0.0000000001
 40
0.0
 40
0.0
 40
0.0
 40
0.0
 40
0.0624427899
 40
0.0937102059
 40
0.1249873065
 40
0.1874900014
 40
0.2500207912
 40
0.281332068
 40
0.3126473387
 40
0.3752087474
 40
0.4377679573
 40
0.5003130489000001
 40
0.562834304
 40
0.6253256282000001
 40
0.6877854148
 40
0.7190421229
 40
0.7502924867000001
 40
0.8127033279999999
 40
0.8751043047999999
 40
0.9063425463999999
 40
0.9375810863999999
 40
1.0
 40
1.0
 40
1.0
 40
1.0
 10
42.94232396630005
 20
25.97105064410005
 30
0.0
 10
42.79539277940003
 20
25.92720681740002
 30
0.0
 10
42.58060998640004
 20
25.83932896279999
 30
0.0
 10
42.31641399380001
 20
25.68243870690003
 30
0.0
 10
42.06862895770004
 20
25.50031938440003
 30
0.0
 10
41.79416869050007
 20
25.22826111120003
 30
0.0
 10
41.57804740950004
 20
24.90778641489999
 30
0.0
 10
41.44516016180003
 20
24.63018937160007
 30
0.0
 10
41.3399812908
 20
24.34088299560006
 30
0.0
 10
41.26244809620001
 20
23.96191831279998
 30
0.0
 10
41.25975460630004
 20
23.49820655010006
 30
0.0
 10
41.34731277640006
 20
23.04284949680004
 30
0.0
 10
41.52185035140004
 20
22.61342898610002
 30
0.0
 10
41.77654965740001
 20
22.22647533220004
 30
0.0
 10
42.04784489590005
 20
21.95151613840005
 30
0.0
 10
42.29346524210003
 20
21.76685663370006
 30
0.0
 10
42.55590128240001
 20
21.6072117942
 30
0.0
 10
42.91144287640006
 20
21.45728126080002
 30
0.0
 10
43.28943248540006
 20
21.37992693230007
 30
0.0
 10
43.59607913320004
 20
21.36326475610002
 30
0.0
 10
43.90282932410005
 20
21.37673273849998
 30
0.0
 10
44.1305209072
 20
21.42090950130006
 30
0.0
 10
44.27739591190001
 20
21.46473656330005
 30
0.0
1001
ACAD
1000
RTMaterial
1005
0
  0
SPLINE
  5
61921
330
1F
100
AcDbEntity
  8
1
100
AcDbSpline
210
0.0
220
0.0
230
1.0
 70
     8
 71
     3
 72
     8
 73
     4
 74
     0
 42
0.0000000001
 43
0.0000000001
 40
0.0
 40
0.0
 40
0.0
 40
0.0
 40
1.0
 40
1.0
 40
1.0
 40
1.0
 10
42.46007517900003
 20
25.14430875950007
 30
0.0
 10
42.44521713370002
 20
25.15228782930001
 30
0.0
 10
42.42969427700003
 20
25.15913263130006
 30
0.0
 10
42.41378786170005
 20
25.1647373628
 30
0.0
1001
ACAD
1000
RTMaterial
1005
0
  0
SPLINE
  5
61922
330
1F
100
AcDbEntity
  8
1
100
AcDbSpline
210
0.0
220
0.0
230
1.0
 70
     8
 71
     3
 72
    15
 73
    11
 74
     0
 42
0.0000000001
 43
0.0000000001
 40
0.0
 40
0.0
 40
0.0
 40
0.0
 40
0.1249035286
 40
0.2498597456
 40
0.3748744754
 40
0.4999215358
 40
0.6249805071
 40
0.7500291854000001
 40
0.8750362872
 40
1.0
 40
1.0
 40
1.0
 40
1.0
 10
45.33804526180003
 20
23.90147978430002
 30
0.0
 10
45.29259071560002
 20
23.8732038517
 30
0.0
 10
45.20696509180007
 20
23.80756088160007
 30
0.0
 10
45.10021840610008
 20
23.68618367130006
 30
0.0
 10
45.01892198520008
 20
23.54633775069999
 30
0.0
 10
44.96623908260002
 20
23.3933671364
 30
0.0
 10
44.94414009770006
 20
23.23308069950008
 30
0.0
 10
44.95348977470004
 20
23.07155144880005
 30
0.0
 10
44.99387932940002
 20
22.91497668530002
 30
0.0
 10
45.04060107050006
 20
22.81767387889999
 30
0.0
 10
45.06837202640006
 20
22.77187889660007
 30
0.0
1001
ACAD
1000
RTMaterial
1005
0
  0
SPLINE
  5
61923
330
1F
100
AcDbEntity
  8
1
100
AcDbSpline
210
0.0
220
0.0
230
1.0
 70
     8
 71
     3
 72
    11
 73
     7
 74
     0
 42
0.0000000001
 43
0.0000000001
 40
0.0
 40
0.0
 40
0.0
 40
0.0
 40
0.2502234889999999
 40
0.500298469
 40
0.7502309122
 40
1.0
 40
1.0
 40
1.0
 40
1.0
 10
44.18826050170006
 20
25.32789494010001
 30
0.0
 10
44.18738193160007
 20
25.35605987580004
 30
0.0
 10
44.17834669280003
 20
25.41241095050003
 30
0.0
 10
44.14383359440003
 20
25.49051195540005
 30
0.0
 10
44.09069112720001
 20
25.55728189920001
 30
0.0
 10
44.04499373170003
 20
25.59136592550004
 30
0.0
 10
44.02047704440005
 20
25.60515310239998
 30
0.0
1001
ACAD
1000
RTMaterial
1005
0
  0
SPLINE
  5
61924
330
1F
100
AcDbEntity
  8
1
100
AcDbSpline
210
0.0
220
0.0
230
1.0
 70
     8
 71
     3
 72
     8
 73
     4
 74
     0
 42
0.0000000001
 43
0.0000000001
 40
0.0
 40
0.0
 40
0.0
 40
0.0
 40
1.0
 40
1.0
 40
1.0
 40
1.0
 10
44.02047704440005
 20
25.60515310239998
 30
0.0
 10
44.00372534580006
 20
25.61457356880004
 30
0.0
 10
43.98607943310006
 20
25.62255523400001
 30
0.0
 10
43.96793886170004
 20
25.62890222250002
 30
0.0
1001
ACAD
1000
RTMaterial
1005
0
  0
SPLINE
  5
61925
330
1F
100
AcDbEntity
  8
1
100
AcDbSpline
210
0.0
220
0.0
230
1.0
 70
     8
 71
     3
 72
    15
 73
    11
 74
     0
 42
0.0000000001
 43
0.0000000001
 40
0.0
 40
0.0
 40
0.0
 40
0.0
 40
0.1248757498
 40
0.2497465242
 40
0.3746627943
 40
0.4996245048
 40
0.6246450574
 40
0.7497140269
 40
0.8748478632999999
 40
1.0
 40
1.0
 40
1.0
 40
1.0
 10
44.89630910690002
 20
24.53736488210001
 30
0.0
 10
44.84882795940004
 20
24.54400286310005
 30
0.0
 10
44.75482911740002
 20
24.5656887353
 30
0.0
 10
44.62182602210006
 20
24.62229104080001
 30
0.0
 10
44.50066206240004
 20
24.70125329669997
 30
0.0
 10
44.39509324340005
 20
24.80017002880004
 30
0.0
 10
44.30833499620004
 20
24.91600928400004
 30
0.0
 10
44.24302363230006
 20
25.0452459654
 30
0.0
 10
44.20117945900003
 20
25.18387737710003
 30
0.0
 10
44.18975860220004
 20
25.27986928300004
 30
0.0
 10
44.18826050170006
 20
25.32789494010001
 30
0.0
1001
ACAD
1000
RTMaterial
1005
0
  0
SPLINE
  5
61926
330
1F
100
AcDbEntity
  8
1
100
AcDbSpline
210
0.0
220
0.0
230
1.0
 70
     8
 71
     3
 72
    15
 73
    11
 74
     0
 42
0.0000000001
 43
0.0000000001
 40
0.0
 40
0.0
 40
0.0
 40
0.0
 40
0.1249712139
 40
0.2500063639
 40
0.3751077101
 40
0.5002138165
 40
0.6252813567000001
 40
0.7502739849
 40
0.8751788063999999
 40
1.0
 40
1.0
 40
1.0
 40
1.0
 10
45.20988332140004
 20
23.91941463210003
 30
0.0
 10
45.23561795600002
 20
23.93542338930001
 30
0.0
 10
45.28290616920005
 20
23.97481993790001
 30
0.0
 10
45.33482816360006
 20
24.05086775760003
 30
0.0
 10
45.36412539210002
 20
24.13826456760006
 30
0.0
 10
45.36848178280004
 20
24.23033295940002
 30
0.0
 10
45.34759910600004
 20
24.32008100270008
 30
0.0
 10
45.30302708270008
 20
24.40069278690004
 30
0.0
 10
45.23823356150003
 20
24.46599500460002
 30
0.0
 10
45.18462647000004
 20
24.4961022814
 30
0.0
 10
45.15643963890002
 20
24.50714086230005
 30
0.0
1001
ACAD
1000
RTMaterial
1005
0
  0
LINE
  5
61927
330
1F
100
AcDbEntity
  8
1
100
AcDbLine
 10
45.15643963890002
 20
24.50714086230005
 30
0.0
 11
45.14295967390004
 21
24.51208316890001
 31
0.0
1001
ACAD
1000
RTMaterial
1005
0
  0
SPLINE
  5
61928
330
1F
100
AcDbEntity
  8
1
100
AcDbSpline
210
0.0
220
0.0
230
1.0
 70
     8
 71
     3
 72
    15
 73
    11
 74
     0
 42
0.0000000001
 43
0.0000000001
 40
0.0
 40
0.0
 40
0.0
 40
0.0
 40
0.1249599769
 40
0.2499720737
 40
0.3750190592
 40
0.5000784648
 40
0.6251259588
 40
0.7501389967000001
 40
0.8751002055
 40
1.0
 40
1.0
 40
1.0
 40
1.0
 10
44.94021008600006
 20
22.78981374450006
 30
0.0
 10
44.91243992880001
 20
22.8356074097
 30
0.0
 10
44.86571936080006
 20
22.93291120880008
 30
0.0
 10
44.82532479970004
 20
23.08948483210003
 30
0.0
 10
44.81597766650006
 20
23.25101610090007
 30
0.0
 10
44.83807423670007
 20
23.41130267880004
 30
0.0
 10
44.89075935740001
 20
23.56427232790003
 30
0.0
 10
44.97205441960002
 20
23.70412119780002
 30
0.0
 10
45.07880505720001
 20
23.82549512720004
 30
0.0
 10
45.16443008250004
 20
23.89113951280001
 30
0.0
 10
45.20988332140004
 20
23.91941463210003
 30
0.0
1001
ACAD
1000
RTMaterial
1005
0
  0
SPLINE
  5
61929
330
1F
100
AcDbEntity
  8
1
100
AcDbSpline
210
0.0
220
0.0
230
1.0
 70
     8
 71
     3
 72
    15
 73
    11
 74
     0
 42
0.0000000001
 43
0.0000000001
 40
0.0
 40
0.0
 40
0.0
 40
0.0
 40
0.1249929242
 40
0.2500590293
 40
0.3751822011
 40
0.5002973722000001
 40
0.6253498794
 40
0.7503080916
 40
0.8751765463999999
 40
1.0
 40
1.0
 40
1.0
 40
1.0
 10
45.33804526180003
 20
23.90147978430002
 30
0.0
 10
45.36647647620006
 20
23.91916600420001
 30
0.0
 10
45.41825407460007
 20
23.96359446280002
 30
0.0
 10
45.47203307890007
 20
24.05027683230003
 30
0.0
 10
45.49736209090005
 20
24.14920992890001
 30
0.0
 10
45.49178386320003
 20
24.25116075030002
 30
0.0
 10
45.45585543510006
 20
24.34668983
 30
0.0
 10
45.39284854320007
 20
24.4269254386
 30
0.0
 10
45.30873320320004
 20
24.48439867980005
 30
0.0
 10
45.24348446320007
 20
24.50401731610003
 30
0.0
 10
45.21036842770004
 20
24.50864618330002
 30
0.0
1001
ACAD
1000
RTMaterial
1005
0
  0
SPLINE
  5
6192A
330
1F
100
AcDbEntity
  8
1
100
AcDbSpline
210
0.0
220
0.0
230
1.0
 70
     8
 71
     3
 72
    11
 73
     7
 74
     0
 42
0.0000000001
 43
0.0000000001
 40
0.0
 40
0.0
 40
0.0
 40
0.0
 40
0.2502689694
 40
0.5003316144
 40
0.7502220338
 40
1.0
 40
1.0
 40
1.0
 40
1.0
 10
43.39282141160007
 20
21.99597844239997
 30
0.0
 10
43.43248639770004
 20
22.06859418560009
 30
0.0
 10
43.53443080300005
 20
22.20262169710003
 30
0.0
 10
43.73965057930004
 20
22.34837729250001
 30
0.0
 10
43.97876130010004
 20
22.42652989160007
 30
0.0
 10
44.14694222860006
 20
22.42856167630009
 30
0.0
 10
44.22872558330001
 20
22.41711603300007
 30
0.0
1001
ACAD
1000
RTMaterial
1005
0
  0
SPLINE
  5
6192B
330
1F
100
AcDbEntity
  8
1
100
AcDbSpline
210
0.0
220
0.0
230
1.0
 70
     8
 71
     3
 72
    15
 73
    11
 74
     0
 42
0.0000000001
 43
0.0000000001
 40
0.0
 40
0.0
 40
0.0
 40
0.0
 40
0.1251602541
 40
0.2502837245
 40
0.3753592817
 40
0.5003790434000001
 40
0.6253432712000001
 40
0.7502586988
 40
0.8751367873999999
 40
1.0
 40
1.0
 40
1.0
 40
1.0
 10
44.31642244200006
 20
25.30996009220002
 30
0.0
 10
44.31792064320004
 20
25.26193120790003
 30
0.0
 10
44.32933804820007
 20
25.16593915000004
 30
0.0
 10
44.37118979870004
 20
25.02730821440002
 30
0.0
 10
44.4364937988
 20
24.89806957940004
 30
0.0
 10
44.52325746610003
 20
24.78222935200006
 30
0.0
 10
44.62882701100002
 20
24.68331304010002
 30
0.0
 10
44.74999343910005
 20
24.60434694270003
 30
0.0
 10
44.88299830710005
 20
24.54775325090003
 30
0.0
 10
44.97699452610007
 20
24.52606714660004
 30
0.0
 10
45.02447068880004
 20
24.51942746460003
 30
0.0
1001
ACAD
1000
RTMaterial
1005
0
  0
SPLINE
  5
6192C
330
1F
100
AcDbEntity
  8
1
100
AcDbSpline
210
0.0
220
0.0
230
1.0
 70
     8
 71
     3
 72
     8
 73
     4
 74
     0
 42
0.0000000001
 43
0.0000000001
 40
0.0
 40
0.0
 40
0.0
 40
0.0
 40
1.0
 40
1.0
 40
1.0
 40
1.0
 10
41.94833787320007
 20
22.94219820840004
 30
0.0
 10
41.96901142690004
 20
22.94232289510006
 30
0.0
 10
41.98970434120005
 20
22.94166331810004
 30
0.0
 10
42.01032834000002
 20
22.9402273371
 30
0.0
1001
ACAD
1000
RTMaterial
1005
0
  0
SPLINE
  5
6192D
330
1F
100
AcDbEntity
  8
1
100
AcDbSpline
210
0.0
220
0.0
230
1.0
 70
     8
 71
     3
 72
     8
 73
     4
 74
     0
 42
0.0000000001
 43
0.0000000001
 40
0.0
 40
0.0
 40
0.0
 40
0.0
 40
1.0
 40
1.0
 40
1.0
 40
1.0
 10
42.01032834000002
 20
22.9402273371
 30
0.0
 10
42.02930507680005
 20
22.93890604960001
 30
0.0
 10
42.04824742620004
 20
22.93692582440002
 30
0.0
 10
42.06708689060005
 20
22.93429202099998
 30
0.0
1001
ACAD
1000
RTMaterial
1005
0
  0
SPLINE
  5
6192E
330
1F
100
AcDbEntity
  8
1
100
AcDbSpline
210
0.0
220
0.0
230
1.0
 70
     8
 71
     3
 72
    15
 73
    11
 74
     0
 42
0.0000000001
 43
0.0000000001
 40
0.0
 40
0.0
 40
0.0
 40
0.0
 40
0.1248035261
 40
0.2496613061
 40
0.3746006319
 40
0.499629273
 40
0.6247274788000001
 40
0.7498557666
 40
0.8749517093000001
 40
1.0
 40
1.0
 40
1.0
 40
1.0
 10
44.74133955420003
 20
22.273500195
 30
0.0
 10
44.77188251280003
 20
22.26922578160003
 30
0.0
 10
44.83455223810003
 20
22.26935343010001
 30
0.0
 10
44.92451614670002
 20
22.29574128169998
 30
0.0
 10
45.00368426120004
 20
22.34618612360003
 30
0.0
 10
45.06571107280004
 20
22.41670429010003
 30
0.0
 10
45.10573126320005
 20
22.50171641780003
 30
0.0
 10
45.12056195880004
 20
22.59452882210002
 30
0.0
 10
45.10910404770007
 20
22.68773871520005
 30
0.0
 10
45.08439504300006
 20
22.74545655209999
 30
0.0
 10
45.06837202640006
 20
22.77187889660007
 30
0.0
1001
ACAD
1000
RTMaterial
1005
0
  0
SPLINE
  5
6192F
330
1F
100
AcDbEntity
  8
1
100
AcDbSpline
210
0.0
220
0.0
230
1.0
 70
     8
 71
     3
 72
    15
 73
    11
 74
     0
 42
0.0000000001
 43
0.0000000001
 40
0.0
 40
0.0
 40
0.0
 40
0.0
 40
0.1248198495
 40
0.2497009272
 40
0.3746642443
 40
0.4997044267000001
 40
0.6247961708
 40
0.7499053905
 40
0.8749776184999998
 40
1.0
 40
1.0
 40
1.0
 40
1.0
 10
44.67833385190002
 20
22.28885901160004
 30
0.0
 10
44.70643494080005
 20
22.29054707080002
 30
0.0
 10
44.76248083800007
 20
22.30123810570001
 30
0.0
 10
44.83949808410002
 20
22.33813410239998
 30
0.0
 10
44.90468423230007
 20
22.39345654959999
 30
0.0
 10
44.95367881610005
 20
22.46356538430001
 30
0.0
 10
44.98328990750005
 20
22.54384201270005
 30
0.0
 10
44.99154956700007
 20
22.62902423790001
 30
0.0
 10
44.97796580560001
 20
22.71345342620003
 30
0.0
 10
44.95483118170002
 20
22.76570320180002
 30
0.0
 10
44.94021008600006
 20
22.78981374450006
 30
0.0
1001
ACAD
1000
RTMaterial
1005
0
  0
SPLINE
  5
61930
330
1F
100
AcDbEntity
  8
1
100
AcDbSpline
210
0.0
220
0.0
230
1.0
 70
     8
 71
     3
 72
    11
 73
     7
 74
     0
 42
0.0000000001
 43
0.0000000001
 40
0.0
 40
0.0
 40
0.0
 40
0.0
 40
0.2497812734
 40
0.4996706779000001
 40
0.7497377359000001
 40
1.0
 40
1.0
 40
1.0
 40
1.0
 10
44.35688746780002
 20
22.39918074510001
 30
0.0
 10
44.27510242140008
 20
22.41062220180004
 30
0.0
 10
44.10692102850006
 20
22.40860047080003
 30
0.0
 10
43.86781018690001
 20
22.33043724360005
 30
0.0
 10
43.66258987080001
 20
22.18468577510003
 30
0.0
 10
43.56064727620005
 20
22.05065739370002
 30
0.0
 10
43.52098335200006
 20
21.97804359450004
 30
0.0
1001
ACAD
1000
RTMaterial
1005
0
  0
SPLINE
  5
61931
330
1F
100
AcDbEntity
  8
1
100
AcDbSpline
210
0.0
220
0.0
230
1.0
 70
     8
 71
     3
 72
    11
 73
     7
 74
     0
 42
0.0000000001
 43
0.0000000001
 40
0.0
 40
0.0
 40
0.0
 40
0.0
 40
0.2502996486
 40
0.5003874572
 40
0.7502656923000001
 40
1.0
 40
1.0
 40
1.0
 40
1.0
 10
44.31642244200006
 20
25.30996009220002
 30
0.0
 10
44.31522836870001
 20
25.34823933489998
 30
0.0
 10
44.29926614750004
 20
25.42500842300007
 30
0.0
 10
44.23747630950006
 20
25.52446056860004
 30
0.0
 10
44.14547969570006
 20
25.59675639139999
 30
0.0
 10
44.07099753040009
 20
25.62093063060007
 30
0.0
 10
44.03315477410004
 20
25.62622533110005
 30
0.0
1001
ACAD
1000
RTMaterial
1005
0
  0
SPLINE
  5
61932
330
1F
100
AcDbEntity
  8
1
100
AcDbSpline
210
0.0
220
0.0
230
1.0
 70
     8
 71
     3
 72
    11
 73
     7
 74
     0
 42
0.0000000001
 43
0.0000000001
 40
0.0
 40
0.0
 40
0.0
 40
0.0
 40
0.2497807494
 40
0.499671638
 40
0.7497263809
 40
1.0
 40
1.0
 40
1.0
 40
1.0
 10
43.18656510420001
 20
21.80956187639998
 30
0.0
 10
43.21928449580005
 20
21.8049840022
 30
0.0
 10
43.28656874090003
 20
21.80579137080002
 30
0.0
 10
43.38222731070007
 20
21.83706291319999
 30
0.0
 10
43.46433042050003
 20
21.89537133840008
 30
0.0
 10
43.50511438730004
 20
21.94899185950004
 30
0.0
 10
43.52098335200006
 20
21.97804359450004
 30
0.0
1001
ACAD
1000
RTMaterial
1005
0
  0
SPLINE
  5
61933
330
1F
100
AcDbEntity
  8
1
100
AcDbSpline
210
0.0
220
0.0
230
1.0
 70
     8
 71
     3
 72
    11
 73
     7
 74
     0
 42
0.0000000001
 43
0.0000000001
 40
0.0
 40
0.0
 40
0.0
 40
0.0
 40
0.2497849674
 40
0.4997030093000001
 40
0.7497650819000001
 40
1.0
 40
1.0
 40
1.0
 40
1.0
 10
43.1235079033
 20
21.82491432970005
 30
0.0
 10
43.15111596350002
 20
21.82656262950008
 30
0.0
 10
43.20617701370006
 20
21.83693427110001
 30
0.0
 10
43.28207024050008
 20
21.87264649349998
 30
0.0
 10
43.34668885000005
 20
21.92619855010002
 30
0.0
 10
43.37953928300007
 20
21.97166249680003
 30
0.0
 10
43.39282141160007
 20
21.99597844239997
 30
0.0
1001
ACAD
1000
RTMaterial
1005
0
  0
SPLINE
  5
61934
330
1F
100
AcDbEntity
  8
1
100
AcDbSpline
210
0.0
220
0.0
230
1.0
 70
     8
 71
     3
 72
     9
 73
     5
 74
     0
 42
0.0000000001
 43
0.0000000001
 40
0.0
 40
0.0
 40
0.0
 40
0.0
 40
0.5000427267000001
 40
1.0
 40
1.0
 40
1.0
 40
1.0
 10
42.58823711940002
 20
25.1263739117
 30
0.0
 10
42.63082679980008
 20
25.10350239489998
 30
0.0
 10
42.72022098560003
 20
25.0652231332
 30
0.0
 10
42.81496442120007
 20
25.04330303530003
 30
0.0
 10
42.86283241040004
 20
25.03660646240002
 30
0.0
1001
ACAD
1000
RTMaterial
1005
0
  0
SPLINE
  5
61935
330
1F
100
AcDbEntity
  8
1
100
AcDbSpline
210
0.0
220
0.0
230
1.0
 70
     8
 71
     3
 72
     9
 73
     5
 74
     0
 42
0.0000000001
 43
0.0000000001
 40
0.0
 40
0.0
 40
0.0
 40
0.0
 40
0.7495490479000001
 40
1.0
 40
1.0
 40
1.0
 40
1.0
 10
42.58823711940002
 20
25.1263739117
 30
0.0
 10
42.56272146650005
 20
25.14007633150004
 30
0.0
 10
42.52597899420002
 20
25.15391428800007
 30
0.0
 10
42.48796420280004
 20
25.16094577180002
 30
0.0
 10
42.47838032410007
 20
25.16228701250003
 30
0.0
1001
ACAD
1000
RTMaterial
1005
0
  0
SPLINE
  5
61936
330
1F
100
AcDbEntity
  8
1
100
AcDbSpline
210
0.0
220
0.0
230
1.0
 70
     8
 71
     3
 72
     8
 73
     4
 74
     0
 42
0.0000000001
 43
0.0000000001
 40
0.0
 40
0.0
 40
0.0
 40
0.0
 40
1.0
 40
1.0
 40
1.0
 40
1.0
 10
42.19524918950006
 20
22.9163597429
 30
0.0
 10
42.15134284850003
 20
22.92250017470002
 30
0.0
 10
42.10679296510003
 20
22.92508716370003
 30
0.0
 10
42.06247126480005
 20
22.92405830160004
 30
0.0
1001
ACAD
1000
RTMaterial
1005
0
  0
SPLINE
  5
61937
330
1F
100
AcDbEntity
  8
1
100
AcDbSpline
210
0.0
220
0.0
230
1.0
 70
     8
 71
     3
 72
    27
 73
    23
 74
     0
 42
0.0000000001
 43
0.0000000001
 40
0.0
 40
0.0
 40
0.0
 40
0.0
 40
0.0624189136
 40
0.0936574536
 40
0.1248956952
 40
0.187296672
 40
0.2497075133
 40
0.2809578771
 40
0.3122145852
 40
0.3746743718
 40
0.4371656960000001
 40
0.4996869511
 40
0.5622320427
 40
0.6247912526000001
 40
0.6873526613
 40
0.718667932
 40
0.7499792088
 40
0.8125099985999998
 40
0.8750126935
 40
0.9062897940999999
 40
0.9375572100999999
 40
1.0
 40
1.0
 40
1.0
 40
1.0
 10
42.94232396630005
 20
25.97105064410005
 30
0.0
 10
43.08919897110004
 20
26.01487770620003
 30
0.0
 10
43.31689055410007
 20
26.05905446900005
 30
0.0
 10
43.62364074510006
 20
26.07252245130008
 30
0.0
 10
43.93028739290005
 20
26.05586027520008
 30
0.0
 10
44.30827700190005
 20
25.97850594670001
 30
0.0
 10
44.66381859590003
 20
25.82857541319999
 30
0.0
 10
44.92625463620007
 20
25.66893057370004
 30
0.0
 10
45.17187498240005
 20
25.48427106900005
 30
0.0
 10
45.44317022080005
 20
25.20931187529999
 30
0.0
 10
45.69786952690006
 20
24.82235822140001
 30
0.0
 10
45.87240710180006
 20
24.39293771060005
 30
0.0
 10
45.95996527200006
 20
23.93758065730003
 30
0.0
 10
45.95727178200005
 20
23.4738688946
 30
0.0
 10
45.87973858750004
 20
23.09490421180004
 30
0.0
 10
45.77455971650002
 20
22.80559783580003
 30
0.0
 10
45.64167246880001
 20
22.5280007925
 30
0.0
 10
45.42555118780003
 20
22.20752609630006
 30
0.0
 10
45.15109092060001
 20
21.93546782300007
 30
0.0
 10
44.90330588450004
 20
21.75334850050007
 30
0.0
 10
44.63910989190006
 20
21.5964582446
 30
0.0
 10
44.42432709890002
 20
21.50858039000002
 30
0.0
 10
44.27739591190001
 20
21.46473656330005
 30
0.0
1001
ACAD
1000
RTMaterial
1005
0
  0
SPLINE
  5
61938
330
1F
100
AcDbEntity
  8
1
100
AcDbSpline
210
0.0
220
0.0
230
1.0
 70
     8
 71
     3
 72
     8
 73
     4
 74
     0
 42
0.0000000001
 43
0.0000000001
 40
0.0
 40
0.0
 40
0.0
 40
0.0
 40
1.0
 40
1.0
 40
1.0
 40
1.0
 10
42.0093514506
 20
22.92714102420001
 30
0.0
 10
42.02691708140005
 20
22.92468574920002
 30
0.0
 10
42.04473964520005
 20
22.9236466886
 30
0.0
 10
42.06247126480005
 20
22.92405830160004
 30
0.0
1001
ACAD
1000
RTMaterial
1005
0
  0
SPLINE
  5
61939
330
1F
100
AcDbEntity
  8
1
100
AcDbSpline
210
0.0
220
0.0
230
1.0
 70
     8
 71
     3
 72
     9
 73
     5
 74
     0
 42
0.0000000001
 43
0.0000000001
 40
0.0
 40
0.0
 40
0.0
 40
0.0
 40
0.2479593616
 40
1.0
 40
1.0
 40
1.0
 40
1.0
 10
42.32850853960008
 20
30.69335756430002
 30
0.0
 10
42.42941804570006
 20
30.70315415890002
 30
0.0
 10
42.83629739960008
 20
30.74348745500004
 30
0.0
 10
43.24285298620009
 20
30.78709038700004
 30
0.0
 10
43.54838147060007
 20
30.82175998920002
 30
0.0
1001
ACAD
1000
RTMaterial
1005
0
  0
LINE
  5
6193A
330
1F
100
AcDbEntity
  8
1
100
AcDbLine
 10
41.99621888410007
 20
30.59647412630005
 30
0.0
 11
42.00069532570006
 21
30.5987861639
 31
0.0
1001
ACAD
1000
RTMaterial
1005
0
  0
LINE
  5
6193B
330
1F
100
AcDbEntity
  8
1
100
AcDbLine
 10
42.00069532570006
 20
30.5987861639
 30
0.0
 11
42.00934690440004
 21
30.60314276029999
 31
0.0
1001
ACAD
1000
RTMaterial
1005
0
  0
SPLINE
  5
6193C
330
1F
100
AcDbEntity
  8
1
100
AcDbSpline
210
0.0
220
0.0
230
1.0
 70
     8
 71
     3
 72
     8
 73
     4
 74
     0
 42
0.0000000001
 43
0.0000000001
 40
0.0
 40
0.0
 40
0.0
 40
0.0
 40
1.0
 40
1.0
 40
1.0
 40
1.0
 10
42.00934690440004
 20
30.60314276029999
 30
0.0
 10
42.02951927930008
 20
30.61313050510006
 30
0.0
 10
42.05018650720006
 20
30.62217630260005
 30
0.0
 10
42.07121407220006
 20
30.63020881599999
 30
0.0
1001
ACAD
1000
RTMaterial
1005
0
  0
SPLINE
  5
6193D
330
1F
100
AcDbEntity
  8
1
100
AcDbSpline
210
0.0
220
0.0
230
1.0
 70
     8
 71
     3
 72
     9
 73
     5
 74
     0
 42
0.0000000001
 43
0.0000000001
 40
0.0
 40
0.0
 40
0.0
 40
0.0
 40
0.2498748411
 40
1.0
 40
1.0
 40
1.0
 40
1.0
 10
38.8479920905001
 20
18.97152887620007
 30
0.0
 10
38.78725203450012
 20
19.05545153300005
 30
0.0
 10
38.5438888787001
 20
19.39110663790001
 30
0.0
 10
38.29940300070007
 20
19.72594794340006
 30
0.0
 10
38.11533797680011
 20
19.97662787349998
 30
0.0
1001
ACAD
1000
RTMaterial
1005
0
  0
SPLINE
  5
6193E
330
1F
100
AcDbEntity
  8
1
100
AcDbSpline
210
0.0
220
0.0
230
1.0
 70
     8
 71
     3
 72
     8
 73
     4
 74
     0
 42
0.0000000001
 43
0.0000000001
 40
0.0
 40
0.0
 40
0.0
 40
0.0
 40
1.0
 40
1.0
 40
1.0
 40
1.0
 10
39.08711045230007
 20
18.73809488530003
 30
0.0
 10
39.06964549430006
 20
18.75000112489999
 30
0.0
 10
39.05266973610009
 20
18.76265897050007
 30
0.0
 10
39.0362782598001
 20
18.77600448660007
 30
0.0
1001
ACAD
1000
RTMaterial
1005
0
  0
SPLINE
  5
6193F
330
1F
100
AcDbEntity
  8
1
100
AcDbSpline
210
0.0
220
0.0
230
1.0
 70
     8
 71
     3
 72
     9
 73
     5
 74
     0
 42
0.0000000001
 43
0.0000000001
 40
0.0
 40
0.0
 40
0.0
 40
0.0
 40
0.2496740753
 40
1.0
 40
1.0
 40
1.0
 40
1.0
 10
50.68404129860008
 20
21.80162441450006
 30
0.0
 10
50.64012359090006
 20
21.70790800760006
 30
0.0
 10
50.46555768110008
 20
21.33192962099997
 30
0.0
 10
50.29632321390002
 20
20.95347263000002
 30
0.0
 10
50.17256838210002
 20
20.66812303450007
 30
0.0
1001
ACAD
1000
RTMaterial
1005
0
  0
SPLINE
  5
61940
330
1F
100
AcDbEntity
  8
1
100
AcDbSpline
210
0.0
220
0.0
230
1.0
 70
     8
 71
     3
 72
     9
 73
     5
 74
     0
 42
0.0000000001
 43
0.0000000001
 40
0.0
 40
0.0
 40
0.0
 40
0.0
 40
0.2567257741
 40
1.0
 40
1.0
 40
1.0
 40
1.0
 10
40.52632737260006
 20
30.07948894739997
 30
0.0
 10
40.50254954020011
 20
30.07490027170002
 30
0.0
 10
40.41036415770008
 20
30.05485771620005
 30
0.0
 10
40.32002245250009
 20
30.02624642140001
 30
0.0
 10
40.2549188105001
 20
30.0002234104
 30
0.0
1001
ACAD
1000
RTMaterial
1005
0
  0
SPLINE
  5
61941
330
1F
100
AcDbEntity
  8
1
100
AcDbSpline
210
0.0
220
0.0
230
1.0
 70
     8
 71
     3
 72
     9
 73
     5
 74
     0
 42
0.0000000001
 43
0.0000000001
 40
0.0
 40
0.0
 40
0.0
 40
0.0
 40
0.501675589
 40
1.0
 40
1.0
 40
1.0
 40
1.0
 10
35.87413047130008
 20
23.02894942840004
 30
0.0
 10
35.83126056900005
 20
23.08733436190005
 30
0.0
 10
35.75407605240008
 20
23.21005318810006
 30
0.0
 10
35.69630752550006
 20
23.3430815936
 30
0.0
 10
35.67285567700009
 20
23.41110202620007
 30
0.0
1001
ACAD
1000
RTMaterial
1005
0
  0
LINE
  5
61942
330
1F
100
AcDbEntity
  8
1
100
AcDbLine
 10
34.94622493370008
 20
24.73733414090003
 30
0.0
 11
34.94245781410007
 21
24.7066704861
 31
0.0
1001
ACAD
1000
RTMaterial
1005
0
  0
SPLINE
  5
61943
330
1F
100
AcDbEntity
  8
1
100
AcDbSpline
210
0.0
220
0.0
230
1.0
 70
     8
 71
     3
 72
     9
 73
     5
 74
     0
 42
0.0000000001
 43
0.0000000001
 40
0.0
 40
0.0
 40
0.0
 40
0.0
 40
0.2493217228
 40
1.0
 40
1.0
 40
1.0
 40
1.0
 10
34.99825798470005
 20
24.9699257414
 30
0.0
 10
34.99226998800009
 20
24.95103009310009
 30
0.0
 10
34.96991019650006
 20
24.87472605690005
 30
0.0
 10
34.95418734200007
 20
24.79648153020008
 30
0.0
 10
34.94622477320007
 20
24.73733415590004
 30
0.0
1001
ACAD
1000
RTMaterial
1005
0
  0
SPLINE
  5
61944
330
1F
100
AcDbEntity
  8
1
100
AcDbSpline
210
0.0
220
0.0
230
1.0
 70
     8
 71
     3
 72
     9
 73
     5
 74
     0
 42
0.0000000001
 43
0.0000000001
 40
0.0
 40
0.0
 40
0.0
 40
0.0
 40
0.249153472
 40
1.0
 40
1.0
 40
1.0
 40
1.0
 10
35.03031970670008
 20
25.06093148290001
 30
0.0
 10
35.02741758280007
 20
25.05346116060008
 30
0.0
 10
35.01600652420007
 20
25.02338687520006
 30
0.0
 10
35.00555217180011
 20
24.99294946500004
 30
0.0
 10
34.99825614920008
 20
24.96992622480008
 30
0.0
1001
ACAD
1000
RTMaterial
1005
0
  0
SPLINE
  5
61945
330
1F
100
AcDbEntity
  8
1
100
AcDbSpline
210
0.0
220
0.0
230
1.0
 70
     8
 71
     3
 72
    11
 73
     7
 74
     0
 42
0.0000000001
 43
0.0000000001
 40
0.0
 40
0.0
 40
0.0
 40
0.0
 40
0.2482991202
 40
0.4971764117000001
 40
0.7476319500000001
 40
1.0
 40
1.0
 40
1.0
 40
1.0
 10
34.94050718130007
 20
24.67622662180003
 30
0.0
 10
34.93630294570011
 20
24.59645149300002
 30
0.0
 10
34.94135545220007
 20
24.43567462030001
 30
0.0
 10
34.98997944430011
 20
24.19890691290004
 30
0.0
 10
35.0795473907001
 20
23.97298619430001
 30
0.0
 10
35.16445032340011
 20
23.83420380770008
 30
0.0
 10
35.21250562350008
 20
23.76875683140003
 30
0.0
1001
ACAD
1000
RTMaterial
1005
0
  0
LINE
  5
61946
330
1F
100
AcDbEntity
  8
1
100
AcDbLine
 10
34.94245781410007
 20
24.7066704861
 30
0.0
 11
34.94050718130007
 21
24.67622662180003
 31
0.0
1001
ACAD
1000
RTMaterial
1005
0
  0
SPLINE
  5
61947
330
1F
100
AcDbEntity
  8
1
100
AcDbSpline
210
0.0
220
0.0
230
1.0
 70
     8
 71
     3
 72
     9
 73
     5
 74
     0
 42
0.0000000001
 43
0.0000000001
 40
0.0
 40
0.0
 40
0.0
 40
0.0
 40
0.4973933731000001
 40
1.0
 40
1.0
 40
1.0
 40
1.0
 10
48.01710645110009
 20
16.46977213790001
 30
0.0
 10
47.93205807050006
 20
16.42900556630008
 30
0.0
 10
47.75195815030005
 20
16.36482623440002
 30
0.0
 10
47.56241613840003
 20
16.3398190574
 30
0.0
 10
47.46715117360006
 20
16.33714200050002
 30
0.0
1001
ACAD
1000
RTMaterial
1005
0
  0
SPLINE
  5
61948
330
1F
100
AcDbEntity
  8
1
100
AcDbSpline
210
0.0
220
0.0
230
1.0
 70
     8
 71
     3
 72
     9
 73
     5
 74
     0
 42
0.0000000001
 43
0.0000000001
 40
0.0
 40
0.0
 40
0.0
 40
0.0
 40
0.2490451083
 40
1.0
 40
1.0
 40
1.0
 40
1.0
 10
48.25844602760006
 20
16.6319707207
 30
0.0
 10
48.24383643410008
 20
16.61947283210003
 30
0.0
 10
48.18405202190004
 20
16.57061489620003
 30
0.0
 10
48.11989695560001
 20
16.52711555900004
 30
0.0
 10
48.06987463950005
 20
16.49781357490002
 30
0.0
1001
ACAD
1000
RTMaterial
1005
0
  0
SPLINE
  5
61949
330
1F
100
AcDbEntity
  8
1
100
AcDbSpline
210
0.0
220
0.0
230
1.0
 70
     8
 71
     3
 72
     9
 73
     5
 74
     0
 42
0.0000000001
 43
0.0000000001
 40
0.0
 40
0.0
 40
0.0
 40
0.0
 40
0.5012706207000001
 40
1.0
 40
1.0
 40
1.0
 40
1.0
 10
48.66426486190002
 20
17.19032833760002
 30
0.0
 10
48.61807793390003
 20
17.08383212310008
 30
0.0
 10
48.50380292400004
 20
16.88016326640002
 30
0.0
 10
48.34620827190005
 20
16.70704508750003
 30
0.0
 10
48.25844717830003
 20
16.63196919030002
 30
0.0
1001
ACAD
1000
RTMaterial
1005
0
  0
SPLINE
  5
6194A
330
1F
100
AcDbEntity
  8
1
100
AcDbSpline
210
0.0
220
0.0
230
1.0
 70
     8
 71
     3
 72
     9
 73
     5
 74
     0
 42
0.0000000001
 43
0.0000000001
 40
0.0
 40
0.0
 40
0.0
 40
0.0
 40
0.4987360353
 40
1.0
 40
1.0
 40
1.0
 40
1.0
 10
48.26780067920009
 20
31.02903279260005
 30
0.0
 10
48.40100722700009
 20
30.93752037450008
 30
0.0
 10
48.63939949720003
 20
30.70781844430002
 30
0.0
 10
48.7861641111001
 20
30.41082330310008
 30
0.0
 10
48.83271046770011
 20
30.25520393720001
 30
0.0
1001
ACAD
1000
RTMaterial
1005
0
  0
SPLINE
  5
6194B
330
1F
100
AcDbEntity
  8
1
100
AcDbSpline
210
0.0
220
0.0
230
1.0
 70
     8
 71
     3
 72
     9
 73
     5
 74
     0
 42
0.0000000001
 43
0.0000000001
 40
0.0
 40
0.0
 40
0.0
 40
0.0
 40
0.2492241108
 40
1.0
 40
1.0
 40
1.0
 40
1.0
 10
47.99643344130004
 20
31.16447614070001
 30
0.0
 10
48.01527568590007
 20
31.15755368130005
 30
0.0
 10
48.09027415010007
 20
31.12815578840008
 30
0.0
 10
48.1627539375001
 20
31.09234492669998
 30
0.0
 10
48.21516481740008
 20
31.06218161900006
 30
0.0
1001
ACAD
1000
RTMaterial
1005
0
  0
SPLINE
  5
6194C
330
1F
100
AcDbEntity
  8
1
100
AcDbSpline
210
0.0
220
0.0
230
1.0
 70
     8
 71
     3
 72
     9
 73
     5
 74
     0
 42
0.0000000001
 43
0.0000000001
 40
0.0
 40
0.0
 40
0.0
 40
0.0
 40
0.4950561726
 40
1.0
 40
1.0
 40
1.0
 40
1.0
 10
47.2978923962001
 20
31.24723309020004
 30
0.0
 10
47.41401482430006
 20
31.26040999020006
 30
0.0
 10
47.6523636861001
 20
31.26058865560009
 30
0.0
 10
47.88454456880003
 20
31.20558508610003
 30
0.0
 10
47.9964341475001
 20
31.16447792920002
 30
0.0
1001
ACAD
1000
RTMaterial
1005
0
  0
SPLINE
  5
6194D
330
1F
100
AcDbEntity
  8
1
100
AcDbSpline
210
0.0
220
0.0
230
1.0
 70
     8
 71
     3
 72
     9
 73
     5
 74
     0
 42
0.0000000001
 43
0.0000000001
 40
0.0
 40
0.0
 40
0.0
 40
0.0
 40
0.7496191467000001
 40
1.0
 40
1.0
 40
1.0
 40
1.0
 10
50.76355001010004
 20
22.06029754090008
 30
0.0
 10
50.75165067370003
 20
21.99364299250004
 30
0.0
 10
50.72725769290006
 20
21.90597164669998
 30
0.0
 10
50.69316787780005
 20
21.82231640250001
 30
0.0
 10
50.68404129860008
 20
21.80162441450006
 30
0.0
1001
ACAD
1000
RTMaterial
1005
0
  0
SPLINE
  5
6194E
330
1F
100
AcDbEntity
  8
1
100
AcDbSpline
210
0.0
220
0.0
230
1.0
 70
     8
 71
     3
 72
     8
 73
     4
 74
     0
 42
0.0000000001
 43
0.0000000001
 40
0.0
 40
0.0
 40
0.0
 40
0.0
 40
1.0
 40
1.0
 40
1.0
 40
1.0
 10
50.77200000000008
 20
22.116391771
 30
0.0
 10
50.76969744870004
 20
22.09762344870006
 30
0.0
 10
50.76687315900002
 20
22.07891227550005
 30
0.0
 10
50.76355001010004
 20
22.06029754090008
 30
0.0
1001
ACAD
1000
RTMaterial
1005
0
  0
LINE
  5
6194F
330
1F
100
AcDbEntity
  8
1
100
AcDbLine
 10
50.77384042660006
 20
22.148097726
 30
0.0
 11
50.77200000000008
 21
22.116391771
 31
0.0
1001
ACAD
1000
RTMaterial
1005
0
  0
SPLINE
  5
61950
330
1F
100
AcDbEntity
  8
1
100
AcDbSpline
210
0.0
220
0.0
230
1.0
 70
     8
 71
     3
 72
     9
 73
     5
 74
     0
 42
0.0000000001
 43
0.0000000001
 40
0.0
 40
0.0
 40
0.0
 40
0.0
 40
0.2434504122
 40
1.0
 40
1.0
 40
1.0
 40
1.0
 10
50.80058650460003
 20
23.45515863960003
 30
0.0
 10
50.80229583500008
 20
23.3490689372
 30
0.0
 10
50.80547568550006
 20
22.91323997520004
 30
0.0
 10
50.79255661030007
 20
22.47729462390004
 30
0.0
 10
50.77384150750006
 20
22.14809768380007
 30
0.0
1001
ACAD
1000
RTMaterial
1005
0
  0
LINE
  5
61951
330
1F
100
AcDbEntity
  8
1
100
AcDbLine
 10
50.80000000000004
 20
23.48834555560006
 30
0.0
 11
50.80058541800005
 21
23.45515860810008
 31
0.0
1001
ACAD
1000
RTMaterial
1005
0
  0
SPLINE
  5
61952
330
1F
100
AcDbEntity
  8
1
100
AcDbSpline
210
0.0
220
0.0
230
1.0
 70
     8
 71
     3
 72
     9
 73
     5
 74
     0
 42
0.0000000001
 43
0.0000000001
 40
0.0
 40
0.0
 40
0.0
 40
0.0
 40
0.2584941647
 40
1.0
 40
1.0
 40
1.0
 40
1.0
 10
50.73637431880005
 20
23.89064811010002
 30
0.0
 10
50.74644869080001
 20
23.85696625860004
 30
0.0
 10
50.78104092610008
 20
23.72540113300005
 30
0.0
 10
50.79806803980003
 20
23.5891747668
 30
0.0
 10
50.80000046880005
 20
23.48834557000003
 30
0.0
1001
ACAD
1000
RTMaterial
1005
0
  0
SPLINE
  5
61953
330
1F
100
AcDbEntity
  8
1
100
AcDbSpline
210
0.0
220
0.0
230
1.0
 70
     8
 71
     3
 72
     9
 73
     5
 74
     0
 42
0.0000000001
 43
0.0000000001
 40
0.0
 40
0.0
 40
0.0
 40
0.0
 40
0.2463661225
 40
1.0
 40
1.0
 40
1.0
 40
1.0
 10
40.2245752884001
 20
29.98805157000004
 30
0.0
 10
40.19767021230006
 20
29.97721952820001
 30
0.0
 10
40.08856921240004
 20
29.9329878689
 30
0.0
 10
39.97991895450008
 20
29.88764326410006
 30
0.0
 10
39.89831821670009
 20
29.85281536220004
 30
0.0
1001
ACAD
1000
RTMaterial
1005
0
  0
LINE
  5
61954
330
1F
100
AcDbEntity
  8
1
100
AcDbLine
 10
40.2549189816001
 20
30.00022297110002
 30
0.0
 11
40.22457568790009
 21
29.98805054970001
 31
0.0
1001
ACAD
1000
RTMaterial
1005
0
  0
SPLINE
  5
61955
330
1F
100
AcDbEntity
  8
1
100
AcDbSpline
210
0.0
220
0.0
230
1.0
 70
     8
 71
     3
 72
     9
 73
     5
 74
     0
 42
0.0000000001
 43
0.0000000001
 40
0.0
 40
0.0
 40
0.0
 40
0.0
 40
0.2504623937
 40
1.0
 40
1.0
 40
1.0
 40
1.0
 10
42.0712139987001
 20
30.63020900470002
 30
0.0
 10
42.09190550990007
 20
30.63811314620006
 30
0.0
 10
42.17552444310007
 20
30.66699487099999
 30
0.0
 10
42.26270392690008
 20
30.68538458030003
 30
0.0
 10
42.32850853960008
 20
30.69335756430002
 30
0.0
1001
ACAD
1000
RTMaterial
1005
0
  0
SPLINE
  5
61956
330
1F
100
AcDbEntity
  8
1
100
AcDbSpline
210
0.0
220
0.0
230
1.0
 70
     8
 71
     3
 72
     9
 73
     5
 74
     0
 42
0.0000000001
 43
0.0000000001
 40
0.0
 40
0.0
 40
0.0
 40
0.0
 40
0.2578430942
 40
1.0
 40
1.0
 40
1.0
 40
1.0
 10
39.13845683900007
 20
18.42196523760003
 30
0.0
 10
39.1592482855001
 20
18.39364916710002
 30
0.0
 10
39.24353830460006
 20
18.28656315060004
 30
0.0
 10
39.34208941630004
 20
18.19068182720002
 30
0.0
 10
39.42142139670006
 20
18.12798780989999
 30
0.0
1001
ACAD
1000
RTMaterial
1005
0
  0
SPLINE
  5
61957
330
1F
100
AcDbEntity
  8
1
100
AcDbSpline
210
0.0
220
0.0
230
1.0
 70
     8
 71
     3
 72
    10
 73
     6
 74
     0
 42
0.0000000001
 43
0.0000000001
 40
0.0
 40
0.0
 40
0.0
 40
0.0
 40
0.2420301078
 40
0.6213859179
 40
1.0
 40
1.0
 40
1.0
 40
1.0
 10
39.44764154530009
 20
18.10732271570003
 30
0.0
 10
39.51858643090009
 20
18.05156402080001
 30
0.0
 10
39.70177079970006
 20
17.90972805320001
 30
0.0
 10
40.00109718160007
 20
17.68741031360002
 30
0.0
 10
40.23170305800005
 20
17.52402939650005
 30
0.0
 10
40.34786489850006
 20
17.44383360690006
 30
0.0
1001
ACAD
1000
RTMaterial
1005
0
  0
LINE
  5
61958
330
1F
100
AcDbEntity
  8
1
100
AcDbLine
 10
39.4214216891001
 20
18.12798817880008
 30
0.0
 11
39.44764222320009
 21
18.10732357430004
 31
0.0
1001
ACAD
1000
RTMaterial
1005
0
  0
SPLINE
  5
61959
330
1F
100
AcDbEntity
  8
1
100
AcDbSpline
210
0.0
220
0.0
230
1.0
 70
     8
 71
     3
 72
     9
 73
     5
 74
     0
 42
0.0000000001
 43
0.0000000001
 40
0.0
 40
0.0
 40
0.0
 40
0.0
 40
0.2503103162
 40
1.0
 40
1.0
 40
1.0
 40
1.0
 10
39.03627813190008
 20
18.77600432950004
 30
0.0
 10
39.0186912100001
 20
18.79032314599999
 30
0.0
 10
38.95024611090008
 20
18.84973343370006
 30
0.0
 10
38.88909065040008
 20
18.91744955560006
 30
0.0
 10
38.8479920905001
 20
18.97152887620007
 30
0.0
1001
ACAD
1000
RTMaterial
1005
0
  0
SPLINE
  5
6195A
330
1F
100
AcDbEntity
  8
1
100
AcDbSpline
210
0.0
220
0.0
230
1.0
 70
     8
 71
     3
 72
     8
 73
     4
 74
     0
 42
0.0000000001
 43
0.0000000001
 40
0.0
 40
0.0
 40
0.0
 40
0.0
 40
1.0
 40
1.0
 40
1.0
 40
1.0
 10
48.21516606920005
 20
31.06218370290003
 30
0.0
 10
48.23313719390006
 20
31.05184102400006
 30
0.0
 10
48.25071064330007
 20
31.04077427599998
 30
0.0
 10
48.2678011759001
 20
31.02903349120004
 30
0.0
1001
ACAD
1000
RTMaterial
1005
0
  0
SPLINE
  5
6195B
330
1F
100
AcDbEntity
  8
1
100
AcDbSpline
210
0.0
220
0.0
230
1.0
 70
     8
 71
     3
 72
     8
 73
     4
 74
     0
 42
0.0000000001
 43
0.0000000001
 40
0.0
 40
0.0
 40
0.0
 40
0.0
 40
1.0
 40
1.0
 40
1.0
 40
1.0
 10
48.06987577530006
 20
16.49781142380004
 30
0.0
 10
48.05268869010004
 20
16.48774360980008
 30
0.0
 10
48.03506855170005
 20
16.47838134919999
 30
0.0
 10
48.01710679510003
 20
16.46977135060007
 30
0.0
1001
ACAD
1000
RTMaterial
1005
0
  0
SPLINE
  5
6195C
330
1F
100
AcDbEntity
  8
1
100
AcDbSpline
210
0.0
220
0.0
230
1.0
 70
     8
 71
     3
 72
    11
 73
     7
 74
     0
 42
0.0000000001
 43
0.0000000001
 40
0.0
 40
0.0
 40
0.0
 40
0.0
 40
0.2476310057
 40
0.4970906347
 40
0.7482928707
 40
1.0
 40
1.0
 40
1.0
 40
1.0
 10
35.60283568390008
 20
23.96770579010001
 30
0.0
 10
35.61162964010009
 20
24.04747922620004
 30
0.0
 10
35.64276209550008
 20
24.20642609730004
 30
0.0
 10
35.72783437190009
 20
24.43464275100001
 30
0.0
 10
35.84928781660011
 20
24.6472424996
 30
0.0
 10
35.95164705950009
 20
24.77506433910003
 30
0.0
 10
36.00739137300008
 20
24.83462523010002
 30
0.0
1001
ACAD
1000
RTMaterial
1005
0
  0
LINE
  5
6195D
330
1F
100
AcDbEntity
  8
1
100
AcDbLine
 10
35.59980660210011
 20
23.93732656440005
 30
0.0
 11
35.60283568390008
 21
23.96770579010001
 31
0.0
1001
ACAD
1000
RTMaterial
1005
0
  0
LINE
  5
6195E
330
1F
100
AcDbEntity
  8
1
100
AcDbLine
 10
35.59850311460008
 20
23.90651524790002
 30
0.0
 11
35.59980660210011
 21
23.93732656440005
 31
0.0
1001
ACAD
1000
RTMaterial
1005
0
  0
SPLINE
  5
6195F
330
1F
100
AcDbEntity
  8
1
100
AcDbSpline
210
0.0
220
0.0
230
1.0
 70
     8
 71
     3
 72
     9
 73
     5
 74
     0
 42
0.0000000001
 43
0.0000000001
 40
0.0
 40
0.0
 40
0.0
 40
0.0
 40
0.2484673022
 40
1.0
 40
1.0
 40
1.0
 40
1.0
 10
35.61086564910011
 20
23.67006399529998
 30
0.0
 10
35.60817961620006
 20
23.6895026464
 30
0.0
 10
35.59905462220007
 20
23.76796171889998
 30
0.0
 10
35.59662982010008
 20
23.8471905664
 30
0.0
 10
35.59850295050007
 20
23.90651525239997
 30
0.0
1001
ACAD
1000
RTMaterial
1005
0
  0
SPLINE
  5
61960
330
1F
100
AcDbEntity
  8
1
100
AcDbSpline
210
0.0
220
0.0
230
1.0
 70
     8
 71
     3
 72
     9
 73
     5
 74
     0
 42
0.0000000001
 43
0.0000000001
 40
0.0
 40
0.0
 40
0.0
 40
0.0
 40
0.2304774491
 40
1.0
 40
1.0
 40
1.0
 40
1.0
 10
35.49711073080004
 20
24.17598414400004
 30
0.0
 10
35.49497854210006
 20
24.18093919230006
 30
0.0
 10
35.48470989370009
 20
24.20200227720005
 30
0.0
 10
35.4708235714001
 20
24.22115794630008
 30
0.0
 10
35.45912382730006
 20
24.23485102260003
 30
0.0
1001
ACAD
1000
RTMaterial
1005
0
  0
SPLINE
  5
61961
330
1F
100
AcDbEntity
  8
1
100
AcDbSpline
210
0.0
220
0.0
230
1.0
 70
     8
 71
     3
 72
     9
 73
     5
 74
     0
 42
0.0000000001
 43
0.0000000001
 40
0.0
 40
0.0
 40
0.0
 40
0.0
 40
0.2714774794
 40
1.0
 40
1.0
 40
1.0
 40
1.0
 10
35.25852006530005
 20
24.45522445239999
 30
0.0
 10
35.26475475960007
 20
24.45026438790001
 30
0.0
 10
35.28737015880006
 20
24.4315727289
 30
0.0
 10
35.30856869040008
 20
24.41105683830006
 30
0.0
 10
35.32245709430009
 20
24.39480221169998
 30
0.0
1001
ACAD
1000
RTMaterial
1005
0
  0
SPLINE
  5
61962
330
1F
100
AcDbEntity
  8
1
100
AcDbSpline
210
0.0
220
0.0
230
1.0
 70
     8
 71
     3
 72
     9
 73
     5
 74
     0
 42
0.0000000001
 43
0.0000000001
 40
0.0
 40
0.0
 40
0.0
 40
0.0
 40
0.248159661
 40
1.0
 40
1.0
 40
1.0
 40
1.0
 10
47.46715117360006
 20
16.33714200050002
 30
0.0
 10
47.43563663860007
 20
16.33625640520006
 30
0.0
 10
47.30854980660004
 20
16.33696181470003
 30
0.0
 10
47.18163570580006
 20
16.35465678330001
 30
0.0
 10
47.08869359490003
 20
16.37668168770005
 30
0.0
1001
ACAD
1000
RTMaterial
1005
0
  0
SPLINE
  5
61963
330
1F
100
AcDbEntity
  8
1
100
AcDbSpline
210
0.0
220
0.0
230
1.0
 70
     8
 71
     3
 72
     9
 73
     5
 74
     0
 42
0.0000000001
 43
0.0000000001
 40
0.0
 40
0.0
 40
0.0
 40
0.0
 40
0.2485144324
 40
1.0
 40
1.0
 40
1.0
 40
1.0
 10
35.67285567700009
 20
23.41110202620007
 30
0.0
 10
35.66565956030007
 20
23.43197385529999
 30
0.0
 10
35.63869749410009
 20
23.51663411459998
 30
0.0
 10
35.62000185680012
 20
23.60393161540003
 30
0.0
 10
35.61086372090012
 20
23.67006373750002
 30
0.0
1001
ACAD
1000
RTMaterial
1005
0
  0
SPLINE
  5
61964
330
1F
100
AcDbEntity
  8
1
100
AcDbSpline
210
0.0
220
0.0
230
1.0
 70
     8
 71
     3
 72
     9
 73
     5
 74
     0
 42
0.0000000001
 43
0.0000000001
 40
0.0
 40
0.0
 40
0.0
 40
0.0
 40
0.2594039192
 40
1.0
 40
1.0
 40
1.0
 40
1.0
 10
40.53723186860008
 20
29.67460548910003
 30
0.0
 10
40.56118534870006
 20
29.70019896200006
 30
0.0
 10
40.65664349540009
 20
29.79588924940003
 30
0.0
 10
40.76415774130004
 20
29.87961161560008
 30
0.0
 10
40.84884130670007
 20
29.93294618260006
 30
0.0
1001
ACAD
1000
RTMaterial
1005
0
  0
SPLINE
  5
61965
330
1F
100
AcDbEntity
  8
1
100
AcDbSpline
210
0.0
220
0.0
230
1.0
 70
     8
 71
     3
 72
     9
 73
     5
 74
     0
 42
0.0000000001
 43
0.0000000001
 40
0.0
 40
0.0
 40
0.0
 40
0.0
 40
0.2436363991
 40
1.0
 40
1.0
 40
1.0
 40
1.0
 10
40.87656657530004
 20
29.9503779442
 30
0.0
 10
40.96517849750006
 20
30.00599098290002
 30
0.0
 10
41.33090718400007
 20
30.23101386840006
 30
0.0
 10
41.70503022940005
 20
30.44239388380004
 30
0.0
 10
41.99209441640005
 20
30.59430997350001
 30
0.0
1001
ACAD
1000
RTMaterial
1005
0
  0
LINE
  5
61966
330
1F
100
AcDbEntity
  8
1
100
AcDbLine
 10
40.8488415718001
 20
29.93294575230004
 30
0.0
 11
40.87656714840011
 21
29.95037701060005
 31
0.0
1001
ACAD
1000
RTMaterial
1005
0
  0
SPLINE
  5
61967
330
1F
100
AcDbEntity
  8
1
100
AcDbSpline
210
0.0
220
0.0
230
1.0
 70
     8
 71
     3
 72
     9
 73
     5
 74
     0
 42
0.0000000001
 43
0.0000000001
 40
0.0
 40
0.0
 40
0.0
 40
0.0
 40
0.2435088423
 40
1.0
 40
1.0
 40
1.0
 40
1.0
 10
40.24436609570005
 20
18.06097427110001
 30
0.0
 10
40.15026151060005
 20
18.11143299960003
 30
0.0
 10
39.76562405420009
 20
18.32201558410003
 30
0.0
 10
39.38868685930009
 20
18.54666170180002
 30
0.0
 10
39.10840824270008
 20
18.72409830320004
 30
0.0
1001
ACAD
1000
RTMaterial
1005
0
  0
LINE
  5
61968
330
1F
100
AcDbEntity
  8
1
100
AcDbLine
 10
40.27380762730007
 20
18.04521954720002
 30
0.0
 11
40.24436661430008
 21
18.06097523630007
 31
0.0
1001
ACAD
1000
RTMaterial
1005
0
  0
SPLINE
  5
61969
330
1F
100
AcDbEntity
  8
1
100
AcDbSpline
210
0.0
220
0.0
230
1.0
 70
     8
 71
     3
 72
     9
 73
     5
 74
     0
 42
0.0000000001
 43
0.0000000001
 40
0.0
 40
0.0
 40
0.0
 40
0.0
 40
0.2574460055999999
 40
1.0
 40
1.0
 40
1.0
 40
1.0
 10
40.65518922360007
 20
17.90125727920002
 30
0.0
 10
40.62109568350007
 20
17.90933657720001
 30
0.0
 10
40.48972424520008
 20
17.9450336104
 30
0.0
 10
40.3629484329001
 20
17.99760664169997
 30
0.0
 10
40.27380740500007
 20
18.0452191315
 30
0.0
1001
ACAD
1000
RTMaterial
1005
0
  0
SPLINE
  5
6196A
330
1F
100
AcDbEntity
  8
1
100
AcDbSpline
210
0.0
220
0.0
230
1.0
 70
     8
 71
     3
 72
     8
 73
     4
 74
     0
 42
0.0000000001
 43
0.0000000001
 40
0.0
 40
0.0
 40
0.0
 40
0.0
 40
1.0
 40
1.0
 40
1.0
 40
1.0
 10
39.10840893850008
 20
18.72409940239998
 30
0.0
 10
39.10123127690008
 20
18.72864338030001
 30
0.0
 10
39.09412964370006
 20
18.73330975070001
 30
0.0
 10
39.08711045230007
 20
18.73809488530003
 30
0.0
1001
ACAD
1000
RTMaterial
1005
0
  0
SPLINE
  5
6196B
330
1F
100
AcDbEntity
  8
1
100
AcDbSpline
210
0.0
220
0.0
230
1.0
 70
     8
 71
     3
 72
     9
 73
     5
 74
     0
 42
0.0000000001
 43
0.0000000001
 40
0.0
 40
0.0
 40
0.0
 40
0.0
 40
0.2483068227
 40
1.0
 40
1.0
 40
1.0
 40
1.0
 10
49.28784181520004
 20
14.00618125080001
 30
0.0
 10
49.30508995870005
 20
13.97698853989999
 30
0.0
 10
49.37487862950004
 20
13.85961405120002
 30
0.0
 10
49.44593741110006
 20
13.7429955874
 30
0.0
 10
49.50000000000002
 20
13.65573928860004
 30
0.0
1001
ACAD
1000
RTMaterial
1005
0
  0
SPLINE
  5
6196C
330
1F
100
AcDbEntity
  8
1
100
AcDbSpline
210
0.0
220
0.0
230
1.0
 70
     8
 71
     3
 72
     9
 73
     5
 74
     0
 42
0.0000000001
 43
0.0000000001
 40
0.0
 40
0.0
 40
0.0
 40
0.0
 40
0.4790550097
 40
1.0
 40
1.0
 40
1.0
 40
1.0
 10
47.88470526600005
 20
14.53734879660004
 30
0.0
 10
48.10720960440002
 20
14.44851029080001
 30
0.0
 10
48.57383981340004
 20
14.26848644520004
 30
0.0
 10
49.04300161810002
 20
14.09523835900001
 30
0.0
 10
49.28784181520004
 20
14.00618125080001
 30
0.0
1001
ACAD
1000
RTMaterial
1005
0
  0
SPLINE
  5
6196D
330
1F
100
AcDbEntity
  8
1
100
AcDbSpline
210
0.0
220
0.0
230
1.0
 70
     8
 71
     3
 72
    19
 73
    15
 74
     0
 42
0.0000000001
 43
0.0000000001
 40
0.0
 40
0.0
 40
0.0
 40
0.0
 40
0.2294098325
 40
0.4296828715000001
 40
0.6002902329
 40
0.7409079897
 40
0.7998923373000002
 40
0.8512852670999999
 40
0.8950551083
 40
0.9311717190000001
 40
0.9596129952
 40
0.9803839704999999
 40
0.9935949436999999
 40
1.0
 40
1.0
 40
1.0
 40
1.0
 10
39.19573630650006
 20
30.12254678940002
 30
0.0
 10
39.13568782200008
 20
30.12803254330004
 30
0.0
 10
39.02328802660008
 20
30.13910231760002
 30
0.0
 10
38.86650833180011
 20
30.15690904209999
 30
0.0
 10
38.73317176410007
 20
30.17415955110005
 30
0.0
 10
38.6368907530001
 20
30.18831113440007
 30
0.0
 10
38.57179958030008
 20
30.19904952300004
 30
0.0
 10
38.53191005910009
 20
30.20619278120006
 30
0.0
 10
38.4980669273001
 20
30.21283824300002
 30
0.0
 10
38.4702136717001
 20
30.21901021190001
 30
0.0
 10
38.44859895450009
 20
30.22447657590004
 30
0.0
 10
38.43265793890009
 20
30.22963198709999
 30
0.0
 10
38.42342301510007
 20
30.23341896530002
 30
0.0
 10
38.41855914550007
 20
30.23722150320003
 30
0.0
 10
38.41855714410008
 20
30.23890501980003
 30
0.0
1001
ACAD
1000
RTMaterial
1005
0
  0
SPLINE
  5
6196E
330
1F
100
AcDbEntity
  8
1
100
AcDbSpline
210
0.0
220
0.0
230
1.0
 70
     8
 71
     3
 72
    11
 73
     7
 74
     0
 42
0.0000000001
 43
0.0000000001
 40
0.0
 40
0.0
 40
0.0
 40
0.0
 40
0.2754191486
 40
0.5365707320000001
 40
0.779544488
 40
1.0
 40
1.0
 40
1.0
 40
1.0
 10
18.89019830540007
 20
22.03573692000003
 30
0.0
 10
18.74535755060003
 20
22.13200502970005
 30
0.0
 10
18.47044738360011
 20
22.33083684590008
 30
0.0
 10
18.09814128770011
 20
22.6540111274
 30
0.0
 10
17.78498456520009
 20
22.98876300950007
 30
0.0
 10
17.61360933120005
 20
23.22769814770004
 30
0.0
 10
17.54337913010005
 20
23.3478918893
 30
0.0
1001
ACAD
1000
RTMaterial
1005
0
  0
SPLINE
  5
6196F
330
1F
100
AcDbEntity
  8
1
100
AcDbSpline
210
0.0
220
0.0
230
1.0
 70
     8
 71
     3
 72
     9
 73
     5
 74
     0
 42
0.0000000001
 43
0.0000000001
 40
0.0
 40
0.0
 40
0.0
 40
0.0
 40
0.2535284266
 40
1.0
 40
1.0
 40
1.0
 40
1.0
 10
19.3622081914001
 20
21.75122430990001
 30
0.0
 10
19.32132346910009
 20
21.77355072850003
 30
0.0
 10
19.16098900580005
 20
21.86329941389999
 30
0.0
 10
19.00442652640009
 20
21.95981536830004
 30
0.0
 10
18.89019830540007
 20
22.03573692000003
 30
0.0
1001
ACAD
1000
RTMaterial
1005
0
  0
SPLINE
  5
61970
330
1F
100
AcDbEntity
  8
1
100
AcDbSpline
210
0.0
220
0.0
230
1.0
 70
     8
 71
     3
 72
    15
 73
    11
 74
     0
 42
0.0000000001
 43
0.0000000001
 40
0.0
 40
0.0
 40
0.0
 40
0.0
 40
0.108664629
 40
0.2191072707
 40
0.3339104594
 40
0.4548143429
 40
0.5825103093
 40
0.716710648
 40
0.8563872379000001
 40
1.0
 40
1.0
 40
1.0
 40
1.0
 10
39.78146575420004
 20
16.61585452520006
 30
0.0
 10
39.67916755730011
 20
16.53344711390002
 30
0.0
 10
39.46024670440005
 20
16.38227088120004
 30
0.0
 10
39.09630038510005
 20
16.20458696489999
 30
0.0
 10
38.69778810550008
 20
16.07337715520003
 30
0.0
 10
38.26701120500008
 20
15.98365020550005
 30
0.0
 10
37.80708615900005
 20
15.92884033860002
 30
0.0
 10
37.32213781330006
 20
15.90216931160006
 30
0.0
 10
36.81734753400008
 20
15.89750273250001
 30
0.0
 10
36.47492890460006
 20
15.9057662303
 30
0.0
 10
36.30144205220006
 20
15.91229282410006
 30
0.0
1001
ACAD
1000
RTMaterial
1005
0
  0
SPLINE
  5
61971
330
1F
100
AcDbEntity
  8
1
100
AcDbSpline
210
0.0
220
0.0
230
1.0
 70
     8
 71
     3
 72
     9
 73
     5
 74
     0
 42
0.0000000001
 43
0.0000000001
 40
0.0
 40
0.0
 40
0.0
 40
0.0
 40
0.2663846439
 40
1.0
 40
1.0
 40
1.0
 40
1.0
 10
46.87867034600006
 20
16.03775767500002
 30
0.0
 10
46.87604857560003
 20
16.02812035139999
 30
0.0
 10
46.86645851050005
 20
15.99187520770005
 30
0.0
 10
46.85775081290009
 20
15.95538789870005
 30
0.0
 10
46.85215206970005
 20
15.92845825099999
 30
0.0
1001
ACAD
1000
RTMaterial
1005
0
  0
SPLINE
  5
61972
330
1F
100
AcDbEntity
  8
1
100
AcDbSpline
210
0.0
220
0.0
230
1.0
 70
     8
 71
     3
 72
     8
 73
     4
 74
     0
 42
0.0000000001
 43
0.0000000001
 40
0.0
 40
0.0
 40
0.0
 40
0.0
 40
1.0
 40
1.0
 40
1.0
 40
1.0
 10
46.92260601630002
 20
16.19607573429999
 30
0.0
 10
46.90769232730005
 20
16.14337828760006
 30
0.0
 10
46.89304689140008
 20
16.09060418810009
 30
0.0
 10
46.87867034600006
 20
16.03775767500002
 30
0.0
1001
ACAD
1000
RTMaterial
1005
0
  0
SPLINE
  5
61973
330
1F
100
AcDbEntity
  8
1
100
AcDbSpline
210
0.0
220
0.0
230
1.0
 70
     8
 71
     3
 72
    14
 73
    10
 74
     0
 42
0.0000000001
 43
0.0000000001
 40
0.0
 40
0.0
 40
0.0
 40
0.0
 40
0.3285762857
 40
0.4733522489000001
 40
0.6047093581000001
 40
0.7226067757
 40
0.8272444784000001
 40
0.9192812264
 40
1.0
 40
1.0
 40
1.0
 40
1.0
 10
47.27232055980008
 20
15.82959871400004
 30
0.0
 10
47.2547349813
 20
15.69910307590004
 30
0.0
 10
47.23524521950006
 20
15.51013996
 30
0.0
 10
47.22714657360003
 20
15.26785931880005
 30
0.0
 10
47.23034408480006
 20
15.10989212580006
 30
0.0
 10
47.24249679270005
 20
14.96847086970001
 30
0.0
 10
47.26373388230004
 20
14.84401035200005
 30
0.0
 10
47.29419644260005
 20
14.73684912819999
 30
0.0
 10
47.32258512660004
 20
14.67328076020004
 30
0.0
 10
47.33866657070004
 20
14.64521376900001
 30
0.0
1001
ACAD
1000
RTMaterial
1005
0
  0
LINE
  5
61974
330
1F
100
AcDbEntity
  8
1
100
AcDbLine
 10
38.53625622890007
 20
18.25522186970005
 30
0.0
 11
38.53493412690006
 21
18.25830277220001
 31
0.0
1001
ACAD
1000
RTMaterial
1005
0
  0
SPLINE
  5
61975
330
1F
100
AcDbEntity
  8
1
100
AcDbSpline
210
0.0
220
0.0
230
1.0
 70
     8
 71
     3
 72
     9
 73
     5
 74
     0
 42
0.0000000001
 43
0.0000000001
 40
0.0
 40
0.0
 40
0.0
 40
0.0
 40
0.2294411019
 40
1.0
 40
1.0
 40
1.0
 40
1.0
 10
40.40486192340006
 20
17.43218440590004
 30
0.0
 10
40.42212926290011
 20
17.43713611590004
 30
0.0
 10
40.49681732940007
 20
17.46064726080004
 30
0.0
 10
40.5690582868001
 20
17.49202729380005
 30
0.0
 10
40.62227448560008
 20
17.52044449980002
 30
0.0
1001
ACAD
1000
RTMaterial
1005
0
  0
SPLINE
  5
61976
330
1F
100
AcDbEntity
  8
1
100
AcDbSpline
210
0.0
220
0.0
230
1.0
 70
     8
 71
     3
 72
    11
 73
     7
 74
     0
 42
0.0000000001
 43
0.0000000001
 40
0.0
 40
0.0
 40
0.0
 40
0.0
 40
0.2704912889
 40
0.5192772116
 40
0.7574418550000001
 40
1.0
 40
1.0
 40
1.0
 40
1.0
 10
38.76618038260005
 20
18.13572895279998
 30
0.0
 10
38.73645220140009
 20
18.17622390120004
 30
0.0
 10
38.68268480600006
 20
18.2566047647
 30
0.0
 10
38.6235789823001
 20
18.38521195980007
 30
0.0
 10
38.59551893870008
 20
18.51911092980003
 30
0.0
 10
38.60033067040007
 20
18.6094142554
 30
0.0
 10
38.60807861910007
 20
18.65379072550007
 30
0.0
1001
ACAD
1000
RTMaterial
1005
0
  0
LINE
  5
61977
330
1F
100
AcDbEntity
  8
1
100
AcDbLine
 10
38.63503040480009
 20
18.06861809440005
 30
0.0
 11
38.63317045590008
 21
18.07464695160007
 31
0.0
1001
ACAD
1000
RTMaterial
1005
0
  0
LINE
  5
61978
330
1F
100
AcDbEntity
  8
1
100
AcDbLine
 10
38.63317045590008
 20
18.07464695160007
 30
0.0
 11
38.63115919600005
 21
18.08127867080003
 31
0.0
1001
ACAD
1000
RTMaterial
1005
0
  0
SPLINE
  5
61979
330
1F
100
AcDbEntity
  8
1
100
AcDbSpline
210
0.0
220
0.0
230
1.0
 70
     8
 71
     3
 72
    11
 73
     7
 74
     0
 42
0.0000000001
 43
0.0000000001
 40
0.0
 40
0.0
 40
0.0
 40
0.0
 40
0.2753440115
 40
0.5400961444
 40
0.7868094090000001
 40
1.0
 40
1.0
 40
1.0
 40
1.0
 10
38.63115919600005
 20
18.08127867080003
 30
0.0
 10
38.61645537810005
 20
18.13020227390001
 30
0.0
 10
38.59290524460011
 20
18.22785729980006
 30
0.0
 10
38.57471055550007
 20
18.37299409600001
 30
0.0
 10
38.57266995420008
 20
18.50767554810005
 30
0.0
 10
38.58048844960007
 20
18.59285311330001
 30
0.0
 10
38.58658685850008
 20
18.63193407340003
 30
0.0
1001
ACAD
1000
RTMaterial
1005
0
  0
SPLINE
  5
6197A
330
1F
100
AcDbEntity
  8
1
100
AcDbSpline
210
0.0
220
0.0
230
1.0
 70
     8
 71
     3
 72
     8
 73
     4
 74
     0
 42
0.0000000001
 43
0.0000000001
 40
0.0
 40
0.0
 40
0.0
 40
0.0
 40
1.0
 40
1.0
 40
1.0
 40
1.0
 10
38.48801704350007
 20
18.29605767650003
 30
0.0
 10
38.4967438677001
 20
18.27954577240001
 30
0.0
 10
38.50576743030007
 20
18.26318728150005
 30
0.0
 10
38.51508084440008
 20
18.24699899080002
 30
0.0
1001
ACAD
1000
RTMaterial
1005
0
  0
SPLINE
  5
6197B
330
1F
100
AcDbEntity
  8
1
100
AcDbSpline
210
0.0
220
0.0
230
1.0
 70
     8
 71
     3
 72
     9
 73
     5
 74
     0
 42
0.0000000001
 43
0.0000000001
 40
0.0
 40
0.0
 40
0.0
 40
0.0
 40
0.2488626728
 40
1.0
 40
1.0
 40
1.0
 40
1.0
 10
38.51508084440008
 20
18.24699899080002
 30
0.0
 10
38.52338972820007
 20
18.23255674390003
 30
0.0
 10
38.55770490710006
 20
18.17506309340007
 30
0.0
 10
38.59575611390005
 20
18.11979416820003
 30
0.0
 10
38.62630616640007
 20
18.07984693970002
 30
0.0
1001
ACAD
1000
RTMaterial
1005
0
  0
SPLINE
  5
6197C
330
1F
100
AcDbEntity
  8
1
100
AcDbSpline
210
0.0
220
0.0
230
1.0
 70
     8
 71
     3
 72
    23
 73
    19
 74
     0
 42
0.0000000001
 43
0.0000000001
 40
0.0
 40
0.0
 40
0.0
 40
0.0
 40
0.0625021665
 40
0.1250040783
 40
0.1875055427
 40
0.2500064828
 40
0.3125068889
 40
0.3750069828
 40
0.4375063412
 40
0.5000055052
 40
0.5625040261
 40
0.6250028713
 40
0.687501391
 40
0.7500004001000001
 40
0.8124992364
 40
0.8749990265999999
 40
0.9374985589999999
 40
1.0
 40
1.0
 40
1.0
 40
1.0
 10
34.89948800700012
 20
23.28393415230005
 30
0.0
 10
34.85971234400006
 20
23.33048681310009
 30
0.0
 10
34.78670999910008
 20
23.42943313020004
 30
0.0
 10
34.69976891250008
 20
23.59193228650003
 30
0.0
 10
34.63689888830004
 20
23.76521621880005
 30
0.0
 10
34.59974219140008
 20
23.94576207820001
 30
0.0
 10
34.58893969830007
 20
24.12978239980004
 30
0.0
 10
34.60510246040008
 20
24.31341431870004
 30
0.0
 10
34.64778170200009
 20
24.49275303880006
 30
0.0
 10
34.71642526670007
 20
24.66384979169999
 30
0.0
 10
34.80944474230006
 20
24.82301897940005
 30
0.0
 10
34.92506411300008
 20
24.96662003490002
 30
0.0
 10
35.06063024490004
 20
25.09156564230006
 30
0.0
 10
35.21327931900004
 20
25.19494997770005
 30
0.0
 10
35.37952512400006
 20
25.27464243989999
 30
0.0
 10
35.55575653080007
 20
25.32880392840008
 30
0.0
 10
35.73798921570006
 20
25.35649385880009
 30
0.0
 10
35.86096818520008
 20
25.35686881779998
 30
0.0
 10
35.92205008510007
 20
25.35260641820002
 30
0.0
1001
ACAD
1000
RTMaterial
1005
0
  0
SPLINE
  5
6197D
330
1F
100
AcDbEntity
  8
1
100
AcDbSpline
210
0.0
220
0.0
230
1.0
 70
     8
 71
     3
 72
    12
 73
     8
 74
     0
 42
0.0000000001
 43
0.0000000001
 40
0.0
 40
0.0
 40
0.0
 40
0.0
 40
0.0628634514
 40
0.1453449721
 40
0.3677502029
 40
0.6590457813000001
 40
1.0
 40
1.0
 40
1.0
 40
1.0
 10
38.53960259820008
 20
30.24999993550006
 30
0.0
 10
38.5743815396001
 20
30.24999983050003
 30
0.0
 10
38.65478998440006
 20
30.24870191700006
 30
0.0
 10
38.85816358170007
 20
30.24293263650003
 30
0.0
 10
39.18779101920006
 20
30.23114178180004
 30
0.0
 10
39.6604235823001
 20
30.21716609230003
 30
0.0
 10
40.01017983410008
 20
30.21125743310006
 30
0.0
 10
40.19880382560006
 20
30.2095749893
 30
0.0
1001
ACAD
1000
RTMaterial
1005
0
  0
SPLINE
  5
6197E
330
1F
100
AcDbEntity
  8
1
100
AcDbSpline
210
0.0
220
0.0
230
1.0
 70
     8
 71
     3
 72
    11
 73
     7
 74
     0
 42
0.0000000001
 43
0.0000000001
 40
0.0
 40
0.0
 40
0.0
 40
0.0
 40
0.2409967076
 40
0.4871140053
 40
0.7397359713
 40
1.0
 40
1.0
 40
1.0
 40
1.0
 10
19.3622081914001
 20
21.75122430990001
 30
0.0
 10
19.48967621590009
 20
21.51309089020003
 30
0.0
 10
19.77150144070009
 20
21.04428463110003
 30
0.0
 10
20.26796190270011
 20
20.37862230880006
 30
0.0
 10
20.84324123790009
 20
19.75008292929999
 30
0.0
 10
21.27318105030008
 20
19.36675908709998
 30
0.0
 10
21.50042861100008
 20
19.18387697620005
 30
0.0
1001
ACAD
1000
RTMaterial
1005
0
  0
SPLINE
  5
6197F
330
1F
100
AcDbEntity
  8
1
100
AcDbSpline
210
0.0
220
0.0
230
1.0
 70
     8
 71
     3
 72
    11
 73
     7
 74
     0
 42
0.0000000001
 43
0.0000000001
 40
0.0
 40
0.0
 40
0.0
 40
0.0
 40
0.2456790344
 40
0.4941322282
 40
0.7456485544
 40
1.0
 40
1.0
 40
1.0
 40
1.0
 10
21.50042861100008
 20
19.18387697620005
 30
0.0
 10
22.00236377190009
 20
18.77993441470005
 30
0.0
 10
23.07490149370005
 20
18.04251639250003
 30
0.0
 10
24.84021421030008
 20
17.18504918860003
 30
0.0
 10
26.7357156993001
 20
16.59438673380009
 30
0.0
 10
28.05301920330004
 20
16.39332667020005
 30
0.0
 10
28.71810192660007
 20
16.34236406640002
 30
0.0
1001
ACAD
1000
RTMaterial
1005
0
  0
SPLINE
  5
61980
330
1F
100
AcDbEntity
  8
1
100
AcDbSpline
210
0.0
220
0.0
230
1.0
 70
     8
 71
     3
 72
    27
 73
    23
 74
     0
 42
0.0000000001
 43
0.0000000001
 40
0.0
 40
0.0
 40
0.0
 40
0.0
 40
0.1596040925
 40
0.3189890024
 40
0.3977190172
 40
0.475103307
 40
0.5503366054
 40
0.6222188941
 40
0.6889225903
 40
0.7195485112000001
 40
0.7478384014000001
 40
0.7734129381999999
 40
0.7960210914000001
 40
0.8157251137999999
 40
0.8331124351000001
 40
0.8493493842000001
 40
0.8658310139000001
 40
0.8836260126999999
 40
0.9032590974999999
 40
0.9248468597
 40
0.9482930657999999
 40
1.0
 40
1.0
 40
1.0
 40
1.0
 10
36.30144205220006
 20
15.91229282410006
 30
0.0
 10
36.15443551970009
 20
15.91782322560004
 30
0.0
 10
35.86074419950012
 20
15.93225752410006
 30
0.0
 10
35.49506651930011
 20
15.95869356780002
 30
0.0
 10
35.20556442820009
 20
15.98630988460002
 30
0.0
 10
34.99371081600009
 20
16.0107093954
 30
0.0
 10
34.78879333790008
 20
16.03974093020008
 30
0.0
 10
34.59478261950011
 20
16.07465921330003
 30
0.0
 10
34.44290106460005
 20
16.11088061980007
 30
0.0
 10
34.33249273970006
 20
16.14595288880008
 30
0.0
 10
34.25990556610009
 20
16.17436799650005
 30
0.0
 10
34.19671749920008
 20
16.20589240440006
 30
0.0
 10
34.14449996570011
 20
16.24078561520008
 30
0.0
 10
34.10466649110009
 20
16.27934526470005
 30
0.0
 10
34.07865639890008
 20
16.32186565830005
 30
0.0
 10
34.06791351920009
 20
16.36763202910003
 30
0.0
 10
34.07207453240005
 20
16.41466568410004
 30
0.0
 10
34.08890310980007
 20
16.46182526480004
 30
0.0
 10
34.11631647870007
 20
16.50905072310007
 30
0.0
 10
34.15274551750008
 20
16.55637872830005
 30
0.0
 10
34.21360296370006
 20
16.62166893930004
 30
0.0
 10
34.26605659850009
 20
16.66720556950008
 30
0.0
 10
34.30317200090008
 20
16.69710313840005
 30
0.0
1001
ACAD
1000
RTMaterial
1005
0
  0
SPLINE
  5
61981
330
1F
100
AcDbEntity
  8
1
100
AcDbSpline
210
0.0
220
0.0
230
1.0
 70
     8
 71
     3
 72
     9
 73
     5
 74
     0
 42
0.0000000001
 43
0.0000000001
 40
0.0
 40
0.0
 40
0.0
 40
0.0
 40
0.2496376967
 40
1.0
 40
1.0
 40
1.0
 40
1.0
 10
42.41585227300006
 20
16.97074096779999
 30
0.0
 10
42.25495806520004
 20
17.00779574900002
 30
0.0
 10
41.61046013720002
 20
17.15628615790001
 30
0.0
 10
40.96601064960009
 20
17.30498678700007
 30
0.0
 10
40.48246318910009
 20
17.4166662742
 30
0.0
1001
ACAD
1000
RTMaterial
1005
0
  0
LINE
  5
61982
330
1F
100
AcDbEntity
  8
1
100
AcDbLine
 10
29.0036098129001
 20
16.32294889550002
 30
0.0
 11
42.33050383470001
 21
15.53103163010002
 31
0.0
1001
ACAD
1000
RTMaterial
1005
0
  0
SPLINE
  5
61983
330
1F
100
AcDbEntity
  8
1
100
AcDbSpline
210
0.0
220
0.0
230
1.0
 70
     8
 71
     3
 72
     9
 73
     5
 74
     0
 42
0.0000000001
 43
0.0000000001
 40
0.0
 40
0.0
 40
0.0
 40
0.0
 40
0.2495087952
 40
1.0
 40
1.0
 40
1.0
 40
1.0
 10
28.71810192660007
 20
16.34236406640002
 30
0.0
 10
28.74183293970003
 20
16.34054565460002
 30
0.0
 10
28.83695945300008
 20
16.33346249160007
 30
0.0
 10
28.93214670870009
 20
16.32719542550006
 30
0.0
 10
29.0036098129001
 20
16.32294889550002
 30
0.0
1001
ACAD
1000
RTMaterial
1005
0
  0
SPLINE
  5
61984
330
1F
100
AcDbEntity
  8
1
100
AcDbSpline
210
0.0
220
0.0
230
1.0
 70
     8
 71
     3
 72
     9
 73
     5
 74
     0
 42
0.0000000001
 43
0.0000000001
 40
0.0
 40
0.0
 40
0.0
 40
0.0
 40
0.4998839120000001
 40
1.0
 40
1.0
 40
1.0
 40
1.0
 10
38.31373294290012
 20
19.0604320585
 30
0.0
 10
37.8812330336001
 20
19.61700310190002
 30
0.0
 10
37.02873012350006
 20
20.74029852190006
 30
0.0
 10
36.19918967950008
 20
21.88067950779998
 30
0.0
 10
35.79156183490005
 20
22.45611730460002
 30
0.0
1001
ACAD
1000
RTMaterial
1005
0
  0
SPLINE
  5
61985
330
1F
100
AcDbEntity
  8
1
100
AcDbSpline
210
0.0
220
0.0
230
1.0
 70
     8
 71
     3
 72
     9
 73
     5
 74
     0
 42
0.0000000001
 43
0.0000000001
 40
0.0
 40
0.0
 40
0.0
 40
0.0
 40
0.2508477107
 40
1.0
 40
1.0
 40
1.0
 40
1.0
 10
43.21343877460006
 20
16.78505038740002
 30
0.0
 10
43.14678663300006
 20
16.80074285750004
 30
0.0
 10
42.88103863140006
 20
16.86312891340003
 30
0.0
 10
42.61513355350004
 20
16.92484544209998
 30
0.0
 10
42.41585227300006
 20
16.97074096779999
 30
0.0
1001
ACAD
1000
RTMaterial
1005
0
  0
SPLINE
  5
61986
330
1F
100
AcDbEntity
  8
1
100
AcDbSpline
210
0.0
220
0.0
230
1.0
 70
     8
 71
     3
 72
     9
 73
     5
 74
     0
 42
0.0000000001
 43
0.0000000001
 40
0.0
 40
0.0
 40
0.0
 40
0.0
 40
0.2506456053
 40
1.0
 40
1.0
 40
1.0
 40
1.0
 10
42.44953777230003
 20
15.52375356499999
 30
0.0
 10
42.52130866770008
 20
15.51924249250004
 30
0.0
 10
42.80743979150005
 20
15.49798265020007
 30
0.0
 10
43.09259878710006
 20
15.46378582450006
 30
0.0
 10
43.30510934570006
 20
15.43118485000002
 30
0.0
1001
ACAD
1000
RTMaterial
1005
0
  0
LINE
  5
61987
330
1F
100
AcDbEntity
  8
1
100
AcDbLine
 10
42.33050383470001
 20
15.53103163010002
 30
0.0
 11
42.44953777230003
 21
15.52375356499999
 31
0.0
1001
ACAD
1000
RTMaterial
1005
0
  0
LINE
  5
61988
330
1F
100
AcDbEntity
  8
1
100
AcDbLine
 10
47.27232055980008
 20
15.82959871400004
 30
0.0
 11
43.21343877460006
 21
16.78505038740002
 31
0.0
1001
ACAD
1000
RTMaterial
1005
0
  0
LINE
  5
61989
330
1F
100
AcDbEntity
  8
1
100
AcDbLine
 10
43.83305254030003
 20
15.33860411150004
 30
0.0
 11
47.88470526600005
 21
14.53734879660004
 31
0.0
1001
ACAD
1000
RTMaterial
1005
0
  0
SPLINE
  5
6198A
330
1F
100
AcDbEntity
  8
1
100
AcDbSpline
210
0.0
220
0.0
230
1.0
 70
     8
 71
     3
 72
     9
 73
     5
 74
     0
 42
0.0000000001
 43
0.0000000001
 40
0.0
 40
0.0
 40
0.0
 40
0.0
 40
0.2492012895
 40
1.0
 40
1.0
 40
1.0
 40
1.0
 10
43.30510934570006
 20
15.43118485000002
 30
0.0
 10
43.34912029670002
 20
15.42443318599999
 30
0.0
 10
43.52558540690004
 20
15.39641739630008
 30
0.0
 10
43.70145293270005
 20
15.36462928430001
 30
0.0
 10
43.83305254030003
 20
15.33860411150004
 30
0.0
1001
ACAD
1000
RTMaterial
1005
0
  0
SPLINE
  5
6198B
330
1F
100
AcDbEntity
  8
1
100
AcDbSpline
210
0.0
220
0.0
230
1.0
 70
     8
 71
     3
 72
     9
 73
     5
 74
     0
 42
0.0000000001
 43
0.0000000001
 40
0.0
 40
0.0
 40
0.0
 40
0.0
 40
0.2557125182
 40
1.0
 40
1.0
 40
1.0
 40
1.0
 10
34.96329949200009
 20
23.61765054690005
 30
0.0
 10
34.95552674900006
 20
23.61990550730007
 30
0.0
 10
34.9252107462001
 20
23.62899896380008
 30
0.0
 10
34.89521616010006
 20
23.63916186450007
 30
0.0
 10
34.87311036190005
 20
23.64730078680003
 30
0.0
1001
ACAD
1000
RTMaterial
1005
0
  0
SPLINE
  5
6198C
330
1F
100
AcDbEntity
  8
1
100
AcDbSpline
210
0.0
220
0.0
230
1.0
 70
     8
 71
     3
 72
     9
 73
     5
 74
     0
 42
0.0000000001
 43
0.0000000001
 40
0.0
 40
0.0
 40
0.0
 40
0.0
 40
0.2479499989
 40
1.0
 40
1.0
 40
1.0
 40
1.0
 10
35.0273912441001
 20
23.60038271460002
 30
0.0
 10
35.02206747290012
 20
23.60170805910008
 30
0.0
 10
35.00062188390007
 20
23.60715540050006
 30
0.0
 10
34.97928077320006
 20
23.61301419690005
 30
0.0
 10
34.96329949200009
 20
23.61765054690005
 30
0.0
1001
ACAD
1000
RTMaterial
1005
0
  0
SPLINE
  5
6198D
330
1F
100
AcDbEntity
  8
1
100
AcDbSpline
210
0.0
220
0.0
230
1.0
 70
     8
 71
     3
 72
    10
 73
     6
 74
     0
 42
0.0000000001
 43
0.0000000001
 40
0.0
 40
0.0
 40
0.0
 40
0.0
 40
0.4447066560000001
 40
0.6984267707999999
 40
1.0
 40
1.0
 40
1.0
 40
1.0
 10
35.45826890030009
 20
22.90469564490002
 30
0.0
 10
35.35362629070011
 20
22.9787867307
 30
0.0
 10
35.19138823440005
 20
23.09823248480006
 30
0.0
 10
34.96655781850007
 20
23.27877419340007
 30
0.0
 10
34.84607430020009
 20
23.38439113819999
 30
0.0
 10
34.78285600010008
 20
23.44408674499999
 30
0.0
1001
ACAD
1000
RTMaterial
1005
0
  0
SPLINE
  5
6198E
330
1F
100
AcDbEntity
  8
1
100
AcDbSpline
210
0.0
220
0.0
230
1.0
 70
     8
 71
     3
 72
     9
 73
     5
 74
     0
 42
0.0000000001
 43
0.0000000001
 40
0.0
 40
0.0
 40
0.0
 40
0.0
 40
0.2552963695
 40
1.0
 40
1.0
 40
1.0
 40
1.0
 10
34.73171734130005
 20
23.72021933029998
 30
0.0
 10
34.72214620770007
 20
23.72671273260005
 30
0.0
 10
34.68543533250011
 20
23.75326939540002
 30
0.0
 10
34.65202450530006
 20
23.78445217669997
 30
0.0
 10
34.6298702301001
 20
23.80989706209999
 30
0.0
1001
ACAD
1000
RTMaterial
1005
0
  0
SPLINE
  5
6198F
330
1F
100
AcDbEntity
  8
1
100
AcDbSpline
210
0.0
220
0.0
230
1.0
 70
     8
 71
     3
 72
     9
 73
     5
 74
     0
 42
0.0000000001
 43
0.0000000001
 40
0.0
 40
0.0
 40
0.0
 40
0.0
 40
0.2495934914
 40
1.0
 40
1.0
 40
1.0
 40
1.0
 10
34.87310497250007
 20
23.647281486
 30
0.0
 10
34.86066598230008
 20
23.65186025240001
 30
0.0
 10
34.81140329880003
 20
23.67174359099999
 30
0.0
 10
34.76469561930009
 20
23.69784634569999
 30
0.0
 10
34.73171734130005
 20
23.72021933029998
 30
0.0
1001
ACAD
1000
RTMaterial
1005
0
  0
SPLINE
  5
61990
330
1F
100
AcDbEntity
  8
1
100
AcDbSpline
210
0.0
220
0.0
230
1.0
 70
     8
 71
     3
 72
     9
 73
     5
 74
     0
 42
0.0000000001
 43
0.0000000001
 40
0.0
 40
0.0
 40
0.0
 40
0.0
 40
0.5486811882
 40
1.0
 40
1.0
 40
1.0
 40
1.0
 10
38.53493412690006
 20
18.25830277220001
 30
0.0
 10
38.48118882300008
 20
18.40080719540003
 30
0.0
 10
38.39936295600006
 20
18.66669008510001
 30
0.0
 10
38.33800094880007
 20
18.93752830120002
 30
0.0
 10
38.31373294290012
 20
19.0604320585
 30
0.0
1001
ACAD
1000
RTMaterial
1005
0
  0
SPLINE
  5
61991
330
1F
100
AcDbEntity
  8
1
100
AcDbSpline
210
0.0
220
0.0
230
1.0
 70
     8
 71
     3
 72
     8
 73
     4
 74
     0
 42
0.0000000001
 43
0.0000000001
 40
0.0
 40
0.0
 40
0.0
 40
0.0
 40
1.0
 40
1.0
 40
1.0
 40
1.0
 10
40.76146544420004
 20
17.60526915160005
 30
0.0
 10
40.82846476470007
 20
17.65149492790004
 30
0.0
 10
40.89185832090009
 20
17.70343464320001
 30
0.0
 10
40.95033969430011
 20
17.7600531942
 30
0.0
1001
ACAD
1000
RTMaterial
1005
0
  0
SPLINE
  5
61992
330
1F
100
AcDbEntity
  8
1
100
AcDbSpline
210
0.0
220
0.0
230
1.0
 70
     8
 71
     3
 72
     9
 73
     5
 74
     0
 42
0.0000000001
 43
0.0000000001
 40
0.0
 40
0.0
 40
0.0
 40
0.0
 40
0.2495208058
 40
1.0
 40
1.0
 40
1.0
 40
1.0
 10
40.62227448560008
 20
17.52044449980002
 30
0.0
 10
40.63423720530005
 20
17.52683253730004
 30
0.0
 10
40.68181322030006
 20
17.55311493730005
 30
0.0
 10
40.72789227010008
 20
17.58210554310005
 30
0.0
 10
40.76146544420004
 20
17.60526915160005
 30
0.0
1001
ACAD
1000
RTMaterial
1005
0
  0
SPLINE
  5
61993
330
1F
100
AcDbEntity
  8
1
100
AcDbSpline
210
0.0
220
0.0
230
1.0
 70
     8
 71
     3
 72
    11
 73
     7
 74
     0
 42
0.0000000001
 43
0.0000000001
 40
0.0
 40
0.0
 40
0.0
 40
0.0
 40
0.2592820613
 40
0.5128397195000001
 40
0.7581493322
 40
1.0
 40
1.0
 40
1.0
 40
1.0
 10
38.62630616640007
 20
18.07984693970002
 30
0.0
 10
38.70546415730007
 20
17.97634000300002
 30
0.0
 10
38.88975060180007
 20
17.79102628919997
 30
0.0
 10
39.22485866250008
 20
17.60026565419997
 30
0.0
 10
39.58981693160007
 20
17.50769273880007
 30
0.0
 10
39.83767875190006
 20
17.51069115360002
 30
0.0
 10
39.9581274694001
 20
17.52698397430004
 30
0.0
1001
ACAD
1000
RTMaterial
1005
0
  0
SPLINE
  5
61994
330
1F
100
AcDbEntity
  8
1
100
AcDbSpline
210
0.0
220
0.0
230
1.0
 70
     8
 71
     3
 72
     9
 73
     5
 74
     0
 42
0.0000000001
 43
0.0000000001
 40
0.0
 40
0.0
 40
0.0
 40
0.0
 40
0.2486526729
 40
1.0
 40
1.0
 40
1.0
 40
1.0
 10
40.19880382560006
 20
30.2095749893
 30
0.0
 10
40.21547327330006
 20
30.20942630510001
 30
0.0
 10
40.28247978350009
 20
30.2068439917
 30
0.0
 10
40.34917815920005
 20
30.1962275917
 30
0.0
 10
40.39800868930007
 20
30.18386306410008
 30
0.0
1001
ACAD
1000
RTMaterial
1005
0
  0
SPLINE
  5
61995
330
1F
100
AcDbEntity
  8
1
100
AcDbSpline
210
0.0
220
0.0
230
1.0
 70
     8
 71
     3
 72
     9
 73
     5
 74
     0
 42
0.0000000001
 43
0.0000000001
 40
0.0
 40
0.0
 40
0.0
 40
0.0
 40
0.251964637
 40
1.0
 40
1.0
 40
1.0
 40
1.0
 10
40.39800868930007
 20
30.18386306410008
 30
0.0
 10
40.42251892640007
 20
30.17765675220005
 30
0.0
 10
40.51981912330006
 20
30.15311874180003
 30
0.0
 10
40.61721155140008
 20
30.12894665750002
 30
0.0
 10
40.69011186320006
 20
30.11105903120006
 30
0.0
1001
ACAD
1000
RTMaterial
1005
0
  0
SPLINE
  5
61996
330
1F
100
AcDbEntity
  8
1
100
AcDbSpline
210
0.0
220
0.0
230
1.0
 70
     8
 71
     3
 72
     9
 73
     5
 74
     0
 42
0.0000000001
 43
0.0000000001
 40
0.0
 40
0.0
 40
0.0
 40
0.0
 40
0.255975389
 40
1.0
 40
1.0
 40
1.0
 40
1.0
 10
38.60807861910007
 20
18.65379072550007
 30
0.0
 10
38.60960350380003
 20
18.66252452140003
 30
0.0
 10
38.61613500350006
 20
18.6965397765
 30
0.0
 10
38.62502262840008
 20
18.73011545220004
 30
0.0
 10
38.63307621910008
 20
18.75459457210002
 30
0.0
1001
ACAD
1000
RTMaterial
1005
0
  0
SPLINE
  5
61997
330
1F
100
AcDbEntity
  8
1
100
AcDbSpline
210
0.0
220
0.0
230
1.0
 70
     8
 71
     3
 72
     9
 73
     5
 74
     0
 42
0.0000000001
 43
0.0000000001
 40
0.0
 40
0.0
 40
0.0
 40
0.0
 40
0.2527650134
 40
1.0
 40
1.0
 40
1.0
 40
1.0
 10
38.63307621910008
 20
18.75459457210002
 30
0.0
 10
38.6343849791001
 20
18.75857258569999
 30
0.0
 10
38.63971368140005
 20
18.77426040790004
 30
0.0
 10
38.64565219230008
 20
18.78974198160006
 30
0.0
 10
38.6504416895001
 20
18.80115806919997
 30
0.0
1001
ACAD
1000
RTMaterial
1005
0
  0
SPLINE
  5
61998
330
1F
100
AcDbEntity
  8
1
100
AcDbSpline
210
0.0
220
0.0
230
1.0
 70
     8
 71
     3
 72
     9
 73
     5
 74
     0
 42
0.0000000001
 43
0.0000000001
 40
0.0
 40
0.0
 40
0.0
 40
0.0
 40
0.2978919932
 40
1.0
 40
1.0
 40
1.0
 40
1.0
 10
38.71149328990009
 20
19.07432322830004
 30
0.0
 10
38.71080516620009
 20
19.07598055520003
 30
0.0
 10
38.70857344550007
 20
19.08157153220003
 30
0.0
 10
38.70659640020011
 20
19.08729569849998
 30
0.0
 10
38.70568974520006
 20
19.09142688460002
 30
0.0
1001
ACAD
1000
RTMaterial
1005
0
  0
SPLINE
  5
61999
330
1F
100
AcDbEntity
  8
1
100
AcDbSpline
210
0.0
220
0.0
230
1.0
 70
     8
 71
     3
 72
     9
 73
     5
 74
     0
 42
0.0000000001
 43
0.0000000001
 40
0.0
 40
0.0
 40
0.0
 40
0.0
 40
0.2603198609
 40
1.0
 40
1.0
 40
1.0
 40
1.0
 10
38.68988450690006
 20
18.89506443990001
 30
0.0
 10
38.69017887420006
 20
18.91074546639998
 30
0.0
 10
38.69273143690009
 20
18.97093727130004
 30
0.0
 10
38.70122085350005
 20
19.03095896840006
 30
0.0
 10
38.71149328990009
 20
19.07432322830004
 30
0.0
1001
ACAD
1000
RTMaterial
1005
0
  0
SPLINE
  5
6199A
330
1F
100
AcDbEntity
  8
1
100
AcDbSpline
210
0.0
220
0.0
230
1.0
 70
     8
 71
     3
 72
     9
 73
     5
 74
     0
 42
0.0000000001
 43
0.0000000001
 40
0.0
 40
0.0
 40
0.0
 40
0.0
 40
0.2432113192
 40
1.0
 40
1.0
 40
1.0
 40
1.0
 10
38.58658685850008
 20
18.63193407340003
 30
0.0
 10
38.5883978673001
 20
18.64354200660006
 30
0.0
 10
38.59729748700011
 20
18.69103659520004
 30
0.0
 10
38.61184805980008
 20
18.73743153200007
 30
0.0
 10
38.62551115930006
 20
18.77133902209999
 30
0.0
1001
ACAD
1000
RTMaterial
1005
0
  0
SPLINE
  5
6199B
330
1F
100
AcDbEntity
  8
1
100
AcDbSpline
210
0.0
220
0.0
230
1.0
 70
     8
 71
     3
 72
     9
 73
     5
 74
     0
 42
0.0000000001
 43
0.0000000001
 40
0.0
 40
0.0
 40
0.0
 40
0.0
 40
0.2447896301
 40
1.0
 40
1.0
 40
1.0
 40
1.0
 10
38.62551115930006
 20
18.77133902209999
 30
0.0
 10
38.62976813630007
 20
18.78190349210001
 30
0.0
 10
38.64822305740006
 20
18.82462690800003
 30
0.0
 10
38.67085479060006
 20
18.86552377779998
 30
0.0
 10
38.68988450690006
 20
18.89506443990001
 30
0.0
1001
ACAD
1000
RTMaterial
1005
0
  0
SPLINE
  5
6199C
330
1F
100
AcDbEntity
  8
1
100
AcDbSpline
210
0.0
220
0.0
230
1.0
 70
     8
 71
     3
 72
    17
 73
    13
 74
     0
 42
0.0000000001
 43
0.0000000001
 40
0.0
 40
0.0
 40
0.0
 40
0.0
 40
0.0497443132
 40
0.1037959134
 40
0.1608499207
 40
0.2200839956
 40
0.3431136839
 40
0.4702833831000001
 40
0.6002247479000001
 40
0.7321394151
 40
0.8655138858
 40
1.0
 40
1.0
 40
1.0
 40
1.0
 10
34.30317200090008
 20
16.69710313840005
 30
0.0
 10
34.36150325540007
 20
16.74409071220003
 30
0.0
 10
34.48894177940008
 20
16.83498608569999
 30
0.0
 10
34.6943383676001
 20
16.96342205840005
 30
0.0
 10
34.91695605280006
 20
17.09091686239998
 30
0.0
 10
35.2342501312001
 20
17.26178153870006
 30
0.0
 10
35.65044425290011
 20
17.47139597720002
 30
0.0
 10
36.1665555053001
 20
17.71894235370001
 30
0.0
 10
36.69755279130004
 20
17.96629558800004
 30
0.0
 10
37.23843500070007
 20
18.21451249310007
 30
0.0
 10
37.78593901570008
 20
18.46470325360002
 30
0.0
 10
38.15238453030008
 20
18.6332111154
 30
0.0
 10
38.33603911480009
 20
18.71852299880004
 30
0.0
1001
ACAD
1000
RTMaterial
1005
0
  0
SPLINE
  5
6199D
330
1F
100
AcDbEntity
  8
1
100
AcDbSpline
210
0.0
220
0.0
230
1.0
 70
     8
 71
     3
 72
     9
 73
     5
 74
     0
 42
0.0000000001
 43
0.0000000001
 40
0.0
 40
0.0
 40
0.0
 40
0.0
 40
0.2035062058
 40
1.0
 40
1.0
 40
1.0
 40
1.0
 10
34.76217632830009
 20
23.47890607700003
 30
0.0
 10
34.77859682270008
 20
23.4669061317
 30
0.0
 10
34.86108791300007
 20
23.41043201160005
 30
0.0
 10
34.95151266110009
 20
23.365707751
 30
0.0
 10
35.02566881030009
 20
23.33677717440003
 30
0.0
1001
ACAD
1000
RTMaterial
1005
0
  0
SPLINE
  5
6199E
330
1F
100
AcDbEntity
  8
1
100
AcDbSpline
210
0.0
220
0.0
230
1.0
 70
     8
 71
     3
 72
     9
 73
     5
 74
     0
 42
0.0000000001
 43
0.0000000001
 40
0.0
 40
0.0
 40
0.0
 40
0.0
 40
0.4897759892000001
 40
1.0
 40
1.0
 40
1.0
 40
1.0
 10
33.37079296630003
 20
13.4362578692
 30
0.0
 10
33.69663205200007
 20
13.34906307160003
 30
0.0
 10
34.36678737900005
 20
13.18886773010001
 30
0.0
 10
35.04418785720006
 20
13.06287716740001
 30
0.0
 10
35.39113400120007
 20
13.00719231639999
 30
0.0
1001
ACAD
1000
RTMaterial
1005
0
  0
SPLINE
  5
6199F
330
1F
100
AcDbEntity
  8
1
100
AcDbSpline
210
0.0
220
0.0
230
1.0
 70
     8
 71
     3
 72
     9
 73
     5
 74
     0
 42
0.0000000001
 43
0.0000000001
 40
0.0
 40
0.0
 40
0.0
 40
0.0
 40
0.4930251363
 40
1.0
 40
1.0
 40
1.0
 40
1.0
 10
35.39113400120007
 20
13.00719231639999
 30
0.0
 10
35.51879777350004
 20
12.83901169690006
 30
0.0
 10
35.79824570840006
 20
12.51289332940001
 30
0.0
 10
36.12058069840006
 20
12.22796415300007
 30
0.0
 10
36.29451001350006
 20
12.09800297940006
 30
0.0
1001
ACAD
1000
RTMaterial
1005
0
  0
SPLINE
  5
619A0
330
1F
100
AcDbEntity
  8
1
100
AcDbSpline
210
0.0
220
0.0
230
1.0
 70
     8
 71
     3
 72
     9
 73
     5
 74
     0
 42
0.0000000001
 43
0.0000000001
 40
0.0
 40
0.0
 40
0.0
 40
0.0
 40
0.5000010652000001
 40
1.0
 40
1.0
 40
1.0
 40
1.0
 10
33.37079296630003
 20
28.90303035480002
 30
0.0
 10
33.84232679740006
 20
29.05200952640001
 30
0.0
 10
34.80953484150007
 20
29.27840164560007
 30
0.0
 10
35.80000332850005
 20
29.3544527031001
 30
0.0
 10
36.29451001350009
 20
29.35449807430001
 30
0.0
1001
ACAD
1000
RTMaterial
1005
0
  0
SPLINE
  5
619A1
330
1F
100
AcDbEntity
  8
1
100
AcDbSpline
210
0.0
220
0.0
230
1.0
 70
     8
 71
     3
 72
     9
 73
     5
 74
     0
 42
0.0000000001
 43
0.0000000001
 40
0.0
 40
0.0
 40
0.0
 40
0.0
 40
0.2483794107
 40
1.0
 40
1.0
 40
1.0
 40
1.0
 10
29.23421899950012
 20
14.57561516800007
 30
0.0
 10
29.5759165679001
 20
14.47848074489997
 30
0.0
 10
30.95252108600005
 20
14.09056270370001
 30
0.0
 10
32.33235363240004
 20
13.71414505810008
 30
0.0
 10
33.37079296630003
 20
13.4362578692
 30
0.0
1001
ACAD
1000
RTMaterial
1005
0
  0
SPLINE
  5
619A2
330
1F
100
AcDbEntity
  8
1
100
AcDbSpline
210
0.0
220
0.0
230
1.0
 70
     8
 71
     3
 72
     8
 73
     4
 74
     0
 42
0.0000000001
 43
0.0000000001
 40
0.0
 40
0.0
 40
0.0
 40
0.0
 40
1.0
 40
1.0
 40
1.0
 40
1.0
 10
33.37079296630003
 20
28.90303035480002
 30
0.0
 10
31.6688285236001
 20
28.36530170010002
 30
0.0
 10
29.96713772290008
 20
27.82670586590007
 30
0.0
 10
28.26577372060007
 20
27.28708043860001
 30
0.0
1001
ACAD
1000
RTMaterial
1005
0
  0
SPLINE
  5
619A3
330
1F
100
AcDbEntity
  8
1
100
AcDbSpline
210
0.0
220
0.0
230
1.0
 70
     8
 71
     3
 72
     9
 73
     5
 74
     0
 42
0.0000000001
 43
0.0000000001
 40
0.0
 40
0.0
 40
0.0
 40
0.0
 40
0.2497119381
 40
1.0
 40
1.0
 40
1.0
 40
1.0
 10
27.33232496370005
 20
26.98140762980006
 30
0.0
 10
27.40977987110011
 20
27.00758312560009
 30
0.0
 10
27.72020735870007
 20
27.11166345650003
 30
0.0
 10
28.03161724770007
 20
27.21281250630005
 30
0.0
 10
28.26577372060007
 20
27.28708043860001
 30
0.0
1001
ACAD
1000
RTMaterial
1005
0
  0
SPLINE
  5
619A4
330
1F
100
AcDbEntity
  8
1
100
AcDbSpline
210
0.0
220
0.0
230
1.0
 70
     8
 71
     3
 72
    16
 73
    12
 74
     0
 42
0.0000000001
 43
0.0000000001
 40
0.0
 40
0.0
 40
0.0
 40
0.0
 40
0.1287320751
 40
0.1929499684
 40
0.2569558694
 40
0.3207003237
 40
0.3841481032
 40
0.5100218411000001
 40
0.6345655267
 40
0.7577573508
 40
1.0
 40
1.0
 40
1.0
 40
1.0
 10
28.00416334350007
 20
22.87407759349997
 30
0.0
 10
27.72855557580005
 20
22.86691376660008
 30
0.0
 10
27.31386246530008
 20
22.88308112020008
 30
0.0
 10
26.76933013360008
 20
22.96529057570001
 30
0.0
 10
26.36814041050008
 20
23.056989805
 30
0.0
 10
25.97639670590007
 20
23.17741504040004
 30
0.0
 10
25.4703000075001
 20
23.37237759499999
 30
0.0
 10
24.86748836780009
 20
23.67357572620006
 30
0.0
 10
24.19158307200007
 20
24.10386157020008
 30
0.0
 10
23.35565997630005
 20
24.73963224919998
 30
0.0
 10
22.78263799850009
 20
25.27624479520006
 30
0.0
 10
22.42212412800006
 20
25.64932072430003
 30
0.0
1001
ACAD
1000
RTMaterial
1005
0
  0
SPLINE
  5
619A5
330
1F
100
AcDbEntity
  8
1
100
AcDbSpline
210
0.0
220
0.0
230
1.0
 70
     8
 71
     3
 72
     9
 73
     5
 74
     0
 42
0.0000000001
 43
0.0000000001
 40
0.0
 40
0.0
 40
0.0
 40
0.0
 40
0.5000064152000001
 40
1.0
 40
1.0
 40
1.0
 40
1.0
 10
29.10403781490004
 20
22.8525651978
 30
0.0
 10
28.92096935030009
 20
22.86341781040005
 30
0.0
 10
28.55441808740005
 20
22.87849965690003
 30
0.0
 10
28.18748658220005
 20
22.878842684
 30
0.0
 10
28.00416334350007
 20
22.87407759349997
 30
0.0
1001
ACAD
1000
RTMaterial
1005
0
  0
SPLINE
  5
619A6
330
1F
100
AcDbEntity
  8
1
100
AcDbSpline
210
0.0
220
0.0
230
1.0
 70
     8
 71
     3
 72
     9
 73
     5
 74
     0
 42
0.0000000001
 43
0.0000000001
 40
0.0
 40
0.0
 40
0.0
 40
0.0
 40
0.5064812406
 40
1.0
 40
1.0
 40
1.0
 40
1.0
 10
29.23421899950012
 20
14.57561516800007
 30
0.0
 10
28.90129090040011
 20
14.67025669260005
 30
0.0
 10
28.2536354743001
 20
14.89280697110001
 30
0.0
 10
27.63181005750011
 20
15.17899828180003
 30
0.0
 10
27.33232496370005
 20
15.33408937500002
 30
0.0
1001
ACAD
1000
RTMaterial
1005
0
  0
SPLINE
  5
619A7
330
1F
100
AcDbEntity
  8
1
100
AcDbSpline
210
0.0
220
0.0
230
1.0
 70
     8
 71
     3
 72
    22
 73
    18
 74
     0
 42
0.0000000001
 43
0.0000000001
 40
0.0
 40
0.0
 40
0.0
 40
0.0
 40
0.0684916458
 40
0.1323839711
 40
0.1918670492
 40
0.2475050953
 40
0.3002954305
 40
0.3515855753
 40
0.4028868663000001
 40
0.4556100142
 40
0.5108673219
 40
0.569415214
 40
0.6316725421000001
 40
0.6978038178000001
 40
0.7678236369000001
 40
0.8416408286999999
 40
1.0
 40
1.0
 40
1.0
 40
1.0
 10
17.54337913010005
 20
23.3478918893
 30
0.0
 10
17.51070545060008
 20
23.40381045040004
 30
0.0
 10
17.45227941060005
 20
23.51478985450007
 30
0.0
 10
17.38547142330009
 20
23.68390584380006
 30
0.0
 10
17.34395784270009
 20
23.84859025060007
 30
0.0
 10
17.32908072070006
 20
24.00738828660008
 30
0.0
 10
17.34152480640006
 20
24.15875816020008
 30
0.0
 10
17.38129080900006
 20
24.30115250400002
 30
0.0
 10
17.4474793266001
 20
24.43321222110001
 30
0.0
 10
17.53816141740009
 20
24.55434120500001
 30
0.0
 10
17.65122081020007
 20
24.66470298600001
 30
0.0
 10
17.78468265880008
 20
24.76485368770005
 30
0.0
 10
17.93667512880006
 20
24.85560813550006
 30
0.0
 10
18.10549977730005
 20
24.93785122320003
 30
0.0
 10
18.28965859440006
 20
25.01238689000002
 30
0.0
 10
18.56019752820009
 20
25.10470610810006
 30
0.0
 10
18.77260003650008
 20
25.1613331753
 30
0.0
 10
18.9183119298001
 20
25.19583947560005
 30
0.0
1001
ACAD
1000
RTMaterial
1005
0
  0
SPLINE
  5
619A8
330
1F
100
AcDbEntity
  8
1
100
AcDbSpline
210
0.0
220
0.0
230
1.0
 70
     8
 71
     3
 72
    10
 73
     6
 74
     0
 42
0.0000000001
 43
0.0000000001
 40
0.0
 40
0.0
 40
0.0
 40
0.0
 40
0.5116427584000001
 40
0.7578169533
 40
1.0
 40
1.0
 40
1.0
 40
1.0
 10
40.48246318910009
 20
17.4166662742
 30
0.0
 10
40.38316952740006
 20
17.26392485160005
 30
0.0
 10
40.22304017440006
 20
17.04526817080006
 30
0.0
 10
39.97886542840007
 20
16.78562481160003
 30
0.0
 10
39.84862012190007
 20
16.66995144750001
 30
0.0
 10
39.78146575420004
 20
16.61585452520006
 30
0.0
1001
ACAD
1000
RTMaterial
1005
0
  0
SPLINE
  5
619A9
330
1F
100
AcDbEntity
  8
1
100
AcDbSpline
210
0.0
220
0.0
230
1.0
 70
     8
 71
     3
 72
     9
 73
     5
 74
     0
 42
0.0000000001
 43
0.0000000001
 40
0.0
 40
0.0
 40
0.0
 40
0.0
 40
0.4983969915000001
 40
1.0
 40
1.0
 40
1.0
 40
1.0
 10
25.26561101830009
 20
16.64326866819999
 30
0.0
 10
25.58917239720006
 20
16.39666758150002
 30
0.0
 10
26.2599329529001
 20
15.92952907680001
 30
0.0
 10
26.96874585040007
 20
15.52237214200005
 30
0.0
 10
27.33232496370005
 20
15.33408937500002
 30
0.0
1001
ACAD
1000
RTMaterial
1005
0
  0
SPLINE
  5
619AA
330
1F
100
AcDbEntity
  8
1
100
AcDbSpline
210
0.0
220
0.0
230
1.0
 70
     8
 71
     3
 72
     9
 73
     5
 74
     0
 42
0.0000000001
 43
0.0000000001
 40
0.0
 40
0.0
 40
0.0
 40
0.0
 40
0.2480215826
 40
1.0
 40
1.0
 40
1.0
 40
1.0
 10
38.33603911480009
 20
18.71852299880004
 30
0.0
 10
38.33080437040008
 20
18.74640093790003
 30
0.0
 10
38.31309430700009
 20
18.85941599930004
 30
0.0
 10
38.30908609130006
 20
18.97455717310009
 30
0.0
 10
38.31373294290012
 20
19.0604320585
 30
0.0
1001
ACAD
1000
RTMaterial
1005
0
  0
SPLINE
  5
619AB
330
1F
100
AcDbEntity
  8
1
100
AcDbSpline
210
0.0
220
0.0
230
1.0
 70
     8
 71
     3
 72
    11
 73
     7
 74
     0
 42
0.0000000001
 43
0.0000000001
 40
0.0
 40
0.0
 40
0.0
 40
0.0
 40
0.2376789268
 40
0.4854290326
 40
0.7404686877
 40
1.0
 40
1.0
 40
1.0
 40
1.0
 10
22.42212412800006
 20
25.64932072430003
 30
0.0
 10
22.81476617220005
 20
25.74116441500001
 30
0.0
 10
23.61675474170005
 20
25.92847538330005
 30
0.0
 10
24.83583873050009
 20
26.2322203375
 30
0.0
 10
26.08233002110007
 20
26.57786039580003
 30
0.0
 10
26.91518623700011
 20
26.84043769810006
 30
0.0
 10
27.33232496370005
 20
26.98140762980006
 30
0.0
1001
ACAD
1000
RTMaterial
1005
0
  0
SPLINE
  5
619AC
330
1F
100
AcDbEntity
  8
1
100
AcDbSpline
210
0.0
220
0.0
230
1.0
 70
     8
 71
     3
 72
    13
 73
     9
 74
     0
 42
0.0000000001
 43
0.0000000001
 40
0.0
 40
0.0
 40
0.0
 40
0.0
 40
0.1076291915
 40
0.221696394
 40
0.3414662258
 40
0.4661812563
 40
0.7275359840000001
 40
1.0
 40
1.0
 40
1.0
 40
1.0
 10
18.9183119298001
 20
25.19583947560005
 30
0.0
 10
19.04173352960009
 20
25.22506716910005
 30
0.0
 10
19.29760208190009
 20
25.27838778900002
 30
0.0
 10
19.69438996400004
 20
25.34568576220005
 30
0.0
 10
20.11276073400006
 20
25.4051232928
 30
0.0
 10
20.70442298600005
 20
25.47794078190003
 30
0.0
 10
21.47633755880008
 20
25.55832580100002
 30
0.0
 10
22.10252193790012
 20
25.61850911730005
 30
0.0
 10
22.42212412800006
 20
25.64932072430003
 30
0.0
1001
ACAD
1000
RTMaterial
1005
0
  0
SPLINE
  5
619AD
330
1F
100
AcDbEntity
  8
1
100
AcDbSpline
210
0.0
220
0.0
230
1.0
 70
     8
 71
     3
 72
    15
 73
    11
 74
     0
 42
0.0000000001
 43
0.0000000001
 40
0.0
 40
0.0
 40
0.0
 40
0.0
 40
0.0261799153
 40
0.0474078775
 40
0.0754043521
 40
0.1530488231
 40
0.2606462873
 40
0.3988135867
 40
0.5679291523
 40
1.0
 40
1.0
 40
1.0
 40
1.0
 10
38.41855714410008
 20
30.23890501980003
 30
0.0
 10
38.41855586570006
 20
30.23998031529999
 30
0.0
 10
38.4202275816001
 20
30.24163697800003
 30
0.0
 10
38.4229683123001
 20
30.24286450419999
 30
0.0
 10
38.42797531870008
 20
30.24449646230005
 30
0.0
 10
38.43659249670009
 20
30.24603189690004
 30
0.0
 10
38.44980603330009
 20
30.24751571720003
 30
0.0
 10
38.46681048070008
 20
30.24864027989997
 30
0.0
 10
38.49715911880009
 20
30.24980902620007
 30
0.0
 10
38.52185601180008
 20
30.249999989
 30
0.0
 10
38.53960259820008
 20
30.24999993550006
 30
0.0
1001
ACAD
1000
RTMaterial
1005
0
  0
SPLINE
  5
619AE
330
1F
100
AcDbEntity
  8
1
100
AcDbSpline
210
0.0
220
0.0
230
1.0
 70
     8
 71
     3
 72
     9
 73
     5
 74
     0
 42
0.0000000001
 43
0.0000000001
 40
0.0
 40
0.0
 40
0.0
 40
0.0
 40
0.4999940971
 40
1.0
 40
1.0
 40
1.0
 40
1.0
 10
35.45826890030009
 20
22.90469564490002
 30
0.0
 10
35.35074706450007
 20
22.94125977090005
 30
0.0
 10
35.14466417210008
 20
23.04392747720005
 30
0.0
 10
34.97326389540007
 20
23.19758829040001
 30
0.0
 10
34.89948800700012
 20
23.28393415230005
 30
0.0
1001
ACAD
1000
RTMaterial
1005
0
  0
SPLINE
  5
619AF
330
1F
100
AcDbEntity
  8
1
100
AcDbSpline
210
0.0
220
0.0
230
1.0
 70
     8
 71
     3
 72
     9
 73
     5
 74
     0
 42
0.0000000001
 43
0.0000000001
 40
0.0
 40
0.0
 40
0.0
 40
0.0
 40
0.2533336645
 40
1.0
 40
1.0
 40
1.0
 40
1.0
 10
42.44953777230003
 20
15.19735338320004
 30
0.0
 10
42.54316710790007
 20
15.19273607980005
 30
0.0
 10
42.91250102600005
 20
15.16963331919999
 30
0.0
 10
43.28061988560003
 20
15.12730003040002
 30
0.0
 10
43.55368628090005
 20
15.08518493500003
 30
0.0
1001
ACAD
1000
RTMaterial
1005
0
  0
SPLINE
  5
619B0
330
1F
100
AcDbEntity
  8
1
100
AcDbSpline
210
0.0
220
0.0
230
1.0
 70
     8
 71
     3
 72
     9
 73
     5
 74
     0
 42
0.0000000001
 43
0.0000000001
 40
0.0
 40
0.0
 40
0.0
 40
0.0
 40
0.5098611046000001
 40
1.0
 40
1.0
 40
1.0
 40
1.0
 10
28.92875632450012
 20
15.91291415040001
 30
0.0
 10
28.29358285150005
 20
15.95084915849998
 30
0.0
 10
27.05145173260007
 20
16.11303881080005
 30
0.0
 10
25.84369479160006
 20
16.44330299550006
 30
0.0
 10
25.26561101830009
 20
16.64326866819999
 30
0.0
1001
ACAD
1000
RTMaterial
1005
0
  0
SPLINE
  5
619B1
330
1F
100
AcDbEntity
  8
1
100
AcDbSpline
210
0.0
220
0.0
230
1.0
 70
     8
 71
     3
 72
    11
 73
     7
 74
     0
 42
0.0000000001
 43
0.0000000001
 40
0.0
 40
0.0
 40
0.0
 40
0.0
 40
0.2712146838
 40
0.5292684956000001
 40
0.7725372815
 40
1.0
 40
1.0
 40
1.0
 40
1.0
 10
21.50042861100008
 20
18.94121130760004
 30
0.0
 10
21.25816460620007
 20
19.15221282850001
 30
0.0
 10
20.80807653520009
 20
19.59088320320001
 30
0.0
 10
20.22464637510006
 20
20.29797590010003
 30
0.0
 10
19.74464730220006
 20
21.01713247080005
 30
0.0
 10
19.47947079940007
 20
21.50863729420001
 30
0.0
 10
19.3622081914001
 20
21.75122430990001
 30
0.0
1001
ACAD
1000
RTMaterial
1005
0
  0
SPLINE
  5
619B2
330
1F
100
AcDbEntity
  8
1
100
AcDbSpline
210
0.0
220
0.0
230
1.0
 70
     8
 71
     3
 72
     9
 73
     5
 74
     0
 42
0.0000000001
 43
0.0000000001
 40
0.0
 40
0.0
 40
0.0
 40
0.0
 40
0.5071170496999999
 40
1.0
 40
1.0
 40
1.0
 40
1.0
 10
25.26561101830009
 20
16.64326866819999
 30
0.0
 10
24.5705766475001
 20
16.92051483950007
 30
0.0
 10
23.24415348830007
 20
17.58542242150002
 30
0.0
 10
22.0488650457001
 20
18.46354677840003
 30
0.0
 10
21.50042861100008
 20
18.94121130760004
 30
0.0
1001
ACAD
1000
RTMaterial
1005
0
  0
SPLINE
  5
619B3
330
1F
100
AcDbEntity
  8
1
100
AcDbSpline
210
0.0
220
0.0
230
1.0
 70
     8
 71
     3
 72
     9
 73
     5
 74
     0
 42
0.0000000001
 43
0.0000000001
 40
0.0
 40
0.0
 40
0.0
 40
0.0
 40
0.2430587711
 40
1.0
 40
1.0
 40
1.0
 40
1.0
 10
35.02566881030009
 20
23.33677717440003
 30
0.0
 10
35.0482483766001
 20
23.32796819660007
 30
0.0
 10
35.14224350580008
 20
23.29460037980005
 30
0.0
 10
35.24038375700007
 20
23.27294763950005
 30
0.0
 10
35.31526521280006
 20
23.26346251010006
 30
0.0
1001
ACAD
1000
RTMaterial
1005
0
  0
SPLINE
  5
619B4
330
1F
100
AcDbEntity
  8
1
100
AcDbSpline
210
0.0
220
0.0
230
1.0
 70
     8
 71
     3
 72
    10
 73
     6
 74
     0
 42
0.0000000001
 43
0.0000000001
 40
0.0
 40
0.0
 40
0.0
 40
0.0
 40
0.209503339
 40
0.4513528246
 40
1.0
 40
1.0
 40
1.0
 40
1.0
 10
48.12493930500008
 20
6.447316985900044
 30
0.0
 10
48.11725644570007
 20
6.439080332700029
 30
0.0
 10
48.10314849560004
 20
6.419124528200029
 30
0.0
 10
48.07728836180004
 20
6.371980781200022
 30
0.0
 10
48.06068959640007
 20
6.332735002399999
 30
0.0
 10
48.04987040400002
 20
6.305293700800007
 30
0.0
1001
ACAD
1000
RTMaterial
1005
0
  0
SPLINE
  5
619B5
330
1F
100
AcDbEntity
  8
1
100
AcDbSpline
210
0.0
220
0.0
230
1.0
 70
     8
 71
     3
 72
     9
 73
     5
 74
     0
 42
0.0000000001
 43
0.0000000001
 40
0.0
 40
0.0
 40
0.0
 40
0.0
 40
0.2516655542
 40
1.0
 40
1.0
 40
1.0
 40
1.0
 10
46.99820333120007
 20
6.348401296300039
 30
0.0
 10
46.98020573950006
 20
6.352682533600045
 30
0.0
 10
46.90945466190007
 20
6.372890880500051
 30
0.0
 10
46.84230922800006
 20
6.404725809700039
 30
0.0
 10
46.79502517050005
 20
6.432837700500044
 30
0.0
1001
ACAD
1000
RTMaterial
1005
0
  0
SPLINE
  5
619B6
330
1F
100
AcDbEntity
  8
1
100
AcDbSpline
210
0.0
220
0.0
230
1.0
 70
     8
 71
     3
 72
    19
 73
    15
 74
     0
 42
0.0000000001
 43
0.0000000001
 40
0.0
 40
0.0
 40
0.0
 40
0.0
 40
0.0445865591
 40
0.0854060658
 40
0.1248808946
 40
0.1662463363
 40
0.2120310817
 40
0.263380941
 40
0.3204095677
 40
0.3827190245
 40
0.5207883684000001
 40
0.6727069220000001
 40
0.8338708923
 40
1.0
 40
1.0
 40
1.0
 40
1.0
 10
48.04987040400002
 20
6.305293700800007
 30
0.0
 10
48.04373180550007
 20
6.289724041900058
 30
0.0
 10
48.02978078430007
 20
6.260632048100092
 30
0.0
 10
48.00033280970004
 20
6.223491598400073
 30
0.0
 10
47.96240584710003
 20
6.196873277300028
 30
0.0
 10
47.91693812220003
 20
6.181384878000073
 30
0.0
 10
47.86505441540007
 20
6.175324053200029
 30
0.0
 10
47.80709133830001
 20
6.176612508700031
 30
0.0
 10
47.74335385210005
 20
6.183573444500041
 30
0.0
 10
47.64797578800002
 20
6.199182963499993
 30
0.0
 10
47.51858555780003
 20
6.226685185999997
 30
0.0
 10
47.35358701730004
 20
6.264769193900008
 30
0.0
 10
47.1784612438
 20
6.305853791200036
 30
0.0
 10
47.05886904320007
 20
6.333970237399967
 30
0.0
 10
46.99820333120007
 20
6.348401296300039
 30
0.0
1001
ACAD
1000
RTMaterial
1005
0
  0
SPLINE
  5
619B7
330
1F
100
AcDbEntity
  8
1
100
AcDbSpline
210
0.0
220
0.0
230
1.0
 70
     8
 71
     3
 72
     9
 73
     5
 74
     0
 42
0.0000000001
 43
0.0000000001
 40
0.0
 40
0.0
 40
0.0
 40
0.0
 40
0.2432542058
 40
1.0
 40
1.0
 40
1.0
 40
1.0
 10
34.72078952130005
 20
24.63320569790005
 30
0.0
 10
34.73821700420007
 20
24.6539131931001
 30
0.0
 10
34.81288424100006
 20
24.73647142959999
 30
0.0
 10
34.89874050550009
 20
24.80871749010004
 30
0.0
 10
34.96773379220008
 20
24.85697853080001
 30
0.0
1001
ACAD
1000
RTMaterial
1005
0
  0
SPLINE
  5
619B8
330
1F
100
AcDbEntity
  8
1
100
AcDbSpline
210
0.0
220
0.0
230
1.0
 70
     8
 71
     3
 72
     9
 73
     5
 74
     0
 42
0.0000000001
 43
0.0000000001
 40
0.0
 40
0.0
 40
0.0
 40
0.0
 40
0.2443341084
 40
1.0
 40
1.0
 40
1.0
 40
1.0
 10
38.33603911480009
 20
18.71852299880004
 30
0.0
 10
38.34357761220008
 20
18.68267595489999
 30
0.0
 10
38.37927576850006
 20
18.53703626640004
 30
0.0
 10
38.43507950730009
 20
18.396220061
 30
0.0
 10
38.48801704350007
 20
18.29605767650003
 30
0.0
1001
ACAD
1000
RTMaterial
1005
0
  0
SPLINE
  5
619B9
330
1F
100
AcDbEntity
  8
1
100
AcDbSpline
210
0.0
220
0.0
230
1.0
 70
     8
 71
     3
 72
    10
 73
     6
 74
     0
 42
0.0000000001
 43
0.0000000001
 40
0.0
 40
0.0
 40
0.0
 40
0.0
 40
0.5726334868000001
 40
0.8121023848
 40
1.0
 40
1.0
 40
1.0
 40
1.0
 10
38.48036146660007
 20
18.61810374340007
 30
0.0
 10
38.48278822630005
 20
18.5519831492
 30
0.0
 10
38.49189626430007
 20
18.45825112410006
 30
0.0
 10
38.51386456870006
 20
18.34476923610003
 30
0.0
 10
38.52572388150008
 20
18.29681779900005
 30
0.0
 10
38.53124004620008
 20
18.27581956350002
 30
0.0
1001
ACAD
1000
RTMaterial
1005
0
  0
SPLINE
  5
619BA
330
1F
100
AcDbEntity
  8
1
100
AcDbSpline
210
0.0
220
0.0
230
1.0
 70
     8
 71
     3
 72
    11
 73
     7
 74
     0
 42
0.0000000001
 43
0.0000000001
 40
0.0
 40
0.0
 40
0.0
 40
0.0
 40
0.4047697202000001
 40
0.7279520771
 40
0.9405949722999999
 40
1.0
 40
1.0
 40
1.0
 40
1.0
 10
38.53124004620008
 20
18.27581956350002
 30
0.0
 10
38.53196765010006
 20
18.27304981330002
 30
0.0
 10
38.53321355320009
 20
18.26840539010004
 30
0.0
 10
38.53512965130006
 20
18.26084298750004
 30
0.0
 10
38.53571517870006
 20
18.25885883880005
 30
0.0
 10
38.53652228980008
 20
18.25489651870003
 30
0.0
 10
38.53625622890007
 20
18.25522186970005
 30
0.0
1001
ACAD
1000
RTMaterial
1005
0
  0
SPLINE
  5
619BB
330
1F
100
AcDbEntity
  8
1
100
AcDbSpline
210
0.0
220
0.0
230
1.0
 70
     8
 71
     3
 72
     9
 73
     5
 74
     0
 42
0.0000000001
 43
0.0000000001
 40
0.0
 40
0.0
 40
0.0
 40
0.0
 40
0.5032946621
 40
1.0
 40
1.0
 40
1.0
 40
1.0
 10
38.61349654500009
 20
19.29470083370006
 30
0.0
 10
38.56552202360007
 20
19.18858571720005
 30
0.0
 10
38.49452912100009
 20
18.96590383419999
 30
0.0
 10
38.47614609710007
 20
18.73295761150001
 30
0.0
 10
38.48036146660007
 20
18.61810374340007
 30
0.0
1001
ACAD
1000
RTMaterial
1005
0
  0
SPLINE
  5
619BC
330
1F
100
AcDbEntity
  8
1
100
AcDbSpline
210
0.0
220
0.0
230
1.0
 70
     8
 71
     3
 72
     9
 73
     5
 74
     0
 42
0.0000000001
 43
0.0000000001
 40
0.0
 40
0.0
 40
0.0
 40
0.0
 40
0.248567999
 40
1.0
 40
1.0
 40
1.0
 40
1.0
 10
34.69054982910007
 20
24.5956635924
 30
0.0
 10
34.6929869193001
 20
24.59882831919998
 30
0.0
 10
34.70286162590009
 20
24.61150597110003
 30
0.0
 10
34.7130142201001
 20
24.62396701360001
 30
0.0
 10
34.72078952130005
 20
24.63320569790005
 30
0.0
1001
ACAD
1000
RTMaterial
1005
0
  0
SPLINE
  5
619BD
330
1F
100
AcDbEntity
  8
1
100
AcDbSpline
210
0.0
220
0.0
230
1.0
 70
     8
 71
     3
 72
     8
 73
     4
 74
     0
 42
0.0000000001
 43
0.0000000001
 40
0.0
 40
0.0
 40
0.0
 40
0.0
 40
1.0
 40
1.0
 40
1.0
 40
1.0
 10
39.79811400750009
 20
17.83869308550004
 30
0.0
 10
39.7834426898001
 20
17.83355756750001
 30
0.0
 10
39.76861796890006
 20
17.82883979100001
 30
0.0
 10
39.75367299800007
 20
17.82456557160003
 30
0.0
1001
ACAD
1000
RTMaterial
1005
0
  0
SPLINE
  5
619BE
330
1F
100
AcDbEntity
  8
1
100
AcDbSpline
210
0.0
220
0.0
230
1.0
 70
     8
 71
     3
 72
    10
 73
     6
 74
     0
 42
0.0000000001
 43
0.0000000001
 40
0.0
 40
0.0
 40
0.0
 40
0.0
 40
0.2449360366
 40
0.4961486202000001
 40
1.0
 40
1.0
 40
1.0
 40
1.0
 10
40.39800868930004
 20
9.605831344000023
 30
0.0
 10
40.38146236320002
 20
9.602750200700029
 30
0.0
 10
40.34725276840006
 20
9.599688982900033
 30
0.0
 10
40.27856333590003
 20
9.606805603100042
 30
0.0
 10
40.22919941850003
 20
9.626071029900003
 30
0.0
 10
40.19880382560003
 20
9.642648052300046
 30
0.0
1001
ACAD
1000
RTMaterial
1005
0
  0
SPLINE
  5
619BF
330
1F
100
AcDbEntity
  8
1
100
AcDbSpline
210
0.0
220
0.0
230
1.0
 70
     8
 71
     3
 72
     9
 73
     5
 74
     0
 42
0.0000000001
 43
0.0000000001
 40
0.0
 40
0.0
 40
0.0
 40
0.0
 40
0.2498155912
 40
1.0
 40
1.0
 40
1.0
 40
1.0
 10
41.66764324700008
 20
9.848622546100045
 30
0.0
 10
41.56202254830006
 20
9.827866383800085
 30
0.0
 10
41.13911665980007
 20
9.745346989600022
 30
0.0
 10
40.71578646570006
 20
9.665005741100003
 30
0.0
 10
40.39800868930004
 20
9.605831344000023
 30
0.0
1001
ACAD
1000
RTMaterial
1005
0
  0
SPLINE
  5
619C0
330
1F
100
AcDbEntity
  8
1
100
AcDbSpline
210
0.0
220
0.0
230
1.0
 70
     8
 71
     3
 72
    13
 73
     9
 74
     0
 42
0.0000000001
 43
0.0000000001
 40
0.0
 40
0.0
 40
0.0
 40
0.0
 40
0.2694772648999999
 40
0.5256576531000001
 40
0.6485835322
 40
0.7681683854000001
 40
0.8850165334000001
 40
1.0
 40
1.0
 40
1.0
 40
1.0
 10
39.75367167570011
 20
17.82456390480007
 30
0.0
 10
39.66645136030007
 20
17.79961752349999
 30
0.0
 10
39.4898133727001
 20
17.77067434290001
 30
0.0
 10
39.26954520490006
 20
17.79208233860004
 30
0.0
 10
39.10951838580007
 20
17.84470139209998
 30
0.0
 10
39.00130733610007
 20
17.89995437550004
 30
0.0
 10
38.9056400871001
 20
17.97042599800005
 30
0.0
 10
38.85123388810007
 20
18.02701615020004
 30
0.0
 10
38.82693421770012
 20
18.05714699090003
 30
0.0
1001
ACAD
1000
RTMaterial
1005
0
  0
SPLINE
  5
619C1
330
1F
100
AcDbEntity
  8
1
100
AcDbSpline
210
0.0
220
0.0
230
1.0
 70
     8
 71
     3
 72
     9
 73
     5
 74
     0
 42
0.0000000001
 43
0.0000000001
 40
0.0
 40
0.0
 40
0.0
 40
0.0
 40
0.2556316529
 40
1.0
 40
1.0
 40
1.0
 40
1.0
 10
38.82693421770012
 20
18.05714699090003
 30
0.0
 10
38.82162017040008
 20
18.06373514890004
 30
0.0
 10
38.8009429650001
 20
18.08959565260005
 30
0.0
 10
38.78076575490008
 20
18.11586114139999
 30
0.0
 10
38.76618038260005
 20
18.13572895279998
 30
0.0
1001
ACAD
1000
RTMaterial
1005
0
  0
SPLINE
  5
619C2
330
1F
100
AcDbEntity
  8
1
100
AcDbSpline
210
0.0
220
0.0
230
1.0
 70
     8
 71
     3
 72
    10
 73
     6
 74
     0
 42
0.0000000001
 43
0.0000000001
 40
0.0
 40
0.0
 40
0.0
 40
0.0
 40
0.2666959973
 40
0.5199481739000001
 40
1.0
 40
1.0
 40
1.0
 40
1.0
 10
49.50000000000002
 20
8.279562089800037
 30
0.0
 10
49.39933286230004
 20
8.102056522800012
 30
0.0
 10
49.18934958290006
 20
7.763598046800041
 30
0.0
 10
48.74179774440003
 20
7.142499069599978
 30
0.0
 10
48.37548297070006
 20
6.715920275800044
 30
0.0
 10
48.12493930500008
 20
6.447316985900044
 30
0.0
1001
ACAD
1000
RTMaterial
1005
0
  0
SPLINE
  5
619C3
330
1F
100
AcDbEntity
  8
1
100
AcDbSpline
210
0.0
220
0.0
230
1.0
 70
     8
 71
     3
 72
    11
 73
     7
 74
     0
 42
0.0000000001
 43
0.0000000001
 40
0.0
 40
0.0
 40
0.0
 40
0.0
 40
0.2473106894
 40
0.4996343907
 40
0.7532245076999999
 40
1.0
 40
1.0
 40
1.0
 40
1.0
 10
41.93614761800003
 20
9.763071701100045
 30
0.0
 10
41.91755881780003
 20
9.778213915400044
 30
0.0
 10
41.87809136920006
 20
9.80659432840008
 30
0.0
 10
41.81218219300004
 20
9.839078252799993
 30
0.0
 10
41.74033574490002
 20
9.855857355500063
 30
0.0
 10
41.69111799120005
 20
9.853235710100022
 30
0.0
 10
41.66764324700008
 20
9.848622546100045
 30
0.0
1001
ACAD
1000
RTMaterial
1005
0
  0
ELLIPSE
  5
619C4
330
1F
100
AcDbEntity
  8
1
100
AcDbEllipse
 10
17.62546407980002
 20
0.0
 30
0.0
 11
-34.954110605
 21
-23.2851585031
 31
0.0
210
0.0
220
0.0
230
1.0
 40
0.5524295597
 41
-2.5505397397
 42
-2.541086288
1001
ACAD
1000
RTMaterial
1005
0
  0
ELLIPSE
  5
619C5
330
1F
100
AcDbEntity
  8
1
100
AcDbEllipse
 10
34.43852382150002
 20
0.0
 30
0.0
 11
4.580524180200002
 21
30.2297114844
 31
0.0
210
0.0
220
0.0
230
1.0
 40
0.2418325815
 41
-0.1509966545
 42
-0.0646555147
1001
ACAD
1000
RTMaterial
1005
0
  0
ELLIPSE
  5
619C6
330
1F
100
AcDbEntity
  8
1
100
AcDbEllipse
 10
38.56957306740009
 20
17.88678588760001
 30
0.0
 11
-2.158538196999999
 21
0.5080989954000002
 31
0.0
210
0.0
220
0.0
230
1.0
 40
0.0189620868
 41
-4.0091532226
 42
-3.6188732718
1001
ACAD
1000
RTMaterial
1005
0
  0
ELLIPSE
  5
619C7
330
1F
100
AcDbEntity
  8
1
100
AcDbEllipse
 10
38.44691301210009
 20
24.99986223410008
 30
0.0
 11
-2.522367721899999
 21
0.3806746899000002
 31
0.0
210
0.0
220
0.0
230
1.0
 40
0.0812499867
 41
-0.46007086
 42
-0.1978005773
1001
ACAD
1000
RTMaterial
1005
0
  0
ELLIPSE
  5
619C8
330
1F
100
AcDbEntity
  8
1
100
AcDbEllipse
 10
41.31374261810001
 20
21.42926289889999
 30
0.0
 11
5.666870391600002
 21
12.5653026789
 31
0.0
210
0.0
220
0.0
230
1.0
 40
0.1010410836
 41
1.819195403
 42
1.826823477399999
1001
ACAD
1000
RTMaterial
1005
0
  0
ELLIPSE
  5
619C9
330
1F
100
AcDbEntity
  8
1
100
AcDbEllipse
 10
39.87731129710005
 20
26.51754385150002
 30
0.0
 11
0.5612192389000003
 21
3.5976554455
 31
0.0
210
0.0
220
0.0
230
1.0
 40
0.137316117
 41
0.5927524476000001
 42
0.6014719655
1001
ACAD
1000
RTMaterial
1005
0
  0
ELLIPSE
  5
619CA
330
1F
100
AcDbEntity
  8
1
100
AcDbEllipse
 10
51.11135556830001
 20
0.0
 30
0.0
 11
-10.6094010346
 21
29.8928676475
 31
0.0
210
0.0
220
0.0
230
1.0
 40
0.43683336
 41
0.0338099545
 42
0.0900762928
1001
ACAD
1000
RTMaterial
1005
0
  0
ELLIPSE
  5
619CB
330
1F
100
AcDbEntity
  8
1
100
AcDbEllipse
 10
215.8832085153001
 20
0.0
 30
0.0
 11
-183.3665342881
 21
17.77590627360001
 31
0.0
210
0.0
220
0.0
230
1.0
 40
0.1334818476
 41
0.2166858607
 42
0.3037042097
1001
ACAD
1000
RTMaterial
1005
0
  0
ELLIPSE
  5
619CC
330
1F
100
AcDbEntity
  8
1
100
AcDbEllipse
 10
41.85675739810003
 20
3.345528890200057
 30
0.0
 11
1.4290650875
 21
11.7765553512
 31
0.0
210
0.0
220
0.0
230
1.0
 40
0.8404292787999999
 41
-0.0555417021
 42
-0.0271205829
1001
ACAD
1000
RTMaterial
1005
0
  0
ELLIPSE
  5
619CD
330
1F
100
AcDbEntity
  8
1
100
AcDbEllipse
 10
29.7742242993001
 20
31.15698279220004
 30
0.0
 11
0.6751737856000011
 21
15.2529225024
 31
0.0
210
0.0
220
0.0
230
1.0
 40
0.8511454179000001
 41
3.128470543399999
 42
3.1342396674
1001
ACAD
1000
RTMaterial
1005
0
  0
ELLIPSE
  5
619CE
330
1F
100
AcDbEntity
  8
1
100
AcDbEllipse
 10
39.4819452380001
 20
16.82450032760005
 30
0.0
 11
-8.4125570515
 21
0.9628291478000006
 31
0.0
210
0.0
220
0.0
230
1.0
 40
0.1626095708
 41
-4.352659713199999
 42
-4.3333290922
1001
ACAD
1000
RTMaterial
1005
0
  0
ELLIPSE
  5
619CF
330
1F
100
AcDbEntity
  8
1
100
AcDbEllipse
 10
43.01688919580001
 20
1.348707882100029
 30
0.0
 11
-0.6607215625999994
 21
11.3989707531
 31
0.0
210
0.0
220
0.0
230
1.0
 40
0.6902833629
 41
-0.2252264821
 42
-0.0634938358
1001
ACAD
1000
RTMaterial
1005
0
  0
ELLIPSE
  5
619D0
330
1F
100
AcDbEntity
  8
1
100
AcDbEllipse
 10
46.65258524370003
 20
12.72248901400002
 30
0.0
 11
-1.470028208799999
 21
0.7247633779
 31
0.0
210
0.0
220
0.0
230
1.0
 40
0.4633206319000001
 41
-4.308512698399999
 42
-3.3049483785
1001
ACAD
1000
RTMaterial
1005
0
  0
ELLIPSE
  5
619D1
330
1F
100
AcDbEntity
  8
1
100
AcDbEllipse
 10
415.0122941217
 20
-18.95683785169999
 30
0.0
 11
-377.7477814456
 21
36.43425304350003
 31
0.0
210
0.0
220
0.0
230
1.0
 40
0.1134371767
 41
0.1687507611
 42
0.2363092044
1001
ACAD
1000
RTMaterial
1005
0
  0
ELLIPSE
  5
619D2
330
1F
100
AcDbEntity
  8
1
100
AcDbEllipse
 10
35.99192175400009
 20
23.00073567670001
 30
0.0
 11
-2.3701875655
 21
0.3525254196000001
 31
0.0
210
0.0
220
0.0
230
1.0
 40
0.0700311318
 41
-1.464172001699999
 42
-1.270882900699999
1001
ACAD
1000
RTMaterial
1005
0
  0
ELLIPSE
  5
619D3
330
1F
100
AcDbEntity
  8
1
100
AcDbEllipse
 10
40.33308663930006
 20
27.00113074180001
 30
0.0
 11
-0.3684395063999998
 21
2.542851898999999
 31
0.0
210
0.0
220
0.0
230
1.0
 40
0.3760865682
 41
-0.1049020823
 42
0.3663439441
1001
ACAD
1000
RTMaterial
1005
0
  0
LINE
  5
619D4
330
1F
100
AcDbEntity
  8
nocut
100
AcDbLine
 10
0.0
 20
0.0
 30
0.0
 11
49.5
 21
0.0
 31
0.0
  0
DIMENSION
  5
61B1B
330
1F
100
AcDbEntity
  8
2
100
AcDbDimension
  2
*D98
 10
47.40477209871381
 20
29.80486655771406
 30
0.0
 11
72.18179251660441
 21
42.86495826193081
 31
0.0
 70
    36
 71
     5
 42
1.500000000000149
  3
\M+18352\M+18373\M+1815B - ISO-25
100
AcDbRadialDimension
 15
48.73171755400115
 25
30.50430616103428
 35
0.0
 40
0.0
1001
ACAD
1000
DSTYLE
1002
{
1070
     4
1000
"
1070
    40
1040
1.0
1070
   143
1040
0.0393700787401575
1070
   170
1070
     1
1070
   171
1070
     3
1070
   271
1070
     8
1070
   285
1070
     4
1002
}
  0
VIEWPORT
  5
6B
102
{ACAD_XDICTIONARY
360
61B54
102
}
330
50
100
AcDbEntity
 67
     1
  8
0
100
AcDbViewport
 10
155.3592437148233
 20
160.4455827878762
 30
0.0
 40
349.5854424261001
 41
282.2272140146125
 68
     1
 69
     1
 12
155.3592437148233
 22
160.4455827878762
 13
0.0
 23
0.0
 14
10.0
 24
10.0
 15
10.0
 25
10.0
 16
0.0
 26
0.0
 36
1.0
 17
0.0
 27
0.0
 37
0.0
 42
50.0
 43
0.0
 44
0.0
 45
282.2272140146125
 50
0.0
 51
0.0
 72
  1000
 90
    32864
  1

281
     0
 71
     1
 74
     0
110
0.0
120
0.0
130
0.0
111
1.0
121
0.0
131
0.0
112
0.0
122
1.0
132
0.0
 79
     0
146
0.0
  0
VIEWPORT
  5
6D
102
{ACAD_XDICTIONARY
360
61B56
102
}
330
50
100
AcDbEntity
 67
     1
  8
0
100
AcDbViewport
 10
133.3499939441681
 20
101.5999939441681
 30
0.0
 40
213.3599903106689
 41
162.5599903106689
 68
     2
 69
     2
 12
210.0
 22
148.5
 13
0.0
 23
0.0
 14
10.0
 24
10.0
 15
10.0
 25
10.0
 16
0.0
 26
0.0
 36
1.0
 17
0.0
 27
0.0
 37
0.0
 42
50.0
 43
0.0
 44
0.0
 45
324.0677920111345
 50
0.0
 51
0.0
 72
   100
 90
    32864
  1

281
     0
 71
     1
 74
     0
110
0.0
120
0.0
130
0.0
111
1.0
121
0.0
131
0.0
112
0.0
122
1.0
132
0.0
 79
     0
146
0.0
  0
ENDSEC
  0
SECTION
  2
OBJECTS
  0
DICTIONARY
  5
C
330
0
100
AcDbDictionary
281
     1
  3
ACAD_COLOR
350
85
  3
ACAD_GROUP
350
D
  3
ACAD_LAYOUT
350
1A
  3
ACAD_MATERIAL
350
84
  3
ACAD_MLINESTYLE
350
17
  3
ACAD_PLOTSETTINGS
350
19
  3
ACAD_PLOTSTYLENAME
350
E
  3
ACAD_TABLESTYLE
350
A1
  3
ACDBHEADERROUNDTRIPXREC
350
61B4F
  3
AcDbVariableDictionary
350
5E
  3
ASE_INDEX_DICTIONARY
350
349E9
  3
DWGPROPS
350
61B4E
  0
DICTIONARY
  5
E2
330
2
100
AcDbDictionary
280
     1
281
     1
  3
ACAD_LAYERFILTERS
360
619E4
  3
ACAD_LAYERSTATES
360
3759A
  3
ACLYDICTIONARY
360
619E3
  0
DICTIONARY
  5
31EE
330
1F
100
AcDbDictionary
280
     1
281
     1
  3
ACAD_SORTENTS
360
31EF
  0
DICTIONARY
  5
43668
330
680
100
AcDbDictionary
280
     1
281
     1
  3
ACAD_SORTENTS
360
43669
  0
DICTIONARY
  5
61B58
330
71
100
AcDbDictionary
280
     1
281
     1
  3
ACAD_XREC_ROUNDTRIP
360
61B59
  0
DICTIONARY
  5
61B5A
330
73
100
AcDbDictionary
280
     1
281
     1
  3
ACAD_XREC_ROUNDTRIP
360
61B5B
  0
DICTIONARY
  5
61B54
330
6B
100
AcDbDictionary
280
     1
281
     1
  3
ACAD_XREC_ROUNDTRIP
360
61B55
  0
DICTIONARY
  5
61B56
330
6D
100
AcDbDictionary
280
     1
281
     1
  3
ACAD_XREC_ROUNDTRIP
360
61B57
  0
DICTIONARY
  5
85
102
{ACAD_REACTORS
330
C
102
}
330
C
100
AcDbDictionary
281
     1
  0
DICTIONARY
  5
D
102
{ACAD_REACTORS
330
C
102
}
330
C
100
AcDbDictionary
281
     1
  0
DICTIONARY
  5
1A
102
{ACAD_REACTORS
330
C
102
}
330
C
100
AcDbDictionary
281
     1
  3
\M+1838C\M+18343\M+18341\M+18345\M+183671
350
51
  3
\M+1838C\M+18343\M+18341\M+18345\M+183672
350
56
  3
Model
350
22
  0
DICTIONARY
  5
84
102
{ACAD_REACTORS
330
C
102
}
330
C
100
AcDbDictionary
281
     1
  0
DICTIONARY
  5
17
102
{ACAD_REACTORS
330
C
102
}
330
C
100
AcDbDictionary
281
     1
  3
Standard
350
18
  0
DICTIONARY
  5
19
102
{ACAD_REACTORS
330
C
102
}
330
C
100
AcDbDictionary
281
     1
  0
ACDBDICTIONARYWDFLT
  5
E
102
{ACAD_REACTORS
330
C
102
}
330
C
100
AcDbDictionary
281
     1
  3
Normal
350
F
100
AcDbDictionaryWithDefault
340
F
  0
DICTIONARY
  5
A1
102
{ACAD_REACTORS
330
C
102
}
330
C
100
AcDbDictionary
281
     1
  3
Standard
350
A2
  0
DICTIONARY
  5
61B4F
102
{ACAD_REACTORS
330
C
102
}
330
C
100
AcDbDictionary
281
     1
  0
DICTIONARY
  5
5E
102
{ACAD_REACTORS
330
C
102
}
330
C
100
AcDbDictionary
281
     1
  3
CTABLESTYLE
350
B8
  3
DIMASSOC
350
5F
  3
HIDETEXT
350
63
  3
PROJECTNAME
350
31CE
  0
DICTIONARY
  5
349E9
102
{ACAD_REACTORS
330
C
102
}
330
C
100
AcDbDictionary
281
     1
  3
ASEBlockHierarchyIndexRecord
350
349EA
1001
DCO15
1040
1842496176.844
  0
XRECORD
  5
61B4E
102
{ACAD_REACTORS
330
C
102
}
330
C
100
AcDbXrecord
280
     1
  1
DWGPROPS COOKIE
  2

  3

  4

  6

  7

  8

  9

300
=
301
=
302
=
303
=
304
=
305
=
306
=
307
=
308
=
309
=
 40
2.0349621875
 41
2455489.391063368
 42
2458416.674161979
  1

 90
        0
  0
DICTIONARY
  5
619E4
102
{ACAD_REACTORS
330
E2
102
}
330
E2
100
AcDbDictionary
281
     1
  0
DICTIONARY
  5
3759A
102
{ACAD_REACTORS
330
E2
102
}
330
E2
100
AcDbDictionary
281
     1
  0
DICTIONARY
  5
619E3
102
{ACAD_REACTORS
330
E2
102
}
330
E2
100
AcDbDictionary
281
     1
1001
ACAD
1000
<All
  0
SORTENTSTABLE
  5
31EF
102
{ACAD_REACTORS
330
31EE
102
}
330
31EE
100
AcDbSortentsTable
330
1F
331
619B0
  5
619B6
331
618C1
  5
618C3
331
619D2
  5
619DC
331
618E3
  5
618E9
331
61905
  5
6190B
331
6191F
  5
61925
331
61941
  5
61947
331
61963
  5
61969
331
61985
  5
6198B
331
61874
  5
61874
331
61896
  5
61898
331
6199F
  5
619A5
331
618B0
  5
618B2
331
619C1
  5
619C7
331
618D2
  5
618D8
331
618F4
  5
618FA
331
61916
  5
6191C
331
61930
  5
61936
331
61952
  5
61958
331
61974
  5
6197A
331
61885
  5
61887
331
61863
  5
61863
331
619D0
  5
619DA
331
618E1
  5
618E7
331
61903
  5
61909
331
6191D
  5
61923
331
6193F
  5
61945
331
61961
  5
61967
331
61983
  5
61989
331
61872
  5
61872
331
6199D
  5
619A3
331
61894
  5
61896
331
618AE
  5
618B0
331
619BF
  5
619C5
331
618F2
  5
618F8
331
618D0
  5
618D6
331
61914
  5
6191A
331
6192E
  5
61934
331
61950
  5
61956
331
61972
  5
61978
331
61883
  5
61885
331
61861
  5
61861
331
619AE
  5
619B4
331
618BF
  5
618C1
331
6096A
  5
6096A
331
61901
  5
61907
331
6191B
  5
61921
331
6193D
  5
61943
331
6195F
  5
61965
331
61981
  5
61987
331
61870
  5
61870
331
61892
  5
61894
331
6199B
  5
619A1
331
618AC
  5
618AE
331
619BD
  5
619C3
331
618CE
  5
618D4
331
618F0
  5
618F6
331
61912
  5
61918
331
6192C
  5
61932
331
6194E
  5
61954
331
61970
  5
61976
331
61881
  5
61883
331
619AC
  5
619B2
331
619CE
  5
619D4
331
618DF
  5
618E5
331
618BD
  5
618BF
331
60920
  5
60920
331
61919
  5
6191F
331
6193B
  5
61941
331
6195D
  5
61963
331
6197F
  5
61985
331
61999
  5
6199F
331
61890
  5
61892
331
618AA
  5
618AC
331
6186E
  5
6186E
331
619BB
  5
619C1
331
618EE
  5
618F4
331
618CC
  5
618CE
331
61910
  5
61916
331
6192A
  5
61930
331
6194C
  5
61952
331
6196E
  5
61974
331
6187F
  5
6187F
331
619AA
  5
619B0
331
619CC
  5
619D2
331
618FF
  5
61905
331
618DD
  5
618E3
331
618BB
  5
618BD
331
61939
  5
6193F
331
6195B
  5
61961
331
6197D
  5
61983
331
61997
  5
6199D
331
6188E
  5
61890
331
6186C
  5
6186C
331
618A8
  5
618AA
331
619B9
  5
619BF
331
618EC
  5
618F2
331
618CA
  5
618CC
331
6190E
  5
61914
331
61928
  5
6192E
331
6194A
  5
61950
331
6196C
  5
61972
331
6198E
  5
61994
331
6187D
  5
6187D
331
6189F
  5
618A1
331
619A8
  5
619AE
331
618B9
  5
618BB
331
619CA
  5
619D0
331
618FD
  5
61903
331
618DB
  5
618E1
331
608D8
  5
608D8
331
61959
  5
6195F
331
6197B
  5
61981
331
6186A
  5
6186A
331
61995
  5
6199B
331
6188C
  5
6188E
331
618A6
  5
618A8
331
619B7
  5
619BD
331
618C8
  5
618CA
331
618EA
  5
618F0
331
6190C
  5
61912
331
61926
  5
6192C
331
61948
  5
6194E
331
6196A
  5
61970
331
6187B
  5
6187B
331
6198C
  5
61992
331
6189D
  5
6189F
331
619A6
  5
619AC
331
619C8
  5
619CE
331
618FB
  5
61901
331
618D9
  5
618DF
331
618B7
  5
618B9
331
61937
  5
6193D
331
60984
  5
60984
331
5CD11
  5
5CD11
331
61979
  5
6197F
331
61868
  5
61868
331
6188A
  5
6188C
331
61993
  5
61999
331
618A4
  5
618A6
331
619B5
  5
619BB
331
618C6
  5
618C8
331
618E8
  5
618EE
331
6190A
  5
61910
331
61924
  5
6192A
331
61946
  5
6194C
331
61968
  5
6196E
331
6198A
  5
61990
331
61879
  5
61879
331
6189B
  5
6189D
331
619A4
  5
619AA
331
618B5
  5
618B7
331
619C6
  5
619CC
331
618F9
  5
618FF
331
618D7
  5
618DD
331
61935
  5
6193B
331
61957
  5
6195D
331
61991
  5
61997
331
61888
  5
6188A
331
618A2
  5
618A4
331
619B3
  5
619B9
331
618C4
  5
618C6
331
618E6
  5
618EC
331
61908
  5
6190E
331
61922
  5
61928
331
61944
  5
6194A
331
61966
  5
6196C
331
61988
  5
6198E
331
61877
  5
61877
331
61899
  5
6189B
331
619A2
  5
619A8
331
619C4
  5
619CA
331
618F7
  5
618FD
331
618D5
  5
618DB
331
618B3
  5
618B5
331
61933
  5
61939
331
61955
  5
6195B
331
61977
  5
6197D
331
61866
  5
61866
331
618A0
  5
618A2
331
619B1
  5
619B7
331
618C2
  5
618C4
331
619D3
  5
619DD
331
618E4
  5
618EA
331
61906
  5
6190C
331
61920
  5
61926
331
61942
  5
61948
331
61964
  5
6196A
331
61986
  5
6198C
331
61875
  5
61875
331
61897
  5
61899
331
619A0
  5
619A6
331
618B1
  5
618B3
331
619C2
  5
619C8
331
618F5
  5
618FB
331
618D3
  5
618D9
331
61917
  5
6191D
331
61931
  5
61937
331
61953
  5
61959
331
61975
  5
6197B
331
61886
  5
61888
331
61864
  5
61864
331
618C0
  5
618C2
331
619D1
  5
619DB
331
618E2
  5
618E8
331
61904
  5
6190A
331
6191E
  5
61924
331
61940
  5
61946
331
61962
  5
61968
331
61873
  5
61873
331
61984
  5
6198A
331
6199E
  5
619A4
331
61895
  5
61897
331
618AF
  5
618B1
331
619C0
  5
619C6
331
618D1
  5
618D7
331
618F3
  5
618F9
331
61915
  5
6191B
331
6192F
  5
61935
331
61951
  5
61957
331
61973
  5
61979
331
61884
  5
61886
331
61862
  5
61862
331
619AF
  5
619B5
331
6099E
  5
6099E
331
60938
  5
60938
331
608F0
  5
608F0
331
618E0
  5
618E6
331
61902
  5
61908
331
6191C
  5
61922
331
6193E
  5
61944
331
61960
  5
61966
331
61982
  5
61988
331
61871
  5
61871
331
61893
  5
61895
331
6199C
  5
619A2
331
618AD
  5
618AF
331
619BE
  5
619C4
331
618CF
  5
618D5
331
618F1
  5
618F7
331
61913
  5
61919
331
6192D
  5
61933
331
6194F
  5
61955
331
61971
  5
61977
331
61882
  5
61884
331
61860
  5
61860
331
619AD
  5
619B3
331
619CF
  5
619D9
331
618BE
  5
618C0
331
61900
  5
61906
331
6191A
  5
61920
331
6193C
  5
61942
331
6195E
  5
61964
331
61980
  5
61986
331
61891
  5
61893
331
6186F
  5
6186F
331
6199A
  5
619A0
331
618AB
  5
618AD
331
619BC
  5
619C2
331
618CD
  5
618D3
331
618EF
  5
618F5
331
61911
  5
61917
331
6192B
  5
61931
331
6194D
  5
61953
331
6196F
  5
61975
331
61880
  5
61880
331
619AB
  5
619B1
331
619CD
  5
619D3
331
618DE
  5
618E4
331
618BC
  5
618BE
331
61918
  5
6191E
331
6193A
  5
61940
331
6195C
  5
61962
331
6197E
  5
61984
331
6188F
  5
61891
331
6186D
  5
6186D
331
61998
  5
6199E
331
618A9
  5
618AB
331
619BA
  5
619C0
331
618ED
  5
618F3
331
618CB
  5
618CD
331
6190F
  5
61915
331
61929
  5
6192F
331
6194B
  5
61951
331
6196D
  5
61973
331
6198F
  5
61995
331
6187E
  5
6187E
331
619A9
  5
619AF
331
618BA
  5
618BC
331
619CB
  5
619D1
331
618DC
  5
618E2
331
618FE
  5
61904
331
68C
  5
435D5
331
61938
  5
6193E
331
6195A
  5
61960
331
6197C
  5
61982
331
6186B
  5
6186B
331
61996
  5
6199C
331
6188D
  5
6188F
331
618A7
  5
618A9
331
619B8
  5
619BE
331
618C9
  5
618CB
331
618EB
  5
618F1
331
6190D
  5
61913
331
61927
  5
6192D
331
61949
  5
6194F
331
6196B
  5
61971
331
6187C
  5
6187C
331
6198D
  5
61993
331
6189E
  5
618A0
331
619A7
  5
619AD
331
618B8
  5
618BA
331
619C9
  5
619CF
331
618FC
  5
61902
331
618DA
  5
618E0
331
61958
  5
6195E
331
6197A
  5
61980
331
61869
  5
61869
331
61994
  5
6199A
331
6188B
  5
6188D
331
618A5
  5
618A7
331
619B6
  5
619BC
331
618C7
  5
618C9
331
618E9
  5
618EF
331
6190B
  5
61911
331
61925
  5
6192B
331
61947
  5
6194D
331
61969
  5
6196F
331
6187A
  5
6187A
331
6198B
  5
61991
331
6189C
  5
6189E
331
619A5
  5
619AB
331
618B6
  5
618B8
331
619C7
  5
619CD
331
60950
  5
60950
331
618FA
  5
61900
331
618D8
  5
618DE
331
61936
  5
6193C
331
60908
  5
60908
331
61978
  5
6197E
331
61992
  5
61998
331
61889
  5
6188B
331
618A3
  5
618A5
331
619B4
  5
619BA
331
618E7
  5
618ED
331
618C5
  5
618C7
331
61909
  5
6190F
331
61923
  5
61929
331
61945
  5
6194B
331
61967
  5
6196D
331
61989
  5
6198F
331
61878
  5
61878
331
6189A
  5
6189C
331
619A3
  5
619A9
331
619C5
  5
619CB
331
618F8
  5
618FE
331
618D6
  5
618DC
331
618B4
  5
618B6
331
61934
  5
6193A
331
61956
  5
6195C
331
61867
  5
61867
331
61990
  5
61996
331
618A1
  5
618A3
331
619B2
  5
619B8
331
618C3
  5
618C5
331
619D4
  5
619DE
331
618E5
  5
618EB
331
61907
  5
6190D
331
61921
  5
61927
331
61943
  5
61949
331
61965
  5
6196B
331
61876
  5
61876
331
61987
  5
6198D
331
61898
  5
6189A
331
619A1
  5
619A7
331
619C3
  5
619C9
331
618F6
  5
618FC
331
618D4
  5
618DA
331
618B2
  5
618B4
331
61932
  5
61938
331
61954
  5
6195A
331
61976
  5
6197C
331
61887
  5
61889
331
61865
  5
61865
  0
SORTENTSTABLE
  5
43669
102
{ACAD_REACTORS
330
43668
102
}
330
43668
100
AcDbSortentsTable
330
680
  0
XRECORD
  5
61B59
102
{ACAD_REACTORS
330
61B58
102
}
330
61B58
100
AcDbXrecord
280
     1
102
SHADEPLOT
 70
     0
  0
XRECORD
  5
61B5B
102
{ACAD_REACTORS
330
61B5A
102
}
330
61B5A
100
AcDbXrecord
280
     1
102
SHADEPLOT
 70
     0
  0
XRECORD
  5
61B55
102
{ACAD_REACTORS
330
61B54
102
}
330
61B54
100
AcDbXrecord
280
     1
102
SHADEPLOT
 70
     0
  0
XRECORD
  5
61B57
102
{ACAD_REACTORS
330
61B56
102
}
330
61B56
100
AcDbXrecord
280
     1
102
SHADEPLOT
 70
     0
  0
LAYOUT
  5
51
102
{ACAD_XDICTIONARY
360
B2
102
}
102
{ACAD_REACTORS
330
1A
102
}
330
1A
100
AcDbPlotSettings
  1

  2
none_device
  4
Letter_(8.50_x_11.00_Inches)
  6

 40
6.349999904632567
 41
6.349999904632567
 42
6.350006103515625
 43
6.350006103515625
 44
215.8999938964844
 45
279.3999938964844
 46
0.0
 47
0.0
 48
0.0
 49
0.0
140
0.0
141
0.0
142
1.0
143
1.0
 70
   688
 72
     1
 73
     1
 74
     5
  7

 75
    16
147
1.0
148
0.0
149
0.0
100
AcDbLayout
  1
\M+1838C\M+18343\M+18341\M+18345\M+183671
 70
     1
 71
     1
 10
-6.350006103515625
 20
-6.349999904632567
 11
273.0499877929688
 21
209.5499939918518
 12
0.0
 22
0.0
 32
0.0
 14
26.66999878883364
 24
20.31999878883365
 34
0.0
 15
240.0299890995025
 25
182.8799890995025
 35
0.0
146
0.0
 13
0.0
 23
0.0
 33
0.0
 16
1.0
 26
0.0
 36
0.0
 17
0.0
 27
1.0
 37
0.0
 76
     0
330
50
331
6B
  0
LAYOUT
  5
56
102
{ACAD_XDICTIONARY
360
B5
102
}
102
{ACAD_REACTORS
330
1A
102
}
330
1A
100
AcDbPlotSettings
  1

  2
none_device
  4
Letter_(8.50_x_11.00_Inches)
  6

 40
6.349999904632567
 41
6.349999904632567
 42
6.350006103515625
 43
6.350006103515625
 44
215.8999938964844
 45
279.3999938964844
 46
0.0
 47
0.0
 48
0.0
 49
0.0
140
0.0
141
0.0
142
1.0
143
1.0
 70
   688
 72
     1
 73
     1
 74
     5
  7

 75
    16
147
1.0
148
0.0
149
0.0
100
AcDbLayout
  1
\M+1838C\M+18343\M+18341\M+18345\M+183672
 70
     1
 71
     2
 10
-6.350006103515625
 20
-6.349999904632567
 11
273.0499877929688
 21
209.5499939918518
 12
0.0
 22
0.0
 32
0.0
 14
26.66999878883363
 24
20.31999878883363
 34
0.0
 15
240.0299890995026
 25
182.8799890995025
 35
0.0
146
0.0
 13
0.0
 23
0.0
 33
0.0
 16
1.0
 26
0.0
 36
0.0
 17
0.0
 27
1.0
 37
0.0
 76
     0
330
55
331
71
  0
LAYOUT
  5
22
102
{ACAD_XDICTIONARY
360
61B50
102
}
102
{ACAD_REACTORS
330
1A
102
}
330
1A
100
AcDbPlotSettings
  1

  2
none_device
  4
ANSI_A_(8.50_x_11.00_Inches)
  6

 40
6.349999904632567
 41
19.04999923706055
 42
6.350006103515625
 43
19.04998779296875
 44
215.8999938964844
 45
279.3999938964844
 46
0.0
 47
0.0
 48
0.0
 49
0.0
140
0.0
141
0.0
142
1.0
143
78.436453180766
 70
 11952
 72
     0
 73
     1
 74
     0
  7

 75
     0
147
0.0127491741332998
148
0.0
149
0.0
100
AcDbLayout
  1
Model
 70
     1
 71
     0
 10
0.0
 20
0.0
 11
12.0
 21
9.0
 12
0.0
 22
0.0
 32
0.0
 14
0.0
 24
0.0
 34
0.0
 15
0.0
 25
0.0
 35
0.0
146
0.0
 13
0.0
 23
0.0
 33
0.0
 16
1.0
 26
0.0
 36
0.0
 17
0.0
 27
1.0
 37
0.0
 76
     0
330
1F
  0
MLINESTYLE
  5
18
102
{ACAD_REACTORS
330
17
102
}
330
17
100
AcDbMlineStyle
  2
STANDARD
 70
     0
  3

 62
   256
 51
90.0
 52
90.0
 71
     2
 49
0.5
 62
   256
  6
BYLAYER
 49
-0.5
 62
   256
  6
BYLAYER
  0
ACDBPLACEHOLDER
  5
F
102
{ACAD_REACTORS
330
E
102
}
330
E
  0
TABLESTYLE
  5
A2
102
{ACAD_REACTORS
330
A1
102
}
330
A1
100
AcDbTableStyle
  3
Standard
 70
     0
 71
     0
 40
1.5
 41
1.5
280
     0
281
     0
  7
Standard
140
4.5
170
     2
 62
     0
 63
     7
283
     0
274
    -2
284
     1
 64
     0
275
    -2
285
     1
 65
     0
276
    -2
286
     1
 66
     0
277
    -2
287
     1
 67
     0
278
    -2
288
     1
 68
     0
279
    -2
289
     1
 69
     0
  7
Standard
140
6.0
170
     5
 62
     0
 63
     7
283
     0
274
    -2
284
     1
 64
     0
275
    -2
285
     1
 65
     0
276
    -2
286
     1
 66
     0
277
    -2
287
     1
 67
     0
278
    -2
288
     1
 68
     0
279
    -2
289
     1
 69
     0
  7
Standard
140
4.5
170
     5
 62
     0
 63
     7
283
     0
274
    -2
284
     1
 64
     0
275
    -2
285
     1
 65
     0
276
    -2
286
     1
 66
     0
277
    -2
287
     1
 67
     0
278
    -2
288
     1
 68
     0
279
    -2
289
     1
 69
     0
  0
DICTIONARYVAR
  5
B8
102
{ACAD_REACTORS
330
5E
102
}
330
5E
100
DictionaryVariables
280
     0
  1
STANDARD
  0
DICTIONARYVAR
  5
5F
102
{ACAD_REACTORS
330
5E
102
}
330
5E
100
DictionaryVariables
280
     0
  1
2
  0
DICTIONARYVAR
  5
63
102
{ACAD_REACTORS
330
5E
102
}
330
5E
100
DictionaryVariables
280
     0
  1
1
  0
DICTIONARYVAR
  5
31CE
102
{ACAD_REACTORS
330
5E
102
}
330
5E
100
DictionaryVariables
280
     0
  1

  0
XRECORD
  5
349EA
102
{ACAD_REACTORS
330
349E9
102
}
330
349E9
100
AcDbXrecord
280
     1
330
68C
330
431D
330
431E
330
4329
330
4334
330
4335
330
4B09
330
4B0A
330
5153
330
5154
330
515D
330
515E
330
516A
330
516B
330
5177
330
5178
330
85B4
330
85B5
330
8620
330
8621
330
862A
330
862B
330
8637
330
8638
330
8644
330
8645
330
9773
330
9774
330
977D
330
977E
330
978A
330
978B
330
9797
330
9798
330
BD86
330
BD87
330
BD8F
330
BD90
330
BD98
330
BDA0
330
BDA1
330
BDDD
330
BDDE
330
BDE7
330
BDE8
330
BDF4
330
BDF5
330
BE01
330
BE02
330
E473
330
E474
330
E48D
330
E48E
330
E485
330
E47C
330
E47D
330
E4CC
330
E4CD
330
E4D7
330
E4D8
330
1C63B
330
1C63C
330
1C705
330
1C706
330
1C719
330
1C71A
330
1C72E
330
1C72F
330
1C738
330
1C739
330
27043
330
27044
330
2703A
330
2703B
330
2CF2C
330
2CF2D
330
2CF38
330
2CF39
330
2CF42
330
2CF43
330
2CF4F
330
2CF50
330
2CF59
330
2CF5A
330
2FA31
330
2FA32
330
2FA3D
330
2FA3E
330
2FA4A
330
2FA4B
330
2FA54
330
2FA55
330
329D8
330
329D9
330
329E1
330
329E2
330
329EA
330
329EB
330
329F3
330
329F4
330
32E63
330
32E64
330
32E6F
330
32E70
330
32E79
330
32E7A
330
32E88
330
32E89
330
32E92
330
32E93
  0
DICTIONARY
  5
B2
330
51
100
AcDbDictionary
280
     1
281
     1
  3
ACAD_XREC_ROUNDTRIP
360
61B52
  3
ADSK_XREC_LAYOUTTHUMBNAIL
360
B3
  0
DICTIONARY
  5
B5
330
56
100
AcDbDictionary
280
     1
281
     1
  3
ACAD_XREC_ROUNDTRIP
360
61B53
  3
ADSK_XREC_LAYOUTTHUMBNAIL
360
B6
  0
DICTIONARY
  5
61B50
330
22
100
AcDbDictionary
280
     1
281
     1
  3
ACAD_XREC_ROUNDTRIP
360
61B51
  0
XRECORD
  5
61B52
102
{ACAD_REACTORS
330
B2
102
}
330
B2
100
AcDbXrecord
280
     1
102
SHADEPLOT
 70
     0
102
SHADEPLOTRESLEVEL
 70
     2
102
SHADEPLOTCUSTOMDPI
 70
   300
  0
XRECORD
  5
B3
102
{ACAD_REACTORS
330
B2
102
}
330
B2
100
AcDbXrecord
280
     1
310
28000000B40000008B0000000100080000000000BC61000000000000000000000001000000000000FFFFFF0000000000FFFFFF000000000000000000000000000000000000000000000000000000000000000000330000006600000099000000CC000000FF00000000330000333300006633000099330000CC330000FF3300
310
0000660000336600006666000099660000CC660000FF66000000990000339900006699000099990000CC990000FF99000000CC000033CC000066CC000099CC0000CCCC0000FFCC000000FF000033FF000066FF000099FF0000CCFF0000FFFF000000003300330033006600330099003300CC003300FF003300003333003333
310
33006633330099333300CC333300FF33330000663300336633006666330099663300CC663300FF66330000993300339933006699330099993300CC993300FF99330000CC330033CC330066CC330099CC3300CCCC3300FFCC330000FF330033FF330066FF330099FF3300CCFF3300FFFF330000006600330066006600660099
310
006600CC006600FF00660000336600333366006633660099336600CC336600FF33660000666600336666006666660099666600CC666600FF66660000996600339966006699660099996600CC996600FF99660000CC660033CC660066CC660099CC6600CCCC6600FFCC660000FF660033FF660066FF660099FF6600CCFF6600
310
FFFF660000009900330099006600990099009900CC009900FF00990000339900333399006633990099339900CC339900FF33990000669900336699006666990099669900CC669900FF66990000999900339999006699990099999900CC999900FF99990000CC990033CC990066CC990099CC9900CCCC9900FFCC990000FF99
310
0033FF990066FF990099FF9900CCFF9900FFFF99000000CC003300CC006600CC009900CC00CC00CC00FF00CC000033CC003333CC006633CC009933CC00CC33CC00FF33CC000066CC003366CC006666CC009966CC00CC66CC00FF66CC000099CC003399CC006699CC009999CC00CC99CC00FF99CC0000CCCC0033CCCC0066CC
310
CC0099CCCC00CCCCCC00FFCCCC0000FFCC0033FFCC0066FFCC0099FFCC00CCFFCC00FFFFCC000000FF003300FF006600FF009900FF00CC00FF00FF00FF000033FF003333FF006633FF009933FF00CC33FF00FF33FF000066FF003366FF006666FF009966FF00CC66FF00FF66FF000099FF003399FF006699FF009999FF00CC
310
99FF00FF99FF0000CCFF0033CCFF0066CCFF0099CCFF00CCCCFF00FFCCFF0000FFFF0033FFFF0066FFFF0099FFFF00CCFFFF00FFFFFF00000000000D0D0D001A1A1A00282828003535350043434300505050005D5D5D006B6B6B00787878008686860093939300A1A1A100AEAEAE00BBBBBB00C9C9C900D6D6D600E4E4E400
310
F1F1F100FFFFFF0000000000000000000000000000000000000000000000000000000000000000000000000000000000EFEFEFE2E2E2E2E2E2E2E2E2E2E2E2E2E2E2E2E2E2E2E2E2E2E2E2E2E2E2E2E2E2E2E2E2E2E2E2E2E2E2E2E2E2E2E2E2E2E2E2E2E2E2E2E2E2E2E2E2E2E2E2E2E2E2E2E2E2E2E2E2E2E2E2E2E2E2E2
310
E2E2E2E2E2E2E2E2E2E2E2E2E2E2E2E2E2E2E2E2E2E2E2E2E2E2E2E2E2E2E2E2E2E2E2E2E2E2E2E2E2E2E2E2E2E2E2E2E2E2E2E2E2E2E2E2E2E2E2E2E2E2E2E2E2E2E2E2E2E2E2E2E2E2E2E2E2E2E2E2E2E2E2E2E2E2E2E2E2E2E2E2E2E2E2E2E2E2E2E2E2E2E2E2E2E2E2E2E2E2E2E2E2E2E2E2E2E2E2E2E2E2E2E2E2E2E2
310
E2E2E2E2E2E2E2E2E2E2E2E2E2E2E2E2E2E2E2E2E2E2E2E2E2E2E2E2E2E2E2E2E2E2E2E2E2E2E2E2E2E2E2E2E2E2E2E2E2E2E2E2E2E2E2E2E2E2E2E2E2E2E2E2E2E2E2E2E2E2E2E2E2E2E2E2E2E2E2E2E2E2E2E2E2E2E2E2E2E2E2E2E2E2E2E2E2E2E2E2E2E2E2E2E2E2E2E2E2E2E2E2E2E2E2E2E2E2E2E2E2E2E2E2E2E2E2
310
E2E2E2E2E2E2E2E2E2E2E2E2E2E2E2E2E2E2E2E2E2E2E2E2E2E2E2E2F5F5F5F5F5F5F5F5F5F5F5F5F5F5F5F5F5F5F5F5F5F5F5F5F5F5F5F5F5F5F5F5F5F5F5F5F5F5F5F5F5F5F5F5F5F5F5F5F5F5F5F5F5F5F5F5F5F5F5F5F5F5F5F5F5F5F5F5F5F5F5F5F5F5F5F5F5F5F5F5F5F5F5F5F5F5F5F5F5F5F5F5F5F5F5F5F5F5F5
310
F5F5F5F5F5F5F5F5F5F5F5F5F5F5F5F5F5F5F5F5F5F5F5F5F5F5F5F5F5F5F5F5F5F5F5F5F5F5F5F5F5F5F5F5F5F5F5F5F5F5F5F5F5F5F5F5F5F5F5F5F5F5F5F5F5F5F5F5F5F5F5F5F5F5F5F5F5F5F5E2E2F5F5F5F5F5F5F5F5F5F5F5F5F5F5F5F5F5F5F5F5F5F5F5F5F5F5F5F5F5F5F5F5F5F5F5F5F5F5F5F5F5F5F5F5F5F5
310
F5F5F5F5F5F5F5F5F5F5F5F5F5F5F5F5F5F5F5F5F5F5F5F5F5F5F5F5F5F5F5F5F5F5F5F5F5F5F5F5F5F5F5F5F5F5F5F5F5F5F5F5F5F5F5F5F5F5F5F5F5F5F5F5F5F5F5F5F5F5F5F5F5F5F5F5F5F5F5F5F5F5F5F5F5F5F5F5F5F5F5F5F5F5F5F5F5F5F5F5F5F5F5F5F5F5F5F5F5F5F5F5F5F5F5F5F5F5F5F5F5F5F5F5F5F5F5
310
F5F5F5F5F5E2E2F5F5F5F5F5F5F5F5F5F5F5F5F5F5F5F5F5F5F5F5F5F5F5F5F5F5F5F5F5F5F5F5F5F5F5F5F5F5F5F5F5F5F5F5F5F5F5F5F5F5F5F5F5F5F5F5F5F5F5F5F5F5F5F5F5F5F5F5F5F5F5F5F5F5F5F5F5F5F5F5F5F5F5F5F5F5F5F5F5F5F5F5F5F5F5F5F5F5F5F5F5F5F5F5F5F5F5F5F5F5F5F5F5F5F5F5F5F5F5F5
310
F5F5F5F5F5F5F5F5F5F5F5F5F5F5F5F5F5F5F5F5F5F5F5F5F5F5F5F5F5F5F5F5F5F5F5F5F5F5F5F5F5F5F5F5F5F5F5F5F5F5F5F5F5F5F5F5F5F5E2E2F5F5F5F5E2E2E2E2E2E2E2E2F5F5F5F5F5F5F5F5F5E2E2E2E2E2E2E2E2E2E2E2E2E2E2E2F5F5F5F5F5F5F5F5F5E2E2E2E2E2E2E2E2E2E2E2E2E2E2E2E2F5F5F5F5F5F5
310
F5F5E2E2E2E2E2E2E2E2E2E2E2E2E2E2E2E2F5F5F5F5F5F5F5F5E2E2E2E2E2E2E2E2E2E2E2E2E2E2E2E2F5F5F5F5F5F5F5F5E2E2E2E2E2E2E2E2E2E2E2E2E2E2E2E2F5F5F5F5F5F5F5F5F5E2E2E2E2E2E2E2E2E2E2E2E2E2E2E2F5F5F5F5F5F5F5F5F5E2E2E2E2E2E2E2E2F5F5F5F5E2E2F5F5F5F5E2F5F5F5F5F5F5F5F5F5
310
F5F5F5F5F5F5F5F5F5F5F5F5F5F5F5F5F5F5F5F5F5F5F5F5F5F5F5F5F5F5F5F5F5F5F5F5F5F5F5F5F5F5F5F5F5F5F5F5F5F5F5F5F5F5F5F5F5F5F5F5F5F5F5F5F5F5F5F5F5F5F5F5F5F5F5F5F5F5F5F5F5F5F5F5F5F5F5F5F5F5F5F5F5F5F5F5F5F5F5F5F5F5F5F5F5F5F5F5F5F5F5F5F5F5F5F5F5F5F5F5F5F5F5F5F5F5F5
310
F5F5F5F5F5F5F5F5F5F5F5F5F5F5F5F5F5F5F5F5F5F5F5F5F5F5F5F5F5F5F5F5E2F5F5F5F5E2E2F5F5F5F5E2F5F5F5F5F5F5F5F5F5F5F5F5F5F5F5F5F5F5F5F5F5F5F5F5F5F5F5F5F5F5F5F5F5F5F5F5F5F5F5F5F5F5F5F5F5F5F5F5F5F5F5F5F5F5F5F5F5F5F5F5F5F5F5F5F5F5F5F5F5F5F5F5F5F5F5F5F5F5F5F5F5F5F5
310
F5F5F5F5F5F5F5F5F5F5F5F5F5F5F5F5F5F5F5F5F5F5F5F5F5F5F5F5F5F5F5F5F5F5F5F5F5F5F5F5F5F5F5F5F5F5F5F5F5F5F5F5F5F5F5F5F5F5F5F5F5F5F5F5F5F5F5F5F5F5F5F5F5F5F5F5F5F5F5F5F5F5F5F5F5E2F5F5F5F5E2E2F5F5F5F5E2F5F5F5F5F5F5F5F5F5F5F5F5F5F5F5F5F5F5F5F5F5F5F5F5F5F5F5F5F5F5
310
F5F5F5F5F5F5F5F5F5F5F5F5F5F5F5F5F5F5F5F5F5F5F5F5F5F5F5F5F5F5F5F5F5F5F5F5F5F5F5F5F5F5F5F5F5F5F5F5F5F5F5F5F5F5F5F5F5F5F5F5F5F5F5F5F5F5F5F5F5F5F5F5F5F5F5F5F5F5F5F5F5F5F5F5F5F5F5F5F5F5F5F5F5F5F5F5F5F5F5F5F5F5F5F5F5F5F5F5F5F5F5F5F5F5F5F5F5F5F5F5F5F5F5F5F5F5F5
310
F5F5F5F5F5F5F5F5F5F5F5E2F5F5F5F5E2E2F5F5F5F5E2F5F5F5F5F5F5F5F5F5F5F5F5F5F5F5F5F5F5F5F5F5F5F5F5F5F5F5F5F5F5F5F5F5F5F5F5F5F5F5F5F5F5F5F5F5F5F5F5F5F5F5F5F5F5F5F5F5F5F5F5F5F5F5F5F5F5F5F5F5F5F5F5F5F5F5F5F5F5F5F5F5F5F5F5F5F5F5F5F5F5F5F5F5F5F5F5F5F5F5F5F5F5F5F5
310
F5F5F5F5F5F5F5F5F5F5F5F5F5F5F5F5F5F5F5F5F5F5F5F5F5F5F5F5F5F5F5F5F5F5F5F5F5F5F5F5F5F5F5F5F5F5F5F5F5F5F5F5F5F5F5F5F5F5F5F5F5F5F5F5E2F5F5F5F5E2E2F5F5F5F5E2F5F5F5F5F5F5F5F5F5F5F5F5F5F5F5F5F5F5F5F5F5F5F5F5F5F5F5F5F5F5F5F5F5F5F5F5F5F5F5F5F5F5F5F5F5F5F5F5F5F5F5
310
F5F5F5F5F5F5F5F5F5F5F5F5F5F5F5F5F5F5F5F5F5F5F5F5F5F5F5F5F5F5F5F5F5F5F5F5F5F5F5F5F5F5F5F5F5F5F5F5F5F5F5F5F5F5F5F5F5F5F5F5F5F5F5F5F5F5F5F5F5F5F5F5F5F5F5F5F5F5F5F5F5F5F5F5F5F5F5F5F5F5F5F5F5F5F5F5F5F5F5F5F5F5F5F5F5F5F5F5F5F5F5F5F5F5F5F5F5E2F5F5F5F5E2E2F5F5F5
310
F5E2F5F5F5F5F5F5F5F5F5F5F5F5F5F5F5F5F5F5F5F5F5F5F5F5F5F5F5F5F5F5F5F5F5F5F5F5F5F5F5F5F5F5F5F5F5F5F5F5F5F5F5F5F5F5F5F5F5F5F5F5F5F5F5F5F5F5F5F5F5F5F5F5F5F5F5F5F5F5F5F5F5F5F5F5F5F5F5F5F5F5F5F5F5F5F5F5F5F5F5F5F5F5F5F5F5F5F5F5F5F5F5F5F5F5F5F5F5F5F5F5F5F5F5F5F5
310
F5F5F5F5F5F5F5F5F5F5F5F5F5F5F5F5F5F5F5F5F5F5F5F5F5F5F5F5F5F5F5F5F5F5F5F5F5F5F5F5F5F5F5E2F5F5F5F5E2E2F5F5F5F5E2F5F5F5F5F5F5F5F5F5F5F5F5F5F5F5F5F5F5F5F5F5F5F5F5F5F5F5F5F5F5F5F5F5F5F5F5F5F5F5F5F5F5F5F5F5F5F5F5F5F5F5F5F5F5F5F5F5F5F5F5F5F5F5F5F5F5F5F5F5F5F5F5
310
F5F5F5F5F5F5F5F5F5F5F5F5F5F5F5F5F5F5F5F5F5F5F5F5F5F5F5F5F5F5F5F5F5F5F5F5F5F5F5F5F5F5F5F5F5F5F5F5F5F5F5F5F5F5F5F5F5F5F5F5F5F5F5F5F5F5F5F5F5F5F5F5F5F5F5F5F5F5F5F5F5F5F5F5F5F5F5F5F5F5F5F5F5F5F5F5E2F5F5F5F5E2E2F5F5F5F5E2F5F5F5F5F5F5F5F5F5F5F5F5F5F5F5F5F5F5F5
310
F5F5F5F5F5F5F5F5F5F5F5F5F5F5F5F5F5F5F5F5F5F5F5F5F5F5F5F5F5F5F5F5F5F5F5F5F5F5F5F5F5F5F5F5F5F5F5F5F5F5F5F5F5F5F5F5F5F5F5F5F5F5F5F5F5F5F5F5F5F5F5F5F5F5F5F5F5F5F5F5F5F5F5F5F5F5F5F5F5F5F5F5F5F5F5F5F5F5F5F5F5F5F5F5F5F5F5F5F5F5F5F5F5F5F5F5F5F5F5F5F5F5F5F5F5F5F5
310
F5F5F5F5F5F5F5F5F5F5F5F5F5F5F5F5F5F5F5F5F5F5E2F5F5F5F5E2E2F5F5F5F5F5F5F5F5F5F5F5F5F5F5F5F5F5F5F5F5F5F5F5F5F5F5F5F5F5F5F5F5F5F5F5F5F5F5F5F5F5F5F5F5F5F5F5F5F5F5F5F5F5F5F5F5F5F5F5F5F5F5F5F5F5F5F5F5F5F5F5F5F5F5F5F5F5F5F5F5F5F5F5F5F5F5F5F5F5F5F5F5F5F5F5F5F5F5
310
F5F5F5F5F5F5F5F5F5F5F5F5F5F5F5F5F5F5F5F5F5F5F5F5F5F5F5F5F5F5F5F5F5F5F5F5F5F5F5F5F5F5F5F5F5F5F5F5F5F5F5F5F5F5F5F5F5F5F5F5F5F5F5F5F5F5F5F5F5F5F5F5F5F5F5F5F5F5F5F5E2E2F5F5F5F5F5F5F5F5F5F5F5F5F5F5F5F5F5F5F5F5F5F5F5F5F5F5F5F5F5F5F5F5F5F5F5F5F5F5F5F5F5F5F5F5F5
310
F5F5F5F5F5F5F5F5F5F5F5F5F5F5F5F5F5F5F5F5F5F5F5F5F5F5F5F5F5F5F5F5F5F5F5F5F5F5F5F5F5F5F5F5F5F5F5F5F5F5F5F5F5F5F5F5F5F5F5F5F5F5F5F5F5F5F5F5F5F5F5F5F5F5F5F5F5F5F5F5F5F5F5F5F5F5F5F5F5F5F5F5F5F5F5F5F5F5F5F5F5F5F5F5F5F5F5F5F5F5F5F5F5F5F5F5F5F5F5F5F5F5F5F5F5F5F5
310
F5F5F5F5F5F5E2E2F5F5F5F5F5F5F5F5F5F5F5F5F5F5F5F5F5F5F5F5F5F5F5F5F5F5F5F5F5F5F5F5F5F5F5F5F5F5F5F5F5F5F5F5F5F5F5F5F5F5F5F5F5F5F5F5F5F5F5F5F5F5F5F5F5F5F5F5F5F5F5F5F5F5F5F5F5F5F5F5F5F5F5F5F5F5F5F5F5F5F5F5F5F5F5F5F5F5F5F5F5F5F5F5F5F5F5F5F5F5F5F5F5F5F5F5F5F5F5
310
F5F5F5F5F5F5F5F5F5F5F5F5F5F5F5F5F5F5F5F5F5F5F5F5F5F5F5F5F5F5F5F5F5F5F5F5F5F5F5F5F5F5F5F5F5F5F5F5F5F5F5F5F5F5F5F5F5F5F5E2E2F5F5F5F5F5F5F5F5F5F5F5F5F5F5F5F5F5F5F5F5F5F5F5F5F5F5F5F5F5F5F5F5F5F5F5F5F5F5F5F5F5F5F5F5F5F5F5F5F5F5F5F5F5F5F5F5F5F5F5F5F5F5F5F5F5F5
310
F5F5F5F5F5F5F5F5F5F5F5F5F5F5F5F5F5F5F5F5F5F5F5F5F5F5F5F5F5F5F5F5F5F5F5F5F5F5F5F5F5F5F5F5F5F5F5F5F5F5F5F5F5F5F5F5F5F5F5F5F5F5F5F5F5F5F5F5F5F5F5F5F5F5F5F5F5F5F5F5F5F5F5F5F5F5F5F5F5F5F5F5F5F5F5F5F5F5F5F5F5F5F5F5F5F5F5F5F5F5F5F5E2E2F5F5F5F5F5F5F5F5F5F5F5F5F5
310
F5F5F5F5F5F5F5F5E2E2E2E2E2E2E2E2E2E2E2E2E2E2E2E2E2E2E2E2E2E2E2E2E2E2E2E2E2E2E2E2E2E2E2E2E2E2E2E2E2E2E2E2E2E2E2E2E2E2E2E2E2E2E2E2E2E2E2E2E2E2E2E2E2E2E2E2E2E2E2E2E2E2E2E2E2E2E2E2E2E2E2E2E2E2E2E2E2E2E2E2E2E2E2E2E2E2E2E2E2E2E2E2E2E2E2E2E2E2E2E2E2E2E2E2E2E2E2
310
E2E2E2E2E2E2E2E2E2E2E2E2E2E2E2E2E2F5F5F5F5F5F5F5F5F5F5F5F5F5F5F5F5F5F5F5F5F5E2E2F5F5F5F5F5F5F5F5F5F5F5F5F5F5F5F5F5F5F5F5F5E22D2D2D2DF5F5F5F5E2F5F5F5F5F5F5F52DF5F5F5F5F5F5F5F5F5F5F5F5F5F5F5F5F5F5E2F5F5F5F5F5F5F5F5F5F5F5F5F5F5F5F5F5F5F5F5F5F5F5F5F5F5F5F5F5
310
F5F5F5F5F5F5F5F5F5F5F5F5F5F5F5F5F5F5F5F5F5F5F5F5F5F5F5F5F5F5F5F5F5F5F5F5F5F5F5F5F5F5F5F5F5F5F5F5F5F5F5F5F5F5F5F5F5F5F5F5F5F5F5F5F5F5F5F5F5E2F5F5F5F5F5F5F5F5F5F5F5F5F5F5F5F5F5F5F5F5F5E2E2F5F5F5F5F5F5F5F5F5F5F5F5F5F5F5F5F5F5F5F5F5E2DCF5F52DF5F5F5F5E2F5F5F5
310
F5F5F5F52DF5F5F5F5F5F5F5F5F5F5F5F5F5F5F5F5F5F5E2F5F5F5F5F5F5F5F5F5F5F5F5F5F5F5F5F5F5F5F5F5F5F5F5F5F5F5F5F5F5F5F5F5F5F5F5F5F5F5F5F5F5F5F5F5F5F5F5F5F5F5F5F5F5F5F5F5F5F5F5F5F5F5F5F5F5F5F5F5F5F5F5F5F5F5F5F5F5F5F5F5F5F5F5F5F5F5F5F5F5F5F5F5F5F5F5F5F5E2F5F5F5F5
310
F5F5F5F5F5F5F5F5F5F5F5F5F5F5F5F5F5E2E2F5F5F5F5F5F5F5F5F5F5F5F5F5F5F5F5F5F5F5F5F5E2DCF5F52DF5F5F5F5E2F5F5F5F5F5F5F52DF5F5F5F5F5F5F5F5F5F5F5F5F5F5F5F5F5F5E2E2F5F5F5F5F5F5F5F5F5F5F5F5F5F5F5F5F5F5F5F5F5F5F5F5F5F5F5F5F5F5F5F5F5F5F5F5F5F5F5F5F5F5F5F5F5F5F5F5F5
310
F5F5F5F5F5F5F5F5F5F5F5F5F5F5F5F5F5F5F5F5F5F5F5F5F5F5F5F5F5F5F5F5F5F5F5F5F5F5F5F5F5F5F5F5F5F5F5F5E2F5F5F5F5F5F5F5F5F5F5F5F5F5F5F5F5F5F5F5F5F5E2E2F5F5F5F5F5F5F5F5F5F5F5F5F5F5F5F5F5F5F5F5F5E2BEF5F52D2D2D2D2D2D2D2D2D2D2D2D2D2DE2E2E2E2E2E2E2E2E2E2E2E2E2E2E2E2
310
E2E2E2E2F5F5F5F5F5F5F5F5F5F5F5F5F5F5F5F5F5F5F5F5F5F5F5F5F5F5F5F5F5F5F5F5F5F5F5F5F5F5F5F5F5F5F5F5F5F5F5F5F5F5F5F5F5F5F5F5F5F5F5F5F5F5F5F5F5F5F5F5F5F5F5F5F5F5F5F5F5F5F5F5F5F5F5F5F5F5F5F5F5F5F5F5F5F5F5F5F5E2F5F5F5F5F5F5F5F5F5F5F5F5F5F5F5F5F5F5F5F5F5E2E2F5F5
310
F5F5E2F5F5F5F5F5F5F5F5F5F5F5F5F5F5F5F5E2DCF5F5F5F5F5F5F5E2F5F5F5F5F5F5F5E2F5F5F5F5F5F5F5F5F5F5F5F5F5F5F5F5F5F5F5F5F5F5F5F5F5F5F5F5F5F5F5F5F5F5F5F5F5F5F5F5F5F5F5F5F5F5F5F5F5F5F5F5F5F5F5F5F5F5F5F5F5F5F5F5F5F5F5F5F5F5F5F5F5F5F5F5F5F5F5F5F5F5F5F5F5F5F5F5F5F5
310
F5F5F5F5F5F5F5F5F5F5F5F5F5F5F5F5F5F5F5F5F5F5F5F5F5F5F5E2F5F5F5F5F5F5F5F5F5F5F5F5F5F5F5F5E2F5F5F5F5E2E2F5F5F5F5E2F5F5F5F5F5F5F5F5F5F5F5F5F5F5F5F5E2F5F5F5F5F5F5F5F5E2F5F5F5F5F5F5F5E2F5F5F5F5F5F5F5F5F5F5F5F5F5F5F5F5F5F5F5F5F5F5F5F5F5F5F5F5F5F5F5F5F5F5F5F5F5
310
F5F5F5F5F5F5F5F5F5F5F5F5F5F5F5F5F5F5F5F5F5F5F5F5F5F5F5F5F5F5F5F5F5F5F5F5F5F5F5F5F5F5F5F5F5F5F5F5F5F5F5F5F5F5F5F5F5F5F5F5F5F5F5F5F5F5F5F5F5F5F5F5F5F5F5F5F5F5F5F5E2F5F5F5F5F5F5F5F5F5F5F5F5F5F5F5F5E2F5F5F5F5E2E2F5F5F5F5E2F5F5F5F5F5F5F5F5F5F5F5F5F5F5F5F5E2E2
310
E2E2E2E2E2E2E2E2F5F5F5F5F5F5F5E2F5F5F5F5F5F5F5F5F5F5F5F5F5F5F5F5F5F5F5F5F5F5F5F5F5F5F5F5F5F5F5F5F5F5F5F5F5F5F5F5F5F5F5F5F5F5F5F5F5F5F5F5F5F5F5F5F5F5F5F5F5F5F5F5F5F5F5F5F5F5F5F5F5F5F5F5F5F5F5F5F5F5F5F5F5F5F5F5F5F5F5F5F5F5F5F5F5F5F5F5F5F5F5F5F5F5F5F5F5F5F5
310
F5F5F5F5F5F5E2F5F5F5F5F5F5F5F5F5F5F5F5F5F5F5F5E2F5F5F5F5E2E2F5F5F5F5E2F5F5F5F5F5F5F5F5F5F5F5F5F5F5F5F5E2E2E2E2F5F5F5F5F5F5F5F5F5F5F5F5F5E2F5F5F5F5F5F5F5F5F5F5F5F5F5F5F5F5F5F5F5F5F5F5F5F5F5F5F5F5F5F5F5F5F5F5F5F5F5F5F5F5F5F5F5F5F5F5F5F5F5F5F5F5F5F5F5F5F5F5
310
F5F5F5F5F5F5F5F5F5F5F5F5F5F5F5F5F5F5F5F5F5F5F5F5F5F5F5F5F5F5F5F5F5F5F5F5F5F5F5F5F5F5F5F5F5F5F5F5F5F5F5F5F5F5F5F5F5F5F5E2F5F5F5F5F5F5F5F5F5F5F5F5F5F5F5F5E2F5F5F5F5E2E2F5F5F5F5E2F5F5F5F5F5F5F5F5F5F5F5F5F5F5F5F5E2E2E2E2F5F5F5F5F5F5F5F5F5F5F5F5F5E2F5F5F5F5F5
310
F5F5F5F5F5F5F5F5F5F5F5F5F5F5F5F5F5F5F5F5F5F5F5F5F5F5F5F5F5F5F5F5F5F5F5F5F5F5F5F5F5F5F5F5F5F5F5F5F5F5F5F5F5F5F5F5F5F5F5F5F5F5F5F5F5F5F5F5F5F5F5F5F5F5F5F5F5F5F5F5F5F5F5F5F5F5F5F5F5F5F5F5F5F5F5F5F5F5F5F5F5F5F5F5F5F5F5F5F5F5F5F5E2F5F5F5F5F5F5F5F5F5F5F5F5F5F5
310
F5F5E2F5F5F5F5E2E2F5F5F5F5E2F5F5F5F5F5F5F5F5F5F5F5F5F5F5F5F5E2F5F5F5F5F5F5F5F5F5F5F5F5F5F5F5F5E2F5F5F5F5F5F5F5F5F5F5F5F5F5F5F5F5F5F5F5F5F5F5F5F5F5F5F5F5F5F5F5F5F5F5F5F5F5F5F5F5F5F5F5F5F5F5F5F5F5F5F5F5F5F5F5F5F5F5F5F5F5F5F5F5F5F5F5F5F5F5F5F5F5F5F5F5F5F5F5
310
F5F5F5F5F5F5F5F5F5F5F5F5F5F5F5F5F5F5F5F5F5F5F5F5F5F5F5F5F5F5F5F5F5F5F5F5F5F5E2F5F5F5F5F5F5F5F5F5F5F5F5F5F5F5F5E2F5F5F5F5E2E2F5F5F5F5E2F5F5F5F5F5F5F5F5F5F5F5F5F5F5F5F5E2E2E2E2E2E2E2E2E2E2E2E2E2E2E2E2E2E2F5F5F5F5F5F5F5F5F5F5F5F5F5F5F5F5F5F5F5F5F5F5F5F5F5F5
310
F5F5F5F5F5F5F5F5F5F5F5F5F5F5F5F5F5F5F5F5F5F5F5F5F5F5F5F5F5F5F5F5F5F5F5F5F5F5F5F5F5F5F5F5F5F5F5F5F5F5F5F5F5F5F5F5F5F5F5F5F5F5F5F5F5F5F5F5F5F5F5F5F5F5F5F5F5F5F5F5F5F5F5F5F5F5F5F5F5F5F5E2F5F5F5F5F5F5F5F5F5F5F5F5F5F5F5F5E2F5F5F5F5E2E2F5F5F5F5E2F5F5F5F5F5F5F5
310
F5F5F5F5F5F5F5F5F5E2E2E2F5F5F5F5F5F5F5F5F5F5F5F5F5F5F5F5F5F5F5F5F5F5F5F5F5F5F5F5F5F5F5F5F5F5F5F5F5F5F5F5F5F5F5F5F5F5F5F5F5F5F5F5F5F5F5F5F5F5F5F5F5F5F5F5F5F5F5F5F5F5F5F5F5F5F5F5F5F5F5F5F5F5F5F5F5F5F5F5F5F5F5F5F5F5F5F5F5F5F5F5F5F5F5F5F5F5F5F5F5F5F5F5F5F5F5
310
F5F5F5F5F5F5F5F5F5F5F5F5F5F5F5F5F5E2F5F5F5F5F5F5F5F5F5F5F5F5F5F5F5F5E2F5F5F5F5E2E2F5F5F5F5E2F5F5F5F5F5F5F5F5F5F5F5F5F5F5F5F5E2E2E2F5F5F5F5F5F5F5F5F5F5F5F5F5F5F5F5F5F5F5F5F5F5F5F5F5F5F5F5F5F5F5F5F5F5F5F5F5F5F5F5F5F5F5F5F5F5F5F5F5F5F5F5F5F5F5F5F5F5F5F5F5F5
310
F5F5F5F5F5F5F5F5F5F5F5F5F5F5F5F5F5F5F5F5F5F5F5F5F5F5F5F5F5F5F5F5F5F5F5F5F5F5F5F5F5F5F5F5F5F5F5F5F5F5F5F5F5F5F5F5F5F5F5F5F5F5F5F5F5F5F5F5F5F5E2F5F5F5F5F5F5F5F5F5F5F5F5F5F5F5F5E2F5F5F5F5E2E2F5F5F5F5E2F5F5F5F5F5F5F5F5F5F5F5F5F5F5F5F5E2F5F5F5F5F5F5F5F5F5F5F5
310
F5F5F5F5F5F5F5F5F5F5F5F5F5F5F5F5F5F5F5F5F5F5F5F5F5F5F5F5F5F5F5F5F5F5F5F5F5F5F5F5F5F5F5F5F5F5F5F5F5F5F5F5F5F5F5F5F5F5F5F5F5F5F5F5F5F5F5F5F5F5F5F5F5F5F5F5F5F5F5F5F5F5F5F5F5F5F5F5F5F5F5F5F5F5F5F5F5F5F5F5F5F5F5F5F5F5F5F5F5F5F5F5F5F5F5F5F5F5F5F5F5F5F5E2F5F5F5
310
F5F5F5F5F5F5F5F5F5F5F5F5F5E2F5F5F5F5E2E2F5F5F5F5E2F5F5F5F5F5F5F5F5F5F5F5F5F5F5F5F5E20F0F0F0F0F0F0F0F0F0F0FF5F5F5F5F5F5F5F5F5F5F5F5F5F5F5F5F5F5F5F5F5F5F5F5F5F5F5F5F5F5F5F5F5F5F5F5F5F5F5F5F5F5F5F5F5F5F5F5F5F5F5F5F5F5F5F5F5F5F5F5F5F5F5F5F5F5F5F5F5F5F5F5F5F5
310
F5F5F5F5F5F5F5F5F5F5F5F5F5F5F5F5F5F5F5F5F5F5F5F5F5F5F5F5F5F5F5F5F5F5F5F5F5F5F5F5F5F5F5F5F5F5F5F5F5E2F5F5F5F5F5F5F5F5F5F5F5F5F5F5F5F5E2F5F5F5F5E2E2F5F5F5F5E2F5F5F5F5F5F5F5F5F5F5F5F5F5F5F5F5E20F0F0F0F0F0F0F0F0F0FF5F5F5F5F5F5F5F5F5F5F5F5F5F5F5F5F5F5F5F5F5F5
310
F5F5F5F5F5F5F5F5F5F5F5F5F5F5F5F5F5F5F5F5F5F5F5F5F5F5F5F5F5F5F5F5F5F5F5F5F5F5F5F5F5F5F5F5F5F5F5F5F5F5F5F5F5F5F5F5F5F5F5F5F5F5F5F5F5F5F5F5F5F5F5F5F5F5F5F5F5F5F5F5F5F5F5F5F5F5F5F5F5F5F5F5F5F5F5F5F5F5F5F5F5F5E2F5F5F5F5F5F5F5F5F5F5F5F5F5F5F5F5E2F5F5F5F5E2E2F5
310
F5F5F5E2F5F5F5F5F5F5F5F5F5F5F5F5F5F5F5F5E2F5F5F5F5F5F5F5F5F5F5F5F5F5F5F5F5F5F5F5F5F5F5F5F5F5F5F5F5F5F5F5F5F5F5F5F5F5F5F5F5F5F5F5F5F5F5F5F5F5F5F5F5F5F5F5F5F5F5F5F5F5F5F5F5F5F5F5F5F5F5F5F5F5F5F5F5F5F5F5F5F5F5F5F5F5F5F5F5F5F5F5F5F5F5F5F5F5F5F5F5F5F5F5F5F5F5
310
F5F5F5F5F5F5F5F5F5F5F5F5F5F5F5F5F5F5F5F5F5F5F5F5F5F5F5F5E2F5F5F5F5F5F5F5F5F5F5F5F5F5F5F5F5E2F5F5F5F5E2E2F5F5F5F5E2F5F5F5F5F5F5F5F5F5F5F5F5F5F5F5F5E2F5F5F5F5F5F5F5F5F5F5F5F5F5F5F5F5F5F5F5F5F5F5F5F5F5F5F5F5F5F5F5F5F5F5F5F5F5F5F5F5F5F5F5F5F5F5F5F5F5F5F5F5F5
310
F5F5F5F5F5F5F5F5F5F5F5F5F5F5F5F5F5F5F5F5F5F5F5F5F5F5F5F5F5F5F5F5F5F5F5F5F5F5F5F5F5F5F5F5F5F5F5F5F5F5F5F5F5F5F5F5F5F5F5F5F5F5F5F5F5F5F5F5F5F5F5F5F5F5F5F5F5F5F5F5F5E2F5F5F5F5F5F5F5F5F5F5F5F5F5F5F5F5E2F5F5F5F5E2E2F5F5F5F5E2F5F5F5F5F5F5F5F5F5F5F5F5F5F5F5F5E2
310
F5F5F5F5F5F5F5F5F5F5F5F5F5F5F5F5F5F5F5F5F5F5F5F5F5F5F5F5F5F5F5F5F5F5F5F5F5F5F5F5F5F5F5F5F5F5F5F5F5F5F5F5F5F5F5F5F5F5F5F5F5F5F5F5F5F5F5F5F5F5F5F5F5F5F5F5F5F5F5F5F5F5F5F5F5F5F5F5F5F5F5F5F5F5F5F5F5F5F5F5F5F5F5F5F5F5F5F5F5F5F5F5F5F5F5F5F5F5F5F5F5F5F5F5F5F5F5
310
F5F5F5F5F5F5F5E2F5F5F5F5F5F5F5F5F5F5F5F5F5F5F5F5E2F5F5F5F5E2E2F5F5F5F5E2F5F5F5F5F5F5F5F5F5F5F5F5F5F5F5F5E2F5F5F5F5F5F5F5F5F5F5F5F5F5F5F5F5F5F5F5F5F5F5F5F5F5F5F5F5F5F5F5F5F5F5F5F5F5F5F5F5F5F5F5F5F5F5F5F5F5F5F5F5F5F5F5F5F5F5F5F5F5F5F5F5F5F5F5F5F5F5F5F5F5F5
310
F5F5F5F5F5F5F5F5F5F5F5F5F5F5F5F5F5F5F5F5F5F5F5F5F5F5F5F5F5F5F5F5F5F5F5F5F5F5F5F5F5F5F5F5F5F5F5F5F5F5F5F5F5F5F5F5F5F5F5F5E2F5F5F5F5F5F5F5F5F5F5F5F5F5F5F5F5E2F5F5F5F5E2E2F5F5F5F5F5F5F5F5F5F5F5F5F5F5F5F5F5F5F5F5F5E2F5F5F5F5F5F5F5F5F5F5F5F5F5F5F5F5F5F5F5F5F5
310
F5F5F5F5F5F5F5F5F5F5F5F5F5F5F5F5F5F5F5F5F5F5F5F5F5F5F5F5F5F5F5F5F5F5F5F5F5F5F5F5F5F5F5F5F5F5F5F5F5F5F5F5F5F5F5F5F5F5F5F5F5F5F5F5F5F5F5F5F5F5F5F5F5F5F5F5F5F5F5F5F5F5F5F5F5F5F5F5F5F5F5F5F5F5F5F5F5F5F5F5F5F5F5F5F5F5F5F5F5F5F5F5F5E2F5F5F5F5F5F5F5F5F5F5F5F5F5
310
F5F5F5F5F5F5F5F5E2E2F5F5F5F5F5F5F5F5F5F5F5F5F5F5F5F5F5F5F5F5F5E2F5F5F5F5F5F5F5F5F5F5F5F5F5F5F5F5F5F5F5F5F5F5F5F5F5F5F5F5F5F5F5F5F5F5F5F5F5F5F5F5F5F5F5F5F5F5F5F5F5F5F5F5F5F5F5F5F5F5F5F5F5F5F5F5F5F5F5F5F5F5F5F5F5F5F5F5F5F5F5F5F5F5F5F5F5F5F5F5F5F5F5F5F5F5F5
310
F5F5F5F5F5F5F5F5F5F5F5F5F5F5F5F5F5F5F5F5F5F5F5F5F5F5F5F5F5F5F5F5F5F5F5F5F5F5F5E2F5F5F5F5F5F5F5F5F5F5F5F5F5F5F5F5F5F5F5F5F5E2E2F5F5F5F5F5F5F5F5F5F5F5F5F5F5F5F5F5F5F5F5F5E2F5F5F5F5F5F5F5F5F5F5F5F5F5F5F5F5F5F5F5F5F5F5F5F5F5F5F5F5F5F5F5F5F5F5F5F5F5F5F5F5F5F5
310
F5F5F5F5F5F5F5F5F5F5F5F5F5F5F5F5F5F5F5F5F5F5F5F5F5F5F5F5F5F5F5F5F5F5F5F5F5F5F5F5F5F5F5F5F5F5F5F5F5F5F5F5F5F5F5F5F5F5F5F5F5F5F5F5F5F5F5F5F5F5F5F5F5F5F5F5F5F5F5F5F5F5F5F5F5F5F5F5F5F5F5F5E2F5F5F5F5F5F5F5F5F5F5F5F5F5F5F5F5F5F5F5F5F5E2E2F5F5F5F5F5F5F5F5F5F5F5
310
F5F5F5F5F5F5F5F5F5F5E2F5F5F5F5F5F5F5F5F5F5F5F5F5F5F5F5F5F5F5F5F5F5F5F5F5F5F5F5F5F5F5F5F5F5F5F5F5F5F5F5F5F5F5F5F5F5F5F5F5F5F5F5F5F5F5F5F5F5F5F5F5F5F5F5F5F5F5F5F5F5F5F5F5F5F5F5F5F5F5F5F5F5F5F5F5F5F5F5F5F5F5F5F5F5F5F5F5F5F5F5F5F5F5F5F5F5F5F5F5F5F5F5F5F5F5F5
310
F5F5F5F5F5F5F5F5F5F5F5F5F5F5F5F5F5F5E2F5F5F5F5F5F5F5F5F5F5F5F5F5F5F5F5F5F5F5F5F5E2E2F5F5F5F5F5F5F5F5F5F5F5F5F5F5F5F5F5F5F5F5F5E2F5F5F5F5F5F5F5F5F5F5F5F5F5F5F5F5F5F5F5F5F5F5F5F5F5F5F5F5F5F5F5F5F5F5F5F5F5F5F5F5F5F5F5F5F5F5F5F5F5F5F5F5F5F5F5F5F5F5F5F5F5F5F5
310
F5F5F5F5F5F5F5F5F5F5F5F5F5F5F5F5F5F5F5F5F5F5F5F5F5F5F5F5F5F5F5F5F5F5F5F5F5F5F5F5F5F5F5F5F5F5F5F5F5F5F5F5F5F5F5F5F5F5F5F5F5F5F5F5F5F5F5F5F5F5F5E2F5F5F5F5F5F5F5F5F5F5F5F5F5F5F5F5F5F5F5F5F5E2E2F5F5F5F5F5F5F5F5F5F5F5F5F5F5F5F5F5F5F5F5F5E2F5F5F5F5F5F5F5F5F5F5
310
F5F5F5F5F5F5F5F5F5F5F5F5F5F5F5F5F5F5F5F5F5F5F5F5F5F5F5F5F5F5F5F5F5F5F5F5F5F5F5F5F5F5F5F5F5F5F5F5F5F5F5F5F5F5F5F5F5F5F5F5F5F5F5F5F5F5F5F5F5F5F5F5F5F5F5F5F5F5F5F5F5F5F5F5F5F5F5F5F5F5F5F5F5F5F5F5F5F5F5F5F5F5F5F5F5F5F5F5F5F5F5F5F5F5F5F5F5F5F5F5F5F5F5F5E2F5F5
310
F5F5F5F5F5F5F5F5F5F5F5F5F5F5F5F5F5F5F5E2E2F5F5F5F5F5F5F5F5F5F5F5F5F5F5F5F5F5F5F5F5F5E2F5F5F5F5F5F5F5F5F5F5F5F5F5F5F5F5F5F5F5F5F5F5F5F5F5F5F5F5F5F5F5F5F5F5F5F5F5F5F5F5F5F5F5F5F5F5F5F5F5F5F5F5F5F5F5F5F5F5F5F5F5F5F5F5F5F5F5F5F5F5F5F5F5F5F5F5F5F5F5F5F5F5F5F5
310
F5F5F5F5F5F5F5F5F5F5F5F5F5F5F5F5F5F5F5F5F5F5F5F5F5F5F5F5F5F5F5F5F5F5F5F5F5F5F5F5F5F5F5F5F5F5F5F5F5F5E2F5F5F5F5F5F5F5F5F5F5F5F5F5F5F5F5F5F5F5F5F5E2E2F5F5F5F5F5F5F5F5F5F5F5F5F5F5F5F5F5F5F5F5F5E2F5F5F5F5F5F5F5F5F5F5F5F5F5F5F5F5F5F5F5F5F5F5F5F5F5F5F5F5F5F5F5
310
F5F5F5F5F5F5F5F5F5F5F5F5F5F5F5F5F5F5F5F5F5F5F5F5F5F5F5F5F5F5F5F5F5F5F5F5F5F5F5F5F5F5F5F5F5F5F5F5F5F5F5F5F5F5F5F5F5F5F5F5F5F5F5F5F5F5F5F5F5F5F5F5F5F5F5F5F5F5F5F5F5F5F5F5F5F5F5F5F5F5F5F5F5F5F5F5F5F5F5F5F5F5F5E2F5F5F5F5F5F5F5F5F5F5F5F5F5F5F5F5F5F5F5F5F5E2E2
310
F5F5F5F5F5F5F5F5F5F5F5F5F5F5F5F5F5F5F5F5F5E2F5F5F5F5F5F5F5F5F5F5F5F5F5F5F5F5F5F5F5F5F5F5F5F5F5F5F5F5F5F5F5F5F5F5F5F5F5F5F5F5F5F5F5F5F5F5F5F5F5F5F5F5F5F5F5F5F5F5F5F5F5F5F5F5F5F5F5F5F5F5F5F5F5F5F5F5F5F5F5F5F5F5F5F5F5F5F5F5F5F5F5F5F5F5F5F5F5F5F5F5F5F5F5F5F5
310
F5F5F5F5F5F5F5F5F5F5F5F5F5F5F5F5F5F5F5F5F5F5F5F5F5F5F5F5F5E2F5F5F5F5F5F5F5F5F5F5F5F5F5F5F5F5F5F5F5F5F5E2E2F5F5F5F5F5F5F5F5F5F5F5F5F5F5F5F5F5F5F5F5F5E2F5F5F5F5F5F5F5F5F5F5F5F5F5F5F5F5F5F5F5F5F5F5F5F5F5F5F5F5F5F5F5F5F5F5F5F5F5F5F5F5F5F5F5F5F5F5F5F5F5F5F5F5
310
F5F5F5F5F5F5F5F5F5F5F5F5F5F5F5F5F5F5F5F5F5F5F5F5F5F5F5F5F5F5F5F5F5F5F5F5F5F5F5F5F5F5F5F5F5F5F5F5F5F5F5F5F5F5F5F5F5F5F5F5F5F5F5F5F5F5F5F5F5F5F5F5F5F5F5F5F5F5F5F5F5F5E2F5F5F5F5F5F5F5F5F5F5F5F5F5F5F5F5F5F5F5F5F5E2E2F5F5F5F5E2F5F5F5F5F5F5F5F5F5F5F5F5F5F5F5F5
310
E2F5F5F5F5F5F5F5F5F5F5F5F5F5F5F5F5F5F5F5F5F5F5F5F5F5F5F5F5F5F5F5F5F5F5F5F5F5F5F5F5F5F5F5F5F5F5F5F5F5F5F5F5F5F5F5F5F5F5F5F5F5F5F5F5F5F5F5F5F5F5F5F5F5F5F5F5F5F5F5F5F5F5F5F5F5F5F5F5F5F5F5F5F5F5F5F5F5F5F5F5F5F5F5F5F5F5F5F5F5F5F5F5F5F5F5F5F5F5F5F5F5F5F5F5F5F5
310
F5F5F5F5F5F5F5F5E2F5F5F5F5F5F5F5F5F5F5F5F5F5F5F5F5E2F5F5F5F5E2E2F5F5F5F5E2F5F5F5F5F5F5F5F5F5F5F5F5F5F5F5F5E2F5F5F5F5F5F5F5F5F5F5F5F5F5F5F5F5F5F5F5F5F5F5F5F5F5F5F5F5F5F5F5F5F5F5F5F5F5F5F5F5F5F5F5F5F5F5F5F5F5F5F5F5F5F5F5F5F5F5F5F5F5F5F5F5F5F5F5F5F5F5F5F5F5
310
F5F5F5F5F5F5F5F5F5F5F5F5F5F5F5F5F5F5F5F5F5F5F5F5F5F5F5F5F5F5F5F5F5F5F5F5F5F5F5F5F5F5F5F5F5F5F5F5F5F5F5F5F5F5F5F5F5F5F5F5F5E2F5F5F5F5F5F5F5F5F5F5F5F5F5F5F5F5E2F5F5F5F5E2E2F5F5F5F5E2F5F5F5F5F5F5F5F5F5F5F5F5F5F5F5F5E2F5F5F5F5F5F5F5F5F5F5F5F5F5F5F5F5F5F5F5F5
310
F5F5F5F5F5F5F5F5F5F5F5F5F5F5F5F5F5F5F5F5F5F5F5F5F5F5F5F5F5F5F5F5F5F5F5F5F5F5F5F5F5F5F5F5F5F5F5F5F5F5F5F5F5F5F5F5F5F5F5F5F5F5F5F5F5F5F5F5F5F5F5F5F5F5F5F5F5F5F5F5F5F5F5F5F5F5F5F5F5F5F5F5F5F5F5F5F5F5F5F5F5F5F5F5F5F5F5F5F5F5F5F5F5F5E2F5F5F5F5F5F5F5F5F5F5F5F5
310
F5F5F5F5E2F5F5F5F5E2E2F5F5F5F5E2F5F5F5F5F5F5F5F5F5F5F5F5F5F5F5F5E2F5F5F5F5F5F5F5F5F5F5F5F5F5F5F5F5F5F5F5F5F5F5F5F5F5F5F5F5F5F5F5F5F5F5F5F5F5F5F5F5F5F5F5F5F5F5F5F5F5F5F5F5F5F5F5F5F5F5F5F5F5F5F5F5F5F5F5F5F5F5F5F5F5F5F5F5F5F5F5F5F5F5F5F5F5F5F5F5F5F5F5F5F5F5
310
F5F5F5F5F5F5F5F5F5F5F5F5F5F5F5F5F5F5F5F5F5F5F5F5F5F5F5F5F5F5F5F5F5F5F5F5F5F5F5F5E2F5F5F5F5F5F5F5F5F5F5F5F5F5F5F5F5E2F5F5F5F5E2E2F5F5F5F5E2F5F5F5F5F5F5F5F5F5F5F5F5F5F5F5F5E2F5F5F5F5F5F5F5F5F5F5F5F5F5F5F5F5F5F5F5F5F5F5F5F5F5F5F5F5F5F5F5F5F5F5F5F5F5F5F5F5F5
310
F5F5F5F5F5F5F5F5F5F5F5F5F5F5F5F5F5F5F5F5F5F5F5F5F5F5F5F5F5F5F5F5F5F5F5F5F5F5F5F5F5F5F5F5F5F5F5F5F5F5F5F5F5F5F5F5F5F5F5F5F5F5F5F5F5F5F5F5F5F5F5F5F5F5F5F5F5F5F5F5F5F5F5F5F5F5F5F5F5F5F5F5F5E2F5F5F5F5F5F5F5F5F5F5F5F5F5F5F5F5E2F5F5F5F5E2E2F5F5F5F5E2F5F5F5F5F5
310
F5F5F5F5F5F5F5F5F5F5F5E2F5F5F5F5F5F5F5F5F5F5F5F5F5F5F5F5F5F5F5F5F5F5F5F5F5F5F5F5F5F5F5F5F5F5F5F5F5F5F5F5F5F5F5F5F5F5F5F5F5F5F5F5F5F5F5F5F5F5F5F5F5F5F5F5F5F5F5F5F5F5F5F5F5F5F5F5F5F5F5F5F5F5F5F5F5F5F5F5F5F5F5F5F5F5F5F5F5F5F5F5F5F5F5F5F5F5F5F5F5F5F5F5F5F5F5
310
F5F5F5F5F5F5F5F5F5F5F5F5F5F5F5F5F5F5F5E2F5F5F5F5F5F5F5F5F5F5F5F5F5F5F5F5E2F5F5F5F5E2E2F5F5F5F5E2F5F5F5F5F5F5F5F5F5F5F5F5F5F5F5F5E2F5F5F5F5F5F5F5F5F5F5F5F5F5F5F5F5F5F5F5F5F5F5F5F5F5F5F5F5F5F5F5F5F5F5F5F5F5F5F5F5F5F5F5F5F5F5F5F5F5F5F5F5F5F5F5F5F5F5F5F5F5F5
310
F5F5F5F5F5F5F5F5F5F5F5F5F5F5F5F5F5F5F5F5F5F5F5F5F5F5F5F5F5F5F5F5F5F5F5F5F5F5F5F5F5F5F5F5F5F5F5F5F5F5F5F5F5F5F5F5F5F5F5F5F5F5F5F5F5F5F5F5F5F5F5F5E2F5F5F5F5F5F5F5F5F5F5F5F5F5F5F5F5E2F5F5F5F5E2E2F5F5F5F5E2F5F5F5F5F5F5F5F5F5F5F5F5F5F5F5F5E2F5F5F5F5F5F5F5F5F5
310
F5F5F5F5F5F5F5F5F5F5F5F5F5F5F5F5F5F5F5F5F5F5F5F5F5F5F5F5F5F5F5F5F5F5F5F5F5F5F5F5F5F5F5F5F5F5F5F5F5F5F5F5F5F5F5F5F5F5F5F5F5F5F5F5F5F5F5F5F5F5F5F5F5F5F5F5F5F5F5F5F5F5F5F5F5F5F5F5F5F5F5F5F5F5F5F5F5F5F5F5F5F5F5F5F5F5F5F5F5F5F5F5F5F5F5F5F5F5F5F5F5F5F5F5F5E2F5
310
F5F5F5F5F5F5F5F5F5F5F5F5F5F5F5E2F5F5F5F5E2E2F5F5F5F5E2F5F5F5F5F5F5F5F5F5F5F5F5F5F5F5F5E2F5F5F5F5F5F5F5F5F5F5F5F5F5F5F5F5F5F5F5F5F5F5F5F5F5F5F5F5F5F5F5F5F5F5F5F5F5F5F5F5F5F5F5F5F5F5F5F5F5F5F5F5F5F5F5F5F5F5F5F5F5F5F5F5F5F5F5F5F5F5F5F5F5F5F5F5F5F5F5F5F5F5F5
310
F5F5F5F5F5F5F5F5F5F5F5F5F5F5F5F5F5F5F5F5F5F5F5F5F5F5F5F5F5F5F5F5F5F5F5F5F5F5F5F5F5F5F5F5F5F5F5F5F5F5F5E2F5F5F5F5F5F5F5F5F5F5F5F5F5F5F5F5E2F5F5F5F5E2E2F5F5F5F5E2F5F5F5F5F5F5F5F5F5F5F5F5F5F5F5F5E2F5F5F5F5F5F5F5F5F5F5F5F5F5F5F5F5F5F5F5F5F5F5F5F5F5F5F5F5F5F5
310
F5F5F5F5F5F5F5F5F5F5F5F5F5F5F5F5F5F5F5F5F5F5F5F5F5F5F5F5F5F5F5F5F5F5F5F5F5F5F5F5F5F5F5F5F5F5F5F5F5F5F5F5F5F5F5F5F5F5F5F5F5F5F5F5F5F5F5F5F5F5F5F5F5F5F5F5F5F5F5F5F5F5F5F5F5F5F5F5F5F5F5F5F5F5F5F5F5F5F5F5F5F5F5F5E2F5F5F5F5F5F5F5F5F5F5F5F5F5F5F5F5E2F5F5F5F5E2
310
E2F5F5F5F5E2F5F5F5F5F5F5F5F5F5F5F5F5F5F5F5F5E2F5F5F5F5F5F5F5F5F5F5F5F5F5F5F5F5F5F5F5F5F5F5F5F5F5F5F5F5F5F5F5F5F5F5F5F5F5F5F5F5F5F5F5F5F5F5F5F5F5F5F5F5F5F5F5F5F5F5F5F5F5F5F5F5F5F5F5F5F5F5F5F5F5F5F5F5F5F5F5F5F5F5F5F5F5F5F5F5F5F5F5F5F5F5F5F5F5F5F5F5F5F5F5F5
310
F5F5F5F5F5F5F5F5F5F5F5F5F5F5F5F5F5F5F5F5F5F5F5F5F5F5F5F5F5F5E2F5F5F5F5F5F5F5F5F5F5F5F5F5F5F5F5E2F5F5F5F5E2E2F5F5F5F5E2F5F5F5F5F5F5F5F5F5F5F5F5F5F5F5F5E2F5F5F5F5F5F5F5F5F5F5F5F5F5F5F5F5F5F5F5F5F5F5F5F5F5F5F5F5F5F5F5F5F5F5F5F5F5F5F5F5F5F5F5F5F5F5F5F5F5F5F5
310
F5F5F5F5F5F5F5F5F5F5F5F5F5F5F5F5F5F5F5F5F5F5F5F5F5F5F5F5F5F5F5F5F5F5F5F5F5F5F5F5F5F5F5F5F5F5F5F5F5F5F5F5F5F5F5F5F5F5F5F5F5F5F5F5F5F5F5F5F5F5F5F5F5F5F5F5F5F5F5F5F5F5F5E2F5F5F5F5F5F5F5F5F5F5F5F5F5F5F5F5E2F5F5F5F5E2E2F5F5F5F5E2F5F5F5F5F5F5F5F5F5F5F5F5F5F5F5
310
F5E2F5F5F5F5F5F5F5F5F5F5F5F5F5F5F5F5F5F5F5F5F5F5F5F5F5F5F5F5F5F5F5F5F5F5F5F5F5F5F5F5F5F5F5F5F5F5F5F5F5F5F5F5F5F5F5F5F5F5F5F5F5F5F5F5F5F5F5F5F5F5F5F5F5F5F5F5F5F5F5F5F5F5F5F5F5F5F5F5F5F5F5F5F5F5F5F5F5F5F5F5F5F5F5F5F5F5F5F5F5F5F5F5F5F5F5F5F5F5F5F5F5F5F5F5F5
310
F5F5F5F5F5F5F5F5F5E2F5F5F5F5F5F5F5F5F5F5F5F5F5F5F5F5E2F5F5F5F5E2E2F5F5F5F5E2F5F5F5F5F5F5F5F5F5F5F5F5F5F5F5F5E2F5F5F5F5F5F5F5F5F5F5F5F5F5F5F5F5F5F5F5F5F5F5F5F5F5F5F5F5F5F5F5F5F5F5F5F5F5F5F5F5F5F5F5F5F5F5F5F5F5F5F5F5F5F5F5F5F5F5F5F5F5F5F5F5F5F5F5F5F5F5F5F5
310
F5F5F5F5F5F5F5F5F5F5F5F5F5F5F5F5F5F5F5F5F5F5F5F5F5F5F5F5F5F5F5F5F5F5F5F5F5F5F5F5F5F5F5F5F5F5F5F5F5F5F5F5F5F5F5F5F5F5F5F5F5F5E2F5F5F5F5F5F5F5F5F5F5F5F5F5F5F5F5E2F5F5F5F5E2E2F5F5F5F5E2F5F5F5F5F5F5F5F5F5F5F5F5F5F5F5F5E2F5F5F5F5F5F5F5F5F5F5F5F5F5F5F5F5F5F5F5
310
F5F5F5F5F5F5F5F5F5F5F5F5F5F5F5F5F5F5F5F5F5F5F5F5F5F5F5F5F5F5F5F5F5F5F5F5F5F5F5F5F5F5F5F5F5F5F5F5F5F5F5F5F5F5F5F5F5F5F5F5F5F5F5F5F5F5F5F5F5F5F5F5F5F5F5F5F5F5F5F5F5F5F5F5F5F5F5F5F5F5F5F5F5F5F5F5F5F5F5F5F5F5F5F5F5F5F5F5F5F5F5F5F5F5F5E2F5F5F5F5F5F5F5F5F5F5F5
310
F5F5F5F5F5E2F5F5F5F5E2E2F5F5F5F5E2F5F5F5F5F5F5F5F5F5F5F5F5F5F5F5F5E2F5F5F5F5F5F5F5F5F5F5F5F5F5F5F5F5F5F5F5F5F5F5F5F5F5F5F5F5F5F5F5F5F5F5F5F5F5F5F5F5F5F5F5F5F5F5F5F5F5F5F5F5F5F5F5F5F5F5F5F5F5F5F5F5F5F5F5F5F5F5F5F5F5F5F5F5F5F5F5F5F5F5F5F5F5F5F5F5F5F5F5F5F5
310
F5F5F5F5F5F5F5F5F5F5F5F5F5F5F5F5F5F5F5F5F5F5F5F5F5F5F5F5F5F5F5F5F5F5F5F5F5F5F5F5F5E2F5F5F5F5F5F5F5F5F5F5F5F5F5F5F5F5E2F5F5F5F5E2E2F5F5F5F5F5F5F5F5F5F5F5F5F5F5F5F5F5F5F5F5F5E2F5F5F5F5F5F5F5F5F5F5F5F5F5F5F5F5F5F5F5F5F5F5F5F5F5F5F5F5F5F5F5F5F5F5F5F5F5F5F5F5
310
F5F5F5F5F5F5F5F5F5F5F5F5F5F5F5F5F5F5F5F5F5F5F5F5F5F5F5F5F5F5F5F5F5F5F5F5F5F5F5F5F5F5F5F5F5F5F5F5F5F5F5F5F5F5F5F5F5F5F5F5F5F5F5F5F5F5F5F5F5F5F5F5F5F5F5F5F5F5F5F5F5F5F5F5F5F5F5F5F5F5F5F5F5F5E2F5F5F5F5F5F5F5F5F5F5F5F5F5F5F5F5F5F5F5F5F5E2E2F5F5F5F5F5F5F5F5F5
310
F5F5F5F5F5F5F5F5F5F5F5F5E2F5F5F5F5F5F5F5F5F5F5F5F5F5F5F5F5F5F5F5F5F5F5F5F5F5F5F5F5F5F5F5F5F5F5F5F5F5F5F5F5F5F5F5F5F5F5F5F5F5F5F5F5F5F5F5F5F5F5F5F5F5F5F5F5F5F5F5F5F5F5F5F5F5F5F5F5F5F5F5F5F5F5F5F5F5F5F5F5F5F5F5F5F5F5F5F5F5F5F5F5F5F5F5F5F5F5F5F5F5F5F5F5F5F5
310
F5F5F5F5F5F5F5F5F5F5F5F5F5F5F5F5F5F5F5F5E2F5F5F5F5F5F5F5F5F5F5F5F5F5F5F5F5F5F5F5F5F5E2E2F5F5F5F5F5F5F5F5F5F5F5F5F5F5F5F5F5F5F5F5F5E2F5F5F5F5F5F5F5F5F5F5F5F5F5F5F5F5F5F5F5F5F5F5F5F5F5F5F5F5F5F5F5F5F5F5F5F5F5F5F5F5F5F5F5F5F5F5F5F5F5F5F5F5F5F5F5F5F5F5F5F5F5
310
F5F5F5F5F5F5F5F5F5F5F5F5F5F5F5F5F5F5F5F5F5F5F5F5F5F5F5F5F5F5F5F5F5F5F5F5F5F5F5F5F5F5F5F5F5F5F5F5F5F5F5F5F5F5F5F5F5F5F5F5F5F5F5F5F5F5F5F5F5F5F5F5F5E2F5F5F5F5F5F5F5F5F5F5F5F5F5F5F5F5F5F5F5F5F5E2E2F5F5F5F5F5F5F5F5F5F5F5F5F5F5F5F5F5F5F5F5F5E2F5F5F5F5F5F5F5F5
310
F5F5F5F5F5F5F5F5F5F5F5F5F5F5F5F5F5F5F5F5F5F5F5F5F5F5F5F5F5F5F5F5F5F5F5F5F5F5F5F5F5F5F5F5F5F5F5F5F5F5F5F5F5F5F5F5F5F5F5F5F5F5F5F5F5F5F5F5F5F5F5F5F5F5F5F5F5F5F5F5F5F5F5F5F5F5F5F5F5F5F5F5F5F5F5F5F5F5DCF5F5F5F5F5F5F5F5F5F5F5F5F5F5F5F5F5F5F5F5F5F5F5F5F5F5F5E2
310
F5F5F5F5F5F5F5F5F5F5F5F5F5F5F5F5F5F5F5F5F5E2E2F5F5F5F5F5F5F5F5F5F5F5F5F5F5F5F5F5F5F5F5F5E2F5F5F5F5F5F5F5F5F5F5F5F5F5F5F5F5F5F5F5F5F5F5F5F5F5F5F5F5F5F5F5F5F5F5F5F5F5F5F5F5F5F5F5F5F5F5F5F5F5F5F5F5F5F5F5F5F5F5F5F5F5F5F5F5F5F5F5F5F5F5F5F5F5F5F5F5F5F5F5F5F5E2
310
ECE2E2E2E2E2E2E2E2E2E2E2E2E2E2E2E2E2E2E2E2E2E2E2DCE2E2E2E2E2E2E2E2E2E2E2E2E2E2E2E2E2E2E2E2E2E2E2ECE2F5F5E2F5F5F5F5F5F5F5F5F5F5F5F5F5F5F5F5F5F5F5F5F5E2E2F5F5F5F5F5F5F5F5F5F5F5F5F5F5F5F5F5F5F5F5F5E2F5F5F5F5F5F5F5F5F5F5F5F5F5F5F5F5F5F5F5F5F5F5F5F5F5F5F5F5F5
310
F5F5F5F5F5F5F5F5F5F5F5F5F5F5F5F5F5F5F5F5F5F5F5F5F5F5F5F5F5F5F5F5F5F5F5F5F5F5F5F5F5F5F5F5F5F5F5F5F5F5F5E2F5F5ECF5F5F5F5F5F5F5F5F5F5F5F5F5F5F5F5F5F5F5F5F5F5DCF5F5F5F5F5F5F5F5F5F5F5F5F5F5F5F5F5F5F5F5F5F5ECF5F5E2F5E2F5F5F5F5F5F5F5F5F5F5F5F5F5F5F5F5F5F5F5F5F5
310
E2E2F5F5F5F5F5F5F5F5F5F5F5F5F5F5F5F5F5F5F5F5F5E2F5F5F5F5F5F5F5F5F5F5F5F5F5F5F5F5F5F5F5F5F5F5F5F5F5F5F5F5F5F5F5F5F5F5F5F5F5F5F5F5F5F5F5F5F5F5F5F5F5F5F5F5F5F5F5F5F5F5F5F5F5F5F5F5F5F5F5F5F5F5F5F5F5F5F5F5F5F5F5E2F5F5F5F5ECF5F5F5F5F5F5F5F5F5F5F5F5F5F5F5F5F5F5
310
F5F5F5DCF5F5F5F5F5F5F5F5F5F5F5F5F5F5F5F5F5F5F5F5F5ECF5F5F5F5E2E2F5F5F5F5F5F5F5F5F5F5F5F5F5F5F5F5F5F5F5F5F5E2E2F5F5F5F5F5F5F5F5F5F5F5F5F5F5F5F5F5F5F5F5F5E2F5F5F5F5F5F5F5F5F5F5F5F5F5F5F5F5F5F5F5F5F5F5F5F5F5F5F5F5F5F5F5F5F5F5F5F5F5F5F5F5F5F5F5F5F5F5F5F5F5F5
310
F5F5F5F5F5F5F5F5F5F5F5F5F5F5F5F5F5F5F5F5F5F5F5F5F5F5F5F5E2E2E2E2E2E2ECE2E2E2E2E2E2E2E2E2ECECECECECECE2ECECECECECDCECECECECECE2ECECECECECECE2E2E2E2E2E2E2E2ECE2E2E2E2E2E2E2F5F5F5F5F5F5F5F5F5F5F5F5F5F5F5F5F5F5F5F5F5E2E2F5F5F5F5F5F5F5F5F5F5F5F5F5F5F5F5F5F5F5
310
F5F5E2F5F5F5F5F5F5F5F5F5F5F5F5F5F5F5F5F5F5F5F5F5F5F5F5F5F5F5F5F5F5F5F5F5F5F5F5F5F5F5F5F5F5F5F5F5F5F5F5F5F5F5F5F5F5F5F5F5F5F5F5F5F5F5F5F5F5F5F5F5F5F5F5F5F5F5F5F5F5E2F5F5F5F5F5F5F5F5F5F5F5F5F5F5F5ECF5F5F5F5F5F5F5F5F5F5F5DCF5F5F5F5F5F5F5F5F5F5ECF5F5F5F5F5F5
310
F5F5F5F5F5F5F5F5F5E2E2F5F5F5F5F5F5F5F5F5F5F5F5F5F5F5F5F5F5F5F5F5E2E2F5F5F5F5E2F5F5F5F5F5F5F5F5F5F5F5F5F5F5F5F5E2F5F5F5F5F5F5F5F5F5F5F5F5F5F5F5F5F5F5F5F5F5F5F5F5F5F5F5F5F5F5F5F5F5F5F5F5F5F5F5F5F5F5F5F5F5F5F5F5F5F5F5F5F5F5F5F5F5F5F5F5F5F5F5F5F5F5F5F5F5F5F5
310
F5F5F5F5F5F5F5E2F5F5F5F5F5F5F5F5F5F5F5F5F5F5F5ECECECECECECECECECECECECECECECECECECECECECECECECF5F5F5F5F5F5F5F5F5F5F5F5F5F5F5E2E2F5F5F5F5F5F5F5F5F5F5F5F5F5F5F5F5E2F5F5F5F5E2E2F5F5F5F5E2F5F5F5F5F5F5F5F5F5F5F5F5F5F5F5F5E2F5F5F5F5F5F5F5F5F5F5F5F5F5F5F5F5F5F5
310
F5F5F5F5F5F5F5F5F5F5F5F5F5F5F5F5F5F5F5F5F5F5F5F5F5F5F5F5F5F5F5F5F5F5F5F5F5F5F5F5F5F5F5F5F5F5F5F5F5F5F5F5F5F5F5F5F5F5F5F5F5E2F5F5F5F5F5F5F5F5F5F5F5F5F5F5F5F5F5F5F5ECF5F5F5F5F5F5DCF5F5F5F5F5ECF5F5F5F5F5F5F5F5F5F5F5F5F5F5F5F5F5F5F5F5E2E2F5F5F5F5F5F5F5F5F5F5
310
F5F5F5F5F5F5E2F5F5F5F5E2E2F5F5F5F5E2F5F5F5F5F5F5F5F5F5F5F5F5F5F5F5F5E2F5F5F5F5F5F5F5F5F5F5F5F5F5F5F5F5F5F5F5F5F5F5F5F5F5F5F5F5F5F5F5F5F5F5F5F5F5F5F5F5F5F5F5F5F5F5F5F5F5F5F5F5F5F5F5F5F5F5F5F5F5F5F5F5F5F5F5F5F5F5F5F5F5F5F5F5F5F5F5F5E2F5F5F5F5F5F5F5F5F5F5F5
310
F5F5F5F5F5ECECECECECECF5ECECECECECF5ECECECECECF5F5F5F5F5F5F5F5F5F5F5F5F5F5F5F5F5E2F5E2F5F5F5F5F5F5F5F5F5F5F5F5F5F5F5F5E2F5F5F5F5E2E2F5F5F5F5E2F5F5F5F5F5F5F5F5F5F5F5F5F5F5F5F5E2F5F5F5F5F5F5F5F5F5F5F5F5F5F5F5F5F5F5F5F5F5F5F5F5F5F5F5F5F5F5F5F5F5F5F5F5F5F5F5
310
F5F5F5F5F5F5F5F5F5F5F5F5F5F5F5F5F5F5F5F5F5F5F5F5F5F5F5F5F5F5F5F5F5F5F5F5F5F5F5F5F5F5E2E2F5F5F5F5F5F5F5F5F5F5F5F5F5F5ECF5F5F5F5F5F5F5F5DCF5F5F5F5F5F5F5ECF5F5F5F5F5F5F5F5F5F5F5F5F5F5F5E2E2F5F5E2F5F5F5F5F5F5F5F5F5F5F5F5F5F5F5F5E2F5F5F5F5E2E2F5F5F5F5E2F5F5F5
310
F5F5F5F5F5F5F5F5F5F5F5F5F5E2F5F5F5F5F5F5F5F5F5F5F5F5F5F5F5F5F5F5F5F5F5F5F5F5F5F5F5F5F5F5F5F5F5F5F5F5F5F5F5F5F5F5F5F5F5F5F5F5F5F5F5F5F5F5F5F5F5F5F5F5F5F5F5F5F5F5F5F5F5F5F5F5F5F5F5F5F5F5F5F5F5F5F5E2F5F5F5F5F5F5F5F5F5F5F5F5F5ECF5F5F5F5F5F5F5F5DCF5F5F5F5F5F5
310
F5ECF5F5F5F5F5F5F5F5F5F5F5F5F5E2E2F5F5F5F5E2F5F5F5F5F5F5F5F5F5F5F5F5F5F5F5F5E2F5F5F5F5E2E2F5F5F5F5E2F5F5F5F5F5F5F5F5F5F5F5F5F5F5F5F5E2F5F5F5F5F5F5F5F5F5F5F5F5F5F5F5F5F5F5F5F5F5F5F5F5F5F5F5F5F5F5F5F5F5F5F5F5F5F5F5F5F5F5F5F5F5F5F5F5F5F5F5F5F5F5F5F5F5F5F5F5
310
F5F5F5F5F5F5F5F5F5F5F5F5F5F5F5F5F5F5F5F5F5F5F5F5E2E2F5F5F5F5F5F5F5F5F5F5F5ECF5F5F5F5F5F5F5F5DCF5F5F5F5F5F5F5ECF5F5F5F5F5F5F5F5F5F5F5F5E2F5F5F5F5F5F5E2F5F5F5F5F5F5F5F5F5F5F5F5F5F5F5F5E2F5F5F5F5E2E2F5F5F5F5E2F5F5F5F5F5F5F5F5F5F5F5F5F5F5F5F5E2F5F5F5F5F5F5F5
310
F5F5F5F5F5F5F5F5F5F5F5F5F5F5F5F5F5F5F5F5F5F5F5F5F5F5F5F5F5F5F5F5F5F5F5F5F5F5F5F5F5F5F5F5F5F5F5F5F5F5F5F5F5F5F5F5F5F5F5F5F5F5F5F5F5F5F5F5F5F5F5F5F5F5F5F5F5F5F5E2F5F5F5F5F5F5F5F5F5F5ECF5F5F5F5F5F5F5F5DCF5F5F5F5F5F5F5ECF5F5F5F5F5F5F5F5F5F5E2E2F5F5F5F5F5F5F5
310
E2F5F5F5F5F5F5F5F5F5F5F5F5F5F5F5F5E2F5F5F5F5E2E2F5F5F5F5E2F5F5F5F5F5F5F5F5F5F5F5F5F5F5F5F5E2F5F5F5F5F5F5F5F5F5F5F5F5F5F5F5F5F5F5F5F5F5F5F5F5F5F5F5F5F5F5F5F5F5F5F5F5F5F5F5F5F5F5F5F5F5F5F5F5F5F5F5F5F5F5F5F5F5F5F5F5F5F5F5F5F5F5F5F5F5F5F5F5F5F5F5F5F5F5F5F5F5
310
F5F5F5F5F5F5E2E2F5F5F5F5F5F5F5F5F5ECECECECECF5ECECECECECF5ECECECECECF5F5F5F5F5F5F5F5E2E2F5F5F5F5F5F5F5F5F5E2F5F5F5F5F5F5F5F5F5F5F5F5F5F5F5F5E2F5F5F5F5E2E2F5F5F5F5E2F5F5F5F5F5F5F5F5F5F5F5F5F5F5F5F5E2F5F5F5F5F5F5F5F5F5F5F5F5F5F5F5F5F5F5F5F5F5F5F5F5F5F5F5F5
310
F5F5F5F5F5F5F5F5F5F5F5F5F5F5F5F5F5F5F5F5F5F5F5F5F5F5F5F5F5F5F5F5F5F5F5F5F5F5F5F5F5F5F5F5F5F5F5F5F5F5F5F5F5F5F5F5F5F5F5F5F5E2E2F5F5F5F5F5F5F5ECF5F5F5F5F5F5F5DCF5F5F5F5F5F5F5ECF5F5F5F5F5F5F5E2F5F5F5F5F5F5F5F5F5F5F5E2F5F5F5F5F5F5F5F5F5F5F5F5F5F5F5F5E2F5F5F5
310
F5E2E2F5F5F5F5E2F5F5F5F5F5F5F5F5F5F5F5F5F5F5F5F5E2F5F5F5F5F5F5F5F5F5F5F5F5F5F5F5F5F5F5F5F5F5F5F5F5F5F5F5F5F5F5F5F5F5F5F5F5F5F5F5F5F5F5F5F5F5F5F5F5F5F5F5F5F5F5F5F5F5F5F5F5F5F5F5F5F5F5F5F5F5F5F5F5F5F5F5F5F5F5F5F5F5F5F5F5F5F5F5F5F5F5E2F5F5F5F5F5F5F5ECF5F5F5
310
F5F5F5F5DCF5F5F5F5F5F5F5ECF5F5F5F5F5F5F5E2F5F5F5F5F5F5F5F5F5F5F5E2F5F5F5F5F5F5F5F5F5F5F5F5F5F5F5F5E2F5F5F5F5E2E2F5F5F5F5E2F5F5F5F5F5F5F5F5F5F5F5F5F5F5F5F5E2F5F5F5F5F5F5F5F5F5F5F5F5F5F5F5F5F5F5F5F5F5F5F5F5F5F5F5F5F5F5F5F5F5F5F5F5F5F5F5F5F5F5F5F5F5F5F5F5F5
310
F5F5F5F5F5F5F5F5F5F5F5F5F5F5F5F5F5F5F5F5F5F5F5F5F5F5F5F5F5F5F5F5F5F5F5F5F5F5F5F5F5E2F5F5F5F5F5F5F5ECF5F5F5F5F5F5F5DCF5F5F5F5F5F5F5ECF5F5F5F5F5F5F5E2F5F5F5F5F5F5F5F5F5F5F5E2F5F5F5F5F5F5F5F5F5F5F5F5F5F5F5F5E2F5F5F5F5E2E2F5F5F5F5E2F5F5F5F5F5F5F5F5F5F5F5F5F5
310
F5F5F5E2F5F5F5F5F5F5F5F5F5F5F5F5F5F5F5F5F5F5F5F5F5F5F5F5F5F5F5F5F5F5F5F5F5F5F5F5F5F5F5F5F5F5F5F5F5F5F5F5F5F5F5F5F5F5F5F5F5F5F5F5F5F5F5F5F5F5F5F5F5F5F5F5F5F5F5F5F5F5F5F5F5F5F5F5F5F5F5F5F5F5E2F5F5F5F5F5F5F5ECF5F5F5F5E2E2E2E2E2E2E2F5F5F5F5ECF5F5F5F5F5F5F5E2
310
F5F5F5F5F5F5F5F5F5F5F5E2F5F5F5F5F5F5F5F5F5F5F5F5F5F5F5F5E2F5F5F5F5E2E2F5F5F5F5E2F5F5F5F5F5F5F5F5F5F5F5F5F5F5F5F5E2F5F5F5F5F5F5F5F5F5F5F5F5F5F5F5F5F5F5F5F5F5F5F5F5F5F5F5F5F5F5F5F5F5F5F5F5F5F5F5F5F5F5F5F5F5F5F5F5F5F5F5F5F5F5F5F5F5F5F5F5F5F5F5F5F5F5F5F5F5F5
310
F5F5F5F5F5F5F5F5F5F5F5F5F5F5F5F5F5F5F5F5E2F5F5F5F5F5F5F5ECECECECECECF5F5DCF5F5ECECECECECECF5F5F5F5F5F5F5E2F5F5F5F5F5F5F5F5F5F5F5E2F5F5F5F5F5F5F5F5F5F5F5F5F5F5F5F5E2F5F5F5F5E2E2F5F5F5F5E2F5F5F5F5F5F5F5F5F5F5F5F5F5F5F5F5E2F5F5F5F5F5F5F5F5F5F5F5F5F5F5F5F5F5
310
F5F5F5F5F5F5F5F5F5F5F5F5F5F5F5F5F5F5F5F5F5F5F5F5F5F5F5F5F5F5F5F5F5F5F5F5F5F5F5F5F5F5F5F5F5F5F5F5F5F5F5F5F5F5F5F5F5F5F5F5F5F5F5F5F5F5F5F5F5F5F5F5F5E2F5F5F5F5F5F5F5ECF5F5F5F5E2F5F5DCF5F5E2F5F5F5F5ECF5F5F5F5F5F5F5E2F5F5F5F5F5F5F5F5F5F5F5E2F5F5F5F5F5F5F5F5F5
310
F5F5F5F5F5F5F5E2F5F5F5F5E2E2F5F5F5F5E2F5F5F5F5F5F5F5F5F5F5F5F5F5F5F5F5E2F5F5F5F5F5F5F5F5F5F5F5F5F5F5F5F5F5F5F5F5F5F5F5F5F5F5F5F5F5F5F5F5F5F5F5F5F5F5F5F5F5F5F5F5F5F5F5F5F5F5F5F5F5F5F5F5F5F5F5F5F5F5F5F5F5F5F5F5F5F5F5F5F5F5F5F5F5F5F5F5F5F5F5F5F5F5F5F5F5F5E2
310
E2E2E2E2E2E2E2E2E2E2E2E2ECF5F5DCF5F5E2E2E2E2E2E2E2E2E2E2E2E2E2E2F5F5F5F5F5F5F5F5F5F5F5E2F5F5F5F5F5F5F5F5F5F5F5F5F5F5F5F5E2F5F5F5F5E2E2F5F5F5F5E2F5F5F5F5F5F5F5F5F5F5F5F5F5F5F5F5E2F5F5F5F5F5F5F5F5F5F5F5F5F5F5F5F5F5F5F5F5F5F5F5F5F5F5F5F5F5F5F5F5F5F5F5F5F5F5
310
F5F5F5F5F5F5F5F5F5F5F5F5F5F5F5F5F5F5F5F5F5F5F5F5F5F5F5F5F5F5F5F5F5F5F5F5F5F5F5F5F5F5F5F5F5F5F5F5F5F5F5F5F5F5F5F5F5F5F5F5F5F5F5F5F5F5F5F5DCF5F5F5F5F5F5F5F5F5F5F5F5F5F5F5F5F5F5F5F5F5F5F5F5F5F5F5E2F5F5F5F5F5F5F5F5F5F5F5F5F5F5F5F5E2F5F5F5F5E2E2F5F5F5F5F5F5F5
310
F5F5F5F5F5F5F5F5F5F5F5F5F5F5E2F5F5F5F5F5F5F5F5F5F5F5F5F5F5F5F5F5F5F5F5F5F5F5F5F5F5F5F5F5F5F5F5F5F5F5F5F5F5F5F5F5F5F5F5F5F5F5F5F5F5F5F5F5F5F5F5F5F5F5F5F5F5F5F5F5F5F5F5F5F5F5F5F5F5F5F5F5F5F5F5F5F5F5F5F5F5F5F5F5F5F5F5F5F5F5F5F5F5F5F5F5F5F5F5F5F5F5F5F5F5F5F5
310
F5F5F5F5F5F5F5F5F5F5F5F5F5F5F5F5F5F5F5F5F5F5E2F5F5F5F5F5F5F5F5F5F5F5F5F5F5F5F5F5F5F5F5F5E2E2F5F5F5F5F5F5F5F5F5F5F5F5F5F5F5F5F5F5F5F5F5E2F5F5F5F5F5F5F5F5F5F5F5F5F5F5F5F5F5F5F5F5F5F5F5F5F5F5F5F5F5F5F5F5F5F5F5F5F5F5F5F5F5F5F5F5F5F5F5F5F5F5F5F5F5F5F5F5F5F5F5
310
F5F5F5F5F5F5F5F5F5F5F5F5F5F5F5F5F5F5F5F5F5F5F5F5F5F5F5F5F5F5F5F5F5F5F5F5F5F5F5F5F5F5F5F5F5F5F5F5F5F5F5F5F5F5F5F5F5F5F5F5F5F5F5F5F5F5F5F5F5F5F5F5F5F5F5E2F5F5F5F5F5F5F5F5F5F5F5F5F5F5F5F5F5F5F5F5F5E2E2F5F5F5F5F5F5F5F5F5F5F5F5F5F5F5F5F5F5F5F5F5E2F5F5F5F5F5F5
310
F5F5F5F5F5F5F5F5F5F5F5F5F5F5F5F5F5F5F5F5F5F5F5F5F5F5F5F5F5F5F5F5F5F5F5F5F5F5F5F5F5F5F5F5F5F5F5F5F5F5F5F5F5F5F5F5F5F5F5F5F5F5F5F5F5F5F5F5F5F5F5F5F5F5F5F5F5F5F5F5F5F5F5F5F5F5F5F5F5F5F5F5F5F5F5F5F5F5F5F5F5F5F5F5F5F5F5F5F5F5F5F5F5F5F5F5F5F5F5F5F5F5F5F5F5F5F5
310
F5E2F5F5F5F5F5F5F5F5F5F5F5F5F5F5F5F5F5F5F5F5F5E2E2F5F5F5F5F5F5F5F5F5F5F5F5F5F5F5F5F5F5F5F5F5E2F5F5F5F5F5F5F5F5F5F5F5F5F5F5F5F5F5F5F5F5F5F5F5F5F5F5F5F5F5F5F5F5F5F5F5F5F5F5F5F5F5F5F5F5F5F5F5F5F5F5F5F5F5F5F5F5F5F5F5F5F5F5F5F5F5F5F5F5F5F5F5F5F5F5F5F5F5F5F5F5
310
F5F5F5F5F5F5F5F5F5F5F5F5F5F5F5F5F5F5F5F5F5F5F5F5F5F5F5F5F5F5F5F5F5F5F5F5F5F5F5F5F5F5F5F5F5F5F5F5F5F5F5F5F5F5E2F5F5F5F5F5F5F5F5F5F5F5F5F5F5F5F5F5F5F5F5F5E2E2F5F5F5F5F5F5F5F5F5F5F5F5F5F5F5F5F5F5F5F5F5E2F5F5F5F5F5F5F5F5F5F5F5F5F5F5F5F5F5F5F5F5F5F5F5F5F5F5F5
310
F5F5F5F5F5F5F5F5F5F5F5F5F5F5F5F5F5F5F5F5F5F5F5F5F5F5F5F5F5F5F5F5F5F5F5F5F5F5F5F5F5F5F5F5F5F5F5F5F5F5F5F5F5F5F5F5F5F5F5F5F5F5F5F5F5F5F5F5F5F5F5F5F5F5F5F5F5F5F5F5F5F5F5F5F5F5F5F5F5F5F5F5F5F5F5F5F5F5F5F5F5F5F5F5F5F5F5E2F5F5F5F5F5F5F5F5F5F5F5F5F5F5F5F5F5F5F5
310
F5F5E2E2F5F5F5F5F5F5F5F5F5F5F5F5F5F5F5F5F5F5F5F5F5E2F5F5F5F5F5F5F5F5F5F5F5F5F5F5F5F5F5F5F5F5F5F5F5F5F5F5F5F5F5F5F5F5F5F5F5F5F5F5F5F5F5F5F5F5F5F5F5F5F5F5F5F5F5F5F5F5F5F5F5F5F5F5F5F5F5F5F5F5F5F5F5F5F5F5F5F5F5F5F5F5F5F5F5F5F5F5F5F5F5F5F5F5F5F5F5F5F5F5F5F5F5
310
F5F5F5F5F5F5F5F5F5F5F5F5F5F5F5F5F5F5F5F5F5F5F5F5F5F5F5F5F5F5F5F5F5E2F5F5F5F5F5F5F5F5F5F5F5F5F5F5F5F5F5F5F5F5F5E2E2F5F5F5F5F5F5F5F5F5F5F5F5F5F5F5F5F5F5F5F5F5E2F5F5F5F5F5F5F5F5F5F5F5F5F5F5F5F5F5F5F5F5F5F5F5F5F5F5F5F5F5F5F5F5F5F5F5F5F5F5F5F5F5F5F5F5F5F5F5F5
310
F5F5F5F5F5F5F5F5F5F5F5F5F5F5F5F5F5F5F5F5F5F5F5F5F5F5F5F5F5F5F5F5F5F5F5F5F5F5F5F5F5F5F5F5F5F5F5F5F5F5F5F5F5F5F5F5F5F5F5F5F5F5F5F5F5F5F5F5F5F5F5F5F5F5F5F5F5F5F5F5F5F5F5F5F5F5E2F5F5F5F5F5F5F5F5F5F5F5F5F5F5F5F5F5F5F5F5F5E2E2F5F5F5F5F5F5F5F5F5F5F5F5F5F5F5F5F5
310
F5F5F5F5E2F5F5F5F5F5F5F5F5F5F5F5F5F5F5F5F5F5F5F5F5F5F5F5F5F5F5F5F5F5F5F5F5F5F5F5F5F5F5F5F5F5F5F5F5F5F5F5F5F5F5F5F5F5F5F5F5F5F5F5F5F5F5F5F5F5F5F5F5F5F5F5F5F5F5F5F5F5F5F5F5F5F5F5F5F5F5F5F5F5F5F5F5F5F5F5F5F5F5F5F5F5F5F5F5F5F5F5F5F5F5F5F5F5F5F5F5F5F5F5F5F5F5
310
F5F5F5F5F5F5F5F5F5F5F5F5E2F5F5F5F5F5F5F5F5F5F5F5F5F5F5F5F5F5F5F5F5F5E2E2F5F5F5F5F5F5F5F5F5F5F5F5F5F5F5F5F5F5F5F5F5E2F5F5F5F5F5F5F5F5F5F5F5F5F5F5F5F5F5F5F5F5F5F5F5F5F5F5F5F5F5F5F5F5F5F5F5F5F5F5F5F5F5F5F5F5F5F5F5F5F5F5F5F5F5F5F5F5F5F5F5F5F5F5F5F5F5F5F5F5F5
310
F5F5F5F5F5F5F5F5F5F5F5F5F5F5F5F5F5F5F5F5F5F5F5F5F5F5F5F5F5F5F5F5F5F5F5F5F5F5F5F5F5F5F5F5F5F5F5F5F5F5F5F5F5F5F5F5F5F5F5F5F5F5F5F5F5E2F5F5F5F5F5F5F5F5F5F5F5F5F5F5F5F5F5F5F5F5F5E2E2F5F5F5F5F5F5F5F5F5F5F5F5F5F5F5F5F5F5F5F5F5E2F5F5F5F5F5F5F5F5F5F5F5F5F5F5F5F5
310
F5F5F5F5F5F5F5F5F5F5F5F5F5F5F5F5F5F5F5F5F5F5F5F5F5F5F5F5F5F5F5F5F5F5F5F5F5F5F5F5F5F5F5F5F5F5F5F5F5F5F5F5F5F5F5F5F5F5F5F5F5F5F5F5F5F5F5F5F5F5F5F5F5F5F5F5F5F5F5F5F5F5F5F5F5F5F5F5F5F5F5F5F5F5F5F5F5F5F5F5F5F5F5F5F5F5F5F5F5F5F5F5F5F5F5F5F5F5E2F5F5F5F5F5F5F5F5
310
F5F5F5F5F5F5F5F5F5F5F5F5F5E2E2F5F5F5F5E2F5F5F5F5F5F5F5F5F5F5F5F5F5F5F5F5E2F5F5F5F5F5F5F5F5F5F5F5F5F5F5F5F5F5F5F5F5F5F5F5F5F5F5F5F5F5F5F5F5F5F5F5F5F5F5F5F5F5F5F5F5F5F5F5F5F5F5F5F5F5F5F5F5F5F5F5F5F5F5F5F5F5F5F5F5F5F5F5F5F5F5F5F5F5F5F5F5F5F5F5F5F5F5F5F5F5F5
310
F5F5F5F5F5F5F5F5F5F5F5F5F5F5F5F5F5F5F5F5F5F5F5F5F5F5F5F5F5F5F5F5F5F5F5F5F5F5F5F5F5F5F5F5E2F5F5F5F5F5F5F5F5F5F5F5F5F5F5F5F5E2F5F5F5F5E2E2F5F5F5F5E2F5F5F5F5F5F5F5F5F5F5F5F5F5F5F5F5E2F5F5F5F5F5F5F5F5F5F5F5F5F5F5F5F5F5F5F5F5F5F5F5F5F5F5F5F5F5F5F5F5F5F5F5F5F5
310
F5F5F5F5F5F5F5F5F5F5F5F5F5F5F5F5F5F5F5F5F5F5F5F5F5F5F5F5F5F5F5F5F5F5F5F5F5F5F5F5F5F5F5F5F5F5F5F5F5F5F5F5F5F5F5F5F5F5F5F5F5F5F5F5F5F5F5F5F5F5F5F5F5F5F5F5F5F5F5F5F5F5F5F5F5F5F5F5F5F5F5F5F5F5F5F5F5E2F5F5F5F5F5F5F5F5F5F5F5F5F5F5F5F5E2F5F5F5F5E2E2F5F5F5F5E2F5
310
F5F5F5F5F5F5F5F5F5F5F5F5F5F5F5E2F5F5F5F5F5F5F5F5F5F5F5F5F5F5F5F5F5F5F5F5F5F5F5F5F5F5F5F5F5F5F5F5F5F5F5F5F5F5F5F5F5F5F5F5F5F5F5F5F5F5F5F5F5F5F5F5F5F5F5F5F5F5F5F5F5F5F5F5F5F5F5F5F5F5F5F5F5F5F5F5F5F5F5F5F5F5F5F5F5F5F5F5F5F5F5F5F5F5F5F5F5F5F5F5F5F5F5F5F5F5F5
310
F5F5F5F5F5F5F5F5F5F5F5F5F5F5F5F5F5F5F5F5F5F5F5E2F5F5F5F5F5F5F5F5F5F5F5F5F5F5F5F5E2F5F5F5F5E2E2F5F5F5F5E2F5F5F5F5F5F5F5F5F5F5F5F5F5F5F5F5E2F5F5F5F5F5F5F5F5F5F5F5F5F5F5F5F5F5F5F5F5F5F5F5F5F5F5F5F5F5F5F5F5F5F5F5F5F5F5F5F5F5F5F5F5F5F5F5F5F5F5F5F5F5F5F5F5F5F5
310
F5F5F5F5F5F5F5F5F5F5F5F5F5F5F5F5F5F5F5F5F5F5F5F5F5F5F5F5F5F5F5F5F5F5F5F5F5F5F5F5F5F5F5F5F5F5F5F5F5F5F5F5F5F5F5F5F5F5F5F5F5F5F5F5F5F5F5F5F5F5F5F5F5F5F5F5E2F5F5F5F5F5F5F5F5F5F5F5F5F5F5F5F5E2F5F5F5F5E2E2F5F5F5F5E2F5F5F5F5F5F5F5F5F5F5F5F5F5F5F5F5E2F5F5F5F5F5
310
F5F5F5F5F5F5F5F5F5F5F5F5F5F5F5F5F5F5F5F5F5F5F5F5F5F5F5F5F5F5F5F5F5F5F5F5F5F5F5F5F5F5F5F5F5F5F5F5F5F5F5F5F5F5F5F5F5F5F5F5F5F5F5F5F5F5F5F5F5F5F5F5F5F5F5F5F5F5F5F5F5F5F5F5F5F5F5F5F5F5F5F5F5F5F5F5F5F5F5F5F5F5F5F5F5F5F5F5F5F5F5F5F5F5F5F5F5F5F5F5F5F5F5F5F5F5F5
310
F5F5E2F5F5F5F5F5F5F5F5F5F5F5F5F5F5F5F5E2F5F5F5F5E2E2F5F5F5F5E2F5F5F5F5F5F5F5F5F5F5F5F5F5F5F5F5E2F5F5F5F5F5F5F5F5F5F5F5F5F5F5F5F5F5F5F5F5F5F5F5F5F5F5F5F5F5F5F5F5F5F5F5F5F5F5F5F5F5F5F5F5F5F5F5F5F5F5F5F5F5F5F5F5F5F5F5F5F5F5F5F5F5F5F5F5F5F5F5F5F5F5F5F5F5F5F5
310
F5F5F5F5F5F5F5F5F5F5F5F5F5F5F5F5F5F5F5F5F5F5F5F5F5F5F5F5F5F5F5F5F5F5F5F5F5F5F5F5F5F5F5F5F5F5F5F5F5F5F5F5F5F5F5E2F5F5F5F5F5F5F5F5F5F5F5F5F5F5F5F5E2F5F5F5F5E2E2F5F5F5F5E2F5F5F5F5F5F5F5F5F5F5F5F5F5F5F5F5E2F5F5F5F5F5F5F5F5F5F5F5F5F5F5F5F5F5F5F5F5F5F5F5F5F5F5
310
F5F5F5F5F5F5F5F5F5F5F5F5F5F5F5F5F5F5F5F5F5F5F5F5F5F5F5F5F5F5F5F5F5F5F5F5F5F5F5F5F5F5F5F5F5F5F5F5F5F5F5F5F5F5F5F5F5F5F5F5F5F5F5F5F5F5F5F5F5F5F5F5F5F5F5F5F5F5F5F5F5F5F5F5F5F5F5F5F5F5F5F5F5F5F5F5F5F5F5F5F5F5F5F5F5F5F5F5E2F5F5F5F5F5F5F5F5F5F5F5F5F5F5F5F5E2F5
310
F5F5F5E2E2F5F5F5F5E2F5F5F5F5F5F5F5F5F5F5F5F5F5F5F5F5E2F5F5F5F5F5F5F5F5F5F5F5F5F5F5F5F5F5F5F5F5F5F5F5F5F5F5F5F5F5F5F5F5F5F5F5F5F5F5F5F5F5F5F5F5F5F5F5F5F5F5F5F5F5F5F5F5F5F5F5F5F5F5F5F5F5F5F5F5F5F5F5F5F5F5F5F5F5F5F5F5F5F5F5F5F5F5F5F5F5F5F5F5F5F5F5F5F5F5F5F5
310
F5F5F5F5F5F5F5F5F5F5F5F5F5F5F5F5F5F5F5F5F5F5F5F5F5F5F5F5F5F5F5F5F5F5E2F5F5F5F5F5F5F5F5F5F5F5F5F5F5F5F5E2F5F5F5F5E2E2F5F5F5F5E2F5F5F5F5F5F5F5F5F5F5F5F5F5F5F5F5E2F5F5F5F5F5F5F5F5F5F5F5F5F5F5F5F5F5F5F5F5F5F5F5F5F5F5F5F5F5F5F5F5F5F5F5F5F5F5F5F5F5F5F5F5F5F5F5
310
F5F5F5F5F5F5F5F5F5F5F5F5F5F5F5F5F5F5F5F5F5F5F5F5F5F5F5F5F5F5F5F5F5F5F5F5F5F5F5F5F5F5F5F5F5F5F5F5F5F5F5F5F5F5F5F5F5F5F5F5F5F5F5F5F5F5F5F5F5F5F5F5F5F5F5F5F5F5F5F5F5F5F5F5F5F5F5E2F5F5F5F5F5F5F5F5F5F5F5F5F5F5F5F5E2F5F5F5F5E2E2F5F5F5F5E2F5F5F5F5F5F5F5F5F5F5F5
310
F5F5F5F5F5E2F5F5F5F5F5F5F5F5F5F5F5F5F5F5F5F5F5F5F5F5F5F5F5F5F5F5F5F5F5F5F5F5F5F5F5F5F5F5F5F5F5F5F5F5F5F5F5F5F5F5F5F5F5F5F5F5F5F5F5F5F5F5F5F5F5F5F5F5F5F5F5F5F5F5F5F5F5F5F5F5F5F5F5F5F5F5F5F5F5F5F5F5F5F5F5F5F5F5F5F5F5F5F5F5F5F5F5F5F5F5F5F5F5F5F5F5F5F5F5F5F5
310
F5F5F5F5F5F5F5F5F5F5F5F5F5E2F5F5F5F5F5F5F5F5F5F5F5F5F5F5F5F5E2F5F5F5F5E2E2F5F5F5F5E2F5F5F5F5F5F5F5F5F5F5F5F5F5F5F5F5E2F5F5F5F5F5F5F5F5F5F5F5F5F5F5F5F5F5F5F5F5F5F5F5F5F5F5F5F5F5F5F5F5F5F5F5F5F5F5F5F5F5F5F5F5F5F5F5F5F5F5F5F5F5F5F5F5F5F5F5F5F5F5F5F5F5F5F5F5
310
F5F5F5F5F5F5F5F5F5F5F5F5F5F5F5F5F5F5F5F5F5F5F5F5F5F5F5F5F5F5F5F5F5F5F5F5F5F5F5F5F5F5F5F5F5F5F5F5F5F5F5F5F5F5F5F5F5F5F5F5F5F5F5F5F5F5E2F5F5F5F5F5F5F5F5F5F5F5F5F5F5F5F5E2F5F5F5F5E2E2F5F5F5F5E2F5F5F5F5F5F5F5F5F5F5F5F5F5F5F5F5E2F5F5F5F5F5F5F5F5F5F5F5F5F5F5F5
310
F5F5F5F5F5F5F5F5F5F5F5F5F5F5F5F5F5F5F5F5F5F5F5F5F5F5F5F5F5F5F5F5F5F5F5F5F5F5F5F5F5F5F5F5F5F5F5F5F5F5F5F5F5F5F5F5F5F5F5F5F5F5F5F5F5F5F5F5F5F5F5F5F5F5F5F5F5F5F5F5F5F5F5F5F5F5F5F5F5F5F5F5F5F5F5F5F5F5F5F5F5F5F5F5F5F5F5F5F5F5F5F5F5F5F5F5F5F5F5E2F5F5F5F5F5F5F5
310
F5F5F5F5F5F5F5F5F5E2F5F5F5F5E2E2F5F5F5F5E2F5F5F5F5F5F5F5F5F5F5F5F5F5F5F5F5E2F5F5F5F5F5F5F5F5F5F5F5F5F5F5F5F5F5F5F5F5F5F5F5F5F5F5F5F5F5F5F5F5F5F5F5F5F5F5F5F5F5F5F5F5F5F5F5F5F5F5F5F5F5F5F5F5F5F5F5F5F5F5F5F5F5F5F5F5F5F5F5F5F5F5F5F5F5F5F5F5F5F5F5F5F5F5F5F5F5
310
F5F5F5F5F5F5F5F5F5F5F5F5F5F5F5F5F5F5F5F5F5F5F5F5F5F5F5F5F5F5F5F5F5F5F5F5F5F5F5F5F5F5F5F5F5E2F5F5F5F5F5F5F5F5F5F5F5F5F5F5F5F5E2F5F5F5F5E2E2F5F5F5F5E2F5F5F5F5F5F5F5F5F5F5F5F5F5F5F5F5E2F5F5F5F5F5F5F5F5F5F5F5F5F5F5F5F5F5F5F5F5F5F5F5F5F5F5F5F5F5F5F5F5F5F5F5F5
310
F5F5F5F5F5F5F5F5F5F5F5F5F5F5F5F5F5F5F5F5F5F5F5F5F5F5F5F5F5F5F5F5F5F5F5F5F5F5F5F5F5F5F5F5F5F5F5F5F5F5F5F5F5F5F5F5F5F5F5F5F5F5F5F5F5F5F5F5F5F5F5F5F5F5F5F5F5F5F5F5F5F5F5F5F5F5F5F5F5F5F5F5F5F5F5F5F5F5E2F5F5F5F5F5F5F5F5F5F5F5F5F5F5F5F5E2F5F5F5F5E2E2F5F5F5F5E2
310
F5F5F5F5F5F5F5F5F5F5F5F5F5F5F5F5E2F5F5F5F5F5F5F5F5F5F5F5F5F5F5F5F5F5F5F5F5F5F5F5F5F5F5F5F5F5F5F5F5F5F5F5F5F5F5F5F5F5F5F5F5F5F5F5F5F5F5F5F5F5F5F5F5F5F5F5F5F5F5F5F5F5F5F5F5F5F5F5F5F5F5F5F5F5F5F5F5F5F5F5F5F5F5F5F5F5F5F5F5F5F5F5F5F5F5F5F5F5F5F5F5F5F5F5F5F5F5
310
F5F5F5F5F5F5F5F5F5F5F5F5F5F5F5F5F5F5F5F5F5F5F5F5E2F5F5F5F5F5F5F5F5F5F5F5F5F5F5F5F5E2F5F5F5F5E2E2F5F5F5F5E2F5F5F5F5F5F5F5F5F5F5F5F5F5F5F5F5E2F5F5F5F5F5F5F5F5F5F5F5F5F5F5F5F5F5F5F5F5F5F5F5F5F5F5F5F5F5F5F5F5F5F5F5F5F5F5F5F5F5F5F5F5F5F5F5F5F5F5F5F5F5F5F5F5F5
310
F5F5F5F5F5F5F5F5F5F5F5F5F5F5F5F5F5F5F5F5F5F5F5F5F5F5F5F5F5F5F5F5F5F5F5F5F5F5F5F5F5F5F5F5F5F5F5F5F5F5F5F5F5F5F5F5F5F5F5F5F5F5F5F5F5F5F5F5F5F5F5F5F5F5F5F5F5E2F5F5F5F5F5F5F5F5F5F5F5F5F5F5F5F5E2F5F5F5F5E2E2F5F5F5F5F5F5F5F5F5F5F5F5F5F5F5F5F5F5F5F5F5E2F5F5F5F5
310
F5F5F5F5F5F5F5F5F5F5F5F5F5F5F5F5F5F5F5F5F5F5F5F5F5F5F5F5F5F5F5F5F5F5F5F5F5F5F5F5F5F5F5F5F5F5F5F5F5F5F5F5F5F5F5F5F5F5F5F5F5F5F5F5F5F5F5F5F5F5F5F5F5F5F5F5F5F5F5F5F5F5F5F5F5F5F5F5F5F5F5F5F5F5F5F5F5F5F5F5F5F5F5F5F5F5F5F5F5F5F5F5F5F5F5F5F5F5F5F5F5F5F5F5F5F5F5
310
F5F5F5E2F5F5F5F5F5F5F5F5F5F5F5F5F5F5F5F5F5F5F5F5F5E2E2F5F5F5F5F5F5F5F5F5F5F5F5F5F5F5F5F5F5F5F5F5E2F5F5F5F5F5F5F5F5F5F5F5F5F5F5F5F5F5F5F5F5F5F5F5F5F5F5F5F5F5F5F5F5F5F5F5F5F5F5F5F5F5F5F5F5F5F5F5F5F5F5F5F5F5F5F5F5F5F5F5F5F5F5F5F5F5F5F5F5F5F5F5F5F5F5F5F5F5F5
310
F5F5F5F5F5F5F5F5F5F5F5F5F5F5F5F5F5F5F5F5F5F5F5F5F5F5F5F5F5F5F5F5F5F5F5F5F5F5F5F5F5F5F5F5F5F5F5F5F5F5F5F5F5F5F5F5E2F5F5F5F5F5F5F5F5F5F5F5F5F5F5F5F5F5F5F5F5F5E2E2F5F5F5F5F5F5F5F5F5F5F5F5F5F5F5F5F5F5F5F5F5E2F5F5F5F5F5F5F5F5F5F5F5F5F5F5F5F5F5F5F5F5F5F5F5F5F5
310
F5F5F5F5F5F5F5F5F5F5F5F5F5F5F5F5F5F5F5F5F5F5F5F5F5F5F5F5F5F5F5F5F5F5F5F5F5F5F5F5F5F5F5F5F5F5F5F5F5F5F5F5F5F5F5F5F5F5F5F5F5F5F5F5F5F5F5F5F5F5F5F5F5F5F5F5F5F5F5F5F5F5F5F5F5F5F5F5F5F5F5F5F5F5F5F5F5F5F5F5F5F5F5F5F5F5F5F5F5E2F5F5F5F5F5F5F5F5F5F5F5F5F5F5F5F5F5
310
F5F5F5F5E2E2F5F5F5F5F5F5F5F5F5F5F5F5F5F5F5F5F5F5F5F5F5E2F5F5F5F5F5F5F5F5F5F5F5F5F5F5F5F5F5F5F5F5F5F5F5F5F5F5F5F5F5F5F5F5F5F5F5F5F5F5F5F5F5F5F5F5F5F5F5F5F5F5F5F5F5F5F5F5F5F5F5F5F5F5F5F5F5F5F5F5F5F5F5F5F5F5F5F5F5F5F5F5F5F5F5F5F5F5F5F5F5F5F5F5F5F5F5F5F5F5F5
310
F5F5F5F5F5F5F5F5F5F5F5F5F5F5F5F5F5F5F5F5F5F5F5F5F5F5F5F5F5F5F5F5F5F5F5E2F5F5F5F5F5F5F5F5F5F5F5F5F5F5F5F5F5F5F5F5F5E2E2F5F5F5F5F5F5F5F5F5F5F5F5F5F5F5F5F5F5F5F5F5E2E2E2E2E2E2E2E2E2E2E2E2E2E2E2E2E2E2E2E2E2E2E2E2E2E2E2E2E2E2E2E2E2E2E2E2E2E2E2E2E2E2E2E2E2E2E2
310
E2E2E2E2E2E2E2E2E2E2E2E2E2E2E2E2E2E2E2E2E2E2E2E2E2E2E2E2E2E2E2E2E2E2E2E2E2E2E2E2E2E2E2E2E2E2E2E2E2E2E2E2E2E2E2E2E2E2E2E2E2E2E2E2E2E2E2E2E2E2E2E2E2E2E2E2E2E2E2E2E2E2E2E2E2E2E2E2E2F5F5F5F5F5F5F5F5F5F5F5F5F5F5F5F5F5F5F5F5F5E2E2F5F5F5F5F5F5F5F5F5F5F5F5F5F5F5
310
F5F5F5F5F5F5F5F5F5F5F5F5F5F5F5F5F5F5F5F5F5F5F5F5F5F5F5F5F5F5F5F5F5F5F5F5F5F5F5F5F5F5F5F5F5F5F5F5F5F5F5F5F5F5F5F5F5F5F5F5F5F5F5F5F5F5F5F5F5F5F5F5F5F5F5F5F5F5F5F5F5F5F5F5F5F5F5F5F5F5F5F5F5F5F5F5F5F5F5F5F5F5F5F5F5F5F5F5F5F5F5F5F5F5F5F5F5F5F5F5F5F5F5F5F5F5F5
310
F5F5F5F5F5F5F5F5F5F5F5F5F5F5F5F5F5F5F5F5F5F5F5F5F5F5F5F5F5F5F5F5F5F5F5F5E2E2F5F5F5F5F5F5F5F5F5F5F5F5F5F5F5F5F5F5F5F5F5F5F5F5F5F5F5F5F5F5F5F5F5F5F5F5F5F5F5F5F5F5F5F5F5F5F5F5F5F5F5F5F5F5F5F5F5F5F5F5F5F5F5F5F5F5F5F5F5F5F5F5F5F5F5F5F5F5F5F5F5F5F5F5F5F5F5F5F5
310
F5F5F5F5F5F5F5F5F5F5F5F5F5F5F5F5F5F5F5F5F5F5F5F5F5F5F5F5F5F5F5F5F5F5F5F5F5F5F5F5F5F5F5F5F5F5F5F5F5F5F5F5F5F5F5F5F5F5F5F5F5F5F5F5F5F5F5F5F5F5F5F5F5F5F5F5F5F5F5F5F5F5F5F5F5F5F5F5F5E2E2F5F5F5F5F5F5F5F5F5F5F5F5F5F5F5F5F5F5F5F5F5F5F5F5F5F5F5F5F5F5F5F5F5F5F5F5
310
F5F5F5F5F5F5F5F5F5F5F5F5F5F5F5F5F5F5F5F5F5F5F5F5F5F5F5F5F5F5F5F5F5F5F5F5F5F5F5F5F5F5F5F5F5F5F5F5F5F5F5F5F5F5F5F5F5F5F5F5F5F5F5F5F5F5F5F5F5F5F5F5F5F5F5F5F5F5F5F5F5F5F5F5F5F5F5F5F5F5F5F5F5F5F5F5F5F5F5F5F5F5F5F5F5F5F5F5F5F5F5F5F5F5F5F5F5F5F5F5F5F5F5F5F5F5F5
310
F5F5F5F5F5F5F5F5F5F5F5F5F5F5F5E2E2F5F5F5F5F5F5F5F5F5F5F5F5F5F5F5F5F5F5F5F5F5F5F5F5F5F5F5F5F5F5F5F5F5F5F5F5F5F5F5F5F5F5F5F5F5F5F5F5F5F5F5F5F5F5F5F5F5F5F5F5F5F5F5F5F5F5F5F5F5F5F5F5F5F5F5F5F5F5F5F5F5F5F5F5F5F5F5F5F5F5F5F5F5F5F5F5F5F5F5F5F5F5F5F5F5F5F5F5F5F5
310
F5F5F5F5F5F5F5F5F5F5F5F5F5F5F5F5F5F5F5F5F5F5F5F5F5F5F5F5F5F5F5F5F5F5F5F5F5F5F5F5F5F5F5F5F5F5F5F5F5F5F5F5F5F5F5F5F5F5F5F5F5F5F5F5F5F5F5F5E2E2F5F5F5F5E2F5F5F5F5F5F5F5F5F5F5F5F5F5F5F5F5F5F5F5F5F5F5F5F5F5F5F5F5F5F5F5F5F5F5F5F5F5F5F5F5F5F5F5F5F5F5F5F5F5F5F5F5
310
F5F5F5F5F5F5F5F5F5F5F5F5F5F5F5F5F5F5F5F5F5F5F5F5F5F5F5F5F5F5F5F5F5F5F5F5F5F5F5F5F5F5F5F5F5F5F5F5F5F5F5F5F5F5F5F5F5F5F5F5F5F5F5F5F5F5F5F5F5F5F5F5F5F5F5F5F5F5F5F5F5F5F5F5F5F5F5F5F5F5F5F5F5F5F5F5F5F5F5F5F5F5F5F5F5F5F5F5F5F5F5F5F5F5F5F5E2F5F5F5F5E2E2F5F5F5F5
310
E2F5F5F5F5F5F5F5F5F5F5F5F5F5F5F5F5F5F5F5F5F5F5F5F5F5F5F5F5F5F5F5F5F5F5F5F5F5F5F5F5F5F5F5F5F5F5F5F5F5F5F5F5F5F5F5F5F5F5F5F5F5F5F5F5F5F5F5F5F5F5F5F5F5F5F5F5F5F5F5F5F5F5F5F5F5F5F5F5F5F5F5F5F5F5F5F5F5F5F5F5F5F5F5F5F5F5F5F5F5F5F5F5F5F5F5F5F5F5F5F5F5F5F5F5F5F5
310
F5F5F5F5F5F5F5F5F5F5F5F5F5F5F5F5F5F5F5F5F5F5F5F5F5F5F5F5F5F5F5F5F5F5F5F5F5F5F5F5F5F5E2F5F5F5F5E2E2F5F5F5F5E2F5F5F5F5F5F5F5F5F5F5F5F5F5F5F5F5F5F5F5F5F5F5F5F5F5F5F5F5F5F5F5F5F5F5F5F5F5F5F5F5F5F5F5F5F5F5F5F5F5F5F5F5F5F5F5F5F5F5F5F5F5F5F5F5F5F5F5F5F5F5F5F5F5
310
F5F5F5F5F5F5F5F5F5F5F5F5F5F5F5F5F5F5F5F5F5F5F5F5F5F5F5F5F5F5F5F5F5F5F5F5F5F5F5F5F5F5F5F5F5F5F5F5F5F5F5F5F5F5F5F5F5F5F5F5F5F5F5F5F5F5F5F5F5F5F5F5F5F5F5F5F5F5F5F5F5F5F5F5F5F5F5F5F5F5F5F5F5F5F5E2F5F5F5F5E2E2F5F5F5F5E2F5F5F5F5F5F5F5F5F5F5F5F5F5F5F5F5F5F5F5F5
310
F5F5F5F5F5F5F5F5F5F5F5F5F5F5F5F5F5F5F5F5F5F5F5F5F5F5F5F5F5F5F5F5F5F5F5F5F5F5F5F5F5F5F5F5F5F5F5F5F5F5F5F5F5F5F5F5F5F5F5F5F5F5F5F5F5F5F5F5F5F5F5F5F5F5F5F5F5F5F5F5F5F5F5F5F5F5F5F5F5F5F5F5F5F5F5F5F5F5F5F5F5F5F5F5F5F5F5F5F5F5F5F5F5F5F5F5F5F5F5F5F5F5F5F5F5F5F5
310
F5F5F5F5F5F5F5F5F5F5F5F5F5F5F5F5F5F5F5F5F5E2F5F5F5F5E2E2F5F5F5F5E2F5F5F5F5F5F5F5F5F5F5F5F5F5F5F5F5F5F5F5F5F5F5F5F5F5F5F5F5F5F5F5F5F5F5F5F5F5F5F5F5F5F5F5F5F5F5F5F5F5F5F5F5F5F5F5F5F5F5F5F5F5F5F5F5F5F5F5F5F5F5F5F5F5F5F5F5F5F5F5F5F5F5F5F5F5F5F5F5F5F5F5F5F5F5
310
F5F5F5F5F5F5F5F5F5F5F5F5F5F5F5F5F5F5F5F5F5F5F5F5F5F5F5F5F5F5F5F5F5F5F5F5F5F5F5F5F5F5F5F5F5F5F5F5F5F5F5F5F5F5F5F5F5F5F5F5F5F5F5F5F5F5F5F5F5F5F5F5F5F5E2F5F5F5F5E2E2F5F5F5F5E2F5F5F5F5F5F5F5F5F5F5F5F5F5F5F5F5F5F5F5F5F5F5F5F5F5F5F5F5F5F5F5F5F5F5F5F5F5F5F5F5F5
310
F5F5F5F5F5F5F5F5F5F5F5F5F5F5F5F5F5F5F5F5F5F5F5F5F5F5F5F5F5F5F5F5F5F5F5F5F5F5F5F5F5F5F5F5F5F5F5F5F5F5F5F5F5F5F5F5F5F5F5F5F5F5F5F5F5F5F5F5F5F5F5F5F5F5F5F5F5F5F5F5F5F5F5F5F5F5F5F5F5F5F5F5F5F5F5F5F5F5F5F5F5F5F5F5F5F5F5F5F5F5F5F5F5F5F5F5F5F5F5F5F5F5F5F5F5F5F5
310
E2F5F5F5F5E2E2F5F5F5F5E2F5F5F5F5F5F5F5F5F5F5F5F5F5F5F5F5F5F5F5F5F5F5F5F5F5F5F5F5F5F5F5F5F5F5F5F5F5F5F5F5F5F5F5F5F5F5F5F5F5F5F5F5F5F5F5F5F5F5F5F5F5F5F5F5F5F5F5F5F5F5F5F5F5F5F5F5F5F5F5F5F5F5F5F5F5F5F5F5F5F5F5F5F5F5F5F5F5F5F5F5F5F5F5F5F5F5F5F5F5F5F5F5F5F5F5
310
F5F5F5F5F5F5F5F5F5F5F5F5F5F5F5F5F5F5F5F5F5F5F5F5F5F5F5F5F5F5F5F5F5F5F5F5F5F5F5F5F5F5F5F5F5F5F5F5F5F5F5F5F5E2F5F5F5F5E2E2F5F5F5F5E2F5F5F5F5F5F5F5F5F5F5F5F5F5F5F5F5F5F5F5F5F5F5F5F5F5F5F5F5F5F5F5F5F5F5F5F5F5F5F5F5F5F5F5F5F5F5F5F5F5F5F5F5F5F5F5F5F5F5F5F5F5F5
310
F5F5F5F5F5F5F5F5F5F5F5F5F5F5F5F5F5F5F5F5F5F5F5F5F5F5F5F5F5F5F5F5F5F5F5F5F5F5F5F5F5F5F5F5F5F5F5F5F5F5F5F5F5F5F5F5F5F5F5F5F5F5F5F5F5F5F5F5F5F5F5F5F5F5F5F5F5F5F5F5F5F5F5F5F5F5F5F5F5F5F5F5F5F5F5F5F5F5F5F5F5F5F5F5F5F5E2F5F5F5F5E2E2F5F5F5F5E2E2E2E2E2E2E2E2F5F5
310
F5F5F5F5F5F5F5E2E2E2E2E2E2E2E2E2E2E2E2E2E2E2F5F5F5F5F5F5F5F5F5E2E2E2E2E2E2E2E2E2E2E2E2E2E2E2E2F5F5F5F5F5F5F5F5E2E2E2E2E2E2E2E2E2E2E2E2E2E2E2E2F5F5F5F5F5F5F5F5E2E2E2E2E2E2E2E2E2E2E2E2E2E2E2E2F5F5F5F5F5F5F5F5E2E2E2E2E2E2E2E2E2E2E2E2E2E2E2E2F5F5F5F5F5F5F5F5
310
F5E2E2E2E2E2E2E2E2E2E2E2E2E2E2E2F5F5F5F5F5F5F5F5F5E2E2E2E2E2E2E2E2F5F5F5F5E2E2F5F5F5F5F5F5F5F5F5F5F5F5F5F5F5F5F5F5F5F5F5F5F5F5F5F5F5F5F5F5F5F5F5F5F5F5F5F5F5F5F5F5F5F5F5F5F5F5F5F5F5F5F5F5F5F5F5F5F5F5F5F5F5F5F5F5F5F5F5F5F5F5F5F5F5F5F5F5F5F5F5F5F5F5F5F5F5F5
310
F5F5F5F5F5F5F5F5F5F5F5F5F5F5F5F5F5F5F5F5F5F5F5F5F5F5F5F5F5F5F5F5F5F5F5F5F5F5F5F5F5F5F5F5F5F5F5F5F5F5F5F5F5F5F5F5F5F5F5F5F5F5F5F5F5F5F5F5F5F5F5F5F5F5F5F5F5F5F5F5F5F5F5F5F5F5F5F5F5F5E2E2F5F5F5F5F5F5F5F5F5F5F5F5F5F5F5F5F5F5F5F5F5F5F5F5F5F5F5F5F5F5F5F5F5F5F5
310
F5F5F5F5F5F5F5F5F5F5F5F5F5F5F5F5F5F5F5F5F5F5F5F5F5F5F5F5F5F5F5F5F5F5F5F5F5F5F5F5F5F5F5F5F5F5F5F5F5F5F5F5F5F5F5F5F5F5F5F5F5F5F5F5F5F5F5F5F5F5F5F5F5F5F5F5F5F5F5F5F5F5F5F5F5F5F5F5F5F5F5F5F5F5F5F5F5F5F5F5F5F5F5F5F5F5F5F5F5F5F5F5F5F5F5F5F5F5F5F5F5F5F5F5F5F5F5
310
F5F5F5F5F5F5F5F5F5F5F5F5F5F5F5F5E2E2F5F5F5F5F5F5F5F5F5F5F5F5F5F5F5F5F5F5F5F5F5F5F5F5F5F5F5F5F5F5F5F5F5F5F5F5F5F5F5F5F5F5F5F5F5F5F5F5F5F5F5F5F5F5F5F5F5F5F5F5F5F5F5F5F5F5F5F5F5F5F5F5F5F5F5F5F5F5F5F5F5F5F5F5F5F5F5F5F5F5F5F5F5F5F5F5F5F5F5F5F5F5F5F5F5F5F5F5F5
310
F5F5F5F5F5F5F5F5F5F5F5F5F5F5F5F5F5F5F5F5F5F5F5F5F5F5F5F5F5F5F5F5F5F5F5F5F5F5F5F5F5F5F5F5F5F5F5F5F5F5F5F5F5F5F5F5F5F5F5F5F5F5F5F5F5F5F5F5F5E2E2E2E2E2E2E2E2E2E2E2E2E2E2E2E2E2E2E2E2E2E2E2E2E2E2E2E2E2E2E2E2E2E2E2E2E2E2E2E2E2E2E2E2E2E2E2E2E2E2E2E2E2E2E2E2E2E2
310
E2E2E2E2E2E2E2E2E2E2E2E2E2E2E2E2E2E2E2E2E2E2E2E2E2E2E2E2E2E2E2E2E2E2E2E2E2E2E2E2E2E2E2E2E2E2E2E2E2E2E2E2E2E2E2E2E2E2E2E2E2E2E2E2E2E2E2E2E2E2E2E2E2E2E2E2E2E2E2E2E2E2E2E2E2E2E2E2E2E2E2E2E2E2E2E2E2E2E2E2E2E2E2E2E2E2E2E2E2E2E2E2E2E2E2E2E2E2E2E2E2E2E2EFEFEFEF
310
EFEFEFEFEFEFEFEFEFEFEFEFEFEFEFEFEFEFEFEFEFEFEFEFEFEFEFEFEFEFEFEFEFEFEFEFEFEFEFEFEFEFEFEFEFEFEFEFEFEFEFEFEFEFEFEFEFEFEFEFEFEFEFEFEFEFEFEFEFEFEFEFEFEFEFEFEFEFEFEFEFEFEFEFEFEFEFEFEFEFEFEFEFEFEFEFEFEFEFEFEFEFEFEFEFEFEFEFEFEFEFEFEFEFEFEFEFEFEFEFEFEFEFEFEFEFEF
310
EFEFEFEFEFEFEFEFEFEFEFEFEFEFEFEFEFEFEFEFEFEFEFEFEFEFEFEFEFEFEFEFEFEFEFEFEFEFEFEFEFEFEFEFEFEFEFEFEF
  0
XRECORD
  5
61B53
102
{ACAD_REACTORS
330
B5
102
}
330
B5
100
AcDbXrecord
280
     1
102
SHADEPLOT
 70
     0
102
SHADEPLOTRESLEVEL
 70
     2
102
SHADEPLOTCUSTOMDPI
 70
   300
  0
XRECORD
  5
B6
102
{ACAD_REACTORS
330
B5
102
}
330
B5
100
AcDbXrecord
280
     1
310
28000000B40000008B0000000100080000000000BC610000000000000000000000010000000000000000000000000000FFFFFF000000000000000000000000000000000000000000000000000000000000000000330000006600000099000000CC000000FF00000000330000333300006633000099330000CC330000FF3300
310
0000660000336600006666000099660000CC660000FF66000000990000339900006699000099990000CC990000FF99000000CC000033CC000066CC000099CC0000CCCC0000FFCC000000FF000033FF000066FF000099FF0000CCFF0000FFFF000000003300330033006600330099003300CC003300FF003300003333003333
310
33006633330099333300CC333300FF33330000663300336633006666330099663300CC663300FF66330000993300339933006699330099993300CC993300FF99330000CC330033CC330066CC330099CC3300CCCC3300FFCC330000FF330033FF330066FF330099FF3300CCFF3300FFFF330000006600330066006600660099
310
006600CC006600FF00660000336600333366006633660099336600CC336600FF33660000666600336666006666660099666600CC666600FF66660000996600339966006699660099996600CC996600FF99660000CC660033CC660066CC660099CC6600CCCC6600FFCC660000FF660033FF660066FF660099FF6600CCFF6600
310
FFFF660000009900330099006600990099009900CC009900FF00990000339900333399006633990099339900CC339900FF33990000669900336699006666990099669900CC669900FF66990000999900339999006699990099999900CC999900FF99990000CC990033CC990066CC990099CC9900CCCC9900FFCC990000FF99
310
0033FF990066FF990099FF9900CCFF9900FFFF99000000CC003300CC006600CC009900CC00CC00CC00FF00CC000033CC003333CC006633CC009933CC00CC33CC00FF33CC000066CC003366CC006666CC009966CC00CC66CC00FF66CC000099CC003399CC006699CC009999CC00CC99CC00FF99CC0000CCCC0033CCCC0066CC
310
CC0099CCCC00CCCCCC00FFCCCC0000FFCC0033FFCC0066FFCC0099FFCC00CCFFCC00FFFFCC000000FF003300FF006600FF009900FF00CC00FF00FF00FF000033FF003333FF006633FF009933FF00CC33FF00FF33FF000066FF003366FF006666FF009966FF00CC66FF00FF66FF000099FF003399FF006699FF009999FF00CC
310
99FF00FF99FF0000CCFF0033CCFF0066CCFF0099CCFF00CCCCFF00FFCCFF0000FFFF0033FFFF0066FFFF0099FFFF00CCFFFF00FFFFFF00000000000D0D0D001A1A1A00282828003535350043434300505050005D5D5D006B6B6B00787878008686860093939300A1A1A100AEAEAE00BBBBBB00C9C9C900D6D6D600E4E4E400
310
F1F1F100FFFFFF0000000000000000000000000000000000000000000000000000000000000000000000000000000000F5F5F5F5F5F5F5F5F5F5F5F5F5F5F5F5F5F5F5F5F5F5F5F5F5F5F5F5F5F5F5F5F5F5F5F5F5F5F5F5F5F5F5F5F5F5F5F5F5F5F5F5F5F5F5F5F5F5F5F5F5F5F5F5F5F5F5F5F5F5F5F5F5F5F5F5F5F5F5
310
F5F5F5F5F5F5F5F5F5F5F5F5F5F5F5F5F5F5F5F5F5F5F5F5F5F5F5F5F5F5F5F5F5F5F5F5F5F5F5F5F5F5F5F5F5F5F5F5F5F5F5F5F5F5F5F5F5F5F5F5F5F5F5F5F5F5F5F5F5F5F5F5F5F5F5F5F5F5F5F5F5F5F5F5F5F5F5F5F5F5F5F5F5F5F5F5F5F5F5F5F5F5E2E2E2E2E2E2E2E2E2E2E2E2E2E2E2E2E2E2E2E2E2E2E2E2E2
310
E2E2E2E2E2E2E2E2E2E2E2E2E2E2E2E2E2E2E2E2E2E2E2E2E2E2E2E2E2E2E2E2E2E2E2E2E2E2E2E2E2E2E2E2E2E2E2E2E2E2E2E2E2E2E2E2E2E2E2E2E2E2E2E2E2E2E2E2E2E2E2E2E2E2E2E2E2E2E2E2E2E2E2E2E2E2E2E2E2E2E2E2E2E2E2E2E2E2E2E2E2E2E2E2E2E2E2E2E2E2E2E2E2E2E2E2E2E2E2E2E2E2E2E2E2E2E2
310
E2E2E2E2E2E2E2E2E2E2E2E2E2E2E2E2E2E2E2E2E2E2E2E2E2E2F5F5E2E2E2E2E2E2E2E2E2E2E2E2E2E2E2E2E2E2E2E2E2E2E2E2E2E2E2E2E2E2E2E2E2E2E2E2E2E2E2E2E2E2E2E2E2E2E2E2E2E2E2E2E2E2E2E2E2E2E2E2E2E2E2E2E2E2E2E2E2E2E2E2E2E2E2E2E2E2E2E2E2E2E2E2E2E2E2E2E2E2E2E2E2E2E2E2E2E2E2
310
E2E2E2E2E2E2E2E2E2E2E2E2E2E2E2E2E2E2E2E2E2E2E2E2E2E2E2E2E2E2E2E2E2E2E2E2E2E2E2E2E2E2E2E2E2E2E2E2E2E2E2E2E2E2E2E2E2E2E2E2E2E2E2E2E2E2E2E2E2E2E2E2E2E2E2E2E2E2E2F5F5E2E2E2E2E2E2E2E2E2E2E2E2E2E2E2E2E2E2E2E2E2E2E2E2E2E2E2E2E2E2E2E2E2E2E2E2E2E2E2E2E2E2E2E2E2E2
310
E2E2E2E2E2E2E2E2E2E2E2E2E2E2E2E2E2E2E2E2E2E2E2E2E2E2E2E2E2E2E2E2E2E2E2E2E2E2E2E2E2E2E2E2E2E2E2E2E2E2E2E2E2E2E2E2E2E2E2E2E2E2E2E2E2E2E2E2E2E2E2E2E2E2E2E2E2E2E2E2E2E2E2E2E2E2E2E2E2E2E2E2E2E2E2E2E2E2E2E2E2E2E2E2E2E2E2E2E2E2E2E2E2E2E2E2E2E2E2E2E2E2E2E2E2E2E2
310
E2E2E2E2E2F5F5E2E2E2E2E2E2E2E2E2E2E2E2E2E2E2E2E2E2E2E2E2E2E2E2E2E2E2E2E2E2E2E2E2E2E2E2E2E2E2E2E2E2E2E2E2E2E2E2E2E2E2E2E2E2E2E2E2E2E2E2E2E2E2E2E2E2E2E2E2E2E2E2E2E2E2E2E2E2E2E2E2E2E2E2E2E2E2E2E2E2E2E2E2E2E2E2E2E2E2E2E2E2E2E2E2E2E2E2E2E2E2E2E2E2E2E2E2E2E2E2
310
E2E2E2E2E2E2E2E2E2E2E2E2E2E2E2E2E2E2E2E2E2E2E2E2E2E2E2E2E2E2E2E2E2E2E2E2E2E2E2E2E2E2E2E2E2E2E2E2E2E2E2E2E2E2E2E2E2E2F5F5E2E2E2F5F5F5F5F5F5F5F5E2E2E2E2E2E2E2E2E2F5F5F5F5F5F5F5F5F5F5F5F5F5F5F5F5E2E2E2E2E2E2E2E2E2F5F5F5F5F5F5F5F5F5F5F5F5F5F5F5E2E2E2E2E2E2E2
310
E2E2F5F5F5F5F5F5F5F5F5F5F5F5F5F5F5F5E2E2E2E2E2E2E2E2F5F5F5F5F5F5F5F5F5F5F5F5F5F5F5F5E2E2E2E2E2E2E2E2E2F5F5F5F5F5F5F5F5F5F5F5F5F5F5F5E2E2E2E2E2E2E2E2E2F5F5F5F5F5F5F5F5F5F5F5F5F5F5F5F5E2E2E2E2E2E2E2E2E2F5F5F5F5F5F5F5F5E2E2E2F5F5E2E2E2F5E2E2E2E2E2E2E2E2E2E2
310
E2E2E2E2E2E2E2E2E2E2E2E2E2E2E2E2E2E2E2E2E2E2E2E2E2E2E2E2E2E2E2E2E2E2E2E2E2E2E2E2E2E2E2E2E2E2E2E2E2E2E2E2E2E2E2E2E2E2E2E2E2E2E2E2E2E2E2E2E2E2E2E2E2E2E2E2E2E2E2E2E2E2E2E2E2E2E2E2E2E2E2E2E2E2E2E2E2E2E2E2E2E2E2E2E2E2E2E2E2E2E2E2E2E2E2E2E2E2E2E2E2E2E2E2E2E2E2
310
E2E2E2E2E2E2E2E2E2E2E2E2E2E2E2E2E2E2E2E2E2E2E2E2E2E2E2E2E2E2E2E2E2F5E2E2E2F5F5E2E2E2F5E2E2E2E2E2E2E2E2E2E2E2E2E2E2E2E2E2E2E2E2E2E2E2E2E2E2E2E2E2E2E2E2E2E2E2E2E2E2E2E2E2E2E2E2E2E2E2E2E2E2E2E2E2E2E2E2E2E2E2E2E2E2E2E2E2E2E2E2E2E2E2E2E2E2E2E2E2E2E2E2E2E2E2E2
310
E2E2E2E2E2E2E2E2E2E2E2E2E2E2E2E2E2E2E2E2E2E2E2E2E2E2E2E2E2E2E2E2E2E2E2E2E2E2E2E2E2E2E2E2E2E2E2E2E2E2E2E2E2E2E2E2E2E2E2E2E2E2E2E2E2E2E2E2E2E2E2E2E2E2E2E2E2E2E2E2E2E2E2E2E2E2F5E2E2E2F5F5E2E2E2F5E2E2E2E2E2E2E2E2E2E2E2E2E2E2E2E2E2E2E2E2E2E2E2E2E2E2E2E2E2E2E2
310
E2E2E2E2E2E2E2E2E2E2E2E2E2E2E2E2E2E2E2E2E2E2E2E2E2E2E2E2E2E2E2E2E2E2E2E2E2E2E2E2E2E2E2E2E2E2E2E2E2E2E2E2E2E2E2E2E2E2E2E2E2E2E2E2E2E2E2E2E2E2E2E2E2E2E2E2E2E2E2E2E2E2E2E2E2E2E2E2E2E2E2E2E2E2E2E2E2E2E2E2E2E2E2E2E2E2E2E2E2E2E2E2E2E2E2E2E2E2E2E2E2E2E2E2E2E2E2
310
E2E2E2E2E2E2E2E2E2E2E2E2F5E2E2E2F5F5E2E2E2F5E2E2E2E2E2E2E2E2E2E2E2E2E2E2E2E2E2E2E2E2E2E2E2E2E2E2E2E2E2E2E2E2E2E2E2E2E2E2E2E2E2E2E2E2E2E2E2E2E2E2E2E2E2E2E2E2E2E2E2E2E2E2E2E2E2E2E2E2E2E2E2E2E2E2E2E2E2E2E2E2E2E2E2E2E2E2E2E2E2E2E2E2E2E2E2E2E2E2E2E2E2E2E2E2E2
310
E2E2E2E2E2E2E2E2E2E2E2E2E2E2E2E2E2E2E2E2E2E2E2E2E2E2E2E2E2E2E2E2E2E2E2E2E2E2E2E2E2E2E2E2E2E2E2E2E2E2E2E2E2E2E2E2E2E2E2E2E2E2E2E2E2F5E2E2E2F5F5E2E2E2F5E2E2E2E2E2E2E2E2E2E2E2E2E2E2E2E2E2E2E2E2E2E2E2E2E2E2E2E2E2E2E2E2E2E2E2E2E2E2E2E2E2E2E2E2E2E2E2E2E2E2E2E2
310
E2E2E2E2E2E2E2E2E2E2E2E2E2E2E2E2E2E2E2E2E2E2E2E2E2E2E2E2E2E2E2E2E2E2E2E2E2E2E2E2E2E2E2E2E2E2E2E2E2E2E2E2E2E2E2E2E2E2E2E2E2E2E2E2E2E2E2E2E2E2E2E2E2E2E2E2E2E2E2E2E2E2E2E2E2E2E2E2E2E2E2E2E2E2E2E2E2E2E2E2E2E2E2E2E2E2E2E2E2E2E2E2E2E2E2E2E2E2F5E2E2E2F5F5E2E2E2
310
F5E2E2E2E2E2E2E2E2E2E2E2E2E2E2E2E2E2E2E2E2E2E2E2E2E2E2E2E2E2E2E2E2E2E2E2E2E2E2E2E2E2E2E2E2E2E2E2E2E2E2E2E2E2E2E2E2E2E2E2E2E2E2E2E2E2E2E2E2E2E2E2E2E2E2E2E2E2E2E2E2E2E2E2E2E2E2E2E2E2E2E2E2E2E2E2E2E2E2E2E2E2E2E2E2E2E2E2E2E2E2E2E2E2E2E2E2E2E2E2E2E2E2E2E2E2E2
310
E2E2E2E2E2E2E2E2E2E2E2E2E2E2E2E2E2E2E2E2E2E2E2E2E2E2E2E2E2E2E2E2E2E2E2E2E2E2E2E2E2E2E2E2F5E2E2E2F5F5E2E2E2F5E2E2E2E2E2E2E2E2E2E2E2E2E2E2E2E2E2E2E2E2E2E2E2E2E2E2E2E2E2E2E2E2E2E2E2E2E2E2E2E2E2E2E2E2E2E2E2E2E2E2E2E2E2E2E2E2E2E2E2E2E2E2E2E2E2E2E2E2E2E2E2E2E2
310
E2E2E2E2E2E2E2E2E2E2E2E2E2E2E2E2E2E2E2E2E2E2E2E2E2E2E2E2E2E2E2E2E2E2E2E2E2E2E2E2E2E2E2E2E2E2E2E2E2E2E2E2E2E2E2E2E2E2E2E2E2E2E2E2E2E2E2E2E2E2E2E2E2E2E2E2E2E2E2E2E2E2E2E2E2E2E2E2E2E2E2E2E2E2E2E2E2F5E2E2E2F5F5E2E2E2F5E2E2E2E2E2E2E2E2E2E2E2E2E2E2E2E2E2E2E2E2
310
E2E2E2E2E2E2E2E2E2E2E2E2E2E2E2E2E2E2E2E2E2E2E2E2E2E2E2E2E2E2E2E2E2E2E2E2E2E2E2E2E2E2E2E2E2E2E2E2E2E2E2E2E2E2E2E2E2E2E2E2E2E2E2E2E2E2E2E2E2E2E2E2E2E2E2E2E2E2E2E2E2E2E2E2E2E2E2E2E2E2E2E2E2E2E2E2E2E2E2E2E2E2E2E2E2E2E2E2E2E2E2E2E2E2E2E2E2E2E2E2E2E2E2E2E2E2E2
310
E2E2E2E2E2E2E2E2E2E2E2E2E2E2E2E2E2E2E2E2E2E2E2F5E2E2E2F5F5E2E2E2E2E2E2E2E2E2E2E2E2E2E2E2E2E2E2E2E2E2E2E2E2E2E2E2E2E2E2E2E2E2E2E2E2E2E2E2E2E2E2E2E2E2E2E2E2E2E2E2E2E2E2E2E2E2E2E2E2E2E2E2E2E2E2E2E2E2E2E2E2E2E2E2E2E2E2E2E2E2E2E2E2E2E2E2E2E2E2E2E2E2E2E2E2E2E2
310
E2E2E2E2E2E2E2E2E2E2E2E2E2E2E2E2E2E2E2E2E2E2E2E2E2E2E2E2E2E2E2E2E2E2E2E2E2E2E2E2E2E2E2E2E2E2E2E2E2E2E2E2E2E2E2E2E2E2E2E2E2E2E2E2E2E2E2E2E2E2E2E2E2E2E2E2E2E2E2E2F5F5E2E2E2E2E2E2E2E2E2E2E2E2E2E2E2E2E2E2E2E2E2E2E2E2E2E2E2E2E2E2E2E2E2E2E2E2E2E2E2E2E2E2E2E2E2
310
E2E2E2E2E2E2E2E2E2E2E2E2E2E2E2E2E2E2E2E2E2E2E2E2E2E2E2E2E2E2E2E2E2E2E2E2E2E2E2E2E2E2E2E2E2E2E2E2E2E2E2E2E2E2E2E2E2E2E2E2E2E2E2E2E2E2E2E2E2E2E2E2E2E2E2E2E2E2E2E2E2E2E2E2E2E2E2E2E2E2E2E2E2E2E2E2E2E2E2E2E2E2E2E2E2E2E2E2E2E2E2E2E2E2E2E2E2E2E2E2E2E2E2E2E2E2E2
310
E2E2E2E2E2E2F5F5E2E2E2E2E2E2E2E2E2E2E2E2E2E2E2E2E2E2E2E2E2E2E2E2E2E2E2E2E2E2E2E2E2E2E2E2E2E2E2E2E2E2E2E2E2E2E2E2E2E2E2E2E2E2E2E2E2E2E2E2E2E2E2E2E2E2E2E2E2E2E2E2E2E2E2E2E2E2E2E2E2E2E2E2E2E2E2E2E2E2E2E2E2E2E2E2E2E2E2E2E2E2E2E2E2E2E2E2E2E2E2E2E2E2E2E2E2E2E2
310
E2E2E2E2E2E2E2E2E2E2E2E2E2E2E2E2E2E2E2E2E2E2E2E2E2E2E2E2E2E2E2E2E2E2E2E2E2E2E2E2E2E2E2E2E2E2E2E2E2E2E2E2E2E2E2E2E2E2E2F5F5E2E2E2E2E2E2E2E2E2E2E2E2E2E2E2E2E2E2E2E2E2E2E2E2E2E2E2E2E2E2E2E2E2E2E2E2E2E2E2E2E2E2E2E2E2E2E2E2E2E2E2E2E2E2E2E2E2E2E2E2E2E2E2E2E2E2
310
E2E2E2E2E2E2E2E2E2E2E2E2E2E2E2E2E2E2E2E2E2E2E2E2E2E2E2E2E2E2E2E2E2E2E2E2E2E2E2E2E2E2E2E2E2E2E2E2E2E2E2E2E2E2E2E2E2E2E2E2E2E2E2E2E2E2E2E2E2E2E2E2E2E2E2E2E2E2E2E2E2E2E2E2E2E2E2E2E2E2E2E2E2E2E2E2E2E2E2E2E2E2E2E2E2E2E2E2E2E2E2E2F5F5E2E2E2E2E2E2E2E2E2E2E2E2E2
310
E2E2E2E2E2E2E2F5F5F5F5F5F5F5F5F5F5F5F5F5F5F5F5F5F5F5F5F5F5F5F5F5F5F5F5F5F5F5F5F5F5F5F5F5F5F5F5F5F5F5F5F5F5F5F5F5F5F5F5F5F5F5F5F5F5F5F5F5F5F5F5F5F5F5F5F5F5F5F5F5F5F5F5F5F5F5F5F5F5F5F5F5F5F5F5F5F5F5F5F5F5F5F5F5F5F5F5F5F5F5F5F5F5F5F5F5F5F5F5F5F5F5F5F5F5F5F5
310
F5F5F5F5F5F5F5F5F5F5F5F5F5F5F5F5F5F5E2E2E2E2E2E2E2E2E2E2E2E2E2E2E2E2E2E2E2E2F5F5E2E2E2E2E2E2E2E2E2E2E2E2E2E2E2E2E2E2E2E2F5E2E2E2E2E2E2E2E2E2E2E2E2E2E2E2E2E2E2E2E2E2E2E2E2E2E2E2E2E2E2E2E2E2E2E2E2E2E2E2E2E2E2E2E2E2E2E2E2E2E2E2E2E2E2E2E2E2E2E2E2E2E2E2E2E2E2
310
E2E2E2E2E2E2E2E2E2E2E2E2E2E2E2E2E2E2E2E2E2E2E2E2E2E2E2E2E2E2E2E2E2E2E2E2E2E2E2E2E2E2E2E2E2E2E2E2E2E2E2E2E2E2E2E2E2E2E2E2E2E2E2E2E2E2E2E2E2E2F5E2E2E2E2E2E2E2E2E2E2E2E2E2E2E2E2E2E2E2E2F5F5E2E2E2E2E2E2E2E2E2E2E2E2E2E2E2E2E2E2E2E2F5E2E2E2E2E2E2E2E2E2E2E2E2E2
310
E2E2E2E2E2E2E2E2E2E2E2E2E2E2E2E2E2E2E2E2E2E2E2E2E2E2E2E2E2E2E2E2E2E2E2E2E2E2E2E2E2E2E2E2E2E2E2E2E2E2E2E2E2E2E2E2E2E2E2E2E2E2E2E2E2E2E2E2E2E2E2E2E2E2E2E2E2E2E2E2E2E2E2E2E2E2E2E2E2E2E2E2E2E2E2E2E2E2E2E2E2E2E2E2E2E2E2E2E2E2E2E2E2E2E2E2E2E2E2E2E2E2E2F5E2E2E2
310
E2E2E2E2E2E2E2E2E2E2E2E2E2E2E2E2E2F5F5E2E2E2E2E2E2E2E2E2E2E2E2E2E2E2E2E2E2E2E2F5E2E2E2E2E2E2E2E2E2E2E2E2E2E2E2E2E2E2E2E2E2E2E2E2E2E2E2E2E2E2E2E2E2E2E2E2E2E2E2E2E2E2E2E2E2E2E2E2E2E2E2E2E2E2E2E2E2E2E2E2E2E2E2E2E2E2E2E2E2E2E2E2E2E2E2E2E2E2E2E2E2E2E2E2E2E2E2
310
E2E2E2E2E2E2E2E2E2E2E2E2E2E2E2E2E2E2E2E2E2E2E2E2E2E2E2E2E2E2E2E2E2E2E2E2E2E2E2E2E2E2E2E2E2E2E2E2E2F5E2E2E2E2E2E2E2E2E2E2E2E2E2E2E2E2E2E2E2E2F5F5E2E2E2E2E2E2E2E2E2E2E2E2E2E2E2E2E2E2E2E2F5E2E2E2E2E2E2E2E2E2E2E2E2E2E2E2E2E2E2E2E2E2E2E2E2E2E2E2E2E2E2E2E2E2E2
310
E2E2E2E2E2E2E2E2E2E2E2E2E2E2E2E2E2E2E2E2E2E2E2E2E2E2E2E2E2E2E2E2E2E2E2E2E2E2E2E2E2E2E2E2E2E2E2E2E2E2E2E2E2E2E2E2E2E2E2E2E2E2E2E2E2E2E2E2E2E2E2E2E2E2E2E2E2E2E2E2E2E2E2E2E2E2E2E2E2E2E2E2E2E2E2E2E2E2E2E2E2E2F5E2E2E2E2E2E2E2E2E2E2E2E2E2E2E2E2E2E2E2E2F5F5E2E2
310
E2F5E2E2E2E2E2E2E2E2E2E2E2E2E2E2E2E2F5E2E2E2E2E2E2E2E2E2E2E2E2E2E2E2E2E2E2E2E2E2E2E2E2E2E2E2E2E2E2E2E2E2E2E2E2E2E2E2E2E2E2E2E2E2E2E2E2E2E2E2E2E2E2E2E2E2E2E2E2E2E2E2E2E2E2E2E2E2E2E2E2E2E2E2E2E2E2E2E2E2E2E2E2E2E2E2E2E2E2E2E2E2E2E2E2E2E2E2E2E2E2E2E2E2E2E2E2
310
E2E2E2E2E2E2E2E2E2E2E2E2E2E2E2E2E2E2E2E2E2E2E2E2E2E2E2E2F5E2E2E2E2E2E2E2E2E2E2E2E2E2E2E2E2F5E2E2E2F5F5E2E2E2F5E2E2E2E2E2E2E2E2E2E2E2E2E2E2E2E2F5E2E2E2E2E2E2E2E2E2E2E2E2E2E2E2E2E2E2E2E2E2E2E2E2E2E2E2E2E2E2E2E2E2E2E2E2E2E2E2E2E2E2E2E2E2E2E2E2E2E2E2E2E2E2E2
310
E2E2E2E2E2E2E2E2E2E2E2E2E2E2E2E2E2E2E2E2E2E2E2E2E2E2E2E2E2E2E2E2E2E2E2E2E2E2E2E2E2E2E2E2E2E2E2E2E2E2E2E2E2E2E2E2E2E2E2E2E2E2E2E2E2E2E2E2E2E2E2E2E2E2E2E2E2E2E2E2E2F5E2E2E2E2E2E2E2E2E2E2E2E2E2E2E2E2F5E2E2E2F5F5E2E2E2F5E2E2E2E2E2E2E2E2E2E2E2E2E2E2E2E2F5E2E2
310
E2E2E2E2E2E2E2E2E2E2E2E2E2E2E2E2E2E2E2E2E2E2E2E2E2E2E2E2E2E2E2E2E2E2E2E2E2E2E2E2E2E2E2E2E2E2E2E2E2E2E2E2E2E2E2E2E2E2E2E2E2E2E2E2E2E2E2E2E2E2E2E2E2E2E2E2E2E2E2E2E2E2E2E2E2E2E2E2E2E2E2E2E2E2E2E2E2E2E2E2E2E2E2E2E2E2E2E2E2E2E2E2E2E2E2E2E2E2E2E2E2E2E2E2E2E2E2
310
E2E2E2E2E2E2E2F5E2E2E2E2E2E2E2E2E2E2E2E2E2E2E2E2F5E2E2E2F5F5E2E2E2F5E2E2E2E2E2E2E2E2E2E2E2E2E2E2E2E2F5E2E2E2E2E2E2E2E2E2E2E2E2E2E2E2E2E2E2E2E2E2E2E2E2E2E2E2E2E2E2E2E2E2E2E2E2E2E2E2E2E2E2E2E2E2E2E2E2E2E2E2E2E2E2E2E2E2E2E2E2E2E2E2E2E2E2E2E2E2E2E2E2E2E2E2E2
310
E2E2E2E2E2E2E2E2E2E2E2E2E2E2E2E2E2E2E2E2E2E2E2E2E2E2E2E2E2E2E2E2E2E2E2E2E2E2E2E2E2E2E2E2E2E2E2E2E2E2E2E2E2E2E2E2E2E2E2E2F5E2E2E2E2E2E2E2E2E2E2E2E2E2E2E2E2F5E2E2E2F5F5E2E2E2F5E2E2E2E2E2E2E2E2E2E2E2E2E2E2E2E2F5E2E2E2E2E2E2E2E2E2E2E2E2E2E2E2E2E2E2E2E2E2E2E2
310
E2E2E2E2E2E2E2E2E2E2E2E2E2E2E2E2E2E2E2E2E2E2E2E2E2E2E2E2E2E2E2E2E2E2E2E2E2E2E2E2E2E2E2E2E2E2E2E2E2E2E2E2E2E2E2E2E2E2E2E2E2E2E2E2E2E2E2E2E2E2E2E2E2E2E2E2E2E2E2E2E2E2E2E2E2E2E2E2E2E2E2E2E2E2E2E2E2E2E2E2E2E2E2E2E2E2E2E2E2E2E2E2E2F5E2E2E2E2E2E2E2E2E2E2E2E2E2
310
E2E2E2F5E2E2E2F5F5E2E2E2F5E2E2E2E2E2E2E2E2E2E2E2E2E2E2E2E2F5E2E2E2E2E2E2E2E2E2E2E2E2E2E2E2E2E2E2E2E2E2E2E2E2E2E2E2E2E2E2E2E2E2E2E2E2E2E2E2E2E2E2E2E2E2E2E2E2E2E2E2E2E2E2E2E2E2E2E2E2E2E2E2E2E2E2E2E2E2E2E2E2E2E2E2E2E2E2E2E2E2E2E2E2E2E2E2E2E2E2E2E2E2E2E2E2E2
310
E2E2E2E2E2E2E2E2E2E2E2E2E2E2E2E2E2E2E2E2E2E2E2E2E2E2E2E2E2E2E2E2E2E2E2E2E2E2E2F5E2E2E2E2E2E2E2E2E2E2E2E2E2E2E2E2F5E2E2E2F5F5E2E2E2F5E2E2E2E2E2E2E2E2E2E2E2E2E2E2E2E2F5E2E2E2E2E2E2E2E2E2E2E2E2E2E2E2E2E2E2E2E2E2E2E2E2E2E2E2E2E2E2E2E2E2E2E2E2E2E2E2E2E2E2E2E2
310
E2E2E2E2E2E2E2E2E2E2E2E2E2E2E2E2E2E2E2E2E2E2E2E2E2E2E2E2E2E2E2E2E2E2E2E2E2E2E2E2E2E2E2E2E2E2E2E2E2E2E2E2E2E2E2E2E2E2E2E2E2E2E2E2E2E2E2E2E2E2E2E2E2E2E2E2E2E2E2E2E2E2E2E2E2E2E2E2E2E2E2E2F5E2E2E2E2E2E2E2E2E2E2E2E2E2E2E2E2F5E2E2E2F5F5E2E2E2F5E2E2E2E2E2E2E2E2
310
E2E2E2E2E2E2E2E2F5E2E2E2E2E2E2E2E2E2E2E2E2E2E2E2E2E2E2E2E2E2E2E2E2E2E2E2E2E2E2E2E2E2E2E2E2E2E2E2E2E2E2E2E2E2E2E2E2E2E2E2E2E2E2E2E2E2E2E2E2E2E2E2E2E2E2E2E2E2E2E2E2E2E2E2E2E2E2E2E2E2E2E2E2E2E2E2E2E2E2E2E2E2E2E2E2E2E2E2E2E2E2E2E2E2E2E2E2E2E2E2E2E2E2E2E2E2E2
310
E2E2E2E2E2E2E2E2E2E2E2E2E2E2E2E2E2E2F5E2E2E2E2E2E2E2E2E2E2E2E2E2E2E2E2F5E2E2E2F5F5E2E2E2F5E2E2E2E2E2E2E2E2E2E2E2E2E2E2E2E2F5E2E2E2E2E2E2E2E2E2E2E2E2E2E2E2E2E2E2E2E2E2E2E2E2E2E2E2E2E2E2E2E2E2E2E2E2E2E2E2E2E2E2E2E2E2E2E2E2E2E2E2E2E2E2E2E2E2E2E2E2E2E2E2E2E2
310
E2E2E2E2E2E2E2E2E2E2E2E2E2E2E2E2E2E2E2E2E2E2E2E2E2E2E2E2E2E2E2E2E2E2E2E2E2E2E2E2E2E2E2E2E2E2E2E2E2E2E2E2E2E2E2E2E2E2E2E2E2E2E2E2E2E2E2E2E2E2E2F5E2E2E2E2E2E2E2E2E2E2E2E2E2E2E2E2F5E2E2E2F5F5E2E2E2F5E2E2E2E2E2E2E2E2E2E2E2E2E2E2E2E2F5E2E2E2E2E2E2E2E2E2E2E2E2
310
E2E2E2E2E2E2E2E2E2E2E2E2E2E2E2E2E2E2E2E2E2E2E2E2E2E2E2E2E2E2E2E2E2E2E2E2E2E2E2E2E2E2E2E2E2E2E2E2E2E2E2E2E2E2E2E2E2E2E2E2E2E2E2E2E2E2E2E2E2E2E2E2E2E2E2E2E2E2E2E2E2E2E2E2E2E2E2E2E2E2E2E2E2E2E2E2E2E2E2E2E2E2E2E2E2E2E2E2E2E2E2E2E2E2E2E2E2E2E2E2E2E2E2E2F5E2E2
310
E2E2E2E2E2E2E2E2E2E2E2E2E2E2F5E2E2E2F5F5E2E2E2F5E2E2E2E2E2E2E2E2E2E2E2E2E2E2E2E2F5E2E2E2E2E2E2E2E2E2E2E2E2E2E2E2E2E2E2E2E2E2E2E2E2E2E2E2E2E2E2E2E2E2E2E2E2E2E2E2E2E2E2E2E2E2E2E2E2E2E2E2E2E2E2E2E2E2E2E2E2E2E2E2E2E2E2E2E2E2E2E2E2E2E2E2E2E2E2E2E2E2E2E2E2E2E2
310
E2E2E2E2E2E2E2E2E2E2E2E2E2E2E2E2E2E2E2E2E2E2E2E2E2E2E2E2E2E2E2E2E2E2E2E2E2E2E2E2E2E2E2E2E2E2E2E2E2E2F5E2E2E2E2E2E2E2E2E2E2E2E2E2E2E2E2F5E2E2E2F5F5E2E2E2F5E2E2E2E2E2E2E2E2E2E2E2E2E2E2E2E2F5E2E2E2E2E2E2E2E2E2E2E2E2E2E2E2E2E2E2E2E2E2E2E2E2E2E2E2E2E2E2E2E2E2
310
E2E2E2E2E2E2E2E2E2E2E2E2E2E2E2E2E2E2E2E2E2E2E2E2E2E2E2E2E2E2E2E2E2E2E2E2E2E2E2E2E2E2E2E2E2E2E2E2E2E2E2E2E2E2E2E2E2E2E2E2E2E2E2E2E2E2E2E2E2E2E2E2E2E2E2E2E2E2E2E2E2E2E2E2E2E2E2E2E2E2E2E2E2E2E2E2E2E2E2E2E2E2E2F5E2E2E2E2E2E2E2E2E2E2E2E2E2E2E2E2F5E2E2E2F5F5E2
310
E2E2F5E2E2E2E2E2E2E2E2E2E2E2E2E2E2E2E2F5E2E2E2E2E2E2E2E2E2E2E2E2E2E2E2E2E2E2E2E2E2E2E2E2E2E2E2E2E2E2E2E2E2E2E2E2E2E2E2E2E2E2E2E2E2E2E2E2E2E2E2E2E2E2E2E2E2E2E2E2E2E2E2E2E2E2E2E2E2E2E2E2E2E2E2E2E2E2E2E2E2E2E2E2E2E2E2E2E2E2E2E2E2E2E2E2E2E2E2E2E2E2E2E2E2E2E2
310
E2E2E2E2E2E2E2E2E2E2E2E2E2E2E2E2E2E2E2E2E2E2E2E2E2E2E2E2E2F5E2E2E2E2E2E2E2E2E2E2E2E2E2E2E2E2F5E2E2E2F5F5E2E2E2F5E2E2E2E2E2E2E2E2E2E2E2E2E2E2E2E2F5E2E2E2E2E2E2E2E2E2E2E2E2E2E2E2E2E2E2E2E2E2E2E2E2E2E2E2E2E2E2E2E2E2E2E2E2E2E2E2E2E2E2E2E2E2E2E2E2E2E2E2E2E2E2
310
E2E2E2E2E2E2E2E2E2E2E2E2E2E2E2E2E2E2E2E2E2E2E2E2E2E2E2E2E2E2E2E2E2E2E2E2E2E2E2E2E2E2E2E2E2E2E2E2E2E2E2E2E2E2E2E2E2E2E2E2E2E2E2E2E2E2E2E2E2E2E2E2E2E2E2E2E2E2E2E2E2E2F5E2E2E2E2E2E2E2E2E2E2E2E2E2E2E2E2F5E2E2E2F5F5E2E2E2F5E2E2E2E2E2E2E2E2E2E2E2E2E2E2E2E2F5E2
310
E2E2E2E2E2E2E2E2E2E2E2E2E2E2E2E2E2E2E2E2E2E2E2E2E2E2E2E2E2E2E2E2E2E2E2E2E2E2E2E2E2E2E2E2E2E2E2E2E2E2E2E2E2E2E2E2E2E2E2E2E2E2E2E2E2E2E2E2E2E2E2E2E2E2E2E2E2E2E2E2E2E2E2E2E2E2E2E2E2E2E2E2E2E2E2E2E2E2E2E2E2E2E2E2E2E2E2E2E2E2E2E2E2E2E2E2E2E2E2E2E2E2E2E2E2E2E2
310
E2E2E2E2E2E2E2E2F5E2E2E2E2E2E2E2E2E2E2E2E2E2E2E2E2F5E2E2E2F5F5E2E2E2F5E2E2E2E2E2E2E2E2E2E2E2E2E2E2E2E2F5E2E2E2E2E2E2E2E2E2E2E2E2E2E2E2E2E2E2E2E2E2E2E2E2E2E2E2E2E2E2E2E2E2E2E2E2E2E2E2E2E2E2E2E2E2E2E2E2E2E2E2E2E2E2E2E2E2E2E2E2E2E2E2E2E2E2E2E2E2E2E2E2E2E2E2
310
E2E2E2E2E2E2E2E2E2E2E2E2E2E2E2E2E2E2E2E2E2E2E2E2E2E2E2E2E2E2E2E2E2E2E2E2E2E2E2E2E2E2E2E2E2E2E2E2E2E2E2E2E2E2E2E2E2E2E2E2E2F5E2E2E2E2E2E2E2E2E2E2E2E2E2E2E2E2F5E2E2E2F5F5E2E2E2F5E2E2E2E2E2E2E2E2E2E2E2E2E2E2E2E2F5E2E2E2E2E2E2E2E2E2E2E2E2E2E2E2E2E2E2E2E2E2E2
310
E2E2E2E2E2E2E2E2E2E2E2E2E2E2E2E2E2E2E2E2E2E2E2E2E2E2E2E2E2E2E2E2E2E2E2E2E2E2E2E2E2E2E2E2E2E2E2E2E2E2E2E2E2E2E2E2E2E2E2E2E2E2E2E2E2E2E2E2E2E2E2E2E2E2E2E2E2E2E2E2E2E2E2E2E2E2E2E2E2E2E2E2E2E2E2E2E2E2E2E2E2E2E2E2E2E2E2E2E2E2E2E2E2E2F5E2E2E2E2E2E2E2E2E2E2E2E2
310
E2E2E2E2F5E2E2E2F5F5E2E2E2E2E2E2E2E2E2E2E2E2E2E2E2E2E2E2E2E2F5E2E2E2E2E2E2E2E2E2E2E2E2E2E2E2E2E2E2E2E2E2E2E2E2E2E2E2E2E2E2E2E2E2E2E2E2E2E2E2E2E2E2E2E2E2E2E2E2E2E2E2E2E2E2E2E2E2E2E2E2E2E2E2E2E2E2E2E2E2E2E2E2E2E2E2E2E2E2E2E2E2E2E2E2E2E2E2E2E2E2E2E2E2E2E2E2
310
E2E2E2E2E2E2E2E2E2E2E2E2E2E2E2E2E2E2E2E2E2E2E2E2E2E2E2E2E2E2E2E2E2E2E2E2E2E2E2E2F5E2E2E2E2E2E2E2E2E2E2E2E2E2E2E2E2E2E2E2E2F5F5E2E2E2E2E2E2E2E2E2E2E2E2E2E2E2E2E2E2E2E2F5E2E2E2E2E2E2E2E2E2E2E2E2E2E2E2E2E2E2E2E2E2E2E2E2E2E2E2E2E2E2E2E2E2E2E2E2E2E2E2E2E2E2E2
310
E2E2E2E2E2E2E2E2E2E2E2E2E2E2E2E2E2E2E2E2E2E2E2E2E2E2E2E2E2E2E2E2E2E2E2E2E2E2E2E2E2E2E2E2E2E2E2E2E2E2E2E2E2E2E2E2E2E2E2E2E2E2E2E2E2E2E2E2E2E2E2E2E2E2E2E2E2E2E2E2E2E2E2E2E2E2E2E2E2E2E2E2E2F5E2E2E2E2E2E2E2E2E2E2E2E2E2E2E2E2E2E2E2E2F5F5E2E2E2E2E2E2E2E2E2E2E2
310
E2E2E2E2E2E2E2E2E2F5E2E2E2E2E2E2E2E2E2E2E2E2E2E2E2E2E2E2E2E2E2E2E2E2E2E2E2E2E2E2E2E2E2E2E2E2E2E2E2E2E2E2E2E2E2E2E2E2E2E2E2E2E2E2E2E2E2E2E2E2E2E2E2E2E2E2E2E2E2E2E2E2E2E2E2E2E2E2E2E2E2E2E2E2E2E2E2E2E2E2E2E2E2E2E2E2E2E2E2E2E2E2E2E2E2E2E2E2E2E2E2E2E2E2E2E2E2
310
E2E2E2E2E2E2E2E2E2E2E2E2E2E2E2E2E2E2E2F5E2E2E2E2E2E2E2E2E2E2E2E2E2E2E2E2E2E2E2E2F5F5E2E2E2E2E2E2E2E2E2E2E2E2E2E2E2E2E2E2E2E2F5E2E2E2E2E2E2E2E2E2E2E2E2E2E2E2E2E2E2E2E2E2E2E2E2E2E2E2E2E2E2E2E2E2E2E2E2E2E2E2E2E2E2E2E2E2E2E2E2E2E2E2E2E2E2E2E2E2E2E2E2E2E2E2E2
310
E2E2E2E2E2E2E2E2E2E2E2E2E2E2E2E2E2E2E2E2E2E2E2E2E2E2E2E2E2E2E2E2E2E2E2E2E2E2E2E2E2E2E2E2E2E2E2E2E2E2E2E2E2E2E2E2E2E2E2E2E2E2E2E2E2E2E2E2E2E2E2E2F5E2E2E2E2E2E2E2E2E2E2E2E2E2E2E2E2E2E2E2E2F5F5E2E2E2E2E2E2E2E2E2E2E2E2E2E2E2E2E2E2E2E2F5E2E2E2E2E2E2E2E2E2E2E2
310
E2E2E2E2E2E2E2E2E2E2E2E2E2E2E2E2E2E2E2E2E2E2E2E2E2E2E2E2E2E2E2E2E2E2E2E2E2E2E2E2E2E2E2E2E2E2E2E2E2E2E2E2E2E2E2E2E2E2E2E2E2E2E2E2E2E2E2E2E2E2E2E2E2E2E2E2E2E2E2E2E2E2E2E2E2E2E2E2E2E2E2E2E2E2E2E2E2E2E2E2E2E2E2E2E2E2E2E2E2E2E2E2E2E2E2E2E2E2E2E2E2E2E2E2E2F5E2
310
E2E2E2E2E2E2E2E2E2E2E2E2E2E2E2E2E2E2E2F5F5E2E2E2E2E2E2E2E2E2E2E2E2E2E2E2E2E2E2E2E2F5E2E2E2E2E2E2E2E2E2E2E2E2E2E2E2E2E2E2E2E2E2E2E2E2E2E2E2E2E2E2E2E2E2E2E2E2E2E2E2E2E2E2E2E2E2E2E2E2E2E2E2E2E2E2E2E2E2E2E2E2E2E2E2E2E2E2E2E2E2E2E2E2E2E2E2E2E2E2E2E2E2E2E2E2E2
310
E2E2E2E2E2E2E2E2E2E2E2E2E2E2E2E2E2E2E2E2E2E2E2E2E2E2E2E2E2E2E2E2E2E2E2E2E2E2E2E2E2E2E2E2E2E2E2E2E2E2E2F5E2E2E2E2E2E2E2E2E2E2E2E2E2E2E2E2E2E2E2E2F5F5E2E2E2E2E2E2E2E2E2E2E2E2E2E2E2E2E2E2E2E2F5E2E2E2E2E2E2E2E2E2E2E2E2E2E2E2E2E2E2E2E2E2E2E2E2E2E2E2E2E2E2E2E2
310
E2E2E2E2E2E2E2E2E2E2E2E2E2E2E2E2E2E2E2E2E2E2E2E2E2E2E2E2E2E2E2E2E2E2E2E2E2E2E2E2E2E2E2E2E2E2E2E2E2E2E2E2E2E2E2E2E2E2E2E2E2E2E2E2E2E2E2E2E2E2E2E2E2E2E2E2E2E2E2E2E2E2E2E2E2E2E2E2E2E2E2E2E2E2E2E2E2E2E2E2E2E2E2E2F5E2E2E2E2E2E2E2E2E2E2E2E2E2E2E2E2E2E2E2E2F5F5
310
E2E2E2E2E2E2E2E2E2E2E2E2E2E2E2E2E2E2E2E2F5E2E2E2E2E2E2E2E2E2E2E2E2E2E2E2E2E2E2E2E2E2E2E2E2E2E2E2E2E2E2E2E2E2E2E2E2E2E2E2E2E2E2E2E2E2E2E2E2E2E2E2E2E2E2E2E2E2E2E2E2E2E2E2E2E2E2E2E2E2E2E2E2E2E2E2E2E2E2E2E2E2E2E2E2E2E2E2E2E2E2E2E2E2E2E2E2E2E2E2E2E2E2E2E2E2E2
310
E2E2E2E2E2E2E2E2E2E2E2E2E2E2E2E2E2E2E2E2E2E2E2E2E2E2E2E2E2E2F5E2E2E2E2E2E2E2E2E2E2E2E2E2E2E2E2E2E2E2E2F5F5E2E2E2E2E2E2E2E2E2E2E2E2E2E2E2E2E2E2E2E2F5E2E2E2E2E2E2E2E2E2E2E2E2E2E2E2E2E2E2E2E2E2E2E2E2E2E2E2E2E2E2E2E2E2E2E2E2E2E2E2E2E2E2E2E2E2E2E2E2E2E2E2E2E2
310
E2E2E2E2E2E2E2E2E2E2E2E2E2E2E2E2E2E2E2E2E2E2E2E2E2E2E2E2E2E2E2E2E2E2E2E2E2E2E2E2E2E2E2E2E2E2E2E2E2E2E2E2E2E2E2E2E2E2E2E2E2E2E2E2E2E2E2E2E2E2E2E2E2E2E2E2E2E2E2E2E2E2E2F5E2E2E2E2E2E2E2E2E2E2E2E2E2E2E2E2E2E2E2E2F5F5E2E2E2F5E2E2E2E2E2E2E2E2E2E2E2E2E2E2E2E2F5
310
E2E2E2E2E2E2E2E2E2E2E2E2E2E2E2E2E2E2E2E2E2E2E2E2E2E2E2E2E2E2E2E2E2E2E2E2E2E2E2E2E2E2E2E2E2E2E2E2E2E2E2E2E2E2E2E2E2E2E2E2E2E2E2E2E2E2E2E2E2E2E2E2E2E2E2E2E2E2E2E2E2E2E2E2E2E2E2E2E2E2E2E2E2E2E2E2E2E2E2E2E2E2E2E2E2E2E2E2E2E2E2E2E2E2E2E2E2E2E2E2E2E2E2E2E2E2E2
310
E2E2E2E2E2E2E2E2E2F5E2E2E2E2E2E2E2E2E2E2E2E2E2E2E2E2F5E2E2E2F5F5E2E2E2F5E2E2E2E2E2E2E2E2E2E2E2E2E2E2E2E2F5E2E2E2E2E2E2E2E2E2E2E2E2E2E2E2E2E2E2E2E2E2E2E2E2E2E2E2E2E2E2E2E2E2E2E2E2E2E2E2E2E2E2E2E2E2E2E2E2E2E2E2E2E2E2E2E2E2E2E2E2E2E2E2E2E2E2E2E2E2E2E2E2E2E2
310
E2E2E2E2E2E2E2E2E2E2E2E2E2E2E2E2E2E2E2E2E2E2E2E2E2E2E2E2E2E2E2E2E2E2E2E2E2E2E2E2E2E2E2E2E2E2E2E2E2E2E2E2E2E2E2E2E2E2E2E2E2E2F5E2E2E2E2E2E2E2E2E2E2E2E2E2E2E2E2F5E2E2E2F5F5E2E2E2F5E2E2E2E2E2E2E2E2E2E2E2E2E2E2E2E2F5E2E2E2E2E2E2E2E2E2E2E2E2E2E2E2E2E2E2E2E2E2
310
E2E2E2E2E2E2E2E2E2E2E2E2E2E2E2E2E2E2E2E2E2E2E2E2E2E2E2E2E2E2E2E2E2E2E2E2E2E2E2E2E2E2E2E2E2E2E2E2E2E2E2E2E2E2E2E2E2E2E2E2E2E2E2E2E2E2E2E2E2E2E2E2E2E2E2E2E2E2E2E2E2E2E2E2E2E2E2E2E2E2E2E2E2E2E2E2E2E2E2E2E2E2E2E2E2E2E2E2E2E2E2E2E2E2E2F5E2E2E2E2E2E2E2E2E2E2E2
310
E2E2E2E2E2F5E2E2E2F5F5E2E2E2F5E2E2E2E2E2E2E2E2E2E2E2E2E2E2E2E2F5E2E2E2E2E2E2E2E2E2E2E2E2E2E2E2E2E2E2E2E2E2E2E2E2E2E2E2E2E2E2E2E2E2E2E2E2E2E2E2E2E2E2E2E2E2E2E2E2E2E2E2E2E2E2E2E2E2E2E2E2E2E2E2E2E2E2E2E2E2E2E2E2E2E2E2E2E2E2E2E2E2E2E2E2E2E2E2E2E2E2E2E2E2E2E2
310
E2E2E2E2E2E2E2E2E2E2E2E2E2E2E2E2E2E2E2E2E2E2E2E2E2E2E2E2E2E2E2E2E2E2E2E2E2E2E2E2E2F5E2E2E2E2E2E2E2E2E2E2E2E2E2E2E2E2F5E2E2E2F5F5E2E2E2F5E2E2E2E2E2E2E2E2E2E2E2E2E2E2E2E2F5E2E2E2E2E2E2E2E2E2E2E2E2E2E2E2E2E2E2E2E2E2E2E2E2E2E2E2E2E2E2E2E2E2E2E2E2E2E2E2E2E2E2
310
E2E2E2E2E2E2E2E2E2E2E2E2E2E2E2E2E2E2E2E2E2E2E2E2E2E2E2E2E2E2E2E2E2E2E2E2E2E2E2E2E2E2E2E2E2E2E2E2E2E2E2E2E2E2E2E2E2E2E2E2E2E2E2E2E2E2E2E2E2E2E2E2E2E2E2E2E2E2E2E2E2E2E2E2E2E2E2E2E2E2E2E2E2E2F5E2E2E2E2E2E2E2E2E2E2E2E2E2E2E2E2F5E2E2E2F5F5E2E2E2F5E2E2E2E2E2E2
310
E2E2E2E2E2E2E2E2E2E2F5E2E2E2E2E2E2E2E2E2E2E2E2E2E2E2E2E2E2E2E2E2E2E2E2E2E2E2E2E2E2E2E2E2E2E2E2E2E2E2E2E2E2E2E2E2E2E2E2E2E2E2E2E2E2E2E2E2E2E2E2E2E2E2E2E2E2E2E2E2E2E2E2E2E2E2E2E2E2E2E2E2E2E2E2E2E2E2E2E2E2E2E2E2E2E2E2E2E2E2E2E2E2E2E2E2E2E2E2E2E2E2E2E2E2E2E2
310
E2E2E2E2E2E2E2E2E2E2E2E2E2E2E2E2E2E2E2E2F5E2E2E2E2E2E2E2E2E2E2E2E2E2E2E2E2F5E2E2E2F5F5E2E2E2F5E2E2E2E2E2E2E2E2E2E2E2E2E2E2E2E2F5E2E2E2E2E2E2E2E2E2E2E2E2E2E2E2E2E2E2E2E2E2E2E2E2E2E2E2E2E2E2E2E2E2E2E2E2E2E2E2E2E2E2E2E2E2E2E2E2E2E2E2E2E2E2E2E2E2E2E2E2E2E2E2
310
E2E2E2E2E2E2E2E2E2E2E2E2E2E2E2E2E2E2E2E2E2E2E2E2E2E2E2E2E2E2E2E2E2E2E2E2E2E2E2E2E2E2E2E2E2E2E2E2E2E2E2E2E2E2E2E2E2E2E2E2E2E2E2E2E2E2E2E2E2E2E2E2E2F5E2E2E2E2E2E2E2E2E2E2E2E2E2E2E2E2F5E2E2E2F5F5E2E2E2F5E2E2E2E2E2E2E2E2E2E2E2E2E2E2E2E2F5E2E2E2E2E2E2E2E2E2E2
310
E2E2E2E2E2E2E2E2E2E2E2E2E2E2E2E2E2E2E2E2E2E2E2E2E2E2E2E2E2E2E2E2E2E2E2E2E2E2E2E2E2E2E2E2E2E2E2E2E2E2E2E2E2E2E2E2E2E2E2E2E2E2E2E2E2E2E2E2E2E2E2E2E2E2E2E2E2E2E2E2E2E2E2E2E2E2E2E2E2E2E2E2E2E2E2E2E2E2E2E2E2E2E2E2E2E2E2E2E2E2E2E2E2E2E2E2E2E2E2E2E2E2E2E2E2E2F5
310
E2E2E2E2E2E2E2E2E2E2E2E2E2E2E2E2F5E2E2E2F5F5E2E2E2F5E2E2E2E2E2E2E2E2E2E2E2E2E2E2E2E2F5E2E2E2E2E2E2E2E2E2E2E2E2E2E2E2E2E2E2E2E2E2E2E2E2E2E2E2E2E2E2E2E2E2E2E2E2E2E2E2E2E2E2E2E2E2E2E2E2E2E2E2E2E2E2E2E2E2E2E2E2E2E2E2E2E2E2E2E2E2E2E2E2E2E2E2E2E2E2E2E2E2E2E2E2
310
E2E2E2E2E2E2E2E2E2E2E2E2E2E2E2E2E2E2E2E2E2E2E2E2E2E2E2E2E2E2E2E2E2E2E2E2E2E2E2E2E2E2E2E2E2E2E2E2E2E2E2E2F5E2E2E2E2E2E2E2E2E2E2E2E2E2E2E2E2F5E2E2E2F5F5E2E2E2F5E2E2E2E2E2E2E2E2E2E2E2E2E2E2E2E2F5E2E2E2E2E2E2E2E2E2E2E2E2E2E2E2E2E2E2E2E2E2E2E2E2E2E2E2E2E2E2E2
310
E2E2E2E2E2E2E2E2E2E2E2E2E2E2E2E2E2E2E2E2E2E2E2E2E2E2E2E2E2E2E2E2E2E2E2E2E2E2E2E2E2E2E2E2E2E2E2E2E2E2E2E2E2E2E2E2E2E2E2E2E2E2E2E2E2E2E2E2E2E2E2E2E2E2E2E2E2E2E2E2E2E2E2E2E2E2E2E2E2E2E2E2E2E2E2E2E2E2E2E2E2E2E2E2E2F5E2E2E2E2E2E2E2E2E2E2E2E2E2E2E2E2F5E2E2E2F5
310
F5E2E2E2F5E2E2E2E2E2E2E2E2E2E2E2E2E2E2E2E2F5E2E2E2E2E2E2E2E2E2E2E2E2E2E2E2E2E2E2E2E2E2E2E2E2E2E2E2E2E2E2E2E2E2E2E2E2E2E2E2E2E2E2E2E2E2E2E2E2E2E2E2E2E2E2E2E2E2E2E2E2E2E2E2E2E2E2E2E2E2E2E2E2E2E2E2E2E2E2E2E2E2E2E2E2E2E2E2E2E2E2E2E2E2E2E2E2E2E2E2E2E2E2E2E2E2
310
E2E2E2E2E2E2E2E2E2E2E2E2E2E2E2E2E2E2E2E2E2E2E2E2E2E2E2E2E2E2E2F5E2E2E2E2E2E2E2E2E2E2E2E2E2E2E2E2F5E2E2E2F5F5E2E2E2F5E2E2E2E2E2E2E2E2E2E2E2E2E2E2E2E2F5E2E2E2E2E2E2E2E2E2E2E2E2E2E2E2E2E2E2E2E2E2E2E2E2E2E2E2E2E2E2E2E2E2E2E2E2E2E2E2E2E2E2E2E2E2E2E2E2E2E2E2E2
310
E2E2E2E2E2E2E2E2E2E2E2E2E2E2E2E2E2E2E2E2E2E2E2E2E2E2E2E2E2E2E2E2E2E2E2E2E2E2E2E2E2E2E2E2E2E2E2E2E2E2E2E2E2E2E2E2E2E2E2E2E2E2E2E2E2E2E2E2E2E2E2E2E2E2E2E2E2E2E2E2E2E2E2E2F5E2E2E2E2E2E2E2E2E2E2E2E2E2E2E2E2F5E2E2E2F5F5E2E2E2F5E2E2E2E2E2E2E2E2E2E2E2E2E2E2E2E2
310
F5E2E2E2E2E2E2E2E2E2E2E2E2E2E2E2E2E2E2E2E2E2E2E2E2E2E2E2E2E2E2E2E2E2E2E2E2E2E2E2E2E2E2E2E2E2E2E2E2E2E2E2E2E2E2E2E2E2E2E2E2E2E2E2E2E2E2E2E2E2E2E2E2E2E2E2E2E2E2E2E2E2E2E2E2E2E2E2E2E2E2E2E2E2E2E2E2E2E2E2E2E2E2E2E2E2E2E2E2E2E2E2E2E2E2E2E2E2E2E2E2E2E2E2E2E2E2
310
E2E2E2E2E2E2E2E2E2E2F5E2E2E2E2E2E2E2E2E2E2E2E2E2E2E2E2F5E2E2E2F5F5E2E2E2F5E2E2E2E2E2E2E2E2E2E2E2E2E2E2E2E2F5E2E2E2E2E2E2E2E2E2E2E2E2E2E2E2E2E2E2E2E2E2E2E2E2E2E2E2E2E2E2E2E2E2E2E2E2E2E2E2E2E2E2E2E2E2E2E2E2E2E2E2E2E2E2E2E2E2E2E2E2E2E2E2E2E2E2E2E2E2E2E2E2E2
310
E2E2E2E2E2E2E2E2E2E2E2E2E2E2E2E2E2E2E2E2E2E2E2E2E2E2E2E2E2E2E2E2E2E2E2E2E2E2E2E2E2E2E2E2E2E2E2E2E2E2E2E2E2E2E2E2E2E2E2E2E2E2E2F5E2E2E2E2E2E2E2E2E2E2E2E2E2E2E2E2F5E2E2E2F5F5E2E2E2F5E2E2E2E2E2E2E2E2E2E2E2E2E2E2E2E2F5E2E2E2E2E2E2E2E2E2E2E2E2E2E2E2E2E2E2E2E2
310
E2E2E2E2E2E2E2E2E2E2E2E2E2E2E2E2E2E2E2E2E2E2E2E2E2E2E2E2E2E2E2E2E2E2E2E2E2E2E2E2E2E2E2E2E2E2E2E2E2E2E2E2E2E2E2E2E2E2E2E2E2E2E2E2E2E2E2E2E2E2E2E2E2E2E2E2E2E2E2E2E2E2E2E2E2E2E2E2E2E2E2E2E2E2E2E2E2E2E2E2E2E2E2E2E2E2E2E2E2E2E2E2E2E2E2E2F5E2E2E2E2E2E2E2E2E2E2
310
E2E2E2E2E2E2F5E2E2E2F5F5E2E2E2F5E2E2E2E2E2E2E2E2E2E2E2E2E2E2E2E2F5E2E2E2E2E2E2E2E2E2E2E2E2E2E2E2E2E2E2E2E2E2E2E2E2E2E2E2E2E2E2E2E2E2E2E2E2E2E2E2E2E2E2E2E2E2E2E2E2E2E2E2E2E2E2E2E2E2E2E2E2E2E2E2E2E2E2E2E2E2E2E2E2E2E2E2E2E2E2E2E2E2E2E2E2E2E2E2E2E2E2E2E2E2E2
310
E2E2E2E2E2E2E2E2E2E2E2E2E2E2E2E2E2E2E2E2E2E2E2E2E2E2E2E2E2E2E2E2E2E2E2E2E2E2E2E2E2E2F5E2E2E2E2E2E2E2E2E2E2E2E2E2E2E2E2F5E2E2E2F5F5E2E2E2E2E2E2E2E2E2E2E2E2E2E2E2E2E2E2E2E2F5E2E2E2E2E2E2E2E2E2E2E2E2E2E2E2E2E2E2E2E2E2E2E2E2E2E2E2E2E2E2E2E2E2E2E2E2E2E2E2E2E2
310
E2E2E2E2E2E2E2E2E2E2E2E2E2E2E2E2E2E2E2E2E2E2E2E2E2E2E2E2E2E2E2E2E2E2E2E2E2E2E2E2E2E2E2E2E2E2E2E2E2E2E2E2E2E2E2E2E2E2E2E2E2E2E2E2E2E2E2E2E2E2E2E2E2E2E2E2E2E2E2E2E2E2E2E2E2E2E2E2E2E2E2E2E2E2E2F5E2E2E2E2E2E2E2E2E2E2E2E2E2E2E2E2E2E2E2E2F5F5E2E2E2E2E2E2E2E2E2
310
E2E2E2E2E2E2E2E2E2E2E2F5E2E2E2E2E2E2E2E2E2E2E2E2E2E2E2E2E2E2E2E2E2E2E2E2E2E2E2E2E2E2E2E2E2E2E2E2E2E2E2E2E2E2E2E2E2E2E2E2E2E2E2E2E2E2E2E2E2E2E2E2E2E2E2E2E2E2E2E2E2E2E2E2E2E2E2E2E2E2E2E2E2E2E2E2E2E2E2E2E2E2E2E2E2E2E2E2E2E2E2E2E2E2E2E2E2E2E2E2E2E2E2E2E2E2E2
310
E2E2E2E2E2E2E2E2E2E2E2E2E2E2E2E2E2E2E2E2E2F5E2E2E2E2E2E2E2E2E2E2E2E2E2E2E2E2E2E2E2E2F5F5E2E2E2E2E2E2E2E2E2E2E2E2E2E2E2E2E2E2E2E2F5E2E2E2E2E2E2E2E2E2E2E2E2E2E2E2E2E2E2E2E2E2E2E2E2E2E2E2E2E2E2E2E2E2E2E2E2E2E2E2E2E2E2E2E2E2E2E2E2E2E2E2E2E2E2E2E2E2E2E2E2E2E2
310
E2E2E2E2E2E2E2E2E2E2E2E2E2E2E2E2E2E2E2E2E2E2E2E2E2E2E2E2E2E2E2E2E2E2E2E2E2E2E2E2E2E2E2E2E2E2E2E2E2E2E2E2E2E2E2E2E2E2E2E2E2E2E2E2E2E2E2E2E2E2E2E2E2E2F5E2E2E2E2E2E2E2E2E2E2E2E2E2E2E2E2E2E2E2E2F5F5E2E2E2E2E2E2E2E2E2E2E2E2E2E2E2E2E2E2E2E2F5E2E2E2E2E2E2E2E2E2
310
E2E2E2E2E2E2E2E2E2E2E2E2E2E2E2E2E2E2E2E2E2E2E2E2E2E2E2E2E2E2E2E2E2E2E2E2E2E2E2E2E2E2E2E2E2E2E2E2E2E2E2E2E2E2E2E2E2E2E2E2E2E2E2E2E2E2E2E2E2E2E2E2E2E2E2E2E2E2E2E2E2E2E2E2E2E2E2E2E2E2E2E2E2E2E2E2E2E2E2E2E2E2E2E2E2E2E2E2E2E2E2E2E2E2E2E2E2E2E2E2E2E2E2E2E2E2E2
310
F5E2E2E2E2E2E2E2E2E2E2E2E2E2E2E2E2E2E2E2E2F5F5E2E2E2E2E2E2E2E2E2E2E2E2E2E2E2E2E2E2E2E2F5E2E2E2E2E2E2E2E2E2E2E2E2E2E2E2E2E2E2E2E2E2E2E2E2E2E2E2E2E2E2E2E2E2E2E2E2E2E2E2E2E2E2E2E2E2E2E2E2E2E2E2E2E2E2E2E2E2E2E2E2E2E2E2E2E2E2E2E2E2E2E2E2E2E2E2E2E2E2E2E2E2E2E2
310
E2E2E2E2E2E2E2E2E2E2E2E2E2E2E2E2E2E2E2E2E2E2E2E2E2E2E2E2E2E2E2E2E2E2E2E2E2E2E2E2E2E2E2E2E2E2E2E2E2E2E2E2E2F5E2E2E2E2E2E2E2E2E2E2E2E2E2E2E2E2E2E2E2E2F5F5E2E2E2E2E2E2E2E2E2E2E2E2E2E2E2E2E2E2E2E2F5E2E2E2E2E2E2E2E2E2E2E2E2E2E2E2E2E2E2E2E2E2E2E2E2E2E2E2E2E2E2
310
E2E2E2E2E2E2E2E2E2E2E2E2E2E2E2E2E2E2E2E2E2E2E2E2E2E2E2E2E2E2E2E2E2E2E2E2E2E2E2E2E2E2E2E2E2E2E2E2E2E2E2E2E2E2E2E2E2E2E2E2E2E2E2E2E2E2E2E2E2E2E2E2E2E2E2E2E2E2E2E2E2E2E2E2E2E2E2E2E2E2E2E2E2E2E2E2E2E2E2E2E2E2E2E2E2E2F5E2E2E2E2E2E2E2E2E2E2E2E2E2E2E2E2E2E2E2E2
310
F5F5E2E2E2E2E2E2E2E2E2E2E2E2E2E2E2E2E2E2E2E2F5E2E2E2E2E2E2E2E2E2E2E2E2E2E2E2E2E2E2E2E2E2E2E2E2E2E2E2E2E2E2E2E2E2E2E2E2E2E2E2E2E2E2E2E2E2E2E2E2E2E2E2E2E2E2E2E2E2E2E2E2E2E2E2E2E2E2E2E2E2E2E2E2E2E2E2E2E2E2E2E2E2E2E2E2E2E2E2E2E2E2E2E2E2E2E2E2E2E2E2E2E2E2E2E2
310
E2E2E2E2E2E2E2E2E2E2E2E2E2E2E2E2E2E2E2E2E2E2E2E2E2E2E2E2E2E2E2E2F5E2E2E2E2E2E2E2E2E2E2E2E2E2E2E2E2E2E2E2E2F5F5E2E2E2E2E2E2E2E2E2E2E2E2E2E2E2E2E2E2E2E2F5E2E2E2E2E2E2E2E2E2E2E2E2E2E2E2E2E2E2E2E2E2E2E2E2E2E2E2E2E2E2E2E2E2E2E2E2E2E2E2E2E2E2E2E2E2E2E2E2E2E2E2
310
E2E2E2E2E2E2E2E2E2E2E2E2E2E2E2E2E2E2E2E2E2E2E2E2E2E2E2E2E2E2E2E2E2E2E2E2E2E2E2E2E2E2E2E2E2E2E2E2E2E2E2E2E2E2E2E2E2E2E2E2E2E2E2E2E2E2E2E2E2E2E2E2E2E2E2E2E2E2E2E2E2E2E2E2E2F5E2E2E2E2E2E2E2E2E2E2E2E2E2E2E2E2E2E2E2E2F5F5E2E2E2E2E2E2E2E2E2E2E2E2E2E2E2E2E2E2E2
310
E2F5E2E2E2E2E2E2E2E2E2E2E2E2E2E2E2E2E2E2E2E2E2E2E2E2E2E2E2E2E2E2E2E2E2E2E2E2E2E2E2E2E2E2E2E2E2E2E2E2E2E2E2E2E2E2E2E2E2E2E2E2E2E2E2E2E2E2E2E2E2E2E2E2E2E2E2E2E2E2E2E2E2E2E2E2E2E2E2E2E2E2E2E2E2E2E2E2E2E2E2E2E2E2E2E2E2E2E2E2E2E2E2E2E2E2E2E2E2E2E2E2E2E2E2E2E2
310
E2E2E2E2E2E2E2E2E2E2E2F5E2E2E2E2E2E2E2E2E2E2E2E2E2E2E2E2E2E2E2E2F5F5E2E2E2E2E2E2E2E2E2E2E2E2E2E2E2E2E2E2E2E2F5E2E2E2E2E2E2E2E2E2E2E2E2E2E2E2E2E2E2E2E2E2E2E2E2E2E2E2E2E2E2E2E2E2E2E2E2E2E2E2E2E2E2E2E2E2E2E2E2E2E2E2E2E2E2E2E2E2E2E2E2E2E2E2E2E2E2E2E2E2E2E2E2
310
E2E2E2E2E2E2E2E2E2E2E2E2E2E2E2E2E2E2E2E2E2E2E2E2E2E2E2E2E2E2E2E2E2E2E2E2E2E2E2E2E2E2E2E2E2E2E2E2E2E2E2E2E2E2E2E2E2E2E2E2E2E2E2E2F5E2E2E2E2E2E2E2E2E2E2E2E2E2E2E2E2E2E2E2E2F5F5E2E2E2F5E2E2E2E2E2E2E2E2E2E2E2E2E2E2E2E2F5E2E2E2E2E2E2E2E2E2E2E2E2E2E2E2E2E2E2E2
310
E2E2E2E2E2E2E2E2E2E2E2E2E2E2E2E2E2E2E2E2E2E2E2E2E2E2E2E2E2E2E2E2E2E2E2E2E2E2E2E2E2E2E2E2E2E2E2E2E2E2E2E2E2E2E2E2E2E2E2E2E2E2E2E2E2E2E2E2E2E2E2E2E2E2E2E2E2E2E2E2E2E2E2E2E2E2E2E2E2E2E2E2E2E2E2E2E2E2E2E2E2E2E2E2E2E2E2E2E2E2E2E2E2E2E2E2E2F5E2E2E2E2E2E2E2E2E2
310
E2E2E2E2E2E2E2F5E2E2E2F5F5E2E2E2F5E2E2E2E2E2E2E2E2E2E2E2E2E2E2E2E2F5E2E2E2E2E2E2E2E2E2E2E2E2E2E2E2E2E2E2E2E2E2E2E2E2E2E2E2E2E2E2E2E2E2E2E2E2E2E2E2E2E2E2E2E2E2E2E2E2E2E2E2E2E2E2E2E2E2E2E2E2E2E2E2E2E2E2E2E2E2E2E2E2E2E2E2E2E2E2E2E2E2E2E2E2E2E2E2E2E2E2E2E2E2
310
E2E2E2E2E2E2E2E2E2E2E2E2E2E2E2E2E2E2E2E2E2E2E2E2E2E2E2E2E2E2E2E2E2E2E2E2E2E2E2E2E2E2E2F5E2E2E2E2E2E2E2E2E2E2E2E2E2E2E2E2F5E2E2E2F5F5E2E2E2F5E2E2E2E2E2E2E2E2E2E2E2E2E2E2E2E2F5E2E2E2E2E2E2E2E2E2E2E2E2E2E2E2E2E2E2E2E2E2E2E2E2E2E2E2E2E2E2E2E2E2E2E2E2E2E2E2E2
310
E2E2E2E2E2E2E2E2E2E2E2E2E2E2E2E2E2E2E2E2E2E2E2E2E2E2E2E2E2E2E2E2E2E2E2E2E2E2E2E2E2E2E2E2E2E2E2E2E2E2E2E2E2E2E2E2E2E2E2E2E2E2E2E2E2E2E2E2E2E2E2E2E2E2E2E2E2E2E2E2E2E2E2E2E2E2E2E2E2E2E2E2E2E2E2E2F5E2E2E2E2E2E2E2E2E2E2E2E2E2E2E2E2F5E2E2E2F5F5E2E2E2F5E2E2E2E2
310
E2E2E2E2E2E2E2E2E2E2E2E2F5E2E2E2E2E2E2E2E2E2E2E2E2E2E2E2E2E2E2E2E2E2E2E2E2E2E2E2E2E2E2E2E2E2E2E2E2E2E2E2E2E2E2E2E2E2E2E2E2E2E2E2E2E2E2E2E2E2E2E2E2E2E2E2E2E2E2E2E2E2E2E2E2E2E2E2E2E2E2E2E2E2E2E2E2E2E2E2E2E2E2E2E2E2E2E2E2E2E2E2E2E2E2E2E2E2E2E2E2E2E2E2E2E2E2
310
E2E2E2E2E2E2E2E2E2E2E2E2E2E2E2E2E2E2E2E2E2E2F5E2E2E2E2E2E2E2E2E2E2E2E2E2E2E2E2F5E2E2E2F5F5E2E2E2F5E2E2E2E2E2E2E2E2E2E2E2E2E2E2E2E2F5E2E2E2E2E2E2E2E2E2E2E2E2E2E2E2E2E2E2E2E2E2E2E2E2E2E2E2E2E2E2E2E2E2E2E2E2E2E2E2E2E2E2E2E2E2E2E2E2E2E2E2E2E2E2E2E2E2E2E2E2E2
310
E2E2E2E2E2E2E2E2E2E2E2E2E2E2E2E2E2E2E2E2E2E2E2E2E2E2E2E2E2E2E2E2E2E2E2E2E2E2E2E2E2E2E2E2E2E2E2E2E2E2E2E2E2E2E2E2E2E2E2E2E2E2E2E2E2E2E2E2E2E2E2E2E2E2E2F5E2E2E2E2E2E2E2E2E2E2E2E2E2E2E2E2F5E2E2E2F5F5E2E2E2F5E2E2E2E2E2E2E2E2E2E2E2E2E2E2E2E2F5E2E2E2E2E2E2E2E2
310
E2E2E2E2E2E2E2E2E2E2E2E2E2E2E2E2E2E2E2E2E2E2E2E2E2E2E2E2E2E2E2E2E2E2E2E2E2E2E2E2E2E2E2E2E2E2E2E2E2E2E2E2E2E2E2E2E2E2E2E2E2E2E2E2E2E2E2E2E2E2E2E2E2E2E2E2E2E2E2E2E2E2E2E2E2E2E2E2E2E2E2E2E2E2E2E2E2E2E2E2E2E2E2E2E2E2E2E2E2E2E2E2E2E2E2E2E2E2E2E2E2E2E2E2E2E2E2
310
E2F5E2E2E2E2E2E2E2E2E2E2E2E2E2E2E2E2F5E2E2E2F5F5E2E2E2F5E2E2E2E2E2E2E2E2E2E2E2E2E2E2E2E2F5E2E2E2E2E2E2E2E2E2E2E2E2E2E2E2E2E2E2E2E2E2E2E2E2E2E2E2E2E2E2E2E2E2E2E2E2E2E2E2E2E2E2E2E2E2E2E2E2E2E2E2E2E2E2E2E2E2E2E2E2E2E2E2E2E2E2E2E2E2E2E2E2E2E2E2E2E2E2E2E2E2E2
310
E2E2E2E2E2E2E2E2E2E2E2E2E2E2E2E2E2E2E2E2E2E2E2E2E2E2E2E2E2E2E2E2E2E2E2E2E2E2E2E2E2E2E2E2E2E2E2E2E2E2E2E2E2E2F5E2E2E2E2E2E2E2E2E2E2E2E2E2E2E2E2F5E2E2E2F5F5E2E2E2F5E2E2E2E2E2E2E2E2E2E2E2E2E2E2E2E2F5E2E2E2E2E2E2E2E2E2E2E2E2E2E2E2E2E2E2E2E2E2E2E2E2E2E2E2E2E2
310
E2E2E2E2E2E2E2E2E2E2E2E2E2E2E2E2E2E2E2E2E2E2E2E2E2E2E2E2E2E2E2E2E2E2E2E2E2E2E2E2E2E2E2E2E2E2E2E2E2E2E2E2E2E2E2E2E2E2E2E2E2E2E2E2E2E2E2E2E2E2E2E2E2E2E2E2E2E2E2E2E2E2E2E2E2E2E2E2E2E2E2E2E2E2E2E2E2E2E2E2E2E2E2E2E2E2E2F5E2E2E2E2E2E2E2E2E2E2E2E2E2E2E2E2F5E2E2
310
E2F5F5E2E2E2F5E2E2E2E2E2E2E2E2E2E2E2E2E2E2E2E2F5E2E2E2E2E2E2E2E2E2E2E2E2E2E2E2E2E2E2E2E2E2E2E2E2E2E2E2E2E2E2E2E2E2E2E2E2E2E2E2E2E2E2E2E2E2E2E2E2E2E2E2E2E2E2E2E2E2E2E2E2E2E2E2E2E2E2E2E2E2E2E2E2E2E2E2E2E2E2E2E2E2E2E2E2E2E2E2E2E2E2E2E2E2E2E2E2E2E2E2E2E2E2E2
310
E2E2E2E2E2E2E2E2E2E2E2E2E2E2E2E2E2E2E2E2E2E2E2E2E2E2E2E2E2E2E2E2E2F5E2E2E2E2E2E2E2E2E2E2E2E2E2E2E2E2F5E2E2E2F5F5E2E2E2F5E2E2E2E2E2E2E2E2E2E2E2E2E2E2E2E2F5E2E2E2E2E2E2E2E2E2E2E2E2E2E2E2E2E2E2E2E2E2E2E2E2E2E2E2E2E2E2E2E2E2E2E2E2E2E2E2E2E2E2E2E2E2E2E2E2E2E2
310
E2E2E2E2E2E2E2E2E2E2E2E2E2E2E2E2E2E2E2E2E2E2E2E2E2E2E2E2E2E2E2E2E2E2E2E2E2E2E2E2E2E2E2E2E2E2E2E2E2E2E2E2E2E2E2E2E2E2E2E2E2E2E2E2E2E2E2E2E2E2E2E2E2E2E2E2E2E2E2E2E2E2E2E2E2E2F5E2E2E2E2E2E2E2E2E2E2E2E2E2E2E2E2F5E2E2E2F5F5E2E2E2F5E2E2E2E2E2E2E2E2E2E2E2E2E2E2
310
E2E2F5E2E2E2E2E2E2E2E2E2E2E2E2E2E2E2E2E2E2E2E2E2E2E2E2E2E2E2E2E2E2E2E2E2E2E2E2E2E2E2E2E2E2E2E2E2E2E2E2E2E2E2E2E2E2E2E2E2E2E2E2E2E2E2E2E2E2E2E2E2E2E2E2E2E2E2E2E2E2E2E2E2E2E2E2E2E2E2E2E2E2E2E2E2E2E2E2E2E2E2E2E2E2E2E2E2E2E2E2E2E2E2E2E2E2E2E2E2E2E2E2E2E2E2E2
310
E2E2E2E2E2E2E2E2E2E2E2E2F5E2E2E2E2E2E2E2E2E2E2E2E2E2E2E2E2F5E2E2E2F5F5E2E2E2F5E2E2E2E2E2E2E2E2E2E2E2E2E2E2E2E2F5E2E2E2E2E2E2E2E2E2E2E2E2E2E2E2E2E2E2E2E2E2E2E2E2E2E2E2E2E2E2E2E2E2E2E2E2E2E2E2E2E2E2E2E2E2E2E2E2E2E2E2E2E2E2E2E2E2E2E2E2E2E2E2E2E2E2E2E2E2E2E2
310
E2E2E2E2E2E2E2E2E2E2E2E2E2E2E2E2E2E2E2E2E2E2E2E2E2E2E2E2E2E2E2E2E2E2E2E2E2E2E2E2E2E2E2E2E2E2E2E2E2E2E2E2E2E2E2E2E2E2E2E2E2E2E2E2E2F5E2E2E2E2E2E2E2E2E2E2E2E2E2E2E2E2F5E2E2E2F5F5E2E2E2F5E2E2E2E2E2E2E2E2E2E2E2E2E2E2E2E2F5E2E2E2E2E2E2E2E2E2E2E2E2E2E2E2E2E2E2
310
E2E2E2E2E2E2E2E2E2E2E2E2E2E2E2E2E2E2E2E2E2E2E2E2E2E2E2E2E2E2E2E2E2E2E2E2E2E2E2E2E2E2E2E2E2E2E2E2E2E2E2E2E2E2E2E2E2E2E2E2E2E2E2E2E2E2E2E2E2E2E2E2E2E2E2E2E2E2E2E2E2E2E2E2E2E2E2E2E2E2E2E2E2E2E2E2E2E2E2E2E2E2E2E2E2E2E2E2E2E2E2E2E2E2E2E2E2E2F5E2E2E2E2E2E2E2E2
310
E2E2E2E2E2E2E2E2F5E2E2E2F5F5E2E2E2F5E2E2E2E2E2E2E2E2E2E2E2E2E2E2E2E2F5E2E2E2E2E2E2E2E2E2E2E2E2E2E2E2E2E2E2E2E2E2E2E2E2E2E2E2E2E2E2E2E2E2E2E2E2E2E2E2E2E2E2E2E2E2E2E2E2E2E2E2E2E2E2E2E2E2E2E2E2E2E2E2E2E2E2E2E2E2E2E2E2E2E2E2E2E2E2E2E2E2E2E2E2E2E2E2E2E2E2E2E2
310
E2E2E2E2E2E2E2E2E2E2E2E2E2E2E2E2E2E2E2E2E2E2E2E2E2E2E2E2E2E2E2E2E2E2E2E2E2E2E2E2E2E2E2E2F5E2E2E2E2E2E2E2E2E2E2E2E2E2E2E2E2F5E2E2E2F5F5E2E2E2F5E2E2E2E2E2E2E2E2E2E2E2E2E2E2E2E2F5E2E2E2E2E2E2E2E2E2E2E2E2E2E2E2E2E2E2E2E2E2E2E2E2E2E2E2E2E2E2E2E2E2E2E2E2E2E2E2
310
E2E2E2E2E2E2E2E2E2E2E2E2E2E2E2E2E2E2E2E2E2E2E2E2E2E2E2E2E2E2E2E2E2E2E2E2E2E2E2E2E2E2E2E2E2E2E2E2E2E2E2E2E2E2E2E2E2E2E2E2E2E2E2E2E2E2E2E2E2E2E2E2E2E2E2E2E2E2E2E2E2E2E2E2E2E2E2E2E2E2E2E2E2E2E2E2E2F5E2E2E2E2E2E2E2E2E2E2E2E2E2E2E2E2F5E2E2E2F5F5E2E2E2F5E2E2E2
310
E2E2E2E2E2E2E2E2E2E2E2E2E2F5E2E2E2E2E2E2E2E2E2E2E2E2E2E2E2E2E2E2E2E2E2E2E2E2E2E2E2E2E2E2E2E2E2E2E2E2E2E2E2E2E2E2E2E2E2E2E2E2E2E2E2E2E2E2E2E2E2E2E2E2E2E2E2E2E2E2E2E2E2E2E2E2E2E2E2E2E2E2E2E2E2E2E2E2E2E2E2E2E2E2E2E2E2E2E2E2E2E2E2E2E2E2E2E2E2E2E2E2E2E2E2E2E2
310
E2E2E2E2E2E2E2E2E2E2E2E2E2E2E2E2E2E2E2E2E2E2E2F5E2E2E2E2E2E2E2E2E2E2E2E2E2E2E2E2F5E2E2E2F5F5E2E2E2E2E2E2E2E2E2E2E2E2E2E2E2E2E2E2E2E2F5E2E2E2E2E2E2E2E2E2E2E2E2E2E2E2E2E2E2E2E2E2E2E2E2E2E2E2E2E2E2E2E2E2E2E2E2E2E2E2E2E2E2E2E2E2E2E2E2E2E2E2E2E2E2E2E2E2E2E2E2
310
E2E2E2E2E2E2E2E2E2E2E2E2E2E2E2E2E2E2E2E2E2E2E2E2E2E2E2E2E2E2E2E2E2E2E2E2E2E2E2E2E2E2E2E2E2E2E2E2E2E2E2E2E2E2E2E2E2E2E2E2E2E2E2E2E2E2E2E2E2E2E2E2E2E2E2E2F5E2E2E2E2E2E2E2E2E2E2E2E2E2E2E2E2E2E2E2E2F5F5E2E2E2E2E2E2E2E2E2E2E2E2E2E2E2E2E2E2E2E2F5E2E2E2E2E2E2E2
310
E2E2E2E2E2E2E2E2E2E2E2E2E2E2E2E2E2E2E2E2E2E2E2E2E2E2E2E2E2E2E2E2E2E2E2E2E2E2E2E2E2E2E2E2E2E2E2E2E2E2E2E2E2E2E2E2E2E2E2E2E2E2E2E2E2E2E2E2E2E2E2E2E2E2E2E2E2E2E2E2E2E2E2E2E2E2E2E2E2E2E2E2E2E2E2E2E2E2E2E2E2E2E2E2E2E2E2E2E2E2E2E2E2E2E2E2E2E2E2E2E2E2E2E2E2E2E2
310
E2E2F5E2E2E2E2E2E2E2E2E2E2E2E2E2E2E2E2E2E2E2E2F5F5E2E2E2E2E2E2E2E2E2E2E2E2E2E2E2E2E2E2E2E2F5E2E2E2E2E2E2E2E2E2E2E2E2E2E2E2E2E2E2E2E2E2E2E2E2E2E2E2E2E2E2E2E2E2E2E2E2E2E2E2E2E2E2E2E2E2E2E2E2E2E2E2E2E2E2E2E2E2E2E2E2E2E2E2E2E2E2E2E2E2E2E2E2E2E2E2E2E2E2E2E2E2
310
E2E2E2E2E2E2E2E2E2E2E2E2E2E2E2E2E2E2E2E2E2E2E2E2E2E2E2E2E2E2E2E2E2E2E2E2E2E2E2E2E2E2E2E2E2E2E2E2E2E2E2E2E2E2E2F5E2E2E2E2E2E2E2E2E2E2E2E2E2E2E2E2E2E2E2E2F5F5E2E2E2E2E2E2E2E2E2E2E2E2E2E2E2E2E2E2E2E2F5E2E2E2E2E2E2E2E2E2E2E2E2E2E2E2E2E2E2E2E2E2E2E2E2E2E2E2E2
310
E2E2E2E2E2E2E2E2E2E2E2E2E2E2E2E2E2E2E2E2E2E2E2E2E2E2E2E2E2E2E2E2E2E2E2E2E2E2E2E2E2E2E2E2E2E2E2E2E2E2E2E2E2E2E2E2E2E2E2E2E2E2E2E2E2E2E2E2E2E2E2E2E2E2E2E2E2E2E2E2E2E2E2E2E2E2E2E2E2E2E2E2E2E2E2E2E2E2E2E2E2E2E2E2E2E2E2E2F5E2E2E2E2E2E2E2E2E2E2E2E2E2E2E2E2E2E2
310
E2E2F5F5E2E2E2E2E2E2E2E2E2E2E2E2E2E2E2E2E2E2E2E2F5E2E2E2E2E2E2E2E2E2E2E2E2E2E2E2E2E2E2E2E2E2E2E2E2E2E2E2E2E2E2E2E2E2E2E2E2E2E2E2E2E2E2E2E2E2E2E2E2E2E2E2E2E2E2E2E2E2E2E2E2E2E2E2E2E2E2E2E2E2E2E2E2E2E2E2E2E2E2E2E2E2E2E2E2E2E2E2E2E2E2E2E2E2E2E2E2E2E2E2E2E2E2
310
E2E2E2E2E2E2E2E2E2E2E2E2E2E2E2E2E2E2E2E2E2E2E2E2E2E2E2E2E2E2E2E2E2E2F5E2E2E2E2E2E2E2E2E2E2E2E2E2E2E2E2E2E2E2E2F5F5E2E2E2E2E2E2E2E2E2E2E2E2E2E2E2E2E2E2E2E2F5E2E2E2E2E2E2E2E2E2E2E2E2E2E2E2E2E2E2E2E2E2E2E2E2E2E2E2E2E2E2E2E2E2E2E2E2E2E2E2E2E2E2E2E2E2E2E2E2E2
310
E2E2E2E2E2E2E2E2E2E2E2E2E2E2E2E2E2E2E2E2E2E2E2E2E2E2E2E2E2E2E2E2E2E2E2E2E2E2E2E2E2E2E2E2E2E2E2E2E2E2E2E2E2E2E2E2E2E2E2E2E2E2E2E2E2E2E2E2E2E2E2E2E2E2E2E2E2E2E2E2E2E2E2E2E2E2E2F5E2E2E2E2E2E2E2E2E2E2E2E2E2E2E2E2E2E2E2E2F5F5E2E2E2E2E2E2E2E2E2E2E2E2E2E2E2E2E2
310
E2E2E2F5E2E2E2E2E2E2E2E2E2E2E2E2E2E2E2E2E2E2E2E2E2E2E2E2E2E2E2E2E2E2E2E2E2E2E2E2E2E2E2E2E2E2E2E2E2E2E2E2E2E2E2E2E2E2E2E2E2E2E2E2E2E2E2E2E2E2E2E2E2E2E2E2E2E2E2E2E2E2E2E2E2E2E2E2E2E2E2E2E2E2E2E2E2E2E2E2E2E2E2E2E2E2E2E2E2E2E2E2E2E2E2E2E2E2E2E2E2E2E2E2E2E2E2
310
E2E2E2E2E2E2E2E2E2E2E2E2E2F5E2E2E2E2E2E2E2E2E2E2E2E2E2E2E2E2E2E2E2E2F5F5E2E2E2E2E2E2E2E2E2E2E2E2E2E2E2E2E2E2E2E2F5E2E2E2E2E2E2E2E2E2E2E2E2E2E2E2E2E2E2E2E2E2E2E2E2E2E2E2E2E2E2E2E2E2E2E2E2E2E2E2E2E2E2E2E2E2E2E2E2E2E2E2E2E2E2E2E2E2E2E2E2E2E2E2E2E2E2E2E2E2E2
310
E2E2E2E2E2E2E2E2E2E2E2E2E2E2E2E2E2E2E2E2E2E2E2E2E2E2E2E2E2E2E2E2E2E2E2E2E2E2E2E2E2E2E2E2E2E2E2E2E2E2E2E2E2E2E2E2E2E2E2E2E2E2E2E2E2E2F5E2E2E2E2E2E2E2E2E2E2E2E2E2E2E2E2E2E2E2E2F5F5E2E2E2E2E2E2E2E2E2E2E2E2E2E2E2E2E2E2E2E2F5E2E2E2E2E2E2E2E2E2E2E2E2E2E2E2E2E2
310
E2E2E2E2E2E2E2E2E2E2E2E2E2E2E2E2E2E2E2E2E2E2E2E2E2E2E2E2E2E2E2E2E2E2E2E2E2E2E2E2E2E2E2E2E2E2E2E2E2E2E2E2E2E2E2E2E2E2E2E2E2E2E2E2E2E2E2E2E2E2E2E2E2E2E2E2E2E2E2E2E2E2E2E2E2E2E2E2E2E2E2E2E2E2E2E2E2E2E2E2E2E2E2E2E2E2E2E2E2E2E2E2E2E2E2E2E2E2E2F5E2E2E2E2E2E2E2
310
E2E2E2E2E2E2E2E2E2E2E2E2E2F5F5E2E2E2F5E2E2E2E2E2E2E2E2E2E2E2E2E2E2E2E2F5E2E2E2E2E2E2E2E2E2E2E2E2E2E2E2E2E2E2E2E2E2E2E2E2E2E2E2E2E2E2E2E2E2E2E2E2E2E2E2E2E2E2E2E2E2E2E2E2E2E2E2E2E2E2E2E2E2E2E2E2E2E2E2E2E2E2E2E2E2E2E2E2E2E2E2E2E2E2E2E2E2E2E2E2E2E2E2E2E2E2E2
310
E2E2E2E2E2E2E2E2E2E2E2E2E2E2E2E2E2E2E2E2E2E2E2E2E2E2E2E2E2E2E2E2E2E2E2E2E2E2E2E2E2E2E2E2E2F5E2E2E2E2E2E2E2E2E2E2E2E2E2E2E2E2F5E2E2E2F5F5E2E2E2F5E2E2E2E2E2E2E2E2E2E2E2E2E2E2E2E2F5E2E2E2E2E2E2E2E2E2E2E2E2E2E2E2E2E2E2E2E2E2E2E2E2E2E2E2E2E2E2E2E2E2E2E2E2E2E2
310
E2E2E2E2E2E2E2E2E2E2E2E2E2E2E2E2E2E2E2E2E2E2E2E2E2E2E2E2E2E2E2E2E2E2E2E2E2E2E2E2E2E2E2E2E2E2E2E2E2E2E2E2E2E2E2E2E2E2E2E2E2E2E2E2E2E2E2E2E2E2E2E2E2E2E2E2E2E2E2E2E2E2E2E2E2E2E2E2E2E2E2E2E2E2E2E2E2E2F5E2E2E2E2E2E2E2E2E2E2E2E2E2E2E2E2F5E2E2E2F5F5E2E2E2F5E2E2
310
E2E2E2E2E2E2E2E2E2E2E2E2E2E2F5E2E2E2E2E2E2E2E2E2E2E2E2E2E2E2E2E2E2E2E2E2E2E2E2E2E2E2E2E2E2E2E2E2E2E2E2E2E2E2E2E2E2E2E2E2E2E2E2E2E2E2E2E2E2E2E2E2E2E2E2E2E2E2E2E2E2E2E2E2E2E2E2E2E2E2E2E2E2E2E2E2E2E2E2E2E2E2E2E2E2E2E2E2E2E2E2E2E2E2E2E2E2E2E2E2E2E2E2E2E2E2E2
310
E2E2E2E2E2E2E2E2E2E2E2E2E2E2E2E2E2E2E2E2E2E2E2E2F5E2E2E2E2E2E2E2E2E2E2E2E2E2E2E2E2F5E2E2E2F5F5E2E2E2F5E2E2E2E2E2E2E2E2E2E2E2E2E2E2E2E2F5E2E2E2E2E2E2E2E2E2E2E2E2E2E2E2E2E2E2E2E2E2E2E2E2E2E2E2E2E2E2E2E2E2E2E2E2E2E2E2E2E2E2E2E2E2E2E2E2E2E2E2E2E2E2E2E2E2E2E2
310
E2E2E2E2E2E2E2E2E2E2E2E2E2E2E2E2E2E2E2E2E2E2E2E2E2E2E2E2E2E2E2E2E2E2E2E2E2E2E2E2E2E2E2E2E2E2E2E2E2E2E2E2E2E2E2E2E2E2E2E2E2E2E2E2E2E2E2E2E2E2E2E2E2E2E2E2E2F5E2E2E2E2E2E2E2E2E2E2E2E2E2E2E2E2F5E2E2E2F5F5E2E2E2F5E2E2E2E2E2E2E2E2E2E2E2E2E2E2E2E2F5E2E2E2E2E2E2
310
E2E2E2E2E2E2E2E2E2E2E2E2E2E2E2E2E2E2E2E2E2E2E2E2E2E2E2E2E2E2E2E2E2E2E2E2E2E2E2E2E2E2E2E2E2E2E2E2E2E2E2E2E2E2E2E2E2E2E2E2E2E2E2E2E2E2E2E2E2E2E2E2E2E2E2E2E2E2E2E2E2E2E2E2E2E2E2E2E2E2E2E2E2E2E2E2E2E2E2E2E2E2E2E2E2E2E2E2E2E2E2E2E2E2E2E2E2E2E2E2E2E2E2E2E2E2E2
310
E2E2E2F5E2E2E2E2E2E2E2E2E2E2E2E2E2E2E2E2F5E2E2E2F5F5E2E2E2F5E2E2E2E2E2E2E2E2E2E2E2E2E2E2E2E2F5E2E2E2E2E2E2E2E2E2E2E2E2E2E2E2E2E2E2E2E2E2E2E2E2E2E2E2E2E2E2E2E2E2E2E2E2E2E2E2E2E2E2E2E2E2E2E2E2E2E2E2E2E2E2E2E2E2E2E2E2E2E2E2E2E2E2E2E2E2E2E2E2E2E2E2E2E2E2E2E2
310
E2E2E2E2E2E2E2E2E2E2E2E2E2E2E2E2E2E2E2E2E2E2E2E2E2E2E2E2E2E2E2E2E2E2E2E2E2E2E2E2E2E2E2E2E2E2E2E2E2E2E2E2E2E2E2E2F5E2E2E2E2E2E2E2E2E2E2E2E2E2E2E2E2F5E2E2E2F5F5E2E2E2F5E2E2E2E2E2E2E2E2E2E2E2E2E2E2E2E2F5E2E2E2E2E2E2E2E2E2E2E2E2E2E2E2E2E2E2E2E2E2E2E2E2E2E2E2
310
E2E2E2E2E2E2E2E2E2E2E2E2E2E2E2E2E2E2E2E2E2E2E2E2E2E2E2E2E2E2E2E2E2E2E2E2E2E2E2E2E2E2E2E2E2E2E2E2E2E2E2E2E2E2E2E2E2E2E2E2E2E2E2E2E2E2E2E2E2E2E2E2E2E2E2E2E2E2E2E2E2E2E2E2E2E2E2E2E2E2E2E2E2E2E2E2E2E2E2E2E2E2E2E2E2E2E2E2E2F5E2E2E2E2E2E2E2E2E2E2E2E2E2E2E2E2F5
310
E2E2E2F5F5E2E2E2F5E2E2E2E2E2E2E2E2E2E2E2E2E2E2E2E2F5E2E2E2E2E2E2E2E2E2E2E2E2E2E2E2E2E2E2E2E2E2E2E2E2E2E2E2E2E2E2E2E2E2E2E2E2E2E2E2E2E2E2E2E2E2E2E2E2E2E2E2E2E2E2E2E2E2E2E2E2E2E2E2E2E2E2E2E2E2E2E2E2E2E2E2E2E2E2E2E2E2E2E2E2E2E2E2E2E2E2E2E2E2E2E2E2E2E2E2E2E2
310
E2E2E2E2E2E2E2E2E2E2E2E2E2E2E2E2E2E2E2E2E2E2E2E2E2E2E2E2E2E2E2E2E2E2E2F5E2E2E2E2E2E2E2E2E2E2E2E2E2E2E2E2F5E2E2E2F5F5E2E2E2F5E2E2E2E2E2E2E2E2E2E2E2E2E2E2E2E2F5E2E2E2E2E2E2E2E2E2E2E2E2E2E2E2E2E2E2E2E2E2E2E2E2E2E2E2E2E2E2E2E2E2E2E2E2E2E2E2E2E2E2E2E2E2E2E2E2
310
E2E2E2E2E2E2E2E2E2E2E2E2E2E2E2E2E2E2E2E2E2E2E2E2E2E2E2E2E2E2E2E2E2E2E2E2E2E2E2E2E2E2E2E2E2E2E2E2E2E2E2E2E2E2E2E2E2E2E2E2E2E2E2E2E2E2E2E2E2E2E2E2E2E2E2E2E2E2E2E2E2E2E2E2E2E2E2E2F5E2E2E2E2E2E2E2E2E2E2E2E2E2E2E2E2F5E2E2E2F5F5E2E2E2F5E2E2E2E2E2E2E2E2E2E2E2E2
310
E2E2E2E2F5E2E2E2E2E2E2E2E2E2E2E2E2E2E2E2E2E2E2E2E2E2E2E2E2E2E2E2E2E2E2E2E2E2E2E2E2E2E2E2E2E2E2E2E2E2E2E2E2E2E2E2E2E2E2E2E2E2E2E2E2E2E2E2E2E2E2E2E2E2E2E2E2E2E2E2E2E2E2E2E2E2E2E2E2E2E2E2E2E2E2E2E2E2E2E2E2E2E2E2E2E2E2E2E2E2E2E2E2E2E2E2E2E2E2E2E2E2E2E2E2E2E2
310
E2E2E2E2E2E2E2E2E2E2E2E2E2E2F5E2E2E2E2E2E2E2E2E2E2E2E2E2E2E2E2F5E2E2E2F5F5E2E2E2F5E2E2E2E2E2E2E2E2E2E2E2E2E2E2E2E2F5E2E2E2E2E2E2E2E2E2E2E2E2E2E2E2E2E2E2E2E2E2E2E2E2E2E2E2E2E2E2E2E2E2E2E2E2E2E2E2E2E2E2E2E2E2E2E2E2E2E2E2E2E2E2E2E2E2E2E2E2E2E2E2E2E2E2E2E2E2
310
E2E2E2E2E2E2E2E2E2E2E2E2E2E2E2E2E2E2E2E2E2E2E2E2E2E2E2E2E2E2E2E2E2E2E2E2E2E2E2E2E2E2E2E2E2E2E2E2E2E2E2E2E2E2E2E2E2E2E2E2E2E2E2E2E2E2E2F5E2E2E2E2E2E2E2E2E2E2E2E2E2E2E2E2F5E2E2E2F5F5E2E2E2F5E2E2E2E2E2E2E2E2E2E2E2E2E2E2E2E2F5E2E2E2E2E2E2E2E2E2E2E2E2E2E2E2E2
310
E2E2E2E2E2E2E2E2E2E2E2E2E2E2E2E2E2E2E2E2E2E2E2E2E2E2E2E2E2E2E2E2E2E2E2E2E2E2E2E2E2E2E2E2E2E2E2E2E2E2E2E2E2E2E2E2E2E2E2E2E2E2E2E2E2E2E2E2E2E2E2E2E2E2E2E2E2E2E2E2E2E2E2E2E2E2E2E2E2E2E2E2E2E2E2E2E2E2E2E2E2E2E2E2E2E2E2E2E2E2E2E2E2E2E2E2E2E2E2E2F5E2E2E2E2E2E2
310
E2E2E2E2E2E2E2E2E2E2F5E2E2E2F5F5E2E2E2F5E2E2E2E2E2E2E2E2E2E2E2E2E2E2E2E2F5E2E2E2E2E2E2E2E2E2E2E2E2E2E2E2E2E2E2E2E2E2E2E2E2E2E2E2E2E2E2E2E2E2E2E2E2E2E2E2E2E2E2E2E2E2E2E2E2E2E2E2E2E2E2E2E2E2E2E2E2E2E2E2E2E2E2E2E2E2E2E2E2E2E2E2E2E2E2E2E2E2E2E2E2E2E2E2E2E2E2
310
E2E2E2E2E2E2E2E2E2E2E2E2E2E2E2E2E2E2E2E2E2E2E2E2E2E2E2E2E2E2E2E2E2E2E2E2E2E2E2E2E2E2E2E2E2E2F5E2E2E2E2E2E2E2E2E2E2E2E2E2E2E2E2F5E2E2E2F5F5E2E2E2F5E2E2E2E2E2E2E2E2E2E2E2E2E2E2E2E2F5E2E2E2E2E2E2E2E2E2E2E2E2E2E2E2E2E2E2E2E2E2E2E2E2E2E2E2E2E2E2E2E2E2E2E2E2E2
310
E2E2E2E2E2E2E2E2E2E2E2E2E2E2E2E2E2E2E2E2E2E2E2E2E2E2E2E2E2E2E2E2E2E2E2E2E2E2E2E2E2E2E2E2E2E2E2E2E2E2E2E2E2E2E2E2E2E2E2E2E2E2E2E2E2E2E2E2E2E2E2E2E2E2E2E2E2E2E2E2E2E2E2E2E2E2E2E2E2E2E2E2E2E2E2E2E2E2E2F5E2E2E2E2E2E2E2E2E2E2E2E2E2E2E2E2F5E2E2E2F5F5E2E2E2F5E2
310
E2E2E2E2E2E2E2E2E2E2E2E2E2E2E2F5E2E2E2E2E2E2E2E2E2E2E2E2E2E2E2E2E2E2E2E2E2E2E2E2E2E2E2E2E2E2E2E2E2E2E2E2E2E2E2E2E2E2E2E2E2E2E2E2E2E2E2E2E2E2E2E2E2E2E2E2E2E2E2E2E2E2E2E2E2E2E2E2E2E2E2E2E2E2E2E2E2E2E2E2E2E2E2E2E2E2E2E2E2E2E2E2E2E2E2E2E2E2E2E2E2E2E2E2E2E2E2
310
E2E2E2E2E2E2E2E2E2E2E2E2E2E2E2E2E2E2E2E2E2E2E2E2E2F5E2E2E2E2E2E2E2E2E2E2E2E2E2E2E2E2F5E2E2E2F5F5E2E2E2F5E2E2E2E2E2E2E2E2E2E2E2E2E2E2E2E2F5E2E2E2E2E2E2E2E2E2E2E2E2E2E2E2E2E2E2E2E2E2E2E2E2E2E2E2E2E2E2E2E2E2E2E2E2E2E2E2E2E2E2E2E2E2E2E2E2E2E2E2E2E2E2E2E2E2E2
310
E2E2E2E2E2E2E2E2E2E2E2E2E2E2E2E2E2E2E2E2E2E2E2E2E2E2E2E2E2E2E2E2E2E2E2E2E2E2E2E2E2E2E2E2E2E2E2E2E2E2E2E2E2E2E2E2E2E2E2E2E2E2E2E2E2E2E2E2E2E2E2E2E2E2E2E2E2E2F5E2E2E2E2E2E2E2E2E2E2E2E2E2E2E2E2F5E2E2E2F5F5E2E2E2F5E2E2E2E2E2E2E2E2E2E2E2E2E2E2E2E2F5E2E2E2E2E2
310
E2E2E2E2E2E2E2E2E2E2E2E2E2E2E2E2E2E2E2E2E2E2E2E2E2E2E2E2E2E2E2E2E2E2E2E2E2E2E2E2E2E2E2E2E2E2E2E2E2E2E2E2E2E2E2E2E2E2E2E2E2E2E2E2E2E2E2E2E2E2E2E2E2E2E2E2E2E2E2E2E2E2E2E2E2E2E2E2E2E2E2E2E2E2E2E2E2E2E2E2E2E2E2E2E2E2E2E2E2E2E2E2E2E2E2E2E2E2E2E2E2E2E2E2E2E2E2
310
E2E2E2E2F5E2E2E2E2E2E2E2E2E2E2E2E2E2E2E2E2F5E2E2E2F5F5E2E2E2E2E2E2E2E2E2E2E2E2E2E2E2E2E2E2E2E2F5E2E2E2E2E2E2E2E2E2E2E2E2E2E2E2E2E2E2E2E2E2E2E2E2E2E2E2E2E2E2E2E2E2E2E2E2E2E2E2E2E2E2E2E2E2E2E2E2E2E2E2E2E2E2E2E2E2E2E2E2E2E2E2E2E2E2E2E2E2E2E2E2E2E2E2E2E2E2E2
310
E2E2E2E2E2E2E2E2E2E2E2E2E2E2E2E2E2E2E2E2E2E2E2E2E2E2E2E2E2E2E2E2E2E2E2E2E2E2E2E2E2E2E2E2E2E2E2E2E2E2E2E2E2E2E2E2E2F5E2E2E2E2E2E2E2E2E2E2E2E2E2E2E2E2E2E2E2E2F5F5E2E2E2E2E2E2E2E2E2E2E2E2E2E2E2E2E2E2E2E2F5E2E2E2E2E2E2E2E2E2E2E2E2E2E2E2E2E2E2E2E2E2E2E2E2E2E2
310
E2E2E2E2E2E2E2E2E2E2E2E2E2E2E2E2E2E2E2E2E2E2E2E2E2E2E2E2E2E2E2E2E2E2E2E2E2E2E2E2E2E2E2E2E2E2E2E2E2E2E2E2E2E2E2E2E2E2E2E2E2E2E2E2E2E2E2E2E2E2E2E2E2E2E2E2E2E2E2E2E2E2E2E2E2E2E2E2E2E2E2E2E2E2E2E2E2E2E2E2E2E2E2E2E2E2E2E2E2E2F5E2E2E2E2E2E2E2E2E2E2E2E2E2E2E2E2
310
E2E2E2E2F5F5E2E2E2E2E2E2E2E2E2E2E2E2E2E2E2E2E2E2E2E2F5E2E2E2E2E2E2E2E2E2E2E2E2E2E2E2E2E2E2E2E2E2E2E2E2E2E2E2E2E2E2E2E2E2E2E2E2E2E2E2E2E2E2E2E2E2E2E2E2E2E2E2E2E2E2E2E2E2E2E2E2E2E2E2E2E2E2E2E2E2E2E2E2E2E2E2E2E2E2E2E2E2E2E2E2E2E2E2E2E2E2E2E2E2E2E2E2E2E2E2E2
310
E2E2E2E2E2E2E2E2E2E2E2E2E2E2E2E2E2E2E2E2E2E2E2E2E2E2E2E2E2E2E2E2E2E2E2E2F5E2E2E2E2E2E2E2E2E2E2E2E2E2E2E2E2E2E2E2E2F5F5E2E2E2E2E2E2E2E2E2E2E2E2E2E2E2E2E2E2E2E2F5E2E2E2E2E2E2E2E2E2E2E2E2E2E2E2E2E2E2E2E2E2E2E2E2E2E2E2E2E2E2E2E2E2E2E2E2E2E2E2E2E2E2E2E2E2E2E2
310
E2E2E2E2E2E2E2E2E2E2E2E2E2E2E2E2E2E2E2E2E2E2E2E2E2E2E2E2E2E2E2E2E2E2E2E2E2E2E2E2E2E2E2E2E2E2E2E2E2E2E2E2E2E2E2E2E2E2E2E2E2E2E2E2E2E2E2E2E2E2E2E2E2E2E2E2E2E2E2E2E2E2E2E2E2E2E2E2E2F5E2E2E2E2E2E2E2E2E2E2E2E2E2E2E2E2E2E2E2E2F5F5E2E2E2E2E2E2E2E2E2E2E2E2E2E2E2
310
E2E2E2E2E2F5F5F5F5F5F5F5F5F5F5F5F5F5F5F5F5F5F5F5F5F5F5F5F5F5F5F5F5F5F5F5F5F5F5F5F5F5F5F5F5F5F5F5F5F5F5F5F5F5F5F5F5F5F5F5F5F5F5F5F5F5F5F5F5F5F5F5F5F5F5F5F5F5F5F5F5F5F5F5F5F5F5F5F5F5F5F5F5F5F5F5F5F5F5F5F5F5F5F5F5F5F5F5F5F5F5F5F5F5F5F5F5F5F5F5F5F5F5F5F5F5F5
310
F5F5F5F5F5F5F5F5F5F5F5F5F5F5F5F5E2E2E2E2E2E2E2E2E2E2E2E2E2E2E2E2E2E2E2E2F5F5E2E2E2E2E2E2E2E2E2E2E2E2E2E2E2E2E2E2E2E2E2E2E2E2E2E2E2E2E2E2E2E2E2E2E2E2E2E2E2E2E2E2E2E2E2E2E2E2E2E2E2E2E2E2E2E2E2E2E2E2E2E2E2E2E2E2E2E2E2E2E2E2E2E2E2E2E2E2E2E2E2E2E2E2E2E2E2E2E2
310
E2E2E2E2E2E2E2E2E2E2E2E2E2E2E2E2E2E2E2E2E2E2E2E2E2E2E2E2E2E2E2E2E2E2E2E2E2E2E2E2E2E2E2E2E2E2E2E2E2E2E2E2E2E2E2E2E2E2E2E2E2E2E2E2E2E2E2E2E2E2E2E2E2E2E2E2E2E2E2E2E2E2E2E2E2E2E2E2E2F5F5E2E2E2E2E2E2E2E2E2E2E2E2E2E2E2E2E2E2E2E2E2E2E2E2E2E2E2E2E2E2E2E2E2E2E2E2
310
E2E2E2E2E2E2E2E2E2E2E2E2E2E2E2E2E2E2E2E2E2E2E2E2E2E2E2E2E2E2E2E2E2E2E2E2E2E2E2E2E2E2E2E2E2E2E2E2E2E2E2E2E2E2E2E2E2E2E2E2E2E2E2E2E2E2E2E2E2E2E2E2E2E2E2E2E2E2E2E2E2E2E2E2E2E2E2E2E2E2E2E2E2E2E2E2E2E2E2E2E2E2E2E2E2E2E2E2E2E2E2E2E2E2E2E2E2E2E2E2E2E2E2E2E2E2E2
310
E2E2E2E2E2E2E2E2E2E2E2E2E2E2E2F5F5E2E2E2E2E2E2E2E2E2E2E2E2E2E2E2E2E2E2E2E2E2E2E2E2E2E2E2E2E2E2E2E2E2E2E2E2E2E2E2E2E2E2E2E2E2E2E2E2E2E2E2E2E2E2E2E2E2E2E2E2E2E2E2E2E2E2E2E2E2E2E2E2E2E2E2E2E2E2E2E2E2E2E2E2E2E2E2E2E2E2E2E2E2E2E2E2E2E2E2E2E2E2E2E2E2E2E2E2E2E2
310
E2E2E2E2E2E2E2E2E2E2E2E2E2E2E2E2E2E2E2E2E2E2E2E2E2E2E2E2E2E2E2E2E2E2E2E2E2E2E2E2E2E2E2E2E2E2E2E2E2E2E2E2E2E2E2E2E2E2E2E2E2E2E2E2E2E2E2E2F5F5E2E2E2E2E2E2E2E2E2E2E2E2E2E2E2E2E2E2E2E2E2E2E2E2E2E2E2E2E2E2E2E2E2E2E2E2E2E2E2E2E2E2E2E2E2E2E2E2E2E2E2E2E2E2E2E2E2
310
E2E2E2E2E2E2E2E2E2E2E2E2E2E2E2E2E2E2E2E2E2E2E2E2E2E2E2E2E2E2E2E2E2E2E2E2E2E2E2E2E2E2E2E2E2E2E2E2E2E2E2E2E2E2E2E2E2E2E2E2E2E2E2E2E2E2E2E2E2E2E2E2E2E2E2E2E2E2E2E2E2E2E2E2E2E2E2E2E2E2E2E2E2E2E2E2E2E2E2E2E2E2E2E2E2E2E2E2E2E2E2E2E2E2E2E2E2E2E2E2E2F5F5E2E2E2F5
310
E2E2E2E2E2E2E2E2E2E2E2E2E2E2E2E2E2E2E2E2E2E2E2E2E2E2E2E2E2E2E2E2E2E2E2E2E2E2E2E2E2E2E2E2E2E2E2E2E2E2E2E2E2E2E2E2E2E2E2E2E2E2E2E2E2E2E2E2E2E2E2E2E2E2E2E2E2E2E2E2E2E2E2E2E2E2E2E2E2E2E2E2E2E2E2E2E2E2E2E2E2E2E2E2E2E2E2E2E2E2E2E2E2E2E2E2E2E2E2E2E2E2E2E2E2E2E2
310
E2E2E2E2E2E2E2E2E2E2E2E2E2E2E2E2E2E2E2E2E2E2E2E2E2E2E2E2E2E2E2E2E2E2E2E2E2E2E2E2E2E2E2F5E2E2E2F5F5E2E2E2F5E2E2E2E2E2E2E2E2E2E2E2E2E2E2E2E2E2E2E2E2E2E2E2E2E2E2E2E2E2E2E2E2E2E2E2E2E2E2E2E2E2E2E2E2E2E2E2E2E2E2E2E2E2E2E2E2E2E2E2E2E2E2E2E2E2E2E2E2E2E2E2E2E2E2
310
E2E2E2E2E2E2E2E2E2E2E2E2E2E2E2E2E2E2E2E2E2E2E2E2E2E2E2E2E2E2E2E2E2E2E2E2E2E2E2E2E2E2E2E2E2E2E2E2E2E2E2E2E2E2E2E2E2E2E2E2E2E2E2E2E2E2E2E2E2E2E2E2E2E2E2E2E2E2E2E2E2E2E2E2E2E2E2E2E2E2E2E2E2E2E2E2F5E2E2E2F5F5E2E2E2F5E2E2E2E2E2E2E2E2E2E2E2E2E2E2E2E2E2E2E2E2E2
310
E2E2E2E2E2E2E2E2E2E2E2E2E2E2E2E2E2E2E2E2E2E2E2E2E2E2E2E2E2E2E2E2E2E2E2E2E2E2E2E2E2E2E2E2E2E2E2E2E2E2E2E2E2E2E2E2E2E2E2E2E2E2E2E2E2E2E2E2E2E2E2E2E2E2E2E2E2E2E2E2E2E2E2E2E2E2E2E2E2E2E2E2E2E2E2E2E2E2E2E2E2E2E2E2E2E2E2E2E2E2E2E2E2E2E2E2E2E2E2E2E2E2E2E2E2E2E2
310
E2E2E2E2E2E2E2E2E2E2E2E2E2E2E2E2E2E2E2E2E2E2F5E2E2E2F5F5E2E2E2F5E2E2E2E2E2E2E2E2E2E2E2E2E2E2E2E2E2E2E2E2E2E2E2E2E2E2E2E2E2E2E2E2E2E2E2E2E2E2E2E2E2E2E2E2E2E2E2E2E2E2E2E2E2E2E2E2E2E2E2E2E2E2E2E2E2E2E2E2E2E2E2E2E2E2E2E2E2E2E2E2E2E2E2E2E2E2E2E2E2E2E2E2E2E2E2
310
E2E2E2E2E2E2E2E2E2E2E2E2E2E2E2E2E2E2E2E2E2E2E2E2E2E2E2E2E2E2E2E2E2E2E2E2E2E2E2E2E2E2E2E2E2E2E2E2E2E2E2E2E2E2E2E2E2E2E2E2E2E2E2E2E2E2E2E2E2E2E2E2E2E2E2F5E2E2E2F5F5E2E2E2F5E2E2E2E2E2E2E2E2E2E2E2E2E2E2E2E2E2E2E2E2E2E2E2E2E2E2E2E2E2E2E2E2E2E2E2E2E2E2E2E2E2E2
310
E2E2E2E2E2E2E2E2E2E2E2E2E2E2E2E2E2E2E2E2E2E2E2E2E2E2E2E2E2E2E2E2E2E2E2E2E2E2E2E2E2E2E2E2E2E2E2E2E2E2E2E2E2E2E2E2E2E2E2E2E2E2E2E2E2E2E2E2E2E2E2E2E2E2E2E2E2E2E2E2E2E2E2E2E2E2E2E2E2E2E2E2E2E2E2E2E2E2E2E2E2E2E2E2E2E2E2E2E2E2E2E2E2E2E2E2E2E2E2E2E2E2E2E2E2E2E2
310
E2F5E2E2E2F5F5E2E2E2F5E2E2E2E2E2E2E2E2E2E2E2E2E2E2E2E2E2E2E2E2E2E2E2E2E2E2E2E2E2E2E2E2E2E2E2E2E2E2E2E2E2E2E2E2E2E2E2E2E2E2E2E2E2E2E2E2E2E2E2E2E2E2E2E2E2E2E2E2E2E2E2E2E2E2E2E2E2E2E2E2E2E2E2E2E2E2E2E2E2E2E2E2E2E2E2E2E2E2E2E2E2E2E2E2E2E2E2E2E2E2E2E2E2E2E2E2
310
E2E2E2E2E2E2E2E2E2E2E2E2E2E2E2E2E2E2E2E2E2E2E2E2E2E2E2E2E2E2E2E2E2E2E2E2E2E2E2E2E2E2E2E2E2E2E2E2E2E2E2E2E2E2F5E2E2E2F5F5E2E2E2F5E2E2E2E2E2E2E2E2E2E2E2E2E2E2E2E2E2E2E2E2E2E2E2E2E2E2E2E2E2E2E2E2E2E2E2E2E2E2E2E2E2E2E2E2E2E2E2E2E2E2E2E2E2E2E2E2E2E2E2E2E2E2E2
310
E2E2E2E2E2E2E2E2E2E2E2E2E2E2E2E2E2E2E2E2E2E2E2E2E2E2E2E2E2E2E2E2E2E2E2E2E2E2E2E2E2E2E2E2E2E2E2E2E2E2E2E2E2E2E2E2E2E2E2E2E2E2E2E2E2E2E2E2E2E2E2E2E2E2E2E2E2E2E2E2E2E2E2E2E2E2E2E2E2E2E2E2E2E2E2E2E2E2E2E2E2E2E2E2E2E2E2F5E2E2E2F5F5E2E2E2F5E2E2E2E2E2E2E2E2E2E2
310
E2E2E2E2E2E2E2E2E2E2E2E2E2E2E2E2E2E2E2E2E2E2E2E2E2E2E2E2E2E2E2E2E2E2E2E2E2E2E2E2E2E2E2E2E2E2E2E2E2E2E2E2E2E2E2E2E2E2E2E2E2E2E2E2E2E2E2E2E2E2E2E2E2E2E2E2E2E2E2E2E2E2E2E2E2E2E2E2E2E2E2E2E2E2E2E2E2E2E2E2E2E2E2E2E2E2E2E2E2E2E2E2E2E2E2E2E2E2E2E2E2E2E2E2E2E2E2
310
E2E2E2E2E2E2E2E2E2E2E2E2E2E2E2E2E2E2E2E2E2E2E2E2E2E2E2E2E2E2E2E2E2F5E2E2E2F5F5E2E2E2F5F5F5F5F5F5F5F5E2E2E2E2E2E2E2E2E2F5F5F5F5F5F5F5F5F5F5F5F5F5F5F5F5E2E2E2E2E2E2E2E2E2F5F5F5F5F5F5F5F5F5F5F5F5F5F5F5E2E2E2E2E2E2E2E2E2F5F5F5F5F5F5F5F5F5F5F5F5F5F5F5F5E2E2E2
310
E2E2E2E2E2F5F5F5F5F5F5F5F5F5F5F5F5F5F5F5F5E2E2E2E2E2E2E2E2E2F5F5F5F5F5F5F5F5F5F5F5F5F5F5F5E2E2E2E2E2E2E2E2E2F5F5F5F5F5F5F5F5F5F5F5F5F5F5F5F5E2E2E2E2E2E2E2E2E2F5F5F5F5F5F5F5F5E2E2E2F5F5E2E2E2E2E2E2E2E2E2E2E2E2E2E2E2E2E2E2E2E2E2E2E2E2E2E2E2E2E2E2E2E2E2E2E2
310
E2E2E2E2E2E2E2E2E2E2E2E2E2E2E2E2E2E2E2E2E2E2E2E2E2E2E2E2E2E2E2E2E2E2E2E2E2E2E2E2E2E2E2E2E2E2E2E2E2E2E2E2E2E2E2E2E2E2E2E2E2E2E2E2E2E2E2E2E2E2E2E2E2E2E2E2E2E2E2E2E2E2E2E2E2E2E2E2E2E2E2E2E2E2E2E2E2E2E2E2E2E2E2E2E2E2E2E2E2E2E2E2E2E2E2E2E2E2E2E2E2E2E2E2E2E2E2
310
E2E2E2E2E2E2E2E2E2E2E2E2E2E2E2E2F5F5E2E2E2E2E2E2E2E2E2E2E2E2E2E2E2E2E2E2E2E2E2E2E2E2E2E2E2E2E2E2E2E2E2E2E2E2E2E2E2E2E2E2E2E2E2E2E2E2E2E2E2E2E2E2E2E2E2E2E2E2E2E2E2E2E2E2E2E2E2E2E2E2E2E2E2E2E2E2E2E2E2E2E2E2E2E2E2E2E2E2E2E2E2E2E2E2E2E2E2E2E2E2E2E2E2E2E2E2E2
310
E2E2E2E2E2E2E2E2E2E2E2E2E2E2E2E2E2E2E2E2E2E2E2E2E2E2E2E2E2E2E2E2E2E2E2E2E2E2E2E2E2E2E2E2E2E2E2E2E2E2E2E2E2E2E2E2E2E2E2E2E2E2E2E2E2E2E2E2E2F5F5E2E2E2E2E2E2E2E2E2E2E2E2E2E2E2E2E2E2E2E2E2E2E2E2E2E2E2E2E2E2E2E2E2E2E2E2E2E2E2E2E2E2E2E2E2E2E2E2E2E2E2E2E2E2E2E2
310
E2E2E2E2E2E2E2E2E2E2E2E2E2E2E2E2E2E2E2E2E2E2E2E2E2E2E2E2E2E2E2E2E2E2E2E2E2E2E2E2E2E2E2E2E2E2E2E2E2E2E2E2E2E2E2E2E2E2E2E2E2E2E2E2E2E2E2E2E2E2E2E2E2E2E2E2E2E2E2E2E2E2E2E2E2E2E2E2E2E2E2E2E2E2E2E2E2E2E2E2E2E2E2E2E2E2E2E2E2E2E2E2E2E2E2E2E2E2E2E2E2E2F5F5E2E2E2
310
E2E2E2E2E2E2E2E2E2E2E2E2E2E2E2E2E2E2E2E2E2E2E2E2E2E2E2E2E2E2E2E2E2E2E2E2E2E2E2E2E2E2E2E2E2E2E2E2E2E2E2E2E2E2E2E2E2E2E2E2E2E2E2E2E2E2E2E2E2E2E2E2E2E2E2E2E2E2E2E2E2E2E2E2E2E2E2E2E2E2E2E2E2E2E2E2E2E2E2E2E2E2E2E2E2E2E2E2E2E2E2E2E2E2E2E2E2E2E2E2E2E2E2E2E2E2E2
310
E2E2E2E2E2E2E2E2E2E2E2E2E2E2E2E2E2E2E2E2E2E2E2E2E2E2E2E2E2E2E2E2E2E2E2E2E2E2E2E2E2E2E2E2E2E2E2E2F5
  0
XRECORD
  5
61B51
102
{ACAD_REACTORS
330
61B50
102
}
330
61B50
100
AcDbXrecord
280
     1
102
SHADEPLOT
 70
     0
102
SHADEPLOTRESLEVEL
 70
     2
102
SHADEPLOTCUSTOMDPI
 70
   300
  0
ENDSEC
  0
EOF
