  0
SECTION
  2
HEADER
  9
$ACADVER
  1
AC1015
  9
$ACADMAINTVER
 70
    20
  9
$DWGCODEPAGE
  3
ANSI_936
  9
$INSBASE
 10
0.0
 20
0.0
 30
0.0
  9
$EXTMIN
 10
-122.4236389999999
 20
-531.7743263212191
 30
0.0
  9
$EXTMAX
 10
611.0380792446861
 20
237.667982174473
 30
0.0
  9
$LIMMIN
 10
0.0
 20
0.0
  9
$LIMMAX
 10
420.0
 20
297.0
  9
$ORTHOMODE
 70
     0
  9
$REGENMODE
 70
     1
  9
$FILLMODE
 70
     1
  9
$QTEXTMODE
 70
     0
  9
$MIRRTEXT
 70
     1
  9
$LTSCALE
 40
1.0
  9
$ATTMODE
 70
     1
  9
$TEXTSIZE
 40
3.5
  9
$TRACEWID
 40
1.0
  9
$TEXTSTYLE
  7
simplex
  9
$CLAYER
  8
0
  9
$CELTYPE
  6
ByLayer
  9
$CECOLOR
 62
   256
  9
$CELTSCALE
 40
1.0
  9
$DISPSILH
 70
     0
  9
$DIMSCALE
 40
0.0
  9
$DIMASZ
 40
3.5
  9
$DIMEXO
 40
0.0
  9
$DIMDLI
 40
0.38
  9
$DIMRND
 40
0.0
  9
$DIMDLE
 40
0.0
  9
$DIMEXE
 40
1.5
  9
$DIMTP
 40
0.0
  9
$DIMTM
 40
0.0
  9
$DIMTXT
 40
3.5
  9
$DIMCEN
 40
0.09
  9
$DIMTSZ
 40
0.0
  9
$DIMTOL
 70
     0
  9
$DIMLIM
 70
     0
  9
$DIMTIH
 70
     0
  9
$DIMTOH
 70
     0
  9
$DIMSE1
 70
     0
  9
$DIMSE2
 70
     0
  9
$DIMTAD
 70
     1
  9
$DIMZIN
 70
     8
  9
$DIMBLK
  1

  9
$DIMASO
 70
     1
  9
$DIMSHO
 70
     1
  9
$DIMPOST
  1

  9
$DIMAPOST
  1

  9
$DIMALT
 70
     0
  9
$DIMALTD
 70
     2
  9
$DIMALTF
 40
25.4
  9
$DIMLFAC
 40
1.0
  9
$DIMTOFL
 70
     0
  9
$DIMTVP
 40
0.0
  9
$DIMTIX
 70
     0
  9
$DIMSOXD
 70
     0
  9
$DIMSAH
 70
     0
  9
$DIMBLK1
  1

  9
$DIMBLK2
  1

  9
$DIMSTYLE
  2
\M+18352\M+18373\M+1815B - ISO-25
  9
$DIMCLRD
 70
   256
  9
$DIMCLRE
 70
   256
  9
$DIMCLRT
 70
   256
  9
$DIMTFAC
 40
1.0
  9
$DIMGAP
 40
2.299999999999998
  9
$DIMJUST
 70
     0
  9
$DIMSD1
 70
     0
  9
$DIMSD2
 70
     0
  9
$DIMTOLJ
 70
     1
  9
$DIMTZIN
 70
     8
  9
$DIMALTZ
 70
     0
  9
$DIMALTTZ
 70
     0
  9
$DIMUPT
 70
     0
  9
$DIMDEC
 70
     2
  9
$DIMTDEC
 70
     2
  9
$DIMALTU
 70
     2
  9
$DIMALTTD
 70
     2
  9
$DIMTXSTY
  7
simplex
  9
$DIMAUNIT
 70
     0
  9
$DIMADEC
 70
     0
  9
$DIMALTRND
 40
0.0
  9
$DIMAZIN
 70
     0
  9
$DIMDSEP
 70
    46
  9
$DIMATFIT
 70
     3
  9
$DIMFRAC
 70
     0
  9
$DIMLDRBLK
  1

  9
$DIMLUNIT
 70
     2
  9
$DIMLWD
 70
    -1
  9
$DIMLWE
 70
    -1
  9
$DIMTMOVE
 70
     0
  9
$LUNITS
 70
     2
  9
$LUPREC
 70
     4
  9
$SKETCHINC
 40
1.0
  9
$FILLETRAD
 40
0.5
  9
$AUNITS
 70
     0
  9
$AUPREC
 70
     0
  9
$MENU
  1
.
  9
$ELEVATION
 40
0.0
  9
$PELEVATION
 40
0.0
  9
$THICKNESS
 40
0.0
  9
$LIMCHECK
 70
     0
  9
$CHAMFERA
 40
10.0
  9
$CHAMFERB
 40
10.0
  9
$CHAMFERC
 40
20.0
  9
$CHAMFERD
 40
0.0
  9
$SKPOLY
 70
     0
  9
$TDCREATE
 40
2455489.391063368
  9
$TDUCREATE
 40
2455489.057730035
  9
$TDUPDATE
 40
2458573.008524248
  9
$TDUUPDATE
 40
2458572.675190914
  9
$TDINDWG
 40
2.7686980324
  9
$TDUSRTIMER
 40
2.7686414931
  9
$USRTIMER
 70
     1
  9
$ANGBASE
 50
0.0
  9
$ANGDIR
 70
     0
  9
$PDMODE
 70
     0
  9
$PDSIZE
 40
0.0
  9
$PLINEWID
 40
0.0
  9
$SPLFRAME
 70
     0
  9
$SPLINETYPE
 70
     6
  9
$SPLINESEGS
 70
     8
  9
$HANDSEED
  5
56197
  9
$SURFTAB1
 70
     6
  9
$SURFTAB2
 70
     6
  9
$SURFTYPE
 70
     6
  9
$SURFU
 70
     6
  9
$SURFV
 70
     6
  9
$UCSBASE
  2

  9
$UCSNAME
  2

  9
$UCSORG
 10
0.0
 20
0.0
 30
0.0
  9
$UCSXDIR
 10
1.0
 20
0.0
 30
0.0
  9
$UCSYDIR
 10
0.0
 20
1.0
 30
0.0
  9
$UCSORTHOREF
  2

  9
$UCSORTHOVIEW
 70
     0
  9
$UCSORGTOP
 10
0.0
 20
0.0
 30
0.0
  9
$UCSORGBOTTOM
 10
0.0
 20
0.0
 30
0.0
  9
$UCSORGLEFT
 10
0.0
 20
0.0
 30
0.0
  9
$UCSORGRIGHT
 10
0.0
 20
0.0
 30
0.0
  9
$UCSORGFRONT
 10
0.0
 20
0.0
 30
0.0
  9
$UCSORGBACK
 10
0.0
 20
0.0
 30
0.0
  9
$PUCSBASE
  2

  9
$PUCSNAME
  2

  9
$PUCSORG
 10
0.0
 20
0.0
 30
0.0
  9
$PUCSXDIR
 10
1.0
 20
0.0
 30
0.0
  9
$PUCSYDIR
 10
0.0
 20
1.0
 30
0.0
  9
$PUCSORTHOREF
  2

  9
$PUCSORTHOVIEW
 70
     0
  9
$PUCSORGTOP
 10
0.0
 20
0.0
 30
0.0
  9
$PUCSORGBOTTOM
 10
0.0
 20
0.0
 30
0.0
  9
$PUCSORGLEFT
 10
0.0
 20
0.0
 30
0.0
  9
$PUCSORGRIGHT
 10
0.0
 20
0.0
 30
0.0
  9
$PUCSORGFRONT
 10
0.0
 20
0.0
 30
0.0
  9
$PUCSORGBACK
 10
0.0
 20
0.0
 30
0.0
  9
$USERI1
 70
     0
  9
$USERI2
 70
     0
  9
$USERI3
 70
     0
  9
$USERI4
 70
     0
  9
$USERI5
 70
     0
  9
$USERR1
 40
0.0
  9
$USERR2
 40
0.0
  9
$USERR3
 40
0.0
  9
$USERR4
 40
0.0
  9
$USERR5
 40
0.0
  9
$WORLDVIEW
 70
     1
  9
$SHADEDGE
 70
     3
  9
$SHADEDIF
 70
    70
  9
$TILEMODE
 70
     1
  9
$MAXACTVP
 70
    64
  9
$PINSBASE
 10
0.0
 20
0.0
 30
0.0
  9
$PLIMCHECK
 70
     0
  9
$PEXTMIN
 10
26.66999878883364
 20
20.31999878883365
 30
0.0
  9
$PEXTMAX
 10
240.0299890995025
 20
182.8799890995025
 30
0.0
  9
$PLIMMIN
 10
-6.350006103515625
 20
-6.349999904632567
  9
$PLIMMAX
 10
273.0499877929688
 20
209.5499939918518
  9
$UNITMODE
 70
     0
  9
$VISRETAIN
 70
     1
  9
$PLINEGEN
 70
     0
  9
$PSLTSCALE
 70
     1
  9
$TREEDEPTH
 70
  3020
  9
$CMLSTYLE
  2
Standard
  9
$CMLJUST
 70
     0
  9
$CMLSCALE
 40
20.0
  9
$PROXYGRAPHICS
 70
     1
  9
$MEASUREMENT
 70
     1
  9
$CELWEIGHT
370
    -1
  9
$ENDCAPS
280
     0
  9
$JOINSTYLE
280
     0
  9
$LWDISPLAY
290
     0
  9
$INSUNITS
 70
     4
  9
$HYPERLINKBASE
  1

  9
$STYLESHEET
  1

  9
$XEDIT
290
     1
  9
$CEPSNTYPE
380
     0
  9
$PSTYLEMODE
290
     1
  9
$FINGERPRINTGUID
  2
{601DDA01-5B13-4A4C-8F56-1333B78D855B}
  9
$VERSIONGUID
  2
{11B642E4-AE22-4E91-BDDD-2C184EC8AF4F}
  9
$EXTNAMES
290
     1
  9
$PSVPSCALE
 40
0.0
  9
$OLESTARTUP
290
     0
  0
ENDSEC
  0
SECTION
  2
CLASSES
  0
CLASS
  1
ACDBDICTIONARYWDFLT
  2
AcDbDictionaryWithDefault
  3
ObjectDBX Classes
 90
        0
280
     0
281
     0
  0
CLASS
  1
ACDBPLACEHOLDER
  2
AcDbPlaceHolder
  3
ObjectDBX Classes
 90
        0
280
     0
281
     0
  0
CLASS
  1
LAYOUT
  2
AcDbLayout
  3
ObjectDBX Classes
 90
        0
280
     0
281
     0
  0
CLASS
  1
DICTIONARYVAR
  2
AcDbDictionaryVar
  3
ObjectDBX Classes
 90
        0
280
     0
281
     0
  0
CLASS
  1
TABLESTYLE
  2
AcDbTableStyle
  3
ObjectDBX Classes
 90
     2047
280
     0
281
     0
  0
CLASS
  1
SORTENTSTABLE
  2
AcDbSortentsTable
  3
ObjectDBX Classes
 90
        0
280
     0
281
     0
  0
CLASS
  1
DIMASSOC
  2
AcDbDimAssoc
  3
"AcDbDimAssoc|Product Desc:     AcDim ARX App For Dimension|Company:          Autodesk, Inc.|WEB Address:      www.autodesk.com"
 90
        0
280
     0
281
     0
  0
CLASS
  1
ACAD_EVALUATION_GRAPH
  2
AcDbEvalGraph
  3
ObjectDBX Classes
 90
    33921
280
     0
281
     0
  0
CLASS
  1
ACAECUSTOBJ
  2
AcAeEditorObj
  3
AcAeEditorObj
 90
    33792
280
     0
281
     0
  0
CLASS
  1
ACDB_DYNAMICBLOCKPURGEPREVENTER_VERSION
  2
AcDbDynamicBlockPurgePreventer
  3
ObjectDBX Classes
 90
    33921
280
     0
281
     0
  0
ENDSEC
  0
SECTION
  2
TABLES
  0
TABLE
  2
VPORT
  5
8
330
0
100
AcDbSymbolTable
 70
     8
  0
VPORT
  5
56188
330
8
100
AcDbSymbolTableRecord
100
AcDbViewportTableRecord
  2
*Active
 70
     0
 10
0.0
 20
0.0
 11
1.0
 21
1.0
 12
-15.84654326205839
 22
-15.08517452019441
 13
0.0
 23
0.0
 14
10.0
 24
10.0
 15
10.0
 25
10.0
 16
0.0
 26
0.0
 36
1.0
 17
0.0
 27
0.0
 37
0.0
 40
383.9977632615191
 41
1.508350730688935
 42
50.0
 43
0.0
 44
0.0
 50
0.0
 51
0.0
 71
     0
 72
  1000
 73
     1
 74
     1
 75
     0
 76
     0
 77
     0
 78
     0
281
     0
 65
     1
110
0.0
120
0.0
130
0.0
111
1.0
121
0.0
131
0.0
112
0.0
122
1.0
132
0.0
 79
     0
146
0.0
  0
ENDTAB
  0
TABLE
  2
LTYPE
  5
5
330
0
100
AcDbSymbolTable
 70
     4
  0
LTYPE
  5
14
330
5
100
AcDbSymbolTableRecord
100
AcDbLinetypeTableRecord
  2
ByBlock
 70
     0
  3

 72
    65
 73
     0
 40
0.0
  0
LTYPE
  5
15
330
5
100
AcDbSymbolTableRecord
100
AcDbLinetypeTableRecord
  2
ByLayer
 70
     0
  3

 72
    65
 73
     0
 40
0.0
  0
LTYPE
  5
16
330
5
100
AcDbSymbolTableRecord
100
AcDbLinetypeTableRecord
  2
Continuous
 70
     0
  3
Solid line
 72
    65
 73
     0
 40
0.0
  0
LTYPE
  5
D7
330
5
100
AcDbSymbolTableRecord
100
AcDbLinetypeTableRecord
  2
HIDDEN
 70
     0
  3
Hidden __ __ __ __ __ __ __ __ __ __ __ __ __ _
 72
    65
 73
     2
 40
9.524999999999996
 49
6.349999999999997
 74
     0
 49
-3.174999999999998
 74
     0
  0
LTYPE
  5
D9
330
5
100
AcDbSymbolTableRecord
100
AcDbLinetypeTableRecord
  2
CENTER
 70
     0
  3
Center ____ _ ____ _ ____ _ ____ _ ____ _ ____
 72
    65
 73
     4
 40
50.8
 49
31.75
 74
     0
 49
-6.349999999999997
 74
     0
 49
6.349999999999997
 74
     0
 49
-6.349999999999997
 74
     0
  0
LTYPE
  5
35815
330
5
100
AcDbSymbolTableRecord
100
AcDbLinetypeTableRecord
  2
PHANTOM
 70
     0
  3
_____ _ _ _____ _ _ _____ _ _ _____
 72
    65
 73
     6
 40
0.8
 49
0.45
 74
     0
 49
-0.05
 74
     0
 49
0.1
 74
     0
 49
-0.05
 74
     0
 49
0.1
 74
     0
 49
-0.05
 74
     0
  0
ENDTAB
  0
TABLE
  2
LAYER
  5
2
102
{ACAD_XDICTIONARY
360
E2
102
}
330
0
100
AcDbSymbolTable
 70
    14
  0
LAYER
  5
10
330
2
100
AcDbSymbolTableRecord
100
AcDbLayerTableRecord
  2
0
 70
     0
 62
     7
  6
Continuous
370
    -3
390
F
  0
LAYER
  5
D1
330
2
100
AcDbSymbolTableRecord
100
AcDbLayerTableRecord
  2
1
 70
     0
 62
     4
  6
Continuous
370
    50
390
F
1001
AcAecLayerStandard
1000

1000

  0
LAYER
  5
D3
330
2
100
AcDbSymbolTableRecord
100
AcDbLayerTableRecord
  2
2
 70
     0
 62
     7
  6
Continuous
370
    25
390
F
1001
AcAecLayerStandard
1000

1000

  0
LAYER
  5
D4
330
2
100
AcDbSymbolTableRecord
100
AcDbLayerTableRecord
  2
3
 70
     0
 62
     1
  6
HIDDEN
370
    35
390
F
1001
AcAecLayerStandard
1000

1000

  0
LAYER
  5
D8
330
2
100
AcDbSymbolTableRecord
100
AcDbLayerTableRecord
  2
4
 70
     0
 62
     2
  6
CENTER
370
    25
390
F
1001
AcAecLayerStandard
1000

1000

  0
LAYER
  5
DA
330
2
100
AcDbSymbolTableRecord
100
AcDbLayerTableRecord
  2
6
 70
     0
 62
     5
  6
Continuous
370
    35
390
F
1001
AcAecLayerStandard
1000

1000

  0
LAYER
  5
DB
330
2
100
AcDbSymbolTableRecord
100
AcDbLayerTableRecord
  2
cut
 70
     0
 62
     1
  6
Continuous
370
    25
390
F
1001
AcAecLayerStandard
1000

1000

  0
LAYER
  5
DC
330
2
100
AcDbSymbolTableRecord
100
AcDbLayerTableRecord
  2
nocut
 70
     0
 62
     7
  6
Continuous
370
    25
390
F
1001
AcAecLayerStandard
1000

1000

  0
LAYER
  5
DD
330
2
100
AcDbSymbolTableRecord
100
AcDbLayerTableRecord
  2
sk1
 70
     0
 62
     4
  6
Continuous
370
    50
390
F
1001
AcAecLayerStandard
1000

1000

  0
LAYER
  5
DE
330
2
100
AcDbSymbolTableRecord
100
AcDbLayerTableRecord
  2
sk2
 70
     0
 62
     7
  6
Continuous
370
    25
390
F
1001
AcAecLayerStandard
1000

1000

  0
LAYER
  5
DF
330
2
100
AcDbSymbolTableRecord
100
AcDbLayerTableRecord
  2
sk3
 70
     0
 62
     1
  6
HIDDEN
370
    35
390
F
1001
AcAecLayerStandard
1000

1000

  0
LAYER
  5
E0
330
2
100
AcDbSymbolTableRecord
100
AcDbLayerTableRecord
  2
sk4
 70
     0
 62
     2
  6
CENTER
370
    25
390
F
1001
AcAecLayerStandard
1000

1000

  0
LAYER
  5
E1
330
2
100
AcDbSymbolTableRecord
100
AcDbLayerTableRecord
  2
sk6
 70
     0
 62
     5
  6
Continuous
370
    35
390
F
1001
AcAecLayerStandard
1000

1000

  0
LAYER
  5
31B6
330
2
100
AcDbSymbolTableRecord
100
AcDbLayerTableRecord
  2
Defpoints
 70
     0
 62
     7
  6
Continuous
290
     0
370
    -3
390
F
  0
ENDTAB
  0
TABLE
  2
STYLE
  5
3
330
0
100
AcDbSymbolTable
 70
    12
  0
STYLE
  5
11
330
3
100
AcDbSymbolTableRecord
100
AcDbTextStyleTableRecord
  2
Standard
 70
     0
 40
0.0
 41
1.0
 50
0.0
 71
     0
 42
2.5
  3
txt.shx
  4
@extfont2.shx
  0
STYLE
  5
D6
330
3
100
AcDbSymbolTableRecord
100
AcDbTextStyleTableRecord
  2

 70
     1
 40
0.0
 41
1.0
 50
0.0
 71
     0
 42
2.5
  3
ltypeshp.shx
  4

  0
STYLE
  5
24A
330
3
100
AcDbSymbolTableRecord
100
AcDbTextStyleTableRecord
  2
simplex
 70
     0
 40
3.5
 41
1.0
 50
0.0
 71
     0
 42
3.5
  3
txt.shx
  4

  0
STYLE
  5
69E
330
3
100
AcDbSymbolTableRecord
100
AcDbTextStyleTableRecord
  2
MX_NOTE_STANDARD
 70
     0
 40
0.0
 41
1.0
 50
0.0
 71
     0
 42
4.2
  3
txt.shx
  4
extfont.shx
  0
STYLE
  5
3524
330
3
100
AcDbSymbolTableRecord
100
AcDbTextStyleTableRecord
  2
TEXTSTYLE_2
 70
     0
 40
0.0
 41
0.775
 50
0.0
 71
     0
 42
0.2
  3
gdt
  4

  0
STYLE
  5
3525
330
3
100
AcDbSymbolTableRecord
100
AcDbTextStyleTableRecord
  2
TEXTSTYLE_3
 70
     0
 40
0.0
 41
0.75
 50
0.0
 71
     0
 42
0.2
  3
txt
  4

  0
STYLE
  5
3526
330
3
100
AcDbSymbolTableRecord
100
AcDbTextStyleTableRecord
  2
TEXTSTYLE_13
 70
     0
 40
0.0
 41
1.0
 50
0.0
 71
     0
 42
0.2
  3
txt
  4

  0
STYLE
  5
519A
330
3
100
AcDbSymbolTableRecord
100
AcDbTextStyleTableRecord
  2
TEXTSTYLE_14
 70
     0
 40
0.0
 41
1.0
 50
0.0
 71
     0
 42
0.2
  3
txt
  4

  0
STYLE
  5
6F72
330
3
100
AcDbSymbolTableRecord
100
AcDbTextStyleTableRecord
  2
TEXTSTYLE_4
 70
     0
 40
0.0
 41
0.75
 50
0.0
 71
     0
 42
0.2
  3
txt
  4

  0
STYLE
  5
6F73
330
3
100
AcDbSymbolTableRecord
100
AcDbTextStyleTableRecord
  2
TEXTSTYLE_17
 70
     0
 40
0.0
 41
1.0
 50
0.0
 71
     0
 42
0.2
  3
txt
  4

  0
STYLE
  5
FE12
330
3
100
AcDbSymbolTableRecord
100
AcDbTextStyleTableRecord
  2
TEXTSTYLE_12
 70
     0
 40
0.0
 41
1.0
 50
0.0
 71
     0
 42
0.2
  3
txt
  4

  0
STYLE
  5
3AAB8
330
3
100
AcDbSymbolTableRecord
100
AcDbTextStyleTableRecord
  2
TEXTSTYLE_20
 70
     0
 40
0.0
 41
0.6
 50
0.0
 71
     0
 42
0.2
  3
txt
  4

  0
ENDTAB
  0
TABLE
  2
VIEW
  5
6
330
0
100
AcDbSymbolTable
 70
     0
  0
ENDTAB
  0
TABLE
  2
UCS
  5
7
330
0
100
AcDbSymbolTable
 70
     0
  0
ENDTAB
  0
TABLE
  2
APPID
  5
9
330
0
100
AcDbSymbolTable
 70
    11
  0
APPID
  5
12
330
9
100
AcDbSymbolTableRecord
100
AcDbRegAppTableRecord
  2
ACAD
 70
     0
  0
APPID
  5
D2
330
9
100
AcDbSymbolTableRecord
100
AcDbRegAppTableRecord
  2
AcAecLayerStandard
 70
     0
  0
APPID
  5
E6
330
9
100
AcDbSymbolTableRecord
100
AcDbRegAppTableRecord
  2
ACAD_DSTYLE_DIMTEXT_FILL
 70
     0
  0
APPID
  5
4C84
330
9
100
AcDbSymbolTableRecord
100
AcDbRegAppTableRecord
  2
ACAD_EXEMPT_FROM_CAD_STANDARDS
 70
     0
  0
APPID
  5
3493E
330
9
100
AcDbSymbolTableRecord
100
AcDbRegAppTableRecord
  2
DCO15
 70
     0
  0
APPID
  5
3BAB0
330
9
100
AcDbSymbolTableRecord
100
AcDbRegAppTableRecord
  2
ACAD_DSTYLE_DIMEXT_ENABLED
 70
     0
  0
APPID
  5
3BAB1
330
9
100
AcDbSymbolTableRecord
100
AcDbRegAppTableRecord
  2
ACAD_DSTYLE_DIMEXT_LENGTH
 70
     0
  0
APPID
  5
3BEB4
330
9
100
AcDbSymbolTableRecord
100
AcDbRegAppTableRecord
  2
ACAUTHENVIRON
 70
     0
  0
APPID
  5
3BEB7
330
9
100
AcDbSymbolTableRecord
100
AcDbRegAppTableRecord
  2
AcDbDynamicBlockTrueName
 70
     0
  0
APPID
  5
3BEB8
330
9
100
AcDbSymbolTableRecord
100
AcDbRegAppTableRecord
  2
AcDbDynamicBlockGUID
 70
     0
  0
APPID
  5
3BEBA
330
9
100
AcDbSymbolTableRecord
100
AcDbRegAppTableRecord
  2
AcDbBlockRepETag
 70
     0
  0
ENDTAB
  0
TABLE
  2
DIMSTYLE
  5
A
330
0
100
AcDbSymbolTable
 70
    11
100
AcDbDimStyleTable
 71
     5
340
1BF
340
27
340
352A
340
3527
340
69F
  0
DIMSTYLE
105
27
330
A
100
AcDbSymbolTableRecord
100
AcDbDimStyleTableRecord
  2
ISO-25
 70
     0
 41
2.5
 42
0.625
 43
3.75
 44
1.25
 73
     0
 74
     0
 77
     1
 78
     8
140
2.5
141
2.5
143
0.03937007874016
147
0.625
171
     3
172
     1
271
     2
272
     2
274
     3
278
    44
283
     0
284
     8
340
11
  0
DIMSTYLE
105
1BF
102
{ACAD_REACTORS
330
55875
330
558BA
330
55973
330
5597C
330
5597D
330
5598D
330
5598E
102
}
330
A
100
AcDbSymbolTableRecord
100
AcDbDimStyleTableRecord
  2
\M+18352\M+18373\M+1815B - ISO-25
 70
     0
 40
0.0
 41
3.5
 42
0.0
 44
1.5
 73
     0
 74
     0
 77
     1
 78
     8
140
3.5
147
2.299999999999998
176
   256
177
   256
178
   256
271
     2
272
     2
284
     8
340
24A
371
    -1
372
    -1
  0
DIMSTYLE
105
69F
330
A
100
AcDbSymbolTableRecord
100
AcDbDimStyleTableRecord
  2
MXDIMSTYLE
 70
     0
 41
2.5
 42
0.5
 43
3.75
 44
1.5
 73
     0
 74
     0
 77
     1
 78
     8
140
4.2
141
2.5
143
0.03937
147
1.0
171
     4
172
     1
173
     1
271
     2
272
     2
274
     4
283
     0
288
     1
340
69E
341
697
343
697
344
697
  0
DIMSTYLE
105
3527
330
A
100
AcDbSymbolTableRecord
100
AcDbDimStyleTableRecord
  2
STANDARD
 70
     0
 41
3.0
 47
0.001
 48
0.001
 71
     1
 73
     0
 74
     0
 77
     1
 78
     8
140
4.0
271
     3
272
     3
284
     8
340
11
341
34B1
342
34B1
343
34B1
344
34B1
  0
DIMSTYLE
105
3528
330
A
100
AcDbSymbolTableRecord
100
AcDbDimStyleTableRecord
  2
DIMSTYLE_1
 70
     0
 41
3.0
 73
     0
 74
     0
 77
     1
 78
     8
140
4.0
271
     3
272
     3
284
     8
340
11
341
34B1
342
34B1
343
34B1
344
34B1
  0
DIMSTYLE
105
3529
330
A
100
AcDbSymbolTableRecord
100
AcDbDimStyleTableRecord
  2
DIMSTYLE_2
 70
     0
 41
3.0
 47
0.001
 48
0.001
 73
     0
 74
     0
 77
     1
 78
     8
140
4.0
271
     3
272
     3
284
     8
340
11
341
34B1
342
34B1
343
34B1
344
34B1
  0
DIMSTYLE
105
352A
330
A
100
AcDbSymbolTableRecord
100
AcDbDimStyleTableRecord
  2
DIMSTYLE_3
 70
     0
 41
3.0
 47
-0.1
 48
0.3
 71
     1
 73
     0
 74
     0
 77
     1
 78
     8
140
4.0
146
0.5
271
     3
272
     3
284
     8
340
11
341
34B1
342
34B1
343
34B1
344
34B1
  0
DIMSTYLE
105
352B
330
A
100
AcDbSymbolTableRecord
100
AcDbDimStyleTableRecord
  2
DIMSTYLE_4
 70
     0
 41
3.0
 47
0.1
 48
0.1
 71
     1
 73
     0
 74
     0
 77
     1
 78
     8
140
4.0
271
     3
272
     3
284
     8
340
11
341
34B1
342
34B1
343
34B1
344
34B1
  0
DIMSTYLE
105
27245
330
A
100
AcDbSymbolTableRecord
100
AcDbDimStyleTableRecord
  2
DIMSTYLE_5
 70
     0
 41
3.0
 47
0.001
 48
0.001
 73
     0
 74
     0
 77
     1
 78
     8
140
4.0
271
     3
272
     3
284
     8
340
11
341
34B1
342
34B1
343
34B1
344
34B1
  0
DIMSTYLE
105
3AAB9
330
A
100
AcDbSymbolTableRecord
100
AcDbDimStyleTableRecord
  2
DIMSTYLE_6
 70
     0
 41
3.0
 42
0.0
 44
1.0
 47
0.05
 48
0.05
 71
     1
 73
     0
 74
     0
 77
     1
 78
     8
140
4.0
147
1.0
271
     3
272
     3
284
     8
340
11
341
34B1
342
34B1
343
34B1
344
34B1
  0
DIMSTYLE
105
532EA
330
A
100
AcDbSymbolTableRecord
100
AcDbDimStyleTableRecord
  2
NEW-DIMSTYLE
 70
     0
 40
0.0
 41
4.57
 42
0.0
 44
5.0
 73
     0
 74
     0
 77
     1
 78
     8
140
4.57
147
2.299999999999998
271
     2
340
24A
  0
ENDTAB
  0
TABLE
  2
BLOCK_RECORD
  5
1
330
0
100
AcDbSymbolTable
 70
   151
  0
BLOCK_RECORD
  5
1F
102
{ACAD_XDICTIONARY
360
31EE
102
}
330
1
100
AcDbSymbolTableRecord
100
AcDbBlockTableRecord
  2
*Model_Space
340
22
  0
BLOCK_RECORD
  5
50
330
1
100
AcDbSymbolTableRecord
100
AcDbBlockTableRecord
  2
*Paper_Space
340
51
  0
BLOCK_RECORD
  5
55
330
1
100
AcDbSymbolTableRecord
100
AcDbBlockTableRecord
  2
*Paper_Space0
340
56
  0
BLOCK_RECORD
  5
680
102
{ACAD_XDICTIONARY
360
3BEB2
102
}
330
1
100
AcDbSymbolTableRecord
100
AcDbBlockTableRecord
  2
zero block
340
0
102
{BLKREFS
331
68C
102
}
1001
ACAD
1000
DesignCenter Data
1002
{
1070
     1
1070
     4
1002
}
1001
AcDbDynamicBlockGUID
1000
{C2E8894D-A8DA-456D-ABB6-198B00672C1A}
1001
AcDbBlockRepETag
1070
     1
1071
        7
  0
BLOCK_RECORD
  5
697
330
1
100
AcDbSymbolTableRecord
100
AcDbBlockTableRecord
  2
_OPEN30
340
0
  0
BLOCK_RECORD
  5
34B1
330
1
100
AcDbSymbolTableRecord
100
AcDbBlockTableRecord
  2
_OPEN
340
0
  0
BLOCK_RECORD
  5
50E6F
330
1
100
AcDbSymbolTableRecord
100
AcDbBlockTableRecord
  2
_None
340
0
  0
BLOCK_RECORD
  5
546C0
330
1
100
AcDbSymbolTableRecord
100
AcDbBlockTableRecord
  2
*D10
340
0
  0
BLOCK_RECORD
  5
5599A
330
1
100
AcDbSymbolTableRecord
100
AcDbBlockTableRecord
  2
*D87
340
0
  0
BLOCK_RECORD
  5
559B0
330
1
100
AcDbSymbolTableRecord
100
AcDbBlockTableRecord
  2
*D89
340
0
  0
BLOCK_RECORD
  5
559BD
330
1
100
AcDbSymbolTableRecord
100
AcDbBlockTableRecord
  2
*D90
340
0
  0
BLOCK_RECORD
  5
559CA
330
1
100
AcDbSymbolTableRecord
100
AcDbBlockTableRecord
  2
*D91
340
0
  0
BLOCK_RECORD
  5
559D7
330
1
100
AcDbSymbolTableRecord
100
AcDbBlockTableRecord
  2
*D92
340
0
  0
BLOCK_RECORD
  5
559E3
330
1
100
AcDbSymbolTableRecord
100
AcDbBlockTableRecord
  2
*D93
340
0
  0
BLOCK_RECORD
  5
55A2C
330
1
100
AcDbSymbolTableRecord
100
AcDbBlockTableRecord
  2
*D99
340
0
  0
ENDTAB
  0
ENDSEC
  0
SECTION
  2
BLOCKS
  0
BLOCK
  5
20
330
1F
100
AcDbEntity
  8
0
100
AcDbBlockBegin
  2
*Model_Space
 70
     0
 10
0.0
 20
0.0
 30
0.0
  3
*Model_Space
  1

  0
ENDBLK
  5
21
330
1F
100
AcDbEntity
  8
0
100
AcDbBlockEnd
  0
BLOCK
  5
52
330
50
100
AcDbEntity
 67
     1
  8
0
100
AcDbBlockBegin
  2
*Paper_Space
 70
     0
 10
0.0
 20
0.0
 30
0.0
  3
*Paper_Space
  1

  0
ENDBLK
  5
53
330
50
100
AcDbEntity
 67
     1
  8
0
100
AcDbBlockEnd
  0
BLOCK
  5
57
330
55
100
AcDbEntity
 67
     1
  8
0
100
AcDbBlockBegin
  2
*Paper_Space0
 70
     0
 10
0.0
 20
0.0
 30
0.0
  3
*Paper_Space0
  1

  0
VIEWPORT
  5
71
102
{ACAD_XDICTIONARY
360
56193
102
}
330
55
100
AcDbEntity
 67
     1
  8
0
100
AcDbViewport
 10
150.1652135264906
 20
101.599997546291
 30
0.0
 40
339.1973820494347
 41
164.5360435314421
 68
     0
 69
     0
 12
150.1652135264906
 22
101.599997546291
 13
0.0
 23
0.0
 14
10.0
 24
10.0
 15
10.0
 25
10.0
 16
0.0
 26
0.0
 36
1.0
 17
0.0
 27
0.0
 37
0.0
 42
50.0
 43
0.0
 44
0.0
 45
164.5360435314421
 50
0.0
 51
0.0
 72
  1000
 90
    32864
  1

281
     0
 71
     1
 74
     0
110
0.0
120
0.0
130
0.0
111
1.0
121
0.0
131
0.0
112
0.0
122
1.0
132
0.0
 79
     0
146
0.0
  0
VIEWPORT
  5
73
102
{ACAD_XDICTIONARY
360
56195
102
}
330
55
100
AcDbEntity
 67
     1
  8
0
100
AcDbViewport
 10
133.3499939441681
 20
101.5999939441681
 30
0.0
 40
213.3599903106689
 41
162.5599903106689
 68
     0
 69
     0
 12
210.0
 22
148.5
 13
0.0
 23
0.0
 14
10.0
 24
10.0
 15
10.0
 25
10.0
 16
0.0
 26
0.0
 36
1.0
 17
0.0
 27
0.0
 37
0.0
 42
50.0
 43
0.0
 44
0.0
 45
324.0677920111345
 50
0.0
 51
0.0
 72
   100
 90
    32864
  1

281
     0
 71
     1
 74
     0
110
0.0
120
0.0
130
0.0
111
1.0
121
0.0
131
0.0
112
0.0
122
1.0
132
0.0
 79
     0
146
0.0
  0
ENDBLK
  5
58
330
55
100
AcDbEntity
 67
     1
  8
0
100
AcDbBlockEnd
  0
BLOCK
  5
68A
330
680
100
AcDbEntity
  8
0
100
AcDbBlockBegin
  2
zero block
 70
     0
 10
0.0
 20
0.0
 30
0.0
  3
zero block
  1

  0
HATCH
  5
3BEAB
330
680
100
AcDbEntity
  8
0
 62
     7
100
AcDbHatch
 10
0.0
 20
0.0
 30
0.0
210
0.0
220
0.0
230
1.0
  2
SOLID
 70
     1
 71
     0
 91
        2
 92
        7
 72
     1
 73
     1
 93
        3
 10
0.0
 20
0.9999999999999875
 42
0.4142135623730915
 10
-1.0
 20
0.0
 42
0.0
 10
0.0
 20
0.0
 42
0.0
 97
        0
 92
        7
 72
     1
 73
     1
 93
        3
 10
1.000000000000007
 20
0.0
 42
0.0
 10
0.0
 20
0.0
 42
0.0
 10
0.0
 20
-1.0
 42
0.4142135623730974
 97
        0
 75
     0
 76
     1
 47
0.0090601366782909
 98
        2
 10
-0.380591363650975
 20
0.4885804701532896
 10
0.4350764810977559
 20
-0.4536738423704725
1001
AcDbBlockRepETag
1070
     1
1071
        0
1005
3BEAB
  0
LINE
  5
3BEAC
330
680
100
AcDbEntity
  8
0
 62
     7
 48
0.2
100
AcDbLine
 10
-1.0
 20
0.0
 30
0.0
 11
1.000000000000007
 21
0.0
 31
0.0
1001
AcDbBlockRepETag
1070
     1
1071
        1
1005
3BEAC
  0
LINE
  5
3BEAD
330
680
100
AcDbEntity
  8
0
 62
     7
 48
0.2
100
AcDbLine
 10
0.0
 20
-1.0
 30
0.0
 11
0.0
 21
0.9999999999999875
 31
0.0
1001
AcDbBlockRepETag
1070
     1
1071
        2
1005
3BEAD
  0
ARC
  5
3BEAE
330
680
100
AcDbEntity
  8
0
 62
     7
 48
0.2
100
AcDbCircle
 10
0.0
 20
0.0
 30
0.0
 40
1.0
100
AcDbArc
 50
270.0
 51
0.0
1001
AcDbBlockRepETag
1070
     1
1071
        3
1005
3BEAE
  0
ARC
  5
3BEAF
330
680
100
AcDbEntity
  8
0
 62
     7
 48
0.2
100
AcDbCircle
 10
0.0
 20
0.0
 30
0.0
 40
1.0
100
AcDbArc
 50
0.0
 51
90.0
1001
AcDbBlockRepETag
1070
     1
1071
        4
1005
3BEAF
  0
ARC
  5
3BEB0
330
680
100
AcDbEntity
  8
0
 62
     7
 48
0.2
100
AcDbCircle
 10
0.0
 20
0.0
 30
0.0
 40
1.0
100
AcDbArc
 50
180.0
 51
270.0
1001
AcDbBlockRepETag
1070
     1
1071
        5
1005
3BEB0
  0
ARC
  5
3BEB1
330
680
100
AcDbEntity
  8
0
 62
     7
 48
0.2
100
AcDbCircle
 10
0.0
 20
0.0
 30
0.0
 40
1.0
100
AcDbArc
 50
90.0
 51
180.0
1001
AcDbBlockRepETag
1070
     1
1071
        6
1005
3BEB1
  0
ENDBLK
  5
68B
330
680
100
AcDbEntity
  8
0
100
AcDbBlockEnd
  0
BLOCK
  5
698
330
697
100
AcDbEntity
  8
0
  6
ByBlock
 62
     0
370
    -2
100
AcDbBlockBegin
  2
_OPEN30
 70
     2
 10
0.0
 20
0.0
 30
0.0
  3
_OPEN30
  1

  0
LINE
  5
699
330
697
100
AcDbEntity
  8
0
  6
ByBlock
 62
     0
370
    -2
100
AcDbLine
 10
-1.0
 20
0.267949
 30
0.0
 11
0.0
 21
0.0
 31
0.0
  0
LINE
  5
69A
330
697
100
AcDbEntity
  8
0
  6
ByBlock
 62
     0
370
    -2
100
AcDbLine
 10
0.0
 20
0.0
 30
0.0
 11
-1.0
 21
-0.267949
 31
0.0
  0
LINE
  5
69B
330
697
100
AcDbEntity
  8
0
  6
ByBlock
 62
     0
370
    -2
100
AcDbLine
 10
0.0
 20
0.0
 30
0.0
 11
-1.0
 21
0.0
 31
0.0
  0
ENDBLK
  5
69C
330
697
100
AcDbEntity
  8
0
  6
ByBlock
 62
     0
370
    -2
100
AcDbBlockEnd
  0
BLOCK
  5
34B2
330
34B1
100
AcDbEntity
  8
0
100
AcDbBlockBegin
  2
_OPEN
 70
     0
 10
0.0
 20
0.0
 30
0.0
  3
_OPEN
  1

  0
LINE
  5
34B3
330
34B1
100
AcDbEntity
  8
0
  6
ByBlock
 62
     0
100
AcDbLine
 10
0.0
 20
0.0
 30
0.0
 11
-1.0
 21
0.1766666667
 31
0.0
  0
LINE
  5
34B4
330
34B1
100
AcDbEntity
  8
0
  6
ByBlock
 62
     0
100
AcDbLine
 10
-1.0
 20
-0.1766666667
 30
0.0
 11
0.0
 21
0.0
 31
0.0
  0
LINE
  5
34B5
330
34B1
100
AcDbEntity
  8
0
  6
ByBlock
 62
     0
100
AcDbLine
 10
-1.0
 20
0.0
 30
0.0
 11
0.0
 21
0.0
 31
0.0
  0
ENDBLK
  5
34B6
330
34B1
100
AcDbEntity
  8
0
  6
ByBlock
 62
     0
100
AcDbBlockEnd
  0
BLOCK
  5
50E70
330
50E6F
100
AcDbEntity
  8
0
100
AcDbBlockBegin
  2
_None
 70
     0
 10
0.0
 20
0.0
 30
0.0
  3
_None
  1

  0
ENDBLK
  5
50E71
330
50E6F
100
AcDbEntity
  8
0
100
AcDbBlockEnd
  0
BLOCK
  5
546CA
330
546C0
100
AcDbEntity
  8
0
100
AcDbBlockBegin
  2
*D10
 70
     1
 10
0.0
 20
0.0
 30
0.0
  3
*D10
  1

  0
LINE
  5
54F0C
330
546C0
100
AcDbEntity
  8
sk2
100
AcDbLine
 10
526.9798698794357
 20
-35.62431591575516
 30
0.0
 11
526.9798698794357
 21
16.67806000473337
 31
0.0
  0
LINE
  5
54F0D
330
546C0
100
AcDbEntity
  8
sk2
100
AcDbLine
 10
346.0048698794358
 20
-27.29931891660432
 30
0.0
 11
346.0048698794358
 21
16.67806000473337
 31
0.0
  0
LINE
  5
54F0E
330
546C0
100
AcDbEntity
  8
sk2
100
AcDbLine
 10
523.4798698794357
 20
15.17806000473337
 30
0.0
 11
349.5048698794358
 21
15.17806000473337
 31
0.0
  0
SOLID
  5
54F0F
330
546C0
100
AcDbEntity
  8
sk2
100
AcDbTrace
 10
523.4798698794357
 20
15.76139333806671
 30
0.0
 11
523.4798698794357
 21
14.59472667140004
 31
0.0
 12
526.9798698794357
 22
15.17806000473337
 32
0.0
 13
526.9798698794357
 23
15.17806000473337
 33
0.0
  0
SOLID
  5
54F10
330
546C0
100
AcDbEntity
  8
sk2
100
AcDbTrace
 10
349.5048698794358
 20
15.76139333806671
 30
0.0
 11
349.5048698794358
 21
14.59472667140004
 31
0.0
 12
346.0048698794358
 22
15.17806000473337
 32
0.0
 13
346.0048698794358
 23
15.17806000473337
 33
0.0
  0
MTEXT
  5
54F11
330
546C0
100
AcDbEntity
  8
sk2
100
AcDbMText
 10
434.6587277523911
 20
19.22806000473337
 30
0.0
 40
3.5
 41
0.0
 71
     5
 72
     1
  1
\A1;180.975 [7.125"]
  7
simplex
 73
     1
 44
1.0
1001
ACAD
1000
MTEXTBEGIN
1070
    73
1070
     1
1070
    44
1040
1.0
1070
    74
1070
     0
1000
MTEXTEND
  0
POINT
  5
54F12
330
546C0
100
AcDbEntity
  8
Defpoints
 62
     0
100
AcDbPoint
 10
526.9798698794357
 20
-35.62431591575516
 30
0.0
  0
POINT
  5
54F13
330
546C0
100
AcDbEntity
  8
Defpoints
 62
     0
100
AcDbPoint
 10
346.0048698794358
 20
-27.29931891660432
 30
0.0
  0
POINT
  5
54F14
330
546C0
100
AcDbEntity
  8
Defpoints
 62
     0
100
AcDbPoint
 10
346.0048698794358
 20
15.17806000473337
 30
0.0
  0
ENDBLK
  5
546CB
330
546C0
100
AcDbEntity
  8
0
100
AcDbBlockEnd
  0
BLOCK
  5
559A3
330
5599A
100
AcDbEntity
  8
0
100
AcDbBlockBegin
  2
*D87
 70
     1
 10
0.0
 20
0.0
 30
0.0
  3
*D87
  1

  0
LINE
  5
56142
330
5599A
100
AcDbEntity
  8
2
100
AcDbLine
 10
90.0750314608315
 20
7.999999998900023
 30
0.0
 11
108.5131741521752
 21
7.999999998900018
 31
0.0
  0
LINE
  5
56143
330
5599A
100
AcDbEntity
  8
2
100
AcDbLine
 10
107.0131741521752
 20
4.499999998900018
 30
0.0
 11
107.0131741521752
 21
-8.000000000000007
 31
0.0
  0
LINE
  5
56144
330
5599A
100
AcDbEntity
  8
2
100
AcDbLine
 10
107.0131741521752
 20
-8.000000000000007
 30
0.0
 11
107.0131741521752
 21
-49.34999999999998
 31
0.0
  0
SOLID
  5
56145
330
5599A
100
AcDbEntity
  8
2
100
AcDbTrace
 10
106.4298408188419
 20
4.499999998900018
 30
0.0
 11
107.5965074855085
 21
4.499999998900018
 31
0.0
 12
107.0131741521752
 22
7.999999998900018
 32
0.0
 13
107.0131741521752
 23
7.999999998900018
 33
0.0
  0
MTEXT
  5
56146
330
5599A
100
AcDbEntity
  8
2
100
AcDbMText
 10
102.9631741521752
 20
-30.42499999999999
 30
0.0
 40
3.5
 41
0.0
 71
     5
 72
     1
  1
\A1;%%c16 [%%c.630"]
  7
simplex
 11
0.0000000000000001
 21
1.0
 31
0.0
 73
     1
 44
1.0
1001
ACAD
1000
MTEXTBEGIN
1070
    73
1070
     1
1070
    44
1040
1.0
1070
    74
1070
     0
1000
MTEXTEND
  0
POINT
  5
56147
330
5599A
100
AcDbEntity
  8
Defpoints
 62
     0
100
AcDbPoint
 10
84.07503146083149
 20
-8.0
 30
0.0
  0
POINT
  5
56148
330
5599A
100
AcDbEntity
  8
Defpoints
 62
     0
100
AcDbPoint
 10
90.0750314608315
 20
7.999999998900023
 30
0.0
  0
POINT
  5
56149
330
5599A
100
AcDbEntity
  8
Defpoints
 62
     0
100
AcDbPoint
 10
107.0131741521752
 20
7.999999998900018
 30
0.0
  0
ENDBLK
  5
559A4
330
5599A
100
AcDbEntity
  8
0
100
AcDbBlockEnd
  0
BLOCK
  5
559BB
330
559B0
100
AcDbEntity
  8
0
100
AcDbBlockBegin
  2
*D89
 70
     1
 10
0.0
 20
0.0
 30
0.0
  3
*D89
  1

  0
LINE
  5
56151
330
559B0
100
AcDbEntity
  8
2
100
AcDbLine
 10
72.07504046579618
 20
7.6875
 30
0.0
 11
72.07504046579618
 21
27.0510546606171
 31
0.0
  0
LINE
  5
56152
330
559B0
100
AcDbEntity
  8
2
100
AcDbLine
 10
92.07504046579618
 20
5.165842153849638
 30
0.0
 11
92.07504046579618
 21
27.0510546606171
 31
0.0
  0
LINE
  5
56153
330
559B0
100
AcDbEntity
  8
2
100
AcDbLine
 10
88.57504046579618
 20
25.5510546606171
 30
0.0
 11
75.57504046579618
 21
25.5510546606171
 31
0.0
  0
LINE
  5
56154
330
559B0
100
AcDbEntity
  8
2
100
AcDbLine
 10
72.07504046579618
 20
25.5510546606171
 30
0.0
 11
36.55837379912952
 21
25.5510546606171
 31
0.0
  0
SOLID
  5
56155
330
559B0
100
AcDbEntity
  8
2
100
AcDbTrace
 10
88.57504046579618
 20
26.13438799395043
 30
0.0
 11
88.57504046579618
 21
24.96772132728377
 31
0.0
 12
92.07504046579618
 22
25.5510546606171
 32
0.0
 13
92.07504046579618
 23
25.5510546606171
 33
0.0
  0
SOLID
  5
56156
330
559B0
100
AcDbEntity
  8
2
100
AcDbTrace
 10
75.57504046579618
 20
26.13438799395043
 30
0.0
 11
75.57504046579618
 21
24.96772132728377
 31
0.0
 12
72.07504046579618
 22
25.5510546606171
 32
0.0
 13
72.07504046579618
 23
25.5510546606171
 33
0.0
  0
MTEXT
  5
56157
330
559B0
100
AcDbEntity
  8
2
100
AcDbMText
 10
52.56670713246285
 20
29.6010546606171
 30
0.0
 40
3.5
 41
0.0
 71
     5
 72
     1
  1
\A1;20 [.787"]
  7
simplex
 73
     1
 44
0.892857
1001
ACAD
1000
MTEXTBEGIN
1070
    73
1070
     1
1070
    44
1040
0.892857
1070
    74
1070
     0
1000
MTEXTEND
  0
POINT
  5
56158
330
559B0
100
AcDbEntity
  8
Defpoints
 62
     0
100
AcDbPoint
 10
72.07504046579618
 20
7.6875
 30
0.0
  0
POINT
  5
56159
330
559B0
100
AcDbEntity
  8
Defpoints
 62
     0
100
AcDbPoint
 10
92.07504046579618
 20
5.165842153849638
 30
0.0
  0
POINT
  5
5615A
330
559B0
100
AcDbEntity
  8
Defpoints
 62
     0
100
AcDbPoint
 10
92.07504046579618
 20
25.5510546606171
 30
0.0
  0
ENDBLK
  5
559BC
330
559B0
100
AcDbEntity
  8
0
100
AcDbBlockEnd
  0
BLOCK
  5
559C8
330
559BD
100
AcDbEntity
  8
0
100
AcDbBlockBegin
  2
*D90
 70
     1
 10
0.0
 20
0.0
 30
0.0
  3
*D90
  1

  0
LINE
  5
5615B
330
559BD
100
AcDbEntity
  8
sk2
100
AcDbLine
 10
-87.69996403831118
 20
-9.524999999999977
 30
0.0
 11
-118.123606038311
 21
-9.524999999999968
 31
0.0
  0
LINE
  5
5615C
330
559BD
100
AcDbEntity
  8
sk2
100
AcDbLine
 10
-87.69996403831118
 20
9.525000000000034
 30
0.0
 11
-118.123606038311
 21
9.525000000000042
 31
0.0
  0
LINE
  5
5615D
330
559BD
100
AcDbEntity
  8
sk2
100
AcDbLine
 10
-116.623606038311
 20
6.025000000000042
 30
0.0
 11
-116.623606038311
 21
-6.024999999999969
 31
0.0
  0
LINE
  5
5615E
330
559BD
100
AcDbEntity
  8
sk2
100
AcDbLine
 10
-116.623606038311
 20
-9.524999999999968
 30
0.0
 11
-116.623606038311
 21
-62.28334333333345
 31
0.0
  0
SOLID
  5
5615F
330
559BD
100
AcDbEntity
  8
sk2
100
AcDbTrace
 10
-117.2069393716443
 20
6.025000000000042
 30
0.0
 11
-116.0402727049777
 21
6.025000000000042
 31
0.0
 12
-116.623606038311
 22
9.525000000000042
 32
0.0
 13
-116.623606038311
 23
9.525000000000042
 33
0.0
  0
SOLID
  5
56160
330
559BD
100
AcDbEntity
  8
sk2
100
AcDbTrace
 10
-117.2069393716443
 20
-6.024999999999969
 30
0.0
 11
-116.0402727049777
 21
-6.024999999999969
 31
0.0
 12
-116.623606038311
 22
-9.524999999999968
 32
0.0
 13
-116.623606038311
 23
-9.524999999999968
 33
0.0
  0
MTEXT
  5
56161
330
559BD
100
AcDbEntity
  8
sk2
100
AcDbMText
 10
-120.673606038311
 20
-39.56667666666681
 30
0.0
 40
3.5
 41
0.0
 71
     5
 72
     1
  1
\A1;%%c19.05 [%%C.750"]
  7
simplex
 11
0.0000000000000001
 21
1.0
 31
0.0
 73
     1
 44
0.892857
1001
ACAD
1000
MTEXTBEGIN
1070
    73
1070
     1
1070
    44
1040
0.892857
1070
    74
1070
     0
1000
MTEXTEND
  0
POINT
  5
56162
330
559BD
100
AcDbEntity
  8
Defpoints
 62
     0
100
AcDbPoint
 10
-87.69996403831118
 20
-9.524999999999977
 30
0.0
  0
POINT
  5
56163
330
559BD
100
AcDbEntity
  8
Defpoints
 62
     0
100
AcDbPoint
 10
-87.69996403831118
 20
9.525000000000034
 30
0.0
  0
POINT
  5
56164
330
559BD
100
AcDbEntity
  8
Defpoints
 62
     0
100
AcDbPoint
 10
-116.623606038311
 20
9.525000000000042
 30
0.0
  0
ENDBLK
  5
559C9
330
559BD
100
AcDbEntity
  8
0
100
AcDbBlockEnd
  0
BLOCK
  5
559D5
330
559CA
100
AcDbEntity
  8
0
100
AcDbBlockBegin
  2
*D91
 70
     1
 10
0.0
 20
0.0
 30
0.0
  3
*D91
  1

  0
LINE
  5
56165
330
559CA
100
AcDbEntity
  8
2
100
AcDbLine
 10
72.0750299600345
 20
-7.696000000000026
 30
0.0
 11
56.61967696168881
 21
-7.696000000000021
 31
0.0
  0
LINE
  5
56166
330
559CA
100
AcDbEntity
  8
2
100
AcDbLine
 10
72.07503296162826
 20
7.695999999999969
 30
0.0
 11
56.61967696168881
 21
7.695999999999973
 31
0.0
  0
LINE
  5
56167
330
559CA
100
AcDbEntity
  8
2
100
AcDbLine
 10
58.11967696168881
 20
4.195999999999973
 30
0.0
 11
58.11967696168881
 21
-4.196000000000022
 31
0.0
  0
LINE
  5
56168
330
559CA
100
AcDbEntity
  8
2
100
AcDbLine
 10
58.11967696168881
 20
-7.696000000000022
 30
0.0
 11
58.11967696168879
 21
-61.87085233333336
 31
0.0
  0
SOLID
  5
56169
330
559CA
100
AcDbEntity
  8
2
100
AcDbTrace
 10
57.53634362835548
 20
4.195999999999973
 30
0.0
 11
58.70301029502215
 21
4.195999999999973
 31
0.0
 12
58.11967696168881
 22
7.695999999999973
 32
0.0
 13
58.11967696168881
 23
7.695999999999973
 33
0.0
  0
SOLID
  5
5616A
330
559CA
100
AcDbEntity
  8
2
100
AcDbTrace
 10
57.53634362835548
 20
-4.196000000000021
 30
0.0
 11
58.70301029502215
 21
-4.196000000000022
 31
0.0
 12
58.11967696168881
 22
-7.696000000000022
 32
0.0
 13
58.11967696168881
 23
-7.696000000000022
 33
0.0
  0
MTEXT
  5
5616B
330
559CA
100
AcDbEntity
  8
2
100
AcDbMText
 10
54.06967696168881
 20
-37.11251900000001
 30
0.0
 40
3.5
 41
0.0
 71
     5
 72
     1
  1
\A1;%%C15.392 [%%C.606"]
  7
simplex
 11
0.0000000000000001
 21
1.0
 31
0.0
 73
     1
 44
0.892857
1001
ACAD
1000
MTEXTBEGIN
1070
    73
1070
     1
1070
    44
1040
0.892857
1070
    74
1070
     0
1000
MTEXTEND
  0
POINT
  5
5616C
330
559CA
100
AcDbEntity
  8
Defpoints
 62
     0
100
AcDbPoint
 10
72.0750299600345
 20
-7.696000000000026
 30
0.0
  0
POINT
  5
5616D
330
559CA
100
AcDbEntity
  8
Defpoints
 62
     0
100
AcDbPoint
 10
72.07503296162826
 20
7.695999999999969
 30
0.0
  0
POINT
  5
5616E
330
559CA
100
AcDbEntity
  8
Defpoints
 62
     0
100
AcDbPoint
 10
58.11967696168881
 20
7.695999999999973
 30
0.0
  0
ENDBLK
  5
559D6
330
559CA
100
AcDbEntity
  8
0
100
AcDbBlockEnd
  0
BLOCK
  5
559E1
330
559D7
100
AcDbEntity
  8
0
100
AcDbBlockBegin
  2
*D92
 70
     1
 10
0.0
 20
0.0
 30
0.0
  3
*D92
  1

  0
LINE
  5
5616F
330
559D7
100
AcDbEntity
  8
2
100
AcDbLine
 10
92.07486553495801
 20
16.15959262394804
 30
0.0
 11
92.07486553495801
 21
38.86061045221822
 31
0.0
  0
LINE
  5
56170
330
559D7
100
AcDbEntity
  8
2
100
AcDbLine
 10
-0.0001344644907704
 20
9.534062992021318
 30
0.0
 11
-0.0001344644907686
 21
38.86061045221822
 31
0.0
  0
LINE
  5
56171
330
559D7
100
AcDbEntity
  8
2
100
AcDbLine
 10
88.57486553495801
 20
37.36061045221823
 30
0.0
 11
3.499865535509231
 21
37.36061045221823
 31
0.0
  0
SOLID
  5
56172
330
559D7
100
AcDbEntity
  8
2
100
AcDbTrace
 10
88.57486553495801
 20
37.94394378555156
 30
0.0
 11
88.57486553495801
 21
36.77727711888489
 31
0.0
 12
92.07486553495801
 22
37.36061045221823
 32
0.0
 13
92.07486553495801
 23
37.36061045221823
 33
0.0
  0
SOLID
  5
56173
330
559D7
100
AcDbEntity
  8
2
100
AcDbTrace
 10
3.499865535509231
 20
37.94394378555156
 30
0.0
 11
3.499865535509231
 21
36.77727711888489
 31
0.0
 12
-0.0001344644907687
 22
37.36061045221823
 32
0.0
 13
-0.0001344644907687
 23
37.36061045221823
 33
0.0
  0
MTEXT
  5
56174
330
559D7
100
AcDbEntity
  8
2
100
AcDbMText
 10
48.40785691353585
 20
41.41061045221822
 30
0.0
 40
3.5
 41
0.0
 71
     5
 72
     1
  1
\A1;92.075 [3.625"]
  7
simplex
 73
     1
 44
1.0
1001
ACAD
1000
MTEXTBEGIN
1070
    73
1070
     1
1070
    44
1040
1.0
1070
    74
1070
     0
1000
MTEXTEND
  0
POINT
  5
56175
330
559D7
100
AcDbEntity
  8
Defpoints
 62
     0
100
AcDbPoint
 10
92.07486553495801
 20
16.15959262394804
 30
0.0
  0
POINT
  5
56176
330
559D7
100
AcDbEntity
  8
Defpoints
 62
     0
100
AcDbPoint
 10
-0.0001344644907704
 20
9.534062992021318
 30
0.0
  0
POINT
  5
56177
330
559D7
100
AcDbEntity
  8
Defpoints
 62
     0
100
AcDbPoint
 10
-0.0001344644907687
 20
37.36061045221823
 30
0.0
  0
ENDBLK
  5
559E2
330
559D7
100
AcDbEntity
  8
0
100
AcDbBlockEnd
  0
BLOCK
  5
559ED
330
559E3
100
AcDbEntity
  8
0
100
AcDbBlockBegin
  2
*D93
 70
     1
 10
0.0
 20
0.0
 30
0.0
  3
*D93
  1

  0
LINE
  5
56178
330
559E3
100
AcDbEntity
  8
sk2
100
AcDbLine
 10
92.07503296162826
 20
5.165842256143946
 30
0.0
 11
92.07503296162826
 21
52.30237592127713
 31
0.0
  0
LINE
  5
56179
330
559E3
100
AcDbEntity
  8
sk2
100
AcDbLine
 10
-88.89996703837164
 20
8.324996999939457
 30
0.0
 11
-88.89996703837164
 21
52.30237592127713
 31
0.0
  0
LINE
  5
5617A
330
559E3
100
AcDbEntity
  8
sk2
100
AcDbLine
 10
88.57503296162827
 20
50.80237592127713
 30
0.0
 11
-85.39996703837164
 21
50.80237592127713
 31
0.0
  0
SOLID
  5
5617B
330
559E3
100
AcDbEntity
  8
sk2
100
AcDbTrace
 10
88.57503296162827
 20
51.38570925461046
 30
0.0
 11
88.57503296162827
 21
50.21904258794379
 31
0.0
 12
92.07503296162826
 22
50.80237592127713
 32
0.0
 13
92.07503296162826
 23
50.80237592127713
 33
0.0
  0
SOLID
  5
5617C
330
559E3
100
AcDbEntity
  8
sk2
100
AcDbTrace
 10
-85.39996703837164
 20
51.38570925461046
 30
0.0
 11
-85.39996703837164
 21
50.21904258794379
 31
0.0
 12
-88.89996703837164
 22
50.80237592127713
 32
0.0
 13
-88.89996703837164
 23
50.80237592127713
 33
0.0
  0
MTEXT
  5
5617D
330
559E3
100
AcDbEntity
  8
sk2
100
AcDbMText
 10
-0.2461091654162144
 20
54.85237592127713
 30
0.0
 40
3.5
 41
0.0
 71
     5
 72
     1
  1
\A1;180.975 [7.125"]
  7
simplex
 73
     1
 44
1.0
1001
ACAD
1000
MTEXTBEGIN
1070
    73
1070
     1
1070
    44
1040
1.0
1070
    74
1070
     0
1000
MTEXTEND
  0
POINT
  5
5617E
330
559E3
100
AcDbEntity
  8
Defpoints
 62
     0
100
AcDbPoint
 10
92.07503296162826
 20
5.165842256143946
 30
0.0
  0
POINT
  5
5617F
330
559E3
100
AcDbEntity
  8
Defpoints
 62
     0
100
AcDbPoint
 10
-88.89996703837164
 20
8.324996999939457
 30
0.0
  0
POINT
  5
56180
330
559E3
100
AcDbEntity
  8
Defpoints
 62
     0
100
AcDbPoint
 10
-88.89996703837164
 20
50.80237592127713
 30
0.0
  0
ENDBLK
  5
559EE
330
559E3
100
AcDbEntity
  8
0
100
AcDbBlockEnd
  0
BLOCK
  5
55A34
330
55A2C
100
AcDbEntity
  8
0
100
AcDbBlockBegin
  2
*D99
 70
     1
 10
0.0
 20
0.0
 30
0.0
  3
*D99
  1

  0
LINE
  5
56181
330
55A2C
100
AcDbEntity
  8
2
100
AcDbLine
 10
125.8718971349611
 20
32.36834992501782
 30
0.0
 11
94.49760655575474
 21
9.174510906233138
 31
0.0
  0
MTEXT
  5
56182
330
55A2C
100
AcDbEntity
  8
2
100
AcDbMText
 10
109.184409098349
 20
25.06844267864109
 30
0.0
 40
3.5
 41
0.0
 71
     5
 72
     1
  1
\A1;R2 [R.079"]
  7
simplex
 11
0.8041253459002064
 21
0.594459778354157
 31
0.0
 73
     1
 44
1.0
1001
ACAD
1000
MTEXTBEGIN
1070
    73
1070
     1
1070
    44
1040
1.0
1070
    74
1070
     0
1000
MTEXTEND
  0
SOLID
  5
56183
330
55A2C
100
AcDbEntity
  8
2
100
AcDbTrace
 10
94.15083835171483
 20
9.643584024674922
 30
0.0
 11
94.84437475979467
 21
8.705437787791346
 31
0.0
 12
91.68316784510402
 22
7.093901681993585
 32
0.0
 13
91.68316784510402
 23
7.093901681993585
 33
0.0
  0
LINE
  5
56184
330
55A2C
100
AcDbEntity
  8
2
100
AcDbLine
 10
89.98491715330343
 20
5.904982125285116
 30
0.0
 11
90.16491715330344
 21
5.90498212528513
 31
0.0
  0
LINE
  5
56185
330
55A2C
100
AcDbEntity
  8
2
100
AcDbLine
 10
90.07491715330344
 20
5.814982125285119
 30
0.0
 11
90.07491715330344
 21
5.994982125285119
 31
0.0
  0
POINT
  5
56186
330
55A2C
100
AcDbEntity
  8
Defpoints
 62
     0
100
AcDbPoint
 10
91.68316784510402
 20
7.093901681993585
 30
0.0
  0
POINT
  5
56187
330
55A2C
100
AcDbEntity
  8
Defpoints
 62
     0
100
AcDbPoint
 10
90.07491715330342
 20
5.904982125285123
 30
0.0
  0
ENDBLK
  5
55A35
330
55A2C
100
AcDbEntity
  8
0
100
AcDbBlockEnd
  0
ENDSEC
  0
SECTION
  2
ENTITIES
  0
INSERT
  5
68C
330
1F
100
AcDbEntity
  8
0
100
AcDbBlockReference
  2
zero block
 10
0.0
 20
0.0
 30
0.0
  0
MTEXT
  5
53AD9
330
1F
100
AcDbEntity
  8
sk6
100
AcDbMText
 10
-81.32466216386069
 20
85.57116836711657
 30
0.0
 40
5.0
 41
70.03712541027798
 71
     1
 72
     5
  1
SRFU10S12L\PSUFT16R20
  7
simplex
 73
     1
 44
1.0
1001
ACAD
1000
ACAD_MTEXT_DEFINED_HEIGHT_BEGIN
1070
    46
1040
0.0
1000
ACAD_MTEXT_DEFINED_HEIGHT_END
1000
MTEXTBEGIN
1070
    73
1070
     1
1070
    44
1040
1.0
1070
    74
1070
     0
1000
MTEXTEND
  0
DIMENSION
  5
55875
330
1F
100
AcDbEntity
  8
2
100
AcDbDimension
  2
*D87
 10
107.0131741521752
 20
7.999999998900018
 30
0.0
 11
107.0131741521752
 21
-30.42499999999999
 31
0.0
 70
   160
  1
%%c<>
 71
     5
 42
15.99999999890002
  3
\M+18352\M+18373\M+1815B - ISO-25
100
AcDbAlignedDimension
 13
84.07503146083149
 23
-8.0
 33
0.0
 14
90.0750314608315
 24
7.999999998900023
 34
0.0
 50
270.0
100
AcDbRotatedDimension
1001
ACAD
1000
DSTYLE
1002
{
1070
     4
1000
%%c[]"
1070
    40
1040
1.0
1070
    75
1070
     1
1070
   143
1040
0.03937
1070
   170
1070
     1
1070
   171
1070
     3
1070
   173
1070
     1
1070
   271
1070
     8
1070
   285
1070
     4
1070
   343
1005
50E6F
1002
}
  0
SPLINE
  5
55876
330
1F
100
AcDbEntity
  8
1
100
AcDbSpline
210
0.0
220
0.0
230
1.0
 70
     8
 71
     3
 72
    16
 73
    12
 74
    10
 42
0.0000000001
 43
0.0000000001
 44
0.000001
 12
0.0550085357342658
 22
0.9984858842248957
 32
0.0
 13
0.0582088927811122
 23
0.998304424913161
 33
0.0
 40
0.0
 40
0.0
 40
0.0
 40
0.0
 40
0.0814986635523565
 40
0.1554979847208647
 40
0.2208744869063155
 40
0.2786222823493713
 40
0.3299816598902954
 40
0.3765373465344411
 40
0.4201252649802496
 40
0.4625357384708592
 40
0.5051570979304387
 40
0.5051570979304387
 40
0.5051570979304387
 40
0.5051570979304387
 10
91.81587176041853
 20
0.4522933207999813
 30
0.0
 10
91.8173661344673
 20
0.479418409180056
 30
0.0
 10
91.82022488875077
 20
0.5311721765553728
 30
0.0
 10
91.82431060482645
 20
0.6046835538786582
 30
0.0
 10
91.82798059039043
 20
0.6702888580165905
 30
0.0
 10
91.83124788330133
 20
0.7283582392786912
 30
0.0
 10
91.83418320732744
 20
0.7801627672191671
 30
0.0
 10
91.83686993315371
 20
0.8272538475087571
 30
0.0
 10
91.83940326623929
 20
0.8713658571713551
 30
0.0
 10
91.84187652733703
 20
0.9141677104190648
 30
0.0
 10
91.84352044110426
 20
0.9424639428185628
 30
0.0
 10
91.84434742181862
 20
0.9566469733999838
 30
0.0
 11
91.81587176041853
 21
0.4522933207999813
 31
0.0
 11
91.82036860221865
 21
0.5336678203000247
 31
0.0
 11
91.82447542191857
 21
0.6075530780000236
 31
0.0
 11
91.82812536241863
 21
0.6728276201000086
 31
0.0
 11
91.83137052811867
 21
0.7304841708000254
 31
0.0
 11
91.83427629711855
 21
0.781761285000016
 31
0.0
 11
91.83692828041854
 21
0.8282413779999728
 31
0.0
 11
91.83942736761855
 21
0.8717575960999965
 31
0.0
 11
91.84187390481861
 21
0.9140974453000012
 31
0.0
 11
91.84434742181862
 21
0.9566469733999838
 31
0.0
  0
SPLINE
  5
55877
330
1F
100
AcDbEntity
  8
1
100
AcDbSpline
210
0.0
220
0.0
230
1.0
 70
     8
 71
     3
 72
    23
 73
    19
 74
    17
 42
0.0000000001
 43
0.0000000001
 44
0.000001
 12
0.0545153799555513
 22
0.9985129309870263
 32
0.0
 13
0.0571541058744279
 23
0.9983653680800905
 33
0.0
 40
0.0
 40
0.0
 40
0.0
 40
0.0
 40
0.0504394881170993
 40
0.0972449312135712
 40
0.142799289805982
 40
0.1883906179534973
 40
0.2340241580923021
 40
0.2796302187800994
 40
0.3252905668756766
 40
0.3709863873679269
 40
0.416642463676245
 40
0.4623580892051412
 40
0.5082891131389506
 40
0.5543491381171215
 40
0.6003752786314543
 40
0.6464083274275973
 40
0.6927453767742721
 40
0.7399064699160205
 40
0.7399064699160205
 40
0.7399064699160205
 40
0.7399064699160205
 10
91.84434742181862
 20
0.9566469733999838
 30
0.0
 10
91.84526399777178
 20
0.9734351337723978
 30
0.0
 10
91.84703617446826
 20
1.005801631850488
 30
0.0
 10
91.84965978435696
 20
1.053329037184653
 30
0.0
 10
91.85221004117556
 20
1.099241974659179
 30
0.0
 10
91.85474978292438
 20
1.144764258018426
 30
0.0
 10
91.85729685649699
 20
1.19030339248016
 30
0.0
 10
91.85984686522488
 20
1.235865405278559
 30
0.0
 10
91.86239524031476
 20
1.281448302197418
 30
0.0
 10
91.86493609865227
 20
1.327048316606237
 30
0.0
 10
91.86747107338579
 20
1.372667112514307
 30
0.0
 10
91.87000833140212
 20
1.418364303513072
 30
0.0
 10
91.87255506074894
 20
1.464195825610943
 30
0.0
 10
91.87511389019983
 20
1.51013033974354
 30
0.0
 10
91.87768530107996
 20
1.556098213206524
 30
0.0
 10
91.88027679771426
 20
1.602157446584698
 30
0.0
 10
91.88290534263343
 20
1.648593509277105
 30
0.0
 10
91.88468173824833
 20
1.679708891428845
 30
0.0
 10
91.88558022161851
 20
1.695403558800023
 30
0.0
 11
91.84434742181862
 21
0.9566469733999838
 31
0.0
 11
91.84710729381867
 21
1.007010899299984
 31
0.0
 11
91.84968647171855
 21
1.053745226399996
 31
0.0
 11
91.85221221211861
 21
1.099229511700002
 31
0.0
 11
91.8547510586186
 21
1.144750094400023
 31
0.0
 11
91.85729864161862
 21
1.190312467000012
 31
0.0
 11
91.85984638761851
 21
1.235847308100005
 31
0.0
 11
91.86239417171861
 21
1.281436519300029
 31
0.0
 11
91.86493668201865
 21
1.327061552399982
 31
0.0
 11
91.86747062711857
 21
1.372647256499988
 31
0.0
 11
91.87000568171857
 21
1.418292539999981
 31
0.0
 11
91.8725547298186
 21
1.46415277660003
 31
0.0
 11
91.87511729991866
 21
1.510141461300008
 31
0.0
 11
91.87768865301871
 21
1.556095718300014
 31
0.0
 11
91.88027470071858
 21
1.602056069900015
 31
0.0
 11
91.88289451131856
 21
1.648319000100002
 31
0.0
 11
91.88558022161851
 21
1.695403558800023
 31
0.0
  0
SPLINE
  5
55878
330
1F
100
AcDbEntity
  8
1
100
AcDbSpline
210
0.0
220
0.0
230
1.0
 70
     8
 71
     3
 72
    21
 73
    17
 74
    15
 42
0.0000000001
 43
0.0000000001
 44
0.000001
 12
0.0536690574142078
 22
0.9985587775770991
 32
0.0
 13
0.056666691735327
 23
0.9983931520437094
 33
0.0
 40
0.0
 40
0.0
 40
0.0
 40
0.0
 40
0.0460244982303621
 40
0.0918287415918641
 40
0.1375371683467769
 40
0.1832788750591597
 40
0.229040218193815
 40
0.2746400901219266
 40
0.3200763235104224
 40
0.3654910805232649
 40
0.4109594814885439
 40
0.4564979563324925
 40
0.5020334980626834
 40
0.5475060762272588
 40
0.5930850119614889
 40
0.638987959575803
 40
0.638987959575803
 40
0.638987959575803
 40
0.638987959575803
 10
91.88558022161851
 20
1.695403558800023
 30
0.0
 10
91.88640358543125
 20
1.710722947697206
 30
0.0
 10
91.88805244238142
 20
1.741288087502823
 30
0.0
 10
91.89054612475684
 20
1.787065942940927
 30
0.0
 10
91.89305865932295
 20
1.832748361152681
 30
0.0
 10
91.89559002817963
 20
1.878415416643775
 30
0.0
 10
91.89813164947237
 20
1.924045661018624
 30
0.0
 10
91.90067321376785
 20
1.969573925693566
 30
0.0
 10
91.9032073849304
 20
2.014986894535184
 30
0.0
 10
91.90573091582711
 20
2.060356565020441
 30
0.0
 10
91.90824408088895
 20
2.105760943390009
 30
0.0
 10
91.91075560781746
 20
2.151205735055611
 30
0.0
 10
91.91327005281232
 20
2.196651760191656
 30
0.0
 10
91.91579570600231
 20
2.242110671799622
 30
0.0
 10
91.91834432807537
 20
2.287690963559356
 30
0.0
 10
91.92006603945788
 20
2.318136283314458
 30
0.0
 10
91.92093309551864
 20
2.333412679500042
 30
0.0
 11
91.88558022161851
 21
1.695403558800023
 31
0.0
 11
91.88806143691863
 21
1.741361126400022
 31
0.0
 11
91.89055286591861
 21
1.78709756110004
 31
0.0
 11
91.89306231531862
 21
1.832737049599984
 31
0.0
 11
91.89559270831864
 21
1.878408712800023
 31
0.0
 11
91.8981365806186
 21
1.924099294100017
 31
0.0
 11
91.90067709281867
 21
1.969628340899987
 31
0.0
 11
91.90320741561857
 21
2.014994063199992
 31
0.0
 11
91.9057288820186
 21
2.060338769099985
 31
0.0
 11
91.90824314571864
 21
2.105737601200019
 31
0.0
 11
91.91075713401858
 21
2.151206629599982
 31
0.0
 11
91.91327395601865
 21
2.196672563600031
 31
0.0
 11
91.91579741991859
 21
2.242075068799977
 31
0.0
 11
91.91834408791862
 21
2.287582802700001
 31
0.0
 11
91.92093309551864
 21
2.333412679500042
 31
0.0
  0
SPLINE
  5
55879
330
1F
100
AcDbEntity
  8
1
100
AcDbSpline
210
0.0
220
0.0
230
1.0
 70
     8
 71
     3
 72
    18
 73
    14
 74
    12
 42
0.0000000001
 43
0.0000000001
 44
0.000001
 12
0.053365178223814
 22
0.9985750636547765
 32
0.0
 13
0.0570756646491215
 23
0.9983698555669944
 33
0.0
 40
0.0
 40
0.0
 40
0.0
 40
0.0
 40
0.0304719689558112
 40
0.0641437925696777
 40
0.1021442938825029
 40
0.1451321973801337
 40
0.1925724651978185
 40
0.2410755408276857
 40
0.2886546790608699
 40
0.3363046652587116
 40
0.3845915250176828
 40
0.4332711979833153
 40
0.4813489965087861
 40
0.4813489965087861
 40
0.4813489965087861
 40
0.4813489965087861
 10
91.92093309551864
 20
2.333412679500042
 30
0.0
 10
91.92147514287
 20
2.343555528946637
 30
0.0
 10
91.92261808640955
 20
2.364906223545602
 30
0.0
 10
91.92445329854251
 20
2.39890482697325
 30
0.0
 10
91.92652555154404
 20
2.437068684658328
 30
0.0
 10
91.92886158823034
 20
2.479814459021667
 30
0.0
 10
91.93140340721186
 20
2.52605506686288
 30
0.0
 10
91.93404154177562
 20
2.573823100483366
 30
0.0
 10
91.93669425422058
 20
2.621660340495793
 30
0.0
 10
91.93935667278799
 20
2.669424858005186
 30
0.0
 10
91.94205610181439
 20
2.717554724098135
 30
0.0
 10
91.94478176975962
 20
2.765825944170217
 30
0.0
 10
91.94661698015
 20
2.798026180743391
 30
0.0
 10
91.94753167091858
 20
2.814025989000015
 30
0.0
 11
91.92093309551864
 21
2.333412679500042
 31
0.0
 11
91.92256421671856
 21
2.363840961200025
 31
0.0
 11
91.92437820321856
 21
2.397463887000014
 31
0.0
 11
91.92643848791863
 21
2.435408495399997
 31
0.0
 11
91.92878377021861
 21
2.478332375400043
 31
0.0
 11
91.93138697411859
 21
2.525701165899988
 31
0.0
 11
91.93406135011855
 21
2.5741304549
 31
0.0
 11
91.93669621381856
 21
2.621636579399989
 31
0.0
 11
91.93934857201861
 21
2.66921268850001
 31
0.0
 11
91.94205279401854
 21
2.717423765900036
 31
0.0
 11
91.94479836831863
 21
2.76602595060001
 31
0.0
 11
91.94753167091858
 21
2.814025989000015
 31
0.0
  0
SPLINE
  5
5587A
330
1F
100
AcDbEntity
  8
1
100
AcDbSpline
210
0.0
220
0.0
230
1.0
 70
     8
 71
     3
 72
    34
 73
    30
 74
    28
 42
0.0000000001
 43
0.0000000001
 44
0.000001
 12
0.0423311762723708
 22
0.9991036340217151
 32
0.0
 13
0.0007513889669363
 23
0.9999997177072703
 33
0.0
 40
0.0
 40
0.0
 40
0.0
 40
0.0
 40
0.0206725595035572
 40
0.0413455094129604
 40
0.0620550961989751
 40
0.0827130924359615
 40
0.1030121706448297
 40
0.1225858628337562
 40
0.1412254717362898
 40
0.1589903678775148
 40
0.1760240959824764
 40
0.1924861578690528
 40
0.2086706608770676
 40
0.2248810626286322
 40
0.2411024355153718
 40
0.2571966472219786
 40
0.2733582182079958
 40
0.289912489028369
 40
0.306803357327326
 40
0.323826462612129
 40
0.3413413997277255
 40
0.3601749696338131
 40
0.3810956261231485
 40
0.4046214439182584
 40
0.4309608025634566
 40
0.4602915281994521
 40
0.4927057225649176
 40
0.5282766403670303
 40
0.567078670966673
 40
0.567078670966673
 40
0.567078670966673
 40
0.567078670966673
 10
92.07078382971861
 20
5.101079908299993
 30
0.0
 10
92.07107552763863
 20
5.107964584741523
 30
0.0
 10
92.07163033305574
 20
5.121735287645037
 30
0.0
 10
92.07238880151306
 20
5.142406459880191
 30
0.0
 10
92.07305577789497
 20
5.163075954301575
 30
0.0
 10
92.07362397583722
 20
5.183623724136538
 30
0.0
 10
92.07409350933653
 20
5.20379524060678
 30
0.0
 10
92.07446990738764
 20
5.223295784380525
 30
0.0
 10
92.07475822571723
 20
5.241952998499129
 30
0.0
 10
92.07497089493347
 20
5.259764506482667
 30
0.0
 10
92.07511955751044
 20
5.276850783351363
 30
0.0
 10
92.07521308690321
 20
5.293410640312288
 30
0.0
 10
92.07525814334713
 20
5.309696257329449
 30
0.0
 10
92.07525597160396
 20
5.325901700235874
 30
0.0
 10
92.07522324097828
 20
5.342076999286121
 30
0.0
 10
92.07517965626641
 20
5.35823599228695
 30
0.0
 10
92.07514681451426
 20
5.374505978866693
 30
0.0
 10
92.07512598306733
 20
5.391041536689186
 30
0.0
 10
92.07511060605179
 20
5.407864277764133
 30
0.0
 10
92.07509449717646
 20
5.425007240446859
 30
0.0
 10
92.07507672860833
 20
5.442797769002368
 30
0.0
 10
92.07505908558903
 20
5.461887482087519
 30
0.0
 10
92.07504391653811
 20
5.482980824870168
 30
0.0
 10
92.07503177599461
 20
5.506576099517985
 30
0.0
 10
92.07502258135447
 20
5.532974732068282
 30
0.0
 10
92.07501786264561
 20
5.56233615810396
 30
0.0
 10
92.07502015358636
 20
5.594774771026038
 30
0.0
 10
92.07503235756007
 20
5.630370483442675
 30
0.0
 10
92.07504596434615
 20
5.655161462951326
 30
0.0
 10
92.07505568281863
 20
5.66809546950003
 30
0.0
 11
92.07078382971861
 21
5.101079908299993
 31
0.0
 11
92.07161895931859
 21
5.121735719000014
 31
0.0
 11
92.07237414931865
 21
5.142394875299999
 31
0.0
 11
92.07304139261863
 21
5.163093749300003
 31
0.0
 11
92.07361307531858
 21
5.183743927299985
 31
0.0
 11
92.0740863225186
 21
5.204037753699992
 31
0.0
 11
92.07446270631862
 21
5.223608246100013
 31
0.0
 11
92.07475063831862
 21
5.242245082199985
 31
0.0
 11
92.07496304071856
 21
5.260008542799994
 31
0.0
 11
92.0751114143186
 21
5.277041553499998
 31
0.0
 11
92.07520464411857
 21
5.293503311100039
 31
0.0
 11
92.07524930571855
 21
5.309687725800017
 31
0.0
 11
92.07524987161855
 21
5.325898108300009
 31
0.0
 11
92.07522032831855
 21
5.342119441000022
 31
0.0
 11
92.07518053481862
 21
5.358213594900007
 31
0.0
 11
92.07514809901864
 21
5.374375128099984
 31
0.0
 11
92.07512606961859
 21
5.390929381000034
 31
0.0
 11
92.0751095753186
 21
5.407820238999988
 31
0.0
 11
92.07509348671862
 21
5.424843334900003
 31
0.0
 11
92.07507637801858
 21
5.442358262100015
 31
0.0
 11
92.07505933911864
 21
5.461191822899991
 31
0.0
 11
92.07504421321857
 21
5.482112472700009
 31
0.0
 11
92.07503187411862
 21
5.505638286199996
 31
0.0
 11
92.0750227084186
 21
5.531977642299978
 31
0.0
 11
92.07501810271855
 21
5.561308366700018
 31
0.0
 11
92.07502048211859
 21
5.593722560200035
 31
0.0
 11
92.07503215701876
 21
5.629293475400004
 31
0.0
 11
92.07505568281863
 21
5.66809546950003
 31
0.0
  0
SPLINE
  5
5587B
330
1F
100
AcDbEntity
  8
1
100
AcDbSpline
210
0.0
220
0.0
230
1.0
 70
     8
 71
     3
 72
    36
 73
    32
 74
    30
 42
0.0000000001
 43
0.0000000001
 44
0.000001
 12
-0.9997702938011814
 22
-0.0214326767506836
 32
0.0
 13
-0.9997000679241562
 23
-0.0244902877165125
 33
0.0
 40
0.0
 40
0.0
 40
0.0
 40
0.0
 40
0.010629080358806
 40
0.02238153925953
 40
0.0352674220665646
 40
0.0492955672470228
 40
0.0643714893936634
 40
0.0803381022498598
 40
0.0970238365510008
 40
0.114213555947937
 40
0.1316665423235551
 40
0.1492042067693875
 40
0.166726011463087
 40
0.1843281896784936
 40
0.2022473893168552
 40
0.2204480709875256
 40
0.2386801661178814
 40
0.2568167973001293
 40
0.2748779111596349
 40
0.29302795129392
 40
0.3113505061835264
 40
0.3295712483883238
 40
0.3477887696819186
 40
0.3669857875045952
 40
0.3884816868429806
 40
0.4135091413227829
 40
0.4421035390977127
 40
0.4725455534682878
 40
0.50317727811343
 40
0.5337072997945289
 40
0.564561032156257
 40
0.564561032156257
 40
0.564561032156257
 40
0.564561032156257
 10
88.16907134571852
 20
7.868457914500027
 30
0.0
 10
88.16552913278746
 20
7.868381977952196
 30
0.0
 10
88.15807033399357
 20
7.868222036924237
 30
0.0
 10
88.14631740807659
 20
7.867961735886353
 30
0.0
 10
88.13343185384372
 20
7.867671198383789
 30
0.0
 10
88.11943892011379
 20
7.867348653136673
 30
0.0
 10
88.10441950593736
 20
7.866995712510487
 30
0.0
 10
88.08851461442168
 20
7.866616005233538
 30
0.0
 10
88.07190541693557
 20
7.866215638771137
 30
0.0
 10
88.05480092499328
 20
7.865802526530245
 30
0.0
 10
88.0374124677005
 20
7.865385516287346
 30
0.0
 10
88.01991321879837
 20
7.864971236646084
 30
0.0
 10
88.00236416332962
 20
7.864559600307586
 30
0.0
 10
87.9846878945848
 20
7.864147971473016
 30
0.0
 10
87.96678534488762
 20
7.863733226953655
 30
0.0
 10
87.94867284678867
 20
7.863315021872267
 30
0.0
 10
87.93048787603266
 20
7.86289578514436
 30
0.0
 10
87.91234941761899
 20
7.862477529639249
 30
0.0
 10
87.89423832211719
 20
7.862059102090256
 30
0.0
 10
87.87606530317772
 20
7.861637747281122
 30
0.0
 10
87.8578391431945
 20
7.861212830370959
 30
0.0
 10
87.83959056180492
 20
7.860784558820142
 30
0.0
 10
87.8210506339367
 20
7.860346860595257
 30
0.0
 10
87.80141935354208
 20
7.859880759774569
 30
0.0
 10
87.77951880412457
 20
7.859357873476142
 30
0.0
 10
87.75448676742929
 20
7.858756866141703
 30
0.0
 10
87.72647363875307
 20
7.858080659202755
 30
0.0
 10
87.69659304209609
 20
7.857356146128466
 30
0.0
 10
87.66606748421258
 20
7.856613641828744
 30
0.0
 10
87.63540475723301
 20
7.8558665785078
 30
0.0
 10
87.61494966009786
 20
7.855364771660902
 30
0.0
 10
87.60466816731854
 20
7.855112899400012
 30
0.0
 11
88.16907134571852
 21
7.868457914500027
 31
0.0
 11
88.15844475441862
 21
7.868227880400013
 31
0.0
 11
88.1466951616186
 21
7.867968355199991
 31
0.0
 11
88.13381255641866
 21
7.86767774780003
 31
0.0
 11
88.11978813181861
 21
7.867354692099979
 31
0.0
 11
88.10471636471858
 21
7.867000774000018
 31
0.0
 11
88.08875429011857
 21
7.86662012459999
 31
0.0
 11
88.07207338881857
 21
7.866218558300033
 31
0.0
 11
88.05488866601853
 21
7.865804129300045
 31
0.0
 11
88.0374406870186
 21
7.865386085900013
 31
0.0
 11
88.01990794141852
 21
7.864970748199993
 31
0.0
 11
88.00239095831853
 21
7.864559721500029
 31
0.0
 11
87.98479355431856
 21
7.864149781399987
 31
0.0
 11
87.96687916441852
 21
7.86373462969999
 31
0.0
 11
87.9486833353186
 21
7.863314370699981
 31
0.0
 11
87.93045608611862
 21
7.862894036700026
 31
0.0
 11
87.91232427751856
 21
7.862475815399989
 31
0.0
 11
87.89426798451859
 21
7.862058539899976
 31
0.0
 11
87.87612282401857
 21
7.861637695900014
 31
0.0
 11
87.85780524831853
 21
7.861210564799989
 31
0.0
 11
87.8395895207185
 21
7.860783110099987
 31
0.0
 11
87.8213770734186
 21
7.860353169900008
 31
0.0
 11
87.80218546311857
 21
7.859897548500043
 31
0.0
 11
87.78069568641853
 21
7.859384528199996
 31
0.0
 11
87.75567544001864
 21
7.85878390160002
 31
0.0
 11
87.72708936551863
 21
7.858094023399985
 31
0.0
 11
87.69665629161863
 21
7.857356289700021
 31
0.0
 11
87.66603362011858
 21
7.85661161400003
 31
0.0
 11
87.63551267151866
 21
7.855867356200008
 31
0.0
 11
87.60466816731854
 21
7.855112899400012
 31
0.0
  0
SPLINE
  5
5587C
330
1F
100
AcDbEntity
  8
1
100
AcDbSpline
210
0.0
220
0.0
230
1.0
 70
     8
 71
     3
 72
    21
 73
    17
 74
    15
 42
0.0000000001
 43
0.0000000001
 44
0.000001
 12
-0.999693012087042
 22
-0.024776633837897
 32
0.0
 13
-0.999642555319458
 23
-0.0267350256103176
 33
0.0
 40
0.0
 40
0.0
 40
0.0
 40
0.0
 40
0.0213414000497966
 40
0.0447034015316454
 40
0.0702151571014857
 40
0.0980034888112815
 40
0.1282214733162402
 40
0.1611115211213876
 40
0.1969460428808645
 40
0.2359890184656879
 40
0.2786149926655764
 40
0.3254368080685521
 40
0.3770763927975045
 40
0.4337029595980395
 40
0.4958651031728275
 40
0.5645893129825294
 40
0.5645893129825294
 40
0.5645893129825294
 40
0.5645893129825294
 10
87.60466816731854
 20
7.855112899400012
 30
0.0
 10
87.59755655115259
 20
7.85493664338179
 30
0.0
 10
87.58266000752337
 20
7.854566807854752
 30
0.0
 10
87.55926221534116
 20
7.853983885086648
 30
0.0
 10
87.53371617621439
 20
7.853344889909237
 30
0.0
 10
87.50588558257323
 20
7.852646410951876
 30
0.0
 10
87.47559642340821
 20
7.851882606964636
 30
0.0
 10
87.44262615816126
 20
7.851047039878437
 30
0.0
 10
87.4067152998432
 20
7.850131971979465
 30
0.0
 10
87.36756030348875
 20
7.849129627674471
 30
0.0
 10
87.32474423969382
 20
7.848027155652516
 30
0.0
 10
87.2777308846687
 20
7.846809352237556
 30
0.0
 10
87.22605245512397
 20
7.84546205013143
 30
0.0
 10
87.16926258509534
 20
7.843971335742054
 30
0.0
 10
87.10678011406889
 20
7.842319300299919
 30
0.0
 10
87.06316680528743
 20
7.841157334836452
 30
0.0
 10
87.0402669237186
 20
7.840544887000021
 30
0.0
 11
87.60466816731854
 21
7.855112899400012
 31
0.0
 11
87.58333333861855
 21
7.854583328600028
 31
0.0
 11
87.55997857621855
 21
7.854001777400014
 31
0.0
 11
87.53447478361863
 21
7.853364390199999
 31
0.0
 11
87.50669519891857
 21
7.852667200300004
 31
0.0
 11
87.47648681671853
 21
7.851905452999972
 31
0.0
 11
87.44360732541862
 21
7.851072179000027
 31
0.0
 11
87.40778442561861
 21
7.850159542500023
 31
0.0
 11
87.36875425181859
 21
7.84915977899999
 31
0.0
 11
87.32614241201861
 21
7.848062140800038
 31
0.0
 11
87.27933630451866
 21
7.846849424500021
 31
0.0
 11
87.22771426221857
 21
7.845503548700037
 31
0.0
 11
87.17110719251854
 21
7.844017754999981
 31
0.0
 11
87.10896676181858
 21
7.842374957099991
 31
0.0
 11
87.0402669237186
 21
7.840544887000021
 31
0.0
  0
SPLINE
  5
5587D
330
1F
100
AcDbEntity
  8
1
100
AcDbSpline
210
0.0
220
0.0
230
1.0
 70
     8
 71
     3
 72
    11
 73
     7
 74
     5
 42
0.0000000001
 43
0.0000000001
 44
0.000001
 12
-0.9996296322626324
 22
-0.0272139358137326
 32
0.0
 13
-0.9995805655575386
 23
-0.028960196126262
 33
0.0
 40
0.0
 40
0.0
 40
0.0
 40
0.0
 40
0.1409124149412078
 40
0.2820063265686002
 40
0.4232735938266474
 40
0.5647059683824211
 40
0.5647059683824211
 40
0.5647059683824211
 40
0.5647059683824211
 10
87.0402669237186
 20
7.840544887000021
 30
0.0
 10
86.99331351520891
 20
7.839266626528171
 30
0.0
 10
86.89934684500668
 20
7.836685511996023
 30
0.0
 10
86.75831064692193
 20
7.832746191860934
 30
0.0
 10
86.61710293326406
 20
7.828740350609166
 30
0.0
 10
86.52290871770061
 20
7.826029463401937
 30
0.0
 10
86.47578436671848
 20
7.824664160300017
 30
0.0
 11
87.0402669237186
 21
7.840544887000021
 31
0.0
 11
86.89940760241848
 21
7.8366769438
 31
0.0
 11
86.75836869461864
 21
7.832737567700007
 31
0.0
 11
86.6171582392185
 21
7.828731629100047
 31
0.0
 11
86.47578436671848
 21
7.824664160300017
 31
0.0
  0
SPLINE
  5
5587E
330
1F
100
AcDbEntity
  8
1
100
AcDbSpline
210
0.0
220
0.0
230
1.0
 70
     8
 71
     3
 72
    11
 73
     7
 74
     5
 42
0.0000000001
 43
0.0000000001
 44
0.000001
 12
-0.9995613952662974
 22
-0.0296144743882593
 32
0.0
 13
-0.9995142668509302
 23
-0.0311645690078927
 33
0.0
 40
0.0
 40
0.0
 40
0.0
 40
0.0
 40
0.1409444808759508
 40
0.2820690479441865
 40
0.4233653547943877
 40
0.5648249769262418
 40
0.5648249769262418
 40
0.5648249769262418
 40
0.5648249769262418
 10
86.47578436671848
 20
7.824664160300017
 30
0.0
 10
86.42882347939872
 20
7.823272828060339
 30
0.0
 10
86.33484231322302
 20
7.820467729700425
 30
0.0
 10
86.19378509674493
 20
7.816199138144753
 30
0.0
 10
86.05255791333389
 20
7.811870587514391
 30
0.0
 10
85.95835122452001
 20
7.808949073685283
 30
0.0
 10
85.91122092101864
 20
7.807479564300024
 30
0.0
 11
86.47578436671848
 21
7.824664160300017
 31
0.0
 11
86.33490258661856
 21
7.820460431699984
 31
0.0
 11
86.19384259191861
 21
7.816191754900046
 31
0.0
 11
86.05261260651856
 21
7.811863119699978
 31
0.0
 11
85.91122092101864
 21
7.807479564300024
 31
0.0
  0
SPLINE
  5
5587F
330
1F
100
AcDbEntity
  8
1
100
AcDbSpline
210
0.0
220
0.0
230
1.0
 70
     8
 71
     3
 72
    48
 73
    44
 74
     0
 42
0.0000000001
 43
0.0000000001
 40
0.116674726277265
 40
0.116674726277265
 40
0.116674726277265
 40
0.116674726277265
 40
0.1217216002577114
 40
0.1722054755416247
 40
0.1974179934171793
 40
0.2103382922695738
 40
0.2232810237057024
 40
0.2488883969752773
 40
0.2743628930043844
 40
0.2999188150483189
 40
0.3254512377810918
 40
0.3508382988009187
 40
0.3636165724857451
 40
0.3765464932021843
 40
0.3896299851189196
 40
0.4026792345755519
 40
0.4276486491439793
 40
0.4499321046951457
 40
0.4700134614594158
 40
0.4889147792404966
 40
0.5076580164914103
 40
0.5270491530240155
 40
0.5470303343122195
 40
0.587667547629104
 40
0.6278419334764718
 40
0.6676774422297875
 40
0.7076370836920997
 40
0.7476877547917927
 40
0.8276983640241269
 40
0.907709481865208
 40
0.9877210239110056
 40
1.067732867685805
 40
1.147745178628249
 40
1.227758029224645
 40
1.307771256475219
 40
1.387784805060321
 40
1.467798930655364
 40
1.547813435091665
 40
1.627828576822158
 40
1.707844254083784
 40
1.787860221664329
 40
1.867876440934433
 40
1.947893374416311
 40
1.947893374416311
 40
1.947893374416311
 40
1.947893374416311
 10
88.16912455353099
 20
-7.86702945606504
 30
0.0
 10
88.1708056790867
 20
-7.86709207533164
 30
0.0
 10
88.1893031769639
 20
-7.867779057028599
 30
0.0
 10
88.2162002704381
 20
-7.868745168891678
 30
0.0
 10
88.24572176445258
 20
-7.86975974319165
 30
0.0
 10
88.26273841708928
 20
-7.870299064070081
 30
0.0
 10
88.27988791037432
 20
-7.870800458944927
 30
0.0
 10
88.30122325280161
 20
-7.871320922676034
 30
0.0
 10
88.32676494243548
 20
-7.871792870232752
 30
0.0
 10
88.35228368605863
 20
-7.87213601157839
 30
0.0
 10
88.37777464997703
 20
-7.872354110125684
 30
0.0
 10
88.39900721489209
 20
-7.872430050196669
 30
0.0
 10
88.4160389840008
 20
-7.872415203955199
 30
0.0
 10
88.42896946636574
 20
-7.872363637681473
 30
0.0
 10
88.4419900367726
 20
-7.872270216543199
 30
0.0
 10
88.45902331277727
 20
-7.872106437965157
 30
0.0
 10
88.47912256538791
 20
-7.87186270105775
 30
0.0
 10
88.50156517899279
 20
-7.871553265383056
 30
0.0
 10
88.52198490674892
 20
-7.871245404997011
 30
0.0
 10
88.5412244192828
 20
-7.87093780976329
 30
0.0
 10
88.56023382774015
 20
-7.870630187578683
 30
0.0
 10
88.57960330523452
 20
-7.870326854679603
 30
0.0
 10
88.60627000070337
 20
-7.869917078554465
 30
0.0
 10
88.63986372066575
 20
-7.869406884083446
 30
0.0
 10
88.68007451601261
 20
-7.868778578271417
 30
0.0
 10
88.72005931237072
 20
-7.868143128842575
 30
0.0
 10
88.76000283024756
 20
-7.867505482380465
 30
0.0
 10
88.81333623774844
 20
-7.866647551742516
 30
0.0
 10
88.88001812744414
 20
-7.865557377648656
 30
0.0
 10
88.96001813988574
 20
-7.864225963608703
 30
0.0
 10
89.04001814861885
 20
-7.862869815417354
 30
0.0
 10
89.120018138477
 20
-7.861489312752041
 30
0.0
 10
89.2000181383587
 20
-7.860084325735158
 30
0.0
 10
89.28001816641813
 20
-7.858654894312621
 30
0.0
 10
89.36001816749376
 20
-7.857201067550477
 30
0.0
 10
89.44001814388412
 20
-7.855722699679347
 30
0.0
 10
89.52001809324668
 20
-7.85422002729814
 30
0.0
 10
89.60001810899644
 20
-7.852692811746692
 30
0.0
 10
89.68001817358731
 20
-7.851141252077752
 30
0.0
 10
89.760018251882
 20
-7.8495654337583
 30
0.0
 10
89.84001819870831
 20
-7.847964900725401
 30
0.0
 10
89.92001808090959
 20
-7.846340374423675
 30
0.0
 10
89.9733511038262
 20
-7.845239419954339
 30
0.0
 10
90.00001766501862
 20
-7.844685617799996
 30
0.0
  0
SPLINE
  5
55880
330
1F
100
AcDbEntity
  8
1
100
AcDbSpline
210
0.0
220
0.0
230
1.0
 70
     8
 71
     3
 72
    50
 73
    46
 74
     0
 42
0.0000000001
 43
0.0000000001
 40
0.0
 40
0.0
 40
0.0
 40
0.0
 40
0.0038739469796806
 40
0.0077009047805029
 40
0.0114828747380293
 40
0.0152223340747337
 40
0.0189214280326993
 40
0.0225823285820688
 40
0.0262070429950286
 40
0.0297973690968723
 40
0.0333554916074656
 40
0.0368830922238586
 40
0.0403821165732999
 40
0.043853615305866
 40
0.0472992148443678
 40
0.0507222186300743
 40
0.0541252985202292
 40
0.0575090592321645
 40
0.0608740410256586
 40
0.0642211790088517
 40
0.0675518385805155
 40
0.0708653965732264
 40
0.0741610324479192
 40
0.0774383898755162
 40
0.0806984657507601
 40
0.0839410879820686
 40
0.0871658829073027
 40
0.0903730578330349
 40
0.0935644890340674
 40
0.09674104010069
 40
0.0999034675134374
 40
0.1030529845048461
 40
0.1061918599185944
 40
0.1093216218077406
 40
0.1124439660484156
 40
0.1155597645602324
 40
0.1186704225259586
 40
0.121776713018662
 40
0.124880375686271
 40
0.1279829203529175
 40
0.1310861816709033
 40
0.1341905950081848
 40
0.1372962122856413
 40
0.1404038982022354
 40
0.1407170445268393
 40
0.1407170445268393
 40
0.1407170445268393
 40
0.1407170445268393
 10
91.73118972571854
 20
-6.903185355499999
 30
0.0
 10
91.73185065605935
 20
-6.902076001084878
 30
0.0
 10
91.73316282927158
 20
-6.899869752318863
 30
0.0
 10
91.73511437810544
 20
-6.896577005697622
 30
0.0
 10
91.73703814331281
 20
-6.893319908516161
 30
0.0
 10
91.73893512998313
 20
-6.890096500559138
 30
0.0
 10
91.74080637463317
 20
-6.886904775658194
 30
0.0
 10
91.74265346933749
 20
-6.883743234312703
 30
0.0
 10
91.74447741299331
 20
-6.880610162420339
 30
0.0
 10
91.74627933584758
 20
-6.877503917826743
 30
0.0
 10
91.74806026586793
 20
-6.874422923904717
 30
0.0
 10
91.74982125635768
 20
-6.87136556156679
 30
0.0
 10
91.75156316025505
 20
-6.868330532264565
 30
0.0
 10
91.75328681324788
 20
-6.865316548564635
 30
0.0
 10
91.75499326844033
 20
-6.862321925762785
 30
0.0
 10
91.75668383416132
 20
-6.859344502416433
 30
0.0
 10
91.7583596372575
 20
-6.856382405527654
 30
0.0
 10
91.76002134163718
 20
-6.853434558328274
 30
0.0
 10
91.76166932197862
 20
-6.850500385482007
 30
0.0
 10
91.76330407288833
 20
-6.847579088119573
 30
0.0
 10
91.76492589523787
 20
-6.844670203297937
 30
0.0
 10
91.76653480289473
 20
-6.841773778038543
 30
0.0
 10
91.76813053339367
 20
-6.838890362326196
 30
0.0
 10
91.76971308834493
 20
-6.836020035032731
 30
0.0
 10
91.77128257411732
 20
-6.833162685898287
 30
0.0
 10
91.77283909231551
 20
-6.830318208578773
 30
0.0
 10
91.77438261923645
 20
-6.827486728129315
 30
0.0
 10
91.77591345757969
 20
-6.824667769825794
 30
0.0
 10
91.77743210253982
 20
-6.821860494115583
 30
0.0
 10
91.7789391302888
 20
-6.819063897087403
 30
0.0
 10
91.78043500648199
 20
-6.816277166315785
 30
0.0
 10
91.78192041195757
 20
-6.813499073244088
 30
0.0
 10
91.78339614049638
 20
-6.810728158075789
 30
0.0
 10
91.78486305025751
 20
-6.807962813077153
 30
0.0
 10
91.7863217721773
 20
-6.805201837165839
 30
0.0
 10
91.78777290944049
 20
-6.80244406103452
 30
0.0
 10
91.78921691464143
 20
-6.79968858386519
 30
0.0
 10
91.79065436755536
 20
-6.796934245106967
 30
0.0
 10
91.79208585583205
 20
-6.794179849162446
 30
0.0
 10
91.79351211937046
 20
-6.791423881010359
 30
0.0
 10
91.79493369098418
 20
-6.788665208200427
 30
0.0
 10
91.79635086275437
 20
-6.785903121409774
 30
0.0
 10
91.79776381057104
 20
-6.783137214835392
 30
0.0
 10
91.79874967496505
 20
-6.781197935606883
 30
0.0
 10
91.79926544343084
 20
-6.780180971541653
 30
0.0
 10
91.79931264920197
 20
-6.780087873511661
 30
0.0
  0
SPLINE
  5
55881
330
1F
100
AcDbEntity
  8
1
100
AcDbSpline
210
0.0
220
0.0
230
1.0
 70
     8
 71
     3
 72
    52
 73
    48
 74
    46
 42
0.0000000001
 43
0.0000000001
 44
0.000001
 12
0.5735598588079948
 22
0.8191636517596181
 32
0.0
 13
0.5207813832728326
 23
0.8536900789141427
 33
0.0
 40
0.0
 40
0.0
 40
0.0
 40
0.0
 40
0.0038447063202267
 40
0.007644786950012
 40
0.0114024787138877
 40
0.0151197754418378
 40
0.0187988615286299
 40
0.0224416735638783
 40
0.026049996849244
 40
0.029625935970357
 40
0.033171116402089
 40
0.0366872461808981
 40
0.0401764161578136
 40
0.0436401956218294
 40
0.0470805749970731
 40
0.0504997707005094
 40
0.0538990127365352
 40
0.0572794794433686
 40
0.0606428287971175
 40
0.0639903695501646
 40
0.0673216787601507
 40
0.0706364780346946
 40
0.0739351268336878
 40
0.0772175483885691
 40
0.0804825965169811
 40
0.0837297337482928
 40
0.0869599874211037
 40
0.090174140685543
 40
0.0933726577610742
 40
0.0965565512769958
 40
0.0997279172433124
 40
0.1028883012164864
 40
0.1060396816057934
 40
0.1091834073102969
 40
0.1123213123356109
 40
0.1154540070419456
 40
0.1185819149923923
 40
0.121706380692674
 40
0.1248288518845767
 40
0.1279498538697502
 40
0.1310701533770536
 40
0.1341915756155129
 40
0.1373151008505367
 40
0.1404425175401765
 40
0.1435750253988213
 40
0.1467142893558199
 40
0.1498614760226023
 40
0.1498614760226023
 40
0.1498614760226023
 40
0.1498614760226023
 10
91.64893817481857
 20
-7.028428061299962
 30
0.0
 10
91.64967323122324
 20
-7.027378246743523
 30
0.0
 10
91.65113340982134
 20
-7.025289820553211
 30
0.0
 10
91.65330711736624
 20
-7.022171923185169
 30
0.0
 10
91.65545236759658
 20
-7.019085962622739
 30
0.0
 10
91.65757052769412
 20
-7.016030293288508
 30
0.0
 10
91.65966264497717
 20
-7.013003169350668
 30
0.0
 10
91.66172983188983
 20
-7.010002975652128
 30
0.0
 10
91.66377354833072
 20
-7.007028367961652
 30
0.0
 10
91.66579484302918
 20
-7.004077844018866
 30
0.0
 10
91.66779483263667
 20
-7.00114997950601
 30
0.0
 10
91.66977459992926
 20
-6.998243332095512
 30
0.0
 10
91.67173521546578
 20
-6.995356473632625
 30
0.0
 10
91.67367779323603
 20
-6.992487891456676
 30
0.0
 10
91.67560346290191
 20
-6.989636032799694
 30
0.0
 10
91.67751328231053
 20
-6.986799432712587
 30
0.0
 10
91.67940815109421
 20
-6.983976845927372
 30
0.0
 10
91.68128885814098
 20
-6.981167176927328
 30
0.0
 10
91.6831562016539
 20
-6.978369304755005
 30
0.0
 10
91.68501067789895
 20
-6.975582548584156
 30
0.0
 10
91.68685242241997
 20
-6.972806762796608
 30
0.0
 10
91.68868139677362
 20
-6.970042066029691
 30
0.0
 10
91.69049762585315
 20
-6.967288480408228
 30
0.0
 10
91.69230097606737
 20
-6.964546269990478
 30
0.0
 10
91.69409115132111
 20
-6.961815949743481
 30
0.0
 10
91.69586806036022
 20
-6.959097728787355
 30
0.0
 10
91.69763196324993
 20
-6.956391277499278
 30
0.0
 10
91.69938330029912
 20
-6.953695985111039
 30
0.0
 10
91.70112250546821
 20
-6.951011242517381
 30
0.0
 10
91.70285024738541
 20
-6.948336071162032
 30
0.0
 10
91.70456738333768
 20
-6.945669185209851
 30
0.0
 10
91.70627493726897
 20
-6.943009023232093
 30
0.0
 10
91.70797379018585
 20
-6.940354227983903
 30
0.0
 10
91.70966486693044
 20
-6.937703356154827
 30
0.0
 10
91.7113488392879
 20
-6.935055343962972
 30
0.0
 10
91.71302620803215
 20
-6.932409384488778
 30
0.0
 10
91.71469738197334
 20
-6.929764805801028
 30
0.0
 10
91.71636291457241
 20
-6.927120697298505
 30
0.0
 10
91.71802337165672
 20
-6.924476116223218
 30
0.0
 10
91.71967921037662
 20
-6.921830279113976
 30
0.0
 10
91.72133094987861
 20
-6.919182293141489
 30
0.0
 10
91.72297918550816
 20
-6.916531134098477
 30
0.0
 10
91.72462434158365
 20
-6.913875271929271
 30
0.0
 10
91.72626754688758
 20
-6.911213858777273
 30
0.0
 10
91.72790944357883
 20
-6.908545476155609
 30
0.0
 10
91.72955071796128
 20
-6.905868977408317
 30
0.0
 10
91.73064339364328
 20
-6.904080929511337
 30
0.0
 10
91.73118972571854
 20
-6.903185355499999
 30
0.0
 11
91.64893817481857
 21
-7.028428061299962
 31
0.0
 11
91.65114115681854
 21
-7.025277106200007
 31
0.0
 11
91.65331426851855
 21
-7.022159756400014
 31
0.0
 11
91.65545890411863
 21
-7.019074259499973
 31
0.0
 11
91.65757630921859
 21
-7.016019056000004
 31
0.0
 11
91.65966785441856
 21
-7.01299238629997
 31
0.0
 11
91.66173474251854
 21
-7.009992713299993
 31
0.0
 11
91.66377804391856
 21
-7.007018674800008
 31
0.0
 11
91.66579902971852
 21
-7.004068598900005
 31
0.0
 11
91.66779869171865
 21
-7.001141202700011
 31
0.0
 11
91.66977806131866
 21
-6.998235130099999
 31
0.0
 11
91.67173837741859
 21
-6.995348702900002
 31
0.0
 11
91.67368057771865
 21
-6.992480668600023
 31
0.0
 11
91.67560582851866
 21
-6.989629420699998
 31
0.0
 11
91.67751541361861
 21
-6.986793159199976
 31
0.0
 11
91.67941005801868
 21
-6.983970896900018
 31
0.0
 11
91.68129045231854
 21
-6.9811616856
 31
0.0
 11
91.6831575483186
 21
-6.978364174700004
 31
0.0
 11
91.68501209721853
 21
-6.975577299500002
 31
0.0
 11
91.6868538877186
 21
-6.972801434799976
 31
0.0
 11
91.68868279051867
 21
-6.970036836299982
 31
0.0
 11
91.69049902831863
 21
-6.967283227700022
 31
0.0
 11
91.69230258301855
 21
-6.964540696399978
 31
0.0
 11
91.69409285111862
 21
-6.961810224700002
 31
0.0
 11
91.6958695673186
 21
-6.959092288699991
 31
0.0
 11
91.69763332231855
 21
-6.956386054500001
 31
0.0
 11
91.69938456961858
 21
-6.953690890199993
 31
0.0
 11
91.7011235859187
 21
-6.95100642929998
 31
0.0
 11
91.70285094331859
 21
-6.94833184319998
 31
0.0
 11
91.7045677949186
 21
-6.945665388799966
 31
0.0
 11
91.7062749871186
 21
-6.943005780199996
 31
0.0
 11
91.7079735921186
 21
-6.940351362099988
 31
0.0
 11
91.70966433441867
 21
-6.937701004100006
 31
0.0
 11
91.71134819191854
 21
-6.935053162099961
 31
0.0
 11
91.71302547921857
 21
-6.932407320399988
 31
0.0
 11
91.71469640781856
 21
-6.929763119200003
 31
0.0
 11
91.71636167721862
 21
-6.927119417799985
 31
0.0
 11
91.71802203491859
 21
-6.924474983899983
 31
0.0
 11
91.71967773161862
 21
-6.921829362600021
 31
0.0
 11
91.7213291428186
 21
-6.919181892600022
 31
0.0
 11
91.72297720601864
 21
-6.916530996699975
 31
0.0
 11
91.72462241891867
 21
-6.913875786699975
 31
0.0
 11
91.72626563691858
 21
-6.91121478049996
 31
0.0
 11
91.72790743331859
 21
-6.908546933600007
 31
0.0
 11
91.72954861661855
 21
-6.905870800499997
 31
0.0
 11
91.73118972571854
 21
-6.903185355499999
 31
0.0
  0
SPLINE
  5
55882
330
1F
100
AcDbEntity
  8
1
100
AcDbSpline
210
0.0
220
0.0
230
1.0
 70
     8
 71
     3
 72
    16
 73
    12
 74
    10
 42
0.0000000001
 43
0.0000000001
 44
0.000001
 12
0.0550085357342854
 22
-0.9984858842248948
 32
0.0
 13
0.0582088927811112
 23
-0.9983044249131612
 33
0.0
 40
0.0
 40
0.0
 40
0.0
 40
0.0
 40
0.0814986635523139
 40
0.1554979847208222
 40
0.2208744869063155
 40
0.2786222823493146
 40
0.3299816598902387
 40
0.3765373465344411
 40
0.4201252649802529
 40
0.4625357384708735
 40
0.5051570979304389
 40
0.5051570979304389
 40
0.5051570979304389
 40
0.5051570979304389
 10
91.81587176041853
 20
-0.4522933206999938
 30
0.0
 10
91.8173661344673
 20
-0.47941840908004
 30
0.0
 10
91.82022488875066
 20
-0.5311721764553284
 30
0.0
 10
91.82431060482668
 20
-0.6046835537786706
 30
0.0
 10
91.82798059039033
 20
-0.6702888579166029
 30
0.0
 10
91.83124788330145
 20
-0.7283582391786468
 30
0.0
 10
91.83418320732732
 20
-0.7801627671191512
 30
0.0
 10
91.83686993315371
 20
-0.8272538474087696
 30
0.0
 10
91.83940326623952
 20
-0.871365857071396
 30
0.0
 10
91.84187652733703
 20
-0.9141677103191341
 30
0.0
 10
91.84352044110426
 20
-0.9424639427185752
 30
0.0
 10
91.84434742181862
 20
-0.9566469732999962
 30
0.0
 11
91.81587176041853
 21
-0.4522933206999938
 31
0.0
 11
91.82036860221865
 21
-0.5336678201999803
 31
0.0
 11
91.82447542191857
 21
-0.6075530778999792
 31
0.0
 11
91.82812536241863
 21
-0.672827620000021
 31
0.0
 11
91.83137052811867
 21
-0.730484170699981
 31
0.0
 11
91.83427629711855
 21
-0.7817612848999716
 31
0.0
 11
91.83692828041854
 21
-0.8282413778999853
 31
0.0
 11
91.83942736761855
 21
-0.871757596000009
 31
0.0
 11
91.84187390481861
 21
-0.9140974452000136
 31
0.0
 11
91.84434742181862
 21
-0.9566469732999962
 31
0.0
  0
SPLINE
  5
55883
330
1F
100
AcDbEntity
  8
1
100
AcDbSpline
210
0.0
220
0.0
230
1.0
 70
     8
 71
     3
 72
    52
 73
    48
 74
    46
 42
0.0000000001
 43
0.0000000001
 44
0.000001
 12
0.6323995908141175
 22
0.7746423416894645
 32
0.0
 13
0.5894784428169845
 23
0.8077841081960349
 33
0.0
 40
0.0
 40
0.0
 40
0.0
 40
0.0
 40
0.0038171418127734
 40
0.0075916858865238
 40
0.011326219616077
 40
0.0150225265879766
 40
0.0186823001002564
 40
0.0223079510364162
 40
0.0259009181429839
 40
0.0294624786751802
 40
0.0329947119674198
 40
0.0364993666482177
 40
0.0399784362147557
 40
0.043433652405099
 40
0.0468667782166244
 40
0.0502796686201777
 40
0.0536735738568851
 40
0.0570499436903588
 40
0.0604103970048925
 40
0.063755759649996
 40
0.0670867747273274
 40
0.0704039257089248
 40
0.073706268016578
 40
0.0769924216625606
 40
0.0802617487145502
 40
0.083513864620924
 40
0.0867490375672289
 40
0.0899691605051757
 40
0.0931761716455729
 40
0.0963714035220651
 40
0.0995553143048955
 40
0.1027291084334
 40
0.1058944590560815
 40
0.1090522639102218
 40
0.1122039547965267
 40
0.115350960104227
 40
0.1184937133728905
 40
0.1216332796083313
 40
0.1247712612608766
 40
0.1279089537638803
 40
0.1310479564496964
 40
0.1341897147576038
 40
0.1373356424127381
 40
0.1404861030844394
 40
0.1436415876726056
 40
0.14680389377231
 40
0.1499740029849671
 40
0.1499740029849671
 40
0.1499740029849671
 40
0.1499740029849671
 10
91.5571423411186
 20
-7.147003904299992
 30
0.0
 10
91.55794699409216
 20
-7.146018264409178
 30
0.0
 10
91.55954615434575
 20
-7.144057031651186
 30
0.0
 10
91.56192848877571
 20
-7.141128178015321
 30
0.0
 10
91.56428195796184
 20
-7.138227768995022
 30
0.0
 10
91.56660792174193
 20
-7.135354311635921
 30
0.0
 10
91.56890765990988
 20
-7.13250632370574
 30
0.0
 10
91.5711825080864
 20
-7.129682515112676
 30
0.0
 10
91.57343321333895
 20
-7.126881300244065
 30
0.0
 10
91.57566118749434
 20
-7.124101770108836
 30
0.0
 10
91.57786749289527
 20
-7.121342601320179
 30
0.0
 10
91.58005341437444
 20
-7.118602343041118
 30
0.0
 10
91.58222013691897
 20
-7.115879612628759
 30
0.0
 10
91.58436884738193
 20
-7.113173022693104
 30
0.0
 10
91.586500696053
 20
-7.110481215605091
 30
0.0
 10
91.58861672755699
 20
-7.107802954661394
 30
0.0
 10
91.5907179161543
 20
-7.105137080516612
 30
0.0
 10
91.59280518200763
 20
-7.102482491288185
 30
0.0
 10
91.59487935289849
 20
-7.099838192328888
 30
0.0
 10
91.59694110632448
 20
-7.097203370413012
 30
0.0
 10
91.59899088398175
 20
-7.094577508313307
 30
0.0
 10
91.60102876195152
 20
-7.091960552004707
 30
0.0
 10
91.6030543826597
 20
-7.089353006684689
 30
0.0
 10
91.60506716198506
 20
-7.086755674848689
 30
0.0
 10
91.60706663393909
 20
-7.084169214310634
 30
0.0
 10
91.60905267101645
 20
-7.081593850069339
 30
0.0
 10
91.61102566078444
 20
-7.079029138908936
 30
0.0
 10
91.61298645934095
 20
-7.076474021127467
 30
0.0
 10
91.61493613353924
 20
-7.073927151485406
 30
0.0
 10
91.61687545271366
 20
-7.071387559253821
 30
0.0
 10
91.61880503445763
 20
-7.068854465553954
 30
0.0
 10
91.62072556112821
 20
-7.066326998095348
 30
0.0
 10
91.62263779870773
 20
-7.063804164103601
 30
0.0
 10
91.62454255493912
 20
-7.061284907369554
 30
0.0
 10
91.62644058261538
 20
-7.058768232441707
 30
0.0
 10
91.62833253737085
 20
-7.056253264429358
 30
0.0
 10
91.63021899465229
 20
-7.053739221189346
 30
0.0
 10
91.63210056959474
 20
-7.051225277822027
 30
0.0
 10
91.63397801249516
 20
-7.048710351982492
 30
0.0
 10
91.63585229395584
 20
-7.046193303202699
 30
0.0
 10
91.63772390113081
 20
-7.043672697087004
 30
0.0
 10
91.63959402444936
 20
-7.041147573272951
 30
0.0
 10
91.64146321939711
 20
-7.038617012234908
 30
0.0
 10
91.64333191699563
 20
-7.036080398721765
 30
0.0
 10
91.64520060263475
 20
-7.033536998557792
 30
0.0
 10
91.64706988416151
 20
-7.030985912269784
 30
0.0
 10
91.64831527113779
 20
-7.029281649247707
 30
0.0
 10
91.64893817481857
 20
-7.028428061299962
 30
0.0
 11
91.5571423411186
 21
-7.147003904299992
 31
0.0
 11
91.55955449691862
 21
-7.144045525299986
 31
0.0
 11
91.56193618621864
 21
-7.141117292800004
 31
0.0
 11
91.56428913551861
 21
-7.138217278999945
 31
0.0
 11
91.56661455591859
 21
-7.135344173100008
 31
0.0
 11
91.5689135951186
 21
-7.132496729199999
 31
0.0
 11
91.57118784411853
 21
-7.129673137099985
 31
0.0
 11
91.57343831431854
 21
-7.126872290199969
 31
0.0
 11
91.57566584021855
 21
-7.124093291800022
 31
0.0
 11
91.57787178021862
 21
-7.121334579599988
 31
0.0
 11
91.58005728261855
 21
-7.1185948392
 31
0.0
 11
91.58222364201856
 21
-7.115872559500019
 31
0.0
 11
91.58437198321861
 21
-7.113166428599981
 31
0.0
 11
91.58650344421857
 21
-7.110475104999977
 31
0.0
 11
91.58861921361859
 21
-7.107797169799994
 31
0.0
 11
91.59072009931856
 21
-7.105131673899961
 31
0.0
 11
91.59280702791852
 21
-7.102477507599985
 31
0.0
 11
91.59488102511863
 21
-7.099833423900008
 31
0.0
 11
91.59694262221865
 21
-7.097198795800011
 31
0.0
 11
91.59899229691859
 21
-7.094573059399976
 31
0.0
 11
91.60103036461874
 21
-7.091955853400008
 31
0.0
 11
91.6030562637186
 21
-7.089347943500001
 31
0.0
 11
91.60506916951863
 21
-7.086750442300001
 31
0.0
 11
91.60706871611864
 21
-7.084163879100003
 31
0.0
 11
91.60905469481861
 21
-7.08158858439998
 31
0.0
 11
91.61102729601863
 21
-7.079024372099979
 31
0.0
 11
91.61298769751851
 21
-7.076469765699982
 31
0.0
 11
91.6149370978186
 21
-7.073923247499976
 31
0.0
 11
91.6168763205186
 21
-7.071383775500009
 31
0.0
 11
91.61880565511864
 21
-7.068850999999995
 31
0.0
 11
91.62072584041856
 21
-7.066323975399996
 31
0.0
 11
91.62263789341864
 21
-7.063801378800008
 31
0.0
 11
91.62454235781865
 21
-7.061282501599976
 31
0.0
 11
91.62644009491851
 21
-7.058766205799997
 31
0.0
 11
91.62833195841859
 21
-7.056251352000003
 31
0.0
 11
91.63021819961864
 21
-7.053737592599986
 31
0.0
 11
91.63209944601863
 21
-7.051224072900026
 31
0.0
 11
91.6339766419186
 21
-7.048709504099974
 31
0.0
 11
91.63585054181863
 21
-7.046192839000013
 31
0.0
 11
91.63772210521859
 21
-7.043672742399962
 31
0.0
 11
91.63959213561861
 21
-7.041148075199998
 31
0.0
 11
91.6414614349186
 21
-7.038617687999987
 31
0.0
 11
91.64333017991863
 21
-7.036081267399993
 31
0.0
 11
91.64519862061865
 21
-7.033538396200015
 31
0.0
 11
91.64706777581864
 21
-7.030987600900004
 31
0.0
 11
91.64893817481857
 21
-7.028428061299962
 31
0.0
  0
SPLINE
  5
55884
330
1F
100
AcDbEntity
  8
1
100
AcDbSpline
210
0.0
220
0.0
230
1.0
 70
     8
 71
     3
 72
    23
 73
    19
 74
    17
 42
0.0000000001
 43
0.0000000001
 44
0.000001
 12
0.0545153799555509
 22
-0.9985129309870263
 32
0.0
 13
0.0571541058743924
 23
-0.9983653680800925
 33
0.0
 40
0.0
 40
0.0
 40
0.0
 40
0.0
 40
0.0504394881170993
 40
0.0972449312135712
 40
0.142799289805982
 40
0.1883906180533297
 40
0.2340241580923029
 40
0.2796302187800434
 40
0.3252905669754524
 40
0.3709863873679267
 40
0.4166424636762449
 40
0.462358089205141
 40
0.5082891131388936
 40
0.5543491381171214
 40
0.6003752787312856
 40
0.6464083274275421
 40
0.6927453767742595
 40
0.7399064699159654
 40
0.7399064699159654
 40
0.7399064699159654
 40
0.7399064699159654
 10
91.84434742181862
 20
-0.9566469732999962
 30
0.0
 10
91.84526399777178
 20
-0.9734351336724103
 30
0.0
 10
91.84703617446848
 20
-1.0058016317505
 30
0.0
 10
91.84965978435627
 20
-1.053329037084694
 30
0.0
 10
91.85221004118011
 20
-1.099241974592274
 30
0.0
 10
91.85474978291665
 20
-1.144764257952147
 30
0.0
 10
91.85729685650086
 20
-1.190303392413284
 30
0.0
 10
91.85984686522875
 20
-1.235865405211711
 30
0.0
 10
91.86239524030701
 20
-1.281448302131138
 30
0.0
 10
91.86493609865669
 20
-1.327048316539276
 30
0.0
 10
91.8674710733851
 20
-1.372667112414376
 30
0.0
 10
91.87000833140245
 20
-1.418364303413
 30
0.0
 10
91.87255506074825
 20
-1.464195825510955
 30
0.0
 10
91.87511389020414
 20
-1.510130339676607
 30
0.0
 10
91.87768530107224
 20
-1.556098213140217
 30
0.0
 10
91.88027679771868
 20
-1.602157446517821
 30
0.0
 10
91.88290534263273
 20
-1.648593509177089
 30
0.0
 10
91.88468173824833
 20
-1.6797088913288
 30
0.0
 10
91.88558022161851
 20
-1.695403558699979
 30
0.0
 11
91.84434742181862
 21
-0.9566469732999962
 31
0.0
 11
91.84710729381867
 21
-1.007010899199997
 31
0.0
 11
91.84968647171855
 21
-1.053745226300009
 31
0.0
 11
91.85221221211861
 21
-1.099229511600015
 31
0.0
 11
91.8547510586186
 21
-1.144750094400023
 31
0.0
 11
91.85729864161862
 21
-1.190312466900024
 31
0.0
 11
91.85984638761851
 21
-1.235847307999961
 31
0.0
 11
91.86239417171861
 21
-1.281436519299973
 31
0.0
 11
91.86493668201865
 21
-1.327061552299994
 31
0.0
 11
91.86747062711857
 21
-1.3726472564
 31
0.0
 11
91.87000568171857
 21
-1.418292539899994
 31
0.0
 11
91.8725547298186
 21
-1.464152776499986
 31
0.0
 11
91.87511729991866
 21
-1.510141461200021
 31
0.0
 11
91.87768865301871
 21
-1.556095718300014
 31
0.0
 11
91.88027470071858
 21
-1.602056069799971
 31
0.0
 11
91.88289451131856
 21
-1.648319000000014
 31
0.0
 11
91.88558022161851
 21
-1.695403558699979
 31
0.0
  0
SPLINE
  5
55885
330
1F
100
AcDbEntity
  8
1
100
AcDbSpline
210
0.0
220
0.0
230
1.0
 70
     8
 71
     3
 72
    51
 73
    47
 74
    45
 42
0.0000000001
 43
0.0000000001
 44
0.000001
 12
0.6880160073903327
 22
0.7256955102346065
 32
0.0
 13
0.6533644113716947
 23
0.7570435561795101
 33
0.0
 40
0.0
 40
0.0
 40
0.0
 40
0.0
 40
0.0038738820107647
 40
0.0077054086660245
 40
0.011496431980271
 40
0.0152496251759742
 40
0.0189668648296106
 40
0.0226504111387336
 40
0.0263019294767768
 40
0.0299232662180711
 40
0.0335164964857476
 40
0.03708321986614
 40
0.0406253297959694
 40
0.0441435178609908
 40
0.0476399360169123
 40
0.0511172208516909
 40
0.0545757789208898
 40
0.0580181897907576
 40
0.0614475289287822
 40
0.0648652857366884
 40
0.0682699560994102
 40
0.071659976344615
 40
0.0750342270896791
 40
0.0783930004094209
 40
0.0817354491770099
 40
0.0850607146341154
 40
0.0883698971589341
 40
0.0916647508500908
 40
0.0949466540534783
 40
0.098217557197351
 40
0.101479209428687
 40
0.1047318987141355
 40
0.1079760686251937
 40
0.1112136441149629
 40
0.1144462833973126
 40
0.1176758566213629
 40
0.1209031854431815
 40
0.1241297825212058
 40
0.1273568579663148
 40
0.1305858037061047
 40
0.1338170362840904
 40
0.1370528566822213
 40
0.1402946430450907
 40
0.1435426955088789
 40
0.1467984888731011
 40
0.150063027807084
 40
0.150063027807084
 40
0.150063027807084
 40
0.150063027807084
 10
91.45638796581852
 20
-7.258194622100006
 30
0.0
 10
91.45727639676328
 20
-7.257257535839244
 30
0.0
 10
91.459042537649
 20
-7.255392653727653
 30
0.0
 10
91.4616746004283
 20
-7.252607410735549
 30
0.0
 10
91.46427606469979
 20
-7.24984860592724
 30
0.0
 10
91.46684846616517
 20
-7.247114760460021
 30
0.0
 10
91.46939342718907
 20
-7.24440428984451
 30
0.0
 10
91.47191233376918
 20
-7.241715848270814
 30
0.0
 10
91.47440655929859
 20
-7.239048091671861
 30
0.0
 10
91.47687742942139
 20
-7.236399715624543
 30
0.0
 10
91.47932624965983
 20
-7.233769426596381
 30
0.0
 10
91.48175418981214
 20
-7.231155783579765
 30
0.0
 10
91.48416242280507
 20
-7.228557977925788
 30
0.0
 10
91.48655201545158
 20
-7.225974850627835
 30
0.0
 10
91.48892425796976
 20
-7.223405112065393
 30
0.0
 10
91.49128035440458
 20
-7.220847522129645
 30
0.0
 10
91.49362160442729
 20
-7.218300734933393
 30
0.0
 10
91.49594939983478
 20
-7.215763290455072
 30
0.0
 10
91.49826537032344
 20
-7.213233457017395
 30
0.0
 10
91.50057021982593
 20
-7.210710500871414
 30
0.0
 10
91.50286360805376
 20
-7.208194828795058
 30
0.0
 10
91.50514461244416
 20
-7.205687493412483
 30
0.0
 10
91.50741271660649
 20
-7.203189107381263
 30
0.0
 10
91.50966756707305
 20
-7.200700108609225
 30
0.0
 10
91.51190887005418
 20
-7.198220871776584
 30
0.0
 10
91.51413651410917
 20
-7.195751573124709
 30
0.0
 10
91.51635096832251
 20
-7.193291744760358
 30
0.0
 10
91.51855319732476
 20
-7.190840361467849
 30
0.0
 10
91.52074435085342
 20
-7.188396183365739
 30
0.0
 10
91.52292557197688
 20
-7.185957966759929
 30
0.0
 10
91.5250977563552
 20
-7.183524734267052
 30
0.0
 10
91.52726146207397
 20
-7.181095880436714
 30
0.0
 10
91.52941728235033
 20
-7.178670752632285
 30
0.0
 10
91.53156611555187
 20
-7.176248358313387
 30
0.0
 10
91.53370915284723
 20
-7.173827329115283
 30
0.0
 10
91.5358474013376
 20
-7.171406624694952
 30
0.0
 10
91.53798158871813
 20
-7.168985023032007
 30
0.0
 10
91.5401126494803
 20
-7.166561778141442
 30
0.0
 10
91.54224145992158
 20
-7.164135838968263
 30
0.0
 10
91.5443686720455
 20
-7.161706444001765
 30
0.0
 10
91.54649516827362
 20
-7.159272550180162
 30
0.0
 10
91.54862182493991
 20
-7.156833115326662
 30
0.0
 10
91.55074948748325
 20
-7.154387121908825
 30
0.0
 10
91.55287881677054
 20
-7.151933756938603
 30
0.0
 10
91.55501038850662
 20
-7.149472298570799
 30
0.0
 10
91.55643136326558
 20
-7.147827703687937
 30
0.0
 10
91.5571423411186
 20
-7.147003904299992
 30
0.0
 11
91.45638796581852
 21
-7.258194622100006
 31
0.0
 11
91.4590517134186
 21
-7.255381906299987
 31
0.0
 11
91.46168329491855
 21
-7.252597079099984
 31
0.0
 11
91.46428406511859
 21
-7.249838876399962
 31
0.0
 11
91.46685593501855
 21
-7.247105429800001
 31
0.0
 11
91.46940026201855
 21
-7.244395443799987
 31
0.0
 11
91.47191865951857
 21
-7.241707336999979
 31
0.0
 11
91.47441232791857
 21
-7.239039956099986
 31
0.0
 11
91.4768825854186
 21
-7.236392010100018
 31
0.0
 11
91.47933090611855
 21
-7.233762029300009
 31
0.0
 11
91.48175844331854
 21
-7.23114887600002
 31
0.0
 11
91.48416650871855
 21
-7.228551231599965
 31
0.0
 11
91.48655561341866
 21
-7.225968632199965
 31
0.0
 11
91.48892725641861
 21
-7.223399538199998
 31
0.0
 11
91.49128325841855
 21
-7.220842047299981
 31
0.0
 11
91.49362392371859
 21
-7.218295892199989
 31
0.0
 11
91.49595102351861
 21
-7.215759202299977
 31
0.0
 11
91.49826665611863
 21
-7.213229734099968
 31
0.0
 11
91.50057184111858
 21
-7.210706406799999
 31
0.0
 11
91.50286557791856
 21
-7.208190348599998
 31
0.0
 11
91.50514683071856
 21
-7.205682736200003
 31
0.0
 11
91.50741486681864
 21
-7.203184421299965
 31
0.0
 11
91.50966990421853
 21
-7.20069521229999
 31
0.0
 11
91.5119113965186
 21
-7.198215762199993
 31
0.0
 11
91.51413879221854
 21
-7.195746734999943
 31
0.0
 11
91.5163528525186
 21
-7.193287340300003
 31
0.0
 11
91.51855477181857
 21
-7.190836297999965
 31
0.0
 11
91.52074548861856
 21
-7.188392603199986
 31
0.0
 11
91.52292631821854
 21
-7.185954820400013
 31
0.0
 11
91.52509843591861
 21
-7.183521658899962
 31
0.0
 11
91.5272620402186
 21
-7.181092914700002
 31
0.0
 11
91.52941743191854
 21
-7.178668266499983
 31
0.0
 11
91.53156589301852
 21
-7.176246283199986
 31
0.0
 11
91.53370852261856
 21
-7.173825727999997
 31
0.0
 11
91.53584655471854
 21
-7.171405200499975
 31
0.0
 11
91.53798054431854
 21
-7.168984059100012
 31
0.0
 11
91.54011146361858
 21
-7.166561182399959
 31
0.0
 11
91.54224009251857
 21
-7.164135657999963
 31
0.0
 11
91.54436733021862
 21
-7.161706428999991
 31
0.0
 11
91.54649342971856
 21
-7.159273169299979
 31
0.0
 11
91.5486198798186
 21
-7.156834130300012
 31
0.0
 11
91.55074755621853
 21
-7.154388253399986
 31
0.0
 11
91.55287662311854
 21
-7.15193529009997
 31
0.0
 11
91.55500801191852
 21
-7.149474102599981
 31
0.0
 11
91.5571423411186
 21
-7.147003904299992
 31
0.0
  0
SPLINE
  5
55886
330
1F
100
AcDbEntity
  8
1
100
AcDbSpline
210
0.0
220
0.0
230
1.0
 70
     8
 71
     3
 72
    21
 73
    17
 74
    15
 42
0.0000000001
 43
0.0000000001
 44
0.000001
 12
0.0536690574142072
 22
-0.9985587775770991
 32
0.0
 13
0.0566666917353267
 23
-0.9983931520437094
 33
0.0
 40
0.0
 40
0.0
 40
0.0
 40
0.0
 40
0.0460244982303053
 40
0.0918287415918641
 40
0.1375371683468336
 40
0.1832788750591596
 40
0.2290402181938149
 40
0.2746400901219833
 40
0.3200763235104791
 40
0.3654910805233217
 40
0.4109594815884352
 40
0.4564979563325487
 40
0.5020334980626828
 40
0.547506076227315
 40
0.5930850119615451
 40
0.6389879595758025
 40
0.6389879595758025
 40
0.6389879595758025
 40
0.6389879595758025
 10
91.88558022161851
 20
-1.695403558699979
 30
0.0
 10
91.88640358543125
 20
-1.710722947597105
 30
0.0
 10
91.88805244238142
 20
-1.741288087402722
 30
0.0
 10
91.89054612475684
 20
-1.787065942840911
 30
0.0
 10
91.89305865932295
 20
-1.832748361052608
 30
0.0
 10
91.89559002817963
 20
-1.878415416543759
 30
0.0
 10
91.89813164947224
 20
-1.924045660918636
 30
0.0
 10
91.90067321376806
 20
-1.969573925593522
 30
0.0
 10
91.90320738492983
 20
-2.01498689443531
 30
0.0
 10
91.90573091583155
 20
-2.060356564953508
 30
0.0
 10
91.9082440808811
 20
-2.105760943323787
 30
0.0
 10
91.910755607822
 20
-2.15120573498865
 30
0.0
 10
91.91327005281152
 20
-2.19665176009164
 30
0.0
 10
91.91579570600266
 20
-2.242110671699606
 30
0.0
 10
91.91834432807514
 20
-2.28769096345934
 30
0.0
 10
91.92006603945788
 20
-2.318136283214414
 30
0.0
 10
91.92093309551864
 20
-2.333412679399998
 30
0.0
 11
91.88558022161851
 21
-1.695403558699979
 31
0.0
 11
91.88806143691863
 21
-1.741361126299921
 31
0.0
 11
91.89055286591861
 21
-1.787097560999995
 31
0.0
 11
91.89306231531862
 21
-1.832737049499996
 31
0.0
 11
91.89559270831864
 21
-1.878408712699979
 31
0.0
 11
91.8981365806186
 21
-1.924099293999972
 31
0.0
 11
91.90067709281867
 21
-1.969628340799999
 31
0.0
 11
91.90320741561857
 21
-2.014994063100004
 31
0.0
 11
91.9057288820186
 21
-2.060338768999997
 31
0.0
 11
91.90824314571864
 21
-2.105737601200019
 31
0.0
 11
91.91075713401858
 21
-2.151206629499995
 31
0.0
 11
91.91327395601865
 21
-2.196672563499987
 31
0.0
 11
91.91579741991859
 21
-2.242075068699989
 31
0.0
 11
91.91834408791862
 21
-2.287582802600013
 31
0.0
 11
91.92093309551864
 21
-2.333412679399998
 31
0.0
  0
SPLINE
  5
55887
330
1F
100
AcDbEntity
  8
1
100
AcDbSpline
210
0.0
220
0.0
230
1.0
 70
     8
 71
     3
 72
    18
 73
    14
 74
    12
 42
0.0000000001
 43
0.0000000001
 44
0.000001
 12
0.053365178223766
 22
-0.9985750636547789
 32
0.0
 13
0.0570756648826731
 23
-0.9983698555536424
 33
0.0
 40
0.0
 40
0.0
 40
0.0
 40
0.0
 40
0.0304719689558112
 40
0.0641437925696919
 40
0.1021442938825597
 40
0.1451321973801337
 40
0.1925724651978895
 40
0.2410755408277425
 40
0.2886546790609268
 40
0.3363046652587116
 40
0.384591525017697
 40
0.4332711980832006
 40
0.4813489965087889
 40
0.4813489965087889
 40
0.4813489965087889
 40
0.4813489965087889
 10
91.92093309551864
 20
-2.333412679399998
 30
0.0
 10
91.92147514287
 20
-2.343555528846593
 30
0.0
 10
91.92261808640955
 20
-2.364906223445586
 30
0.0
 10
91.92445329854251
 20
-2.398904826873206
 30
0.0
 10
91.92652555154415
 20
-2.437068684558312
 30
0.0
 10
91.92886158823023
 20
-2.47981445892168
 30
0.0
 10
91.93140340721209
 20
-2.526055066762921
 30
0.0
 10
91.93404154177551
 20
-2.573823100383378
 30
0.0
 10
91.93669425422081
 20
-2.621660340395749
 30
0.0
 10
91.93935667278742
 20
-2.669424857905198
 30
0.0
 10
91.94205610181859
 20
-2.717554724031231
 30
0.0
 10
91.94478176975293
 20
-2.765825944103937
 30
0.0
 10
91.94661698014817
 20
-2.798026180676799
 30
0.0
 10
91.94753167091858
 20
-2.81402598889997
 30
0.0
 11
91.92093309551864
 21
-2.333412679399998
 31
0.0
 11
91.92256421671856
 21
-2.363840961099981
 31
0.0
 11
91.92437820321856
 21
-2.39746388689997
 31
0.0
 11
91.92643848791863
 21
-2.435408495300009
 31
0.0
 11
91.92878377021861
 21
-2.478332375299999
 31
0.0
 11
91.93138697411859
 21
-2.525701165800001
 31
0.0
 11
91.93406135011855
 21
-2.574130454800013
 31
0.0
 11
91.93669621381856
 21
-2.621636579300002
 31
0.0
 11
91.93934857201861
 21
-2.669212688399966
 31
0.0
 11
91.94205279401854
 21
-2.717423765799992
 31
0.0
 11
91.94479836831863
 21
-2.76602595060001
 31
0.0
 11
91.94753167091858
 21
-2.81402598889997
 31
0.0
  0
SPLINE
  5
55888
330
1F
100
AcDbEntity
  8
1
100
AcDbSpline
210
0.0
220
0.0
230
1.0
 70
     8
 71
     3
 72
    51
 73
    47
 74
    45
 42
0.0000000001
 43
0.0000000001
 44
0.000001
 12
0.7400860621008648
 22
0.6725121714021503
 32
0.0
 13
0.7122103331231759
 23
0.7019661255306948
 33
0.0
 40
0.0
 40
0.0
 40
0.0
 40
0.0
 40
0.0038407855924749
 40
0.0076420365835483
 40
0.0114056930364203
 40
0.0151340551536838
 40
0.0188289393337151
 40
0.0224917507115048
 40
0.0261246485986825
 40
0.0297295473826242
 40
0.0333076641766116
 40
0.0368608839844254
 40
0.0403914558301409
 40
0.0439005704519507
 40
0.0473897985465674
 40
0.050861672673391
 40
0.0543173071719698
 40
0.0577576790261888
 40
0.0611840719889453
 40
0.0645980192967927
 40
0.0679991509408771
 40
0.0713872605705007
 40
0.0747622229925586
 40
0.0781223803523212
 40
0.0814665664831416
 40
0.0847956211067265
 40
0.0881100667387498
 40
0.0914108490039491
 40
0.0946997301299567
 40
0.0979781182501384
 40
0.1012479036598617
 40
0.1045106165116421
 40
0.107768055604248
 40
0.1110209049647055
 40
0.1142695519921076
 40
0.1175156745859812
 40
0.1207606560244873
 40
0.1240053110422159
 40
0.1272512145830934
 40
0.1304998342857522
 40
0.1337518043258359
 40
0.1370079872607628
 40
0.1402699629352794
 40
0.1435390939915296
 40
0.1468170000135902
 40
0.1501051091552229
 40
0.1501051091552229
 40
0.1501051091552229
 40
0.1501051091552229
 10
91.34732690011857
 20
-7.361316590499995
 30
0.0
 10
91.34827440408002
 20
-7.360455598813757
 30
0.0
 10
91.35015883075709
 20
-7.358741566217247
 30
0.0
 10
91.35296885425248
 20
-7.356180668297099
 30
0.0
 10
91.35574874584495
 20
-7.353642344235197
 30
0.0
 10
91.35850005560826
 20
-7.351125302717832
 30
0.0
 10
91.36122419694903
 20
-7.348628366883417
 30
0.0
 10
91.36392254408281
 20
-7.346150386419708
 30
0.0
 10
91.36659649069633
 20
-7.343690183715125
 30
0.0
 10
91.36924737963568
 20
-7.341246618276784
 30
0.0
 10
91.37187648226655
 20
-7.338818606800032
 30
0.0
 10
91.37448514773382
 20
-7.336404985627154
 30
0.0
 10
91.37707471412591
 20
-7.334004591949224
 30
0.0
 10
91.37964643840815
 20
-7.331616329422956
 30
0.0
 10
91.38220164281689
 20
-7.329239032980126
 30
0.0
 10
91.3847416264482
 20
-7.326871549961424
 30
0.0
 10
91.38726753944467
 20
-7.324512858058881
 30
0.0
 10
91.38978022451352
 20
-7.322162215570699
 30
0.0
 10
91.39228062352264
 20
-7.319818782327445
 30
0.0
 10
91.39476934785795
 20
-7.317482022065178
 30
0.0
 10
91.39724664530991
 20
-7.315151736863583
 30
0.0
 10
91.39971236102201
 20
-7.312828107528616
 30
0.0
 10
91.40216602861858
 20
-7.310511610173875
 30
0.0
 10
91.40460695116644
 20
-7.308202942696311
 30
0.0
 10
91.40703466801426
 20
-7.305902584668444
 30
0.0
 10
91.40944924704957
 20
-7.303610516718492
 30
0.0
 10
91.41185126578944
 20
-7.301326233811437
 30
0.0
 10
91.41424152256968
 20
-7.299049016821527
 30
0.0
 10
91.41662102649684
 20
-7.296777939821879
 30
0.0
 10
91.41899101079365
 20
-7.294511855570817
 30
0.0
 10
91.42135264870479
 20
-7.292249665993495
 30
0.0
 10
91.42370720341626
 20
-7.289990178625657
 30
0.0
 10
91.42605564400083
 20
-7.287732475221218
 30
0.0
 10
91.42839866192174
 20
-7.285475898389222
 30
0.0
 10
91.4307369175408
 20
-7.283219816538576
 30
0.0
 10
91.43307123645877
 20
-7.280963433652232
 30
0.0
 10
91.43540254348
 20
-7.278705851398001
 30
0.0
 10
91.43773173562761
 20
-7.27644619210929
 30
0.0
 10
91.44005972691799
 20
-7.274183555280558
 30
0.0
 10
91.44238738478088
 20
-7.271917078866181
 30
0.0
 10
91.44471540357983
 20
-7.269646063517313
 30
0.0
 10
91.44704450196526
 20
-7.267369781274055
 30
0.0
 10
91.44937556921297
 20
-7.265087331419863
 30
0.0
 10
91.45170967119383
 20
-7.262797632963042
 30
0.0
 10
91.45404783356662
 20
-7.260499636279178
 30
0.0
 10
91.45560735738285
 20
-7.258964002511504
 30
0.0
 10
91.45638796581852
 20
-7.258194622100006
 30
0.0
 11
91.34732690011857
 21
-7.361316590499995
 31
0.0
 11
91.3501681508186
 21
-7.358732231899978
 31
0.0
 11
91.35297767011854
 21
-7.356171752199998
 31
0.0
 11
91.3557569581186
 21
-7.353633921200014
 31
0.0
 11
91.35850777481858
 21
-7.351117259099964
 31
0.0
 11
91.36123151791867
 21
-7.348620606699967
 31
0.0
 11
91.36392927711858
 21
-7.346143077299984
 31
0.0
 11
91.36660269321863
 21
-7.343683269199971
 31
0.0
 11
91.36925322141861
 21
-7.341239940599962
 31
0.0
 11
91.37188179981853
 21
-7.33881231739997
 31
0.0
 11
91.37448985331856
 21
-7.336399168100001
 31
0.0
 11
91.37707906901857
 21
-7.333999008499972
 31
0.0
 11
91.37965035301863
 21
-7.331611068500023
 31
0.0
 11
91.38220488641854
 21
-7.329234315699977
 31
0.0
 11
91.3847445498186
 21
-7.326867057399965
 31
0.0
 11
91.38727018131863
 21
-7.324508562400012
 31
0.0
 11
91.38978251581864
 21
-7.322158190200013
 31
0.0
 11
91.39228250971859
 21
-7.319815087999984
 31
0.0
 11
91.39477129791861
 21
-7.317478228600009
 31
0.0
 11
91.39724862571858
 21
-7.315147885300007
 31
0.0
 11
91.39971435841857
 21
-7.312824220099969
 31
0.0
 11
91.40216842101859
 21
-7.310507340000015
 31
0.0
 11
91.40460962581858
 21
-7.308198405999974
 31
0.0
 11
91.40703714591859
 21
-7.30589824499998
 31
0.0
 11
91.40945161161857
 21
-7.303606305400023
 31
0.0
 11
91.41185342121866
 21
-7.301322251899989
 31
0.0
 11
91.4142432780186
 21
-7.299045455899999
 31
0.0
 11
91.4166224735186
 21
-7.296774722299971
 31
0.0
 11
91.41899203881861
 21
-7.294509096000012
 31
0.0
 11
91.42135334971863
 21
-7.29224728470001
 31
0.0
 11
91.4237075174185
 21
-7.289988240500008
 31
0.0
 11
91.42605584301861
 21
-7.287730725400024
 31
0.0
 11
91.42839882031864
 21
-7.285474270199983
 31
0.0
 11
91.43073672801859
 21
-7.283218610000005
 31
0.0
 11
91.43307077141868
 21
-7.280962581700009
 31
0.0
 11
91.43540193981857
 21
-7.278705222700011
 31
0.0
 11
91.43773081101858
 21
-7.276445962799982
 31
0.0
 11
91.44005850561859
 21
-7.274183699599973
 31
0.0
 11
91.44238606321858
 21
-7.271917401400003
 31
0.0
 11
91.44471392301852
 21
-7.269646614699979
 31
0.0
 11
91.44704268591864
 21
-7.267370724800002
 31
0.0
 11
91.44937346251856
 21
-7.265088612399949
 31
0.0
 11
91.45170720441866
 21
-7.262799306399983
 31
0.0
 11
91.45404504221858
 21
-7.260501651399977
 31
0.0
 11
91.45638796581852
 21
-7.258194622100006
 31
0.0
  0
SPLINE
  5
55889
330
1F
100
AcDbEntity
  8
1
100
AcDbSpline
210
0.0
220
0.0
230
1.0
 70
     8
 71
     3
 72
    51
 73
    47
 74
    45
 42
0.0000000001
 43
0.0000000001
 44
0.000001
 12
0.788294304838762
 22
0.61529837392827
 32
0.0
 13
0.7658391448339873
 23
0.6430321953370198
 33
0.0
 40
0.0
 40
0.0
 40
0.0
 40
0.0
 40
0.0038084239048199
 40
0.0075794520121964
 40
0.0113153061364571
 40
0.015017460146442
 40
0.0186878680937098
 40
0.0223287196964926
 40
0.0259413311928718
 40
0.0295267910597809
 40
0.0330868703076738
 40
0.0366236208127581
 40
0.0401387547797229
 40
0.0436342145931113
 40
0.0471115495215206
 40
0.0505729433080203
 40
0.0540200051601542
 40
0.0574540156730923
 40
0.0608765956237099
 40
0.0642890980715108
 40
0.0676906995486687
 40
0.0710805384655863
 40
0.0744579481047884
 40
0.077821242454681
 40
0.0811679022945244
 40
0.0844994018577948
 40
0.0878185316035077
 40
0.0911275446718824
 40
0.0944267554018722
 40
0.0977164352186927
 40
0.100997720437573
 40
0.1042726616471455
 40
0.1075422104753498
 40
0.1108072657316335
 40
0.1140698035989936
 40
0.1173311266217592
 40
0.1205916126496128
 40
0.123851593895159
 40
0.1271128069549825
 40
0.130376858257953
 40
0.1336456723213773
 40
0.1369206000753909
 40
0.1402034134653291
 40
0.1434951736417316
 40
0.1467963188000915
 40
0.1501077228329386
 40
0.1501077228329386
 40
0.1501077228329386
 40
0.1501077228329386
 10
91.23065312261861
 20
-7.45574734859997
 30
0.0
 10
91.23165384224353
 20
-7.454966242921329
 30
0.0
 10
91.23364477362178
 20
-7.453410827988932
 30
0.0
 10
91.23661498885667
 20
-7.451086163692707
 30
0.0
 10
91.23955531070874
 20
-7.448780781300001
 30
0.0
 10
91.24246727091849
 20
-7.446493586812835
 30
0.0
 10
91.2453523887366
 20
-7.444223487349745
 30
0.0
 10
91.24821213790324
 20
-7.441969416971517
 30
0.0
 10
91.25104776177932
 20
-7.439730483350786
 30
0.0
 10
91.25386039110708
 20
-7.437505876571719
 30
0.0
 10
91.25665134580822
 20
-7.435294630455302
 30
0.0
 10
91.25942210504479
 20
-7.433095644858099
 30
0.0
 10
91.26217418881219
 20
-7.430907779053086
 30
0.0
 10
91.2649089821382
 20
-7.428729991633758
 30
0.0
 10
91.26762798934715
 20
-7.426561138567535
 30
0.0
 10
91.27033262414101
 20
-7.42440014020758
 30
0.0
 10
91.27302422661808
 20
-7.422245968169363
 30
0.0
 10
91.27570398716068
 20
-7.42009770724087
 30
0.0
 10
91.27837302656985
 20
-7.417954491850821
 30
0.0
 10
91.28103191624621
 20
-7.415815892342266
 30
0.0
 10
91.2836805820341
 20
-7.413681996636682
 30
0.0
 10
91.28631842645267
 20
-7.411553316171932
 30
0.0
 10
91.28894463000984
 20
-7.409430545041061
 30
0.0
 10
91.29155794600217
 20
-7.407314727719665
 30
0.0
 10
91.29415768553736
 20
-7.405206463452657
 30
0.0
 10
91.2967443195696
 20
-7.403105412636023
 30
0.0
 10
91.2993195510826
 20
-7.401010229245855
 30
0.0
 10
91.30188477882871
 20
-7.398919805884474
 30
0.0
 10
91.30444074775494
 20
-7.396833561997766
 30
0.0
 10
91.30698791304746
 20
-7.394751150719002
 30
0.0
 10
91.30952717647971
 20
-7.392671857012715
 30
0.0
 10
91.3120596126339
 20
-7.390594818964643
 30
0.0
 10
91.31458623212187
 20
-7.388519221475689
 30
0.0
 10
91.31710802400972
 20
-7.386444262270401
 30
0.0
 10
91.31962606501337
 20
-7.384369061485699
 30
0.0
 10
91.32214129502449
 20
-7.382292846275845
 30
0.0
 10
91.32465422934705
 20
-7.380215190249032
 30
0.0
 10
91.32716549352938
 20
-7.378135573299346
 30
0.0
 10
91.32967602657027
 20
-7.376053211758517
 30
0.0
 10
91.33218717301156
 20
-7.37396697952721
 30
0.0
 10
91.33470017498575
 20
-7.371875828438533
 30
0.0
 10
91.33721631364688
 20
-7.36977867099938
 30
0.0
 10
91.33973664578457
 20
-7.367674600072518
 30
0.0
 10
91.34226199184046
 20
-7.365562900195527
 30
0.0
 10
91.34479294056427
 20
-7.363443045605379
 30
0.0
 10
91.34648156584104
 20
-7.362026370301634
 30
0.0
 10
91.34732690011857
 20
-7.361316590499995
 30
0.0
 11
91.23065312261861
 21
-7.45574734859997
 31
0.0
 11
91.23365425041857
 21
-7.453402712500007
 31
0.0
 11
91.23662387581862
 21
-7.451078500899996
 31
0.0
 11
91.23956380201866
 21
-7.448773416999983
 31
0.0
 11
91.24247523891858
 21
-7.446486619300003
 31
0.0
 11
91.24535977041864
 21
-7.444216964899965
 31
0.0
 11
91.24821916121858
 21
-7.441963159400017
 31
0.0
 11
91.25105448571867
 21
-7.439724443499983
 31
0.0
 11
91.25386663711855
 21
-7.437500195799998
 31
0.0
 11
91.25665704081859
 21
-7.435289367400002
 31
0.0
 11
91.25942733851866
 21
-7.433090730000003
 31
0.0
 11
91.26217890161866
 21
-7.430903260999969
 31
0.0
 11
91.26491327791859
 21
-7.428725789699967
 31
0.0
 11
91.26763170411857
 21
-7.426557385699993
 31
0.0
 11
91.27033590911855
 21
-7.424396718100013
 31
0.0
 11
91.27302716891859
 21
-7.422242809499948
 31
0.0
 11
91.2757065000186
 21
-7.420094884099967
 31
0.0
 11
91.27837518131855
 21
-7.417951949499979
 31
0.0
 11
91.28103428001862
 21
-7.415813177199993
 31
0.0
 11
91.28368316611863
 21
-7.413679101299976
 31
0.0
 11
91.28632118171855
 21
-7.411550282000007
 31
0.0
 11
91.28894782211864
 21
-7.40942715899996
 31
0.0
 11
91.29156179191864
 21
-7.407310815199991
 31
0.0
 11
91.29416115231856
 21
-7.405202862900011
 31
0.0
 11
91.29674706811863
 21
-7.403102401299975
 31
0.0
 11
91.29932172181861
 21
-7.4010076948
 31
0.0
 11
91.3018868741185
 21
-7.398917340699995
 31
0.0
 11
91.30444277971855
 21
-7.39683115729997
 31
0.0
 11
91.3069896594186
 21
-7.394748989199968
 31
0.0
 11
91.30952840251859
 21
-7.392670132200009
 31
0.0
 11
91.31206060271859
 21
-7.39059329920002
 31
0.0
 11
91.31458700071858
 21
-7.388517895999996
 31
0.0
 11
91.31710829441862
 21
-7.386443359499992
 31
0.0
 11
91.31962601131863
 21
-7.384368439199988
 31
0.0
 11
91.32214115541865
 21
-7.382292308599971
 31
0.0
 11
91.32465401571858
 21
-7.380214727599991
 31
0.0
 11
91.32716484521859
 21
-7.378135484200015
 31
0.0
 11
91.32967497691856
 21
-7.376053468699979
 31
0.0
 11
91.33218564011849
 21
-7.373967650300016
 31
0.0
 11
91.33469830531863
 21
-7.371876790800001
 31
0.0
 11
91.33721399841851
 21
-7.369780014500008
 31
0.0
 11
91.33973406571863
 21
-7.367676172599999
 31
0.0
 11
91.34225930461866
 21
-7.365564567999967
 31
0.0
 11
91.34479003261857
 21
-7.363444900899992
 31
0.0
 11
91.34732690011857
 21
-7.361316590499995
 31
0.0
  0
SPLINE
  5
5588A
330
1F
100
AcDbEntity
  8
1
100
AcDbSpline
210
0.0
220
0.0
230
1.0
 70
     8
 71
     3
 72
    50
 73
    46
 74
    44
 42
0.0000000001
 43
0.0000000001
 44
0.000001
 12
0.8718976318990096
 22
0.4896881859805272
 32
0.0
 13
0.8569386229095025
 23
0.5154184674281334
 33
0.0
 40
0.0
 40
0.0
 40
0.0
 40
0.0
 40
0.0038266521867907
 40
0.0076188981665073
 40
0.0113791029912273
 40
0.0151088530523804
 40
0.0188093602559564
 40
0.022482824321562
 40
0.0261312293713208
 40
0.0297559590207074
 40
0.03335880864068
 40
0.0369419828382134
 40
0.0405067247262261
 40
0.0440537349222409
 40
0.0475844619987148
 40
0.051101254266197
 40
0.0546060886023915
 40
0.0581005956899973
 40
0.0615868267980852
 40
0.0650653452243052
 40
0.0685349477679073
 40
0.0719945870828931
 40
0.0754439394946039
 40
0.0788822053901782
 40
0.082307489010515
 40
0.0857185858779547
 40
0.0891166401844891
 40
0.0925047399659719
 40
0.0958852938796457
 40
0.0992593497415658
 40
0.1026278150211001
 40
0.1059921504899929
 40
0.1093537016506864
 40
0.1127139514822098
 40
0.1160741028573671
 40
0.1194355899350004
 40
0.1227994428036202
 40
0.1261672267792884
 40
0.1295399983326905
 40
0.1329192932248228
 40
0.1363062043070137
 40
0.1397022100900914
 40
0.1431085906918724
 40
0.1465267830494411
 40
0.1499579338786686
 40
0.1499579338786686
 40
0.1499579338786686
 40
0.1499579338786686
 10
90.97746557871857
 20
-7.616324574399982
 30
0.0
 10
90.97857772837846
 20
-7.615699952277395
 30
0.0
 10
90.98079153766253
 20
-7.614455450609966
 30
0.0
 10
90.98409648464713
 20
-7.612594150626705
 30
0.0
 10
90.98737185510868
 20
-7.610746160215398
 30
0.0
 10
90.99061918443885
 20
-7.608910702778302
 30
0.0
 10
90.99383995732273
 20
-7.607087023676399
 30
0.0
 10
90.9970357709666
 20
-7.605274297710934
 30
0.0
 10
91.00020826932075
 20
-7.603471665859785
 30
0.0
 10
91.00335897631202
 20
-7.601678330500135
 30
0.0
 10
91.00648947705906
 20
-7.599893452757555
 30
0.0
 10
91.00960131316913
 20
-7.598116211832063
 30
0.0
 10
91.01269570685145
 20
-7.596345963336432
 30
0.0
 10
91.01577365970445
 20
-7.594582184623334
 30
0.0
 10
91.01883649113574
 20
-7.592824166556397
 30
0.0
 10
91.02188588700483
 20
-7.591070983728286
 30
0.0
 10
91.02492358290374
 20
-7.589321675335042
 30
0.0
 10
91.02795122587531
 20
-7.587575325121292
 30
0.0
 10
91.03097005230006
 20
-7.585831247843429
 30
0.0
 10
91.03398047898691
 20
-7.584089227902495
 30
0.0
 10
91.03698202871488
 20
-7.582349566872892
 30
0.0
 10
91.03997396951763
 20
-7.580612716334428
 30
0.0
 10
91.04295568682379
 20
-7.578879062062469
 30
0.0
 10
91.04592632258038
 20
-7.577149133629632
 30
0.0
 10
91.04888476657526
 20
-7.575423610950622
 30
0.0
 10
91.05183046987372
 20
-7.573702850133543
 30
0.0
 10
91.05476431804095
 20
-7.57198636933424
 30
0.0
 10
91.05768823396784
 20
-7.57027307465978
 30
0.0
 10
91.06060410963129
 20
-7.568561882926474
 30
0.0
 10
91.06351320756312
 20
-7.566852074407506
 30
0.0
 10
91.06641651619657
 20
-7.565143086527427
 30
0.0
 10
91.06931510789491
 20
-7.563434303638587
 30
0.0
 10
91.07221021850069
 20
-7.561725009615088
 30
0.0
 10
91.07510300795434
 20
-7.560014528830379
 30
0.0
 10
91.07799465983793
 20
-7.558302167553108
 30
0.0
 10
91.08088622608192
 20
-7.556587305992309
 30
0.0
 10
91.08377886086669
 20
-7.554869259914426
 30
0.0
 10
91.08667360840717
 20
-7.553147406468667
 30
0.0
 10
91.0895716560832
 20
-7.551421033776932
 30
0.0
 10
91.09247405421456
 20
-7.549689507615539
 30
0.0
 10
91.095381972224
 20
-7.547952118831517
 30
0.0
 10
91.09829650460779
 20
-7.546208199032491
 30
0.0
 10
91.10121884249588
 20
-7.544457017961917
 30
0.0
 10
91.10415008029315
 20
-7.542697899196411
 30
0.0
 10
91.10610695449645
 20
-7.541521780333937
 30
0.0
 10
91.10708704971864
 20
-7.54093228749997
 30
0.0
 11
90.97746557871857
 21
-7.616324574399982
 31
0.0
 11
90.98080129241862
 21
-7.614449397599969
 31
0.0
 11
90.98410556141857
 21
-7.612588496299963
 31
0.0
 11
90.98738048441862
 21
-7.610740782599975
 31
0.0
 11
90.99062747861864
 21
-7.60890554499997
 31
0.0
 11
90.99384763261856
 21
-7.607082251399958
 31
0.0
 11
90.99704289221859
 21
-7.605269878499996
 31
0.0
 11
91.00021501221863
 21
-7.60346750299999
 31
0.0
 11
91.00336522261864
 21
-7.601674493299981
 31
0.0
 11
91.00649510881863
 21
-7.59989000959996
 31
0.0
 11
91.00960660881856
 21
-7.598113004100014
 31
0.0
 11
91.01270082291852
 21
-7.596342900799982
 31
0.0
 11
91.01577837891865
 21
-7.594579390100022
 31
0.0
 11
91.01884055221853
 21
-7.592821787999923
 31
0.0
 11
91.02188939581855
 21
-7.591068957699974
 31
0.0
 11
91.02492663771863
 21
-7.589319942200006
 31
0.0
 11
91.02795370311856
 21
-7.587573952299976
 31
0.0
 11
91.03097237931866
 21
-7.585829984700012
 31
0.0
 11
91.03398316291862
 21
-7.584087776399996
 31
0.0
 11
91.03698502191855
 21
-7.582347949699965
 31
0.0
 11
91.0399770605186
 21
-7.580611051000005
 31
0.0
 11
91.04295901011857
 21
-7.578877265599999
 31
0.0
 11
91.0459301911186
 21
-7.577147018699974
 31
0.0
 11
91.04888897841851
 21
-7.575421290000008
 31
0.0
 11
91.05183434631863
 21
-7.573700714700009
 31
0.0
 11
91.05476729751854
 21
-7.571984743899975
 31
0.0
 11
91.0576905098186
 21
-7.570271842400018
 31
0.0
 11
91.06060607111862
 21
-7.568560811999986
 31
0.0
 11
91.06351489301857
 21
-7.566851138699973
 31
0.0
 11
91.06641776491859
 21
-7.565142377499967
 31
0.0
 11
91.06931595141849
 21
-7.563433799899939
 31
0.0
 11
91.07221061611857
 21
-7.561724733000005
 31
0.0
 11
91.07510303901859
 21
-7.560014430600006
 31
0.0
 11
91.07799425721863
 21
-7.558302286000014
 31
0.0
 11
91.08088550521859
 21
-7.556587571900024
 31
0.0
 11
91.08377766831859
 21
-7.554869764300008
 31
0.0
 11
91.08667209041858
 21
-7.553148063200012
 31
0.0
 11
91.08956967641859
 21
-7.551421925900001
 31
0.0
 11
91.0924717413186
 21
-7.549690561600016
 31
0.0
 11
91.09537921801859
 21
-7.547953403500002
 31
0.0
 11
91.09829336881853
 21
-7.546209684199993
 31
0.0
 11
91.10121528411855
 21
-7.544458735399985
 31
0.0
 11
91.10414618691857
 21
-7.542699804999983
 31
0.0
 11
91.10708704971864
 21
-7.54093228749997
 31
0.0
  0
SPLINE
  5
5588B
330
1F
100
AcDbEntity
  8
1
100
AcDbSpline
210
0.0
220
0.0
230
1.0
 70
     8
 71
     3
 72
    50
 73
    46
 74
    44
 42
0.0000000001
 43
0.0000000001
 44
0.000001
 12
0.9066880912237868
 22
0.4218017368776071
 32
0.0
 13
0.8942370146316999
 23
0.4475937462281895
 33
0.0
 40
0.0
 40
0.0
 40
0.0
 40
0.0
 40
0.003793161666071
 40
0.0075545550647137
 40
0.0112854602876277
 40
0.0149870269920794
 40
0.0186611843900424
 40
0.0223098115957152
 40
0.0259346425940524
 40
0.0295377038887101
 40
0.0331206944723028
 40
0.0366856878239035
 40
0.0402336607746095
 40
0.0437654374672564
 40
0.0472831587458618
 40
0.0507886552825859
 40
0.0542833731113406
 40
0.0577693597576405
 40
0.0612475756867432
 40
0.0647175722435812
 40
0.0681788979666905
 40
0.0716319238233882
 40
0.0750758582148858
 40
0.0785092215573308
 40
0.0819306883398192
 40
0.0853408632882143
 40
0.0887411118112941
 40
0.0921330496337944
 40
0.0955182403315778
 40
0.098897466265
 40
0.1022719236912536
 40
0.1056430903805427
 40
0.1090125092892032
 40
0.1123815145099205
 40
0.1157513569001584
 40
0.1191233086984788
 40
0.1224985917923218
 40
0.1258785764209895
 40
0.1292645618197514
 40
0.1326578432609678
 40
0.1360594920282921
 40
0.1394709915848926
 40
0.142894282563847
 40
0.1463312185546135
 40
0.1497830938506547
 40
0.1497830938506547
 40
0.1497830938506547
 40
0.1497830938506547
 10
90.84260310981859
 20
-7.681482509500028
 30
0.0
 10
90.84374951465543
 20
-7.680949188773695
 30
0.0
 10
90.84603231210065
 20
-7.679886130391992
 30
0.0
 10
90.84944127462268
 20
-7.678295448912308
 30
0.0
 10
90.8528213700921
 20
-7.676715110107295
 30
0.0
 10
90.85617394519317
 20
-7.675144568815255
 30
0.0
 10
90.85950052523447
 20
-7.673583190116573
 30
0.0
 10
90.86280280935431
 20
-7.672030250786178
 30
0.0
 10
90.86608252350698
 20
-7.670485008165996
 30
0.0
 10
90.86934133682246
 20
-7.668946739635885
 30
0.0
 10
90.87258101830958
 20
-7.667414668858441
 30
0.0
 10
90.87580301828813
 20
-7.665888163846716
 30
0.0
 10
90.8790085216035
 20
-7.664366713207584
 30
0.0
 10
90.88219873183266
 20
-7.662849792485928
 30
0.0
 10
90.88537510778474
 20
-7.661336751065903
 30
0.0
 10
90.88853929326091
 20
-7.659826844519557
 30
0.0
 10
90.8916929018477
 20
-7.658319337208922
 30
0.0
 10
90.89483728338223
 20
-7.656813614213206
 30
0.0
 10
90.8979732164836
 20
-7.655309329950966
 30
0.0
 10
90.90110072810899
 20
-7.653806497762843
 30
0.0
 10
90.90421966824477
 20
-7.652305216307524
 30
0.0
 10
90.90732978404275
 20
-7.650805634087873
 30
0.0
 10
90.9104305143369
 20
-7.649308049152637
 30
0.0
 10
90.91352078974706
 20
-7.647813007467675
 30
0.0
 10
90.91659996112946
 20
-7.646320854793884
 30
0.0
 10
90.91966823315374
 20
-7.644831524077687
 30
0.0
 10
90.9227266916987
 20
-7.643344518425578
 30
0.0
 10
90.92577670852392
 20
-7.641859197888095
 30
0.0
 10
90.9288194789608
 20
-7.640375004042937
 30
0.0
 10
90.93185607125315
 20
-7.638891436790004
 30
0.0
 10
90.93488752667736
 20
-7.637408005924442
 30
0.0
 10
90.93791511282892
 20
-7.635924106868401
 30
0.0
 10
90.94094013696054
 20
-7.634439111511881
 30
0.0
 10
90.94396383685353
 20
-7.632952421830225
 30
0.0
 10
90.94698736785062
 20
-7.631463476615863
 30
0.0
 10
90.95001185035608
 20
-7.629971728348664
 30
0.0
 10
90.95303843909801
 20
-7.628476609119275
 30
0.0
 10
90.95606829547387
 20
-7.626977544187184
 30
0.0
 10
90.95910260138589
 20
-7.625473945090561
 30
0.0
 10
90.96214244805286
 20
-7.623965264803018
 30
0.0
 10
90.9651889803772
 20
-7.622450926336568
 30
0.0
 10
90.9682435344497
 20
-7.620930254060169
 30
0.0
 10
90.97130767805253
 20
-7.61940245261951
 30
0.0
 10
90.97438292057995
 20
-7.617866750951577
 30
0.0
 10
90.97643664716542
 20
-7.616839586998423
 30
0.0
 10
90.97746557871857
 20
-7.616324574399982
 30
0.0
 11
90.84260310981859
 21
-7.681482509500028
 31
0.0
 11
90.84604170981856
 21
-7.679881223800009
 31
0.0
 11
90.84945029551864
 21
-7.678290736099938
 31
0.0
 11
90.85283005811858
 21
-7.676710578099971
 31
0.0
 11
90.85618206871869
 21
-7.675140332199987
 31
0.0
 11
90.85950810241866
 21
-7.673579245599967
 31
0.0
 11
90.86280988631859
 21
-7.672026580799979
 31
0.0
 11
90.86608901371858
 21
-7.670481656499987
 31
0.0
 11
90.86934734011856
 21
-7.668943661299977
 31
0.0
 11
90.87258642241863
 21
-7.667411918200002
 31
0.0
 11
90.87580815361855
 21
-7.665885584699992
 31
0.0
 11
90.87901343371857
 21
-7.664364283499992
 31
0.0
 11
90.88220302341857
 21
-7.662847699699966
 31
0.0
 11
90.88537887111863
 21
-7.661334949799993
 31
0.0
 11
90.88854264251859
 21
-7.659825277899983
 31
0.0
 11
90.89169565431859
 21
-7.658318089700003
 31
0.0
 11
90.8948397638186
 21
-7.656812526999999
 31
0.0
 11
90.89797584601866
 21
-7.655308197099998
 31
0.0
 11
90.90110350481859
 21
-7.653805315400006
 31
0.0
 11
90.9042223421186
 21
-7.652304099499986
 31
0.0
 11
90.90733270111854
 21
-7.650804410700004
 31
0.0
 11
90.91043387791865
 21
-7.649306615300019
 31
0.0
 11
90.91352455031858
 21
-7.647811381200028
 31
0.0
 11
90.91660353651855
 21
-7.646319312599985
 31
0.0
 11
90.9196713923186
 21
-7.644830172999945
 31
0.0
 11
90.92272935691857
 21
-7.6433433917
 31
0.0
 11
90.92577889291863
 21
-7.641858284899967
 31
0.0
 11
90.92882141421865
 21
-7.640374187799977
 31
0.0
 11
90.93185763121857
 21
-7.638890775200025
 31
0.0
 11
90.93488862511856
 21
-7.637407537900003
 31
0.0
 11
90.93791572861858
 21
-7.635923840100019
 31
0.0
 11
90.9409403312186
 21
-7.634439013699989
 31
0.0
 11
90.9439636335186
 21
-7.632952479700009
 31
0.0
 11
90.94698675981863
 21
-7.631463692500005
 31
0.0
 11
90.95001085241859
 21
-7.629972094599963
 31
0.0
 11
90.95303700711861
 21
-7.628477148000001
 31
0.0
 11
90.95606645131852
 21
-7.626978246100009
 31
0.0
 11
90.9591003474186
 21
-7.625474811000003
 31
0.0
 11
90.96213985291866
 21
-7.623966263799957
 31
0.0
 11
90.96518592341864
 21
-7.622452122600009
 31
0.0
 11
90.96823988231859
 21
-7.620931719400005
 31
0.0
 11
90.97130346071855
 21
-7.619404179299976
 31
0.0
 11
90.97437830981858
 21
-7.61786866220001
 31
0.0
 11
90.97746557871857
 21
-7.616324574399982
 31
0.0
  0
SPLINE
  5
5588C
330
1F
100
AcDbEntity
  8
1
100
AcDbSpline
210
0.0
220
0.0
230
1.0
 70
     8
 71
     3
 72
    49
 73
    45
 74
    43
 42
0.0000000001
 43
0.0000000001
 44
0.000001
 12
0.9364146143909358
 22
0.350895525698284
 32
0.0
 13
0.9259554466453787
 23
0.3776327724493163
 33
0.0
 40
0.0
 40
0.0
 40
0.0
 40
0.0
 40
0.0038460350594665
 40
0.0076609158825612
 40
0.0114466913095747
 40
0.0152044177068823
 40
0.0189353092857857
 40
0.022641375260721
 40
0.0263247003440694
 40
0.0299872254774569
 40
0.0336308598313655
 40
0.0372572393225455
 40
0.0408680250843174
 40
0.0444642037377519
 40
0.0480473613076997
 40
0.0516200906828299
 40
0.055185058884946
 40
0.0587443049346559
 40
0.0622976923462316
 40
0.0658438551924148
 40
0.0693819574837899
 40
0.0729118761622056
 40
0.076432877115348
 40
0.0799431675650507
 40
0.083441424433375
 40
0.0869283295645635
 40
0.0904065102178894
 40
0.093878227351031
 40
0.0973447925110008
 40
0.100807204062018
 40
0.1042669623636066
 40
0.1077254572350302
 40
0.1111841840380578
 40
0.1146443890396802
 40
0.1181074971671974
 40
0.1215747381518033
 40
0.1250477422079083
 40
0.1285279641386653
 40
0.1320169198613501
 40
0.1355154992010072
 40
0.1390251464044511
 40
0.1425472752202244
 40
0.1460831065779639
 40
0.1496342896261318
 40
0.1496342896261318
 40
0.1496342896261318
 40
0.1496342896261318
 10
90.70328007511852
 20
-7.736053331899995
 30
0.0
 10
90.70448056959753
 20
-7.735603479735345
 30
0.0
 10
90.70687147350691
 20
-7.734706456658955
 30
0.0
 10
90.71044281295383
 20
-7.733363302037105
 30
0.0
 10
90.71398554794882
 20
-7.732027714694197
 30
0.0
 10
90.71750105179853
 20
-7.730699262541349
 30
0.0
 10
90.72099068374814
 20
-7.729377513152599
 30
0.0
 10
90.72445612166779
 20
-7.728061907257824
 30
0.0
 10
90.7278992676521
 20
-7.726751793353969
 30
0.0
 10
90.73132199031148
 20
-7.725446525407164
 30
0.0
 10
90.73472601628168
 20
-7.724145504662146
 30
0.0
 10
90.73811298306532
 20
-7.722848160146611
 30
0.0
 10
90.74148423917563
 20
-7.721554025910506
 30
0.0
 10
90.74484111605864
 20
-7.72026263773688
 30
0.0
 10
90.74818523345516
 20
-7.718973415590539
 30
0.0
 10
90.75151873168067
 20
-7.717685572414495
 30
0.0
 10
90.75484388940697
 20
-7.716398260114772
 30
0.0
 10
90.75816213463212
 20
-7.715110953132011
 30
0.0
 10
90.76147364097948
 20
-7.713823609253893
 30
0.0
 10
90.76477768913923
 20
-7.712536534124126
 30
0.0
 10
90.76807356481628
 20
-7.711250033816327
 30
0.0
 10
90.77136075052999
 20
-7.709964339307362
 30
0.0
 10
90.77463843235955
 20
-7.708679799105539
 30
0.0
 10
90.7779054249895
 20
-7.707396910185309
 30
0.0
 10
90.78116098360055
 20
-7.706115999851704
 30
0.0
 10
90.78440573467787
 20
-7.704836856500378
 30
0.0
 10
90.78764141491786
 20
-7.703558827148071
 30
0.0
 10
90.79086995422256
 20
-7.702281176469284
 30
0.0
 10
90.79409277581612
 20
-7.701003364260145
 30
0.0
 10
90.79731106592044
 20
-7.699724940345163
 30
0.0
 10
90.80052603379034
 20
-7.698445441777892
 30
0.0
 10
90.80373904130306
 20
-7.697164341011784
 30
0.0
 10
90.8069513703133
 20
-7.695881138425761
 30
0.0
 10
90.81016431225885
 20
-7.694595326790192
 30
0.0
 10
90.81337907511898
 20
-7.693306428600749
 30
0.0
 10
90.8165969844323
 20
-7.692013915618872
 30
0.0
 10
90.81981937366469
 20
-7.690717252600734
 30
0.0
 10
90.82304766342099
 20
-7.689415865292744
 30
0.0
 10
90.82628304407718
 20
-7.688109268407288
 30
0.0
 10
90.82952670160148
 20
-7.686796975139941
 30
0.0
 10
90.83277978926503
 20
-7.685478508684923
 30
0.0
 10
90.83604356143382
 20
-7.684153347843277
 30
0.0
 10
90.8393193344998
 20
-7.682820942706143
 30
0.0
 10
90.84150703072351
 20
-7.681929523866699
 30
0.0
 10
90.84260310981859
 20
-7.681482509500028
 30
0.0
 11
90.70328007511852
 21
-7.736053331899995
 31
0.0
 11
90.70688102031864
 21
-7.734702334500013
 31
0.0
 11
90.71045173091851
 21
-7.733359434600004
 31
0.0
 11
90.71399415121858
 21
-7.732023990199991
 31
0.0
 11
90.71750929471864
 21
-7.730695703200012
 31
0.0
 11
90.72099832121853
 21
-7.729374215599989
 31
0.0
 11
90.72446313211868
 21
-7.728058882399977
 31
0.0
 11
90.7279056972186
 21
-7.726749025599985
 31
0.0
 11
90.73132784961854
 21
-7.725444011799993
 31
0.0
 11
90.73473139061855
 21
-7.72414321299999
 31
0.0
 11
90.73811786431861
 21
-7.722846093300006
 31
0.0
 11
90.74148883661861
 21
-7.721552102899977
 31
0.0
 11
90.74484524211857
 21
-7.720260929299968
 31
0.0
 11
90.74818857361856
 21
-7.718972041299991
 31
0.0
 11
90.75152126131866
 21
-7.717684539900005
 31
0.0
 11
90.75484580191858
 21
-7.716397492299961
 31
0.0
 11
90.75816410401865
 21
-7.715110185900016
 31
0.0
 11
90.76147604671859
 21
-7.713822691500013
 31
0.0
 11
90.7647803639186
 21
-7.712535527
 31
0.0
 11
90.7680762844186
 21
-7.711249020600007
 31
0.0
 11
90.77136370181859
 21
-7.709963242799972
 31
0.0
 11
90.77464194091863
 21
-7.708678487199961
 31
0.0
 11
90.77790934201857
 21
-7.70739543649995
 31
0.0
 11
90.78116468421853
 21
-7.706114605599964
 31
0.0
 11
90.78440861281865
 21
-7.704835776399988
 31
0.0
 11
90.78764358161857
 21
-7.703558013699989
 31
0.0
 11
90.79087170131856
 21
-7.702280510599962
 31
0.0
 11
90.79409419811861
 21
-7.70100280509996
 31
0.0
 11
90.79731200581864
 21
-7.699724547299979
 31
0.0
 11
90.80052652381857
 21
-7.698445199499985
 31
0.0
 11
90.80373904731857
 21
-7.697164261000011
 31
0.0
 11
90.80695096831858
 21
-7.695881188800001
 31
0.0
 11
90.81016344621867
 21
-7.694595528999968
 31
0.0
 11
90.81337780511853
 21
-7.693306758299968
 31
0.0
 11
90.81659518671859
 21
-7.692014422900001
 31
0.0
 11
90.81981710311856
 21
-7.690717916599965
 31
0.0
 11
90.82304490231853
 21
-7.689416695200009
 31
0.0
 11
90.82627998771863
 21
-7.688110188400003
 31
0.0
 11
90.82952318101865
 21
-7.686798057399983
 31
0.0
 11
90.8327758170185
 21
-7.6854797533
 31
0.0
 11
90.83603920091855
 21
-7.684154735300012
 31
0.0
 11
90.8393144582186
 21
-7.682822532499983
 31
0.0
 11
90.84260310981859
 21
-7.681482509500028
 31
0.0
  0
SPLINE
  5
5588D
330
1F
100
AcDbEntity
  8
1
100
AcDbSpline
210
0.0
220
0.0
230
1.0
 70
     8
 71
     3
 72
    49
 73
    45
 74
    43
 42
0.0000000001
 43
0.0000000001
 44
0.000001
 12
0.9607854318751073
 22
0.2772929027158177
 32
0.0
 13
0.952057805278107
 23
0.3059181841751711
 33
0.0
 40
0.0
 40
0.0
 40
0.0
 40
0.0
 40
0.0038090210519475
 40
0.0075889165281761
 40
0.0113417217658111
 40
0.0150684339345073
 40
0.0187704499283906
 40
0.02244990683037
 40
0.0261088218166669
 40
0.0297483823522736
 40
0.033370345860127
 40
0.0369769236389015
 40
0.0405690460953358
 40
0.0441474496385912
 40
0.047713493299576
 40
0.0512693128630317
 40
0.0548166300582946
 40
0.0583578259003776
 40
0.0618947920245468
 40
0.065428494162583
 40
0.0689571018732697
 40
0.0724786644233892
 40
0.0759924933937728
 40
0.0794980231318217
 40
0.0829941921820965
 40
0.0864810370488318
 40
0.0899602303919007
 40
0.0934327733543609
 40
0.0969000125342612
 40
0.1003640810683428
 40
0.1038262892595067
 40
0.1072884701687562
 40
0.1107518175843432
 40
0.1142179510584468
 40
0.1176875692289818
 40
0.121162267418774
 40
0.1246440910119353
 40
0.1281351149778226
 40
0.1316369112830533
 40
0.1351495443390752
 40
0.1386730263752982
 40
0.1422081427311379
 40
0.1457573019979531
 40
0.1493224963186152
 40
0.1493224963186152
 40
0.1493224963186152
 40
0.1493224963186152
 10
90.56047749981861
 20
-7.779676353000013
 30
0.0
 10
90.56169738379741
 20
-7.779324281498702
 30
0.0
 10
90.56412752755296
 20
-7.778621803170835
 30
0.0
 10
90.56775852373084
 20
-7.777568898109052
 30
0.0
 10
90.57136230272556
 20
-7.776520650889892
 30
0.0
 10
90.57494030241697
 20
-7.775476727707996
 30
0.0
 10
90.57849399182874
 20
-7.774436779734173
 30
0.0
 10
90.58202516463826
 20
-7.773400356528782
 30
0.0
 10
90.58553554571643
 20
-7.772367020650449
 30
0.0
 10
90.58902673690182
 20
-7.771336364459784
 30
0.0
 10
90.59250040056292
 20
-7.770307956437363
 30
0.0
 10
90.59595811527969
 20
-7.76928138354981
 30
0.0
 10
90.59940113197034
 20
-7.768256324600031
 30
0.0
 10
90.60283042826132
 20
-7.767232535762104
 30
0.0
 10
90.60624736577166
 20
-7.766209654619046
 30
0.0
 10
90.60965361937883
 20
-7.765187219682843
 30
0.0
 10
90.61305118862287
 20
-7.764164665914108
 30
0.0
 10
90.61644199336399
 20
-7.763141445711426
 30
0.0
 10
90.61982771054557
 20
-7.762117078594599
 30
0.0
 10
90.62320867234882
 20
-7.761091486836107
 30
0.0
 10
90.62658398546682
 20
-7.760064964863488
 30
0.0
 10
90.6299522301648
 20
-7.759037971009774
 30
0.0
 10
90.63331239108583
 20
-7.758010844130581
 30
0.0
 10
90.6366637370694
 20
-7.756983838615099
 30
0.0
 10
90.64000576856892
 20
-7.755957139764291
 30
0.0
 10
90.64333869950269
 20
-7.75493071443725
 30
0.0
 10
90.64666340040412
 20
-7.753904325453049
 30
0.0
 10
90.64998115815171
 20
-7.752877603669617
 30
0.0
 10
90.65329340517427
 20
-7.751850130919024
 30
0.0
 10
90.65660167105944
 20
-7.75082145428621
 30
0.0
 10
90.65990763891603
 20
-7.749791068339845
 30
0.0
 10
90.66321269163575
 20
-7.748758556601387
 30
0.0
 10
90.66651830934745
 20
-7.747723468064066
 30
0.0
 10
90.66982561022177
 20
-7.746685461151685
 30
0.0
 10
90.67313583921782
 20
-7.745644151230976
 30
0.0
 10
90.67645037570811
 20
-7.74459910788255
 30
0.0
 10
90.67977103534962
 20
-7.743549758697099
 30
0.0
 10
90.68309962489616
 20
-7.7424955289041
 30
0.0
 10
90.68643732029796
 20
-7.741436039005975
 30
0.0
 10
90.68978464144676
 20
-7.740371115317429
 30
0.0
 10
90.69314185813153
 20
-7.739300662928258
 30
0.0
 10
90.69650998426244
 20
-7.738224348461528
 30
0.0
 10
90.69989066136134
 20
-7.737141634484942
 30
0.0
 10
90.70214865142508
 20
-7.736416884490949
 30
0.0
 10
90.70328007511852
 20
-7.736053331899995
 30
0.0
 11
90.56047749981861
 21
-7.779676353000013
 31
0.0
 11
90.56413671011865
 21
-7.778618600900017
 31
0.0
 11
90.56776706461858
 21
-7.77756589759997
 31
0.0
 11
90.57137053861856
 21
-7.776517759
 31
0.0
 11
90.57494810891853
 21
-7.775473984500024
 31
0.0
 11
90.57850113481856
 21
-7.774434256599988
 31
0.0
 11
90.58203168451859
 21
-7.773398044099963
 31
0.0
 11
90.58554170921865
 21
-7.772364842299964
 31
0.0
 11
90.58903236251854
 21
-7.771334374599973
 31
0.0
 11
90.59250534341856
 21
-7.770306198299977
 31
0.0
 11
90.59596278441858
 21
-7.76927973559998
 31
0.0
 11
90.59940558851861
 21
-7.768254767499968
 31
0.0
 11
90.60283447211862
 21
-7.767231127699972
 31
0.0
 11
90.60625074741858
 21
-7.766208468700028
 31
0.0
 11
90.60965646931856
 21
-7.765186215100015
 31
0.0
 11
90.61305329451863
 21
-7.7641639048
 31
0.0
 11
90.61644350931851
 21
-7.76314087969996
 31
0.0
 11
90.61982892971855
 21
-7.762116616900016
 31
0.0
 11
90.62321048421859
 21
-7.761090857199974
 31
0.0
 11
90.6265864256186
 21
-7.760064153099961
 31
0.0
 11
90.62995489331866
 21
-7.759037097399982
 31
0.0
 11
90.63331523531861
 21
-7.75800991829999
 31
0.0
 11
90.63666691761865
 21
-7.756982809799978
 31
0.0
 11
90.64000893281855
 21
-7.755956112999967
 31
0.0
 11
90.64334132361864
 21
-7.754929848100005
 31
0.0
 11
90.64666569581858
 21
-7.753903551599989
 31
0.0
 11
90.64998301251852
 21
-7.752876954399994
 31
0.0
 11
90.65329456591859
 21
-7.751849682099987
 31
0.0
 11
90.6566023981186
 21
-7.750821122800005
 31
0.0
 11
90.65990776411855
 21
-7.74979090429997
 31
0.0
 11
90.66321241681862
 21
-7.748758494900016
 31
0.0
 11
90.66651749781863
 21
-7.747723549800014
 31
0.0
 11
90.66982455401864
 21
-7.746685593599977
 31
0.0
 11
90.67313425271857
 21
-7.745644423499982
 31
0.0
 11
90.67644811591856
 21
-7.744599565399994
 31
0.0
 11
90.6797680934186
 21
-7.743550405199982
 31
0.0
 11
90.68309616181863
 21
-7.742496315300002
 31
0.0
 11
90.6864338167186
 21
-7.741436815200017
 31
0.0
 11
90.68978111621857
 21
-7.740371878500013
 31
0.0
 11
90.69313806871855
 21
-7.739301494599999
 31
0.0
 11
90.69650541901864
 21
-7.738225417399974
 31
0.0
 11
90.69988545721868
 21
-7.737142903699975
 31
0.0
 11
90.70328007511852
 21
-7.736053331899995
 31
0.0
  0
SPLINE
  5
5588E
330
1F
100
AcDbEntity
  8
1
100
AcDbSpline
210
0.0
220
0.0
230
1.0
 70
     8
 71
     3
 72
    49
 73
    45
 74
    43
 42
0.0000000001
 43
0.0000000001
 44
0.000001
 12
0.9795221475833338
 22
0.2013364407993085
 32
0.0
 13
0.972518927683026
 23
0.2328238288884051
 33
0.0
 40
0.0
 40
0.0
 40
0.0
 40
0.0
 40
0.0037781183460146
 40
0.0075288752596645
 40
0.0112543888829467
 40
0.0149560208887035
 40
0.0186350866264123
 40
0.0222936588485689
 40
0.0259338857648625
 40
0.0295568667187805
 40
0.0331639354630743
 40
0.0367570642840015
 40
0.0403379844215638
 40
0.0439071680658808
 40
0.047465296395338
 40
0.051013893866901
 40
0.0545554367690628
 40
0.0580918939767081
 40
0.061624554895587
 40
0.065153319150974
 40
0.0686777684785407
 40
0.072195867538743
 40
0.0757058293554653
 40
0.0792071371415735
 40
0.0826995079374746
 40
0.0861841845769552
 40
0.0896627105747152
 40
0.0931367420156403
 40
0.096607195182788
 40
0.1000757607436051
 40
0.1035440699647004
 40
0.1070140045167268
 40
0.1104862708135661
 40
0.1139613979479696
 40
0.1174410916653276
 40
0.1209269617409372
 40
0.1244201290387978
 40
0.1279226392495159
 40
0.1314362341279531
 40
0.134961641485611
 40
0.13849965349288
 40
0.1420520170066402
 40
0.1456202720119394
 40
0.1492047024431674
 40
0.1492047024431674
 40
0.1492047024431674
 40
0.1492047024431674
 10
90.41485890931857
 20
-7.812162323099983
 30
0.0
 10
90.41609249285057
 20
-7.811908765466398
 30
0.0
 10
90.41855049525555
 20
-7.811402362145202
 30
0.0
 10
90.42222410325065
 20
-7.810642044936173
 30
0.0
 10
90.42587206740847
 20
-7.809883628734439
 30
0.0
 10
90.42949596678203
 20
-7.809126870842362
 30
0.0
 10
90.43309736449419
 20
-7.808371525243217
 30
0.0
 10
90.43667807899238
 20
-7.807617285370724
 30
0.0
 10
90.44023985687898
 20
-7.806863852209971
 30
0.0
 10
90.44378420253702
 20
-7.80611097134863
 30
0.0
 10
90.44731256195394
 20
-7.80535839511856
 30
0.0
 10
90.45082658600245
 20
-7.804605826166039
 30
0.0
 10
90.45432764357803
 20
-7.80385302139382
 30
0.0
 10
90.45781668198264
 20
-7.80309982382073
 30
0.0
 10
90.46129458055725
 20
-7.802346087893113
 30
0.0
 10
90.46476287076222
 20
-7.801591522679018
 30
0.0
 10
90.4682235022758
 20
-7.800835740117065
 30
0.0
 10
90.47167834687138
 20
-7.800078362323347
 30
0.0
 10
90.47512843627941
 20
-7.799319190146491
 30
0.0
 10
90.47857402463614
 20
-7.798558193038843
 30
0.0
 10
90.48201428403286
 20
-7.797795579788726
 30
0.0
 10
90.48544783843089
 20
-7.797031683989189
 30
0.0
 10
90.48887328078047
 20
-7.796266850808024
 30
0.0
 10
90.49228977494271
 20
-7.795501301531146
 30
0.0
 10
90.49569747060877
 20
-7.794735037809516
 30
0.0
 10
90.49909718724496
 20
-7.793967909181333
 30
0.0
 10
90.50249037407764
 20
-7.79319961938313
 30
0.0
 10
90.50587837321598
 20
-7.792429891726612
 30
0.0
 10
90.50926257373248
 20
-7.791658434618113
 30
0.0
 10
90.5126443557574
 20
-7.79088495425492
 30
0.0
 10
90.51602541213879
 20
-7.790109080640718
 30
0.0
 10
90.51940711491637
 20
-7.78933051249578
 30
0.0
 10
90.52279047731349
 20
-7.788549027404314
 30
0.0
 10
90.52617645486339
 20
-7.787764413646243
 30
0.0
 10
90.52956629578899
 20
-7.786976388585173
 30
0.0
 10
90.53296143957892
 20
-7.786184621104098
 30
0.0
 10
90.53636343517679
 20
-7.785388750434549
 30
0.0
 10
90.53977387339058
 20
-7.784588401580549
 30
0.0
 10
90.54319421646097
 20
-7.78378322513754
 30
0.0
 10
90.5466255191094
 20
-7.782972964046109
 30
0.0
 10
90.55006883711859
 20
-7.782157358364315
 30
0.0
 10
90.55352548900122
 20
-7.781336082752204
 30
0.0
 10
90.55699662758593
 20
-7.780508847568512
 30
0.0
 10
90.55931552433889
 20
-7.779954533272473
 30
0.0
 10
90.56047749981861
 20
-7.779676353000013
 30
0.0
 11
90.41485890931857
 21
-7.812162323099983
 31
0.0
 11
90.41855931631857
 21
-7.811399965499958
 31
0.0
 11
90.42223224181862
 21
-7.810639796700002
 31
0.0
 11
90.42587977431855
 21
-7.809881476300006
 31
0.0
 11
90.4295032603186
 21
-7.809124810000014
 31
0.0
 11
90.4331040000186
 21
-7.808369607200006
 31
0.0
 11
90.43668403371862
 21
-7.807615515099996
 31
0.0
 11
90.44024547411856
 21
-7.806862157499949
 31
0.0
 11
90.44378940651858
 21
-7.806109368500017
 31
0.0
 11
90.44731714471856
 21
-7.805356928899982
 31
0.0
 11
90.45083062591857
 21
-7.80460448040003
 31
0.0
 11
90.45433155031856
 21
-7.803851708399974
 31
0.0
 11
90.45782038641858
 21
-7.803098558700014
 31
0.0
 11
90.46129780661862
 21
-7.802344930599986
 31
0.0
 11
90.46476530681855
 21
-7.801590541200027
 31
0.0
 11
90.46822531181851
 21
-7.800834899300014
 31
0.0
 11
90.47167974911848
 21
-7.800077614299993
 31
0.0
 11
90.47512988141852
 21
-7.799318435700001
 31
0.0
 11
90.47857561371859
 21
-7.798557409499949
 31
0.0
 11
90.48201654081855
 21
-7.797794650799971
 31
0.0
 11
90.48545067941859
 21
-7.797030627200001
 31
0.0
 11
90.48887629011858
 21
-7.796265758499998
 31
0.0
 11
90.49229287401862
 21
-7.795500190999973
 31
0.0
 11
90.49570016071857
 21
-7.794734020899966
 31
0.0
 11
90.49909936831864
 21
-7.793967008700008
 31
0.0
 11
90.50249200731855
 21
-7.793198844299979
 31
0.0
 11
90.5058796970186
 21
-7.792429187999914
 31
0.0
 11
90.50926333451867
 21
-7.791657860200018
 31
0.0
 11
90.51264457111859
 21
-7.790884505300027
 31
0.0
 11
90.51602499921864
 21
-7.790108776299973
 31
0.0
 11
90.5194064542186
 21
-7.789330265300009
 31
0.0
 11
90.52278962541857
 21
-7.788548824299994
 31
0.0
 11
90.52617502891861
 21
-7.787764343099979
 31
0.0
 11
90.52956432661858
 21
-7.786976443599996
 31
0.0
 11
90.53295908591861
 21
-7.786184764799997
 31
0.0
 11
90.53636039721856
 21
-7.785389052799985
 31
0.0
 11
90.53977025071857
 21
-7.784588839799994
 31
0.0
 11
90.54319033951855
 21
-7.783783722099997
 31
0.0
 11
90.54662136901857
 21
-7.782973524999988
 31
0.0
 11
90.55006410691863
 21
-7.78215805740001
 31
0.0
 11
90.55352024921853
 21
-7.781336905099976
 31
0.0
 11
90.55699128971856
 21
-7.780509697599995
 31
0.0
 11
90.56047749981861
 21
-7.779676353000013
 31
0.0
  0
SPLINE
  5
5588F
330
1F
100
AcDbEntity
  8
1
100
AcDbSpline
210
0.0
220
0.0
230
1.0
 70
     8
 71
     3
 72
    55
 73
    51
 74
    49
 42
0.0000000001
 43
0.0000000001
 44
0.000001
 12
0.9931926428111824
 22
0.1164833647596908
 32
0.0
 13
0.9873221771971614
 23
0.1587290723675311
 33
0.0
 40
0.0
 40
0.0
 40
0.0
 40
0.0
 40
0.0039781547715506
 40
0.0079199905754695
 40
0.0118267108004649
 40
0.0157002888130132
 40
0.0195428372773523
 40
0.0233558358218499
 40
0.0271409172068084
 40
0.0309003791846649
 40
0.0346358850828117
 40
0.0383482631655935
 40
0.0420386838090111
 40
0.0457090412595202
 40
0.0493611783578228
 40
0.0529969474582253
 40
0.0566181715424828
 40
0.0602267785031978
 40
0.0638245808802968
 40
0.0674125317925834
 40
0.0709916537883161
 40
0.0745638152571272
 40
0.0781305959375121
 40
0.0816926432032916
 40
0.0852510524039182
 40
0.0888068731815887
 40
0.0923595850256429
 40
0.0959076250756398
 40
0.0994499182976078
 40
0.1029864166256573
 40
0.1065170052502109
 40
0.1100409765370547
 40
0.1135590525370968
 40
0.1170729665260093
 40
0.1205840234838178
 40
0.12409409669472
 40
0.1276048374083663
 40
0.1311166331394366
 40
0.1346303309291674
 40
0.1381476221381299
 40
0.1416703185703167
 40
0.1452001918145498
 40
0.1487388835360551
 40
0.1522880328166809
 40
0.1558486180761099
 40
0.159421462305847
 40
0.1630081807733562
 40
0.1666101188296396
 40
0.170228240751686
 40
0.173864227762453
 40
0.173864227762453
 40
0.173864227762453
 40
0.173864227762453
 10
90.24268833981864
 20
-7.836276157199961
 30
0.0
 10
90.24400536450229
 20
-7.836121694248845
 30
0.0
 10
90.24662721738616
 20
-7.835812705044304
 30
0.0
 10
90.25054184466728
 20
-7.835346946228867
 30
0.0
 10
90.2544213491908
 20
-7.834881056009294
 30
0.0
 10
90.25826749314683
 20
-7.834414960291951
 30
0.0
 10
90.2620821293093
 20
-7.833948563724959
 30
0.0
 10
90.26586699684754
 20
-7.833481775065479
 30
0.0
 10
90.26962389534151
 20
-7.833014486549359
 30
0.0
 10
90.27335468423359
 20
-7.832546573542117
 30
0.0
 10
90.27706095600729
 20
-7.832077935870245
 30
0.0
 10
90.28074392965505
 20
-7.831608513472303
 30
0.0
 10
90.28440489997525
 20
-7.831138230610122
 30
0.0
 10
90.28804549652591
 20
-7.830666961672477
 30
0.0
 10
90.2916675734839
 20
-7.830194544073094
 30
0.0
 10
90.29527296059701
 20
-7.829720810319088
 30
0.0
 10
90.29886351485652
 20
-7.829245581469308
 30
0.0
 10
90.30244107922522
 20
-7.828768672679018
 30
0.0
 10
90.30600720842585
 20
-7.828289930242988
 30
0.0
 10
90.30956315742333
 20
-7.827809234840003
 30
0.0
 10
90.3131101990955
 20
-7.827326459888411
 30
0.0
 10
90.31664981266249
 20
-7.826841445336071
 30
0.0
 10
90.32018335275461
 20
-7.826354042407615
 30
0.0
 10
90.32371191818482
 20
-7.825864132931371
 30
0.0
 10
90.32723643230804
 20
-7.825371619326574
 30
0.0
 10
90.33075743255665
 20
-7.824876454715365
 30
0.0
 10
90.33427457885499
 20
-7.824378714628892
 30
0.0
 10
90.33778683027458
 20
-7.823878576100696
 30
0.0
 10
90.3412933023659
 20
-7.823376197483185
 30
0.0
 10
90.34479358886324
 20
-7.822871670811537
 30
0.0
 10
90.3482874049023
 20
-7.822365071436252
 30
0.0
 10
90.35177471983127
 20
-7.821856438497889
 30
0.0
 10
90.35525611255549
 20
-7.821345721564171
 30
0.0
 10
90.35873282534863
 20
-7.820832769631238
 30
0.0
 10
90.36220647948312
 20
-7.82031737092052
 30
0.0
 10
90.36567866845258
 20
-7.819799312337522
 30
0.0
 10
90.3691506825711
 20
-7.819278420832404
 30
0.0
 10
90.37262347335445
 20
-7.818754570453506
 30
0.0
 10
90.37609800516497
 20
-7.818227630499336
 30
0.0
 10
90.37957571125014
 20
-7.817697395465756
 30
0.0
 10
90.38305832880315
 20
-7.817163608484975
 30
0.0
 10
90.38654757785115
 20
-7.816626009860954
 30
0.0
 10
90.39004512074781
 20
-7.816084343532565
 30
0.0
 10
90.39355235785388
 20
-7.81553838917523
 30
0.0
 10
90.39707041930251
 20
-7.814987964632223
 30
0.0
 10
90.40060042691493
 20
-7.81443288594221
 30
0.0
 10
90.40414362281536
 20
-7.813872946822357
 30
0.0
 10
90.40770129506666
 20
-7.813307929934808
 30
0.0
 10
90.41127475284794
 20
-7.81273761099095
 30
0.0
 10
90.41366227911465
 20
-7.812354702048423
 30
0.0
 10
90.41485890931857
 20
-7.812162323099983
 30
0.0
 11
90.24268833981864
 21
-7.836276157199961
 31
0.0
 11
90.24663916001861
 21
-7.835810554799991
 31
0.0
 11
90.25055340481868
 21
-7.835344837099967
 31
0.0
 11
90.25443227981861
 21
-7.83487900839998
 31
0.0
 11
90.25827775451853
 21
-7.83441297180002
 31
0.0
 11
90.26209193591853
 21
-7.833946602999958
 31
0.0
 11
90.26587630181859
 21
-7.833479843899965
 31
0.0
 11
90.26963248141862
 21
-7.833012609499974
 31
0.0
 11
90.27336276301866
 21
-7.832544723000012
 31
0.0
 11
90.27706880451853
 21
-7.832076076500015
 31
0.0
 11
90.28075143481862
 21
-7.831606660100021
 31
0.0
 11
90.28441182181859
 21
-7.831136415300022
 31
0.0
 11
90.28805185081864
 21
-7.830665184599979
 31
0.0
 11
90.29167335531861
 21
-7.830192808700019
 31
0.0
 11
90.29527817741859
 21
-7.829719118799971
 31
0.0
 11
90.29886812931863
 21
-7.829243942299967
 31
0.0
 11
90.30244512641866
 21
-7.828767085200013
 31
0.0
 11
90.3060109689186
 21
-7.828288360899989
 31
0.0
 11
90.30956660461857
 21
-7.827807691299994
 31
0.0
 11
90.31311304971859
 21
-7.827324984799986
 31
0.0
 11
90.31665215801854
 21
-7.826840030799985
 31
0.0
 11
90.32018549651866
 21
-7.826352650899991
 31
0.0
 11
90.32371370811858
 21
-7.825862789700011
 31
0.0
 11
90.32723787911857
 21
-7.825370326999973
 31
0.0
 11
90.33075905011855
 21
-7.824875144999964
 31
0.0
 11
90.33427670671859
 21
-7.824377342700017
 31
0.0
 11
90.33778930301854
 21
-7.823877168299986
 31
0.0
 11
90.34129577681857
 21
-7.823374805599996
 31
0.0
 11
90.3447960829186
 21
-7.822870294799997
 31
0.0
 11
90.3482901102186
 21
-7.822363685899972
 31
0.0
 11
90.35177716121859
 21
-7.821855115099992
 31
0.0
 11
90.35525795321859
 21
-7.821344512099983
 31
0.0
 11
90.35873420361861
 21
-7.820831656299958
 31
0.0
 11
90.3622072054186
 21
-7.820316384199998
 31
0.0
 11
90.36567881311862
 21
-7.819798443899969
 31
0.0
 11
90.3691506608186
 21
-7.819277610299991
 31
0.0
 11
90.37262313241853
 21
-7.818753842099965
 31
0.0
 11
90.37609706601859
 21
-7.818227027700004
 31
0.0
 11
90.37957413401864
 21
-7.817696925300026
 31
0.0
 11
90.38305612711861
 21
-7.817163269399998
 31
0.0
 11
90.3865447955186
 21
-7.816625795200025
 31
0.0
 11
90.39004176031857
 21
-7.816084252699965
 31
0.0
 11
90.39354863931862
 21
-7.815538387000003
 31
0.0
 11
90.39706639701853
 21
-7.814988041099979
 31
0.0
 11
90.40059584401864
 21
-7.814433079399975
 31
0.0
 11
90.40413857311865
 21
-7.813873239899976
 31
0.0
 11
90.40769590991862
 21
-7.813308298499975
 31
0.0
 11
90.41126880321849
 21
-7.812738087599996
 31
0.0
 11
90.41485890931857
 21
-7.812162323099983
 31
0.0
  0
SPLINE
  5
55890
330
1F
100
AcDbEntity
  8
1
100
AcDbSpline
210
0.0
220
0.0
230
1.0
 70
     8
 71
     3
 72
    11
 73
     7
 74
     5
 42
0.0000000001
 43
0.0000000001
 44
0.000001
 12
-0.9995613952663033
 22
0.0296144743880585
 32
0.0
 13
-0.9995142668509302
 23
0.0311645690078932
 33
0.0
 40
0.0
 40
0.0
 40
0.0
 40
0.0
 40
0.14094448087595
 40
0.2820690479441856
 40
0.4233653547943872
 40
0.5648249769262418
 40
0.5648249769262418
 40
0.5648249769262418
 40
0.5648249769262418
 10
86.47578436671848
 20
-7.824664160199972
 30
0.0
 10
86.42882347939872
 20
-7.823272827960295
 30
0.0
 10
86.3348423132229
 20
-7.820467729600466
 30
0.0
 10
86.1937850967447
 20
-7.816199138044737
 30
0.0
 10
86.05255791333389
 20
-7.811870587414375
 30
0.0
 10
85.95835122452001
 20
-7.808949073585267
 30
0.0
 10
85.91122092101864
 20
-7.807479564199979
 30
0.0
 11
86.47578436671848
 21
-7.824664160199972
 31
0.0
 11
86.33490258661856
 21
-7.820460431599997
 31
0.0
 11
86.19384259191861
 21
-7.816191754800001
 31
0.0
 11
86.05261260651856
 21
-7.811863119599991
 31
0.0
 11
85.91122092101864
 21
-7.807479564199979
 31
0.0
  0
SPLINE
  5
55891
330
1F
100
AcDbEntity
  8
1
100
AcDbSpline
210
0.0
220
0.0
230
1.0
 70
     8
 71
     3
 72
    11
 73
     7
 74
     5
 42
0.0000000001
 43
0.0000000001
 44
0.000001
 12
-0.9996296322626267
 22
0.0272139358139455
 32
0.0
 13
-0.9995805655575267
 23
0.0289601961266644
 33
0.0
 40
0.0
 40
0.0
 40
0.0
 40
0.0
 40
0.1409124149412078
 40
0.2820063265685995
 40
0.423273593826703
 40
0.5647059683824212
 40
0.5647059683824212
 40
0.5647059683824212
 40
0.5647059683824212
 10
87.0402669237186
 20
-7.840544886899976
 30
0.0
 10
86.99331351520891
 20
-7.839266626428127
 30
0.0
 10
86.89934684500668
 20
-7.83668551189595
 30
0.0
 10
86.75831064692181
 20
-7.832746191760975
 30
0.0
 10
86.61710293326416
 20
-7.828740350509178
 30
0.0
 10
86.52290871770061
 20
-7.826029463301892
 30
0.0
 10
86.47578436671848
 20
-7.824664160199972
 30
0.0
 11
87.0402669237186
 21
-7.840544886899976
 31
0.0
 11
86.89940760241848
 21
-7.836676943700012
 31
0.0
 11
86.75836869461864
 21
-7.83273756760002
 31
0.0
 11
86.6171582392185
 21
-7.828731629000003
 31
0.0
 11
86.47578436671848
 21
-7.824664160199972
 31
0.0
  0
SPLINE
  5
55892
330
1F
100
AcDbEntity
  8
1
100
AcDbSpline
210
0.0
220
0.0
230
1.0
 70
     8
 71
     3
 72
    21
 73
    17
 74
    15
 42
0.0000000001
 43
0.0000000001
 44
0.000001
 12
-0.9996930120870421
 22
0.0247766338378975
 32
0.0
 13
-0.9996425553194697
 23
0.026735025609883
 33
0.0
 40
0.0
 40
0.0
 40
0.0
 40
0.0
 40
0.0213414000497966
 40
0.0447034015316454
 40
0.070215157101486
 40
0.098003488808885
 40
0.1282214733162502
 40
0.1611115211214559
 40
0.196946042880876
 40
0.2359890184656997
 40
0.2786149926655883
 40
0.3254368080659486
 40
0.3770763927975167
 40
0.4337029595980518
 40
0.4958651031728393
 40
0.5645893129825409
 40
0.5645893129825409
 40
0.5645893129825409
 40
0.5645893129825409
 10
87.60466816731854
 20
-7.855112899299967
 30
0.0
 10
87.59755655115259
 20
-7.854936643281746
 30
0.0
 10
87.58266000752337
 20
-7.854566807752291
 30
0.0
 10
87.55926221534082
 20
-7.853983884996296
 30
0.0
 10
87.53371617621622
 20
-7.853344889768322
 30
0.0
 10
87.50588558256948
 20
-7.852646411025375
 30
0.0
 10
87.47559642341048
 20
-7.851882606811955
 30
0.0
 10
87.44262615816069
 20
-7.851047039794366
 30
0.0
 10
87.4067152998433
 20
-7.850131971874588
 30
0.0
 10
87.36756030348862
 20
-7.849129627575848
 30
0.0
 10
87.32474423969483
 20
-7.848027155552017
 30
0.0
 10
87.27773088466937
 20
-7.846809352137597
 30
0.0
 10
87.22605245512477
 20
-7.845462050031358
 30
0.0
 10
87.16926258509534
 20
-7.843971335641981
 30
0.0
 10
87.10678011406868
 20
-7.842319300199847
 30
0.0
 10
87.06316680528743
 20
-7.841157334736408
 30
0.0
 10
87.0402669237186
 20
-7.840544886899976
 30
0.0
 11
87.60466816731854
 21
-7.855112899299967
 31
0.0
 11
87.58333333861855
 21
-7.854583328499984
 31
0.0
 11
87.55997857621855
 21
-7.85400177729997
 31
0.0
 11
87.53447478361863
 21
-7.853364390100011
 31
0.0
 11
87.50669519891857
 21
-7.852667200300004
 31
0.0
 11
87.47648681671853
 21
-7.851905452899984
 31
0.0
 11
87.44360732541862
 21
-7.851072178899983
 31
0.0
 11
87.40778442561861
 21
-7.850159542399978
 31
0.0
 11
87.36875425181859
 21
-7.849159778900002
 31
0.0
 11
87.32614241201861
 21
-7.848062140699994
 31
0.0
 11
87.27933630451866
 21
-7.846849424499964
 31
0.0
 11
87.22771426221857
 21
-7.845503548599992
 31
0.0
 11
87.17110719251854
 21
-7.844017754899994
 31
0.0
 11
87.10896676181858
 21
-7.842374957000004
 31
0.0
 11
87.0402669237186
 21
-7.840544886899976
 31
0.0
  0
SPLINE
  5
55893
330
1F
100
AcDbEntity
  8
1
100
AcDbSpline
210
0.0
220
0.0
230
1.0
 70
     8
 71
     3
 72
    36
 73
    32
 74
    30
 42
0.0000000001
 43
0.0000000001
 44
0.000001
 12
-0.9997702938011791
 22
0.0214326767507934
 32
0.0
 13
-0.9997000679241107
 23
0.0244902877183641
 33
0.0
 40
0.0
 40
0.0
 40
0.0
 40
0.0
 40
0.0106801542148277
 40
0.0224363235532059
 40
0.035320002276276
 40
0.0493481474601342
 40
0.0644240697323563
 40
0.0803906828546147
 40
0.0970764175587812
 40
0.1142661374564461
 40
0.1317191243516284
 40
0.1492567892539142
 40
0.1667785943159479
 40
0.1843807728106466
 40
0.2022999726434696
 40
0.2205006544258138
 40
0.238732749590797
 40
0.2568693807435795
 40
0.2749304945269171
 40
0.2930805345592442
 40
0.3114030893488867
 40
0.3296238314781596
 40
0.3478413527207802
 40
0.3670383705149858
 40
0.3885342698500176
 40
0.4135617243609
 40
0.4421561222151306
 40
0.4725981367235481
 40
0.5032298615332174
 40
0.5337598833371563
 40
0.5646135853140169
 40
0.5646135853140169
 40
0.5646135853140169
 40
0.5646135853140169
 10
88.16912455353099
 20
-7.86702945606504
 30
0.0
 10
88.16556531989192
 20
-7.866953154634074
 30
0.0
 10
88.15808358639481
 20
-7.867082163483814
 30
0.0
 10
88.14632199699417
 20
-7.867572729713401
 30
0.0
 10
88.13342967709491
 20
-7.867787235430057
 30
0.0
 10
88.11943938119361
 20
-7.867311233968734
 30
0.0
 10
88.10441939856536
 20
-7.867004118255408
 30
0.0
 10
88.08851467298735
 20
-7.866611009685129
 30
0.0
 10
88.07190542748299
 20
-7.866214483572207
 30
0.0
 10
88.05480094843142
 20
-7.865800293657059
 30
0.0
 10
88.03741248697258
 20
-7.865383579630588
 30
0.0
 10
88.01991323861603
 20
-7.864969219866111
 30
0.0
 10
88.00236418251234
 20
-7.864557605030654
 30
0.0
 10
87.9846879135589
 20
-7.864145970390723
 30
0.0
 10
87.96678536364675
 20
-7.863731227461869
 30
0.0
 10
87.94867286543956
 20
-7.863313021944804
 30
0.0
 10
87.93048789464297
 20
-7.862893785333142
 30
0.0
 10
87.91234943625363
 20
-7.862475529795347
 30
0.0
 10
87.89423834082072
 20
-7.862057102253004
 30
0.0
 10
87.87606532197434
 20
-7.861635747438185
 30
0.0
 10
87.85783916208334
 20
-7.861210830529842
 30
0.0
 10
87.83959058076993
 20
-7.860782558962398
 30
0.0
 10
87.82105065295183
 20
-7.860344860788472
 30
0.0
 10
87.80141937259031
 20
-7.859878759746891
 30
0.0
 10
87.77951882314949
 20
-7.859355874418042
 30
0.0
 10
87.75448678652901
 20
-7.858754862567195
 30
0.0
 10
87.72647365727697
 20
-7.858078675789442
 30
0.0
 10
87.6965930625006
 20
-7.857354080624418
 30
0.0
 10
87.6660674968582
 20
-7.856611887728718
 30
0.0
 10
87.63540480836173
 20
-7.855863661383068
 30
0.0
 10
87.61494964997245
 20
-7.855364771312849
 30
0.0
 10
87.60466816731854
 20
-7.855112899299967
 30
0.0
 11
88.16912455353099
 21
-7.86702945606504
 31
0.0
 11
88.15844475441862
 21
-7.867118355812294
 31
0.0
 11
88.1466951616186
 21
-7.867511279373843
 31
0.0
 11
88.13381255641866
 21
-7.867677747699985
 31
0.0
 11
88.11978813181861
 21
-7.867354691999992
 31
0.0
 11
88.10471636471858
 21
-7.867000773899974
 31
0.0
 11
88.08875429011857
 21
-7.866620124499945
 31
0.0
 11
88.07207338881857
 21
-7.866218558199989
 31
0.0
 11
88.05488866601853
 21
-7.8658041292
 31
0.0
 11
88.0374406870186
 21
-7.865386085799968
 31
0.0
 11
88.01990794141852
 21
-7.864970748100006
 31
0.0
 11
88.00239095831853
 21
-7.864559721399928
 31
0.0
 11
87.98479355431856
 21
-7.8641497813
 31
0.0
 11
87.96687916441852
 21
-7.863734629600003
 31
0.0
 11
87.9486833353186
 21
-7.863314370599994
 31
0.0
 11
87.93045608611862
 21
-7.862894036599982
 31
0.0
 11
87.91232427751856
 21
-7.862475815299944
 31
0.0
 11
87.89426798451859
 21
-7.862058539799932
 31
0.0
 11
87.87612282401857
 21
-7.86163769579997
 31
0.0
 11
87.85780524831853
 21
-7.861210564700002
 31
0.0
 11
87.8395895207185
 21
-7.860783109999999
 31
0.0
 11
87.8213770734186
 21
-7.860353169799964
 31
0.0
 11
87.80218546311857
 21
-7.859897548399999
 31
0.0
 11
87.78069568641853
 21
-7.859384528100008
 31
0.0
 11
87.75567544001864
 21
-7.858783901499975
 31
0.0
 11
87.72708936551863
 21
-7.858094023299941
 31
0.0
 11
87.69665629161863
 21
-7.857356289599977
 31
0.0
 11
87.66603362011858
 21
-7.856611613899985
 31
0.0
 11
87.63551267151866
 21
-7.85586735610002
 31
0.0
 11
87.60466816731854
 21
-7.855112899299967
 31
0.0
  0
SPLINE
  5
55894
330
1F
100
AcDbEntity
  8
1
100
AcDbSpline
210
0.0
220
0.0
230
1.0
 70
     8
 71
     3
 72
    24
 73
    20
 74
    18
 42
0.0000000001
 43
0.0000000001
 44
0.000001
 12
-0.0810082892340973
 22
-0.9967134277591352
 32
0.0
 13
-0.2388057536782926
 23
-0.9710673570922578
 33
0.0
 40
0.0
 40
0.0
 40
0.0
 40
0.0
 40
0.0191614487240892
 40
0.0383211357518792
 40
0.0574774360768344
 40
0.0766287060448604
 40
0.0957751142049148
 40
0.1149158872639119
 40
0.1340502989502255
 40
0.153179073779244
 40
0.1723030083239169
 40
0.1914233018711828
 40
0.2105405314361017
 40
0.2296549330120657
 40
0.248767303588532
 40
0.267877953031363
 40
0.2869873873996218
 40
0.3060961790963992
 40
0.3252042603335095
 40
0.3252042603335095
 40
0.3252042603335095
 40
0.3252042603335095
 10
92.06868346261854
 20
-5.922512474600011
 30
0.0
 10
92.06816605055838
 20
-5.928878632346197
 30
0.0
 10
92.06707131950656
 20
-5.941605572188393
 30
0.0
 10
92.06524951244148
 20
-5.960678174707709
 30
0.0
 10
92.06324912969035
 20
-5.979729479447087
 30
0.0
 10
92.06107060044894
 20
-5.998756777333483
 30
0.0
 10
92.05871373288506
 20
-6.017757595352918
 30
0.0
 10
92.05617897994022
 20
-6.036729831894376
 30
0.0
 10
92.05346660412374
 20
-6.055671552669764
 30
0.0
 10
92.05057690366288
 20
-6.074581354984843
 30
0.0
 10
92.04751006577089
 20
-6.093458470120935
 30
0.0
 10
92.04426624884581
 20
-6.112302075007676
 30
0.0
 10
92.04084562380751
 20
-6.131111158188389
 30
0.0
 10
92.03724847323815
 20
-6.149884592031298
 30
0.0
 10
92.03347506118962
 20
-6.168621155914365
 30
0.0
 10
92.02952565575072
 20
-6.187319721803362
 30
0.0
 10
92.02540038786708
 20
-6.205979057540673
 30
0.0
 10
92.02110065822422
 20
-6.224598069942544
 30
0.0
 10
92.01811691103239
 20
-6.236982900617988
 30
0.0
 10
92.01659587111862
 20
-6.243167978600013
 30
0.0
 11
92.06868346261854
 21
-5.922512474600011
 31
0.0
 11
92.06704147161861
 21
-5.941603491299986
 31
0.0
 11
92.06522026141852
 21
-5.960676438799964
 31
0.0
 11
92.06322016601859
 21
-5.979728010799988
 31
0.0
 11
92.06104157721858
 21
-5.998754938599972
 31
0.0
 11
92.05868472061865
 21
-6.017755720100012
 31
0.0
 11
92.05614994711856
 21
-6.036727906299972
 31
0.0
 11
92.05343763471864
 21
-6.055669102299987
 31
0.0
 11
92.05054800451852
 21
-6.074578357999939
 31
0.0
 11
92.04748126041863
 21
-6.093454794799981
 31
0.0
 11
92.04423750771866
 21
-6.112297926099984
 31
0.0
 11
92.04081694661864
 21
-6.131106649499997
 31
0.0
 11
92.03721989331858
 21
-6.149879537499998
 31
0.0
 11
92.03344655581862
 21
-6.168615713000008
 31
0.0
 11
92.02949721721859
 21
-6.187313814399999
 31
0.0
 11
92.02537213521862
 21
-6.205972688200006
 31
0.0
 11
92.0210715433186
 21
-6.224591365200012
 31
0.0
 11
92.01659587111862
 21
-6.243167978600013
 31
0.0
  0
SPLINE
  5
55895
330
1F
100
AcDbEntity
  8
1
100
AcDbSpline
210
0.0
220
0.0
230
1.0
 70
     8
 71
     3
 72
    34
 73
    30
 74
    28
 42
0.0000000001
 43
0.0000000001
 44
0.000001
 12
0.0423311762737424
 22
-0.999103634021657
 32
0.0
 13
0.0007513889654043
 23
-0.9999997177072716
 33
0.0
 40
0.0
 40
0.0
 40
0.0
 40
0.0
 40
0.0206725595035004
 40
0.0413455094129604
 40
0.0620550962988966
 40
0.0827130924359479
 40
0.103012170644816
 40
0.1225858628336858
 40
0.1412254717362762
 40
0.1589903678775012
 40
0.1760240959824628
 40
0.1924861579689683
 40
0.208670660876996
 40
0.2248810626285605
 40
0.2411024356153444
 40
0.257196647221907
 40
0.2733582182079811
 40
0.2899124890282975
 40
0.3068033573273113
 40
0.3238264626121143
 40
0.3413413997277108
 40
0.3601749696337984
 40
0.3810956261231338
 40
0.4046214439182437
 40
0.4309608025634418
 40
0.4602915281993806
 40
0.492705722564846
 40
0.5282766403670155
 40
0.5670786709666014
 40
0.5670786709666014
 40
0.5670786709666014
 40
0.5670786709666014
 10
92.07078382971861
 20
-5.101079908200006
 30
0.0
 10
92.07107552763876
 20
-5.107964584641479
 30
0.0
 10
92.07163033305528
 20
-5.121735287544993
 30
0.0
 10
92.07238880151567
 20
-5.142406459813457
 30
0.0
 10
92.07305577789076
 20
-5.163075954235068
 30
0.0
 10
92.07362397583938
 20
-5.183623724069832
 30
0.0
 10
92.07409350933607
 20
-5.203795240506792
 30
0.0
 10
92.07446990738777
 20
-5.223295784280537
 30
0.0
 10
92.07475822571723
 20
-5.241952998399142
 30
0.0
 10
92.07497089493347
 20
-5.25976450638268
 30
0.0
 10
92.07511955751101
 20
-5.276850783284658
 30
0.0
 10
92.07521308690251
 20
-5.29341064024561
 30
0.0
 10
92.07525814334735
 20
-5.309696257262714
 30
0.0
 10
92.07525597160383
 20
-5.325901700169197
 30
0.0
 10
92.07522324097864
 20
-5.342076999219443
 30
0.0
 10
92.07517965626607
 20
-5.358235992220215
 30
0.0
 10
92.07514681451437
 20
-5.374505978766705
 30
0.0
 10
92.07512598306733
 20
-5.391041536589114
 30
0.0
 10
92.0751106060519
 20
-5.407864277664145
 30
0.0
 10
92.07509449717633
 20
-5.425007240346758
 30
0.0
 10
92.07507672860833
 20
-5.44279776890238
 30
0.0
 10
92.07505908558903
 20
-5.461887481987503
 30
0.0
 10
92.07504391653811
 20
-5.482980824770208
 30
0.0
 10
92.07503177599461
 20
-5.506576099418055
 30
0.0
 10
92.07502258135457
 20
-5.532974731968295
 30
0.0
 10
92.07501786264549
 20
-5.562336158003972
 30
0.0
 10
92.07502015358636
 20
-5.594774770925994
 30
0.0
 10
92.07503235755996
 20
-5.630370483342687
 30
0.0
 10
92.07504596434615
 20
-5.65516146285131
 30
0.0
 10
92.07505568281863
 20
-5.668095469399986
 30
0.0
 11
92.07078382971861
 21
-5.101079908200006
 31
0.0
 11
92.07161895931859
 21
-5.121735718899969
 31
0.0
 11
92.07237414931865
 21
-5.142394875200011
 31
0.0
 11
92.07304139261863
 21
-5.163093749300003
 31
0.0
 11
92.07361307531858
 21
-5.183743927199998
 31
0.0
 11
92.0740863225186
 21
-5.204037753600005
 31
0.0
 11
92.07446270631862
 21
-5.223608245999969
 31
0.0
 11
92.07475063831862
 21
-5.242245082099998
 31
0.0
 11
92.07496304071856
 21
-5.260008542700006
 31
0.0
 11
92.0751114143186
 21
-5.27704155340001
 31
0.0
 11
92.07520464411857
 21
-5.293503311099982
 31
0.0
 11
92.07524930571855
 21
-5.309687725699973
 31
0.0
 11
92.07524987161855
 21
-5.325898108199965
 31
0.0
 11
92.07522032831855
 21
-5.342119441000022
 31
0.0
 11
92.07518053481862
 21
-5.358213594799963
 31
0.0
 11
92.07514809901864
 21
-5.374375127999996
 31
0.0
 11
92.07512606961859
 21
-5.39092938089999
 31
0.0
 11
92.0751095753186
 21
-5.407820238900001
 31
0.0
 11
92.07509348671862
 21
-5.424843334800016
 31
0.0
 11
92.07507637801858
 21
-5.442358262000027
 31
0.0
 11
92.07505933911864
 21
-5.461191822800003
 31
0.0
 11
92.07504421321857
 21
-5.482112472600022
 31
0.0
 11
92.07503187411862
 21
-5.505638286100008
 31
0.0
 11
92.0750227084186
 21
-5.53197764219999
 31
0.0
 11
92.07501810271855
 21
-5.561308366599973
 31
0.0
 11
92.07502048211859
 21
-5.59372256009999
 31
0.0
 11
92.07503215701876
 21
-5.629293475300016
 31
0.0
 11
92.07505568281863
 21
-5.668095469399986
 31
0.0
  0
SPLINE
  5
55896
330
1F
100
AcDbEntity
  8
1
100
AcDbSpline
210
0.0
220
0.0
230
1.0
 70
     8
 71
     3
 72
    28
 73
    24
 74
    22
 42
0.0000000001
 43
0.0000000001
 44
0.000001
 12
0.0491201323274761
 22
-0.9987928777279757
 32
0.0
 13
0.0504174163819053
 23
-0.9987282333675031
 33
0.0
 40
0.0
 40
0.0
 40
0.0
 40
0.0
 40
0.0796699818219508
 40
0.1504813503349235
 40
0.2135506412617163
 40
0.2699055332308027
 40
0.3204802851157538
 40
0.3659243530697412
 40
0.4068152247160423
 40
0.4437486700380688
 40
0.4776596031446611
 40
0.5110965887809097
 40
0.5454362199367094
 40
0.579928838759916
 40
0.6141445792245201
 40
0.6480674351494978
 40
0.6826684981590257
 40
0.7195937857463494
 40
0.7598545647208429
 40
0.8026995912269828
 40
0.8468023940426123
 40
0.8900865681647823
 40
0.9306070606688885
 40
0.9306070606688885
 40
0.9306070606688885
 40
0.9306070606688885
 10
92.0208701984186
 20
-4.171819143800007
 30
0.0
 10
92.02217466510182
 20
-4.198343747270826
 30
0.0
 10
92.0246596945226
 20
-4.248442608785069
 30
0.0
 10
92.02823220321523
 20
-4.31953645756198
 30
0.0
 10
92.03146458532717
 20
-4.382865876850132
 30
0.0
 10
92.03439239971999
 20
-4.439456503755764
 30
0.0
 10
92.03703382023787
 20
-4.490179010599433
 30
0.0
 10
92.03941207152594
 20
-4.535753563580044
 30
0.0
 10
92.04155031620791
 20
-4.576787351764494
 30
0.0
 10
92.04348146583175
 20
-4.613982337071206
 30
0.0
 10
92.04527251286823
 20
-4.648696619393547
 30
0.0
 10
92.04701187309728
 20
-4.682547812394204
 30
0.0
 10
92.04876784198859
 20
-4.716592303058291
 30
0.0
 10
92.05055638159207
 20
-4.750895040934608
 30
0.0
 10
92.05236981420943
 20
-4.785057355634307
 30
0.0
 10
92.05422970915822
 20
-4.819253380252234
 30
0.0
 10
92.05619823335565
 20
-4.854347967926059
 30
0.0
 10
92.05836449450339
 20
-4.891547369246154
 30
0.0
 10
92.06080811818322
 20
-4.93148308265529
 30
0.0
 10
92.06345838387482
 20
-4.973803044920259
 30
0.0
 10
92.06613221313046
 20
-5.017131297352875
 30
0.0
 10
92.06863068127177
 20
-5.059694015964964
 30
0.0
 10
92.07010285020443
 20
-5.087590254902067
 30
0.0
 10
92.07078382971861
 20
-5.101079908200006
 30
0.0
 11
92.0208701984186
 21
-4.171819143800007
 31
0.0
 11
92.02481406421862
 21
-4.251391456399971
 31
0.0
 11
92.02837054961856
 21
-4.32211345669998
 31
0.0
 11
92.0315853709186
 21
-4.385100760199975
 31
0.0
 11
92.03449429431861
 21
-4.441380525900001
 31
0.0
 11
92.03712271671861
 21
-4.49188693069999
 31
0.0
 11
92.03948957571856
 21
-4.537269320300026
 31
0.0
 11
92.04161661091859
 21
-4.578104832999997
 31
0.0
 11
92.04353062441862
 21
-4.614988649599979
 31
0.0
 11
92.04527845601864
 21
-4.648854509399996
 31
0.0
 11
92.04699650901853
 21
-4.682247327399977
 31
0.0
 11
92.04876740861857
 21
-4.716541265300008
 31
0.0
 11
92.05056560911861
 21
-4.750986979499998
 31
0.0
 11
92.05238144041857
 21
-4.785154502900013
 31
0.0
 11
92.05422592141861
 21
-4.819027177000009
 31
0.0
 11
92.05616573831866
 21
-4.853573821999987
 31
0.0
 11
92.05831616751856
 21
-4.890436438899996
 31
0.0
 11
92.06076378831857
 21
-4.930622748299924
 31
0.0
 11
92.06342478931857
 21
-4.973385060099985
 31
0.0
 11
92.06612581141859
 21
-5.01740507339997
 31
0.0
 11
92.06863969881863
 21
-5.060616181800014
 31
0.0
 11
92.07078382971861
 21
-5.101079908200006
 31
0.0
  0
SPLINE
  5
55897
330
1F
100
AcDbEntity
  8
1
100
AcDbSpline
210
0.0
220
0.0
230
1.0
 70
     8
 71
     3
 72
    24
 73
    20
 74
    18
 42
0.0000000001
 43
0.0000000001
 44
0.000001
 12
0.0500729887188733
 22
-0.9987455610918928
 32
0.0
 13
0.0568536831180993
 23
-0.9983825212391826
 33
0.0
 40
0.0
 40
0.0
 40
0.0
 40
0.0
 40
0.0359193577886425
 40
0.0718328564553259
 40
0.1075054223748691
 40
0.1431178680436687
 40
0.1799149425432711
 40
0.2193096094855611
 40
0.2612376079684913
 40
0.3047240923468713
 40
0.350286882684234
 40
0.3999066258513662
 40
0.4559681172532823
 40
0.5198391618000442
 40
0.5912497268155911
 40
0.6692980666138304
 40
0.7524374771936053
 40
0.8380578774373482
 40
0.9231504109535437
 40
0.9231504109535437
 40
0.9231504109535437
 40
0.9231504109535437
 10
91.97157435311874
 20
-3.249987763799992
 30
0.0
 10
91.97217388298453
 20
-3.261945863516189
 30
0.0
 10
91.97337573029892
 20
-3.285859967850285
 30
0.0
 10
91.97518395220209
 20
-3.321649458935041
 30
0.0
 10
91.97699397918142
 20
-3.357336423454626
 30
0.0
 10
91.97882520895007
 20
-3.393317215959655
 30
0.0
 10
91.98072789942898
 20
-3.430536676831877
 30
0.0
 10
91.9827477597612
 20
-3.469858080052176
 30
0.0
 10
91.9848938949841
 20
-3.511405738488633
 30
0.0
 10
91.98716014517993
 20
-3.55500597261863
 30
0.0
 10
91.98957622873706
 20
-3.601165792002575
 30
0.0
 10
91.99223197908509
 20
-3.651510469910192
 30
0.0
 10
91.99523422894026
 20
-3.707948101066563
 30
0.0
 10
91.99865386598105
 20
-3.771637399273913
 30
0.0
 10
92.00250525623062
 20
-3.842643012063717
 30
0.0
 10
92.00675026701469
 20
-3.920059491650249
 30
0.0
 10
92.01130459762703
 20
-4.002202722846163
 30
0.0
 10
92.01604078876824
 20
-4.086687524912463
 30
0.0
 10
92.01925759043978
 20
-4.143500844416507
 30
0.0
 10
92.0208701984186
 20
-4.171819143800007
 30
0.0
 11
91.97157435311874
 21
-3.249987763799992
 31
0.0
 11
91.97337729941864
 21
-3.285861844099997
 31
0.0
 11
91.97518866281871
 21
-3.321729633500012
 31
0.0
 11
91.97699503341857
 21
-3.357356435300005
 31
0.0
 11
91.97880545461861
 21
-3.392922833599982
 31
0.0
 11
91.98068415281865
 21
-3.429671917999996
 31
0.0
 11
91.98270525811858
 21
-3.469014705599988
 31
0.0
 11
91.98486830571857
 21
-3.510886871799982
 31
0.0
 11
91.98712578551862
 21
-3.554314721499963
 31
0.0
 11
91.98950751021857
 21
-3.599815218999992
 31
0.0
 11
91.99212130501861
 21
-3.649366071799988
 31
0.0
 11
91.99509926651854
 21
-3.705348413600006
 31
0.0
 11
91.99852360891862
 21
-3.769127597100009
 31
0.0
 11
92.00239113321869
 21
-3.840433354899971
 31
0.0
 11
92.0066640081186
 21
-3.918364644699977
 31
0.0
 11
92.01126618741865
 21
-4.001376580999988
 31
0.0
 11
92.01605762911857
 21
-4.086862807999978
 31
0.0
 11
92.0208701984186
 21
-4.171819143800007
 31
0.0
  0
SPLINE
  5
55898
330
1F
100
AcDbEntity
  8
1
100
AcDbSpline
210
0.0
220
0.0
230
1.0
 70
     8
 71
     3
 72
    20
 73
    16
 74
    14
 42
0.0000000001
 43
0.0000000001
 44
0.000001
 12
0.0520058324996743
 22
-0.9986467810923018
 32
0.0
 13
0.0578264576825998
 23
-0.9983266503464097
 33
0.0
 40
0.0
 40
0.0
 40
0.0
 40
0.0
 40
0.0546900102831644
 40
0.1053564449105036
 40
0.15155636825409
 40
0.1933748254863545
 40
0.2308697301698131
 40
0.2641256430910541
 40
0.2933573573174169
 40
0.3193168528731821
 40
0.3432667772059946
 40
0.3664512501966879
 40
0.3897515111964105
 40
0.413208926814824
 40
0.436624893222483
 40
0.436624893222483
 40
0.436624893222483
 40
0.436624893222483
 10
91.94753167091858
 20
-2.81402598889997
 30
0.0
 10
91.94847973742332
 20
-2.832231323142366
 30
0.0
 10
91.9503208093754
 20
-2.867301850594344
 30
0.0
 10
91.95300290353316
 20
-2.917749395762257
 30
0.0
 10
91.95548955138145
 20
-2.963910743519932
 30
0.0
 10
91.95776655452005
 20
-3.005686499385205
 30
0.0
 10
91.95983078475762
 20
-3.043152770990332
 30
0.0
 10
91.96168206662207
 20
-3.076428825664265
 30
0.0
 10
91.9633336796503
 20
-3.105864902463167
 30
0.0
 10
91.9648215906991
 20
-3.132203286879416
 30
0.0
 10
91.96620366309366
 20
-3.156528687904767
 30
0.0
 10
91.96754204438127
 20
-3.179968729225095
 30
0.0
 10
91.96887721486518
 20
-3.203244516049551
 30
0.0
 10
91.97022187418747
 20
-3.226597049209658
 30
0.0
 10
91.97112299898856
 20
-3.2421955026972
 30
0.0
 10
91.97157435311874
 20
-3.249987763799992
 30
0.0
 11
91.94753167091858
 21
-2.81402598889997
 31
0.0
 11
91.95039643301857
 21
-2.868640921800022
 31
0.0
 11
91.9530871292186
 21
-2.91923585950002
 31
0.0
 11
91.95557223811851
 21
-2.965368897100006
 31
0.0
 11
91.95784831121864
 21
-3.007125368099991
 31
0.0
 11
91.95991106811858
 21
-3.04456348939999
 31
0.0
 11
91.96175836631857
 21
-3.077768056100012
 31
0.0
 11
91.9633957555186
 21
-3.106953876100021
 31
0.0
 11
91.96485982461855
 21
-3.13287205360001
 31
0.0
 11
91.96621827671856
 21
-3.15678342109993
 31
0.0
 11
91.96753986231852
 21
-3.179930196499981
 31
0.0
 11
91.96887405541861
 21
-3.20319222789999
 31
0.0
 11
91.97022284221862
 21
-3.226610833800009
 31
0.0
 11
91.97157435311874
 21
-3.249987763799992
 31
0.0
  0
ARC
  5
55899
330
1F
100
AcDbEntity
  8
1
100
AcDbCircle
 10
88.51608495691857
 20
-3.65034700000001
 30
0.0
 40
4.674393
100
AcDbArc
 50
303.6623190000037
 51
305.5020270000019
  0
ARC
  5
5589A
330
1F
100
AcDbEntity
  8
1
100
AcDbCircle
 10
90.04906095691854
 20
-5.184962999999982
 30
0.0
 40
2.658374
100
AcDbArc
 50
273.4814039999962
 51
274.1769350000002
  0
ARC
  5
5589B
330
1F
100
AcDbEntity
  8
1
100
AcDbCircle
 10
90.02147095691862
 20
-5.747029999999995
 30
0.0
 40
2.056192999999999
100
AcDbArc
 50
329.840842999996
 51
337.5889709999981
  0
ARC
  5
5589C
330
1F
100
AcDbEntity
  8
1
100
AcDbCircle
 10
90.03178195691862
 20
-5.752598999999975
 30
0.0
 40
2.04454
100
AcDbArc
 50
337.6230849999998
 51
346.1169439999986
  0
ARC
  5
5589D
330
1F
100
AcDbEntity
  8
1
100
AcDbCircle
 10
90.05598095691857
 20
-5.762821999999971
 30
0.0
 40
2.019026999999999
100
AcDbArc
 50
355.4635739999974
 51
356.0450929999979
  0
ARC
  5
5589E
330
1F
100
AcDbEntity
  8
1
100
AcDbCircle
 10
83.98501795691856
 20
-10.46499999999997
 30
0.0
 40
3.0
100
AcDbArc
 50
63.13425199999681
 51
90.0
  0
ARC
  5
5589F
330
1F
100
AcDbEntity
  8
1
100
AcDbCircle
 10
83.98501795691856
 20
10.46500000000003
 30
0.0
 40
3.0
100
AcDbArc
 50
270.0
 51
296.8657480000032
  0
LINE
  5
558A0
330
1F
100
AcDbEntity
  8
1
100
AcDbLine
 10
80.24001795691868
 20
-7.464999999999974
 30
0.0
 11
83.98501795691856
 21
-7.464999999999974
 31
0.0
  0
LINE
  5
558A1
330
1F
100
AcDbEntity
  8
1
100
AcDbLine
 10
80.08501795691859
 20
-7.310000000000002
 30
0.0
 11
80.24001795691868
 21
-7.464999999999974
 31
0.0
  0
LINE
  5
558A2
330
1F
100
AcDbEntity
  8
1
100
AcDbLine
 10
83.98501795691856
 20
7.465000000000031
 30
0.0
 11
80.24001795691868
 21
7.465000000000031
 31
0.0
  0
LINE
  5
558A7
330
1F
100
AcDbEntity
  8
1
100
AcDbLine
 10
80.08501795691859
 20
7.310000000000002
 30
0.0
 11
80.24001795691868
 21
7.465000000000031
 31
0.0
  0
LINE
  5
558A8
330
1F
100
AcDbEntity
  8
1
100
AcDbLine
 10
91.80157695691855
 20
0.2067959999999971
 30
0.0
 11
91.81587195691861
 21
0.4522929999999974
 31
0.0
  0
LINE
  5
558A9
330
1F
100
AcDbEntity
  8
1
100
AcDbLine
 10
91.78978195670721
 20
0.1849326094202297
 30
0.0
 11
91.80157695691855
 21
0.2067959999999971
 31
0.0
  0
LINE
  5
558AA
330
1F
100
AcDbEntity
  8
1
100
AcDbLine
 10
92.0750559569185
 20
5.668094999999993
 30
0.0
 11
92.07491681165606
 21
5.906151137270057
 31
0.0
  0
LINE
  5
558AB
330
1F
100
AcDbEntity
  8
1
100
AcDbLine
 10
85.91122095691867
 20
7.807479999999998
 30
0.0
 11
85.34657295691863
 21
7.788997999999992
 31
0.0
  0
LINE
  5
558AC
330
1F
100
AcDbEntity
  8
1
100
AcDbLine
 10
85.34657295691863
 20
7.788997999999992
 30
0.0
 11
85.34072195691862
 21
7.78879599999999
 31
0.0
  0
LINE
  5
558AD
330
1F
100
AcDbEntity
  8
1
100
AcDbLine
 10
91.78971995691858
 20
0.0703790000000026
 30
0.0
 11
91.78971995691858
 21
-0.0703790000000026
 31
0.0
  0
LINE
  5
558AE
330
1F
100
AcDbEntity
  8
1
100
AcDbLine
 10
91.78971995691858
 20
-0.0703790000000026
 30
0.0
 11
91.78978579471573
 21
-0.184937694347127
 31
0.0
  0
LINE
  5
558AF
330
1F
100
AcDbEntity
  8
1
100
AcDbLine
 10
91.78978195691867
 20
0.1849330000000009
 30
0.0
 11
91.78971995691858
 21
0.0703790000000026
 31
0.0
  0
LINE
  5
558B0
330
1F
100
AcDbEntity
  8
1
100
AcDbLine
 10
90.14321495691854
 20
-7.841673000000014
 30
0.0
 11
90.21048995691854
 21
-7.838431000000014
 31
0.0
  0
LINE
  5
558B1
330
1F
100
AcDbEntity
  8
1
100
AcDbLine
 10
90.00001795691856
 20
-7.844686000000024
 30
0.0
 11
90.14321495691854
 21
-7.841673000000014
 31
0.0
  0
LINE
  5
558B2
330
1F
100
AcDbEntity
  8
1
100
AcDbLine
 10
91.80157695691855
 20
-0.2067959999999971
 30
0.0
 11
91.81587195691861
 21
-0.4522929999999974
 31
0.0
  0
LINE
  5
558B3
330
1F
100
AcDbEntity
  8
1
100
AcDbLine
 10
85.34657295691863
 20
-7.788997999999992
 30
0.0
 11
85.34072195691862
 21
-7.788795999999933
 31
0.0
  0
LINE
  5
558B4
330
1F
100
AcDbEntity
  8
1
100
AcDbLine
 10
85.91122095691867
 20
-7.807479999999998
 30
0.0
 11
85.34657295691863
 21
-7.788997999999992
 31
0.0
  0
LINE
  5
558B5
330
1F
100
AcDbEntity
  8
1
100
AcDbLine
 10
92.0750559569185
 20
-5.668094999999993
 30
0.0
 11
92.07502995691857
 21
-5.71257700000001
 31
0.0
  0
LINE
  5
558B6
330
1F
100
AcDbEntity
  8
1
100
AcDbLine
 10
92.07502995691857
 20
-5.71257700000001
 30
0.0
 11
92.07501395691862
 21
-5.809261999999989
 31
0.0
  0
LINE
  5
558B7
330
1F
100
AcDbEntity
  8
1
100
AcDbLine
 10
92.07501395691862
 20
-5.809261999999989
 30
0.0
 11
92.07020095691859
 21
-5.902077000000019
 31
0.0
  0
LINE
  5
558B8
330
1F
100
AcDbEntity
  8
1
100
AcDbLine
 10
88.45434367321866
 20
7.872154215600005
 30
0.0
 11
90.02891170730379
 21
7.904452930007835
 31
0.0
  0
ARC
  5
558B9
102
{ACAD_REACTORS
330
558BC
102
}
330
1F
100
AcDbEntity
  8
1
100
AcDbCircle
 10
90.07491715330344
 20
5.90498212528513
 30
0.0
 40
2.0
100
AcDbArc
 50
0.0334897283768576
 51
91.31807520044095
  0
DIMENSION
  5
558BA
102
{ACAD_XDICTIONARY
360
558BB
102
}
102
{ACAD_REACTORS
330
558BC
102
}
330
1F
100
AcDbEntity
  8
2
100
AcDbDimension
  2
*D99
 10
90.07491715330342
 20
5.904982125285123
 30
0.0
 11
109.184409098349
 21
25.06844267864109
 31
0.0
 70
    36
 71
     5
 42
2.000000000000241
  3
\M+18352\M+18373\M+1815B - ISO-25
100
AcDbRadialDimension
 15
91.68316784510402
 25
7.093901681993585
 35
0.0
 40
0.0
1001
ACAD
1000
DSTYLE
1002
{
1070
     4
1000
"
1070
    40
1040
1.0
1070
   143
1040
0.03937
1070
   170
1070
     1
1070
   171
1070
     3
1070
   271
1070
     8
1070
   285
1070
     4
1002
}
  0
SPLINE
  5
558BD
330
1F
100
AcDbEntity
  8
1
100
AcDbSpline
210
0.0
220
0.0
230
1.0
 70
     8
 71
     3
 72
    20
 73
    16
 74
    14
 42
0.0000000001
 43
0.0000000001
 44
0.000001
 12
0.052005832499136
 22
0.9986467810923299
 32
0.0
 13
0.0578264571922064
 23
0.9983266503748149
 33
0.0
 40
0.0
 40
0.0
 40
0.0
 40
0.0
 40
0.0546900102830934
 40
0.1053564449104468
 40
0.151556368254019
 40
0.1933748254862978
 40
0.2308697301698131
 40
0.2641256429911642
 40
0.2933573573173576
 40
0.3193168528731228
 40
0.3432667772060488
 40
0.3664512501966854
 40
0.3897515111963512
 40
0.4132089267149342
 40
0.4366248932224214
 40
0.4366248932224214
 40
0.4366248932224214
 40
0.4366248932224214
 10
91.94753167091858
 20
2.814025989000015
 30
0.0
 10
91.94847973742332
 20
2.832231323242382
 30
0.0
 10
91.95032080937528
 20
2.867301850694332
 30
0.0
 10
91.95300290353328
 20
2.917749395862273
 30
0.0
 10
91.95548955138111
 20
2.963910743619976
 30
0.0
 10
91.95776655452119
 20
3.005686499485136
 30
0.0
 10
91.95983078475274
 20
3.043152771057293
 30
0.0
 10
91.96168206663003
 20
3.076428825730573
 30
0.0
 10
91.96333367964621
 20
3.105864902530072
 30
0.0
 10
91.96482159069978
 20
3.132203286979404
 30
0.0
 10
91.96620366309298
 20
3.156528688004812
 30
0.0
 10
91.96754204438263
 20
3.179968729325054
 30
0.0
 10
91.96887721485859
 20
3.203244516116626
 30
0.0
 10
91.97022187420316
 20
3.226597049275369
 30
0.0
 10
91.9711229989905
 20
3.242195502763763
 30
0.0
 10
91.97157435311874
 20
3.24998776389998
 30
0.0
 11
91.94753167091858
 21
2.814025989000015
 31
0.0
 11
91.95039643301857
 21
2.868640921900009
 31
0.0
 11
91.9530871292186
 21
2.919235859600007
 31
0.0
 11
91.95557223811851
 21
2.965368897199994
 31
0.0
 11
91.95784831121864
 21
3.007125368199979
 31
0.0
 11
91.95991106811858
 21
3.044563489500035
 31
0.0
 11
91.96175836631857
 21
3.077768056100012
 31
0.0
 11
91.9633957555186
 21
3.106953876200009
 31
0.0
 11
91.96485982461855
 21
3.132872053699998
 31
0.0
 11
91.96621827671856
 21
3.156783421200032
 31
0.0
 11
91.96753986231852
 21
3.179930196600025
 31
0.0
 11
91.96887405541861
 21
3.203192227999977
 31
0.0
 11
91.97022284221862
 21
3.226610833800009
 31
0.0
 11
91.97157435311874
 21
3.24998776389998
 31
0.0
  0
SPLINE
  5
558BE
330
1F
100
AcDbEntity
  8
1
100
AcDbSpline
210
0.0
220
0.0
230
1.0
 70
     8
 71
     3
 72
    24
 73
    20
 74
    18
 42
0.0000000001
 43
0.0000000001
 44
0.000001
 12
0.0500729887188738
 22
0.9987455610918928
 32
0.0
 13
0.0568536831180996
 23
0.9983825212391826
 33
0.0
 40
0.0
 40
0.0
 40
0.0
 40
0.0
 40
0.0359193577886425
 40
0.0718328564553259
 40
0.1075054223748691
 40
0.1431178680437255
 40
0.1799149425432711
 40
0.2193096093857052
 40
0.2612376079685466
 40
0.3047240923469265
 40
0.3502868826842325
 40
0.3999066258514215
 40
0.4559681172532809
 40
0.5198391617001989
 40
0.5912497268156433
 40
0.6692980665139882
 40
0.7524374771936543
 40
0.8380578774373972
 40
0.9231504109535359
 40
0.9231504109535359
 40
0.9231504109535359
 40
0.9231504109535359
 10
91.97157435311874
 20
3.24998776389998
 30
0.0
 10
91.97217388298453
 20
3.261945863616205
 30
0.0
 10
91.97337573029892
 20
3.285859967950273
 30
0.0
 10
91.97518395220209
 20
3.321649459035057
 30
0.0
 10
91.97699397918132
 20
3.35733642355467
 30
0.0
 10
91.97882520895063
 20
3.393317216059642
 30
0.0
 10
91.980727899425
 20
3.430536676898725
 30
0.0
 10
91.98274775976836
 20
3.469858080118456
 30
0.0
 10
91.98489389497991
 20
3.511405738555538
 30
0.0
 10
91.98716014518073
 20
3.555005972718674
 30
0.0
 10
91.98957622873672
 20
3.601165792102619
 30
0.0
 10
91.99223197908578
 20
3.651510470010151
 30
0.0
 10
91.99523422893618
 20
3.707948101133439
 30
0.0
 10
91.99865386598913
 20
3.771637399340079
 30
0.0
 10
92.00250525622186
 20
3.842643012097596
 30
0.0
 10
92.00675026702333
 20
3.920059491716529
 30
0.0
 10
92.01130459762214
 20
4.002202722913068
 30
0.0
 10
92.01604078876902
 20
4.08668752501245
 30
0.0
 10
92.01925759043978
 20
4.143500844516495
 30
0.0
 10
92.0208701984186
 20
4.171819143899995
 30
0.0
 11
91.97157435311874
 21
3.24998776389998
 31
0.0
 11
91.97337729941864
 21
3.285861844199985
 31
0.0
 11
91.97518866281871
 21
3.3217296336
 31
0.0
 11
91.97699503341857
 21
3.357356435399992
 31
0.0
 11
91.97880545461861
 21
3.392922833700026
 31
0.0
 11
91.98068415281865
 21
3.429671918099984
 31
0.0
 11
91.98270525811858
 21
3.469014705599988
 31
0.0
 11
91.98486830571857
 21
3.510886871900027
 31
0.0
 11
91.98712578551862
 21
3.554314721600007
 31
0.0
 11
91.98950751021857
 21
3.59981521909998
 31
0.0
 11
91.99212130501861
 21
3.649366071900033
 31
0.0
 11
91.99509926651854
 21
3.705348413699994
 31
0.0
 11
91.99852360891862
 21
3.769127597100009
 31
0.0
 11
92.00239113321869
 21
3.840433355000016
 31
0.0
 11
92.0066640081186
 21
3.918364644699977
 31
0.0
 11
92.01126618741865
 21
4.001376581100032
 31
0.0
 11
92.01605762911857
 21
4.086862808100022
 31
0.0
 11
92.0208701984186
 21
4.171819143899995
 31
0.0
  0
SPLINE
  5
558BF
330
1F
100
AcDbEntity
  8
1
100
AcDbSpline
210
0.0
220
0.0
230
1.0
 70
     8
 71
     3
 72
    28
 73
    24
 74
    22
 42
0.0000000001
 43
0.0000000001
 44
0.000001
 12
0.0491201323270987
 22
0.9987928777279943
 32
0.0
 13
0.0504174163818718
 23
0.9987282333675048
 33
0.0
 40
0.0
 40
0.0
 40
0.0
 40
0.0
 40
0.0796699818220076
 40
0.1504813503349803
 40
0.2135506411619155
 40
0.2699055332307993
 40
0.3204802851157504
 40
0.3659243530697378
 40
0.4068152247160389
 40
0.4437486699382122
 40
0.477659603144716
 40
0.5110965887809646
 40
0.5454362199367076
 40
0.579928838759914
 40
0.6141445792245181
 40
0.6480674351494958
 40
0.6826684981590237
 40
0.7195937857463474
 40
0.7598545647209545
 40
0.8026995912270377
 40
0.8468023940426672
 40
0.8900865681647804
 40
0.9306070606688868
 40
0.9306070606688868
 40
0.9306070606688868
 40
0.9306070606688868
 10
92.0208701984186
 20
4.171819143899995
 30
0.0
 10
92.02217466510182
 20
4.198343747370842
 30
0.0
 10
92.02465969452362
 20
4.248442608885028
 30
0.0
 10
92.02823220321079
 20
4.319536457628942
 30
0.0
 10
92.03146458533433
 20
4.382865876916497
 30
0.0
 10
92.03439239971634
 20
4.43945650382264
 30
0.0
 10
92.03703382023808
 20
4.490179010699421
 30
0.0
 10
92.03941207152661
 20
4.535753563679946
 30
0.0
 10
92.04155031620349
 20
4.576787351831399
 30
0.0
 10
92.04348146583891
 20
4.613982337137457
 30
0.0
 10
92.04527251286435
 20
4.648696619460395
 30
0.0
 10
92.04701187309774
 20
4.682547812494163
 30
0.0
 10
92.04876784198859
 20
4.716592303158307
 30
0.0
 10
92.05055638159207
 20
4.750895041034596
 30
0.0
 10
92.05236981420933
 20
4.785057355734295
 30
0.0
 10
92.05422970915833
 20
4.819253380352279
 30
0.0
 10
92.05619823335553
 20
4.854347968026047
 30
0.0
 10
92.05836449450339
 20
4.891547369346199
 30
0.0
 10
92.06080811818322
 20
4.931483082755391
 30
0.0
 10
92.06345838387472
 20
4.973803045020275
 30
0.0
 10
92.06613221313057
 20
5.017131297452948
 30
0.0
 10
92.06863068127177
 20
5.059694016064952
 30
0.0
 10
92.07010285020443
 20
5.087590255002055
 30
0.0
 10
92.07078382971861
 20
5.101079908299993
 30
0.0
 11
92.0208701984186
 21
4.171819143899995
 31
0.0
 11
92.02481406421862
 21
4.251391456500016
 31
0.0
 11
92.02837054961856
 21
4.322113456800025
 31
0.0
 11
92.0315853709186
 21
4.385100760200032
 31
0.0
 11
92.03449429431861
 21
4.441380525999989
 31
0.0
 11
92.03712271671861
 21
4.491886930799978
 31
0.0
 11
92.03948957571856
 21
4.537269320400014
 31
0.0
 11
92.04161661091859
 21
4.578104833099985
 31
0.0
 11
92.04353062441862
 21
4.614988649599979
 31
0.0
 11
92.04527845601864
 21
4.64885450950004
 31
0.0
 11
92.04699650901853
 21
4.682247327500022
 31
0.0
 11
92.04876740861857
 21
4.716541265399996
 31
0.0
 11
92.05056560911861
 21
4.750986979599986
 31
0.0
 11
92.05238144041857
 21
4.785154503000001
 31
0.0
 11
92.05422592141861
 21
4.819027177099997
 31
0.0
 11
92.05616573831866
 21
4.853573822099974
 31
0.0
 11
92.05831616751856
 21
4.890436438999984
 31
0.0
 11
92.06076378831857
 21
4.930622748400026
 31
0.0
 11
92.06342478931857
 21
4.97338506020003
 31
0.0
 11
92.06612581141859
 21
5.017405073500015
 31
0.0
 11
92.06863969881863
 21
5.060616181900002
 31
0.0
 11
92.07078382971861
 21
5.101079908299993
 31
0.0
  0
LINE
  5
558C0
330
1F
100
AcDbEntity
  8
1
100
AcDbLine
 10
91.78978297048491
 20
-0.1849324589597927
 30
0.0
 11
91.80157697048491
 21
-0.2067954589597889
 31
0.0
  0
SPLINE
  5
558C1
330
1F
100
AcDbEntity
  8
1
100
AcDbSpline
210
0.0
220
0.0
230
1.0
 70
     8
 71
     3
 72
    18
 73
    14
 74
     0
 42
0.0000000001
 43
0.0000000001
 40
0.0
 40
0.0
 40
0.0
 40
0.0
 40
0.0033428479668778
 40
0.0162855734778196
 40
0.0418929576074673
 40
0.067367463142007
 40
0.0929233954904393
 40
0.1184558312617857
 40
0.1438429116922201
 40
0.1566212008708871
 40
0.1695511466940501
 40
0.1826346896329039
 40
0.1949773647990549
 40
0.1949773647990549
 40
0.1949773647990549
 40
0.1949773647990549
 10
88.25938982271862
 20
7.87019171510002
 30
0.0
 10
88.26050356620431
 20
7.870226374657647
 30
0.0
 10
88.26592947252539
 20
7.87039495778356
 30
0.0
 10
88.27988787985521
 20
7.870801976438031
 30
0.0
 10
88.30122320548445
 20
7.871323084070013
 30
0.0
 10
88.32676491224583
 20
7.871794825964116
 30
0.0
 10
88.35228366496869
 20
7.872138022912508
 30
0.0
 10
88.37777464362785
 20
7.872356105215544
 30
0.0
 10
88.39900722444395
 20
7.872432052085912
 30
0.0
 10
88.4160390134923
 20
7.872417197788536
 30
0.0
 10
88.42896952663886
 20
7.872365650871699
 30
0.0
 10
88.44175460244946
 20
7.872273840027105
 30
0.0
 10
88.45022962937889
 20
7.872193082454657
 30
0.0
 10
88.45434367321866
 20
7.872154215600005
 30
0.0
  0
SPLINE
  5
558C2
330
1F
100
AcDbEntity
  8
1
100
AcDbSpline
210
0.0
220
0.0
230
1.0
 70
     8
 71
     3
 72
    19
 73
    15
 74
     0
 42
0.0000000001
 43
0.0000000001
 40
0.2100024645242005
 40
0.2100024645242005
 40
0.2100024645242005
 40
0.2100024645242005
 40
0.2189121815899325
 40
0.2273901447297271
 40
0.2350426112799268
 40
0.2422328337859406
 40
0.2493186824444628
 40
0.2564638200033773
 40
0.2636301885017222
 40
0.2707717786322839
 40
0.2779214748469196
 40
0.2852646324318862
 40
0.2930977554827656
 40
0.3017217272465491
 40
0.3017217272465491
 40
0.3017217272465491
 40
0.3017217272465491
 10
88.26077377172351
 20
7.87020802816869
 30
0.0
 10
88.25780417843645
 20
7.870164914747022
 30
0.0
 10
88.25200897105673
 20
7.870075579059289
 30
0.0
 10
88.24366343538532
 20
7.869935113331791
 30
0.0
 10
88.23589112764876
 20
7.869796048393538
 30
0.0
 10
88.22858288623876
 20
7.869659707475022
 30
0.0
 10
88.22144379946905
 20
7.869522606052669
 30
0.0
 10
88.21431270712537
 20
7.869383363770282
 30
0.0
 10
88.2071630707502
 20
7.869242083033327
 30
0.0
 10
88.20001195210148
 20
7.869098911797721
 30
0.0
 10
88.19280195452643
 20
7.868952629623436
 30
0.0
 10
88.18536153153969
 20
7.868799798200029
 30
0.0
 10
88.17742984854112
 20
7.868633914484007
 30
0.0
 10
88.17194534888495
 20
7.86851923441327
 30
0.0
 10
88.16907134571863
 20
7.868457914500027
 30
0.0
  0
LINE
  5
558C3
330
1F
100
AcDbEntity
  8
cut
100
AcDbLine
 10
85.6750314608314
 20
7.85325821690003
 30
0.0
 11
88.47503146083147
 21
7.999999998900023
 31
0.0
1001
ACAD
1000
RTMaterial
1005
0
  0
LINE
  5
558C4
330
1F
100
AcDbEntity
  8
cut
100
AcDbLine
 10
80.0750314608315
 20
7.464999998899997
 30
0.0
 11
84.19895393433149
 21
7.464999998899997
 31
0.0
1001
ACAD
1000
RTMaterial
1005
0
  0
LINE
  5
558C5
330
1F
100
AcDbEntity
  8
cut
100
AcDbLine
 10
88.47503146083147
 20
7.999999998900023
 30
0.0
 11
90.0750314608315
 21
7.999999998900023
 31
0.0
1001
ACAD
1000
RTMaterial
1005
0
  0
LINE
  5
558C6
330
1F
100
AcDbEntity
  8
cut
100
AcDbLine
 10
92.0750314608315
 20
5.499999998900307
 30
0.0
 11
92.0750314608315
 21
5.999999998900023
 31
0.0
1001
ACAD
1000
RTMaterial
1005
0
  0
LINE
  5
558C7
330
1F
100
AcDbEntity
  8
cut
100
AcDbLine
 10
91.7867886747315
 20
-0.000000001099977
 30
0.0
 11
92.0750314608315
 21
5.499999998900023
 31
0.0
1001
ACAD
1000
RTMaterial
1005
0
  0
ARC
  5
558C8
330
1F
100
AcDbEntity
  8
cut
100
AcDbCircle
 10
84.19895393433149
 20
10.46499999889999
 30
0.0
 40
3.0
100
AcDbArc
 50
270.0
 51
299.473821489898
1001
ACAD
1000
RTMaterial
1005
0
  0
ARC
  5
558C9
330
1F
100
AcDbEntity
  8
cut
100
AcDbCircle
 10
90.0750314608315
 20
5.999999998900023
 30
0.0
 40
2.0
100
AcDbArc
 50
0.0
 51
90.0
1001
ACAD
1000
RTMaterial
1005
0
  0
LINE
  5
558CA
330
1F
100
AcDbEntity
  8
cut
100
AcDbLine
 10
85.6750314608314
 20
-7.853258216899916
 30
0.0
 11
88.47503146083147
 21
-7.999999998899966
 31
0.0
1001
ACAD
1000
RTMaterial
1005
0
  0
LINE
  5
558CB
330
1F
100
AcDbEntity
  8
cut
100
AcDbLine
 10
80.0750314608315
 20
-7.464999998899997
 30
0.0
 11
84.19895393433149
 21
-7.464999998899997
 31
0.0
1001
ACAD
1000
RTMaterial
1005
0
  0
LINE
  5
558CC
330
1F
100
AcDbEntity
  8
cut
100
AcDbLine
 10
88.47503146083147
 20
-7.999999998899966
 30
0.0
 11
90.0750314608315
 21
-7.999999998899966
 31
0.0
1001
ACAD
1000
RTMaterial
1005
0
  0
LINE
  5
558CD
330
1F
100
AcDbEntity
  8
cut
100
AcDbLine
 10
92.0750314608315
 20
-5.49999999890025
 30
0.0
 11
92.0750314608315
 21
-5.999999998899966
 31
0.0
1001
ACAD
1000
RTMaterial
1005
0
  0
LINE
  5
558CE
330
1F
100
AcDbEntity
  8
cut
100
AcDbLine
 10
80.0750314608315
 20
7.464999998899997
 30
0.0
 11
80.0750314608315
 21
-7.464999998899997
 31
0.0
1001
ACAD
1000
RTMaterial
1005
0
  0
LINE
  5
558CF
330
1F
100
AcDbEntity
  8
cut
100
AcDbLine
 10
91.7867886747315
 20
0.0000000011000338
 30
0.0
 11
92.0750314608315
 21
-5.499999998899966
 31
0.0
1001
ACAD
1000
RTMaterial
1005
0
  0
ARC
  5
558D0
330
1F
100
AcDbEntity
  8
cut
100
AcDbCircle
 10
84.19895393433149
 20
-10.46499999889999
 30
0.0
 40
3.0
100
AcDbArc
 50
60.52617851010198
 51
90.0
1001
ACAD
1000
RTMaterial
1005
0
  0
ARC
  5
558D1
330
1F
100
AcDbEntity
  8
cut
100
AcDbCircle
 10
90.0750314608315
 20
-5.999999998899966
 30
0.0
 40
2.0
100
AcDbArc
 50
270.0
 51
0.0
1001
ACAD
1000
RTMaterial
1005
0
  0
SPLINE
  5
55930
330
1F
100
AcDbEntity
  8
1
100
AcDbSpline
210
0.0
220
0.0
230
1.0
 70
     8
 71
     3
 72
    27
 73
    23
 74
    21
 42
0.0000000001
 43
0.0000000001
 44
0.000001
 12
0.9999993800498621
 22
0.0011135079215446
 32
0.0
 13
-0.9999999594001586
 23
0.0002849555773617
 33
0.0
 40
0.0
 40
0.0
 40
0.0
 40
0.0
 40
0.3735085918494731
 40
0.7578528137952575
 40
1.131472391173144
 40
1.515911965766976
 40
1.889542555000594
 40
2.274000101060566
 40
2.647689403257967
 40
3.032199330200636
 40
3.27979516048594
 40
3.530458078957162
 40
3.904092375486504
 40
4.288595978855985
 40
4.662237342551498
 40
5.046717163866487
 40
5.420388809620879
 40
5.804904288526648
 40
6.178589081806548
 40
6.563114633676435
 40
6.810470854461094
 40
7.060889099005427
 40
7.060889099005427
 40
7.060889099005427
 40
7.060889099005427
 10
84.07503786717951
 20
-2.250000314453131
 30
0.0
 10
84.19954065394376
 20
-2.249861679527896
 30
0.0
 10
84.45265359138335
 20
-2.22904862373997
 30
0.0
 10
84.81964167032936
 20
-2.134533514406143
 30
0.0
 10
85.16889801481353
 20
-1.978456224575666
 30
0.0
 10
85.48412084214152
 20
-1.767860329626785
 30
0.0
 10
85.76203009476888
 20
-1.504933515408765
 30
0.0
 10
85.98980599730708
 20
-1.201847638698609
 30
0.0
 10
86.16505372859615
 20
-0.8617489994672382
 30
0.0
 10
86.26693236736395
 20
-0.5405008104364129
 30
0.0
 10
86.31578165470887
 20
-0.2497728887228163
 30
0.0
 10
86.33198683643035
 20
0.0409735484116993
 30
0.0
 10
86.30398331542654
 20
0.3777035753333848
 30
0.0
 10
86.20949437404465
 20
0.7448444138965442
 30
0.0
 10
86.0533138584388
 20
1.094128454588542
 30
0.0
 10
85.84267815615886
 20
1.409369364333144
 30
0.0
 10
85.57964553936097
 20
1.687242127012723
 30
0.0
 10
85.2765100266007
 20
1.915007278643173
 30
0.0
 10
84.93634209696272
 20
2.090163501580832
 30
0.0
 10
84.61513537368494
 20
2.191968099743121
 30
0.0
 10
84.32459405240974
 20
2.240733606402784
 30
0.0
 10
84.15851061197196
 20
2.2499758995217
 30
0.0
 10
84.07503786717951
 20
2.249999685546868
 30
0.0
 11
84.07503786717951
 21
-2.250000314453131
 31
0.0
 11
84.44726076757012
 21
-2.219024972656256
 31
0.0
 11
84.81949129735529
 21
-2.123291330078131
 31
0.0
 11
85.16058626805842
 21
-1.970825509765575
 31
0.0
 11
85.48025026952325
 21
-1.757263498046881
 31
0.0
 11
85.75166597997247
 21
-1.500488595703131
 31
0.0
 11
85.98263827001153
 21
-1.193146066406285
 31
0.0
 11
86.15380373632012
 21
-0.8609622285156603
 31
0.0
 11
86.27005282079279
 21
-0.4944461152344673
 31
0.0
 11
86.31109133397638
 21
-0.2502749726562854
 31
0.0
 11
86.32503786717951
 21
-0.0000003144531604
 31
0.0
 11
86.29402437840997
 21
0.3723446562499646
 31
0.0
 11
86.19821444188653
 21
0.7447201445312146
 31
0.0
 11
86.04569521581231
 21
1.085815115234396
 31
0.0
 11
85.83207216893731
 21
1.405486746093714
 31
0.0
 11
85.57521334325372
 21
1.676879568359339
 31
0.0
 11
85.267786890617
 21
1.907836599609368
 31
0.0
 11
84.93556490575372
 21
2.078918142578118
 31
0.0
 11
84.5690106454997
 21
2.195098562499993
 31
0.0
 11
84.32506838475763
 21
2.236053152343743
 31
0.0
 11
84.07503786717951
 21
2.249999685546868
 31
0.0
  0
SPLINE
  5
55931
330
1F
100
AcDbEntity
  8
1
100
AcDbSpline
210
0.0
220
0.0
230
1.0
 70
     8
 71
     3
 72
    27
 73
    23
 74
    21
 42
0.0000000001
 43
0.0000000001
 44
0.000001
 12
-0.9999993800497753
 22
-0.0011135079994636
 32
0.0
 13
0.9999999594001918
 23
-0.0002849554611409
 33
0.0
 40
0.0
 40
0.0
 40
0.0
 40
0.0
 40
0.3735111234111155
 40
0.7578479569811457
 40
1.131455082086759
 40
1.515917954095495
 40
1.889522028580018
 40
2.273979574646446
 40
2.647665382319304
 40
3.032206705317134
 40
3.279801271159271
 40
3.530434568879176
 40
3.904099910983305
 40
4.288603514348333
 40
4.662241763801456
 40
5.046696211991984
 40
5.420395266918479
 40
5.804916845646881
 40
6.178594855977485
 40
6.56311313469325
 40
6.810469354402991
 40
7.060885902284059
 40
7.060885902284059
 40
7.060885902284059
 40
7.060885902284059
 10
84.07503786717951
 20
2.249999685546868
 30
0.0
 10
83.95053423656191
 20
2.249861049672261
 30
0.0
 10
83.69742486912981
 20
2.22900737424618
 30
0.0
 10
83.33044887610538
 20
2.134494334467945
 30
0.0
 10
82.98116543530511
 20
1.978465996014278
 30
0.0
 10
82.6659773654203
 20
1.767826390093318
 30
0.0
 10
82.38804242886875
 20
1.504932856938069
 30
0.0
 10
82.16027687362986
 20
1.201847267498436
 30
0.0
 10
81.98503573057763
 20
0.8617370639488228
 30
0.0
 10
81.8831465835567
 20
0.5404811487254336
 30
0.0
 10
81.83431887292
 20
0.2497503836988812
 30
0.0
 10
81.81807745163906
 20
-0.0409936863428584
 30
0.0
 10
81.84610243266451
 20
-0.377725271718532
 30
0.0
 10
81.94059130483521
 20
-0.7448721802001046
 30
0.0
 10
82.09675029965769
 20
-1.094158635251005
 30
0.0
 10
82.30741859389047
 20
-1.409375668998563
 30
0.0
 10
82.57042554755514
 20
-1.687275382261816
 30
0.0
 10
82.87358027609219
 20
-1.915032162808699
 30
0.0
 10
83.2137400484205
 20
-2.090197349450818
 30
0.0
 10
83.53494313121997
 20
-2.191993921908988
 30
0.0
 10
83.82548034737068
 20
-2.240778316626574
 30
0.0
 10
83.99156568794143
 20
-2.249976528598836
 30
0.0
 10
84.07503786717951
 20
-2.250000314453131
 30
0.0
 11
84.07503786717951
 21
2.249999685546868
 31
0.0
 11
83.70281496678888
 21
2.218993826171924
 31
0.0
 11
83.33059206639825
 21
2.123260183593743
 31
0.0
 11
82.98949709569512
 21
1.970824880859368
 31
0.0
 11
82.66982546483575
 21
1.757232351562493
 31
0.0
 11
82.39841738378107
 21
1.500487966796839
 31
0.0
 11
82.16744509374199
 21
1.193145437499964
 31
0.0
 11
81.99628725682794
 21
0.8609615996093396
 31
0.0
 11
81.88003054296075
 21
0.4944149687499646
 31
0.0
 11
81.83899965917168
 21
0.2502438261718964
 31
0.0
 11
81.82503786717949
 21
-0.0000003144531604
 31
0.0
 11
81.85605898534356
 21
-0.3723758027344672
 31
0.0
 11
81.95186892186701
 21
-0.7447512910156036
 31
0.0
 11
82.10438051854669
 21
-1.085846261718785
 31
0.0
 11
82.31800356542169
 21
-1.405487375000006
 31
0.0
 11
82.57487002049982
 21
-1.6769107148437
 31
0.0
 11
82.88230410253106
 21
-1.9078677460937
 31
0.0
 11
83.21451845799982
 21
-2.078949289062506
 31
0.0
 11
83.58106508885919
 21
-2.195129708984438
 31
0.0
 11
83.82500734960137
 21
-2.236084298828131
 31
0.0
 11
84.07503786717951
 21
-2.250000314453131
 31
0.0
  0
SPLINE
  5
55932
330
1F
100
AcDbEntity
  8
1
100
AcDbSpline
210
0.0
220
0.0
230
1.0
 70
     8
 71
     3
 72
    12
 73
     8
 74
     0
 42
0.0000000001
 43
0.0000000001
 40
0.0
 40
0.0
 40
0.0
 40
0.0
 40
0.4339577819477788
 40
0.9099859142833391
 40
1.405962155925799
 40
1.890497526646711
 40
2.181940945473638
 40
2.181940945473638
 40
2.181940945473638
 40
2.181940945473638
 10
77.96125307714044
 20
7.066283865234368
 30
0.0
 10
78.10232808711294
 20
7.034311775731794
 30
0.0
 10
78.39774672313911
 20
6.96544532082288
 30
0.0
 10
78.85262821436879
 20
6.852613173690428
 30
0.0
 10
79.32261665582519
 20
6.730790561208095
 30
0.0
 10
79.73209664405612
 20
6.620821768275959
 30
0.0
 10
79.98152203021152
 20
6.552321742218566
 30
0.0
 10
80.07515196510746
 20
6.526414810546611
 30
0.0
  0
SPLINE
  5
55933
330
1F
100
AcDbEntity
  8
1
100
AcDbSpline
210
0.0
220
0.0
230
1.0
 70
     8
 71
     3
 72
    13
 73
     9
 74
     0
 42
0.0000000001
 43
0.0000000001
 40
2.181940945473638
 40
2.181940945473638
 40
2.181940945473638
 40
2.181940945473638
 40
2.411830244661465
 40
2.927049205807353
 40
3.541407071120663
 40
4.174229917974114
 40
4.797916357174424
 40
5.447220821965697
 40
5.447220821965697
 40
5.447220821965697
 40
5.447220821965697
 10
80.07515196510746
 20
6.526414810546611
 30
0.0
 10
80.14900684988356
 20
6.505979535699282
 30
0.0
 10
80.38828226249234
 20
6.439383374656358
 30
0.0
 10
80.82429691005245
 20
6.315919560148245
 30
0.0
 10
81.38855542151146
 20
6.152415478133718
 30
0.0
 10
81.98657591502399
 20
5.975554071017995
 30
0.0
 10
82.59486022727196
 20
5.792353863724827
 30
0.0
 10
83.00064304931765
 20
5.668265696382718
 30
0.0
 10
83.20746889745294
 20
5.604491873046868
 30
0.0
  0
SPLINE
  5
55934
330
1F
100
AcDbEntity
  8
1
100
AcDbSpline
210
0.0
220
0.0
230
1.0
 70
     8
 71
     3
 72
    11
 73
     7
 74
     5
 42
0.0000000001
 43
0.0000000001
 44
0.000001
 12
0.9963985396872141
 22
-0.084793573513487
 32
0.0
 13
0.9789822437785613
 23
-0.2039454985193194
 33
0.0
 40
0.0
 40
0.0
 40
0.0
 40
0.0
 40
0.2130711443669438
 40
0.4663665831631631
 40
0.7267152747765293
 40
1.018957862130394
 40
1.018957862130394
 40
1.018957862130394
 40
1.018957862130394
 10
76.56925478612482
 20
7.309539480468743
 30
0.0
 10
76.64002271182368
 20
7.303517125887594
 30
0.0
 10
76.79471558723879
 20
7.287619562023166
 30
0.0
 10
77.03434918245744
 20
7.251755669112526
 30
0.0
 10
77.29890756221414
 20
7.205110402456739
 30
0.0
 10
77.47967109921439
 20
7.16961662812838
 30
0.0
 10
77.57503786717951
 20
7.149749441406243
 30
0.0
 11
76.56925478612482
 21
7.309539480468743
 31
0.0
 11
76.78118410741388
 21
7.287505789062493
 31
0.0
 11
77.03184023534356
 21
7.251037283203118
 31
0.0
 11
77.288294703117
 21
7.206176443359368
 31
0.0
 11
77.57503786717951
 21
7.149749441406243
 31
0.0
  0
SPLINE
  5
55935
330
1F
100
AcDbEntity
  8
1
100
AcDbSpline
210
0.0
220
0.0
230
1.0
 70
     8
 71
     3
 72
    25
 73
    21
 74
    19
 42
0.0000000001
 43
0.0000000001
 44
0.000001
 12
0.9387154891178772
 22
-0.344692951030602
 32
0.0
 13
0.4705113083783493
 23
-0.8823939645578352
 33
0.0
 40
0.0
 40
0.0
 40
0.0
 40
0.0
 40
0.5361253125571315
 40
1.082717031125199
 40
1.651580274534593
 40
2.226043003257933
 40
2.820603751770651
 40
3.41931978286188
 40
4.027883746906579
 40
4.634260997362705
 40
5.208921196023811
 40
5.774467776516538
 40
6.335359884410269
 40
6.878366849115985
 40
7.359868950982841
 40
7.817099570736536
 40
8.252218999229748
 40
8.651666475936636
 40
8.984832127785644
 40
9.277084341228142
 40
9.277084341228142
 40
9.277084341228142
 40
9.277084341228142
 10
84.13753786717951
 20
5.291106863281214
 30
0.0
 10
84.30529424551469
 20
5.229507324578719
 30
0.0
 10
84.64159244318381
 20
5.098195666431763
 30
0.0
 10
85.14579092287249
 20
4.876768488953558
 30
0.0
 10
85.65180252060896
 20
4.628870076735324
 30
0.0
 10
86.16117685955975
 20
4.352625719936526
 30
0.0
 10
86.66706119300313
 20
4.050134406357841
 30
0.0
 10
87.16930718396804
 20
3.720444223247909
 30
0.0
 10
87.66043904002328
 20
3.367610671794039
 30
0.0
 10
88.12999767160954
 20
2.999405160839216
 30
0.0
 10
88.57331634543516
 20
2.621788329709886
 30
0.0
 10
88.99028260023134
 20
2.237302351025846
 30
0.0
 10
89.38444578915875
 20
1.844280549402867
 30
0.0
 10
89.74390720798949
 20
1.456714543766622
 30
0.0
 10
90.06612745128041
 20
1.082244439396703
 30
0.0
 10
90.35220577962917
 20
0.724517828877282
 30
0.0
 10
90.60869014129048
 20
0.3785084193347643
 30
0.0
 10
90.82820698495783
 20
0.0569537494272936
 30
0.0
 10
91.00968625328608
 20
-0.2326099995804043
 30
0.0
 10
91.11156882009778
 20
-0.4145891011026493
 30
0.0
 10
91.15740481053888
 20
-0.5005496308594104
 30
0.0
 11
84.13753786717951
 21
5.291106863281214
 31
0.0
 11
84.63692751561699
 21
5.096069021484424
 31
0.0
 11
85.13742342626153
 21
4.876372976562464
 31
0.0
 11
85.64833346044123
 21
4.626220388671924
 31
0.0
 11
86.15333071385919
 21
4.352386160156299
 31
0.0
 11
86.66366854344904
 21
4.047332449218714
 31
0.0
 11
87.16420260106621
 21
3.718810720703089
 31
0.0
 11
87.65846529637872
 21
3.363769216796839
 31
0.0
 11
88.13565340673028
 21
2.989623708984424
 31
0.0
 11
88.57310763036309
 21
2.616973562499993
 31
0.0
 11
88.98886385594904
 21
2.233581228515532
 31
0.0
 11
89.38599672948418
 21
1.837493582031243
 31
0.0
 11
89.75518313085137
 21
1.439300222656271
 31
0.0
 11
90.06912508641779
 21
1.074218435546839
 31
0.0
 11
90.35454073583185
 21
0.7170101835937146
 31
0.0
 11
90.61337557469903
 21
0.3672482207030896
 31
0.0
 11
90.83829012548028
 21
0.0371395781249646
 31
0.0
 11
91.01441469823418
 21
-0.2456668183594104
 31
0.0
 11
91.15740481053888
 21
-0.5005496308594104
 31
0.0
  0
SPLINE
  5
55936
330
1F
100
AcDbEntity
  8
1
100
AcDbSpline
210
0.0
220
0.0
230
1.0
 70
     8
 71
     3
 72
    25
 73
    21
 74
    19
 42
0.0000000001
 43
0.0000000001
 44
0.000001
 12
0.9999996013455653
 22
0.0008929214469263
 32
0.0
 13
0.071290566155126
 23
0.99745559057899
 33
0.0
 40
0.0
 40
0.0
 40
0.0
 40
0.0
 40
0.5922924038055566
 40
1.186690590553761
 40
1.781098218969257
 40
2.373377591140887
 40
2.965665444549681
 40
3.560078335163361
 40
4.154485610839481
 40
4.74677352667472
 40
5.339062428669605
 40
5.933459066629695
 40
6.527872613708622
 40
7.120156073373401
 40
7.712454480681708
 40
8.306855695230293
 40
8.901295006397665
 40
9.493583483008995
 40
10.02232122025197
 40
10.55104861088349
 40
10.55104861088349
 40
10.55104861088349
 40
10.55104861088349
 10
84.13753786717951
 20
-7.038605050781256
 30
0.0
 10
84.33496858974137
 20
-7.038428760584565
 30
0.0
 10
84.730726658261
 20
-7.0215648138863
 30
0.0
 10
85.32028362006371
 20
-6.946125751916042
 30
0.0
 10
85.90158243473069
 20
-6.822097353923538
 30
0.0
 10
86.46979450842161
 20
-6.64995983208604
 30
0.0
 10
87.02103820503664
 20
-6.429436848712327
 30
0.0
 10
87.55244270151763
 20
-6.163153940893835
 30
0.0
 10
88.05990242951919
 20
-5.853670523547293
 30
0.0
 10
88.53911359815402
 20
-5.503159707788654
 30
0.0
 10
88.98626847914796
 20
-5.112584309642045
 30
0.0
 10
89.39959879981882
 20
-4.685441548082849
 30
0.0
 10
89.77600971646358
 20
-4.225435184124364
 30
0.0
 10
90.1121865337248
 20
-3.736058204362905
 30
0.0
 10
90.40487235014712
 20
-3.219496671308377
 30
0.0
 10
90.65351712101096
 20
-2.679603770834091
 30
0.0
 10
90.856489337158
 20
-2.120939977553234
 30
0.0
 10
91.00610595258842
 20
-1.568302401146695
 30
0.0
 10
91.10653031399328
 20
-1.027134347103384
 30
0.0
 10
91.14484038553223
 20
-0.6763436614186276
 30
0.0
 10
91.15740481053888
 20
-0.5005496308594104
 30
0.0
 11
84.13753786717951
 21
-7.038605050781256
 31
0.0
 11
84.72928896581231
 21
-7.013275460937506
 31
0.0
 11
85.31890383397637
 21
-6.938019113281256
 31
0.0
 11
85.90020266210137
 21
-6.813873605468756
 31
0.0
 11
86.46696749364435
 21
-6.641907052734495
 31
0.0
 11
87.01697817479669
 21
-6.422149972656256
 31
0.0
 11
87.5484494272381
 21
-6.155945138671881
 31
0.0
 11
88.05588045751154
 21
-5.846374826171881
 31
0.0
 11
88.5337781015545
 21
-5.496490792968756
 31
0.0
 11
88.98003664647637
 21
-5.107055978515631
 31
0.0
 11
89.39343538915215
 21
-4.679962472656256
 31
0.0
 11
89.76980105077325
 21
-4.2198794648437
 31
0.0
 11
90.10494509374201
 21
-3.731537179687506
 31
0.0
 11
90.3971585336834
 21
-3.216339425781256
 31
0.0
 11
90.64589205419123
 21
-2.676483468750006
 31
0.0
 11
90.84877291356622
 21
-2.117737130859381
 31
0.0
 11
91.0034054819256
 21
-1.545990304687506
 31
0.0
 11
91.10001650487481
 21
-1.026153878906285
 31
0.0
 11
91.15740481053888
 21
-0.5005496308594104
 31
0.0
  0
ARC
  5
55937
330
1F
100
AcDbEntity
  8
1
100
AcDbCircle
 10
84.07503746581232
 20
-0.0000000000000284
 30
0.0
 40
3.0
100
AcDbArc
 50
89.9999970000023
 51
180.0000009999981
  0
ARC
  5
55938
330
1F
100
AcDbEntity
  8
1
100
AcDbCircle
 10
84.07503746581232
 20
-0.0000000000000284
 30
0.0
 40
3.0
100
AcDbArc
 50
0.0000050000005032
 51
90.00000100000141
  0
ARC
  5
55939
330
1F
100
AcDbEntity
  8
1
100
AcDbCircle
 10
84.07503746581232
 20
-0.0000000000000284
 30
0.0
 40
3.0
100
AcDbArc
 50
89.9999970000023
 51
180.0000009999981
  0
ARC
  5
5593A
330
1F
100
AcDbEntity
  8
1
100
AcDbCircle
 10
84.07503746581232
 20
-0.0000000000000284
 30
0.0
 40
3.0
100
AcDbArc
 50
180.0000009999981
 51
270.0000029999977
  0
ARC
  5
5593B
330
1F
100
AcDbEntity
  8
1
100
AcDbCircle
 10
84.07503746581232
 20
-0.0000000000000284
 30
0.0
 40
3.0
100
AcDbArc
 50
270.0000029999977
 51
0.0000050000005032
  0
ARC
  5
5593C
330
1F
100
AcDbEntity
  8
1
100
AcDbCircle
 10
84.07503746581232
 20
-0.0000000000000284
 30
0.0
 40
3.0
100
AcDbArc
 50
0.0000050000005032
 51
90.00000100000141
  0
ARC
  5
5593D
330
1F
100
AcDbEntity
  8
1
100
AcDbCircle
 10
84.6547044658123
 20
-1.004029000000031
 30
0.0
 40
0.529669
100
AcDbArc
 50
244.6855869999976
 51
355.3144409999993
  0
ARC
  5
5593E
330
1F
100
AcDbEntity
  8
1
100
AcDbCircle
 10
84.07503746581232
 20
-2.229493000000047
 30
0.0
 40
0.8259999999999998
100
AcDbArc
 50
64.68550600000154
 51
115.3144890000006
  0
ARC
  5
5593F
330
1F
100
AcDbEntity
  8
1
100
AcDbCircle
 10
82.14423646581236
 20
-1.114746000000053
 30
0.0
 40
0.8259999999999998
100
AcDbArc
 50
4.685491000000058
 51
55.31447299999998
  0
ARC
  5
55940
330
1F
100
AcDbEntity
  8
1
100
AcDbCircle
 10
83.49537146581235
 20
-1.004029000000031
 30
0.0
 40
0.529669
100
AcDbArc
 50
184.6855929999983
 51
295.3144249999998
  0
ARC
  5
55941
330
1F
100
AcDbEntity
  8
1
100
AcDbCircle
 10
86.00584646581229
 20
-1.114746000000053
 30
0.0
 40
0.8259999999999998
100
AcDbArc
 50
124.6854879999989
 51
175.3144859999989
  0
ARC
  5
55942
330
1F
100
AcDbEntity
  8
1
100
AcDbCircle
 10
85.23437046581227
 20
-0.0000000000000284
 30
0.0
 40
0.529669
100
AcDbArc
 50
304.6856089999999
 51
0.0000050000005032
  0
ARC
  5
55943
330
1F
100
AcDbEntity
  8
1
100
AcDbCircle
 10
85.23437046581227
 20
-0.0000000000000284
 30
0.0
 40
0.529669
100
AcDbArc
 50
359.9999949999995
 51
55.31443199999845
  0
ARC
  5
55944
330
1F
100
AcDbEntity
  8
1
100
AcDbCircle
 10
82.91570546581226
 20
-0.0000000000000284
 30
0.0
 40
0.529669
100
AcDbArc
 50
180.0
 51
235.3144509999961
  0
ARC
  5
55945
330
1F
100
AcDbEntity
  8
1
100
AcDbCircle
 10
82.91570546581226
 20
-0.0000000000000284
 30
0.0
 40
0.529669
100
AcDbArc
 50
180.0
 51
235.3144509999961
  0
ARC
  5
55946
330
1F
100
AcDbEntity
  8
1
100
AcDbCircle
 10
83.49537146581235
 20
1.003996999999941
 30
0.0
 40
0.529669
100
AcDbArc
 50
64.68560200000196
 51
175.3144370000019
  0
ARC
  5
55947
330
1F
100
AcDbEntity
  8
1
100
AcDbCircle
 10
84.07503746581232
 20
2.229491999999993
 30
0.0
 40
0.8259999999999998
100
AcDbArc
 50
244.6854839999993
 51
295.31448
  0
ARC
  5
55948
330
1F
100
AcDbEntity
  8
1
100
AcDbCircle
 10
84.6547044658123
 20
1.003996999999941
 30
0.0
 40
0.529669
100
AcDbArc
 50
4.685587000000261
 51
115.3144410000007
  0
ARC
  5
55949
330
1F
100
AcDbEntity
  8
1
100
AcDbCircle
 10
86.00584646581229
 20
1.114745999999996
 30
0.0
 40
0.8259999999999998
100
AcDbArc
 50
184.6854960000021
 51
235.3144879999976
  0
ARC
  5
5594A
330
1F
100
AcDbEntity
  8
1
100
AcDbCircle
 10
85.23437046581227
 20
-0.0000000000000284
 30
0.0
 40
0.529669
100
AcDbArc
 50
304.685595000002
 51
0.0000050000005032
  0
ARC
  5
5594B
330
1F
100
AcDbEntity
  8
1
100
AcDbCircle
 10
86.00584646581229
 20
-1.114746000000053
 30
0.0
 40
0.8259999999999998
100
AcDbArc
 50
124.6854909999979
 51
175.3144859999989
  0
ARC
  5
5594C
330
1F
100
AcDbEntity
  8
1
100
AcDbCircle
 10
84.6547044658123
 20
-1.004029000000031
 30
0.0
 40
0.529669
100
AcDbArc
 50
244.6855800000026
 51
355.3144409999993
  0
ARC
  5
5594D
330
1F
100
AcDbEntity
  8
1
100
AcDbCircle
 10
84.07503746581232
 20
-2.229523000000028
 30
0.0
 40
0.8259999999999998
100
AcDbArc
 50
64.68550600000154
 51
115.3144890000006
  0
ARC
  5
5594E
330
1F
100
AcDbEntity
  8
1
100
AcDbCircle
 10
83.49537146581235
 20
-1.004029000000031
 30
0.0
 40
0.529669
100
AcDbArc
 50
184.6855909999979
 51
295.3144249999998
  0
ARC
  5
5594F
330
1F
100
AcDbEntity
  8
1
100
AcDbCircle
 10
82.14423646581236
 20
-1.114746000000053
 30
0.0
 40
0.8259999999999998
100
AcDbArc
 50
4.685491000000058
 51
55.31447299999998
  0
ARC
  5
55950
330
1F
100
AcDbEntity
  8
1
100
AcDbCircle
 10
82.91570546581226
 20
-0.0000000000000284
 30
0.0
 40
0.529669
100
AcDbArc
 50
124.685565999998
 51
180.0
  0
ARC
  5
55951
330
1F
100
AcDbEntity
  8
1
100
AcDbCircle
 10
82.14423646581236
 20
1.114745999999996
 30
0.0
 40
0.8259999999999998
100
AcDbArc
 50
304.6855130000006
 51
355.3144819999982
  0
ARC
  5
55952
330
1F
100
AcDbEntity
  8
1
100
AcDbCircle
 10
83.92504446581233
 20
-0.0000000000000284
 30
0.0
 40
3.250001999999998
100
AcDbArc
 50
89.99994299999817
 51
179.9999470000005
  0
ARC
  5
55953
330
1F
100
AcDbEntity
  8
1
100
AcDbCircle
 10
83.92504446581233
 20
-0.0000000000000284
 30
0.0
 40
3.250001999999998
100
AcDbArc
 50
0.0000500000017753
 51
89.99995699999827
  0
ARC
  5
55954
330
1F
100
AcDbEntity
  8
1
100
AcDbCircle
 10
83.92504446581233
 20
-0.0000000000000284
 30
0.0
 40
3.250001999999998
100
AcDbArc
 50
269.9999960000009
 51
359.9999499999983
  0
ARC
  5
55955
330
1F
100
AcDbEntity
  8
1
100
AcDbCircle
 10
83.92504446581233
 20
-0.0000000000000284
 30
0.0
 40
3.250001999999998
100
AcDbArc
 50
180.0000529999995
 51
270.0000089999996
  0
ARC
  5
55956
330
1F
100
AcDbEntity
  8
1
100
AcDbCircle
 10
83.92504446581233
 20
-0.0000000000000284
 30
0.0
 40
3.450002999999998
100
AcDbArc
 50
89.99393199999937
 51
269.9938420000028
  0
ARC
  5
55957
330
1F
100
AcDbEntity
  8
1
100
AcDbCircle
 10
84.07503746581232
 20
-0.0000000000000284
 30
0.0
 40
3.450002999999998
100
AcDbArc
 50
0.0000050000005032
 51
88.96192100000295
  0
ARC
  5
55958
330
1F
100
AcDbEntity
  8
1
100
AcDbCircle
 10
84.07503746581232
 20
-0.0000000000000284
 30
0.0
 40
3.450002999999998
100
AcDbArc
 50
271.0380680000001
 51
0.0000050000005032
  0
LINE
  5
55959
330
1F
100
AcDbEntity
  8
1
100
AcDbLine
 10
80.07503746581233
 20
6.526001000000007
 30
0.0
 11
80.07503746581233
 21
6.644164999999986
 31
0.0
  0
LINE
  5
5595A
330
1F
100
AcDbEntity
  8
1
100
AcDbLine
 10
80.07503746581233
 20
7.31499999890002
 30
0.0
 11
80.07503746581233
 21
6.644164999999986
 31
0.0
  0
LINE
  5
5595B
330
1F
100
AcDbEntity
  8
1
100
AcDbLine
 10
80.07503746581233
 20
7.289611999999976
 30
0.0
 11
80.07503746581233
 21
7.185180000000002
 31
0.0
  0
LINE
  5
5595C
330
1F
100
AcDbEntity
  8
1
100
AcDbLine
 10
84.07503746581232
 20
-2.990021000000069
 30
0.0
 11
84.07503746581232
 21
-3.0
 31
0.0
  0
LINE
  5
5595D
330
1F
100
AcDbEntity
  8
1
100
AcDbLine
 10
87.07503746581233
 20
-0.0000000000000284
 30
0.0
 11
87.07502246581237
 21
-0.0000000000000284
 31
0.0
  0
LINE
  5
5595E
330
1F
100
AcDbEntity
  8
1
100
AcDbLine
 10
87.17504446581234
 20
-0.0000000000000284
 30
0.0
 11
87.07503746581233
 21
-0.0000000000000284
 31
0.0
  0
LINE
  5
5595F
330
1F
100
AcDbEntity
  8
1
100
AcDbLine
 10
81.07503746581233
 20
-0.0000000000000284
 30
0.0
 11
81.07505346581229
 21
-0.0000000000000284
 31
0.0
  0
LINE
  5
55960
330
1F
100
AcDbEntity
  8
1
100
AcDbLine
 10
80.67504446581233
 20
-0.0000000000000284
 30
0.0
 11
81.07503746581233
 21
-0.0000000000000284
 31
0.0
  0
LINE
  5
55961
330
1F
100
AcDbEntity
  8
1
100
AcDbLine
 10
77.72482046581228
 20
7.066278000000011
 30
0.0
 11
77.57503846581233
 21
7.122130999999967
 31
0.0
  0
LINE
  5
55962
330
1F
100
AcDbEntity
  8
1
100
AcDbLine
 10
80.88604246581235
 20
-7.038605000000075
 30
0.0
 11
84.13753746581233
 21
-7.038605000000075
 31
0.0
  0
LINE
  5
55963
330
1F
100
AcDbEntity
  8
1
100
AcDbLine
 10
80.07503746581233
 20
-7.038605000000075
 30
0.0
 11
80.88604246581235
 21
-7.038605000000075
 31
0.0
  0
LINE
  5
55964
330
1F
100
AcDbEntity
  8
1
100
AcDbLine
 10
80.07503746581233
 20
-7.038605000000075
 30
0.0
 11
80.07503746581233
 21
-7.31499999890002
 31
0.0
  0
LINE
  5
55965
330
1F
100
AcDbEntity
  8
1
100
AcDbLine
 10
83.20746246581235
 20
5.604497999999978
 30
0.0
 11
84.13753946581232
 21
5.291130000000009
 31
0.0
  0
LINE
  5
55966
330
1F
100
AcDbEntity
  8
1
100
AcDbLine
 10
77.57503746581233
 20
7.066283999999996
 30
0.0
 11
77.96126846581228
 21
7.066283999999996
 31
0.0
  0
LINE
  5
55967
330
1F
100
AcDbEntity
  8
1
100
AcDbLine
 10
77.57503746581233
 20
7.149748999999985
 30
0.0
 11
77.57503746581233
 21
7.066283999999996
 31
0.0
  0
LINE
  5
55968
330
1F
100
AcDbEntity
  8
1
100
AcDbLine
 10
76.56925446581237
 20
7.309538999999972
 30
0.0
 11
80.07503746581233
 21
7.309538999999972
 31
0.0
  0
LINE
  5
55969
330
1F
100
AcDbEntity
  8
1
100
AcDbLine
 10
77.57503746581233
 20
-7.182068000000015
 30
0.0
 11
80.07503746581233
 21
-7.182068000000015
 31
0.0
  0
LINE
  5
5596A
330
1F
100
AcDbEntity
  8
1
100
AcDbLine
 10
77.57503746581233
 20
-7.066253999999958
 30
0.0
 11
77.57503746581233
 21
-7.182068000000015
 31
0.0
  0
LINE
  5
5596B
330
1F
100
AcDbEntity
  8
1
100
AcDbLine
 10
77.57503746581233
 20
-7.066253999999958
 30
0.0
 11
80.07503746581233
 21
-7.066253999999958
 31
0.0
  0
LINE
  5
5596C
330
1F
100
AcDbEntity
  8
1
100
AcDbLine
 10
84.07467746581232
 20
-3.450021999999989
 30
0.0
 11
84.13754146581231
 21
-3.449456000000054
 31
0.0
  0
LINE
  5
5596D
330
1F
100
AcDbEntity
  8
1
100
AcDbLine
 10
83.92467446581235
 20
-3.450003000000037
 30
0.0
 11
84.07466846581234
 21
-3.450018999999997
 31
0.0
  0
LINE
  5
5596E
330
1F
100
AcDbEntity
  8
1
100
AcDbLine
 10
83.92541046581232
 20
3.450020999999992
 30
0.0
 11
84.07540446581231
 21
3.450004999999976
 31
0.0
  0
LINE
  5
5596F
330
1F
100
AcDbEntity
  8
1
100
AcDbLine
 10
84.13753846581233
 20
3.449424999999962
 30
0.0
 11
84.07540746581231
 21
3.449991000000011
 31
0.0
  0
LINE
  5
55970
330
1F
100
AcDbEntity
  8
1
100
AcDbLine
 10
76.07503746581233
 20
-7.317230999999992
 30
0.0
 11
76.07503746581233
 21
-0.0000000000000284
 31
0.0
  0
LINE
  5
55971
330
1F
100
AcDbEntity
  8
1
100
AcDbLine
 10
76.07503746581233
 20
7.317259999999976
 30
0.0
 11
76.07503746581233
 21
-0.0000000000000284
 31
0.0
  0
LINE
  5
55972
330
1F
100
AcDbEntity
  8
1
100
AcDbLine
 10
72.0750224558667
 20
-7.696000000000026
 30
0.0
 11
72.07504046579618
 21
7.695999999999997
 31
0.0
  0
DIMENSION
  5
55973
330
1F
100
AcDbEntity
  8
2
100
AcDbDimension
  2
*D89
 10
92.07504046579618
 20
25.5510546606171
 30
0.0
 11
52.56670713246285
 21
25.5510546606171
 31
0.0
 70
   160
 71
     5
 41
0.892857
 42
20.0
  3
\M+18352\M+18373\M+1815B - ISO-25
100
AcDbAlignedDimension
 13
72.07504046579618
 23
7.6875
 33
0.0
 14
92.07504046579618
 24
5.165842153849638
 34
0.0
 50
180.0
100
AcDbRotatedDimension
1001
ACAD
1000
DSTYLE
1002
{
1070
     4
1000
"
1070
    40
1040
1.0
1070
   143
1040
0.03937
1070
   170
1070
     1
1070
   171
1070
     3
1070
   271
1070
     8
1070
   285
1070
     4
1002
}
  0
LINE
  5
55974
330
1F
100
AcDbEntity
  8
1
100
AcDbLine
 10
76.07503446581223
 20
7.31499999890002
 30
0.0
 11
80.07503746581233
 21
7.31499999890002
 31
0.0
1001
ACAD
1000
RTMaterial
1005
0
  0
LINE
  5
55975
330
1F
100
AcDbEntity
  8
1
100
AcDbLine
 10
76.07503446581223
 20
7.31499999890002
 30
0.0
 11
72.07503446581222
 21
7.699999998900011
 31
0.0
1001
ACAD
1000
RTMaterial
1005
0
  0
ARC
  5
55976
330
1F
100
AcDbEntity
  8
nocut
100
AcDbCircle
 10
84.07003446571229
 20
-0.0000000000000568
 30
0.0
 40
7.314999998900054
100
AcDbArc
 50
0.0
 51
90.0
  0
LINE
  5
55977
330
1F
100
AcDbEntity
  8
nocut
100
AcDbLine
 10
91.38503446461232
 20
0.0
 30
0.0
 11
0.0000000000000568
 21
0.0
 31
0.0
1001
ACAD
1000
RTMaterial
1005
0
  0
LINE
  5
55978
330
1F
100
AcDbEntity
  8
nocut
100
AcDbLine
 10
76.07503446581223
 20
7.31499999890002
 30
0.0
 11
84.07003446571229
 21
7.31499999890002
 31
0.0
1001
ACAD
1000
RTMaterial
1005
0
  0
LINE
  5
55979
330
1F
100
AcDbEntity
  8
nocut
100
AcDbLine
 10
76.07503446581223
 20
7.31499999890002
 30
0.0
 11
72.07503446581222
 21
7.699999998900011
 31
0.0
1001
ACAD
1000
RTMaterial
1005
0
  0
LINE
  5
5597A
330
1F
100
AcDbEntity
  8
1
100
AcDbLine
 10
76.07503446581223
 20
-7.31499999890002
 30
0.0
 11
80.07503746581221
 21
-7.31499999890002
 31
0.0
1001
ACAD
1000
RTMaterial
1005
0
  0
LINE
  5
5597B
330
1F
100
AcDbEntity
  8
1
100
AcDbLine
 10
76.07503446581223
 20
-7.31499999890002
 30
0.0
 11
72.07503446581222
 21
-7.699999998900011
 31
0.0
1001
ACAD
1000
RTMaterial
1005
0
  0
DIMENSION
  5
5597C
330
1F
100
AcDbEntity
  8
sk2
100
AcDbDimension
  2
*D90
 10
-116.623606038311
 20
9.525000000000042
 30
0.0
 11
-116.623606038311
 21
-39.56667666666681
 31
0.0
 70
   160
  1
%%c<>
 71
     5
 41
0.892857
 42
19.05000000000001
  3
\M+18352\M+18373\M+1815B - ISO-25
100
AcDbAlignedDimension
 13
-87.69996403831118
 23
-9.524999999999977
 33
0.0
 14
-87.69996403831118
 24
9.525000000000034
 34
0.0
 50
270.0
100
AcDbRotatedDimension
1001
ACAD
1000
DSTYLE
1002
{
1070
     4
1000
%%C[]"
1070
    40
1040
1.0
1070
   143
1040
0.03937
1070
   170
1070
     1
1070
   171
1070
     3
1070
   271
1070
     8
1070
   285
1070
     4
1002
}
  0
DIMENSION
  5
5597D
330
1F
100
AcDbEntity
  8
2
100
AcDbDimension
  2
*D91
 10
58.11967696168881
 20
7.695999999999973
 30
0.0
 11
58.11967696168881
 21
-37.11251900000002
 31
0.0
 70
   160
  1
%%C<>
 71
     5
 41
0.892857
 42
15.39199999999999
  3
\M+18352\M+18373\M+1815B - ISO-25
100
AcDbAlignedDimension
 13
72.0750299600345
 23
-7.696000000000026
 33
0.0
 14
72.07503296162826
 24
7.695999999999969
 34
0.0
 50
270.0
100
AcDbRotatedDimension
1001
ACAD
1000
DSTYLE
1002
{
1070
     4
1000
%%C[]"
1070
    40
1040
1.0
1070
   143
1040
0.03937
1070
   170
1070
     1
1070
   171
1070
     3
1070
   271
1070
     8
1070
   285
1070
     4
1002
}
  0
LINE
  5
5597E
330
1F
100
AcDbEntity
  8
1
100
AcDbLine
 10
28.88003296162833
 20
-8.644999998899947
 30
0.0
 11
28.88003296162839
 21
8.644999998899947
 31
0.0
  0
LINE
  5
5597F
330
1F
100
AcDbEntity
  8
sk4
100
AcDbLine
 10
-94.7708340383112
 20
0.0
 30
0.0
 11
0.0000329616888735
 21
0.0
 31
0.0
  0
LINE
  5
55980
330
1F
100
AcDbEntity
  8
4
100
AcDbLine
 10
0.0000329616888735
 20
0.0
 30
0.0
 11
100.1901119616889
 21
0.0
 31
0.0
  0
LINE
  5
55981
330
1F
100
AcDbEntity
  8
1
100
AcDbLine
 10
0.0000329616888735
 20
-9.525010000000008
 30
0.0
 11
0.0000329616888735
 21
0.0
 31
0.0
  0
LINE
  5
55982
330
1F
100
AcDbEntity
  8
1
100
AcDbLine
 10
0.0
 20
9.525000000000005
 30
0.0
 11
0.0
 21
0.0000059999999849
 31
0.0
  0
LINE
  5
55983
330
1F
100
AcDbEntity
  8
sk1
100
AcDbLine
 10
-87.69996403831118
 20
9.525000000000034
 30
0.0
 11
0.0
 21
9.525000000749031
 31
0.0
  0
LINE
  5
55984
330
1F
100
AcDbEntity
  8
sk1
100
AcDbLine
 10
-87.69996403831118
 20
-9.524999999999977
 30
0.0
 11
0.0000329616888735
 21
-9.524999999999977
 31
0.0
  0
LINE
  5
55985
330
1F
100
AcDbEntity
  8
sk1
100
AcDbLine
 10
-87.69996403831118
 20
0.0
 30
0.0
 11
-87.69996403831118
 21
-9.524999999999977
 31
0.0
  0
LINE
  5
55986
330
1F
100
AcDbEntity
  8
sk1
100
AcDbLine
 10
-87.69996403831118
 20
0.0
 30
0.0
 11
-87.69996403831118
 21
9.525000000000034
 31
0.0
  0
LINE
  5
55987
330
1F
100
AcDbEntity
  8
sk1
100
AcDbLine
 10
-87.69996403831118
 20
-9.524999999999977
 30
0.0
 11
-88.89997703831108
 21
-8.325003999999978
 31
0.0
  0
LINE
  5
55988
330
1F
100
AcDbEntity
  8
sk1
100
AcDbLine
 10
-88.89996903831109
 20
-0.0000159999999596
 30
0.0
 11
-88.89996903831109
 21
-8.325012999999955
 31
0.0
  0
LINE
  5
55989
330
1F
100
AcDbEntity
  8
sk1
100
AcDbLine
 10
-88.89996703837164
 20
8.324996999939457
 30
0.0
 11
-88.89996703837164
 21
-0.0000160000605547
 31
0.0
  0
LINE
  5
5598A
330
1F
100
AcDbEntity
  8
sk1
100
AcDbLine
 10
-87.69996403831118
 20
9.525000000000034
 30
0.0
 11
-88.89996703837164
 21
8.324996999939457
 31
0.0
  0
LINE
  5
5598B
330
1F
100
AcDbEntity
  8
1
100
AcDbLine
 10
72.0750299600345
 20
-7.696000000000026
 30
0.0
 11
72.07503296162826
 21
7.695999999999969
 31
0.0
  0
DIMENSION
  5
5598D
330
1F
100
AcDbEntity
  8
2
100
AcDbDimension
  2
*D92
 10
-0.0001344644907687
 20
37.36061045221823
 30
0.0
 11
48.40785691353585
 21
37.36061045221823
 31
0.0
 70
   160
 71
     5
 42
92.07499999944877
  3
\M+18352\M+18373\M+1815B - ISO-25
100
AcDbAlignedDimension
 13
92.07486553495801
 23
16.15959262394804
 33
0.0
 14
-0.0001344644907704
 24
9.534062992021318
 34
0.0
 50
180.0
100
AcDbRotatedDimension
1001
ACAD
1000
DSTYLE
1002
{
1070
     4
1000
"
1070
    40
1040
1.0
1070
   143
1040
0.03937
1070
   170
1070
     1
1070
   171
1070
     3
1070
   271
1070
     8
1070
   285
1070
     4
1002
}
  0
DIMENSION
  5
5598E
330
1F
100
AcDbEntity
  8
sk2
100
AcDbDimension
  2
*D93
 10
-88.89996703837164
 20
50.80237592127713
 30
0.0
 11
-0.2461091654162146
 21
50.80237592127713
 31
0.0
 70
   160
 71
     5
 42
180.9749999999999
  3
\M+18352\M+18373\M+1815B - ISO-25
100
AcDbAlignedDimension
 13
92.07503296162826
 23
5.165842256143946
 33
0.0
 14
-88.89996703837164
 24
8.324996999939457
 34
0.0
 50
180.0
100
AcDbRotatedDimension
1001
ACAD
1000
DSTYLE
1002
{
1070
     4
1000
"
1070
    40
1040
1.0
1070
   143
1040
0.03937
1070
   170
1070
     1
1070
   171
1070
     3
1070
   271
1070
     8
1070
   285
1070
     4
1002
}
  0
LINE
  5
5598F
330
1F
100
AcDbEntity
  8
1
100
AcDbLine
 10
0.7143616036428285
 20
-8.172770769106818
 30
0.0
 11
0.7143616036428285
 21
8.172770769106818
 31
0.0
  0
LINE
  5
55990
330
1F
100
AcDbEntity
  8
1
100
AcDbLine
 10
2.122672827488827
 20
8.644999998899976
 30
0.0
 11
28.88003296168887
 21
8.644999998899976
 31
0.0
1001
ACAD
1000
RTMaterial
1005
0
  0
LINE
  5
55991
330
1F
100
AcDbEntity
  8
1
100
AcDbLine
 10
72.07503296168886
 20
7.699999998899983
 30
0.0
 11
28.88003296168887
 21
8.644999998899976
 31
0.0
1001
ACAD
1000
RTMaterial
1005
0
  0
ARC
  5
55992
330
1F
100
AcDbEntity
  8
1
100
AcDbCircle
 10
2.122672827488827
 20
11.64499999889997
 30
0.0
 40
3.0
100
AcDbArc
 50
224.9643492835019
 51
270.0
1001
ACAD
1000
RTMaterial
1005
0
  0
LINE
  5
55993
330
1F
100
AcDbEntity
  8
nocut
100
AcDbLine
 10
0.0
 20
0.0
 30
0.0
 11
0.0
 21
9.524999998899943
 31
0.0
1001
ACAD
1000
RTMaterial
1005
0
  0
LINE
  5
55994
330
1F
100
AcDbEntity
  8
nocut
100
AcDbLine
 10
2.122639865799953
 20
8.644999998899947
 30
0.0
 11
28.88
 21
8.644999998899947
 31
0.0
1001
ACAD
1000
RTMaterial
1005
0
  0
LINE
  5
55995
330
1F
100
AcDbEntity
  8
nocut
100
AcDbLine
 10
72.07500000000004
 20
7.699999998899954
 30
0.0
 11
28.88
 21
8.644999998899947
 31
0.0
1001
ACAD
1000
RTMaterial
1005
0
  0
ARC
  5
55996
330
1F
100
AcDbEntity
  8
nocut
100
AcDbCircle
 10
2.122639865799953
 20
11.64499999889994
 30
0.0
 40
3.0
100
AcDbArc
 50
224.9643492835019
 51
270.0
1001
ACAD
1000
RTMaterial
1005
0
  0
LINE
  5
55997
330
1F
100
AcDbEntity
  8
1
100
AcDbLine
 10
2.122672827488827
 20
-8.644999998899947
 30
0.0
 11
28.88003296168887
 21
-8.644999998899947
 31
0.0
1001
ACAD
1000
RTMaterial
1005
0
  0
LINE
  5
55998
330
1F
100
AcDbEntity
  8
1
100
AcDbLine
 10
72.07503296168886
 20
-7.699999998900011
 30
0.0
 11
28.88003296168887
 21
-8.644999998899947
 31
0.0
1001
ACAD
1000
RTMaterial
1005
0
  0
ARC
  5
55999
330
1F
100
AcDbEntity
  8
1
100
AcDbCircle
 10
2.122672827488827
 20
-11.64499999889994
 30
0.0
 40
3.0
100
AcDbArc
 50
90.0
 51
135.0356507164981
1001
ACAD
1000
RTMaterial
1005
0
  0
LINE
  5
5611A
330
1F
100
AcDbEntity
  8
1
100
AcDbLine
 10
80.94937329292873
 20
-7.465000000000031
 30
0.0
 11
80.94937329292873
 21
-7.038605000000018
 31
0.0
  0
LINE
  5
5611B
330
1F
100
AcDbEntity
  8
1
100
AcDbLine
 10
80.94937329292873
 20
6.279385565883217
 30
0.0
 11
80.94937329292873
 21
7.464999998800038
 31
0.0
  0
LINE
  5
5611C
330
1F
100
AcDbEntity
  8
1
100
AcDbLine
 10
80.08504629292872
 20
7.310000000000002
 30
0.0
 11
80.08504629292872
 21
6.523676381114228
 31
0.0
  0
LINE
  5
5611D
330
1F
100
AcDbEntity
  8
1
100
AcDbLine
 10
80.08504629292872
 20
-7.038605000000018
 30
0.0
 11
80.08504629292872
 21
-7.310000000000002
 31
0.0
  0
VIEWPORT
  5
6B
102
{ACAD_XDICTIONARY
360
5618F
102
}
330
50
100
AcDbEntity
 67
     1
  8
0
100
AcDbViewport
 10
150.1652135264906
 20
160.4455827878762
 30
0.0
 40
339.1973820494346
 41
282.2272140146125
 68
     1
 69
     1
 12
150.1652135264906
 22
160.4455827878762
 13
0.0
 23
0.0
 14
10.0
 24
10.0
 15
10.0
 25
10.0
 16
0.0
 26
0.0
 36
1.0
 17
0.0
 27
0.0
 37
0.0
 42
50.0
 43
0.0
 44
0.0
 45
282.2272140146125
 50
0.0
 51
0.0
 72
  1000
 90
    32864
  1

281
     0
 71
     1
 74
     0
110
0.0
120
0.0
130
0.0
111
1.0
121
0.0
131
0.0
112
0.0
122
1.0
132
0.0
 79
     0
146
0.0
  0
VIEWPORT
  5
6D
102
{ACAD_XDICTIONARY
360
56191
102
}
330
50
100
AcDbEntity
 67
     1
  8
0
100
AcDbViewport
 10
133.3499939441681
 20
101.5999939441681
 30
0.0
 40
213.3599903106689
 41
162.5599903106689
 68
     2
 69
     2
 12
210.0
 22
148.5
 13
0.0
 23
0.0
 14
10.0
 24
10.0
 15
10.0
 25
10.0
 16
0.0
 26
0.0
 36
1.0
 17
0.0
 27
0.0
 37
0.0
 42
50.0
 43
0.0
 44
0.0
 45
324.0677920111345
 50
0.0
 51
0.0
 72
   100
 90
    32864
  1

281
     0
 71
     1
 74
     0
110
0.0
120
0.0
130
0.0
111
1.0
121
0.0
131
0.0
112
0.0
122
1.0
132
0.0
 79
     0
146
0.0
  0
ENDSEC
  0
SECTION
  2
OBJECTS
  0
DICTIONARY
  5
C
330
0
100
AcDbDictionary
281
     1
  3
ACAD_COLOR
350
85
  3
ACAD_GROUP
350
D
  3
ACAD_LAYOUT
350
1A
  3
ACAD_MATERIAL
350
84
  3
ACAD_MLINESTYLE
350
17
  3
ACAD_PLOTSETTINGS
350
19
  3
ACAD_PLOTSTYLENAME
350
E
  3
ACAD_TABLESTYLE
350
A1
  3
ACDBHEADERROUNDTRIPXREC
350
5618A
  3
AcDbVariableDictionary
350
5E
  3
ASE_INDEX_DICTIONARY
350
349E9
  3
DWGPROPS
350
56189
  0
DICTIONARY
  5
E2
330
2
100
AcDbDictionary
280
     1
281
     1
  3
ACAD_LAYERFILTERS
360
54780
  3
ACAD_LAYERSTATES
360
3759A
  3
ACLYDICTIONARY
360
5477F
  0
DICTIONARY
  5
31EE
330
1F
100
AcDbDictionary
280
     1
281
     1
  3
ACAD_SORTENTS
360
31EF
  0
DICTIONARY
  5
3BEB2
330
680
100
AcDbDictionary
280
     1
281
     1
  3
ACAD_SORTENTS
360
5460B
  0
DICTIONARY
  5
56193
330
71
100
AcDbDictionary
280
     1
281
     1
  3
ACAD_XREC_ROUNDTRIP
360
56194
  0
DICTIONARY
  5
56195
330
73
100
AcDbDictionary
280
     1
281
     1
  3
ACAD_XREC_ROUNDTRIP
360
56196
  0
DICTIONARY
  5
558BB
330
558BA
100
AcDbDictionary
280
     1
281
     1
  3
ACAD_DIMASSOC
360
558BC
  0
DICTIONARY
  5
5618F
330
6B
100
AcDbDictionary
280
     1
281
     1
  3
ACAD_XREC_ROUNDTRIP
360
56190
  0
DICTIONARY
  5
56191
330
6D
100
AcDbDictionary
280
     1
281
     1
  3
ACAD_XREC_ROUNDTRIP
360
56192
  0
DICTIONARY
  5
85
102
{ACAD_REACTORS
330
C
102
}
330
C
100
AcDbDictionary
281
     1
  0
DICTIONARY
  5
D
102
{ACAD_REACTORS
330
C
102
}
330
C
100
AcDbDictionary
281
     1
  0
DICTIONARY
  5
1A
102
{ACAD_REACTORS
330
C
102
}
330
C
100
AcDbDictionary
281
     1
  3
\M+1838C\M+18343\M+18341\M+18345\M+183671
350
51
  3
\M+1838C\M+18343\M+18341\M+18345\M+183672
350
56
  3
Model
350
22
  0
DICTIONARY
  5
84
102
{ACAD_REACTORS
330
C
102
}
330
C
100
AcDbDictionary
281
     1
  0
DICTIONARY
  5
17
102
{ACAD_REACTORS
330
C
102
}
330
C
100
AcDbDictionary
281
     1
  3
Standard
350
18
  0
DICTIONARY
  5
19
102
{ACAD_REACTORS
330
C
102
}
330
C
100
AcDbDictionary
281
     1
  0
ACDBDICTIONARYWDFLT
  5
E
102
{ACAD_REACTORS
330
C
102
}
330
C
100
AcDbDictionary
281
     1
  3
Normal
350
F
100
AcDbDictionaryWithDefault
340
F
  0
DICTIONARY
  5
A1
102
{ACAD_REACTORS
330
C
102
}
330
C
100
AcDbDictionary
281
     1
  3
Standard
350
A2
  0
DICTIONARY
  5
5618A
102
{ACAD_REACTORS
330
C
102
}
330
C
100
AcDbDictionary
281
     1
  0
DICTIONARY
  5
5E
102
{ACAD_REACTORS
330
C
102
}
330
C
100
AcDbDictionary
281
     1
  3
CTABLESTYLE
350
B8
  3
DIMASSOC
350
5F
  3
HIDETEXT
350
63
  3
PROJECTNAME
350
31CE
  0
DICTIONARY
  5
349E9
102
{ACAD_REACTORS
330
C
102
}
330
C
100
AcDbDictionary
281
     1
  3
ASEBlockHierarchyIndexRecord
350
349EA
1001
DCO15
1040
1842496176.844
  0
XRECORD
  5
56189
102
{ACAD_REACTORS
330
C
102
}
330
C
100
AcDbXrecord
280
     1
  1
DWGPROPS COOKIE
  2

  3

  4

  6

  7

  8

  9

300
=
301
=
302
=
303
=
304
=
305
=
306
=
307
=
308
=
309
=
 40
2.768697164351851
 41
2455489.391063368
 42
2458573.008524248
  1

 90
        0
  0
DICTIONARY
  5
54780
102
{ACAD_REACTORS
330
E2
102
}
330
E2
100
AcDbDictionary
281
     1
  0
DICTIONARY
  5
3759A
102
{ACAD_REACTORS
330
E2
102
}
330
E2
100
AcDbDictionary
281
     1
  0
DICTIONARY
  5
5477F
102
{ACAD_REACTORS
330
E2
102
}
330
E2
100
AcDbDictionary
281
     1
1001
ACAD
1000
<All
  0
SORTENTSTABLE
  5
31EF
102
{ACAD_REACTORS
330
31EE
102
}
330
31EE
100
AcDbSortentsTable
330
1F
331
68C
  5
3C6B0
331
53AD9
  5
53ADC
  0
SORTENTSTABLE
  5
5460B
102
{ACAD_REACTORS
330
3BEB2
102
}
330
3BEB2
100
AcDbSortentsTable
330
680
  0
XRECORD
  5
56194
102
{ACAD_REACTORS
330
56193
102
}
330
56193
100
AcDbXrecord
280
     1
102
SHADEPLOT
 70
     0
  0
XRECORD
  5
56196
102
{ACAD_REACTORS
330
56195
102
}
330
56195
100
AcDbXrecord
280
     1
102
SHADEPLOT
 70
     0
  0
DIMASSOC
  5
558BC
102
{ACAD_REACTORS
330
558BB
102
}
330
558BB
100
AcDbDimAssoc
330
558BA
 90
        2
 70
     0
 71
     0
  1
AcDbOsnapPointRef
 72
     3
331
558B9
 73
     2
 91
        0
 40
0.0
 10
0.0
 20
0.0
 30
0.0
 75
     0
  0
XRECORD
  5
56190
102
{ACAD_REACTORS
330
5618F
102
}
330
5618F
100
AcDbXrecord
280
     1
102
SHADEPLOT
 70
     0
  0
XRECORD
  5
56192
102
{ACAD_REACTORS
330
56191
102
}
330
56191
100
AcDbXrecord
280
     1
102
SHADEPLOT
 70
     0
  0
LAYOUT
  5
51
102
{ACAD_XDICTIONARY
360
B2
102
}
102
{ACAD_REACTORS
330
1A
102
}
330
1A
100
AcDbPlotSettings
  1

  2
none_device
  4
Letter_(8.50_x_11.00_Inches)
  6

 40
6.349999904632567
 41
6.349999904632567
 42
6.350006103515625
 43
6.350006103515625
 44
215.8999938964844
 45
279.3999938964844
 46
0.0
 47
0.0
 48
0.0
 49
0.0
140
0.0
141
0.0
142
1.0
143
1.0
 70
   688
 72
     1
 73
     1
 74
     5
  7

 75
    16
147
1.0
148
0.0
149
0.0
100
AcDbLayout
  1
\M+1838C\M+18343\M+18341\M+18345\M+183671
 70
     1
 71
     1
 10
-6.350006103515625
 20
-6.349999904632567
 11
273.0499877929688
 21
209.5499939918518
 12
0.0
 22
0.0
 32
0.0
 14
26.66999878883364
 24
20.31999878883365
 34
0.0
 15
240.0299890995025
 25
182.8799890995025
 35
0.0
146
0.0
 13
0.0
 23
0.0
 33
0.0
 16
1.0
 26
0.0
 36
0.0
 17
0.0
 27
1.0
 37
0.0
 76
     0
330
50
331
6B
  0
LAYOUT
  5
56
102
{ACAD_XDICTIONARY
360
B5
102
}
102
{ACAD_REACTORS
330
1A
102
}
330
1A
100
AcDbPlotSettings
  1

  2
none_device
  4
Letter_(8.50_x_11.00_Inches)
  6

 40
6.349999904632567
 41
6.349999904632567
 42
6.350006103515625
 43
6.350006103515625
 44
215.8999938964844
 45
279.3999938964844
 46
0.0
 47
0.0
 48
0.0
 49
0.0
140
0.0
141
0.0
142
1.0
143
1.0
 70
   688
 72
     1
 73
     1
 74
     5
  7

 75
    16
147
1.0
148
0.0
149
0.0
100
AcDbLayout
  1
\M+1838C\M+18343\M+18341\M+18345\M+183672
 70
     1
 71
     2
 10
-6.350006103515625
 20
-6.349999904632567
 11
273.0499877929688
 21
209.5499939918518
 12
0.0
 22
0.0
 32
0.0
 14
26.66999878883363
 24
20.31999878883363
 34
0.0
 15
240.0299890995026
 25
182.8799890995025
 35
0.0
146
0.0
 13
0.0
 23
0.0
 33
0.0
 16
1.0
 26
0.0
 36
0.0
 17
0.0
 27
1.0
 37
0.0
 76
     0
330
55
331
71
  0
LAYOUT
  5
22
102
{ACAD_XDICTIONARY
360
5618B
102
}
102
{ACAD_REACTORS
330
1A
102
}
330
1A
100
AcDbPlotSettings
  1

  2
none_device
  4
ANSI_A_(8.50_x_11.00_Inches)
  6

 40
6.349999904632567
 41
19.04999923706055
 42
6.350006103515625
 43
19.04998779296875
 44
215.8999938964844
 45
279.3999938964844
 46
0.0
 47
0.0
 48
0.0
 49
0.0
140
0.0
141
0.0
142
1.0
143
78.436453180766
 70
 11952
 72
     0
 73
     1
 74
     0
  7

 75
     0
147
0.0127491741332998
148
0.0
149
0.0
100
AcDbLayout
  1
Model
 70
     1
 71
     0
 10
0.0
 20
0.0
 11
12.0
 21
9.0
 12
0.0
 22
0.0
 32
0.0
 14
0.0
 24
0.0
 34
0.0
 15
0.0
 25
0.0
 35
0.0
146
0.0
 13
0.0
 23
0.0
 33
0.0
 16
1.0
 26
0.0
 36
0.0
 17
0.0
 27
1.0
 37
0.0
 76
     0
330
1F
  0
MLINESTYLE
  5
18
102
{ACAD_REACTORS
330
17
102
}
330
17
100
AcDbMlineStyle
  2
STANDARD
 70
     0
  3

 62
   256
 51
90.0
 52
90.0
 71
     2
 49
0.5
 62
   256
  6
BYLAYER
 49
-0.5
 62
   256
  6
BYLAYER
  0
ACDBPLACEHOLDER
  5
F
102
{ACAD_REACTORS
330
E
102
}
330
E
  0
TABLESTYLE
  5
A2
102
{ACAD_REACTORS
330
A1
102
}
330
A1
100
AcDbTableStyle
  3
Standard
 70
     0
 71
     0
 40
1.5
 41
1.5
280
     0
281
     0
  7
Standard
140
4.5
170
     2
 62
     0
 63
     7
283
     0
274
    -2
284
     1
 64
     0
275
    -2
285
     1
 65
     0
276
    -2
286
     1
 66
     0
277
    -2
287
     1
 67
     0
278
    -2
288
     1
 68
     0
279
    -2
289
     1
 69
     0
  7
Standard
140
6.0
170
     5
 62
     0
 63
     7
283
     0
274
    -2
284
     1
 64
     0
275
    -2
285
     1
 65
     0
276
    -2
286
     1
 66
     0
277
    -2
287
     1
 67
     0
278
    -2
288
     1
 68
     0
279
    -2
289
     1
 69
     0
  7
Standard
140
4.5
170
     5
 62
     0
 63
     7
283
     0
274
    -2
284
     1
 64
     0
275
    -2
285
     1
 65
     0
276
    -2
286
     1
 66
     0
277
    -2
287
     1
 67
     0
278
    -2
288
     1
 68
     0
279
    -2
289
     1
 69
     0
  0
DICTIONARYVAR
  5
B8
102
{ACAD_REACTORS
330
5E
102
}
330
5E
100
DictionaryVariables
280
     0
  1
STANDARD
  0
DICTIONARYVAR
  5
5F
102
{ACAD_REACTORS
330
5E
102
}
330
5E
100
DictionaryVariables
280
     0
  1
2
  0
DICTIONARYVAR
  5
63
102
{ACAD_REACTORS
330
5E
102
}
330
5E
100
DictionaryVariables
280
     0
  1
1
  0
DICTIONARYVAR
  5
31CE
102
{ACAD_REACTORS
330
5E
102
}
330
5E
100
DictionaryVariables
280
     0
  1

  0
XRECORD
  5
349EA
102
{ACAD_REACTORS
330
349E9
102
}
330
349E9
100
AcDbXrecord
280
     1
330
68C
330
0
330
0
330
0
330
0
330
0
330
0
330
0
330
0
330
0
330
0
330
0
330
0
330
0
330
0
330
0
330
0
330
0
330
0
330
0
330
0
330
0
330
0
330
0
330
0
330
0
330
0
330
0
330
0
330
0
330
0
330
0
330
0
330
0
330
0
330
0
330
0
330
0
330
0
330
0
330
0
330
0
330
0
330
0
330
0
330
0
330
0
330
0
330
0
330
0
330
0
330
0
330
0
330
0
330
0
330
0
330
0
330
0
330
0
330
0
330
0
330
0
330
0
330
0
330
0
330
0
330
0
330
0
330
0
330
0
330
0
330
0
330
0
330
0
330
0
330
0
330
0
330
0
330
0
330
0
330
0
330
0
330
0
330
0
330
0
330
0
330
0
330
0
330
0
330
0
330
0
330
0
330
0
330
0
330
0
330
0
330
0
330
0
330
0
330
0
330
0
330
0
330
0
330
0
330
0
330
0
330
0
330
0
330
0
330
0
  0
DICTIONARY
  5
B2
330
51
100
AcDbDictionary
280
     1
281
     1
  3
ACAD_XREC_ROUNDTRIP
360
5618D
  3
ADSK_XREC_LAYOUTTHUMBNAIL
360
B3
  0
DICTIONARY
  5
B5
330
56
100
AcDbDictionary
280
     1
281
     1
  3
ACAD_XREC_ROUNDTRIP
360
5618E
  3
ADSK_XREC_LAYOUTTHUMBNAIL
360
B6
  0
DICTIONARY
  5
5618B
330
22
100
AcDbDictionary
280
     1
281
     1
  3
ACAD_XREC_ROUNDTRIP
360
5618C
  0
XRECORD
  5
5618D
102
{ACAD_REACTORS
330
B2
102
}
330
B2
100
AcDbXrecord
280
     1
102
SHADEPLOT
 70
     0
102
SHADEPLOTRESLEVEL
 70
     2
102
SHADEPLOTCUSTOMDPI
 70
   300
  0
XRECORD
  5
B3
102
{ACAD_REACTORS
330
B2
102
}
330
B2
100
AcDbXrecord
280
     1
310
28000000B40000008B0000000100080000000000BC61000000000000000000000001000000000000FFFFFF0000000000FFFFFF000000000000000000000000000000000000000000000000000000000000000000330000006600000099000000CC000000FF00000000330000333300006633000099330000CC330000FF3300
310
0000660000336600006666000099660000CC660000FF66000000990000339900006699000099990000CC990000FF99000000CC000033CC000066CC000099CC0000CCCC0000FFCC000000FF000033FF000066FF000099FF0000CCFF0000FFFF000000003300330033006600330099003300CC003300FF003300003333003333
310
33006633330099333300CC333300FF33330000663300336633006666330099663300CC663300FF66330000993300339933006699330099993300CC993300FF99330000CC330033CC330066CC330099CC3300CCCC3300FFCC330000FF330033FF330066FF330099FF3300CCFF3300FFFF330000006600330066006600660099
310
006600CC006600FF00660000336600333366006633660099336600CC336600FF33660000666600336666006666660099666600CC666600FF66660000996600339966006699660099996600CC996600FF99660000CC660033CC660066CC660099CC6600CCCC6600FFCC660000FF660033FF660066FF660099FF6600CCFF6600
310
FFFF660000009900330099006600990099009900CC009900FF00990000339900333399006633990099339900CC339900FF33990000669900336699006666990099669900CC669900FF66990000999900339999006699990099999900CC999900FF99990000CC990033CC990066CC990099CC9900CCCC9900FFCC990000FF99
310
0033FF990066FF990099FF9900CCFF9900FFFF99000000CC003300CC006600CC009900CC00CC00CC00FF00CC000033CC003333CC006633CC009933CC00CC33CC00FF33CC000066CC003366CC006666CC009966CC00CC66CC00FF66CC000099CC003399CC006699CC009999CC00CC99CC00FF99CC0000CCCC0033CCCC0066CC
310
CC0099CCCC00CCCCCC00FFCCCC0000FFCC0033FFCC0066FFCC0099FFCC00CCFFCC00FFFFCC000000FF003300FF006600FF009900FF00CC00FF00FF00FF000033FF003333FF006633FF009933FF00CC33FF00FF33FF000066FF003366FF006666FF009966FF00CC66FF00FF66FF000099FF003399FF006699FF009999FF00CC
310
99FF00FF99FF0000CCFF0033CCFF0066CCFF0099CCFF00CCCCFF00FFCCFF0000FFFF0033FFFF0066FFFF0099FFFF00CCFFFF00FFFFFF00000000000D0D0D001A1A1A00282828003535350043434300505050005D5D5D006B6B6B00787878008686860093939300A1A1A100AEAEAE00BBBBBB00C9C9C900D6D6D600E4E4E400
310
F1F1F100FFFFFF0000000000000000000000000000000000000000000000000000000000000000000000000000000000E2E2E2E2E2E2E2E2E2E2E2E2E2E2E2E2E2E2E2E2E2E2E2E2E2E2E2E2E2E2E2E2E2E2E2E2E2E2E2E2E2E2E2E2E2E2E2E2E2E2E2E2E2E2E2E2E2E2E2E2E2E2E2E2E2E2E2E2E2E2E2E2E2E2E2E2E2E2E2
310
E2E2E2E2E2E2E2E2E2E2E2E2E2E2E2E2E2E2E2E2E2E2E2E2E2E2E2E2E2E2E2E2E2E2E2E2E2E2E2E2E2E2E2E2E2E2E2E2E2E2E2E2E2E2E2E2E2E2E2E2E2E2E2E2E2E2E2E2E2E2E2E2E2E2E2E2E2E2E2E2E2E2E2E2E2E2E2E2E2E2E2E2E2E2E2E2E2E2E2E2E2E2F5F5F5F5F5F5F5F5F5F5F5F5F5F5F5F5F5F5F5F5F5F5F5F5F5
310
F5F5F5F5F5F5F5F5F5F5F5F5F5F5F5F5F5F5F5F5F5F5F5F5F5F5F5F5F5F5F5F5F5F5F5F5F5F5F5F5F5F5F5F5F5F5F5F5F5F5F5F5F5F5F5F5F5F5F5F5F5F5F5F5F5F5F5F5F5F5F5F5F5F5F5F5F5F5F5F5F5F5F5F5F5F5F5F5F5F5F5F5F5F5F5F5F5F5F5F5F5F5F5F5F5F5F5F5F5F5F5F5F5F5F5F5F5F5F5F5F5F5F5F5F5F5F5
310
F5F5F5F5F5F5F5F5F5F5F5F5F5F5F5F5F5F5F5F5F5F5F5F5F5F5E2E2F5F5F5F5F5F5F5F5F5F5F5F5F5F5F5F5F5F5F5F5F5F5F5F5F5F5F5F5F5F5F5F5F5F5F5F5F5F5F5F5F5F5F5F5F5F5F5F5F5F5F5F5F5F5F5F5F5F5F5F5F5F5F5F5F5F5F5F5F5F5F5F5F5F5F5F5F5F5F5F5F5F5F5F5F5F5F5F5F5F5F5F5F5F5F5F5F5F5F5
310
F5F5F5F5F5F5F5F5F5F5F5F5F5F5F5F5F5F5F5F5F5F5F5F5F5F5F5F5F5F5F5F5F5F5F5F5F5F5F5F5F5F5F5F5F5F5F5F5F5F5F5F5F5F5F5F5F5F5F5F5F5F5F5F5F5F5F5F5F5F5F5F5F5F5F5F5F5F5F5E2E2F5F5F5F5F5F5F5F5F5F5F5F5F5F5F5F5F5F5F5F5F5F5F5F5F5F5F5F5F5F5F5F5F5F5F5F5F5F5F5F5F5F5F5F5F5F5
310
F5F5F5F5F5F5F5F5F5F5F5F5F5F5F5F5F5F5F5F5F5F5F5F5F5F5F5F5F5F5F5F5F5F5F5F5F5F5F5F5F5F5F5F5F5F5F5F5F5F5F5F5F5F5F5F5F5F5F5F5F5F5F5F5F5F5F5F5F5F5F5F5F5F5F5F5F5F5F5F5F5F5F5F5F5F5F5F5F5F5F5F5F5F5F5F5F5F5F5F5F5F5F5F5F5F5F5F5F5F5F5F5F5F5F5F5F5F5F5F5F5F5F5F5F5F5F5
310
F5F5F5F5F5E2E2F5F5F5F5E2E2E2E2E2E2E2E2F5F5F5F5F5F5F5F5F5E2E2E2E2E2E2E2E2E2E2E2E2E2E2E2F5F5F5F5F5F5F5F5F5E2E2E2E2E2E2E2E2E2E2E2E2E2E2E2E2F5F5F5F5F5F5F5F5E2E2E2E2E2E2E2E2E2E2E2E2E2E2E2E2F5F5F5F5F5F5F5F5E2E2E2E2E2E2E2E2E2E2E2E2E2E2E2E2F5F5F5F5F5F5F5F5E2E2E2
310
E2E2E2E2E2E2E2E2E2E2E2E2E2F5F5F5F5F5F5F5F5F5E2E2E2E2E2E2E2E2E2E2E2E2E2E2E2F5F5F5F5F5F5F5F5F5E2E2E2E2E2E2E2E2F5F5F5F5E2E2F5F5F5F5E2F5F5F5F5F5F5F5F5F5F5F5F5F5F5F5F5F5F5F5F5F5F5F5F5F5F5F5F5F5F5F5F5F5F5F5F5F5F5F5F5F5F5F5F5F5F5F5F5F5F5F5F5F5F5F5F5F5F5F5F5F5F5
310
F5F5F5F5F5F5F5F5F5F5F5F5F5F5F5F5F5F5F5F5F5F5F5F5F5F5F5F5F5F5F5F5F5F5F5F5F5F5F5F5F5F5F5F5F5F5F5F5F5F5F5F5F5F5F5F5F5F5F5F5F5F5F5F5F5F5F5F5F5F5F5F5F5F5F5F5F5F5F5F5F5F5F5F5F5F5F5F5F5F5F5F5F5F5F5F5F5F5F5F5F5F5F5F5F5F5E2F5F5F5F5E2E2F5F5F5F5E2F5F5F5F5F5F5F5F5F5
310
F5F5F5F5F5F5F5F5F5F5F5F5F5F5F5F5F5F5F5F5F5F5F5F5F5F5F5F5F5F5F5F5F5F5F5F5F5F5F5F5F5F5F5F5F5F5F5F5F5F5F5F5F5F5F5F5F5F5F5F5F5F5F5F5F5F5F5F5F5F5F5F5F5F5F5F5F5F5F5F5F5F5F5F5F5F5F5F5F5F5F5F5F5F5F5F5F5F5F5F5F5F5F5F5F5F5F5F5F5F5F5F5F5F5F5F5F5F5F5F5F5F5F5F5F5F5F5
310
F5F5F5F5F5F5F5F5F5F5F5F5F5F5F5F5F5F5F5F5F5F5F5F5F5F5F5F5F5F5F5F5E2F5F5F5F5E2E2F5F5F5F5E2F5F5F5F5F5F5F5F5F5F5F5F5F5F5F5F5F5F5F5F5F5F5F5F5F5F5F5F5F5F5F5F5F5F5F5F5F5F5F5F5F5F5F5F5F5F5F5F5F5F5F5F5F5F5F5F5F5F5F5F5F5F5F5F5F5F5F5F5F5F5F5F5F5F5F5F5F5F5F5F5F5F5F5
310
F5F5F5F5F5F5F5F5F5F5F5F5F5F5F5F5F5F5F5F5F5F5F5F5F5F5F5F5F5F5F5F5F5F5F5F5F5F5F5F5F5F5F5F5F5F5F5F5F5F5F5F5F5F5F5F5F5F5F5F5F5F5F5F5F5F5F5F5F5F5F5F5F5F5F5F5F5F5F5F5F5F5F5F5F5E2F5F5F5F5E2E2F5F5F5F5E2F5F5F5F5F5F5F5F5F5F5F5F5F5F5F5F5F5F5F5F5F5F5F5F5F5F5F5F5F5F5
310
F5F5F5F5F5F5F5F5F5F5F5F5F5F5F5F5F5F5F5F5F5F5F5F5F5F5F5F5F5F5F5F5F5F5F5F5F5F5F5F5F5F5F5F5F5F5F5F5F5F5F5F5F5F5F5F5F5F5F5F5F5F5F5F5F5F5F5F5F5F5F5F5F5F5F5F5F5F5F5F5F5F5F5F5F5F5F5F5F5F5F5F5F5F5F5F5F5F5F5F5F5F5F5F5F5F5F5F5F5F5F5F5F5F5F5F5F5F5F5F5F5F5F5F5F5F5F5
310
F5F5F5F5F5F5F5F5F5F5F5E2F5F5F5F5E2E2F5F5F5F5E2F5F5F5F5F5F5F5F5F5F5F5F5F5F5F5F5F5F5F5F5F5F5F5F5F5F5F5F5F5F5F5F5F5F5F5F5F5F5F5F5F5F5F5F5F5F5F5F5F5F5F5F5F5F5F5F5F5F5F5F5F5F5F5F5F5F5F5F5F5F5F5F5F5F5F5F5F5F5F5F5F5F5F5F5F5F5F5F5F5F5F5F5F5F5F5F5F5F5F5F5F5F5F5F5
310
F5F5F5F5F5F5F5F5F5F5F5F5F5F5F5F5F5F5F5F5F5F5F5F5F5F5F5F5F5F5F5F5F5F5F5F5F5F5F5F5F5F5F5F5F5F5F5F5F5F5F5F5F5F5F5F5F5F5F5F5F5F5F5F5E2F5F5F5F5E2E2F5F5F5F5E2F5F5F5F5F5F5F5F5F5F5F5F5F5F5F5F5F5F5F5F5F5F5F5F5F5F5F5F5F5F5F5F5F5F5F5F5F5F5F5F5F5F5F5F5F5F5F5F5F5F5F5
310
F5F5F5F5F5F5F5F5F5F5F5F5F5F5F5F5F5F5F5F5F5F5F5F5F5F5F5F5F5F5F5F5F5F5F5F5F5F5F5F5F5F5F5F5F5F5F5F5F5F5F5F5F5F5F5F5F5F5F5F5F5F5F5F5F5F5F5F5F5F5F5F5F5F5F5F5F5F5F5F5F5F5F5F5F5F5F5F5F5F5F5F5F5F5F5F5F5F5F5F5F5F5F5F5F5F5F5F5F5F5F5F5F5F5F5F5F5E2F5F5F5F5E2E2F5F5F5
310
F5E2F5F5F5F5F5F5F5F5F5F5F5F5F5F5F5F5F5F5F5F5F5F5F5F5F5F5F5F5F5F5F5F5F5F5F5F5F5F5F5F5F5F5F5F5F5F5F5F5F5F5F5F5F5F5F5F5F5F5F5F5F5F5F5F5F5F5F5F5F5F5F5F5F5F5F5F5F5F5F5F5F5F5F5F5F5F5F5F5F5F5F5F5F5F5F5F5F5F5F5F5F5F5F5F5F5F5F5F5F5F5F5F5F5F5F5F5F5F5F5F5F5F5F5F5F5
310
F5F5F5F5F5F5F5F5F5F5F5F5F5F5F5F5F5F5F5F5F5F5F5F5F5F5F5F5F5F5F5F5F5F5F5F5F5F5F5F5F5F5F5E2F5F5F5F5E2E2F5F5F5F5E2F5F5F5F5F5F5F5F5F5F5F5F5F5F5F5F5F5F5F5F5F5F5F5F5F5F5F5F5F5F5F5F5F5F5F5F5F5F5F5F5F5F5F5F5F5F5F5F5F5F5F5F5F5F5F5F5F5F5F5F5F5F5F5F5F5F5F5F5F5F5F5F5
310
F5F5F5F5F5F5F5F5F5F5F5F5F5F5F5F5F5F5F5F5F5F5F5F5F5F5F5F5F5F5F5F5F5F5F5F5F5F5F5F5F5F5F5F5F5F5F5F5F5F5F5F5F5F5F5F5F5F5F5F5F5F5F5F5F5F5F5F5F5F5F5F5F5F5F5F5F5F5F5F5F5F5F5F5F5F5F5F5F5F5F5F5F5F5F5F5E2F5F5F5F5E2E2F5F5F5F5F5F5F5F5F5F5F5F5F5F5F5F5F5F5F5F5F5F5F5F5
310
F5F5F5F5F5F5F5F5F5F5F5F5F5F5F5F5F5F5F5F5F5F5F5F5F5F5F5F5F5F5F5F5F5F5F5F5F5F5F5F5F5F5F5F5F5F5F5F5F5F5F5F5F5F5F5F5F5F5F5F5F5F5F5F5F5F5F5F5F5F5F5F5F5F5F5F5F5F5F5F5F5F5F5F5F5F5F5F5F5F5F5F5F5F5F5F5F5F5F5F5F5F5F5F5F5F5F5F5F5F5F5F5F5F5F5F5F5F5F5F5F5F5F5F5F5F5F5
310
F5F5F5F5F5F5F5F5F5F5F5F5F5F5F5F5F5F5F5F5F5F5F5F5F5F5F5E2E2F5F5F5F5F5F5F5F5F5F5F5F5F5F5F5F5F5F5F5F5F5F5F5F5F5F5F5F5F5F5F5F5F5F5F5F5F5F5F5F5F5F5F5F5F5F5F5F5F5F5F5F5F5F5F5F5F5F5F5F5F5F5F5F5F5F5F5F5F5F5F5F5F5F5F5F5F5F5F5F5F5F5F5F5F5F5F5F5F5F5F5F5F5F5F5F5F5F5
310
F5F5F5F5F5F5F5F5F5F5F5F5F5F5F5F5F5F5F5F5F5F5F5F5F5F5F5F5F5F5F5F5F5F5F5F5F5F5F5F5F5F5F5F5F5F5F5F5F5F5F5F5F5F5F5F5F5F5F5F5F5F5F5F5F5F5F5F5F5F5F5F5F5F5F5F5F5F5F5F5E2E2F5F5F5F5F5F5F5F5F5F5F5F5F5F5F5F5F5F5F5F5F5F5F5F5F5F5F5F5F5F5F5F5F5F5F5F5F5F5F5F5F5F5F5F5F5
310
F5F5F5F5F5F5F5F5F5F5F5F5F5F5F5F5F5F5F5F5F5F5F5F5F5F5F5F5F5F5F5F5F5F5F5F5F5F5F5F5F5F5F5F5F5F5F5F5F5F5F5F5F5F5F5F5F5F5F5F5F5F5F5F5F5F5F5F5F5F5F5F5F5F5F5F5F5F5F5F5F5F5F5F5F5F5F5F5F5F5F5F5F5F5F5F5F5F5F5F5F5F5F5F5F5F5F5F5F5F5F5F5F5F5F5F5F5F5F5F5F5F5F5F5F5F5F5
310
F5F5F5F5F5F5E2E2F5F5F5F5F5F5F5F5F5F5F5F5F5F5F5F5F5F5F5F5F5F5F5F5F5F5F5F5F5F5F5F5F5F5F5F5F5F5F5F5F5F5F5F5F5F5F5F5F5F5F5F5F5F5F5F5F5F5F5F5F5F5F5F5F5F5F5F5F5F5F5F5F5F5F5F5F5F5F5F5F5F5F5F5F5F5F5F5F5F5F5F5F5F5F5F5F5F5F5F5F5F5F5F5F5F5F5F5F5F5F5F5F5F5F5F5F5F5F5
310
F5F5F5F5F5F5F5F5F5F5F5F5F5F5F5F5F5F5F5F5F5F5F5F5F5F5F5F5F5F5F5F5F5F5F5F5F5F5F5F5F5F5F5F5F5F5F5F5F5F5F5F5F5F5F5F5F5F5F5E2E2F5F5F5F5F5F5F5F5F5F5F5F5F5F5F5F5F5F5F5F5F5E2E2E2E2E2E2E2E2E2E2E2E2E2E2E2E2E2E2E2E2E2E2E2E2E2E2E2E2E2E2E2E2E2E2E2E2E2E2E2E2E2E2E2E2E2
310
E2E2E2E2E2E2E2E2E2E2E2E2E2E2E2E2E2E2E2E2E2E2E2E2E2E2E2E2E2E2E2E2E2E2E2E2E2E2E2E2E2E2E2E2E2E2E2E2E2E2E2E2E2E2E2E2E2E2E2E2E2E2E2E2E2E2E2E2E2E2E2E2E2E2E2E2E2E2E2E2E2E2E2E2E2E2E2E2E2E2E2F5F5F5F5F5F5F5F5F5F5F5F5F5F5F5F5F5F5F5F5F5E2E2F5F5F5F5F5F5F5F5F5F5F5F5F5
310
F5F5F5F5F5F5F5F5E22D2D2D2D2D2D2D2D2D2D2D2DF5F5F5F5F5F5F5F5F5F5F5F5F5F5F5E2F5F5F5F5F5F5F5F5F5F5F5F5F5F5F5F5F5F5F5F5F5F5F5F5F5F5F5F5F5F5F5F5F5F5F5F5F5F5F5F5F5F5F5F5F5F5F5F5F5F5F5F5F5F5F5F5F5F5F5F5F5F5F5F5F5F5F5F5F5F5F5F5F5F5F5F5F5F5F5F5F5F5F5F5F5F5F5F5F5F5
310
F5F5F5F5F5F5F5F5F5F5F5F5F5F5F5F5E2F5F5F5F5F5F5F5F5F5F5F5F5F5F5F5F5F5F5F5F5F5E2E2F5F5F5F5F5F5F5F5F5F5F5F5F5F5F5F5F5F5F5F5F5E22D2D2DF5F5E2F5F5F5F5F52DF5F5F5F5F5F5F5F5F5F5F5F5F5F5F5E2F5F5F5F5F5F5F5F5F5F5F5F5F5F5F5F5F5F5F5F5F5F5F5F5F5F5F5F5F5F5F5F5F5F5F5F5F5
310
F5F5F5F5F5F5F5F5F5F5F5F5F5F5F5F5F5F5F5F5F5F5F5F5F5F5F5F5F5F5F5F5F5F5F5F5F5F5F5F5F5F5F5F5F5F5F5F5F5F5F5F5F5F5F5F5F5F5F5F5F5F5F5F5F5F5F5F5F5E2F5F5F5F5F5F5F5F5F5F5F5F5F5F5F5F5F5F5F5F5F5E2E2F5F5F5F5F5F5F5F5F5F5F5F5F5F5F5F5F5F5F5F5F5E2DCF52DF5F5E2F5F5F5F5F52D
310
F5F5F5F5F5F5F5F5F5F5F5F5F5F5F5E2F5F5F5F5F5F5F5F5F5F5F5F5F5F5F5F5F5F5F5F5F5F5F5F5F5F5F5F5F5F5F5F5F5F5F5F5F5F5F5F5F5F5F5F5F5F5F5F5F5F5F5F5F5F5F5F5F5F5F5F5F5F5F5F5F5F5F5F5F5F5F5F5F5F5F5F5F5F5F5F5F5F5F5F5F5F5F5F5F5F5F5F5F5F5F5F5F5F5F5F5F5F5F5F5F5F5E2F5F5F5F5
310
F5F5F5F5F5F5F5F5F5F5F5F5F5F5F5F5F5E2E2F5F5F5F5F5F5F5F5F5F5F5F5F5F5F5F5F5F5F5F5F5E2BEF52D2D2D2D2D2D2D2DE2E2E2E2E2E2E2E2E2E2E2E2E2E2E2E2E2E2F5F5F5F5F5F5F5F5F5F5F5F5F5F5F5F5F5F5F5F5F5F5F5F5F5F5F5F5F5F5F5F5F5F5F5F5F5F5F5F5F5F5F5F5F5F5F5F5F5F5F5F5F5F5F5F5F5F5
310
F5F5F5F5F5F5F5F5F5F5F5F5F5F5F5F5F5F5F5F5F5F5F5F5F5F5F5F5F5F5F5F5F5F5F5F5F5F5F5F5F5F5F5F5F5F5F5F5E2F5F5F5F5F5F5F5F5F5F5F5F5F5F5F5F5F5F5F5F5F5E2E2F5F5F5F5E2F5F5F5F5F5F5F5F5F5F5F5F5F5F5F5F5E2DCF5F5F5F5E2F5F5F5F5F5E2F5F5F5F5F5F5F5F5F5F5F5F5F5F5F5F5F5F5F5F5F5
310
F5F5F5F5F5F5F5F5F5F5F5F5F5F5F5F5F5F5F5F5F5F5F5F5F5F5F5F5F5F5F5F5F5F5F5F5F5F5F5F5F5F5F5F5F5F5F5F5F5F5F5F5F5F5F5F5F5F5F5F5F5F5F5F5F5F5F5F5F5F5F5F5F5F5F5F5F5F5F5F5F5F5F5F5F5F5F5F5F5F5F5F5F5F5F5F5F5F5F5F5F5E2F5F5F5F5F5F5F5F5F5F5F5F5F5F5F5F5E2F5F5F5F5E2E2F5F5
310
F5F5E2F5F5F5F5F5F5F5F5F5F5F5F5F5F5F5F5E2F5F5F5F5F5E2F5F5F5F5F5E2F5F5F5F5F5F5F5F5F5F5F5F5F5F5F5F5F5F5F5F5F5F5F5F5F5F5F5F5F5F5F5F5F5F5F5F5F5F5F5F5F5F5F5F5F5F5F5F5F5F5F5F5F5F5F5F5F5F5F5F5F5F5F5F5F5F5F5F5F5F5F5F5F5F5F5F5F5F5F5F5F5F5F5F5F5F5F5F5F5F5F5F5F5F5F5
310
F5F5F5F5F5F5F5F5F5F5F5F5F5F5F5F5F5F5F5F5F5F5F5F5F5F5F5E2F5F5F5F5F5F5F5F5F5F5F5F5F5F5F5F5E2F5F5F5F5E2E2F5F5F5F5E2F5F5F5F5F5F5F5F5F5F5F5F5F5F5F5F5E2F5F5F5F5F5E2F5F5F5F5F5E2F5F5F5F5F5F5F5F5F5F5F5F5F5F5F5F5F5F5F5F5F5F5F5F5F5F5F5F5F5F5F5F5F5F5F5F5F5F5F5F5F5F5
310
F5F5F5F5F5F5F5F5F5F5F5F5F5F5F5F5F5F5F5F5F5F5F5F5F5F5F5F5F5F5F5F5F5F5F5F5F5F5F5F5F5F5F5F5F5F5F5F5F5F5F5F5F5F5F5F5F5F5F5F5F5F5F5F5F5F5F5F5F5F5F5F5F5F5F5F5F5F5F5F5E2F5F5F5F5F5F5F5F5F5F5F5F5F5F5F5F5E2F5F5F5F5E2E2F5F5F5F5E2F5F5F5F5F5F5F5F5F5F5F5F5F5F5F5F5E2F5
310
F5F5F5F5E2F5F5F5F5F5E2F5F5F5F5F5F5F5F5F5F5F5F5F5F5F5F5F5F5F5F5F5F5F5F5F5F5F5F5F5F5F5F5F5F5F5F5F5F5F5F5F5F5F5F5F5F5F5F5F5F5F5F5F5F5F5F5F5F5F5F5F5F5F5F5F5F5F5F5F5F5F5F5F5F5F5F5F5F5F5F5F5F5F5F5F5F5F5F5F5F5F5F5F5F5F5F5F5F5F5F5F5F5F5F5F5F5F5F5F5F5F5F5F5F5F5F5
310
F5F5F5F5F5F5E2F5F5F5F5F5F5F5F5F5F5F5F5F5F5F5F5E2F5F5F5F5E2E2F5F5F5F5E2F5F5F5F5F5F5F5F5F5F5F5F5F5F5F5F5E2E2E2E2E2E2E2F5F5F5F5F5E2F5F5F5F5F5F5F5F5F5F5F5F5F5F5F5F5F5F5F5F5F5F5F5F5F5F5F5F5F5F5F5F5F5F5F5F5F5F5F5F5F5F5F5F5F5F5F5F5F5F5F5F5F5F5F5F5F5F5F5F5F5F5F5
310
F5F5F5F5F5F5F5F5F5F5F5F5F5F5F5F5F5F5F5F5F5F5F5F5F5F5F5F5F5F5F5F5F5F5F5F5F5F5F5F5F5F5F5F5F5F5F5F5F5F5F5F5F5F5F5F5F5F5F5E2F5F5F5F5F5F5F5F5F5F5F5F5F5F5F5F5E2F5F5F5F5E2E2F5F5F5F5E2F5F5F5F5F5F5F5F5F5F5F5F5F5F5F5F5E2E2E2E2F5E2E2F5F5F5F5F5E2F5F5F5F5F5F5F5F5F5F5
310
F5F5F5F5F5F5F5F5F5F5F5F5F5F5F5F5F5F5F5F5F5F5F5F5F5F5F5F5F5F5F5F5F5F5F5F5F5F5F5F5F5F5F5F5F5F5F5F5F5F5F5F5F5F5F5F5F5F5F5F5F5F5F5F5F5F5F5F5F5F5F5F5F5F5F5F5F5F5F5F5F5F5F5F5F5F5F5F5F5F5F5F5F5F5F5F5F5F5F5F5F5F5F5F5F5F5F5F5F5F5F5F5E2F5F5F5F5F5F5F5F5F5F5F5F5F5F5
310
F5F5E2F5F5F5F5E2E2F5F5F5F5E2F5F5F5F5F5F5F5F5F5F5F5F5F5F5F5F5E2E2E2E2F5F5F5F5F5F5F5F5E2F5F5F5F5F5F5F5F5F5F5F5F5F5F5F5F5F5F5F5F5F5F5F5F5F5F5F5F5F5F5F5F5F5F5F5F5F5F5F5F5F5F5F5F5F5F5F5F5F5F5F5F5F5F5F5F5F5F5F5F5F5F5F5F5F5F5F5F5F5F5F5F5F5F5F5F5F5F5F5F5F5F5F5F5
310
F5F5F5F5F5F5F5F5F5F5F5F5F5F5F5F5F5F5F5F5F5F5F5F5F5F5F5F5F5F5F5F5F5F5F5F5F5F5E2F5F5F5F5F5F5F5F5F5F5F5F5F5F5F5F5E2F5F5F5F5E2E2F5F5F5F5E2F5F5F5F5F5F5F5F5F5F5F5F5F5F5F5F5E2F5F5F5F5F5F5F5F5F5F5F5E2F5F5F5F5F5F5F5F5F5F5F5F5F5F5F5F5F5F5F5F5F5F5F5F5F5F5F5F5F5F5F5
310
F5F5F5F5F5F5F5F5F5F5F5F5F5F5F5F5F5F5F5F5F5F5F5F5F5F5F5F5F5F5F5F5F5F5F5F5F5F5F5F5F5F5F5F5F5F5F5F5F5F5F5F5F5F5F5F5F5F5F5F5F5F5F5F5F5F5F5F5F5F5F5F5F5F5F5F5F5F5F5F5F5F5F5F5F5F5F5F5F5F5F5E2F5F5F5F5F5F5F5F5F5F5F5F5F5F5F5F5E2F5F5F5F5E2E2F5F5F5F5E2F5F5F5F5F5F5F5
310
F5F5F5F5F5F5F5F5F5E2E2E2E2E2E2E2E2E2E2E2E2E2F5F5F5F5F5F5F5F5F5F5F5F5F5F5F5F5F5F5F5F5F5F5F5F5F5F5F5F5F5F5F5F5F5F5F5F5F5F5F5F5F5F5F5F5F5F5F5F5F5F5F5F5F5F5F5F5F5F5F5F5F5F5F5F5F5F5F5F5F5F5F5F5F5F5F5F5F5F5F5F5F5F5F5F5F5F5F5F5F5F5F5F5F5F5F5F5F5F5F5F5F5F5F5F5F5
310
F5F5F5F5F5F5F5F5F5F5F5F5F5F5F5F5F5E2F5F5F5F5F5F5F5F5F5F5F5F5F5F5F5F5E2F5F5F5F5E2E2F5F5F5F5E2F5F5F5F5F5F5F5F5F5F5F5F5F5F5F5F5E2E2E2F5F5F5F5F5F5F5F5F5F5F5F5F5F5F5F5F5F5F5F5F5F5F5F5F5F5F5F5F5F5F5F5F5F5F5F5F5F5F5F5F5F5F5F5F5F5F5F5F5F5F5F5F5F5F5F5F5F5F5F5F5F5
310
F5F5F5F5F5F5F5F5F5F5F5F5F5F5F5F5F5F5F5F5F5F5F5F5F5F5F5F5F5F5F5F5F5F5F5F5F5F5F5F5F5F5F5F5F5F5F5F5F5F5F5F5F5F5F5F5F5F5F5F5F5F5F5F5F5F5F5F5F5F5E2F5F5F5F5F5F5F5F5F5F5F5F5F5F5F5F5E2F5F5F5F5E2E2F5F5F5F5E2F5F5F5F5F5F5F5F5F5F5F5F5F5F5F5F5E2E2E2F5F5F5F5F5F5F5F5F5
310
F5F5F5F5F5F5F5F5F5F5F5F5F5F5F5F5F5F5F5F5F5F5F5F5F5F5F5F5F5F5F5F5F5F5F5F5F5F5F5F5F5F5F5F5F5F5F5F5F5F5F5F5F5F5F5F5F5F5F5F5F5F5F5F5F5F5F5F5F5F5F5F5F5F5F5F5F5F5F5F5F5F5F5F5F5F5F5F5F5F5F5F5F5F5F5F5F5F5F5F5F5F5F5F5F5F5F5F5F5F5F5F5F5F5F5F5F5F5F5F5F5F5F5E2F5F5F5
310
F5F5F5F5F5F5F5F5F5F5F5F5F5E2F5F5F5F5E2E2F5F5F5F5E2F5F5F5F5F5F5F5F5F5F5F5F5F5F5F5F5E2F5F5F5F5F5F5F5F5F5F5F5F5F5F5F5F5F5F5F5F5F5F5F5F5F5F5F5F5F5F5F5F5F5F5F5F5F5F5F5F5F5F5F5F5F5F5F5F5F5F5F5F5F5F5F5F5F5F5F5F5F5F5F5F5F5F5F5F5F5F5F5F5F5F5F5F5F5F5F5F5F5F5F5F5F5
310
F5F5F5F5F5F5F5F5F5F5F5F5F5F5F5F5F5F5F5F5F5F5F5F5F5F5F5F5F5F5F5F5F5F5F5F5F5F5F5F5F5F5F5F5F5F5F5F5F5E2F5F5F5F5F5F5F5F5F5F5F5F5F5F5F5F5E2F5F5F5F5E2E2F5F5F5F5E2F5F5F5F5F5F5F5F5F5F5F5F5F5F5F5F5E2F5F5F5F5F5F5F5F5F5F5F5F5F5F5F5F5F5F5F5F5F5F5F5F5F5F5F5F5F5F5F5F5
310
F5F5F5F5F5F5F5F5F5F5F5F5F5F5F5F5F5F5F5F5F5F5F5F5F5F5F5F5F5F5F5F5F5F5F5F5F5F5F5F5F5F5F5F5F5F5F5F5F5F5F5F5F5F5F5F5F5F5F5F5F5F5F5F5F5F5F5F5F5F5F5F5F5F5F5F5F5F5F5F5F5F5F5F5F5F5F5F5F5F5F5F5F5F5F5F5F5F5F5F5F5F5E2F5F5F5F5F5F5F5F5F5F5F5F5F5F5F5F5E2F5F5F5F5E2E2F5
310
F5F5F5E2F5F5F5F5F5F5F5F5F5F5F5F5F5F5F5F5E20F0F0F0F0F0F0F0F0F0F0FF5F5F5F5F5F5F5F5F5F5F5F5F5F5F5F5F5F5F5F5F5F5F5F5F5F5F5F5F5F5F5F5F5F5F5F5F5F5F5F5F5F5F5F5F5F5F5F5F5F5F5F5F5F5F5F5F5F5F5F5F5F5F5F5F5F5F5F5F5F5F5F5F5F5F5F5F5F5F5F5F5F5F5F5F5F5F5F5F5F5F5F5F5F5F5
310
F5F5F5F5F5F5F5F5F5F5F5F5F5F5F5F5F5F5F5F5F5F5F5F5F5F5F5F5E2F5F5F5F5F5F5F5F5F5F5F5F5F5F5F5F5E2F5F5F5F5E2E2F5F5F5F5E2F5F5F5F5F5F5F5F5F5F5F5F5F5F5F5F5E20F0F0F0F0F0F0F0F0F0F0FF5F5F5F5F5F5F5F5F5F5F5F5F5F5F5F5F5F5F5F5F5F5F5F5F5F5F5F5F5F5F5F5F5F5F5F5F5F5F5F5F5F5
310
F5F5F5F5F5F5F5F5F5F5F5F5F5F5F5F5F5F5F5F5F5F5F5F5F5F5F5F5F5F5F5F5F5F5F5F5F5F5F5F5F5F5F5F5F5F5F5F5F5F5F5F5F5F5F5F5F5F5F5F5F5F5F5F5F5F5F5F5F5F5F5F5F5F5F5F5F5F5F5F5F5E2F5F5F5F5F5F5F5F5F5F5F5F5F5F5F5F5E2F5F5F5F5E2E2F5F5F5F5E2F5F5F5F5F5F5F5F5F5F5F5F5F5F5F5F5E2
310
0F0F0F0F0F0F0F0F0F0FF5F5F5F5F5F5F5F5F5F5F5F5F5F5F5F5F5F5F5F5F5F5F5F5F5F5F5F5F5F5F5F5F5F5F5F5F5F5F5F5F5F5F5F5F5F5F5F5F5F5F5F5F5F5F5F5F5F5F5F5F5F5F5F5F5F5F5F5F5F5F5F5F5F5F5F5F5F5F5F5F5F5F5F5F5F5F5F5F5F5F5F5F5F5F5F5F5F5F5F5F5F5F5F5F5F5F5F5F5F5F5F5F5F5F5F5F5
310
F5F5F5F5F5F5F5E2F5F5F5F5F5F5F5F5F5F5F5F5F5F5F5F5E2F5F5F5F5E2E2F5F5F5F5E2F5F5F5F5F5F5F5F5F5F5F5F5F5F5F5F5E2F5F5F5F5F5F5F5F5F5F5F5F5F5F5F5F5F5F5F5F5F5F5F5F5F5F5F5F5F5F5F5F5F5F5F5F5F5F5F5F5F5F5F5F5F5F5F5F5F5F5F5F5F5F5F5F5F5F5F5F5F5F5F5F5F5F5F5F5F5F5F5F5F5F5
310
F5F5F5F5F5F5F5F5F5F5F5F5F5F5F5F5F5F5F5F5F5F5F5F5F5F5F5F5F5F5F5F5F5F5F5F5F5F5F5F5F5F5F5F5F5F5F5F5F5F5F5F5F5F5F5F5F5F5F5F5E2F5F5F5F5F5F5F5F5F5F5F5F5F5F5F5F5E2F5F5F5F5E2E2F5F5F5F5F5F5F5F5F5F5F5F5F5F5F5F5F5F5F5F5F5E2F5F5F5F5F5F5F5F5F5F5F5F5F5F5F5F5F5F5F5F5F5
310
F5F5F5F5F5F5F5F5F5F5F5F5F5F5F5F5F5F5F5F5F5F5F5F5F5F5F5F5F5F5F5F5F5F5F5F5F5F5F5F5F5F5F5F5F5F5F5F5F5F5F5F5F5F5F5F5F5F5F5F5F5F5F5F5F5F5F5F5F5F5F5F5F5F5F5F5F5F5F5F5F5F5F5F5F5F5F5F5F5F5F5F5F5F5F5F5F5F5F5F5F5F5F5F5F5F5F5F5F5F5F5F5F5E2F5F5F5F5F5F5F5F5F5F5F5F5F5
310
F5F5F5F5F5F5F5F5E2E2F5F5F5F5F5F5F5F5F5F5F5F5F5F5F5F5F5F5F5F5F5E2F5F5F5F5F5F5F5F5F5F5F5F5F5F5F5F5F5F5F5F5F5F5F5F5F5F5F5F5F5F5F5F5F5F5F5F5F5F5F5F5F5F5F5F5F5F5F5F5F5F5F5F5F5F5F5F5F5F5F5F5F5F5F5F5F5F5F5F5F5F5F5F5F5F5F5F5F5F5F5F5F5F5F5F5F5F5F5F5F5F5F5F5F5F5F5
310
F5F5F5F5F5F5F5F5F5F5F5F5F5F5F5F5F5F5F5F5F5F5F5F5F5F5F5F5F5F5F5F5F5F5F5F5F5F5F5E2F5F5F5F5F5F5F5F5F5F5F5F5F5F5F5F5F5F5F5F5F5E2E2F5F5F5F5F5F5F5F5F5F5F5F5F5F5F5F5F5F5F5F5F5E2F5F5F5F5F5F5F5F5F5F5F5F5F5F5F5F5F5F5F5F5F5F5F5F5F5F5F5F5F5F5F5F5F5F5F5F5F5F5F5F5F5F5
310
F5F5F5F5F5F5F5F5F5F5F5F5F5F5F5F5F5F5F5F5F5F5F5F5F5F5F5F5F5F5F5F5F5F5F5F5F5F5F5F5F5F5F5F5F5F5F5F5F5F5F5F5F5F5F5F5F5F5F5F5F5F5F5F5F5F5F5F5F5F5F5F5F5F5F5F5F5F5F5F5F5F5F5F5F5F5F5F5F5F5F5F5E2F5F5F5F5F5F5F5F5F5F5F5F5F5F5F5F5F5F5F5F5F5E2E2F5F5F5F5F5F5F5F5F5F5F5
310
F5F5F5F5F5F5F5F5F5F5E2F5F5F5F5F5F5F5F5F5F5F5F5F5F5F5F5F5F5F5F5F5F5F5F5F5F5F5F5F5F5F5F5F5F5F5F5F5F5F5F5F5F5F5F5F5F5F5F5F5F5F5F5F5F5F5F5F5F5F5F5F5F5F5F5F5F5F5F5F5F5F5F5F5F5F5F5F5F5F5F5F5F5F5F5F5F5F5F5F5F5F5F5F5F5F5F5F5F5F5F5F5F5F5F5F5F5F5F5F5F5F5F5F5F5F5F5
310
F5F5F5F5F5F5F5F5F5F5F5F5F5F5F5F5F5F5E2F5F5F5F5F5F5F5F5F5F5F5F5F5F5F5F5F5F5F5F5F5E2E2F5F5F5F5F5F5F5F5F5F5F5F5F5F5F5F5F5F5F5F5F5E2F5F5F5F5F5F5F5F5F5F5F5F5F5F5F5F5F5F5F5F5F5F5F5F5F5F5F5F5F5F5F5F5F5F5F5F5F5F5F5F5F5F5F5F5F5F5F5F5F5F5F5F5F5F5F5F5F5F5F5F5F5F5F5
310
F5F5F5F5F5F5F5F5F5F5F5F5F5F5F5F5F5F5F5F5F5F5F5F5F5F5F5F5F5F5F5F5F5F5F5F5F5F5F5F5F5F5F5F5F5F5F5F5F5F5F5F5F5F5F5F5F5F5F5F5F5F5F5F5F5F5F5F5F5F5F5E2F5F5F5F5F5F5F5F5F5F5F5F5F5F5F5F5F5F5F5F5F5E2E2F5F5F5F5F5F5F5F5F5F5F5F5F5F5F5F5F5F5F5F5F5E2F5F5F5F5F5F5F5F5F5F5
310
F5F5F5F5F5F5F5F5F5F5F5F5F5F5F5F5F5F5F5F5F5F5F5F5F5F5F5F5F5F5F5F5F5F5F5F5F5F5F5F5F5F5F5F5F5F5F5F5F5F5F5F5F5F5F5F5F5F5F5F5F5F5F5F5F5F5F5F5F5F5F5F5F5F5F5F5F5F5F5F5F5F5F5F5F5F5F5F5F5F5F5F5F5F5F5F5F5F5F5F5F5F5F5F5F5F5F5F5F5F5F5F5F5F5F5F5F5F5F5F5F5F5F5F5E2F5F5
310
F5F5F5F5F5F5F5F5F5F5F5F5F5F5F5F5F5F5F5E2E2F5F5F5F5F5F5F5F5F5F5F5F5F5F5F5F5F5F5F5F5F5E2F5F5F5F5F5F5F5F5F5F5F5F5F5F5F5F5F5F5F5F5F5F5F5F5F5F5F5F5F5F5F5F5F5F5F5F5F5F5F5F5F5F5F5F5F5F5F5F5F5F5F5F5F5F5F5F5F5F5F5F5F5F5F5F5F5F5F5F5F5F5F5F5F5F5F5F5F5F5F5F5F5F5F5F5
310
F5F5F5F5F5F5F5F5F5F5F5F5F5F5F5F5F5F5F5F5F5F5F5F5F5F5F5F5F5F5F5F5F5F5F5F5F5F5F5F5F5F5F5F5F5F5F5F5F5F5E2F5F5F5F5F5F5F5F5F5F5F5F5F5F5F5F5F5F5F5F5F5E2E2F5F5F5F5F5F5F5F5F5F5F5F5F5F5F5F5F5F5F5F5F5E2F5F5F5F5F5F5F5F5F5F5F5F5F5F5F5F5F5F5F5F5F5F5F5F5F5F5F5F5F5F5F5
310
F5F5F5F5F5F5F5F5F5F5F5F5F5F5F5F5F5F5F5F5F5F5F5F5F5F5F5F5F5F5F5F5F5F5F5F5F5F5F5F5F5F5F5F5F5F5F5F5F5F5F5F5F5F5F5F5F5F5F5F5F5F5F5F5F5F5F5F5F5F5F5F5F5F5F5F5F5F5F5F5F5F5F5F5F5F5F5F5F5F5F5F5F5F5F5F5F5F5F5F5F5F5F5E2F5F5F5F5F5F5F5F5F5F5F5F5F5F5F5F5F5F5F5F5F5E2E2
310
F5F5F5F5F5F5F5F5F5F5F5F5F5F5F5F5F5F5F5F5F5E2F5F5F5F5F5F5F5F5F5F5F5F5F5F5F5F5F5F5F5F5F5F5F5F5F5F5F5F5F5F5F5F5F5F5F5F5F5F5F5F5F5F5F5F5F5F5F5F5F5F5F5F5F5F5F5F5F5F5F5F5F5F5F5F5F5F5F5F5F5F5F5F5F5F5F5F5F5F5F5F5F5F5F5F5F5F5F5F5F5F5F5F5F5F5F5F5F5F5F5F5F5F5F5F5F5
310
F5F5F5F5F5F5F5F5F5F5F5F5F5F5F5F5F5F5F5F5F5F5F5F5F5F5F5F5F5E2F5F5F5F5F5F5F5F5F5F5F5F5F5F5F5F5F5F5F5F5F5E2E2F5F5F5F5E2F5F5F5F5F5F5F5F5F5F5F5F5F5F5F5F5E2F5F5F5F5F5F5F5F5F5F5F5F5F5F5F5F5F5F5F5F5F5F5F5F5F5F5F5F5F5F5F5F5F5F5F5F5F5F5F5F5F5F5F5F5F5F5F5F5F5F5F5F5
310
F5F5F5F5F5F5F5F5F5F5F5F5F5F5F5F5F5F5F5F5F5F5F5F5F5F5F5F5F5F5F5F5F5F5F5F5F5F5F5F5F5F5F5F5F5F5F5F5F5E2F0E2E2F5F5F5F5F5F5E2F0E2E2F5DCF5F5F5F5F5F5F0F0E2F5F5F5F5F5F5F5F5E2F5F5F5F5F5F5F5F5F5F5F5F5F5F5F5F5E2F5F5F5F5E2E2F5F5F5F5E2F5F5F5F5F5F5F5F5F5F5F5F5F5F5F5F5
310
E2F5F5F5F5F5F5F5F5F5F5F5F5F5F5F5F5F5F5F5F5F5F5F5F5F5F5F5F5F5F5F5F5F5F5F5F5F5F5F5F5F5F5F5F5F5F5F5F5F5F5F5F5F5F5F5F5F5F5F5F5F5F5F5F5F5F5F5F5F5F5F5F5F5F5F5F5F5F5F5F5F5F5F5F5F5F5F5F5F5F5F5F5F5F5F5F5F5F5F5F5E2DCDCF0F5E2F5F5F5F5F5E2F5F0E2E2DCF5F5F5F5F5E2F0F0F5
310
E2F5F5F5E2E2E2F5E2F5F5F5F5F5F5F5F5F5F5F5F5F5F5F5F5E2F5F5F5F5E2E2F5F5F5F5E2F5F5F5F5F5F5F5F5F5F5F5F5F5F5F5F5E2F5F5F5F5F5F5F5F5F5F5F5F5F5F5F5F5F5F5F5F5F5F5F5F5F5F5F5F5F5F5F5F5F5F5F5F5F5F5F5F5F5F5F5F5F5F5F5F5F5F5F5F5F5F5F5F5F5F5F5F5F5F5F5F5F5F5F5F5F5F5F5F5F5
310
F5F5F5F5F5F5F5F5F5F5F5F5F5F5F5F5F5F5F5F5F5F5F5F5F5F5E2F0DCF0DCE2E2E2F5F5F5E2E2F0F0F0E2DCF5F5F5F5E2F0F0F0E2E2F0E2E2E2E2E2E2E2F5F5F5F5F5F5F5F5F5F5F5F5F5F5F5F5E2F5F5F5F5E2E2F5F5F5F5E2F5F5F5F5F5F5F5F5F5F5F5F5F5F5F5F5E2F5F5F5F5F5F5F5F5F5F5F5F5F5F5F5F5F5F5F5F5
310
F5F5F5F5F5F5F5F5F5F5F5F5F5F5F5F5F5F5F5F5F5F5F5F5F5F5F5F5F5F5F5F5F5F5F5F5F5F5F5F5F5F5F5F5F5F5F5F5F5F5F5F5F5F5F5F5F5F5F5F5F5F5F5F5F5F5F5F5F5F5F5F5F5F5F5F5F5F5F5E2F0DCF0DCF0F0E2F5F5F5E2F0DCE2E2E2DCF5F5F5F5F0F0F0F0E2E2F0E2F5E2E2E2E2E2F5F5F5F5F5F5F5F5F5F5F5F5
310
F5F5F5F5E2F5F5F5F5E2E2F5F5F5F5E2F5F5F5F5F5F5F5F5F5F5F5F5F5F5F5F5E2F5F5F5F5F5F5F5F5F5F5F5F5F5F5F5F5F5F5F5F5F5F5F5F5F5F5F5F5F5F5F5F5F5F5F5F5F5F5F5F5F5F5F5F5F5F5F5F5F5F5F5F5F5F5F5F5F5F5F5F5F5F5F5F5F5F5F5F5F5F5F5F5F5F5F5F5F5F5F5F5F5F5F5F5F5F5F5F5F5F5F5F5F5F5
310
F5F5F5F5F5F5E2DCDCDCF0E2F5F5F5F5F5F0DCDCE2E2DCF5F5F5F5F5F0F0F0DCE2F0F5E2E2E2E2F5E2F5F5F5F5F5F5F5F5F5F5F5F5F5F5F5F5E2F5F5F5F5E2E2F5F5F5F5E2F5F5F5F5F5F5F5F5F5F5F5F5F5F5F5F5E2F5F5F5F5F5F5F5F5F5F5F5F5F5F5F5F5F5F5F5F5F5F5F5F5F5F5F5F5F5F5F5F5F5F5F5F5F5F5F5F5F5
310
F5F5F5F5F5F5F5F5F5F5F5F5F5F5F5F5F5F5F5F5F5F5F5F5F5F5F5F5F5F5F5F5F5F5F5F5F5F5F5F5F5F5F5F5F5F5F5F5F5F5F5F5F5F5F5F5F5F5F5E2F0F0F0E2F5F5F5F5F5E2F0E2E2E2E2DCF5F5F5F5F5F0F0E2E2F5F5F5F5E2E2E2F5E2F5F5F5F5F5F5F5F5F5F5F5F5F5F5F5F5E2F5F5F5F5E2E2F5F5F5F5E2F5F5F5F5F5
310
F5F5F5F5F5F5F5F5F5F5F5E2F5F5F5F5F5F5F5F5F5F5F5F5F5F5F5F5F5F5F5F5F5F5F5F5F5F5F5F5F5F5F5F5F5F5F5F5F5F5F5F5F5F5F5F5F5F5F5F5F5F5F5F5F5F5F5F5F5F5F5F5F5F5F5F5F5F5F5F5F5F5F5F5F5F5F5F5F5F5F5F5F5F5F5F5F5F5F5F5F5F5F5F5F5F5F5F5F5F5F5F5F5F5E2E2F5F5F5F5F5F5F5F5E2E2F5
310
F5DCF5F5F5F5F5F5F5F0E2F5F5F5F5F5E2F5F5E2F5F5F5F5F5F5F5F5F5F5F5F5F5F5F5F5E2F5F5F5F5E2E2F5F5F5F5E2F5F5F5F5F5F5F5F5F5F5F5F5F5F5F5F5E2F5F5F5F5F5F5F5F5F5F5F5F5F5F5F5F5F5F5F5F5F5F5F5F5F5F5F5F5F5F5F5F5F5F5F5F5F5F5F5F5F5F5F5F5F5F5F5F5F5F5F5F5F5F5F5F5F5F5F5F5F5F5
310
F5F5F5F5F5F5F5F5F5F5F5F5F5F5F5F5F5F5F5F5F5F5F5F5F5F5F5F5F5F5F5F5F5F5F5F5F5F5F5F5F5F5F5F5F5F5F5F5F5F5F5F5F5F5DCF5F5F5F5F5F5F5F5F5F5F5F5F5F5F5F5F5E2F5F5F5F5F5F5F5F5F5F5F5F5F5F5F5F5E2F5F5F5F5E2E2F5F5F5F5E2F5F5F5F5F5F5F5F5F5F5F5F5F5F5F5F5E2F5F5F5F5F5F5F5F5F5
310
F5F5F5F5F5F5F5F5F5F5F5F5F5F5F5F5F5F5F5F5F5F5F5F5F5F5F5F5F5F5F5F5F5F5F5F5F5F5F5F5F5F5F5F5F5F5F5F5F5F5F5F5F5F5F5F5F5F5F5F5F5F5F5F5F5F5F5F5F5F5F5F5F5F5F5F5F5F5F5F5F5F5F5F5F5F5F5F5F5F5F5F5F5F5F5F5F5F5F5F5F5F5F5F5F5F5F5DCF5F5F5F5F5F5F5F5F5F5F5F5F5F5F5F5F5E2F5
310
F5F5F5F5F5F5F5F5F5F5F5F5F5F5F5E2F5F5F5F5E2E2F5F5F5F5E2F5F5F5F5F5F5F5F5F5F5F5F5F5F5F5F5E2F5F5F5F5F5F5F5F5F5F5F5F5F5F5F5F5F5F5F5F5F5F5F5F5F5F5F5F5F5F5F5F5F5F5F5F5F5F5F5F5F5F5F5F5F5F5F5F5F5F5F5F5F5F5F5F5F5F5F5F5F5F5F5F5F5F5F5F5F5F5F5F5F5F5F5F5F5F5F5F5F5F5F5
310
F5F5F5F5F5F5F5F5F5F5F5F5F5F5F5F5F5F5F5F5F5F5F5F5F5F5F5F5F5F5F5F5F5DCF5F5F5F5F5F5F5F5F5F5F5F5F5F5F5F5F5E2F5F5F5F5F5F5F5F5F5F5F5F5F5F5F5F5E2F5F5F5F5E2E2F5F5F5F5E2F5F5F5F5F5F5F5F5F5F5F5F5F5F5F5F5E2F5F5F5F5F5F5F5F5F5F5F5F5F5F5F5F5F5F5F5F5F5F5F5F5F5F5F5F5F5F5
310
F5F5F5F5F5F5F5F5F5F5F5F5F5F5F5F5F5F5F5F5F5F5F5F5F5F5F5F5F5F5F5F5F5F5F5F5F5F5F5F5F5F5F5F5F5F5F5F5F5F5F5F5F5F5F5F5F5F5F5F5F5F5F5F5F5F5F5F5F5F5F5F5F5F5F5F5F5F5F5F5F5F5F5F5F5F5DCF5F5F5F5F5F5F5F5F5F5F5F5F5F5F5F5F5E2F5F5F5F5F5F5F5F5F5F5F5F5F5F5F5F5E2F5F5F5F5E2
310
E2F5F5F5F5E2F5F5F5F5F5F5F5F5F5F5F5F5F5F5F5F5E2F5F5F5F5F5F5F5F5F5F5F5F5F5F5F5F5F5F5F5F5F5F5F5F5F5F5F5F5F5F5F5F5F5F5F5F5F5F5F5F5F5F5F5F5F5F5F5F5F5F5F5F5F5F5F5F5F5F5F5F5F5F5F5F5F5F5F5F5F5F5F5F5F5F5F5F5F5F5F5F5F5F5F5F5F5F5F5F5F5F5F5F5F5F5F5F5F5F5F5F5F5F5F5F5
310
F5F5F5F5F5F5F5F5F5F5F5F5DCF5F5F5F5F5F5F5F5F5F5F5F5F5F5F5F5F5E2F5F5F5F5F5F5F5F5F5F5F5F5F5F5F5F5E2F5F5F5F5E2E2F5F5F5F5E2F5F5F5F5F5F5F5F5F5F5F5F5F5F5F5F5E2F5F5F5F5F5F5F5F5F5F5F5F5F5F5F5F5F5F5F5F5F5F5F5F5F5F5F5F5F5F5F5F5F5F5F5F5F5F5F5F5F5F5F5F5F5F5F5F5F5F5F5
310
F5F5F5F5F5F5F5F5F5F5F5F5F5F5F5F5F5F5F5F5F5F5F5F5F5F5F5F5F5F5F5F5F5F5F5F5F5F5F5F5F5F5F5F5F5F5F5F5F5F5F5F5F5F5F5F5F5F5F5F5F5F5F5F5F5DCF5F5F5F5F5F5F5F5F5F5F5F5F5F5F5F5F5E2F5F5F5F5F5F5F5F5F5F5F5F5F5F5F5F5E2F5F5F5F5E2E2F5F5F5F5E2F5F5F5F5F5F5F5F5F5F5F5F5F5F5F5
310
F5E2F5F5F5F5F5F5F5F5F5F5F5F5F5F5F5F5F5F5F5F5F5F5F5F5F5F5F5F5F5F5F5F5F5F5F5F5F5F5F5F5F5F5F5F5F5F5F5F5F5F5F5F5F5F5F5F5F5F5F5F5F5F5F5F5F5F5F5F5F5F5F5F5F5F5F5F5F5F5F5F5F5F5F5F5F5F5F5F5F5F5F5F5F5F5F5F5F5F5F5F5F5F5F5F5F5F5F5F5F5F5F5F5F5F5F5F5DCF5F5F5F5F5F5F5F5
310
F5F5F5F5F5F5F5F5F5E2F5F5F5F5F5F5F5F5F5F5F5F5F5F5F5F5E2F5F5F5F5E2E2F5F5F5F5E2F5F5F5F5F5F5F5F5F5F5F5F5F5F5F5F5E2F5F5F5F5F5F5F5F5F5F5F5F5F5F5F5F5F5F5F5F5F5F5F5F5F5F5F5F5F5F5F5F5F5F5F5F5F5F5F5F5F5F5F5F5F5F5F5F5F5F5F5F5F5F5F5F5F5F5F5F5F5F5F5F5F5F5F5F5F5F5F5F5
310
F5F5F5F5F5F5F5F5F5F5F5F5F5F5F5F5F5F5F5F5F5F5F5F5F5F5F5F5F5F5F5F5F5F5F5F5F5F5F5F5F5F5E2E2DCE2F5F5F5F5F5F5F5F5F5F5F5F5F5F5F5F5E2F5F5F5F5F5F5F5F5F5F5F5F5F5F5F5F5E2F5F5F5F5E2E2F5F5F5F5E2F5F5F5F5F5F5F5F5F5F5F5F5F5F5F5F5E2F5F5F5F5F5F5F5F5F5F5F5F5F5F5F5F5F5F5F5
310
F5F5F5F5F5F5F5F5F5F5F5F5F5F5F5F5F5F5F5F5F5F5F5F5F5F5F5F5F5F5F5F5F5F5F5F5F5F5F5F5F5F5F5F5F5F5F5F5F5F5F5F5F5F5F5F5F5F5F5F5F5F5F5F5F5F5F5F5F5F5F5F5F5F5F5F5F5F5F5F5F5F5F5F5F5F5F5F5F5F5F5F5F5F5F5F5F5DCF5F5F5F5F5F5F5F5F5F5F5F5F5F5F5F5F5E2F5F5F5F5F5F5F5F5F5F5F5
310
F5F5F5F5F5E2F5F5F5F5E2E2F5F5F5F5E2F5F5F5F5F5F5F5F5F5F5F5F5F5F5F5F5E2F5F5F5F5F5F5F5F5F5F5F5F5F5F5F5F5F5F5F5F5F5F5F5F5F5F5F5F5F5F5F5F5F5F5F5F5F5F5F5F5F5F5F5F5F5F5F5F5F5F5F5F5F5F5F5F5F5F5F5F5F5F5F5F5F5F5F5F5F5F5F5F5F5F5F5F5F5F5F5F5F5F5F5F5F5F5F5F5F5F5F5F5F5
310
F5F5F5F5F5F5F5F5F5F5F5F5F5F5F5F5F5F5F5F5F5F5F5DCF5F5F5F5F5F5F5F5F5F5F5F5F5F5F5F5F5E2F5F5F5F5F5F5F5F5F5F5F5F5F5F5F5F5E2F5F5F5F5E2E2F5F5F5F5F5F5F5F5F5F5F5F5F5F5F5F5F5F5F5F5F5E2F5F5F5F5F5F5F5F5F5F5F5F5F5F5F5F5F5F5F5F5F5F5F5F5F5F5F5F5F5F5F5F5F5F5F5F5F5F5F5F5
310
F5F5F5F5F5F5F5F5F5F5F5F5F5F5F5F5F5F5F5F5F5F5F5F5F5F5F5F5F5F5F5F5F5F5F5F5F5F5F5F5F5F5F5F5F5F5F5F5F5F5F5F5F5F5F5F5F5F5F5F5F5F5F5F5F5F5F5F5F5F5F5F5F5F5F5F5DCF5F5F5F5F5F5F5F5F5F5F5F5F5F5F5F5F5E2F5F5F5F5F5F5F5F5F5F5F5F5F5F5F5F5F5F5F5F5F5E2E2F5F5F5F5F5F5F5F5F5
310
F5F5F5F5F5F5F5F5F5F5F5F5E2F5F5F5F5F5F5F5F5F5F5F5F5F5F5F5F5F5F5F5F5F5F5F5F5F5F5F5F5F5F5F5F5F5F5F5F5F5F5F5F5F5F5F5F5F5F5F5F5F5F5F5F5F5F5F5F5F5F5F5F5F5F5F5F5F5F5F5F5F5F5F5F5F5F5F5F5F5F5F5F5F5F5F5F5F5F5F5F5F5F5F5F5F5F5F5F5F5F5F5F5F5F5F5F5F5F5F5F5F5F5F5F5F5F5
310
F5F5F5F5F5F5F5F5F5F5F5F5F5F5F5F5F5F5F5F5E2F5F5F5F5F5F5F5F5F5F5F5F5F5F5F5F5F5F5F5F5F5E2E2F5F5F5F5F5F5F5F5F5F5F5F5F5F5F5F5F5F5F5F5F5E2F5F5F5F5F5F5F5F5F5F5F5F5F5F5F5F5F5F5F5F5F5F5F5F5F5F5F5F5F5F5F5F5F5F5F5F5F5F5F5F5F5F5F5F5F5F5F5F5F5F5F5F5F5F5F5F5F5F5F5F5F5
310
F5F5F5F5F5F5F5F5F5F5F5F5F5F5F5F5F5F5F5F5F5F5F5F5F5F5F5F5F5F5F5F5F5F5F5F5F5F5F5F5F5F5F5F5F5F5F5F5F5F5F5F5F5F5F5F5F5F5F5F5F5F5F5F5F5F5F5F5F5F5F5F5F5E2F5F5F5F5F5F5F5F5F5F5F5F5F5F5F5F5F5F5F5F5F5E2E2F5F5F5F5F5F5F5F5F5F5F5F5F5F5F5F5F5F5F5F5F5E2F5F5F5F5F5F5F5F5
310
F5F5F5F5F5F5F5F5F5F5F5F5F5F5F5F5F5F5F5F5F5F5F5F5F5F5F5F5F5F5F5F5F5F5F5F5F5F5F5F5F5F5F5F5F5F5F5F5F5F5F5F5F5F5F5F5F5F5F5F5F5F5F5F5F5F5F5F5F5F5F5F5F5F5F5F5F5F5F5F5F5F5F5F5F5F5F5F5F5F5F5F5F5F5F5F5F5F5F5F5F5F5F5F5F5F5F5F5F5F5F5F5F5F5F5F5F5F5F5F5F5F5F5F5F5F5E2
310
F5F5F5F5F5F5F5F5F5F5F5F5F5F5F5F5F5F5F5F5F5E2E2F5F5F5F5F5F5F5F5F5F5F5F5F5F5F5F5F5F5F5F5F5E2F5F5F5F5F5F5F5F5F5F5F5F5F5F5F5F5F5F5F5F5F5F5F5F5F5F5F5F5F5F5F5F5F5F5F5F5F5F5F5F5F5F5F5F5F5F5F5F5F5F5F5F5F5F5F5F5F5F5F5F5F5F5F5F5F5F5F5F5F5F5F5F5F5F5F5F5F5F5F5F5F5F5
310
F5F5F5F5F5F5F5F5F5F5F5F5F5F5F5F5F5F5F5F5F5F5F5F5F5F5F5F5F5F5F5F5F5F5F5F5F5F5F5F5F5F5F5F5F5F5F5F5F5F5F5F5E2F5F5F5F5F5F5F5F5F5F5F5F5F5F5F5F5F5F5F5F5F5E2E2F5F5F5F5F5F5F5F5F5F5F5F5F5F5F5F5F5F5F5F5F5E2F5F5F5F5F5F5F5F5F5F5F5F5F5F5F5F5F5F5F5F5F5F5F5F5F5F5F5F5F5
310
F5F5F5F5F5F5F5F5F5F5F5F5F5F5F5F5F5F5F5F5F5F5F5F5F5F5F5F5F5F5F5F5F5F5F5F5F5F5F5F5F5F5F5F5F5F5F5F5F5F5F5F5F5F5F5F5F5F5F5F5F5F5F5F5F5F5F5F5F5F5F5F5F5F5F5F5F5F5F5F5F5F5F5F5F5F5F5F5F5F5F5F5F5F5F5F5F5F5F5F5F5F5F5F5F5E2F5F5F5F5F5F5F5F5F5F5F5F5F5F5F5F5F5F5F5F5F5
310
E2E2F5F5F5F5F5F5F5F5F5F5F5F5F5F5F5F5F5F5F5F5F5E2F5F5F5F5F5F5F5F5F5F5F5F5F5F5F5F5F5F5F5F5F5F5F5F5F5F5F5F5F5F5F5F5F5F5F5F5F5F5F5F5F5F5F5F5F5F5F5F5F5F5F5F5F5F5F5F5F5F5F5F5F5F5F5F5F5F5F5F5F5F5F5F5F5F5F5F5F5F5F5F5F5F5F5F5F5F5F5F5F5F5F5F5F5F5F5F5F5F5F5F5F5F5F5
310
F5F5F5F5F5F5F5F5F5F5F5F5F5F5F5F5F5F5F5F5F5F5F5F5F5F5F5F5F5F5F5E2F5F5F5F5F5F5F5F5F5F5F5F5F5F5F5F5F5F5F5F5F5E2E2F5F5F5F5F5F5F5F5F5F5F5F5F5F5F5F5F5F5F5F5F5E2F5F5F5F5F5F5F5F5F5F5F5F5F5F5F5F5F5F5F5F5F5F5F5F5F5F5F5F5F5F5F5F5F5F5F5F5F5F5F5F5F5F5F5F5F5F5F5F5F5F5
310
F5F5F5F5F5F5F5F5F5F5F5F5F5F5F5F5F5F5F5F5F5F5F5F5F5F5F5F5F5F5F5F5F5F5F5F5F5F5F5F5F5F5F5F5F5F5F5F5F5F5F5F5F5F5F5F5F5F5F5F5F5F5F5F5F5F5F5F5F5F5F5F5F5F5F5F5F5F5F5F5F5F5F5F5E2F5F5F5F5F5F5F5F5F5F5F5F5F5F5F5F5F5F5F5F5F5E2E2F5F5F5F5F5F5F5F5F5F5F5F5F5F5F5F5F5F5F5
310
F5F5E2F5F5F5F5F5F5F5F5F5F5F5F5F5F5F5F5F5F5F5F5F5F5F5F5F5F5F5F5F5F5F5F5F5F5F5F5F5F5F5F5F5F5F5F5F5F5F5F5F5F5F5F5F5F5F5F5F5F5F5F5F5F5F5F5F5F5F5F5F5F5F5F5F5F5F5F5F5F5F5F5F5F5F5F5F5F5F5F5F5F5F5F5F5F5F5F5F5F5F5F5F5F5F5F5F5F5F5F5F5F5F5F5F5F5F5F5F5F5F5F5F5F5F5F5
310
F5F5F5F5F5F5F5F5F5F5E2F5F5F5F5F5F5F5F5F5F5F5F5F5F5F5F5F5F5F5F5F5E2E2F5F5F5F5E2F5F5F5F5F5F5F5F5F5F5F5F5F5F5F5F5E2F5F5F5F5F5F5F5F5F5F5F5F5F5F5F5F5F5F5F5F5F5F5F5F5F5F5F5F5F5F5F5F5F5F5F5F5F5F5F5F5F5F5F5F5F5F5F5F5F5F5F5F5F5F5F5F5F5F5F5F5F5F5F5F5F5F5F5F5F5F5F5
310
F5F5F5F5F5F5F5F5F5F5F5F5F5F5F5F5F5F5F5F5F5F5F5F5F5F5F5F5F5F5F5F5F5F5F5F5F5F5F5F5F5F5F5F5F5F5F5F5F5F5F5F5F5F5F5F5F5F5F5F5F5F5F5E2F5F5F5F5F5F5F5F5F5F5F5F5F5F5F5F5E2F5F5F5F5E2E2F5F5F5F5E2F5F5F5F5F5F5F5F5F5F5F5F5F5F5F5F5E2F5F5F5F5F5F5F5F5F5F5F5F5F5F5F5F5F5F5
310
F5F5F5F5F5F5F5F5F5F5F5F5F5F5F5F5F5F5F5F5F5F5F5F5F5F5F5F5F5F5F5F5F5F5F5F5F5F5F5F5F5F5F5F5F5F5F5F5F5F5F5F5F5F5F5F5F5F5F5F5F5F5F5F5F5F5F5F5F5F5F5F5F5F5F5F5F5F5F5F5F5F5F5F5F5F5F5F5F5F5F5F5F5F5F5F5F5F5F5F5F5F5F5F5F5F5F5F5F5F5F5F5F5F5F5F5E2F5F5F5F5F5F5F5F5F5F5
310
F5F5F5F5F5F5E2F5F5F5F5E2E2F5F5F5F5E2F5F5F5F5F5F5F5F5F5F5F5F5F5F5F5F5E2F5F5F5F5F5F5F5F5F5F5F5F5F5F5F5F5F5F5F5F5F5F5F5F5F5F5F5F5F5F5F5F5F5F5F5F5F5F5F5F5F5F5F5F5F5F5F5F5F5F5F5F5F5F5F5F5F5F5F5F5F5F5F5F5F5F5F5F5F5F5F5F5F5F5F5F5F5F5F5F5F5F5F5F5F5F5F5F5F5F5F5F5
310
F5F5F5F5F5F5F5F5F5F5F5F5F5F5F5F5F5F5F5F5F5F5F5F5F5F5F5F5F5F5F5F5F5F5F5F5F5F5F5F5F5F5E2F5F5F5F5F5F5F5F5F5F5F5F5F5F5F5F5E2F5F5F5F5E2E2F5F5F5F5E2F5F5F5F5F5F5F5F5F5F5F5F5F5F5F5F5E2F5F5F5F5F5F5F5F5F5F5F5F5F5F5F5F5F5F5F5F5F5F5F5F5F5F5F5F5F5F5F5F5F5F5F5F5F5F5F5
310
F5F5F5F5F5F5F5F5F5F5F5F5F5F5F5F5F5F5F5F5F5F5F5F5F5F5F5F5F5F5F5F5F5F5F5F5F5F5F5F5F5F5F5F5F5F5F5F5F5F5F5F5F5F5F5F5F5F5F5F5F5F5F5F5F5F5F5F5F5F5F5F5F5F5F5F5F5F5F5F5F5F5F5F5F5F5F5F5F5F5F5F5F5F5F5E2F5F5F5F5F5F5F5F5F5F5F5F5F5F5F5F5E2F5F5F5F5E2E2F5F5F5F5E2F5F5F5
310
F5F5F5F5F5F5F5F5F5F5F5F5F5E2F5F5F5F5F5F5F5F5F5F5F5F5F5F5F5F5F5F5F5F5F5F5F5F5F5F5F5F5F5F5F5F5F5F5F5F5F5F5F5F5F5F5F5F5F5F5F5F5F5F5F5F5F5F5F5F5F5F5F5F5F5F5F5F5F5F5F5F5F5F5F5F5F5F5F5F5F5F5F5F5F5F5F5F5F5F5F5F5F5F5F5F5F5F5F5F5F5F5F5F5F5F5F5F5F5F5F5F5F5F5F5F5F5
310
F5F5F5F5F5F5F5F5F5F5F5F5F5F5F5F5F5F5F5F5F5E2F5F5F5F5F5F5F5F5F5F5F5F5F5F5F5F5E2F5F5F5F5E2E2F5F5F5F5E2F5F5F5F5F5F5F5F5F5F5F5F5F5F5F5F5E2F5F5F5F5F5F5F5F5F5F5F5F5F5F5F5F5F5F5F5F5F5F5F5F5F5F5F5F5F5F5F5F5F5F5F5F5F5F5F5F5F5F5F5F5F5F5F5F5F5F5F5F5F5F5F5F5F5F5F5F5
310
F5F5F5F5F5F5F5F5F5F5F5F5F5F5F5F5F5F5F5F5F5F5F5F5F5F5F5F5F5F5F5F5F5F5F5F5F5F5F5F5F5F5F5F5F5F5F5F5F5F5F5F5F5F5F5F5F5F5F5F5F5F5F5F5F5F5F5F5F5F5F5F5F5F5E2F5F5F5F5F5F5F5F5F5F5F5F5F5F5F5F5E2F5F5F5F5E2E2F5F5F5F5E2F5F5F5F5F5F5F5F5F5F5F5F5F5F5F5F5E2F5F5F5F5F5F5F5
310
F5F5F5F5F5F5F5F5F5F5F5F5F5F5F5F5F5F5F5F5F5F5F5F5F5F5F5F5F5F5F5F5F5F5F5F5F5F5F5F5F5F5F5F5F5F5F5F5F5F5F5F5F5F5F5F5F5F5F5F5F5F5F5F5F5F5F5F5F5F5F5F5F5F5F5F5F5F5F5F5F5F5F5F5F5F5F5F5F5F5F5F5F5F5F5F5F5F5F5F5F5F5F5F5F5F5F5F5F5F5F5F5F5F5F5F5F5F5F5F5F5F5F5F5F5F5F5
310
E2F5F5F5F5F5F5F5F5F5F5F5F5F5F5F5F5E2F5F5F5F5E2E2F5F5F5F5E2F5F5F5F5F5F5F5F5F5F5F5F5F5F5F5F5E2F5F5F5F5F5F5F5F5F5F5F5F5F5F5F5F5F5F5F5F5F5F5F5F5F5F5F5F5F5F5F5F5F5F5F5F5F5F5F5F5F5F5F5F5F5F5F5F5F5F5F5F5F5F5F5F5F5F5F5F5F5F5F5F5F5F5F5F5F5F5F5F5F5F5F5F5F5F5F5F5F5
310
F5F5F5F5F5F5F5F5F5F5F5F5F5F5F5F5F5F5F5F5F5F5F5F5F5F5F5F5F5F5F5F5F5F5F5F5F5F5F5F5F5F5F5F5F5F5F5F5F5F5F5F5F5E2F5F5F5F5F5F5F5F5F5F5F5F5F5F5F5F5E2F5F5F5F5E2E2F5F5F5F5E2F5F5F5F5F5F5F5F5F5F5F5F5F5F5F5F5E2F5F5F5F5F5F5F5F5F5F5F5F5F5F5F5F5F5F5F5F5F5F5F5F5F5F5F5F5
310
F5F5F5F5F5F5F5F5F5F5F5F5F5F5F5F5F5F5F5F5F5F5F5F5F5F5F5F5F5F5F5F5F5F5F5F5F5F5F5F5F5F5F5F5F5F5F5F5F5F5F5F5F5F5F5F5F5F5F5F5F5F5F5F5F5F5F5F5F5F5F5F5F5F5F5F5F5F5F5F5F5F5F5F5F5F5F5F5F5F5F5F5F5F5F5F5F5F5F5F5F5F5F5F5F5F5E2F5F5F5F5F5F5F5F5F5F5F5F5F5F5F5F5E2F5F5F5
310
F5E2E2F5F5F5F5E2F5F5F5F5F5F5F5F5F5F5F5F5F5F5F5F5E2F5F5F5F5F5F5F5F5F5F5F5F5F5F5F5F5F5F5F5F5F5F5F5F5F5F5F5F5F5F5F5F5F5F5F5F5F5F5F5F5F5F5F5F5F5F5F5F5F5F5F5F5F5F5F5F5F5F5F5F5F5F5F5F5F5F5F5F5F5F5F5F5F5F5F5F5F5F5F5F5F5F5F5F5F5F5F5F5F5F5F5F5F5F5F5F5F5F5F5F5F5F5
310
F5F5F5F5F5F5F5F5F5F5F5F5F5F5F5F5F5F5F5F5F5F5F5F5F5F5F5F5F5F5F5F5E2F5F5F5F5F5F5F5F5F5F5F5F5F5F5F5F5E2F5F5F5F5E2E2F5F5F5F5E2F5F5F5F5F5F5F5F5F5F5F5F5F5F5F5F5E2F5F5F5F5F5F5F5F5F5F5F5F5F5F5F5F5F5F5F5F5F5F5F5F5F5F5F5F5F5F5F5F5F5F5F5F5F5F5F5F5F5F5F5F5F5F5F5F5F5
310
F5F5F5F5F5F5F5F5F5F5F5F5F5F5F5F5F5F5F5F5F5F5F5F5F5F5F5F5F5F5F5F5F5F5F5F5F5F5F5F5F5F5F5F5F5F5F5F5F5F5F5F5F5F5F5F5F5F5F5F5F5F5F5F5F5F5F5F5F5F5F5F5F5F5F5F5F5F5F5F5F5F5F5F5F5E2F5F5F5F5F5F5F5F5F5F5F5F5F5F5F5F5E2F5F5F5F5E2E2F5F5F5F5E2F5F5F5F5F5F5F5F5F5F5F5F5F5
310
F5F5F5E2F5F5F5F5F5F5F5F5F5F5F5F5F5F5F5F5F5F5F5F5F5F5F5F5F5F5F5F5F5F5F5F5F5F5F5F5F5F5F5F5F5F5F5F5F5F5F5F5F5F5F5F5F5F5F5F5F5F5F5F5F5F5F5F5F5F5F5F5F5F5F5F5F5F5F5F5F5F5F5F5F5F5F5F5F5F5F5F5F5F5F5F5F5F5F5F5F5F5F5F5F5F5F5F5F5F5F5F5F5F5F5F5F5F5F5F5F5F5F5F5F5F5F5
310
F5F5F5F5F5F5F5F5F5F5F5E2F5F5F5F5F5F5F5F5F5F5F5F5F5F5F5F5E2F5F5F5F5E2E2F5F5F5F5E2F5F5F5F5F5F5F5F5F5F5F5F5F5F5F5F5E2F5F5F5F5F5F5F5F5F5F5F5F5F5F5F5F5F5F5F5F5F5F5F5F5F5F5F5F5F5F5F5F5F5F5F5F5F5F5F5F5F5F5F5F5F5F5F5F5F5F5F5F5F5F5F5F5F5F5F5F5F5F5F5F5F5F5F5F5F5F5
310
F5F5F5F5F5F5F5F5F5F5F5F5F5F5F5F5F5F5F5F5F5F5F5F5F5F5F5F5F5F5F5F5F5F5F5F5F5F5F5F5F5F5F5F5F5F5F5F5F5F5F5F5F5F5F5F5F5F5F5F5F5F5F5F5E2F5F5F5F5F5F5F5F5F5F5F5F5F5F5F5F5E2F5F5F5F5E2E2F5F5F5F5E2F5F5F5F5F5F5F5F5F5F5F5F5F5F5F5F5E2F5F5F5F5F5F5F5F5F5F5F5F5F5F5F5F5F5
310
F5F5F5F5F5F5F5F5F5F5F5F5F5F5F5F5F5F5F5F5F5F5F5F5F5F5F5F5F5F5F5F5F5F5F5F5F5F5F5F5F5F5F5F5F5F5F5F5F5F5F5F5F5F5F5F5F5F5F5F5F5F5F5F5F5F5F5F5F5F5F5F5F5F5F5F5F5F5F5F5F5F5F5F5F5F5F5F5F5F5F5F5F5F5F5F5F5F5F5F5F5F5F5F5F5F5F5F5F5F5F5F5F5F5F5F5F5E2F5F5F5F5F5F5F5F5F5
310
F5F5F5F5F5F5F5E2F5F5F5F5E2E2F5F5F5F5E2F5F5F5F5F5F5F5F5F5F5F5F5F5F5F5F5E2F5F5F5F5F5F5F5F5F5F5F5F5F5F5F5F5F5F5F5F5F5F5F5F5F5F5F5F5F5F5F5F5F5F5F5F5F5F5F5F5F5F5F5F5F5F5F5F5F5F5F5F5F5F5F5F5F5F5F5F5F5F5F5F5F5F5F5F5F5F5F5F5F5F5F5F5F5F5F5F5F5F5F5F5F5F5F5F5F5F5F5
310
F5F5F5F5F5F5F5F5F5F5F5F5F5F5F5F5F5F5F5F5F5F5F5F5F5F5F5F5F5F5F5F5F5F5F5F5F5F5F5F5F5F5F5E2F5F5F5F5F5F5F5F5F5F5F5F5F5F5F5F5E2F5F5F5F5E2E2F5F5F5F5E2F5F5F5F5F5F5F5F5F5F5F5F5F5F5F5F5E2F5F5F5F5F5F5F5F5F5F5F5F5F5F5F5F5F5F5F5F5F5F5F5F5F5F5F5F5F5F5F5F5F5F5F5F5F5F5
310
F5F5F5F5F5F5F5F5F5F5F5F5F5F5F5F5F5F5F5F5F5F5F5F5F5F5F5F5F5F5F5F5F5F5F5F5F5F5F5F5F5F5F5F5F5F5F5F5F5F5F5F5F5F5F5F5F5F5F5F5F5F5F5F5F5F5F5F5F5F5F5F5F5F5F5F5F5F5F5F5F5F5F5F5F5F5F5F5F5F5F5F5F5F5F5F5E2F5F5F5F5F5F5F5F5F5F5F5F5F5F5F5F5E2F5F5F5F5E2E2F5F5F5F5E2F5F5
310
F5F5F5F5F5F5F5F5F5F5F5F5F5F5E2F5F5F5F5F5F5F5F5F5F5F5F5F5F5F5F5F5F5F5F5F5F5F5F5F5F5F5F5F5F5F5F5F5F5F5F5F5F5F5F5F5F5F5F5F5F5F5F5F5F5F5F5F5F5F5F5F5F5F5F5F5F5F5F5F5F5F5F5F5F5F5F5F5F5F5F5F5F5F5F5F5F5F5F5F5F5F5F5F5F5F5F5F5F5F5F5F5F5F5F5F5F5F5F5F5F5F5F5F5F5F5F5
310
F5F5F5F5F5F5F5F5F5F5F5F5F5F5F5F5F5F5F5F5F5F5E2F5F5F5F5F5F5F5F5F5F5F5F5F5F5F5F5E2F5F5F5F5E2E2F5F5F5F5F5F5F5F5F5F5F5F5F5F5F5F5F5F5F5F5F5E2F5F5F5F5F5F5F5F5F5F5F5F5F5F5F5F5F5F5F5F5F5F5F5F5F5F5F5F5F5F5F5F5F5F5F5F5F5F5F5F5F5F5F5F5F5F5F5F5F5F5F5F5F5F5F5F5F5F5F5
310
F5F5F5F5F5F5F5F5F5F5F5F5F5F5F5F5F5F5F5F5F5F5F5F5F5F5F5F5F5F5F5F5F5F5F5F5F5F5F5F5F5F5F5F5F5F5F5F5F5F5F5F5F5F5F5F5F5F5F5F5F5F5F5F5F5F5F5F5F5F5F5F5F5F5F5E2F5F5F5F5F5F5F5F5F5F5F5F5F5F5F5F5F5F5F5F5F5E2E2F5F5F5F5F5F5F5F5F5F5F5F5F5F5F5F5F5F5F5F5F5E2F5F5F5F5F5F5
310
F5F5F5F5F5F5F5F5F5F5F5F5F5F5F5F5F5F5F5F5F5F5F5F5F5F5F5F5F5F5F5F5F5F5F5F5F5F5F5F5F5F5F5F5F5F5F5F5F5F5F5F5F5F5F5F5F5F5F5F5F5F5F5F5F5F5F5F5F5F5F5F5F5F5F5F5F5F5F5F5F5F5F5F5F5F5F5F5F5F5F5F5F5F5F5F5F5F5F5F5F5F5F5F5F5F5F5F5F5F5F5F5F5F5F5F5F5F5F5F5F5F5F5F5F5F5F5
310
F5E2F5F5F5F5F5F5F5F5F5F5F5F5F5F5F5F5F5F5F5F5F5E2E2F5F5F5F5F5F5F5F5F5F5F5F5F5F5F5F5F5F5F5F5F5E2F5F5F5F5F5F5F5F5F5F5F5F5F5F5F5F5F5F5F5F5F5F5F5F5F5F5F5F5F5F5F5F5F5F5F5F5F5F5F5F5F5F5F5F5F5F5F5F5F5F5F5F5F5F5F5F5F5F5F5F5F5F5F5F5F5F5F5F5F5F5F5F5F5F5F5F5F5F5F5F5
310
F5F5F5F5F5F5F5F5F5F5F5F5F5F5F5F5F5F5F5F5F5F5F5F5F5F5F5F5F5F5F5F5F5F5F5F5F5F5F5F5F5F5F5F5F5F5F5F5F5F5F5F5F5F5E2F5F5F5F5F5F5F5F5F5F5F5F5F5F5F5F5F5F5F5F5F5E2E2F5F5F5F5F5F5F5F5F5F5F5F5F5F5F5F5F5F5F5F5F5E2F5F5F5F5F5F5F5F5F5F5F5F5F5F5F5F5F5F5F5F5F5F5F5F5F5F5F5
310
F5F5F5F5F5F5F5F5F5F5F5F5F5F5F5F5F5F5F5F5F5F5F5F5F5F5F5F5F5F5F5F5F5F5F5F5F5F5F5F5F5F5F5F5F5F5F5F5F5F5F5F5F5F5F5F5F5F5F5F5F5F5F5F5F5F5F5F5F5F5F5F5F5F5F5F5F5F5F5F5F5F5F5F5F5F5F5F5F5F5F5F5F5F5F5F5F5F5F5F5F5F5F5F5F5F5F5E2F5F5F5F5F5F5F5F5F5F5F5F5F5F5F5F5F5F5F5
310
F5F5E2E2F5F5F5F5F5F5F5F5F5F5F5F5F5F5F5F5F5F5F5F5F5E2F5F5F5F5F5F5F5F5F5F5F5F5F5F5F5F5F5F5F5F5F5F5F5F5F5F5F5F5F5F5F5F5F5F5F5F5F5F5F5F5F5F5F5F5F5F5F5F5F5F5F5F5F5F5F5F5F5F5F5F5F5F5F5F5F5F5F5F5F5F5F5F5F5F5F5F5F5F5F5F5F5F5F5F5F5F5F5F5F5F5F5F5F5F5F5F5F5F5F5F5F5
310
F5F5F5F5F5F5F5F5F5F5F5F5F5F5F5F5F5F5F5F5F5F5F5F5F5F5F5F5F5F5F5F5F5E2F5F5F5F5F5F5F5F5F5F5F5F5F5F5F5F5F5F5F5F5F5E2E2F5F5F5F5F5F5F5F5F5F5F5F5F5F5F5F5F5F5F5F5F5E2F5F5F5F5F5F5F5F5F5F5F5F5F5F5F5F5F5F5F5F5F5F5F5F5F5F5F5F5F5F5F5F5F5F5F5F5F5F5F5F5F5F5F5F5F5F5F5F5
310
F5F5F5F5F5F5F5F5F5F5F5F5F5F5F5F5F5F5F5F5F5F5F5F5F5F5F5F5F5F5F5F5F5F5F5F5F5F5F5F5F5F5F5F5F5F5F5F5F5F5F5F5F5F5F5F5F5F5F5F5F5F5F5F5F5F5F5F5F5F5F5F5F5F5F5F5F5F5F5F5F5F5F5F5F5F5E2F5F5F5F5F5F5F5F5F5F5F5F5F5F5F5F5F5F5F5F5F5E2E2F5F5F5F5F5F5F5F5F5F5F5F5F5F5F5F5F5
310
F5F5F5F5E2F5F5F5F5F5F5F5F5F5F5F5F5F5F5F5F5F5F5F5F5F5F5F5F5F5F5F5F5F5F5F5F5F5F5F5F5F5F5F5F5F5F5F5F5F5F5F5F5F5F5F5F5F5F5F5F5F5F5F5F5F5F5F5F5F5F5F5F5F5F5F5F5F5F5F5F5F5F5F5F5F5F5F5F5F5F5F5F5F5F5F5F5F5F5F5F5F5F5F5F5F5F5F5F5F5F5F5F5F5F5F5F5F5F5F5F5F5F5F5F5F5F5
310
F5F5F5F5F5F5F5F5F5F5F5F5E2F5F5F5F5F5F5F5F5F5F5F5F5F5F5F5F5F5F5F5F5F5E2E2F5F5F5F5F5F5F5F5F5F5F5F5F5F5F5F5F5F5F5F5F5E2F5F5F5F5F5F5F5F5F5F5F5F5F5F5F5F5F5F5F5F5F5F5F5F5F5F5F5F5F5F5F5F5F5F5F5F5F5F5F5F5F5F5F5F5F5F5F5F5F5F5F5F5F5F5F5F5F5F5F5F5F5F5F5F5F5F5F5F5F5
310
F5F5F5F5F5F5F5F5F5F5F5F5F5F5F5F5F5F5F5F5F5F5F5F5F5F5F5F5F5F5F5F5F5F5F5F5F5F5F5F5F5F5F5F5F5F5F5F5F5F5F5F5F5F5F5F5F5F5F5F5F5F5F5F5F5E2F5F5F5F5F5F5F5F5F5F5F5F5F5F5F5F5F5F5F5F5F5E2E2F5F5F5F5F5F5F5F5F5F5F5F5F5F5F5F5F5F5F5F5F5E2F5F5F5F5F5F5F5F5F5F5F5F5F5F5F5F5
310
F5F5F5F5F5F5F5F5F5F5F5F5F5F5F5F5F5F5F5F5F5F5F5F5F5F5F5F5F5F5F5F5F5F5F5F5F5F5F5F5F5F5F5F5F5F5F5F5F5F5F5F5F5F5F5F5F5F5F5F5F5F5F5F5F5F5F5F5F5F5F5F5F5F5F5F5F5F5F5F5F5F5F5F5F5F5F5F5F5F5F5F5F5F5F5F5F5F5F5F5F5F5F5F5F5F5F5F5F5F5F5F5F5F5F5F5F5F5E2F5F5F5F5F5F5F5F5
310
F5F5F5F5F5F5F5F5F5F5F5F5F5E2E2F5F5F5F5E2F5F5F5F5F5F5F5F5F5F5F5F5F5F5F5F5E2F5F5F5F5F5F5F5F5F5F5F5F5F5F5F5F5F5F5F5F5F5F5F5F5F5F5F5F5F5F5F5F5F5F5F5F5F5F5F5F5F5F5F5F5F5F5F5F5F5F5F5F5F5F5F5F5F5F5F5F5F5F5F5F5F5F5F5F5F5F5F5F5F5F5F5F5F5F5F5F5F5F5F5F5F5F5F5F5F5F5
310
F5F5F5F5F5F5F5F5F5F5F5F5F5F5F5F5F5F5F5F5F5F5F5F5F5F5F5F5F5F5F5F5F5F5F5F5F5F5F5F5F5F5F5F5E2F5F5F5F5F5F5F5F5F5F5F5F5F5F5F5F5E2F5F5F5F5E2E2F5F5F5F5E2F5F5F5F5F5F5F5F5F5F5F5F5F5F5F5F5E2F5F5F5F5F5F5F5F5F5F5F5F5F5F5F5F5F5F5F5F5F5F5F5F5F5F5F5F5F5F5F5F5F5F5F5F5F5
310
F5F5F5F5F5F5F5F5F5F5F5F5F5F5F5F5F5F5F5F5F5F5F5F5F5F5F5F5F5F5F5F5F5F5F5F5F5F5F5F5F5F5F5F5F5F5F5F5F5F5F5F5F5F5F5F5F5F5F5F5F5F5F5F5F5F5F5F5F5F5F5F5F5F5F5F5F5F5F5F5F5F5F5F5F5F5F5F5F5F5F5F5F5F5F5F5F5E2F5F5F5F5F5F5F5F5F5F5F5F5F5F5F5F5E2F5F5F5F5E2E2F5F5F5F5E2F5
310
F5F5F5F5F5F5F5F5F5F5F5F5F5F5F5E2F5F5F5F5F5F5F5F5F5F5F5F5F5F5F5F5F5F5F5F5F5F5F5F5F5F5F5F5F5F5F5F5F5F5F5F5F5F5F5F5F5F5F5F5F5F5F5F5F5F5F5F5F5F5F5F5F5F5F5F5F5F5F5F5F5F5F5F5F5F5F5F5F5F5F5F5F5F5F5F5F5F5F5F5F5F5F5F5F5F5F5F5F5F5F5F5F5F5F5F5F5F5F5F5F5F5F5F5F5F5F5
310
F5F5F5F5F5F5F5F5F5F5F5F5F5F5F5F5F5F5F5F5F5F5F5E2F5F5F5F5F5F5F5F5F5F5F5F5F5F5F5F5E2F5F5F5F5E2E2F5F5F5F5E2F5F5F5F5F5F5F5F5F5F5F5F5F5F5F5F5E2F5F5F5F5F5F5F5F5F5F5F5F5F5F5F5F5F5F5F5F5F5F5F5F5F5F5F5F5F5F5F5F5F5F5F5F5F5F5F5F5F5F5F5F5F5F5F5F5F5F5F5F5F5F5F5F5F5F5
310
F5F5F5F5F5F5F5F5F5F5F5F5F5F5F5F5F5F5F5F5F5F5F5F5F5F5F5F5F5F5F5F5F5F5F5F5F5F5F5F5F5F5F5F5F5F5F5F5F5F5F5F5F5F5F5F5F5F5F5F5F5F5F5F5F5F5F5F5F5F5F5F5F5F5F5F5E2F5F5F5F5F5F5F5F5F5F5F5F5F5F5F5F5E2F5F5F5F5E2E2F5F5F5F5E2F5F5F5F5F5F5F5F5F5F5F5F5F5F5F5F5E2F5F5F5F5F5
310
F5F5F5F5F5F5F5F5F5F5F5F5F5F5F5F5F5F5F5F5F5F5F5F5F5F5F5F5F5F5F5F5F5F5F5F5F5F5F5F5F5F5F5F5F5F5F5F5F5F5F5F5F5F5F5F5F5F5F5F5F5F5F5F5F5F5F5F5F5F5F5F5F5F5F5F5F5F5F5F5F5F5F5F5F5F5F5F5F5F5F5F5F5F5F5F5F5F5F5F5F5F5F5F5F5F5F5F5F5F5F5F5F5F5F5F5F5F5F5F5F5F5F5F5F5F5F5
310
F5F5E2F5F5F5F5F5F5F5F5F5F5F5F5F5F5F5F5E2F5F5F5F5E2E2F5F5F5F5E2F5F5F5F5F5F5F5F5F5F5F5F5F5F5F5F5E2F5F5F5F5F5F5F5F5F5F5F5F5F5F5F5F5F5F5F5F5F5F5F5F5F5F5F5F5F5F5F5F5F5F5F5F5F5F5F5F5F5F5F5F5F5F5F5F5F5F5F5F5F5F5F5F5F5F5F5F5F5F5F5F5F5F5F5F5F5F5F5F5F5F5F5F5F5F5F5
310
F5F5F5F5F5F5F5F5F5F5F5F5F5F5F5F5F5F5F5F5F5F5F5F5F5F5F5F5F5F5F5F5F5F5F5F5F5F5F5F5F5F5F5F5F5F5F5F5F5F5F5F5F5F5F5E2F5F5F5F5F5F5F5F5F5F5F5F5F5F5F5F5E2F5F5F5F5E2E2F5F5F5F5E2F5F5F5F5F5F5F5F5F5F5F5F5F5F5F5F5E2F5F5F5F5F5F5F5F5F5F5F5F5F5F5F5F5F5F5F5F5F5F5F5F5F5F5
310
F5F5F5F5F5F5F5F5F5F5F5F5F5F5F5F5F5F5F5F5F5F5F5F5F5F5F5F5F5F5F5F5F5F5F5F5F5F5F5F5F5F5F5F5F5F5F5F5F5F5F5F5F5F5F5F5F5F5F5F5F5F5F5F5F5F5F5F5F5F5F5F5F5F5F5F5F5F5F5F5F5F5F5F5F5F5F5F5F5F5F5F5F5F5F5F5F5F5F5F5F5F5F5F5F5F5F5F5E2F5F5F5F5F5F5F5F5F5F5F5F5F5F5F5F5E2F5
310
F5F5F5E2E2F5F5F5F5E2F5F5F5F5F5F5F5F5F5F5F5F5F5F5F5F5E2F5F5F5F5F5F5F5F5F5F5F5F5F5F5F5F5F5F5F5F5F5F5F5F5F5F5F5F5F5F5F5F5F5F5F5F5F5F5F5F5F5F5F5F5F5F5F5F5F5F5F5F5F5F5F5F5F5F5F5F5F5F5F5F5F5F5F5F5F5F5F5F5F5F5F5F5F5F5F5F5F5F5F5F5F5F5F5F5F5F5F5F5F5F5F5F5F5F5F5F5
310
F5F5F5F5F5F5F5F5F5F5F5F5F5F5F5F5F5F5F5F5F5F5F5F5F5F5F5F5F5F5F5F5F5F5E2F5F5F5F5F5F5F5F5F5F5F5F5F5F5F5F5E2F5F5F5F5E2E2F5F5F5F5E2F5F5F5F5F5F5F5F5F5F5F5F5F5F5F5F5E2F5F5F5F5F5F5F5F5F5F5F5F5F5F5F5F5F5F5F5F5F5F5F5F5F5F5F5F5F5F5F5F5F5F5F5F5F5F5F5F5F5F5F5F5F5F5F5
310
F5F5F5F5F5F5F5F5F5F5F5F5F5F5F5F5F5F5F5F5F5F5F5F5F5F5F5F5F5F5F5F5F5F5F5F5F5F5F5F5F5F5F5F5F5F5F5F5F5F5F5F5F5F5F5F5F5F5F5F5F5F5F5F5F5F5F5F5F5F5F5F5F5F5F5F5F5F5F5F5F5F5F5F5F5F5F5E2F5F5F5F5F5F5F5F5F5F5F5F5F5F5F5F5E2F5F5F5F5E2E2F5F5F5F5E2F5F5F5F5F5F5F5F5F5F5F5
310
F5F5F5F5F5E2F5F5F5F5F5F5F5F5F5F5F5F5F5F5F5F5F5F5F5F5F5F5F5F5F5F5F5F5F5F5F5F5F5F5F5F5F5F5F5F5F5F5F5F5F5F5F5F5F5F5F5F5F5F5F5F5F5F5F5F5F5F5F5F5F5F5F5F5F5F5F5F5F5F5F5F5F5F5F5F5F5F5F5F5F5F5F5F5F5F5F5F5F5F5F5F5F5F5F5F5F5F5F5F5F5F5F5F5F5F5F5F5F5F5F5F5F5F5F5F5F5
310
F5F5F5F5F5F5F5F5F5F5F5F5F5E2F5F5F5F5F5F5F5F5F5F5F5F5F5F5F5F5E2F5F5F5F5E2E2F5F5F5F5E2F5F5F5F5F5F5F5F5F5F5F5F5F5F5F5F5E2F5F5F5F5F5F5F5F5F5F5F5F5F5F5F5F5F5F5F5F5F5F5F5F5F5F5F5F5F5F5F5F5F5F5F5F5F5F5F5F5F5F5F5F5F5F5F5F5F5F5F5F5F5F5F5F5F5F5F5F5F5F5F5F5F5F5F5F5
310
F5F5F5F5F5F5F5F5F5F5F5F5F5F5F5F5F5F5F5F5F5F5F5F5F5F5F5F5F5F5F5F5F5F5F5F5F5F5F5F5F5F5F5F5F5F5F5F5F5F5F5F5F5F5F5F5F5F5F5F5F5F5F5F5F5F5E2F5F5F5F5F5F5F5F5F5F5F5F5F5F5F5F5E2F5F5F5F5E2E2F5F5F5F5E2F5F5F5F5F5F5F5F5F5F5F5F5F5F5F5F5E2F5F5F5F5F5F5F5F5F5F5F5F5F5F5F5
310
F5F5F5F5F5F5F5F5F5F5F5F5F5F5F5F5F5F5F5F5F5F5F5F5F5F5F5F5F5F5F5F5F5F5F5F5F5F5F5F5F5F5F5F5F5F5F5F5F5F5F5F5F5F5F5F5F5F5F5F5F5F5F5F5F5F5F5F5F5F5F5F5F5F5F5F5F5F5F5F5F5F5F5F5F5F5F5F5F5F5F5F5F5F5F5F5F5F5F5F5F5F5F5F5F5F5F5F5F5F5F5F5F5F5F5F5F5F5F5E2F5F5F5F5F5F5F5
310
F5F5F5F5F5F5F5F5F5E2F5F5F5F5E2E2F5F5F5F5E2F5F5F5F5F5F5F5F5F5F5F5F5F5F5F5F5E2F5F5F5F5F5F5F5F5F5F5F5F5F5F5F5F5F5F5F5F5F5F5F5F5F5F5F5F5F5F5F5F5F5F5F5F5F5F5F5F5F5F5F5F5F5F5F5F5F5F5F5F5F5F5F5F5F5F5F5F5F5F5F5F5F5F5F5F5F5F5F5F5F5F5F5F5F5F5F5F5F5F5F5F5F5F5F5F5F5
310
F5F5F5F5F5F5F5F5F5F5F5F5F5F5F5F5F5F5F5F5F5F5F5F5F5F5F5F5F5F5F5F5F5F5F5F5F5F5F5F5F5F5F5F5F5E2F5F5F5F5F5F5F5F5F5F5F5F5F5F5F5F5E2F5F5F5F5E2E2F5F5F5F5E2F5F5F5F5F5F5F5F5F5F5F5F5F5F5F5F5E2F5F5F5F5F5F5F5F5F5F5F5F5F5F5F5F5F5F5F5F5F5F5F5F5F5F5F5F5F5F5F5F5F5F5F5F5
310
F5F5F5F5F5F5F5F5F5F5F5F5F5F5F5F5F5F5F5F5F5F5F5F5F5F5F5F5F5F5F5F5F5F5F5F5F5F5F5F5F5F5F5F5F5F5F5F5F5F5F5F5F5F5F5F5F5F5F5F5F5F5F5F5F5F5F5F5F5F5F5F5F5F5F5F5F5F5F5F5F5F5F5F5F5F5F5F5F5F5F5F5F5F5F5F5F5F5E2F5F5F5F5F5F5F5F5F5F5F5F5F5F5F5F5E2F5F5F5F5E2E2F5F5F5F5E2
310
F5F5F5F5F5F5F5F5F5F5F5F5F5F5F5F5E2F5F5F5F5F5F5F5F5F5F5F5F5F5F5F5F5F5F5F5F5F5F5F5F5F5F5F5F5F5F5F5F5F5F5F5F5F5F5F5F5F5F5F5F5F5F5F5F5F5F5F5F5F5F5F5F5F5F5F5F5F5F5F5F5F5F5F5F5F5F5F5F5F5F5F5F5F5F5F5F5F5F5F5F5F5F5F5F5F5F5F5F5F5F5F5F5F5F5F5F5F5F5F5F5F5F5F5F5F5F5
310
F5F5F5F5F5F5F5F5F5F5F5F5F5F5F5F5F5F5F5F5F5F5F5F5E2F5F5F5F5F5F5F5F5F5F5F5F5F5F5F5F5E2F5F5F5F5E2E2F5F5F5F5E2F5F5F5F5F5F5F5F5F5F5F5F5F5F5F5F5E2F5F5F5F5F5F5F5F5F5F5F5F5F5F5F5F5F5F5F5F5F5F5F5F5F5F5F5F5F5F5F5F5F5F5F5F5F5F5F5F5F5F5F5F5F5F5F5F5F5F5F5F5F5F5F5F5F5
310
F5F5F5F5F5F5F5F5F5F5F5F5F5F5F5F5F5F5F5F5F5F5F5F5F5F5F5F5F5F5F5F5F5F5F5F5F5F5F5F5F5F5F5F5F5F5F5F5F5F5F5F5F5F5F5F5F5F5F5F5F5F5F5F5F5F5F5F5F5F5F5F5F5F5F5F5F5E2F5F5F5F5F5F5F5F5F5F5F5F5F5F5F5F5E2F5F5F5F5E2E2F5F5F5F5E2F5F5F5F5F5F5F5F5F5F5F5F5F5F5F5F5E2F5F5F5F5
310
F5F5F5F5F5F5F5F5F5F5F5F5F5F5F5F5F5F5F5F5F5F5F5F5F5F5F5F5F5F5F5F5F5F5F5F5F5F5F5F5F5F5F5F5F5F5F5F5F5F5F5F5F5F5F5F5F5F5F5F5F5F5F5F5F5F5F5F5F5F5F5F5F5F5F5F5F5F5F5F5F5F5F5F5F5F5F5F5F5F5F5F5F5F5F5F5F5F5F5F5F5F5F5F5F5F5F5F5F5F5F5F5F5F5F5F5F5F5F5F5F5F5F5F5F5F5F5
310
F5F5F5E2F5F5F5F5F5F5F5F5F5F5F5F5F5F5F5F5E2F5F5F5F5E2E2F5F5F5F5F5F5F5F5F5F5F5F5F5F5F5F5F5F5F5F5F5E2F5F5F5F5F5F5F5F5F5F5F5F5F5F5F5F5F5F5F5F5F5F5F5F5F5F5F5F5F5F5F5F5F5F5F5F5F5F5F5F5F5F5F5F5F5F5F5F5F5F5F5F5F5F5F5F5F5F5F5F5F5F5F5F5F5F5F5F5F5F5F5F5F5F5F5F5F5F5
310
F5F5F5F5F5F5F5F5F5F5F5F5F5F5F5F5F5F5F5F5F5F5F5F5F5F5F5F5F5F5F5F5F5F5F5F5F5F5F5F5F5F5F5F5F5F5F5F5F5F5F5F5F5F5F5F5E2F5F5F5F5F5F5F5F5F5F5F5F5F5F5F5F5F5F5F5F5F5E2E2F5F5F5F5F5F5F5F5F5F5F5F5F5F5F5F5F5F5F5F5F5E2F5F5F5F5F5F5F5F5F5F5F5F5F5F5F5F5F5F5F5F5F5F5F5F5F5
310
F5F5F5F5F5F5F5F5F5F5F5F5F5F5F5F5F5F5F5F5F5F5F5F5F5F5F5F5F5F5F5F5F5F5F5F5F5F5F5F5F5F5F5F5F5F5F5F5F5F5F5F5F5F5F5F5F5F5F5F5F5F5F5F5F5F5F5F5F5F5F5F5F5F5F5F5F5F5F5F5F5F5F5F5F5F5F5F5F5F5F5F5F5F5F5F5F5F5F5F5F5F5F5F5F5F5F5F5F5E2F5F5F5F5F5F5F5F5F5F5F5F5F5F5F5F5F5
310
F5F5F5F5E2E2F5F5F5F5F5F5F5F5F5F5F5F5F5F5F5F5F5F5F5F5F5E2F5F5F5F5F5F5F5F5F5F5F5F5F5F5F5F5F5F5F5F5F5F5F5F5F5F5F5F5F5F5F5F5F5F5F5F5F5F5F5F5F5F5F5F5F5F5F5F5F5F5F5F5F5F5F5F5F5F5F5F5F5F5F5F5F5F5F5F5F5F5F5F5F5F5F5F5F5F5F5F5F5F5F5F5F5F5F5F5F5F5F5F5F5F5F5F5F5F5F5
310
F5F5F5F5F5F5F5F5F5F5F5F5F5F5F5F5F5F5F5F5F5F5F5F5F5F5F5F5F5F5F5F5F5F5F5E2F5F5F5F5F5F5F5F5F5F5F5F5F5F5F5F5F5F5F5F5F5E2E2F5F5F5F5F5F5F5F5F5F5F5F5F5F5F5F5F5F5F5F5F5E2F5F5F5F5F5F5F5F5F5F5F5F5F5F5F5F5F5F5F5F5F5F5F5F5F5F5F5F5F5F5F5F5F5F5F5F5F5F5F5F5F5F5F5F5F5F5
310
F5F5F5F5F5F5F5F5F5F5F5F5F5F5F5F5F5F5F5F5F5F5F5F5F5F5F5F5F5F5F5F5F5F5F5F5F5F5F5F5F5F5F5F5F5F5F5F5F5F5F5F5F5F5F5F5F5F5F5F5F5F5F5F5F5F5F5F5F5F5F5F5F5F5F5F5F5F5F5F5F5F5F5F5F5F5F5F5E2F5F5F5F5F5F5F5F5F5F5F5F5F5F5F5F5F5F5F5F5F5E2E2F5F5F5F5F5F5F5F5F5F5F5F5F5F5F5
310
F5F5F5F5F5F5E2E2E2E2E2E2E2E2E2E2E2E2E2E2E2E2E2E2E2E2E2E2E2E2E2E2E2E2E2E2E2E2E2E2E2E2E2E2E2E2E2E2E2E2E2E2E2E2E2E2E2E2E2E2E2E2E2E2E2E2E2E2E2E2E2E2E2E2E2E2E2E2E2E2E2E2E2E2E2E2E2E2E2E2E2E2E2E2E2E2E2E2E2E2E2E2E2E2E2E2E2E2E2E2E2E2E2E2E2E2E2E2E2E2E2E2E2E2E2E2E2
310
E2E2E2E2E2E2E2E2E2E2E2E2E2E2E2F5F5F5F5F5F5F5F5F5F5F5F5F5F5F5F5F5F5F5F5F5E2E2F5F5F5F5F5F5F5F5F5F5F5F5F5F5F5F5F5F5F5F5F5F5F5F5F5F5F5F5F5F5F5F5F5F5F5F5F5F5F5F5F5F5F5F5F5F5F5F5F5F5F5F5F5F5F5F5F5F5F5F5F5F5F5F5F5F5F5F5F5F5F5F5F5F5F5F5F5F5F5F5F5F5F5F5F5F5F5F5F5
310
F5F5F5F5F5F5F5F5F5F5F5F5F5F5F5F5F5F5F5F5F5F5F5F5F5F5F5F5F5F5F5F5F5F5F5F5F5F5F5F5F5F5F5F5F5F5F5F5F5F5F5F5F5F5F5F5F5F5F5F5F5F5F5F5F5F5F5F5F5F5F5F5F5F5F5F5F5F5F5F5F5F5F5F5F5F5F5F5F5E2E2F5F5F5F5F5F5F5F5F5F5F5F5F5F5F5F5F5F5F5F5F5F5F5F5F5F5F5F5F5F5F5F5F5F5F5F5
310
F5F5F5F5F5F5F5F5F5F5F5F5F5F5F5F5F5F5F5F5F5F5F5F5F5F5F5F5F5F5F5F5F5F5F5F5F5F5F5F5F5F5F5F5F5F5F5F5F5F5F5F5F5F5F5F5F5F5F5F5F5F5F5F5F5F5F5F5F5F5F5F5F5F5F5F5F5F5F5F5F5F5F5F5F5F5F5F5F5F5F5F5F5F5F5F5F5F5F5F5F5F5F5F5F5F5F5F5F5F5F5F5F5F5F5F5F5F5F5F5F5F5F5F5F5F5F5
310
F5F5F5F5F5F5F5F5F5F5F5F5F5F5F5E2E2F5F5F5F5F5F5F5F5F5F5F5F5F5F5F5F5F5F5F5F5F5F5F5F5F5F5F5F5F5F5F5F5F5F5F5F5F5F5F5F5F5F5F5F5F5F5F5F5F5F5F5F5F5F5F5F5F5F5F5F5F5F5F5F5F5F5F5F5F5F5F5F5F5F5F5F5F5F5F5F5F5F5F5F5F5F5F5F5F5F5F5F5F5F5F5F5F5F5F5F5F5F5F5F5F5F5F5F5F5F5
310
F5F5F5F5F5F5F5F5F5F5F5F5F5F5F5F5F5F5F5F5F5F5F5F5F5F5F5F5F5F5F5F5F5F5F5F5F5F5F5F5F5F5F5F5F5F5F5F5F5F5F5F5F5F5F5F5F5F5F5F5F5F5F5F5F5F5F5F5E2E2F5F5F5F5F5F5F5F5F5F5F5F5F5F5F5F5F5F5F5F5F5F5F5F5F5F5F5F5F5F5F5F5F5F5F5F5F5F5F5F5F5F5F5F5F5F5F5F5F5F5F5F5F5F5F5F5F5
310
F5F5F5F5F5F5F5F5F5F5F5F5F5F5F5F5F5F5F5F5F5F5F5F5F5F5F5F5F5F5F5F5F5F5F5F5F5F5F5F5F5F5F5F5F5F5F5F5F5F5F5F5F5F5F5F5F5F5F5F5F5F5F5F5F5F5F5F5F5F5F5F5F5F5F5F5F5F5F5F5F5F5F5F5F5F5F5F5F5F5F5F5F5F5F5F5F5F5F5F5F5F5F5F5F5F5F5F5F5F5F5F5F5F5F5F5F5F5F5F5F5E2E2F5F5F5F5
310
E2F5F5F5F5F5F5F5F5F5F5F5F5F5F5F5F5F5F5F5F5F5F5F5F5F5F5F5F5F5F5F5F5F5F5F5F5F5F5F5F5F5F5F5F5F5F5F5F5F5F5F5F5F5F5F5F5F5F5F5F5F5F5F5F5F5F5F5F5F5F5F5F5F5F5F5F5F5F5F5F5F5F5F5F5F5F5F5F5F5F5F5F5F5F5F5F5F5F5F5F5F5F5F5F5F5F5F5F5F5F5F5F5F5F5F5F5F5F5F5F5F5F5F5F5F5F5
310
F5F5F5F5F5F5F5F5F5F5F5F5F5F5F5F5F5F5F5F5F5F5F5F5F5F5F5F5F5F5F5F5F5F5F5F5F5F5F5F5F5F5E2F5F5F5F5E2E2F5F5F5F5E2F5F5F5F5F5F5F5F5F5F5F5F5F5F5F5F5F5F5F5F5F5F5F5F5F5F5F5F5F5F5F5F5F5F5F5F5F5F5F5F5F5F5F5F5F5F5F5F5F5F5F5F5F5F5F5F5F5F5F5F5F5F5F5F5F5F5F5F5F5F5F5F5F5
310
F5F5F5F5F5F5F5F5F5F5F5F5F5F5F5F5F5F5F5F5F5F5F5F5F5F5F5F5F5F5F5F5F5F5F5F5F5F5F5F5F5F5F5F5F5F5F5F5F5F5F5F5F5F5F5F5F5F5F5F5F5F5F5F5F5F5F5F5F5F5F5F5F5F5F5F5F5F5F5F5F5F5F5F5F5F5F5F5F5F5F5F5F5F5F5E2F5F5F5F5E2E2F5F5F5F5E2F5F5F5F5F5F5F5F5F5F5F5F5F5F5F5F5F5F5F5F5
310
F5F5F5F5F5F5F5F5F5F5F5F5F5F5F5F5F5F5F5F5F5F5F5F5F5F5F5F5F5F5F5F5F5F5F5F5F5F5F5F5F5F5F5F5F5F5F5F5F5F5F5F5F5F5F5F5F5F5F5F5F5F5F5F5F5F5F5F5F5F5F5F5F5F5F5F5F5F5F5F5F5F5F5F5F5F5F5F5F5F5F5F5F5F5F5F5F5F5F5F5F5F5F5F5F5F5F5F5F5F5F5F5F5F5F5F5F5F5F5F5F5F5F5F5F5F5F5
310
F5F5F5F5F5F5F5F5F5F5F5F5F5F5F5F5F5F5F5F5F5E2F5F5F5F5E2E2F5F5F5F5E2F5F5F5F5F5F5F5F5F5F5F5F5F5F5F5F5F5F5F5F5F5F5F5F5F5F5F5F5F5F5F5F5F5F5F5F5F5F5F5F5F5F5F5F5F5F5F5F5F5F5F5F5F5F5F5F5F5F5F5F5F5F5F5F5F5F5F5F5F5F5F5F5F5F5F5F5F5F5F5F5F5F5F5F5F5F5F5F5F5F5F5F5F5F5
310
F5F5F5F5F5F5F5F5F5F5F5F5F5F5F5F5F5F5F5F5F5F5F5F5F5F5F5F5F5F5F5F5F5F5F5F5F5F5F5F5F5F5F5F5F5F5F5F5F5F5F5F5F5F5F5F5F5F5F5F5F5F5F5F5F5F5F5F5F5F5F5F5F5F5E2F5F5F5F5E2E2F5F5F5F5E2F5F5F5F5F5F5F5F5F5F5F5F5F5F5F5F5F5F5F5F5F5F5F5F5F5F5F5F5F5F5F5F5F5F5F5F5F5F5F5F5F5
310
F5F5F5F5F5F5F5F5F5F5F5F5F5F5F5F5F5F5F5F5F5F5F5F5F5F5F5F5F5F5F5F5F5F5F5F5F5F5F5F5F5F5F5F5F5F5F5F5F5F5F5F5F5F5F5F5F5F5F5F5F5F5F5F5F5F5F5F5F5F5F5F5F5F5F5F5F5F5F5F5F5F5F5F5F5F5F5F5F5F5F5F5F5F5F5F5F5F5F5F5F5F5F5F5F5F5F5F5F5F5F5F5F5F5F5F5F5F5F5F5F5F5F5F5F5F5F5
310
E2F5F5F5F5E2E2F5F5F5F5E2F5F5F5F5F5F5F5F5F5F5F5F5F5F5F5F5F5F5F5F5F5F5F5F5F5F5F5F5F5F5F5F5F5F5F5F5F5F5F5F5F5F5F5F5F5F5F5F5F5F5F5F5F5F5F5F5F5F5F5F5F5F5F5F5F5F5F5F5F5F5F5F5F5F5F5F5F5F5F5F5F5F5F5F5F5F5F5F5F5F5F5F5F5F5F5F5F5F5F5F5F5F5F5F5F5F5F5F5F5F5F5F5F5F5F5
310
F5F5F5F5F5F5F5F5F5F5F5F5F5F5F5F5F5F5F5F5F5F5F5F5F5F5F5F5F5F5F5F5F5F5F5F5F5F5F5F5F5F5F5F5F5F5F5F5F5F5F5F5F5E2F5F5F5F5E2E2F5F5F5F5E2F5F5F5F5F5F5F5F5F5F5F5F5F5F5F5F5F5F5F5F5F5F5F5F5F5F5F5F5F5F5F5F5F5F5F5F5F5F5F5F5F5F5F5F5F5F5F5F5F5F5F5F5F5F5F5F5F5F5F5F5F5F5
310
F5F5F5F5F5F5F5F5F5F5F5F5F5F5F5F5F5F5F5F5F5F5F5F5F5F5F5F5F5F5F5F5F5F5F5F5F5F5F5F5F5F5F5F5F5F5F5F5F5F5F5F5F5F5F5F5F5F5F5F5F5F5F5F5F5F5F5F5F5F5F5F5F5F5F5F5F5F5F5F5F5F5F5F5F5F5F5F5F5F5F5F5F5F5F5F5F5F5F5F5F5F5F5F5F5F5E2F5F5F5F5E2E2F5F5F5F5E2F5F5F5F5F5F5F5F5F5
310
F5F5F5F5F5F5F5F5F5F5F5F5F5F5F5F5F5F5F5F5F5F5F5F5F5F5F5F5F5F5F5F5F5F5F5F5F5F5F5F5F5F5F5F5F5F5F5F5F5F5F5F5F5F5F5F5F5F5F5F5F5F5F5F5F5F5F5F5F5F5F5F5F5F5F5F5F5F5F5F5F5F5F5F5F5F5F5F5F5F5F5F5F5F5F5F5F5F5F5F5F5F5F5F5F5F5F5F5F5F5F5F5F5F5F5F5F5F5F5F5F5F5F5F5F5F5F5
310
F5F5F5F5F5F5F5F5F5F5F5F5F5F5F5F5F5F5F5F5F5F5F5F5F5F5F5F5F5F5F5F5E2F5F5F5F5E2E2F5F5F5F5E2E2E2E2E2E2E2E2F5F5F5F5F5F5F5F5F5E2E2E2E2E2E2E2E2E2E2E2E2E2E2E2F5F5F5F5F5F5F5F5F5E2E2E2E2E2E2E2E2E2E2E2E2E2E2E2E2F5F5F5F5F5F5F5F5E2E2E2E2E2E2E2E2E2E2E2E2E2E2E2E2F5F5F5
310
F5F5F5F5F5E2E2E2E2E2E2E2E2E2E2E2E2E2E2E2E2F5F5F5F5F5F5F5F5E2E2E2E2E2E2E2E2E2E2E2E2E2E2E2E2F5F5F5F5F5F5F5F5F5E2E2E2E2E2E2E2E2E2E2E2E2E2E2E2F5F5F5F5F5F5F5F5F5E2E2E2E2E2E2E2E2F5F5F5F5E2E2F5F5F5F5F5F5F5F5F5F5F5F5F5F5F5F5F5F5F5F5F5F5F5F5F5F5F5F5F5F5F5F5F5F5F5
310
F5F5F5F5F5F5F5F5F5F5F5F5F5F5F5F5F5F5F5F5F5F5F5F5F5F5F5F5F5F5F5F5F5F5F5F5F5F5F5F5F5F5F5F5F5F5F5F5F5F5F5F5F5F5F5F5F5F5F5F5F5F5F5F5F5F5F5F5F5F5F5F5F5F5F5F5F5F5F5F5F5F5F5F5F5F5F5F5F5F5F5F5F5F5F5F5F5F5F5F5F5F5F5F5F5F5F5F5F5F5F5F5F5F5F5F5F5F5F5F5F5F5F5F5F5F5F5
310
F5F5F5F5F5F5F5F5F5F5F5F5F5F5F5F5E2E2F5F5F5F5F5F5F5F5F5F5F5F5F5F5F5F5F5F5F5F5F5F5F5F5F5F5F5F5F5F5F5F5F5F5F5F5F5F5F5F5F5F5F5F5F5F5F5F5F5F5F5F5F5F5F5F5F5F5F5F5F5F5F5F5F5F5F5F5F5F5F5F5F5F5F5F5F5F5F5F5F5F5F5F5F5F5F5F5F5F5F5F5F5F5F5F5F5F5F5F5F5F5F5F5F5F5F5F5F5
310
F5F5F5F5F5F5F5F5F5F5F5F5F5F5F5F5F5F5F5F5F5F5F5F5F5F5F5F5F5F5F5F5F5F5F5F5F5F5F5F5F5F5F5F5F5F5F5F5F5F5F5F5F5F5F5F5F5F5F5F5F5F5F5F5F5F5F5F5F5E2E2F5F5F5F5F5F5F5F5F5F5F5F5F5F5F5F5F5F5F5F5F5F5F5F5F5F5F5F5F5F5F5F5F5F5F5F5F5F5F5F5F5F5F5F5F5F5F5F5F5F5F5F5F5F5F5F5
310
F5F5F5F5F5F5F5F5F5F5F5F5F5F5F5F5F5F5F5F5F5F5F5F5F5F5F5F5F5F5F5F5F5F5F5F5F5F5F5F5F5F5F5F5F5F5F5F5F5F5F5F5F5F5F5F5F5F5F5F5F5F5F5F5F5F5F5F5F5F5F5F5F5F5F5F5F5F5F5F5F5F5F5F5F5F5F5F5F5F5F5F5F5F5F5F5F5F5F5F5F5F5F5F5F5F5F5F5F5F5F5F5F5F5F5F5F5F5F5F5F5F5E2E2E2E2E2
310
E2E2E2E2E2E2E2E2E2E2E2E2E2E2E2E2E2E2E2E2E2E2E2E2E2E2E2E2E2E2E2E2E2E2E2E2E2E2E2E2E2E2E2E2E2E2E2E2E2E2E2E2E2E2E2E2E2E2E2E2E2E2E2E2E2E2E2E2E2E2E2E2E2E2E2E2E2E2E2E2E2E2E2E2E2E2E2E2E2E2E2E2E2E2E2E2E2E2E2E2E2E2E2E2E2E2E2E2E2E2E2E2E2E2E2E2E2E2E2E2E2E2E2E2E2E2E2
310
E2E2E2E2E2E2E2E2E2E2E2E2E2E2E2E2E2E2E2E2E2E2E2E2E2E2E2E2E2E2E2E2E2E2E2E2E2E2E2E2E2E2E2E2E2E2E2E2E2
  0
XRECORD
  5
5618E
102
{ACAD_REACTORS
330
B5
102
}
330
B5
100
AcDbXrecord
280
     1
102
SHADEPLOT
 70
     0
102
SHADEPLOTRESLEVEL
 70
     2
102
SHADEPLOTCUSTOMDPI
 70
   300
  0
XRECORD
  5
B6
102
{ACAD_REACTORS
330
B5
102
}
330
B5
100
AcDbXrecord
280
     1
310
28000000B40000008B0000000100080000000000BC610000000000000000000000010000000000000000000000000000FFFFFF000000000000000000000000000000000000000000000000000000000000000000330000006600000099000000CC000000FF00000000330000333300006633000099330000CC330000FF3300
310
0000660000336600006666000099660000CC660000FF66000000990000339900006699000099990000CC990000FF99000000CC000033CC000066CC000099CC0000CCCC0000FFCC000000FF000033FF000066FF000099FF0000CCFF0000FFFF000000003300330033006600330099003300CC003300FF003300003333003333
310
33006633330099333300CC333300FF33330000663300336633006666330099663300CC663300FF66330000993300339933006699330099993300CC993300FF99330000CC330033CC330066CC330099CC3300CCCC3300FFCC330000FF330033FF330066FF330099FF3300CCFF3300FFFF330000006600330066006600660099
310
006600CC006600FF00660000336600333366006633660099336600CC336600FF33660000666600336666006666660099666600CC666600FF66660000996600339966006699660099996600CC996600FF99660000CC660033CC660066CC660099CC6600CCCC6600FFCC660000FF660033FF660066FF660099FF6600CCFF6600
310
FFFF660000009900330099006600990099009900CC009900FF00990000339900333399006633990099339900CC339900FF33990000669900336699006666990099669900CC669900FF66990000999900339999006699990099999900CC999900FF99990000CC990033CC990066CC990099CC9900CCCC9900FFCC990000FF99
310
0033FF990066FF990099FF9900CCFF9900FFFF99000000CC003300CC006600CC009900CC00CC00CC00FF00CC000033CC003333CC006633CC009933CC00CC33CC00FF33CC000066CC003366CC006666CC009966CC00CC66CC00FF66CC000099CC003399CC006699CC009999CC00CC99CC00FF99CC0000CCCC0033CCCC0066CC
310
CC0099CCCC00CCCCCC00FFCCCC0000FFCC0033FFCC0066FFCC0099FFCC00CCFFCC00FFFFCC000000FF003300FF006600FF009900FF00CC00FF00FF00FF000033FF003333FF006633FF009933FF00CC33FF00FF33FF000066FF003366FF006666FF009966FF00CC66FF00FF66FF000099FF003399FF006699FF009999FF00CC
310
99FF00FF99FF0000CCFF0033CCFF0066CCFF0099CCFF00CCCCFF00FFCCFF0000FFFF0033FFFF0066FFFF0099FFFF00CCFFFF00FFFFFF00000000000D0D0D001A1A1A00282828003535350043434300505050005D5D5D006B6B6B00787878008686860093939300A1A1A100AEAEAE00BBBBBB00C9C9C900D6D6D600E4E4E400
310
F1F1F100FFFFFF0000000000000000000000000000000000000000000000000000000000000000000000000000000000F5F5F5F5F5F5F5F5F5F5F5F5F5F5F5F5F5F5F5F5F5F5F5F5F5F5F5F5F5F5F5F5F5F5F5F5F5F5F5F5F5F5F5F5F5F5F5F5F5F5F5F5F5F5F5F5F5F5F5F5F5F5F5F5F5F5F5F5F5F5F5F5F5F5F5F5F5F5F5
310
F5F5F5F5F5F5F5F5F5F5F5F5F5F5F5F5F5F5F5F5F5F5F5F5F5F5F5F5F5F5F5F5F5F5F5F5F5F5F5F5F5F5F5F5F5F5F5F5F5F5F5F5F5F5F5F5F5F5F5F5F5F5F5F5F5F5F5F5F5F5F5F5F5F5F5F5F5F5F5F5F5F5F5F5F5F5F5F5F5F5F5F5F5F5F5F5F5F5F5F5F5F5E2E2E2E2E2E2E2E2E2E2E2E2E2E2E2E2E2E2E2E2E2E2E2E2E2
310
E2E2E2E2E2E2E2E2E2E2E2E2E2E2E2E2E2E2E2E2E2E2E2E2E2E2E2E2E2E2E2E2E2E2E2E2E2E2E2E2E2E2E2E2E2E2E2E2E2E2E2E2E2E2E2E2E2E2E2E2E2E2E2E2E2E2E2E2E2E2E2E2E2E2E2E2E2E2E2E2E2E2E2E2E2E2E2E2E2E2E2E2E2E2E2E2E2E2E2E2E2E2E2E2E2E2E2E2E2E2E2E2E2E2E2E2E2E2E2E2E2E2E2E2E2E2E2
310
E2E2E2E2E2E2E2E2E2E2E2E2E2E2E2E2E2E2E2E2E2E2E2E2E2E2F5F5E2E2E2E2E2E2E2E2E2E2E2E2E2E2E2E2E2E2E2E2E2E2E2E2E2E2E2E2E2E2E2E2E2E2E2E2E2E2E2E2E2E2E2E2E2E2E2E2E2E2E2E2E2E2E2E2E2E2E2E2E2E2E2E2E2E2E2E2E2E2E2E2E2E2E2E2E2E2E2E2E2E2E2E2E2E2E2E2E2E2E2E2E2E2E2E2E2E2E2
310
E2E2E2E2E2E2E2E2E2E2E2E2E2E2E2E2E2E2E2E2E2E2E2E2E2E2E2E2E2E2E2E2E2E2E2E2E2E2E2E2E2E2E2E2E2E2E2E2E2E2E2E2E2E2E2E2E2E2E2E2E2E2E2E2E2E2E2E2E2E2E2E2E2E2E2E2E2E2E2F5F5E2E2E2E2E2E2E2E2E2E2E2E2E2E2E2E2E2E2E2E2E2E2E2E2E2E2E2E2E2E2E2E2E2E2E2E2E2E2E2E2E2E2E2E2E2E2
310
E2E2E2E2E2E2E2E2E2E2E2E2E2E2E2E2E2E2E2E2E2E2E2E2E2E2E2E2E2E2E2E2E2E2E2E2E2E2E2E2E2E2E2E2E2E2E2E2E2E2E2E2E2E2E2E2E2E2E2E2E2E2E2E2E2E2E2E2E2E2E2E2E2E2E2E2E2E2E2E2E2E2E2E2E2E2E2E2E2E2E2E2E2E2E2E2E2E2E2E2E2E2E2E2E2E2E2E2E2E2E2E2E2E2E2E2E2E2E2E2E2E2E2E2E2E2E2
310
E2E2E2E2E2F5F5E2E2E2E2E2E2E2E2E2E2E2E2E2E2E2E2E2E2E2E2E2E2E2E2E2E2E2E2E2E2E2E2E2E2E2E2E2E2E2E2E2E2E2E2E2E2E2E2E2E2E2E2E2E2E2E2E2E2E2E2E2E2E2E2E2E2E2E2E2E2E2E2E2E2E2E2E2E2E2E2E2E2E2E2E2E2E2E2E2E2E2E2E2E2E2E2E2E2E2E2E2E2E2E2E2E2E2E2E2E2E2E2E2E2E2E2E2E2E2E2
310
E2E2E2E2E2E2E2E2E2E2E2E2E2E2E2E2E2E2E2E2E2E2E2E2E2E2E2E2E2E2E2E2E2E2E2E2E2E2E2E2E2E2E2E2E2E2E2E2E2E2E2E2E2E2E2E2E2E2F5F5E2E2E2F5F5F5F5F5F5F5F5E2E2E2E2E2E2E2E2E2F5F5F5F5F5F5F5F5F5F5F5F5F5F5F5F5E2E2E2E2E2E2E2E2E2F5F5F5F5F5F5F5F5F5F5F5F5F5F5F5E2E2E2E2E2E2E2
310
E2E2F5F5F5F5F5F5F5F5F5F5F5F5F5F5F5F5E2E2E2E2E2E2E2E2F5F5F5F5F5F5F5F5F5F5F5F5F5F5F5F5E2E2E2E2E2E2E2E2E2F5F5F5F5F5F5F5F5F5F5F5F5F5F5F5E2E2E2E2E2E2E2E2E2F5F5F5F5F5F5F5F5F5F5F5F5F5F5F5F5E2E2E2E2E2E2E2E2E2F5F5F5F5F5F5F5F5E2E2E2F5F5E2E2E2F5E2E2E2E2E2E2E2E2E2E2
310
E2E2E2E2E2E2E2E2E2E2E2E2E2E2E2E2E2E2E2E2E2E2E2E2E2E2E2E2E2E2E2E2E2E2E2E2E2E2E2E2E2E2E2E2E2E2E2E2E2E2E2E2E2E2E2E2E2E2E2E2E2E2E2E2E2E2E2E2E2E2E2E2E2E2E2E2E2E2E2E2E2E2E2E2E2E2E2E2E2E2E2E2E2E2E2E2E2E2E2E2E2E2E2E2E2E2E2E2E2E2E2E2E2E2E2E2E2E2E2E2E2E2E2E2E2E2E2
310
E2E2E2E2E2E2E2E2E2E2E2E2E2E2E2E2E2E2E2E2E2E2E2E2E2E2E2E2E2E2E2E2E2F5E2E2E2F5F5E2E2E2F5E2E2E2E2E2E2E2E2E2E2E2E2E2E2E2E2E2E2E2E2E2E2E2E2E2E2E2E2E2E2E2E2E2E2E2E2E2E2E2E2E2E2E2E2E2E2E2E2E2E2E2E2E2E2E2E2E2E2E2E2E2E2E2E2E2E2E2E2E2E2E2E2E2E2E2E2E2E2E2E2E2E2E2E2
310
E2E2E2E2E2E2E2E2E2E2E2E2E2E2E2E2E2E2E2E2E2E2E2E2E2E2E2E2E2E2E2E2E2E2E2E2E2E2E2E2E2E2E2E2E2E2E2E2E2E2E2E2E2E2E2E2E2E2E2E2E2E2E2E2E2E2E2E2E2E2E2E2E2E2E2E2E2E2E2E2E2E2E2E2E2E2F5E2E2E2F5F5E2E2E2F5E2E2E2E2E2E2E2E2E2E2E2E2E2E2E2E2E2E2E2E2E2E2E2E2E2E2E2E2E2E2E2
310
E2E2E2E2E2E2E2E2E2E2E2E2E2E2E2E2E2E2E2E2E2E2E2E2E2E2E2E2E2E2E2E2E2E2E2E2E2E2E2E2E2E2E2E2E2E2E2E2E2E2E2E2E2E2E2E2E2E2E2E2E2E2E2E2E2E2E2E2E2E2E2E2E2E2E2E2E2E2E2E2E2E2E2E2E2E2E2E2E2E2E2E2E2E2E2E2E2E2E2E2E2E2E2E2E2E2E2E2E2E2E2E2E2E2E2E2E2E2E2E2E2E2E2E2E2E2E2
310
E2E2E2E2E2E2E2E2E2E2E2E2F5E2E2E2F5F5E2E2E2F5E2E2E2E2E2E2E2E2E2E2E2E2E2E2E2E2E2E2E2E2E2E2E2E2E2E2E2E2E2E2E2E2E2E2E2E2E2E2E2E2E2E2E2E2E2E2E2E2E2E2E2E2E2E2E2E2E2E2E2E2E2E2E2E2E2E2E2E2E2E2E2E2E2E2E2E2E2E2E2E2E2E2E2E2E2E2E2E2E2E2E2E2E2E2E2E2E2E2E2E2E2E2E2E2E2
310
E2E2E2E2E2E2E2E2E2E2E2E2E2E2E2E2E2E2E2E2E2E2E2E2E2E2E2E2E2E2E2E2E2E2E2E2E2E2E2E2E2E2E2E2E2E2E2E2E2E2E2E2E2E2E2E2E2E2E2E2E2E2E2E2E2F5E2E2E2F5F5E2E2E2F5E2E2E2E2E2E2E2E2E2E2E2E2E2E2E2E2E2E2E2E2E2E2E2E2E2E2E2E2E2E2E2E2E2E2E2E2E2E2E2E2E2E2E2E2E2E2E2E2E2E2E2E2
310
E2E2E2E2E2E2E2E2E2E2E2E2E2E2E2E2E2E2E2E2E2E2E2E2E2E2E2E2E2E2E2E2E2E2E2E2E2E2E2E2E2E2E2E2E2E2E2E2E2E2E2E2E2E2E2E2E2E2E2E2E2E2E2E2E2E2E2E2E2E2E2E2E2E2E2E2E2E2E2E2E2E2E2E2E2E2E2E2E2E2E2E2E2E2E2E2E2E2E2E2E2E2E2E2E2E2E2E2E2E2E2E2E2E2E2E2E2E2F5E2E2E2F5F5E2E2E2
310
F5E2E2E2E2E2E2E2E2E2E2E2E2E2E2E2E2E2E2E2E2E2E2E2E2E2E2E2E2E2E2E2E2E2E2E2E2E2E2E2E2E2E2E2E2E2E2E2E2E2E2E2E2E2E2E2E2E2E2E2E2E2E2E2E2E2E2E2E2E2E2E2E2E2E2E2E2E2E2E2E2E2E2E2E2E2E2E2E2E2E2E2E2E2E2E2E2E2E2E2E2E2E2E2E2E2E2E2E2E2E2E2E2E2E2E2E2E2E2E2E2E2E2E2E2E2E2
310
E2E2E2E2E2E2E2E2E2E2E2E2E2E2E2E2E2E2E2E2E2E2E2E2E2E2E2E2E2E2E2E2E2E2E2E2E2E2E2E2E2E2E2E2F5E2E2E2F5F5E2E2E2F5E2E2E2E2E2E2E2E2E2E2E2E2E2E2E2E2E2E2E2E2E2E2E2E2E2E2E2E2E2E2E2E2E2E2E2E2E2E2E2E2E2E2E2E2E2E2E2E2E2E2E2E2E2E2E2E2E2E2E2E2E2E2E2E2E2E2E2E2E2E2E2E2E2
310
E2E2E2E2E2E2E2E2E2E2E2E2E2E2E2E2E2E2E2E2E2E2E2E2E2E2E2E2E2E2E2E2E2E2E2E2E2E2E2E2E2E2E2E2E2E2E2E2E2E2E2E2E2E2E2E2E2E2E2E2E2E2E2E2E2E2E2E2E2E2E2E2E2E2E2E2E2E2E2E2E2E2E2E2E2E2E2E2E2E2E2E2E2E2E2E2E2F5E2E2E2F5F5E2E2E2F5E2E2E2E2E2E2E2E2E2E2E2E2E2E2E2E2E2E2E2E2
310
E2E2E2E2E2E2E2E2E2E2E2E2E2E2E2E2E2E2E2E2E2E2E2E2E2E2E2E2E2E2E2E2E2E2E2E2E2E2E2E2E2E2E2E2E2E2E2E2E2E2E2E2E2E2E2E2E2E2E2E2E2E2E2E2E2E2E2E2E2E2E2E2E2E2E2E2E2E2E2E2E2E2E2E2E2E2E2E2E2E2E2E2E2E2E2E2E2E2E2E2E2E2E2E2E2E2E2E2E2E2E2E2E2E2E2E2E2E2E2E2E2E2E2E2E2E2E2
310
E2E2E2E2E2E2E2E2E2E2E2E2E2E2E2E2E2E2E2E2E2E2E2F5E2E2E2F5F5E2E2E2E2E2E2E2E2E2E2E2E2E2E2E2E2E2E2E2E2E2E2E2E2E2E2E2E2E2E2E2E2E2E2E2E2E2E2E2E2E2E2E2E2E2E2E2E2E2E2E2E2E2E2E2E2E2E2E2E2E2E2E2E2E2E2E2E2E2E2E2E2E2E2E2E2E2E2E2E2E2E2E2E2E2E2E2E2E2E2E2E2E2E2E2E2E2E2
310
E2E2E2E2E2E2E2E2E2E2E2E2E2E2E2E2E2E2E2E2E2E2E2E2E2E2E2E2E2E2E2E2E2E2E2E2E2E2E2E2E2E2E2E2E2E2E2E2E2E2E2E2E2E2E2E2E2E2E2E2E2E2E2E2E2E2E2E2E2E2E2E2E2E2E2E2E2E2E2E2F5F5E2E2E2E2E2E2E2E2E2E2E2E2E2E2E2E2E2E2E2E2E2E2E2E2E2E2E2E2E2E2E2E2E2E2E2E2E2E2E2E2E2E2E2E2E2
310
E2E2E2E2E2E2E2E2E2E2E2E2E2E2E2E2E2E2E2E2E2E2E2E2E2E2E2E2E2E2E2E2E2E2E2E2E2E2E2E2E2E2E2E2E2E2E2E2E2E2E2E2E2E2E2E2E2E2E2E2E2E2E2E2E2E2E2E2E2E2E2E2E2E2E2E2E2E2E2E2E2E2E2E2E2E2E2E2E2E2E2E2E2E2E2E2E2E2E2E2E2E2E2E2E2E2E2E2E2E2E2E2E2E2E2E2E2E2E2E2E2E2E2E2E2E2E2
310
E2E2E2E2E2E2F5F5E2E2E2E2E2E2E2E2E2E2E2E2E2E2E2E2E2E2E2E2E2E2E2E2E2E2E2E2E2E2E2E2E2E2E2E2E2E2E2E2E2E2E2E2E2E2E2E2E2E2E2E2E2E2E2E2E2E2E2E2E2E2E2E2E2E2E2E2E2E2E2E2E2E2E2E2E2E2E2E2E2E2E2E2E2E2E2E2E2E2E2E2E2E2E2E2E2E2E2E2E2E2E2E2E2E2E2E2E2E2E2E2E2E2E2E2E2E2E2
310
E2E2E2E2E2E2E2E2E2E2E2E2E2E2E2E2E2E2E2E2E2E2E2E2E2E2E2E2E2E2E2E2E2E2E2E2E2E2E2E2E2E2E2E2E2E2E2E2E2E2E2E2E2E2E2E2E2E2E2F5F5E2E2E2E2E2E2E2E2E2E2E2E2E2E2E2E2E2E2E2E2E2E2E2E2E2E2E2E2E2E2E2E2E2E2E2E2E2E2E2E2E2E2E2E2E2E2E2E2E2E2E2E2E2E2E2E2E2E2E2E2E2E2E2E2E2E2
310
E2E2E2E2E2E2E2E2E2E2E2E2E2E2E2E2E2E2E2E2E2E2E2E2E2E2E2E2E2E2E2E2E2E2E2E2E2E2E2E2E2E2E2E2E2E2E2E2E2E2E2E2E2E2E2E2E2E2E2E2E2E2E2E2E2E2E2E2E2E2E2E2E2E2E2E2E2E2E2E2E2E2E2E2E2E2E2E2E2E2E2E2E2E2E2E2E2E2E2E2E2E2E2E2E2E2E2E2E2E2E2E2F5F5E2E2E2E2E2E2E2E2E2E2E2E2E2
310
E2E2E2E2E2E2E2F5F5F5F5F5F5F5F5F5F5F5F5F5F5F5F5F5F5F5F5F5F5F5F5F5F5F5F5F5F5F5F5F5F5F5F5F5F5F5F5F5F5F5F5F5F5F5F5F5F5F5F5F5F5F5F5F5F5F5F5F5F5F5F5F5F5F5F5F5F5F5F5F5F5F5F5F5F5F5F5F5F5F5F5F5F5F5F5F5F5F5F5F5F5F5F5F5F5F5F5F5F5F5F5F5F5F5F5F5F5F5F5F5F5F5F5F5F5F5F5
310
F5F5F5F5F5F5F5F5F5F5F5F5F5F5F5F5F5F5E2E2E2E2E2E2E2E2E2E2E2E2E2E2E2E2E2E2E2E2F5F5E2E2E2E2E2E2E2E2E2E2E2E2E2E2E2E2E2E2E2E2F5E2E2E2E2E2E2E2E2E2E2E2E2E2E2E2E2E2E2E2E2E2E2E2E2E2E2E2E2E2E2E2E2E2E2E2E2E2E2E2E2E2E2E2E2E2E2E2E2E2E2E2E2E2E2E2E2E2E2E2E2E2E2E2E2E2E2
310
E2E2E2E2E2E2E2E2E2E2E2E2E2E2E2E2E2E2E2E2E2E2E2E2E2E2E2E2E2E2E2E2E2E2E2E2E2E2E2E2E2E2E2E2E2E2E2E2E2E2E2E2E2E2E2E2E2E2E2E2E2E2E2E2E2E2E2E2E2E2F5E2E2E2E2E2E2E2E2E2E2E2E2E2E2E2E2E2E2E2E2F5F5E2E2E2E2E2E2E2E2E2E2E2E2E2E2E2E2E2E2E2E2F5E2E2E2E2E2E2E2E2E2E2E2E2E2
310
E2E2E2E2E2E2E2E2E2E2E2E2E2E2E2E2E2E2E2E2E2E2E2E2E2E2E2E2E2E2E2E2E2E2E2E2E2E2E2E2E2E2E2E2E2E2E2E2E2E2E2E2E2E2E2E2E2E2E2E2E2E2E2E2E2E2E2E2E2E2E2E2E2E2E2E2E2E2E2E2E2E2E2E2E2E2E2E2E2E2E2E2E2E2E2E2E2E2E2E2E2E2E2E2E2E2E2E2E2E2E2E2E2E2E2E2E2E2E2E2E2E2E2F5E2E2E2
310
E2E2E2E2E2E2E2E2E2E2E2E2E2E2E2E2E2F5F5E2E2E2E2E2E2E2E2E2E2E2E2E2E2E2E2E2E2E2E2F5E2E2E2E2E2E2E2E2E2E2E2E2E2E2E2E2E2E2E2E2E2E2E2E2E2E2E2E2E2E2E2E2E2E2E2E2E2E2E2E2E2E2E2E2E2E2E2E2E2E2E2E2E2E2E2E2E2E2E2E2E2E2E2E2E2E2E2E2E2E2E2E2E2E2E2E2E2E2E2E2E2E2E2E2E2E2E2
310
E2E2E2E2E2E2E2E2E2E2E2E2E2E2E2E2E2E2E2E2E2E2E2E2E2E2E2E2E2E2E2E2E2E2E2E2E2E2E2E2E2E2E2E2E2E2E2E2E2F5E2E2E2E2E2E2E2E2E2E2E2E2E2E2E2E2E2E2E2E2F5F5E2E2E2E2E2E2E2E2E2E2E2E2E2E2E2E2E2E2E2E2F5E2E2E2E2E2E2E2E2E2E2E2E2E2E2E2E2E2E2E2E2E2E2E2E2E2E2E2E2E2E2E2E2E2E2
310
E2E2E2E2E2E2E2E2E2E2E2E2E2E2E2E2E2E2E2E2E2E2E2E2E2E2E2E2E2E2E2E2E2E2E2E2E2E2E2E2E2E2E2E2E2E2E2E2E2E2E2E2E2E2E2E2E2E2E2E2E2E2E2E2E2E2E2E2E2E2E2E2E2E2E2E2E2E2E2E2E2E2E2E2E2E2E2E2E2E2E2E2E2E2E2E2E2E2E2E2E2E2F5E2E2E2E2E2E2E2E2E2E2E2E2E2E2E2E2E2E2E2E2F5F5E2E2
310
E2F5E2E2E2E2E2E2E2E2E2E2E2E2E2E2E2E2F5E2E2E2E2E2E2E2E2E2E2E2E2E2E2E2E2E2E2E2E2E2E2E2E2E2E2E2E2E2E2E2E2E2E2E2E2E2E2E2E2E2E2E2E2E2E2E2E2E2E2E2E2E2E2E2E2E2E2E2E2E2E2E2E2E2E2E2E2E2E2E2E2E2E2E2E2E2E2E2E2E2E2E2E2E2E2E2E2E2E2E2E2E2E2E2E2E2E2E2E2E2E2E2E2E2E2E2E2
310
E2E2E2E2E2E2E2E2E2E2E2E2E2E2E2E2E2E2E2E2E2E2E2E2E2E2E2E2F5E2E2E2E2E2E2E2E2E2E2E2E2E2E2E2E2F5E2E2E2F5F5E2E2E2F5E2E2E2E2E2E2E2E2E2E2E2E2E2E2E2E2F5E2E2E2E2E2E2E2E2E2E2E2E2E2E2E2E2E2E2E2E2E2E2E2E2E2E2E2E2E2E2E2E2E2E2E2E2E2E2E2E2E2E2E2E2E2E2E2E2E2E2E2E2E2E2E2
310
E2E2E2E2E2E2E2E2E2E2E2E2E2E2E2E2E2E2E2E2E2E2E2E2E2E2E2E2E2E2E2E2E2E2E2E2E2E2E2E2E2E2E2E2E2E2E2E2E2E2E2E2E2E2E2E2E2E2E2E2E2E2E2E2E2E2E2E2E2E2E2E2E2E2E2E2E2E2E2E2E2F5E2E2E2E2E2E2E2E2E2E2E2E2E2E2E2E2F5E2E2E2F5F5E2E2E2F5E2E2E2E2E2E2E2E2E2E2E2E2E2E2E2E2F5E2E2
310
E2E2E2E2E2E2E2E2E2E2E2E2E2E2E2E2E2E2E2E2E2E2E2E2E2E2E2E2E2E2E2E2E2E2E2E2E2E2E2E2E2E2E2E2E2E2E2E2E2E2E2E2E2E2E2E2E2E2E2E2E2E2E2E2E2E2E2E2E2E2E2E2E2E2E2E2E2E2E2E2E2E2E2E2E2E2E2E2E2E2E2E2E2E2E2E2E2E2E2E2E2E2E2E2E2E2E2E2E2E2E2E2E2E2E2E2E2E2E2E2E2E2E2E2E2E2E2
310
E2E2E2E2E2E2E2F5E2E2E2E2E2E2E2E2E2E2E2E2E2E2E2E2F5E2E2E2F5F5E2E2E2F5E2E2E2E2E2E2E2E2E2E2E2E2E2E2E2E2F5E2E2E2E2E2E2E2E2E2E2E2E2E2E2E2E2E2E2E2E2E2E2E2E2E2E2E2E2E2E2E2E2E2E2E2E2E2E2E2E2E2E2E2E2E2E2E2E2E2E2E2E2E2E2E2E2E2E2E2E2E2E2E2E2E2E2E2E2E2E2E2E2E2E2E2E2
310
E2E2E2E2E2E2E2E2E2E2E2E2E2E2E2E2E2E2E2E2E2E2E2E2E2E2E2E2E2E2E2E2E2E2E2E2E2E2E2E2E2E2E2E2E2E2E2E2E2E2E2E2E2E2E2E2E2E2E2E2F5E2E2E2E2E2E2E2E2E2E2E2E2E2E2E2E2F5E2E2E2F5F5E2E2E2F5E2E2E2E2E2E2E2E2E2E2E2E2E2E2E2E2F5E2E2E2E2E2E2E2E2E2E2E2E2E2E2E2E2E2E2E2E2E2E2E2
310
E2E2E2E2E2E2E2E2E2E2E2E2E2E2E2E2E2E2E2E2E2E2E2E2E2E2E2E2E2E2E2E2E2E2E2E2E2E2E2E2E2E2E2E2E2E2E2E2E2E2E2E2E2E2E2E2E2E2E2E2E2E2E2E2E2E2E2E2E2E2E2E2E2E2E2E2E2E2E2E2E2E2E2E2E2E2E2E2E2E2E2E2E2E2E2E2E2E2E2E2E2E2E2E2E2E2E2E2E2E2E2E2E2F5E2E2E2E2E2E2E2E2E2E2E2E2E2
310
E2E2E2F5E2E2E2F5F5E2E2E2F5E2E2E2E2E2E2E2E2E2E2E2E2E2E2E2E2F5E2E2E2E2E2E2E2E2E2E2E2E2E2E2E2E2E2E2E2E2E2E2E2E2E2E2E2E2E2E2E2E2E2E2E2E2E2E2E2E2E2E2E2E2E2E2E2E2E2E2E2E2E2E2E2E2E2E2E2E2E2E2E2E2E2E2E2E2E2E2E2E2E2E2E2E2E2E2E2E2E2E2E2E2E2E2E2E2E2E2E2E2E2E2E2E2E2
310
E2E2E2E2E2E2E2E2E2E2E2E2E2E2E2E2E2E2E2E2E2E2E2E2E2E2E2E2E2E2E2E2E2E2E2E2E2E2E2F5E2E2E2E2E2E2E2E2E2E2E2E2E2E2E2E2F5E2E2E2F5F5E2E2E2F5E2E2E2E2E2E2E2E2E2E2E2E2E2E2E2E2F5E2E2E2E2E2E2E2E2E2E2E2E2E2E2E2E2E2E2E2E2E2E2E2E2E2E2E2E2E2E2E2E2E2E2E2E2E2E2E2E2E2E2E2E2
310
E2E2E2E2E2E2E2E2E2E2E2E2E2E2E2E2E2E2E2E2E2E2E2E2E2E2E2E2E2E2E2E2E2E2E2E2E2E2E2E2E2E2E2E2E2E2E2E2E2E2E2E2E2E2E2E2E2E2E2E2E2E2E2E2E2E2E2E2E2E2E2E2E2E2E2E2E2E2E2E2E2E2E2E2E2E2E2E2E2E2E2E2F5E2E2E2E2E2E2E2E2E2E2E2E2E2E2E2E2F5E2E2E2F5F5E2E2E2F5E2E2E2E2E2E2E2E2
310
E2E2E2E2E2E2E2E2F5E2E2E2E2E2E2E2E2E2E2E2E2E2E2E2E2E2E2E2E2E2E2E2E2E2E2E2E2E2E2E2E2E2E2E2E2E2E2E2E2E2E2E2E2E2E2E2E2E2E2E2E2E2E2E2E2E2E2E2E2E2E2E2E2E2E2E2E2E2E2E2E2E2E2E2E2E2E2E2E2E2E2E2E2E2E2E2E2E2E2E2E2E2E2E2E2E2E2E2E2E2E2E2E2E2E2E2E2E2E2E2E2E2E2E2E2E2E2
310
E2E2E2E2E2E2E2E2E2E2E2E2E2E2E2E2E2E2F5E2E2E2E2E2E2E2E2E2E2E2E2E2E2E2E2F5E2E2E2F5F5E2E2E2F5E2E2E2E2E2E2E2E2E2E2E2E2E2E2E2E2F5E2E2E2E2E2E2E2E2E2E2E2E2E2E2E2E2E2E2E2E2E2E2E2E2E2E2E2E2E2E2E2E2E2E2E2E2E2E2E2E2E2E2E2E2E2E2E2E2E2E2E2E2E2E2E2E2E2E2E2E2E2E2E2E2E2
310
E2E2E2E2E2E2E2E2E2E2E2E2E2E2E2E2E2E2E2E2E2E2E2E2E2E2E2E2E2E2E2E2E2E2E2E2E2E2E2E2E2E2E2E2E2E2E2E2E2E2E2E2E2E2E2E2E2E2E2E2E2E2E2E2E2E2E2E2E2E2E2F5E2E2E2E2E2E2E2E2E2E2E2E2E2E2E2E2F5E2E2E2F5F5E2E2E2F5E2E2E2E2E2E2E2E2E2E2E2E2E2E2E2E2F5E2E2E2E2E2E2E2E2E2E2E2E2
310
E2E2E2E2E2E2E2E2E2E2E2E2E2E2E2E2E2E2E2E2E2E2E2E2E2E2E2E2E2E2E2E2E2E2E2E2E2E2E2E2E2E2E2E2E2E2E2E2E2E2E2E2E2E2E2E2E2E2E2E2E2E2E2E2E2E2E2E2E2E2E2E2E2E2E2E2E2E2E2E2E2E2E2E2E2E2E2E2E2E2E2E2E2E2E2E2E2E2E2E2E2E2E2E2E2E2E2E2E2E2E2E2E2E2E2E2E2E2E2E2E2E2E2E2F5E2E2
310
E2E2E2E2E2E2E2E2E2E2E2E2E2E2F5E2E2E2F5F5E2E2E2F5E2E2E2E2E2E2E2E2E2E2E2E2E2E2E2E2F5E2E2E2E2E2E2E2E2E2E2E2E2E2E2E2E2E2E2E2E2E2E2E2E2E2E2E2E2E2E2E2E2E2E2E2E2E2E2E2E2E2E2E2E2E2E2E2E2E2E2E2E2E2E2E2E2E2E2E2E2E2E2E2E2E2E2E2E2E2E2E2E2E2E2E2E2E2E2E2E2E2E2E2E2E2E2
310
E2E2E2E2E2E2E2E2E2E2E2E2E2E2E2E2E2E2E2E2E2E2E2E2E2E2E2E2E2E2E2E2E2E2E2E2E2E2E2E2E2E2E2E2E2E2E2E2E2E2F5E2E2E2E2E2E2E2E2E2E2E2E2E2E2E2E2F5E2E2E2F5F5E2E2E2F5E2E2E2E2E2E2E2E2E2E2E2E2E2E2E2E2F5E2E2E2E2E2E2E2E2E2E2E2E2E2E2E2E2E2E2E2E2E2E2E2E2E2E2E2E2E2E2E2E2E2
310
E2E2E2E2E2E2E2E2E2E2E2E2E2E2E2E2E2E2E2E2E2E2E2E2E2E2E2E2E2E2E2E2E2E2E2E2E2E2E2E2E2E2E2E2E2E2E2E2E2E2E2E2E2E2E2E2E2E2E2E2E2E2E2E2E2E2E2E2E2E2E2E2E2E2E2E2E2E2E2E2E2E2E2E2E2E2E2E2E2E2E2E2E2E2E2E2E2E2E2E2E2E2E2F5E2E2E2E2E2E2E2E2E2E2E2E2E2E2E2E2F5E2E2E2F5F5E2
310
E2E2F5E2E2E2E2E2E2E2E2E2E2E2E2E2E2E2E2F5E2E2E2E2E2E2E2E2E2E2E2E2E2E2E2E2E2E2E2E2E2E2E2E2E2E2E2E2E2E2E2E2E2E2E2E2E2E2E2E2E2E2E2E2E2E2E2E2E2E2E2E2E2E2E2E2E2E2E2E2E2E2E2E2E2E2E2E2E2E2E2E2E2E2E2E2E2E2E2E2E2E2E2E2E2E2E2E2E2E2E2E2E2E2E2E2E2E2E2E2E2E2E2E2E2E2E2
310
E2E2E2E2E2E2E2E2E2E2E2E2E2E2E2E2E2E2E2E2E2E2E2E2E2E2E2E2E2F5E2E2E2E2E2E2E2E2E2E2E2E2E2E2E2E2F5E2E2E2F5F5E2E2E2F5E2E2E2E2E2E2E2E2E2E2E2E2E2E2E2E2F5E2E2E2E2E2E2E2E2E2E2E2E2E2E2E2E2E2E2E2E2E2E2E2E2E2E2E2E2E2E2E2E2E2E2E2E2E2E2E2E2E2E2E2E2E2E2E2E2E2E2E2E2E2E2
310
E2E2E2E2E2E2E2E2E2E2E2E2E2E2E2E2E2E2E2E2E2E2E2E2E2E2E2E2E2E2E2E2E2E2E2E2E2E2E2E2E2E2E2E2E2E2E2E2E2E2E2E2E2E2E2E2E2E2E2E2E2E2E2E2E2E2E2E2E2E2E2E2E2E2E2E2E2E2E2E2E2E2F5E2E2E2E2E2E2E2E2E2E2E2E2E2E2E2E2F5E2E2E2F5F5E2E2E2F5E2E2E2E2E2E2E2E2E2E2E2E2E2E2E2E2F5E2
310
E2E2E2E2E2E2E2E2E2E2E2E2E2E2E2E2E2E2E2E2E2E2E2E2E2E2E2E2E2E2E2E2E2E2E2E2E2E2E2E2E2E2E2E2E2E2E2E2E2E2E2E2E2E2E2E2E2E2E2E2E2E2E2E2E2E2E2E2E2E2E2E2E2E2E2E2E2E2E2E2E2E2E2E2E2E2E2E2E2E2E2E2E2E2E2E2E2E2E2E2E2E2E2E2E2E2E2E2E2E2E2E2E2E2E2E2E2E2E2E2E2E2E2E2E2E2E2
310
E2E2E2E2E2E2E2E2F5E2E2E2E2E2E2E2E2E2E2E2E2E2E2E2E2F5E2E2E2F5F5E2E2E2F5E2E2E2E2E2E2E2E2E2E2E2E2E2E2E2E2F5E2E2E2E2E2E2E2E2E2E2E2E2E2E2E2E2E2E2E2E2E2E2E2E2E2E2E2E2E2E2E2E2E2E2E2E2E2E2E2E2E2E2E2E2E2E2E2E2E2E2E2E2E2E2E2E2E2E2E2E2E2E2E2E2E2E2E2E2E2E2E2E2E2E2E2
310
E2E2E2E2E2E2E2E2E2E2E2E2E2E2E2E2E2E2E2E2E2E2E2E2E2E2E2E2E2E2E2E2E2E2E2E2E2E2E2E2E2E2E2E2E2E2E2E2E2E2E2E2E2E2E2E2E2E2E2E2E2F5E2E2E2E2E2E2E2E2E2E2E2E2E2E2E2E2F5E2E2E2F5F5E2E2E2F5E2E2E2E2E2E2E2E2E2E2E2E2E2E2E2E2F5E2E2E2E2E2E2E2E2E2E2E2E2E2E2E2E2E2E2E2E2E2E2
310
E2E2E2E2E2E2E2E2E2E2E2E2E2E2E2E2E2E2E2E2E2E2E2E2E2E2E2E2E2E2E2E2E2E2E2E2E2E2E2E2E2E2E2E2E2E2E2E2E2E2E2E2E2E2E2E2E2E2E2E2E2E2E2E2E2E2E2E2E2E2E2E2E2E2E2E2E2E2E2E2E2E2E2E2E2E2E2E2E2E2E2E2E2E2E2E2E2E2E2E2E2E2E2E2E2E2E2E2E2E2E2E2E2E2F5E2E2E2E2E2E2E2E2E2E2E2E2
310
E2E2E2E2F5E2E2E2F5F5E2E2E2E2E2E2E2E2E2E2E2E2E2E2E2E2E2E2E2E2F5E2E2E2E2E2E2E2E2E2E2E2E2E2E2E2E2E2E2E2E2E2E2E2E2E2E2E2E2E2E2E2E2E2E2E2E2E2E2E2E2E2E2E2E2E2E2E2E2E2E2E2E2E2E2E2E2E2E2E2E2E2E2E2E2E2E2E2E2E2E2E2E2E2E2E2E2E2E2E2E2E2E2E2E2E2E2E2E2E2E2E2E2E2E2E2E2
310
E2E2E2E2E2E2E2E2E2E2E2E2E2E2E2E2E2E2E2E2E2E2E2E2E2E2E2E2E2E2E2E2E2E2E2E2E2E2E2E2F5E2E2E2E2E2E2E2E2E2E2E2E2E2E2E2E2E2E2E2E2F5F5E2E2E2E2E2E2E2E2E2E2E2E2E2E2E2E2E2E2E2E2F5E2E2E2E2E2E2E2E2E2E2E2E2E2E2E2E2E2E2E2E2E2E2E2E2E2E2E2E2E2E2E2E2E2E2E2E2E2E2E2E2E2E2E2
310
E2E2E2E2E2E2E2E2E2E2E2E2E2E2E2E2E2E2E2E2E2E2E2E2E2E2E2E2E2E2E2E2E2E2E2E2E2E2E2E2E2E2E2E2E2E2E2E2E2E2E2E2E2E2E2E2E2E2E2E2E2E2E2E2E2E2E2E2E2E2E2E2E2E2E2E2E2E2E2E2E2E2E2E2E2E2E2E2E2E2E2E2E2F5E2E2E2E2E2E2E2E2E2E2E2E2E2E2E2E2E2E2E2E2F5F5E2E2E2E2E2E2E2E2E2E2E2
310
E2E2E2E2E2E2E2E2E2F5E2E2E2E2E2E2E2E2E2E2E2E2E2E2E2E2E2E2E2E2E2E2E2E2E2E2E2E2E2E2E2E2E2E2E2E2E2E2E2E2E2E2E2E2E2E2E2E2E2E2E2E2E2E2E2E2E2E2E2E2E2E2E2E2E2E2E2E2E2E2E2E2E2E2E2E2E2E2E2E2E2E2E2E2E2E2E2E2E2E2E2E2E2E2E2E2E2E2E2E2E2E2E2E2E2E2E2E2E2E2E2E2E2E2E2E2E2
310
E2E2E2E2E2E2E2E2E2E2E2E2E2E2E2E2E2E2E2F5E2E2E2E2E2E2E2E2E2E2E2E2E2E2E2E2E2E2E2E2F5F5E2E2E2E2E2E2E2E2E2E2E2E2E2E2E2E2E2E2E2E2F5E2E2E2E2E2E2E2E2E2E2E2E2E2E2E2E2E2E2E2E2E2E2E2E2E2E2E2E2E2E2E2E2E2E2E2E2E2E2E2E2E2E2E2E2E2E2E2E2E2E2E2E2E2E2E2E2E2E2E2E2E2E2E2E2
310
E2E2E2E2E2E2E2E2E2E2E2E2E2E2E2E2E2E2E2E2E2E2E2E2E2E2E2E2E2E2E2E2E2E2E2E2E2E2E2E2E2E2E2E2E2E2E2E2E2E2E2E2E2E2E2E2E2E2E2E2E2E2E2E2E2E2E2E2E2E2E2E2F5E2E2E2E2E2E2E2E2E2E2E2E2E2E2E2E2E2E2E2E2F5F5E2E2E2E2E2E2E2E2E2E2E2E2E2E2E2E2E2E2E2E2F5E2E2E2E2E2E2E2E2E2E2E2
310
E2E2E2E2E2E2E2E2E2E2E2E2E2E2E2E2E2E2E2E2E2E2E2E2E2E2E2E2E2E2E2E2E2E2E2E2E2E2E2E2E2E2E2E2E2E2E2E2E2E2E2E2E2E2E2E2E2E2E2E2E2E2E2E2E2E2E2E2E2E2E2E2E2E2E2E2E2E2E2E2E2E2E2E2E2E2E2E2E2E2E2E2E2E2E2E2E2E2E2E2E2E2E2E2E2E2E2E2E2E2E2E2E2E2E2E2E2E2E2E2E2E2E2E2E2F5E2
310
E2E2E2E2E2E2E2E2E2E2E2E2E2E2E2E2E2E2E2F5F5E2E2E2E2E2E2E2E2E2E2E2E2E2E2E2E2E2E2E2E2F5E2E2E2E2E2E2E2E2E2E2E2E2E2E2E2E2E2E2E2E2E2E2E2E2E2E2E2E2E2E2E2E2E2E2E2E2E2E2E2E2E2E2E2E2E2E2E2E2E2E2E2E2E2E2E2E2E2E2E2E2E2E2E2E2E2E2E2E2E2E2E2E2E2E2E2E2E2E2E2E2E2E2E2E2E2
310
E2E2E2E2E2E2E2E2E2E2E2E2E2E2E2E2E2E2E2E2E2E2E2E2E2E2E2E2E2E2E2E2E2E2E2E2E2E2E2E2E2E2E2E2E2E2E2E2E2E2E2F5E2E2E2E2E2E2E2E2E2E2E2E2E2E2E2E2E2E2E2E2F5F5E2E2E2E2E2E2E2E2E2E2E2E2E2E2E2E2E2E2E2E2F5E2E2E2E2E2E2E2E2E2E2E2E2E2E2E2E2E2E2E2E2E2E2E2E2E2E2E2E2E2E2E2E2
310
E2E2E2E2E2E2E2E2E2E2E2E2E2E2E2E2E2E2E2E2E2E2E2E2E2E2E2E2E2E2E2E2E2E2E2E2E2E2E2E2E2E2E2E2E2E2E2E2E2E2E2E2E2E2E2E2E2E2E2E2E2E2E2E2E2E2E2E2E2E2E2E2E2E2E2E2E2E2E2E2E2E2E2E2E2E2E2E2E2E2E2E2E2E2E2E2E2E2E2E2E2E2E2E2F5E2E2E2E2E2E2E2E2E2E2E2E2E2E2E2E2E2E2E2E2F5F5
310
E2E2E2E2E2E2E2E2E2E2E2E2E2E2E2E2E2E2E2E2F5E2E2E2E2E2E2E2E2E2E2E2E2E2E2E2E2E2E2E2E2E2E2E2E2E2E2E2E2E2E2E2E2E2E2E2E2E2E2E2E2E2E2E2E2E2E2E2E2E2E2E2E2E2E2E2E2E2E2E2E2E2E2E2E2E2E2E2E2E2E2E2E2E2E2E2E2E2E2E2E2E2E2E2E2E2E2E2E2E2E2E2E2E2E2E2E2E2E2E2E2E2E2E2E2E2E2
310
E2E2E2E2E2E2E2E2E2E2E2E2E2E2E2E2E2E2E2E2E2E2E2E2E2E2E2E2E2E2F5E2E2E2E2E2E2E2E2E2E2E2E2E2E2E2E2E2E2E2E2F5F5E2E2E2E2E2E2E2E2E2E2E2E2E2E2E2E2E2E2E2E2F5E2E2E2E2E2E2E2E2E2E2E2E2E2E2E2E2E2E2E2E2E2E2E2E2E2E2E2E2E2E2E2E2E2E2E2E2E2E2E2E2E2E2E2E2E2E2E2E2E2E2E2E2E2
310
E2E2E2E2E2E2E2E2E2E2E2E2E2E2E2E2E2E2E2E2E2E2E2E2E2E2E2E2E2E2E2E2E2E2E2E2E2E2E2E2E2E2E2E2E2E2E2E2E2E2E2E2E2E2E2E2E2E2E2E2E2E2E2E2E2E2E2E2E2E2E2E2E2E2E2E2E2E2E2E2E2E2E2F5E2E2E2E2E2E2E2E2E2E2E2E2E2E2E2E2E2E2E2E2F5F5E2E2E2F5E2E2E2E2E2E2E2E2E2E2E2E2E2E2E2E2F5
310
E2E2E2E2E2E2E2E2E2E2E2E2E2E2E2E2E2E2E2E2E2E2E2E2E2E2E2E2E2E2E2E2E2E2E2E2E2E2E2E2E2E2E2E2E2E2E2E2E2E2E2E2E2E2E2E2E2E2E2E2E2E2E2E2E2E2E2E2E2E2E2E2E2E2E2E2E2E2E2E2E2E2E2E2E2E2E2E2E2E2E2E2E2E2E2E2E2E2E2E2E2E2E2E2E2E2E2E2E2E2E2E2E2E2E2E2E2E2E2E2E2E2E2E2E2E2E2
310
E2E2E2E2E2E2E2E2E2F5E2E2E2E2E2E2E2E2E2E2E2E2E2E2E2E2F5E2E2E2F5F5E2E2E2F5E2E2E2E2E2E2E2E2E2E2E2E2E2E2E2E2F5E2E2E2E2E2E2E2E2E2E2E2E2E2E2E2E2E2E2E2E2E2E2E2E2E2E2E2E2E2E2E2E2E2E2E2E2E2E2E2E2E2E2E2E2E2E2E2E2E2E2E2E2E2E2E2E2E2E2E2E2E2E2E2E2E2E2E2E2E2E2E2E2E2E2
310
E2E2E2E2E2E2E2E2E2E2E2E2E2E2E2E2E2E2E2E2E2E2E2E2E2E2E2E2E2E2E2E2E2E2E2E2E2E2E2E2E2E2E2E2E2E2E2E2E2E2E2E2E2E2E2E2E2E2E2E2E2E2F5E2E2E2E2E2E2E2E2E2E2E2E2E2E2E2E2F5E2E2E2F5F5E2E2E2F5E2E2E2E2E2E2E2E2E2E2E2E2E2E2E2E2F5E2E2E2E2E2E2E2E2E2E2E2E2E2E2E2E2E2E2E2E2E2
310
E2E2E2E2E2E2E2E2E2E2E2E2E2E2E2E2E2E2E2E2E2E2E2E2E2E2E2E2E2E2E2E2E2E2E2E2E2E2E2E2E2E2E2E2E2E2E2E2E2E2E2E2E2E2E2E2E2E2E2E2E2E2E2E2E2E2E2E2E2E2E2E2E2E2E2E2E2E2E2E2E2E2E2E2E2E2E2E2E2E2E2E2E2E2E2E2E2E2E2E2E2E2E2E2E2E2E2E2E2E2E2E2E2E2E2F5E2E2E2E2E2E2E2E2E2E2E2
310
E2E2E2E2E2F5E2E2E2F5F5E2E2E2F5E2E2E2E2E2E2E2E2E2E2E2E2E2E2E2E2F5E2E2E2E2E2E2E2E2E2E2E2E2E2E2E2E2E2E2E2E2E2E2E2E2E2E2E2E2E2E2E2E2E2E2E2E2E2E2E2E2E2E2E2E2E2E2E2E2E2E2E2E2E2E2E2E2E2E2E2E2E2E2E2E2E2E2E2E2E2E2E2E2E2E2E2E2E2E2E2E2E2E2E2E2E2E2E2E2E2E2E2E2E2E2E2
310
E2E2E2E2E2E2E2E2E2E2E2E2E2E2E2E2E2E2E2E2E2E2E2E2E2E2E2E2E2E2E2E2E2E2E2E2E2E2E2E2E2F5E2E2E2E2E2E2E2E2E2E2E2E2E2E2E2E2F5E2E2E2F5F5E2E2E2F5E2E2E2E2E2E2E2E2E2E2E2E2E2E2E2E2F5E2E2E2E2E2E2E2E2E2E2E2E2E2E2E2E2E2E2E2E2E2E2E2E2E2E2E2E2E2E2E2E2E2E2E2E2E2E2E2E2E2E2
310
E2E2E2E2E2E2E2E2E2E2E2E2E2E2E2E2E2E2E2E2E2E2E2E2E2E2E2E2E2E2E2E2E2E2E2E2E2E2E2E2E2E2E2E2E2E2E2E2E2E2E2E2E2E2E2E2E2E2E2E2E2E2E2E2E2E2E2E2E2E2E2E2E2E2E2E2E2E2E2E2E2E2E2E2E2E2E2E2E2E2E2E2E2E2F5E2E2E2E2E2E2E2E2E2E2E2E2E2E2E2E2F5E2E2E2F5F5E2E2E2F5E2E2E2E2E2E2
310
E2E2E2E2E2E2E2E2E2E2F5E2E2E2E2E2E2E2E2E2E2E2E2E2E2E2E2E2E2E2E2E2E2E2E2E2E2E2E2E2E2E2E2E2E2E2E2E2E2E2E2E2E2E2E2E2E2E2E2E2E2E2E2E2E2E2E2E2E2E2E2E2E2E2E2E2E2E2E2E2E2E2E2E2E2E2E2E2E2E2E2E2E2E2E2E2E2E2E2E2E2E2E2E2E2E2E2E2E2E2E2E2E2E2E2E2E2E2E2E2E2E2E2E2E2E2E2
310
E2E2E2E2E2E2E2E2E2E2E2E2E2E2E2E2E2E2E2E2F5E2E2E2E2E2E2E2E2E2E2E2E2E2E2E2E2F5E2E2E2F5F5E2E2E2F5E2E2E2E2E2E2E2E2E2E2E2E2E2E2E2E2F5E2E2E2E2E2E2E2E2E2E2E2E2E2E2E2E2E2E2E2E2E2E2E2E2E2E2E2E2E2E2E2E2E2E2E2E2E2E2E2E2E2E2E2E2E2E2E2E2E2E2E2E2E2E2E2E2E2E2E2E2E2E2E2
310
E2E2E2E2E2E2E2E2E2E2E2E2E2E2E2E2E2E2E2E2E2E2E2E2E2E2E2E2E2E2E2E2E2E2E2E2E2E2E2E2E2E2E2E2E2E2E2E2E2E2E2E2E2E2E2E2E2E2E2E2E2E2E2E2E2E2E2E2E2E2E2E2E2F5E2E2E2E2E2E2E2E2E2E2E2E2E2E2E2E2F5E2E2E2F5F5E2E2E2F5E2E2E2E2E2E2E2E2E2E2E2E2E2E2E2E2F5E2E2E2E2E2E2E2E2E2E2
310
E2E2E2E2E2E2E2E2E2E2E2E2E2E2E2E2E2E2E2E2E2E2E2E2E2E2E2E2E2E2E2E2E2E2E2E2E2E2E2E2E2E2E2E2E2E2E2E2E2E2E2E2E2E2E2E2E2E2E2E2E2E2E2E2E2E2E2E2E2E2E2E2E2E2E2E2E2E2E2E2E2E2E2E2E2E2E2E2E2E2E2E2E2E2E2E2E2E2E2E2E2E2E2E2E2E2E2E2E2E2E2E2E2E2E2E2E2E2E2E2E2E2E2E2E2E2F5
310
E2E2E2E2E2E2E2E2E2E2E2E2E2E2E2E2F5E2E2E2F5F5E2E2E2F5E2E2E2E2E2E2E2E2E2E2E2E2E2E2E2E2F5E2E2E2E2E2E2E2E2E2E2E2E2E2E2E2E2E2E2E2E2E2E2E2E2E2E2E2E2E2E2E2E2E2E2E2E2E2E2E2E2E2E2E2E2E2E2E2E2E2E2E2E2E2E2E2E2E2E2E2E2E2E2E2E2E2E2E2E2E2E2E2E2E2E2E2E2E2E2E2E2E2E2E2E2
310
E2E2E2E2E2E2E2E2E2E2E2E2E2E2E2E2E2E2E2E2E2E2E2E2E2E2E2E2E2E2E2E2E2E2E2E2E2E2E2E2E2E2E2E2E2E2E2E2E2E2E2E2F5E2E2E2E2E2E2E2E2E2E2E2E2E2E2E2E2F5E2E2E2F5F5E2E2E2F5E2E2E2E2E2E2E2E2E2E2E2E2E2E2E2E2F5E2E2E2E2E2E2E2E2E2E2E2E2E2E2E2E2E2E2E2E2E2E2E2E2E2E2E2E2E2E2E2
310
E2E2E2E2E2E2E2E2E2E2E2E2E2E2E2E2E2E2E2E2E2E2E2E2E2E2E2E2E2E2E2E2E2E2E2E2E2E2E2E2E2E2E2E2E2E2E2E2E2E2E2E2E2E2E2E2E2E2E2E2E2E2E2E2E2E2E2E2E2E2E2E2E2E2E2E2E2E2E2E2E2E2E2E2E2E2E2E2E2E2E2E2E2E2E2E2E2E2E2E2E2E2E2E2E2F5E2E2E2E2E2E2E2E2E2E2E2E2E2E2E2E2F5E2E2E2F5
310
F5E2E2E2F5E2E2E2E2E2E2E2E2E2E2E2E2E2E2E2E2F5E2E2E2E2E2E2E2E2E2E2E2E2E2E2E2E2E2E2E2E2E2E2E2E2E2E2E2E2E2E2E2E2E2E2E2E2E2E2E2E2E2E2E2E2E2E2E2E2E2E2E2E2E2E2E2E2E2E2E2E2E2E2E2E2E2E2E2E2E2E2E2E2E2E2E2E2E2E2E2E2E2E2E2E2E2E2E2E2E2E2E2E2E2E2E2E2E2E2E2E2E2E2E2E2E2
310
E2E2E2E2E2E2E2E2E2E2E2E2E2E2E2E2E2E2E2E2E2E2E2E2E2E2E2E2E2E2E2F5E2E2E2E2E2E2E2E2E2E2E2E2E2E2E2E2F5E2E2E2F5F5E2E2E2F5E2E2E2E2E2E2E2E2E2E2E2E2E2E2E2E2F5E2E2E2E2E2E2E2E2E2E2E2E2E2E2E2E2E2E2E2E2E2E2E2E2E2E2E2E2E2E2E2E2E2E2E2E2E2E2E2E2E2E2E2E2E2E2E2E2E2E2E2E2
310
E2E2E2E2E2E2E2E2E2E2E2E2E2E2E2E2E2E2E2E2E2E2E2E2E2E2E2E2E2E2E2E2E2E2E2E2E2E2E2E2E2E2E2E2E2E2E2E2E2E2E2E2E2E2E2E2E2E2E2E2E2E2E2E2E2E2E2E2E2E2E2E2E2E2E2E2E2E2E2E2E2E2E2E2F5E2E2E2E2E2E2E2E2E2E2E2E2E2E2E2E2F5E2E2E2F5F5E2E2E2F5E2E2E2E2E2E2E2E2E2E2E2E2E2E2E2E2
310
F5E2E2E2E2E2E2E2E2E2E2E2E2E2E2E2E2E2E2E2E2E2E2E2E2E2E2E2E2E2E2E2E2E2E2E2E2E2E2E2E2E2E2E2E2E2E2E2E2E2E2E2E2E2E2E2E2E2E2E2E2E2E2E2E2E2E2E2E2E2E2E2E2E2E2E2E2E2E2E2E2E2E2E2E2E2E2E2E2E2E2E2E2E2E2E2E2E2E2E2E2E2E2E2E2E2E2E2E2E2E2E2E2E2E2E2E2E2E2E2E2E2E2E2E2E2E2
310
E2E2E2E2E2E2E2E2E2E2F5E2E2E2E2E2E2E2E2E2E2E2E2E2E2E2E2F5E2E2E2F5F5E2E2E2F5E2E2E2E2E2E2E2E2E2E2E2E2E2E2E2E2F5E2E2E2E2E2E2E2E2E2E2E2E2E2E2E2E2E2E2E2E2E2E2E2E2E2E2E2E2E2E2E2E2E2E2E2E2E2E2E2E2E2E2E2E2E2E2E2E2E2E2E2E2E2E2E2E2E2E2E2E2E2E2E2E2E2E2E2E2E2E2E2E2E2
310
E2E2E2E2E2E2E2E2E2E2E2E2E2E2E2E2E2E2E2E2E2E2E2E2E2E2E2E2E2E2E2E2E2E2E2E2E2E2E2E2E2E2E2E2E2E2E2E2E2E2E2E2E2E2E2E2E2E2E2E2E2E2E2F5E2E2E2E2E2E2E2E2E2E2E2E2E2E2E2E2F5E2E2E2F5F5E2E2E2F5E2E2E2E2E2E2E2E2E2E2E2E2E2E2E2E2F5E2E2E2E2E2E2E2E2E2E2E2E2E2E2E2E2E2E2E2E2
310
E2E2E2E2E2E2E2E2E2E2E2E2E2E2E2E2E2E2E2E2E2E2E2E2E2E2E2E2E2E2E2E2E2E2E2E2E2E2E2E2E2E2E2E2E2E2E2E2E2E2E2E2E2E2E2E2E2E2E2E2E2E2E2E2E2E2E2E2E2E2E2E2E2E2E2E2E2E2E2E2E2E2E2E2E2E2E2E2E2E2E2E2E2E2E2E2E2E2E2E2E2E2E2E2E2E2E2E2E2E2E2E2E2E2E2E2F5E2E2E2E2E2E2E2E2E2E2
310
E2E2E2E2E2E2F5E2E2E2F5F5E2E2E2F5E2E2E2E2E2E2E2E2E2E2E2E2E2E2E2E2F5E2E2E2E2E2E2E2E2E2E2E2E2E2E2E2E2E2E2E2E2E2E2E2E2E2E2E2E2E2E2E2E2E2E2E2E2E2E2E2E2E2E2E2E2E2E2E2E2E2E2E2E2E2E2E2E2E2E2E2E2E2E2E2E2E2E2E2E2E2E2E2E2E2E2E2E2E2E2E2E2E2E2E2E2E2E2E2E2E2E2E2E2E2E2
310
E2E2E2E2E2E2E2E2E2E2E2E2E2E2E2E2E2E2E2E2E2E2E2E2E2E2E2E2E2E2E2E2E2E2E2E2E2E2E2E2E2E2F5E2E2E2E2E2E2E2E2E2E2E2E2E2E2E2E2F5E2E2E2F5F5E2E2E2E2E2E2E2E2E2E2E2E2E2E2E2E2E2E2E2E2F5E2E2E2E2E2E2E2E2E2E2E2E2E2E2E2E2E2E2E2E2E2E2E2E2E2E2E2E2E2E2E2E2E2E2E2E2E2E2E2E2E2
310
E2E2E2E2E2E2E2E2E2E2E2E2E2E2E2E2E2E2E2E2E2E2E2E2E2E2E2E2E2E2E2E2E2E2E2E2E2E2E2E2E2E2E2E2E2E2E2E2E2E2E2E2E2E2E2E2E2E2E2E2E2E2E2E2E2E2E2E2E2E2E2E2E2E2E2E2E2E2E2E2E2E2E2E2E2E2E2E2E2E2E2E2E2E2E2F5E2E2E2E2E2E2E2E2E2E2E2E2E2E2E2E2E2E2E2E2F5F5E2E2E2E2E2E2E2E2E2
310
E2E2E2E2E2E2E2E2E2E2E2F5E2E2E2E2E2E2E2E2E2E2E2E2E2E2E2E2E2E2E2E2E2E2E2E2E2E2E2E2E2E2E2E2E2E2E2E2E2E2E2E2E2E2E2E2E2E2E2E2E2E2E2E2E2E2E2E2E2E2E2E2E2E2E2E2E2E2E2E2E2E2E2E2E2E2E2E2E2E2E2E2E2E2E2E2E2E2E2E2E2E2E2E2E2E2E2E2E2E2E2E2E2E2E2E2E2E2E2E2E2E2E2E2E2E2E2
310
E2E2E2E2E2E2E2E2E2E2E2E2E2E2E2E2E2E2E2E2E2F5E2E2E2E2E2E2E2E2E2E2E2E2E2E2E2E2E2E2E2E2F5F5E2E2E2E2E2E2E2E2E2E2E2E2E2E2E2E2E2E2E2E2F5E2E2E2E2E2E2E2E2E2E2E2E2E2E2E2E2E2E2E2E2E2E2E2E2E2E2E2E2E2E2E2E2E2E2E2E2E2E2E2E2E2E2E2E2E2E2E2E2E2E2E2E2E2E2E2E2E2E2E2E2E2E2
310
E2E2E2E2E2E2E2E2E2E2E2E2E2E2E2E2E2E2E2E2E2E2E2E2E2E2E2E2E2E2E2E2E2E2E2E2E2E2E2E2E2E2E2E2E2E2E2E2E2E2E2E2E2E2E2E2E2E2E2E2E2E2E2E2E2E2E2E2E2E2E2E2E2E2F5E2E2E2E2E2E2E2E2E2E2E2E2E2E2E2E2E2E2E2E2F5F5E2E2E2E2E2E2E2E2E2E2E2E2E2E2E2E2E2E2E2E2F5E2E2E2E2E2E2E2E2E2
310
E2E2E2E2E2E2E2E2E2E2E2E2E2E2E2E2E2E2E2E2E2E2E2E2E2E2E2E2E2E2E2E2E2E2E2E2E2E2E2E2E2E2E2E2E2E2E2E2E2E2E2E2E2E2E2E2E2E2E2E2E2E2E2E2E2E2E2E2E2E2E2E2E2E2E2E2E2E2E2E2E2E2E2E2E2E2E2E2E2E2E2E2E2E2E2E2E2E2E2E2E2E2E2E2E2E2E2E2E2E2E2E2E2E2E2E2E2E2E2E2E2E2E2E2E2E2E2
310
F5E2E2E2E2E2E2E2E2E2E2E2E2E2E2E2E2E2E2E2E2F5F5E2E2E2E2E2E2E2E2E2E2E2E2E2E2E2E2E2E2E2E2F5E2E2E2E2E2E2E2E2E2E2E2E2E2E2E2E2E2E2E2E2E2E2E2E2E2E2E2E2E2E2E2E2E2E2E2E2E2E2E2E2E2E2E2E2E2E2E2E2E2E2E2E2E2E2E2E2E2E2E2E2E2E2E2E2E2E2E2E2E2E2E2E2E2E2E2E2E2E2E2E2E2E2E2
310
E2E2E2E2E2E2E2E2E2E2E2E2E2E2E2E2E2E2E2E2E2E2E2E2E2E2E2E2E2E2E2E2E2E2E2E2E2E2E2E2E2E2E2E2E2E2E2E2E2E2E2E2E2F5E2E2E2E2E2E2E2E2E2E2E2E2E2E2E2E2E2E2E2E2F5F5E2E2E2E2E2E2E2E2E2E2E2E2E2E2E2E2E2E2E2E2F5E2E2E2E2E2E2E2E2E2E2E2E2E2E2E2E2E2E2E2E2E2E2E2E2E2E2E2E2E2E2
310
E2E2E2E2E2E2E2E2E2E2E2E2E2E2E2E2E2E2E2E2E2E2E2E2E2E2E2E2E2E2E2E2E2E2E2E2E2E2E2E2E2E2E2E2E2E2E2E2E2E2E2E2E2E2E2E2E2E2E2E2E2E2E2E2E2E2E2E2E2E2E2E2E2E2E2E2E2E2E2E2E2E2E2E2E2E2E2E2E2E2E2E2E2E2E2E2E2E2E2E2E2E2E2E2E2E2F5E2E2E2E2E2E2E2E2E2E2E2E2E2E2E2E2E2E2E2E2
310
F5F5E2E2E2E2E2E2E2E2E2E2E2E2E2E2E2E2E2E2E2E2F5E2E2E2E2E2E2E2E2E2E2E2E2E2E2E2E2E2E2E2E2E2E2E2E2E2E2E2E2E2E2E2E2E2E2E2E2E2E2E2E2E2E2E2E2E2E2E2E2E2E2E2E2E2E2E2E2E2E2E2E2E2E2E2E2E2E2E2E2E2E2E2E2E2E2E2E2E2E2E2E2E2E2E2E2E2E2E2E2E2E2E2E2E2E2E2E2E2E2E2E2E2E2E2E2
310
E2E2E2E2E2E2E2E2E2E2E2E2E2E2E2E2E2E2E2E2E2E2E2E2E2E2E2E2E2E2E2E2F5E2E2E2E2E2E2E2E2E2E2E2E2E2E2E2E2E2E2E2E2F5F5E2E2E2E2E2E2E2E2E2E2E2E2E2E2E2E2E2E2E2E2F5E2E2E2E2E2E2E2E2E2E2E2E2E2E2E2E2E2E2E2E2E2E2E2E2E2E2E2E2E2E2E2E2E2E2E2E2E2E2E2E2E2E2E2E2E2E2E2E2E2E2E2
310
E2E2E2E2E2E2E2E2E2E2E2E2E2E2E2E2E2E2E2E2E2E2E2E2E2E2E2E2E2E2E2E2E2E2E2E2E2E2E2E2E2E2E2E2E2E2E2E2E2E2E2E2E2E2E2E2E2E2E2E2E2E2E2E2E2E2E2E2E2E2E2E2E2E2E2E2E2E2E2E2E2E2E2E2E2F5E2E2E2E2E2E2E2E2E2E2E2E2E2E2E2E2E2E2E2E2F5F5E2E2E2E2E2E2E2E2E2E2E2E2E2E2E2E2E2E2E2
310
E2F5E2E2E2E2E2E2E2E2E2E2E2E2E2E2E2E2E2E2E2E2E2E2E2E2E2E2E2E2E2E2E2E2E2E2E2E2E2E2E2E2E2E2E2E2E2E2E2E2E2E2E2E2E2E2E2E2E2E2E2E2E2E2E2E2E2E2E2E2E2E2E2E2E2E2E2E2E2E2E2E2E2E2E2E2E2E2E2E2E2E2E2E2E2E2E2E2E2E2E2E2E2E2E2E2E2E2E2E2E2E2E2E2E2E2E2E2E2E2E2E2E2E2E2E2E2
310
E2E2E2E2E2E2E2E2E2E2E2F5E2E2E2E2E2E2E2E2E2E2E2E2E2E2E2E2E2E2E2E2F5F5E2E2E2E2E2E2E2E2E2E2E2E2E2E2E2E2E2E2E2E2F5E2E2E2E2E2E2E2E2E2E2E2E2E2E2E2E2E2E2E2E2E2E2E2E2E2E2E2E2E2E2E2E2E2E2E2E2E2E2E2E2E2E2E2E2E2E2E2E2E2E2E2E2E2E2E2E2E2E2E2E2E2E2E2E2E2E2E2E2E2E2E2E2
310
E2E2E2E2E2E2E2E2E2E2E2E2E2E2E2E2E2E2E2E2E2E2E2E2E2E2E2E2E2E2E2E2E2E2E2E2E2E2E2E2E2E2E2E2E2E2E2E2E2E2E2E2E2E2E2E2E2E2E2E2E2E2E2E2F5E2E2E2E2E2E2E2E2E2E2E2E2E2E2E2E2E2E2E2E2F5F5E2E2E2F5E2E2E2E2E2E2E2E2E2E2E2E2E2E2E2E2F5E2E2E2E2E2E2E2E2E2E2E2E2E2E2E2E2E2E2E2
310
E2E2E2E2E2E2E2E2E2E2E2E2E2E2E2E2E2E2E2E2E2E2E2E2E2E2E2E2E2E2E2E2E2E2E2E2E2E2E2E2E2E2E2E2E2E2E2E2E2E2E2E2E2E2E2E2E2E2E2E2E2E2E2E2E2E2E2E2E2E2E2E2E2E2E2E2E2E2E2E2E2E2E2E2E2E2E2E2E2E2E2E2E2E2E2E2E2E2E2E2E2E2E2E2E2E2E2E2E2E2E2E2E2E2E2E2E2F5E2E2E2E2E2E2E2E2E2
310
E2E2E2E2E2E2E2F5E2E2E2F5F5E2E2E2F5E2E2E2E2E2E2E2E2E2E2E2E2E2E2E2E2F5E2E2E2E2E2E2E2E2E2E2E2E2E2E2E2E2E2E2E2E2E2E2E2E2E2E2E2E2E2E2E2E2E2E2E2E2E2E2E2E2E2E2E2E2E2E2E2E2E2E2E2E2E2E2E2E2E2E2E2E2E2E2E2E2E2E2E2E2E2E2E2E2E2E2E2E2E2E2E2E2E2E2E2E2E2E2E2E2E2E2E2E2E2
310
E2E2E2E2E2E2E2E2E2E2E2E2E2E2E2E2E2E2E2E2E2E2E2E2E2E2E2E2E2E2E2E2E2E2E2E2E2E2E2E2E2E2E2F5E2E2E2E2E2E2E2E2E2E2E2E2E2E2E2E2F5E2E2E2F5F5E2E2E2F5E2E2E2E2E2E2E2E2E2E2E2E2E2E2E2E2F5E2E2E2E2E2E2E2E2E2E2E2E2E2E2E2E2E2E2E2E2E2E2E2E2E2E2E2E2E2E2E2E2E2E2E2E2E2E2E2E2
310
E2E2E2E2E2E2E2E2E2E2E2E2E2E2E2E2E2E2E2E2E2E2E2E2E2E2E2E2E2E2E2E2E2E2E2E2E2E2E2E2E2E2E2E2E2E2E2E2E2E2E2E2E2E2E2E2E2E2E2E2E2E2E2E2E2E2E2E2E2E2E2E2E2E2E2E2E2E2E2E2E2E2E2E2E2E2E2E2E2E2E2E2E2E2E2E2F5E2E2E2E2E2E2E2E2E2E2E2E2E2E2E2E2F5E2E2E2F5F5E2E2E2F5E2E2E2E2
310
E2E2E2E2E2E2E2E2E2E2E2E2F5E2E2E2E2E2E2E2E2E2E2E2E2E2E2E2E2E2E2E2E2E2E2E2E2E2E2E2E2E2E2E2E2E2E2E2E2E2E2E2E2E2E2E2E2E2E2E2E2E2E2E2E2E2E2E2E2E2E2E2E2E2E2E2E2E2E2E2E2E2E2E2E2E2E2E2E2E2E2E2E2E2E2E2E2E2E2E2E2E2E2E2E2E2E2E2E2E2E2E2E2E2E2E2E2E2E2E2E2E2E2E2E2E2E2
310
E2E2E2E2E2E2E2E2E2E2E2E2E2E2E2E2E2E2E2E2E2E2F5E2E2E2E2E2E2E2E2E2E2E2E2E2E2E2E2F5E2E2E2F5F5E2E2E2F5E2E2E2E2E2E2E2E2E2E2E2E2E2E2E2E2F5E2E2E2E2E2E2E2E2E2E2E2E2E2E2E2E2E2E2E2E2E2E2E2E2E2E2E2E2E2E2E2E2E2E2E2E2E2E2E2E2E2E2E2E2E2E2E2E2E2E2E2E2E2E2E2E2E2E2E2E2E2
310
E2E2E2E2E2E2E2E2E2E2E2E2E2E2E2E2E2E2E2E2E2E2E2E2E2E2E2E2E2E2E2E2E2E2E2E2E2E2E2E2E2E2E2E2E2E2E2E2E2E2E2E2E2E2E2E2E2E2E2E2E2E2E2E2E2E2E2E2E2E2E2E2E2E2E2F5E2E2E2E2E2E2E2E2E2E2E2E2E2E2E2E2F5E2E2E2F5F5E2E2E2F5E2E2E2E2E2E2E2E2E2E2E2E2E2E2E2E2F5E2E2E2E2E2E2E2E2
310
E2E2E2E2E2E2E2E2E2E2E2E2E2E2E2E2E2E2E2E2E2E2E2E2E2E2E2E2E2E2E2E2E2E2E2E2E2E2E2E2E2E2E2E2E2E2E2E2E2E2E2E2E2E2E2E2E2E2E2E2E2E2E2E2E2E2E2E2E2E2E2E2E2E2E2E2E2E2E2E2E2E2E2E2E2E2E2E2E2E2E2E2E2E2E2E2E2E2E2E2E2E2E2E2E2E2E2E2E2E2E2E2E2E2E2E2E2E2E2E2E2E2E2E2E2E2E2
310
E2F5E2E2E2E2E2E2E2E2E2E2E2E2E2E2E2E2F5E2E2E2F5F5E2E2E2F5E2E2E2E2E2E2E2E2E2E2E2E2E2E2E2E2F5E2E2E2E2E2E2E2E2E2E2E2E2E2E2E2E2E2E2E2E2E2E2E2E2E2E2E2E2E2E2E2E2E2E2E2E2E2E2E2E2E2E2E2E2E2E2E2E2E2E2E2E2E2E2E2E2E2E2E2E2E2E2E2E2E2E2E2E2E2E2E2E2E2E2E2E2E2E2E2E2E2E2
310
E2E2E2E2E2E2E2E2E2E2E2E2E2E2E2E2E2E2E2E2E2E2E2E2E2E2E2E2E2E2E2E2E2E2E2E2E2E2E2E2E2E2E2E2E2E2E2E2E2E2E2E2E2E2F5E2E2E2E2E2E2E2E2E2E2E2E2E2E2E2E2F5E2E2E2F5F5E2E2E2F5E2E2E2E2E2E2E2E2E2E2E2E2E2E2E2E2F5E2E2E2E2E2E2E2E2E2E2E2E2E2E2E2E2E2E2E2E2E2E2E2E2E2E2E2E2E2
310
E2E2E2E2E2E2E2E2E2E2E2E2E2E2E2E2E2E2E2E2E2E2E2E2E2E2E2E2E2E2E2E2E2E2E2E2E2E2E2E2E2E2E2E2E2E2E2E2E2E2E2E2E2E2E2E2E2E2E2E2E2E2E2E2E2E2E2E2E2E2E2E2E2E2E2E2E2E2E2E2E2E2E2E2E2E2E2E2E2E2E2E2E2E2E2E2E2E2E2E2E2E2E2E2E2E2E2F5E2E2E2E2E2E2E2E2E2E2E2E2E2E2E2E2F5E2E2
310
E2F5F5E2E2E2F5E2E2E2E2E2E2E2E2E2E2E2E2E2E2E2E2F5E2E2E2E2E2E2E2E2E2E2E2E2E2E2E2E2E2E2E2E2E2E2E2E2E2E2E2E2E2E2E2E2E2E2E2E2E2E2E2E2E2E2E2E2E2E2E2E2E2E2E2E2E2E2E2E2E2E2E2E2E2E2E2E2E2E2E2E2E2E2E2E2E2E2E2E2E2E2E2E2E2E2E2E2E2E2E2E2E2E2E2E2E2E2E2E2E2E2E2E2E2E2E2
310
E2E2E2E2E2E2E2E2E2E2E2E2E2E2E2E2E2E2E2E2E2E2E2E2E2E2E2E2E2E2E2E2E2F5E2E2E2E2E2E2E2E2E2E2E2E2E2E2E2E2F5E2E2E2F5F5E2E2E2F5E2E2E2E2E2E2E2E2E2E2E2E2E2E2E2E2F5E2E2E2E2E2E2E2E2E2E2E2E2E2E2E2E2E2E2E2E2E2E2E2E2E2E2E2E2E2E2E2E2E2E2E2E2E2E2E2E2E2E2E2E2E2E2E2E2E2E2
310
E2E2E2E2E2E2E2E2E2E2E2E2E2E2E2E2E2E2E2E2E2E2E2E2E2E2E2E2E2E2E2E2E2E2E2E2E2E2E2E2E2E2E2E2E2E2E2E2E2E2E2E2E2E2E2E2E2E2E2E2E2E2E2E2E2E2E2E2E2E2E2E2E2E2E2E2E2E2E2E2E2E2E2E2E2E2F5E2E2E2E2E2E2E2E2E2E2E2E2E2E2E2E2F5E2E2E2F5F5E2E2E2F5E2E2E2E2E2E2E2E2E2E2E2E2E2E2
310
E2E2F5E2E2E2E2E2E2E2E2E2E2E2E2E2E2E2E2E2E2E2E2E2E2E2E2E2E2E2E2E2E2E2E2E2E2E2E2E2E2E2E2E2E2E2E2E2E2E2E2E2E2E2E2E2E2E2E2E2E2E2E2E2E2E2E2E2E2E2E2E2E2E2E2E2E2E2E2E2E2E2E2E2E2E2E2E2E2E2E2E2E2E2E2E2E2E2E2E2E2E2E2E2E2E2E2E2E2E2E2E2E2E2E2E2E2E2E2E2E2E2E2E2E2E2E2
310
E2E2E2E2E2E2E2E2E2E2E2E2F5E2E2E2E2E2E2E2E2E2E2E2E2E2E2E2E2F5E2E2E2F5F5E2E2E2F5E2E2E2E2E2E2E2E2E2E2E2E2E2E2E2E2F5E2E2E2E2E2E2E2E2E2E2E2E2E2E2E2E2E2E2E2E2E2E2E2E2E2E2E2E2E2E2E2E2E2E2E2E2E2E2E2E2E2E2E2E2E2E2E2E2E2E2E2E2E2E2E2E2E2E2E2E2E2E2E2E2E2E2E2E2E2E2E2
310
E2E2E2E2E2E2E2E2E2E2E2E2E2E2E2E2E2E2E2E2E2E2E2E2E2E2E2E2E2E2E2E2E2E2E2E2E2E2E2E2E2E2E2E2E2E2E2E2E2E2E2E2E2E2E2E2E2E2E2E2E2E2E2E2E2F5E2E2E2E2E2E2E2E2E2E2E2E2E2E2E2E2F5E2E2E2F5F5E2E2E2F5E2E2E2E2E2E2E2E2E2E2E2E2E2E2E2E2F5E2E2E2E2E2E2E2E2E2E2E2E2E2E2E2E2E2E2
310
E2E2E2E2E2E2E2E2E2E2E2E2E2E2E2E2E2E2E2E2E2E2E2E2E2E2E2E2E2E2E2E2E2E2E2E2E2E2E2E2E2E2E2E2E2E2E2E2E2E2E2E2E2E2E2E2E2E2E2E2E2E2E2E2E2E2E2E2E2E2E2E2E2E2E2E2E2E2E2E2E2E2E2E2E2E2E2E2E2E2E2E2E2E2E2E2E2E2E2E2E2E2E2E2E2E2E2E2E2E2E2E2E2E2E2E2E2E2F5E2E2E2E2E2E2E2E2
310
E2E2E2E2E2E2E2E2F5E2E2E2F5F5E2E2E2F5E2E2E2E2E2E2E2E2E2E2E2E2E2E2E2E2F5E2E2E2E2E2E2E2E2E2E2E2E2E2E2E2E2E2E2E2E2E2E2E2E2E2E2E2E2E2E2E2E2E2E2E2E2E2E2E2E2E2E2E2E2E2E2E2E2E2E2E2E2E2E2E2E2E2E2E2E2E2E2E2E2E2E2E2E2E2E2E2E2E2E2E2E2E2E2E2E2E2E2E2E2E2E2E2E2E2E2E2E2
310
E2E2E2E2E2E2E2E2E2E2E2E2E2E2E2E2E2E2E2E2E2E2E2E2E2E2E2E2E2E2E2E2E2E2E2E2E2E2E2E2E2E2E2E2F5E2E2E2E2E2E2E2E2E2E2E2E2E2E2E2E2F5E2E2E2F5F5E2E2E2F5E2E2E2E2E2E2E2E2E2E2E2E2E2E2E2E2F5E2E2E2E2E2E2E2E2E2E2E2E2E2E2E2E2E2E2E2E2E2E2E2E2E2E2E2E2E2E2E2E2E2E2E2E2E2E2E2
310
E2E2E2E2E2E2E2E2E2E2E2E2E2E2E2E2E2E2E2E2E2E2E2E2E2E2E2E2E2E2E2E2E2E2E2E2E2E2E2E2E2E2E2E2E2E2E2E2E2E2E2E2E2E2E2E2E2E2E2E2E2E2E2E2E2E2E2E2E2E2E2E2E2E2E2E2E2E2E2E2E2E2E2E2E2E2E2E2E2E2E2E2E2E2E2E2E2F5E2E2E2E2E2E2E2E2E2E2E2E2E2E2E2E2F5E2E2E2F5F5E2E2E2F5E2E2E2
310
E2E2E2E2E2E2E2E2E2E2E2E2E2F5E2E2E2E2E2E2E2E2E2E2E2E2E2E2E2E2E2E2E2E2E2E2E2E2E2E2E2E2E2E2E2E2E2E2E2E2E2E2E2E2E2E2E2E2E2E2E2E2E2E2E2E2E2E2E2E2E2E2E2E2E2E2E2E2E2E2E2E2E2E2E2E2E2E2E2E2E2E2E2E2E2E2E2E2E2E2E2E2E2E2E2E2E2E2E2E2E2E2E2E2E2E2E2E2E2E2E2E2E2E2E2E2E2
310
E2E2E2E2E2E2E2E2E2E2E2E2E2E2E2E2E2E2E2E2E2E2E2F5E2E2E2E2E2E2E2E2E2E2E2E2E2E2E2E2F5E2E2E2F5F5E2E2E2E2E2E2E2E2E2E2E2E2E2E2E2E2E2E2E2E2F5E2E2E2E2E2E2E2E2E2E2E2E2E2E2E2E2E2E2E2E2E2E2E2E2E2E2E2E2E2E2E2E2E2E2E2E2E2E2E2E2E2E2E2E2E2E2E2E2E2E2E2E2E2E2E2E2E2E2E2E2
310
E2E2E2E2E2E2E2E2E2E2E2E2E2E2E2E2E2E2E2E2E2E2E2E2E2E2E2E2E2E2E2E2E2E2E2E2E2E2E2E2E2E2E2E2E2E2E2E2E2E2E2E2E2E2E2E2E2E2E2E2E2E2E2E2E2E2E2E2E2E2E2E2E2E2E2E2F5E2E2E2E2E2E2E2E2E2E2E2E2E2E2E2E2E2E2E2E2F5F5E2E2E2E2E2E2E2E2E2E2E2E2E2E2E2E2E2E2E2E2F5E2E2E2E2E2E2E2
310
E2E2E2E2E2E2E2E2E2E2E2E2E2E2E2E2E2E2E2E2E2E2E2E2E2E2E2E2E2E2E2E2E2E2E2E2E2E2E2E2E2E2E2E2E2E2E2E2E2E2E2E2E2E2E2E2E2E2E2E2E2E2E2E2E2E2E2E2E2E2E2E2E2E2E2E2E2E2E2E2E2E2E2E2E2E2E2E2E2E2E2E2E2E2E2E2E2E2E2E2E2E2E2E2E2E2E2E2E2E2E2E2E2E2E2E2E2E2E2E2E2E2E2E2E2E2E2
310
E2E2F5E2E2E2E2E2E2E2E2E2E2E2E2E2E2E2E2E2E2E2E2F5F5E2E2E2E2E2E2E2E2E2E2E2E2E2E2E2E2E2E2E2E2F5E2E2E2E2E2E2E2E2E2E2E2E2E2E2E2E2E2E2E2E2E2E2E2E2E2E2E2E2E2E2E2E2E2E2E2E2E2E2E2E2E2E2E2E2E2E2E2E2E2E2E2E2E2E2E2E2E2E2E2E2E2E2E2E2E2E2E2E2E2E2E2E2E2E2E2E2E2E2E2E2E2
310
E2E2E2E2E2E2E2E2E2E2E2E2E2E2E2E2E2E2E2E2E2E2E2E2E2E2E2E2E2E2E2E2E2E2E2E2E2E2E2E2E2E2E2E2E2E2E2E2E2E2E2E2E2E2E2F5E2E2E2E2E2E2E2E2E2E2E2E2E2E2E2E2E2E2E2E2F5F5E2E2E2E2E2E2E2E2E2E2E2E2E2E2E2E2E2E2E2E2F5E2E2E2E2E2E2E2E2E2E2E2E2E2E2E2E2E2E2E2E2E2E2E2E2E2E2E2E2
310
E2E2E2E2E2E2E2E2E2E2E2E2E2E2E2E2E2E2E2E2E2E2E2E2E2E2E2E2E2E2E2E2E2E2E2E2E2E2E2E2E2E2E2E2E2E2E2E2E2E2E2E2E2E2E2E2E2E2E2E2E2E2E2E2E2E2E2E2E2E2E2E2E2E2E2E2E2E2E2E2E2E2E2E2E2E2E2E2E2E2E2E2E2E2E2E2E2E2E2E2E2E2E2E2E2E2E2E2F5E2E2E2E2E2E2E2E2E2E2E2E2E2E2E2E2E2E2
310
E2E2F5F5E2E2E2E2E2E2E2E2E2E2E2E2E2E2E2E2E2E2E2E2F5E2E2E2E2E2E2E2E2E2E2E2E2E2E2E2E2E2E2E2E2E2E2E2E2E2E2E2E2E2E2E2E2E2E2E2E2E2E2E2E2E2E2E2E2E2E2E2E2E2E2E2E2E2E2E2E2E2E2E2E2E2E2E2E2E2E2E2E2E2E2E2E2E2E2E2E2E2E2E2E2E2E2E2E2E2E2E2E2E2E2E2E2E2E2E2E2E2E2E2E2E2E2
310
E2E2E2E2E2E2E2E2E2E2E2E2E2E2E2E2E2E2E2E2E2E2E2E2E2E2E2E2E2E2E2E2E2E2F5E2E2E2E2E2E2E2E2E2E2E2E2E2E2E2E2E2E2E2E2F5F5E2E2E2E2E2E2E2E2E2E2E2E2E2E2E2E2E2E2E2E2F5E2E2E2E2E2E2E2E2E2E2E2E2E2E2E2E2E2E2E2E2E2E2E2E2E2E2E2E2E2E2E2E2E2E2E2E2E2E2E2E2E2E2E2E2E2E2E2E2E2
310
E2E2E2E2E2E2E2E2E2E2E2E2E2E2E2E2E2E2E2E2E2E2E2E2E2E2E2E2E2E2E2E2E2E2E2E2E2E2E2E2E2E2E2E2E2E2E2E2E2E2E2E2E2E2E2E2E2E2E2E2E2E2E2E2E2E2E2E2E2E2E2E2E2E2E2E2E2E2E2E2E2E2E2E2E2E2E2F5E2E2E2E2E2E2E2E2E2E2E2E2E2E2E2E2E2E2E2E2F5F5E2E2E2E2E2E2E2E2E2E2E2E2E2E2E2E2E2
310
E2E2E2F5E2E2E2E2E2E2E2E2E2E2E2E2E2E2E2E2E2E2E2E2E2E2E2E2E2E2E2E2E2E2E2E2E2E2E2E2E2E2E2E2E2E2E2E2E2E2E2E2E2E2E2E2E2E2E2E2E2E2E2E2E2E2E2E2E2E2E2E2E2E2E2E2E2E2E2E2E2E2E2E2E2E2E2E2E2E2E2E2E2E2E2E2E2E2E2E2E2E2E2E2E2E2E2E2E2E2E2E2E2E2E2E2E2E2E2E2E2E2E2E2E2E2E2
310
E2E2E2E2E2E2E2E2E2E2E2E2E2F5E2E2E2E2E2E2E2E2E2E2E2E2E2E2E2E2E2E2E2E2F5F5E2E2E2E2E2E2E2E2E2E2E2E2E2E2E2E2E2E2E2E2F5E2E2E2E2E2E2E2E2E2E2E2E2E2E2E2E2E2E2E2E2E2E2E2E2E2E2E2E2E2E2E2E2E2E2E2E2E2E2E2E2E2E2E2E2E2E2E2E2E2E2E2E2E2E2E2E2E2E2E2E2E2E2E2E2E2E2E2E2E2E2
310
E2E2E2E2E2E2E2E2E2E2E2E2E2E2E2E2E2E2E2E2E2E2E2E2E2E2E2E2E2E2E2E2E2E2E2E2E2E2E2E2E2E2E2E2E2E2E2E2E2E2E2E2E2E2E2E2E2E2E2E2E2E2E2E2E2E2F5E2E2E2E2E2E2E2E2E2E2E2E2E2E2E2E2E2E2E2E2F5F5E2E2E2E2E2E2E2E2E2E2E2E2E2E2E2E2E2E2E2E2F5E2E2E2E2E2E2E2E2E2E2E2E2E2E2E2E2E2
310
E2E2E2E2E2E2E2E2E2E2E2E2E2E2E2E2E2E2E2E2E2E2E2E2E2E2E2E2E2E2E2E2E2E2E2E2E2E2E2E2E2E2E2E2E2E2E2E2E2E2E2E2E2E2E2E2E2E2E2E2E2E2E2E2E2E2E2E2E2E2E2E2E2E2E2E2E2E2E2E2E2E2E2E2E2E2E2E2E2E2E2E2E2E2E2E2E2E2E2E2E2E2E2E2E2E2E2E2E2E2E2E2E2E2E2E2E2E2E2F5E2E2E2E2E2E2E2
310
E2E2E2E2E2E2E2E2E2E2E2E2E2F5F5E2E2E2F5E2E2E2E2E2E2E2E2E2E2E2E2E2E2E2E2F5E2E2E2E2E2E2E2E2E2E2E2E2E2E2E2E2E2E2E2E2E2E2E2E2E2E2E2E2E2E2E2E2E2E2E2E2E2E2E2E2E2E2E2E2E2E2E2E2E2E2E2E2E2E2E2E2E2E2E2E2E2E2E2E2E2E2E2E2E2E2E2E2E2E2E2E2E2E2E2E2E2E2E2E2E2E2E2E2E2E2E2
310
E2E2E2E2E2E2E2E2E2E2E2E2E2E2E2E2E2E2E2E2E2E2E2E2E2E2E2E2E2E2E2E2E2E2E2E2E2E2E2E2E2E2E2E2E2F5E2E2E2E2E2E2E2E2E2E2E2E2E2E2E2E2F5E2E2E2F5F5E2E2E2F5E2E2E2E2E2E2E2E2E2E2E2E2E2E2E2E2F5E2E2E2E2E2E2E2E2E2E2E2E2E2E2E2E2E2E2E2E2E2E2E2E2E2E2E2E2E2E2E2E2E2E2E2E2E2E2
310
E2E2E2E2E2E2E2E2E2E2E2E2E2E2E2E2E2E2E2E2E2E2E2E2E2E2E2E2E2E2E2E2E2E2E2E2E2E2E2E2E2E2E2E2E2E2E2E2E2E2E2E2E2E2E2E2E2E2E2E2E2E2E2E2E2E2E2E2E2E2E2E2E2E2E2E2E2E2E2E2E2E2E2E2E2E2E2E2E2E2E2E2E2E2E2E2E2E2F5E2E2E2E2E2E2E2E2E2E2E2E2E2E2E2E2F5E2E2E2F5F5E2E2E2F5E2E2
310
E2E2E2E2E2E2E2E2E2E2E2E2E2E2F5E2E2E2E2E2E2E2E2E2E2E2E2E2E2E2E2E2E2E2E2E2E2E2E2E2E2E2E2E2E2E2E2E2E2E2E2E2E2E2E2E2E2E2E2E2E2E2E2E2E2E2E2E2E2E2E2E2E2E2E2E2E2E2E2E2E2E2E2E2E2E2E2E2E2E2E2E2E2E2E2E2E2E2E2E2E2E2E2E2E2E2E2E2E2E2E2E2E2E2E2E2E2E2E2E2E2E2E2E2E2E2E2
310
E2E2E2E2E2E2E2E2E2E2E2E2E2E2E2E2E2E2E2E2E2E2E2E2F5E2E2E2E2E2E2E2E2E2E2E2E2E2E2E2E2F5E2E2E2F5F5E2E2E2F5E2E2E2E2E2E2E2E2E2E2E2E2E2E2E2E2F5E2E2E2E2E2E2E2E2E2E2E2E2E2E2E2E2E2E2E2E2E2E2E2E2E2E2E2E2E2E2E2E2E2E2E2E2E2E2E2E2E2E2E2E2E2E2E2E2E2E2E2E2E2E2E2E2E2E2E2
310
E2E2E2E2E2E2E2E2E2E2E2E2E2E2E2E2E2E2E2E2E2E2E2E2E2E2E2E2E2E2E2E2E2E2E2E2E2E2E2E2E2E2E2E2E2E2E2E2E2E2E2E2E2E2E2E2E2E2E2E2E2E2E2E2E2E2E2E2E2E2E2E2E2E2E2E2E2F5E2E2E2E2E2E2E2E2E2E2E2E2E2E2E2E2F5E2E2E2F5F5E2E2E2F5E2E2E2E2E2E2E2E2E2E2E2E2E2E2E2E2F5E2E2E2E2E2E2
310
E2E2E2E2E2E2E2E2E2E2E2E2E2E2E2E2E2E2E2E2E2E2E2E2E2E2E2E2E2E2E2E2E2E2E2E2E2E2E2E2E2E2E2E2E2E2E2E2E2E2E2E2E2E2E2E2E2E2E2E2E2E2E2E2E2E2E2E2E2E2E2E2E2E2E2E2E2E2E2E2E2E2E2E2E2E2E2E2E2E2E2E2E2E2E2E2E2E2E2E2E2E2E2E2E2E2E2E2E2E2E2E2E2E2E2E2E2E2E2E2E2E2E2E2E2E2E2
310
E2E2E2F5E2E2E2E2E2E2E2E2E2E2E2E2E2E2E2E2F5E2E2E2F5F5E2E2E2F5E2E2E2E2E2E2E2E2E2E2E2E2E2E2E2E2F5E2E2E2E2E2E2E2E2E2E2E2E2E2E2E2E2E2E2E2E2E2E2E2E2E2E2E2E2E2E2E2E2E2E2E2E2E2E2E2E2E2E2E2E2E2E2E2E2E2E2E2E2E2E2E2E2E2E2E2E2E2E2E2E2E2E2E2E2E2E2E2E2E2E2E2E2E2E2E2E2
310
E2E2E2E2E2E2E2E2E2E2E2E2E2E2E2E2E2E2E2E2E2E2E2E2E2E2E2E2E2E2E2E2E2E2E2E2E2E2E2E2E2E2E2E2E2E2E2E2E2E2E2E2E2E2E2E2F5E2E2E2E2E2E2E2E2E2E2E2E2E2E2E2E2F5E2E2E2F5F5E2E2E2F5E2E2E2E2E2E2E2E2E2E2E2E2E2E2E2E2F5E2E2E2E2E2E2E2E2E2E2E2E2E2E2E2E2E2E2E2E2E2E2E2E2E2E2E2
310
E2E2E2E2E2E2E2E2E2E2E2E2E2E2E2E2E2E2E2E2E2E2E2E2E2E2E2E2E2E2E2E2E2E2E2E2E2E2E2E2E2E2E2E2E2E2E2E2E2E2E2E2E2E2E2E2E2E2E2E2E2E2E2E2E2E2E2E2E2E2E2E2E2E2E2E2E2E2E2E2E2E2E2E2E2E2E2E2E2E2E2E2E2E2E2E2E2E2E2E2E2E2E2E2E2E2E2E2E2F5E2E2E2E2E2E2E2E2E2E2E2E2E2E2E2E2F5
310
E2E2E2F5F5E2E2E2F5E2E2E2E2E2E2E2E2E2E2E2E2E2E2E2E2F5E2E2E2E2E2E2E2E2E2E2E2E2E2E2E2E2E2E2E2E2E2E2E2E2E2E2E2E2E2E2E2E2E2E2E2E2E2E2E2E2E2E2E2E2E2E2E2E2E2E2E2E2E2E2E2E2E2E2E2E2E2E2E2E2E2E2E2E2E2E2E2E2E2E2E2E2E2E2E2E2E2E2E2E2E2E2E2E2E2E2E2E2E2E2E2E2E2E2E2E2E2
310
E2E2E2E2E2E2E2E2E2E2E2E2E2E2E2E2E2E2E2E2E2E2E2E2E2E2E2E2E2E2E2E2E2E2E2F5E2E2E2E2E2E2E2E2E2E2E2E2E2E2E2E2F5E2E2E2F5F5E2E2E2F5E2E2E2E2E2E2E2E2E2E2E2E2E2E2E2E2F5E2E2E2E2E2E2E2E2E2E2E2E2E2E2E2E2E2E2E2E2E2E2E2E2E2E2E2E2E2E2E2E2E2E2E2E2E2E2E2E2E2E2E2E2E2E2E2E2
310
E2E2E2E2E2E2E2E2E2E2E2E2E2E2E2E2E2E2E2E2E2E2E2E2E2E2E2E2E2E2E2E2E2E2E2E2E2E2E2E2E2E2E2E2E2E2E2E2E2E2E2E2E2E2E2E2E2E2E2E2E2E2E2E2E2E2E2E2E2E2E2E2E2E2E2E2E2E2E2E2E2E2E2E2E2E2E2E2F5E2E2E2E2E2E2E2E2E2E2E2E2E2E2E2E2F5E2E2E2F5F5E2E2E2F5E2E2E2E2E2E2E2E2E2E2E2E2
310
E2E2E2E2F5E2E2E2E2E2E2E2E2E2E2E2E2E2E2E2E2E2E2E2E2E2E2E2E2E2E2E2E2E2E2E2E2E2E2E2E2E2E2E2E2E2E2E2E2E2E2E2E2E2E2E2E2E2E2E2E2E2E2E2E2E2E2E2E2E2E2E2E2E2E2E2E2E2E2E2E2E2E2E2E2E2E2E2E2E2E2E2E2E2E2E2E2E2E2E2E2E2E2E2E2E2E2E2E2E2E2E2E2E2E2E2E2E2E2E2E2E2E2E2E2E2E2
310
E2E2E2E2E2E2E2E2E2E2E2E2E2E2F5E2E2E2E2E2E2E2E2E2E2E2E2E2E2E2E2F5E2E2E2F5F5E2E2E2F5E2E2E2E2E2E2E2E2E2E2E2E2E2E2E2E2F5E2E2E2E2E2E2E2E2E2E2E2E2E2E2E2E2E2E2E2E2E2E2E2E2E2E2E2E2E2E2E2E2E2E2E2E2E2E2E2E2E2E2E2E2E2E2E2E2E2E2E2E2E2E2E2E2E2E2E2E2E2E2E2E2E2E2E2E2E2
310
E2E2E2E2E2E2E2E2E2E2E2E2E2E2E2E2E2E2E2E2E2E2E2E2E2E2E2E2E2E2E2E2E2E2E2E2E2E2E2E2E2E2E2E2E2E2E2E2E2E2E2E2E2E2E2E2E2E2E2E2E2E2E2E2E2E2E2F5E2E2E2E2E2E2E2E2E2E2E2E2E2E2E2E2F5E2E2E2F5F5E2E2E2F5E2E2E2E2E2E2E2E2E2E2E2E2E2E2E2E2F5E2E2E2E2E2E2E2E2E2E2E2E2E2E2E2E2
310
E2E2E2E2E2E2E2E2E2E2E2E2E2E2E2E2E2E2E2E2E2E2E2E2E2E2E2E2E2E2E2E2E2E2E2E2E2E2E2E2E2E2E2E2E2E2E2E2E2E2E2E2E2E2E2E2E2E2E2E2E2E2E2E2E2E2E2E2E2E2E2E2E2E2E2E2E2E2E2E2E2E2E2E2E2E2E2E2E2E2E2E2E2E2E2E2E2E2E2E2E2E2E2E2E2E2E2E2E2E2E2E2E2E2E2E2E2E2E2E2F5E2E2E2E2E2E2
310
E2E2E2E2E2E2E2E2E2E2F5E2E2E2F5F5E2E2E2F5E2E2E2E2E2E2E2E2E2E2E2E2E2E2E2E2F5E2E2E2E2E2E2E2E2E2E2E2E2E2E2E2E2E2E2E2E2E2E2E2E2E2E2E2E2E2E2E2E2E2E2E2E2E2E2E2E2E2E2E2E2E2E2E2E2E2E2E2E2E2E2E2E2E2E2E2E2E2E2E2E2E2E2E2E2E2E2E2E2E2E2E2E2E2E2E2E2E2E2E2E2E2E2E2E2E2E2
310
E2E2E2E2E2E2E2E2E2E2E2E2E2E2E2E2E2E2E2E2E2E2E2E2E2E2E2E2E2E2E2E2E2E2E2E2E2E2E2E2E2E2E2E2E2E2F5E2E2E2E2E2E2E2E2E2E2E2E2E2E2E2E2F5E2E2E2F5F5E2E2E2F5E2E2E2E2E2E2E2E2E2E2E2E2E2E2E2E2F5E2E2E2E2E2E2E2E2E2E2E2E2E2E2E2E2E2E2E2E2E2E2E2E2E2E2E2E2E2E2E2E2E2E2E2E2E2
310
E2E2E2E2E2E2E2E2E2E2E2E2E2E2E2E2E2E2E2E2E2E2E2E2E2E2E2E2E2E2E2E2E2E2E2E2E2E2E2E2E2E2E2E2E2E2E2E2E2E2E2E2E2E2E2E2E2E2E2E2E2E2E2E2E2E2E2E2E2E2E2E2E2E2E2E2E2E2E2E2E2E2E2E2E2E2E2E2E2E2E2E2E2E2E2E2E2E2E2F5E2E2E2E2E2E2E2E2E2E2E2E2E2E2E2E2F5E2E2E2F5F5E2E2E2F5E2
310
E2E2E2E2E2E2E2E2E2E2E2E2E2E2E2F5E2E2E2E2E2E2E2E2E2E2E2E2E2E2E2E2E2E2E2E2E2E2E2E2E2E2E2E2E2E2E2E2E2E2E2E2E2E2E2E2E2E2E2E2E2E2E2E2E2E2E2E2E2E2E2E2E2E2E2E2E2E2E2E2E2E2E2E2E2E2E2E2E2E2E2E2E2E2E2E2E2E2E2E2E2E2E2E2E2E2E2E2E2E2E2E2E2E2E2E2E2E2E2E2E2E2E2E2E2E2E2
310
E2E2E2E2E2E2E2E2E2E2E2E2E2E2E2E2E2E2E2E2E2E2E2E2E2F5E2E2E2E2E2E2E2E2E2E2E2E2E2E2E2E2F5E2E2E2F5F5E2E2E2F5E2E2E2E2E2E2E2E2E2E2E2E2E2E2E2E2F5E2E2E2E2E2E2E2E2E2E2E2E2E2E2E2E2E2E2E2E2E2E2E2E2E2E2E2E2E2E2E2E2E2E2E2E2E2E2E2E2E2E2E2E2E2E2E2E2E2E2E2E2E2E2E2E2E2E2
310
E2E2E2E2E2E2E2E2E2E2E2E2E2E2E2E2E2E2E2E2E2E2E2E2E2E2E2E2E2E2E2E2E2E2E2E2E2E2E2E2E2E2E2E2E2E2E2E2E2E2E2E2E2E2E2E2E2E2E2E2E2E2E2E2E2E2E2E2E2E2E2E2E2E2E2E2E2E2F5E2E2E2E2E2E2E2E2E2E2E2E2E2E2E2E2F5E2E2E2F5F5E2E2E2F5E2E2E2E2E2E2E2E2E2E2E2E2E2E2E2E2F5E2E2E2E2E2
310
E2E2E2E2E2E2E2E2E2E2E2E2E2E2E2E2E2E2E2E2E2E2E2E2E2E2E2E2E2E2E2E2E2E2E2E2E2E2E2E2E2E2E2E2E2E2E2E2E2E2E2E2E2E2E2E2E2E2E2E2E2E2E2E2E2E2E2E2E2E2E2E2E2E2E2E2E2E2E2E2E2E2E2E2E2E2E2E2E2E2E2E2E2E2E2E2E2E2E2E2E2E2E2E2E2E2E2E2E2E2E2E2E2E2E2E2E2E2E2E2E2E2E2E2E2E2E2
310
E2E2E2E2F5E2E2E2E2E2E2E2E2E2E2E2E2E2E2E2E2F5E2E2E2F5F5E2E2E2E2E2E2E2E2E2E2E2E2E2E2E2E2E2E2E2E2F5E2E2E2E2E2E2E2E2E2E2E2E2E2E2E2E2E2E2E2E2E2E2E2E2E2E2E2E2E2E2E2E2E2E2E2E2E2E2E2E2E2E2E2E2E2E2E2E2E2E2E2E2E2E2E2E2E2E2E2E2E2E2E2E2E2E2E2E2E2E2E2E2E2E2E2E2E2E2E2
310
E2E2E2E2E2E2E2E2E2E2E2E2E2E2E2E2E2E2E2E2E2E2E2E2E2E2E2E2E2E2E2E2E2E2E2E2E2E2E2E2E2E2E2E2E2E2E2E2E2E2E2E2E2E2E2E2E2F5E2E2E2E2E2E2E2E2E2E2E2E2E2E2E2E2E2E2E2E2F5F5E2E2E2E2E2E2E2E2E2E2E2E2E2E2E2E2E2E2E2E2F5E2E2E2E2E2E2E2E2E2E2E2E2E2E2E2E2E2E2E2E2E2E2E2E2E2E2
310
E2E2E2E2E2E2E2E2E2E2E2E2E2E2E2E2E2E2E2E2E2E2E2E2E2E2E2E2E2E2E2E2E2E2E2E2E2E2E2E2E2E2E2E2E2E2E2E2E2E2E2E2E2E2E2E2E2E2E2E2E2E2E2E2E2E2E2E2E2E2E2E2E2E2E2E2E2E2E2E2E2E2E2E2E2E2E2E2E2E2E2E2E2E2E2E2E2E2E2E2E2E2E2E2E2E2E2E2E2E2F5E2E2E2E2E2E2E2E2E2E2E2E2E2E2E2E2
310
E2E2E2E2F5F5E2E2E2E2E2E2E2E2E2E2E2E2E2E2E2E2E2E2E2E2F5E2E2E2E2E2E2E2E2E2E2E2E2E2E2E2E2E2E2E2E2E2E2E2E2E2E2E2E2E2E2E2E2E2E2E2E2E2E2E2E2E2E2E2E2E2E2E2E2E2E2E2E2E2E2E2E2E2E2E2E2E2E2E2E2E2E2E2E2E2E2E2E2E2E2E2E2E2E2E2E2E2E2E2E2E2E2E2E2E2E2E2E2E2E2E2E2E2E2E2E2
310
E2E2E2E2E2E2E2E2E2E2E2E2E2E2E2E2E2E2E2E2E2E2E2E2E2E2E2E2E2E2E2E2E2E2E2E2F5E2E2E2E2E2E2E2E2E2E2E2E2E2E2E2E2E2E2E2E2F5F5E2E2E2E2E2E2E2E2E2E2E2E2E2E2E2E2E2E2E2E2F5E2E2E2E2E2E2E2E2E2E2E2E2E2E2E2E2E2E2E2E2E2E2E2E2E2E2E2E2E2E2E2E2E2E2E2E2E2E2E2E2E2E2E2E2E2E2E2
310
E2E2E2E2E2E2E2E2E2E2E2E2E2E2E2E2E2E2E2E2E2E2E2E2E2E2E2E2E2E2E2E2E2E2E2E2E2E2E2E2E2E2E2E2E2E2E2E2E2E2E2E2E2E2E2E2E2E2E2E2E2E2E2E2E2E2E2E2E2E2E2E2E2E2E2E2E2E2E2E2E2E2E2E2E2E2E2E2E2F5E2E2E2E2E2E2E2E2E2E2E2E2E2E2E2E2E2E2E2E2F5F5E2E2E2E2E2E2E2E2E2E2E2E2E2E2E2
310
E2E2E2E2E2F5F5F5F5F5F5F5F5F5F5F5F5F5F5F5F5F5F5F5F5F5F5F5F5F5F5F5F5F5F5F5F5F5F5F5F5F5F5F5F5F5F5F5F5F5F5F5F5F5F5F5F5F5F5F5F5F5F5F5F5F5F5F5F5F5F5F5F5F5F5F5F5F5F5F5F5F5F5F5F5F5F5F5F5F5F5F5F5F5F5F5F5F5F5F5F5F5F5F5F5F5F5F5F5F5F5F5F5F5F5F5F5F5F5F5F5F5F5F5F5F5F5
310
F5F5F5F5F5F5F5F5F5F5F5F5F5F5F5F5E2E2E2E2E2E2E2E2E2E2E2E2E2E2E2E2E2E2E2E2F5F5E2E2E2E2E2E2E2E2E2E2E2E2E2E2E2E2E2E2E2E2E2E2E2E2E2E2E2E2E2E2E2E2E2E2E2E2E2E2E2E2E2E2E2E2E2E2E2E2E2E2E2E2E2E2E2E2E2E2E2E2E2E2E2E2E2E2E2E2E2E2E2E2E2E2E2E2E2E2E2E2E2E2E2E2E2E2E2E2E2
310
E2E2E2E2E2E2E2E2E2E2E2E2E2E2E2E2E2E2E2E2E2E2E2E2E2E2E2E2E2E2E2E2E2E2E2E2E2E2E2E2E2E2E2E2E2E2E2E2E2E2E2E2E2E2E2E2E2E2E2E2E2E2E2E2E2E2E2E2E2E2E2E2E2E2E2E2E2E2E2E2E2E2E2E2E2E2E2E2E2F5F5E2E2E2E2E2E2E2E2E2E2E2E2E2E2E2E2E2E2E2E2E2E2E2E2E2E2E2E2E2E2E2E2E2E2E2E2
310
E2E2E2E2E2E2E2E2E2E2E2E2E2E2E2E2E2E2E2E2E2E2E2E2E2E2E2E2E2E2E2E2E2E2E2E2E2E2E2E2E2E2E2E2E2E2E2E2E2E2E2E2E2E2E2E2E2E2E2E2E2E2E2E2E2E2E2E2E2E2E2E2E2E2E2E2E2E2E2E2E2E2E2E2E2E2E2E2E2E2E2E2E2E2E2E2E2E2E2E2E2E2E2E2E2E2E2E2E2E2E2E2E2E2E2E2E2E2E2E2E2E2E2E2E2E2E2
310
E2E2E2E2E2E2E2E2E2E2E2E2E2E2E2F5F5E2E2E2E2E2E2E2E2E2E2E2E2E2E2E2E2E2E2E2E2E2E2E2E2E2E2E2E2E2E2E2E2E2E2E2E2E2E2E2E2E2E2E2E2E2E2E2E2E2E2E2E2E2E2E2E2E2E2E2E2E2E2E2E2E2E2E2E2E2E2E2E2E2E2E2E2E2E2E2E2E2E2E2E2E2E2E2E2E2E2E2E2E2E2E2E2E2E2E2E2E2E2E2E2E2E2E2E2E2E2
310
E2E2E2E2E2E2E2E2E2E2E2E2E2E2E2E2E2E2E2E2E2E2E2E2E2E2E2E2E2E2E2E2E2E2E2E2E2E2E2E2E2E2E2E2E2E2E2E2E2E2E2E2E2E2E2E2E2E2E2E2E2E2E2E2E2E2E2E2F5F5E2E2E2E2E2E2E2E2E2E2E2E2E2E2E2E2E2E2E2E2E2E2E2E2E2E2E2E2E2E2E2E2E2E2E2E2E2E2E2E2E2E2E2E2E2E2E2E2E2E2E2E2E2E2E2E2E2
310
E2E2E2E2E2E2E2E2E2E2E2E2E2E2E2E2E2E2E2E2E2E2E2E2E2E2E2E2E2E2E2E2E2E2E2E2E2E2E2E2E2E2E2E2E2E2E2E2E2E2E2E2E2E2E2E2E2E2E2E2E2E2E2E2E2E2E2E2E2E2E2E2E2E2E2E2E2E2E2E2E2E2E2E2E2E2E2E2E2E2E2E2E2E2E2E2E2E2E2E2E2E2E2E2E2E2E2E2E2E2E2E2E2E2E2E2E2E2E2E2E2F5F5E2E2E2F5
310
E2E2E2E2E2E2E2E2E2E2E2E2E2E2E2E2E2E2E2E2E2E2E2E2E2E2E2E2E2E2E2E2E2E2E2E2E2E2E2E2E2E2E2E2E2E2E2E2E2E2E2E2E2E2E2E2E2E2E2E2E2E2E2E2E2E2E2E2E2E2E2E2E2E2E2E2E2E2E2E2E2E2E2E2E2E2E2E2E2E2E2E2E2E2E2E2E2E2E2E2E2E2E2E2E2E2E2E2E2E2E2E2E2E2E2E2E2E2E2E2E2E2E2E2E2E2E2
310
E2E2E2E2E2E2E2E2E2E2E2E2E2E2E2E2E2E2E2E2E2E2E2E2E2E2E2E2E2E2E2E2E2E2E2E2E2E2E2E2E2E2E2F5E2E2E2F5F5E2E2E2F5E2E2E2E2E2E2E2E2E2E2E2E2E2E2E2E2E2E2E2E2E2E2E2E2E2E2E2E2E2E2E2E2E2E2E2E2E2E2E2E2E2E2E2E2E2E2E2E2E2E2E2E2E2E2E2E2E2E2E2E2E2E2E2E2E2E2E2E2E2E2E2E2E2E2
310
E2E2E2E2E2E2E2E2E2E2E2E2E2E2E2E2E2E2E2E2E2E2E2E2E2E2E2E2E2E2E2E2E2E2E2E2E2E2E2E2E2E2E2E2E2E2E2E2E2E2E2E2E2E2E2E2E2E2E2E2E2E2E2E2E2E2E2E2E2E2E2E2E2E2E2E2E2E2E2E2E2E2E2E2E2E2E2E2E2E2E2E2E2E2E2E2F5E2E2E2F5F5E2E2E2F5E2E2E2E2E2E2E2E2E2E2E2E2E2E2E2E2E2E2E2E2E2
310
E2E2E2E2E2E2E2E2E2E2E2E2E2E2E2E2E2E2E2E2E2E2E2E2E2E2E2E2E2E2E2E2E2E2E2E2E2E2E2E2E2E2E2E2E2E2E2E2E2E2E2E2E2E2E2E2E2E2E2E2E2E2E2E2E2E2E2E2E2E2E2E2E2E2E2E2E2E2E2E2E2E2E2E2E2E2E2E2E2E2E2E2E2E2E2E2E2E2E2E2E2E2E2E2E2E2E2E2E2E2E2E2E2E2E2E2E2E2E2E2E2E2E2E2E2E2E2
310
E2E2E2E2E2E2E2E2E2E2E2E2E2E2E2E2E2E2E2E2E2E2F5E2E2E2F5F5E2E2E2F5E2E2E2E2E2E2E2E2E2E2E2E2E2E2E2E2E2E2E2E2E2E2E2E2E2E2E2E2E2E2E2E2E2E2E2E2E2E2E2E2E2E2E2E2E2E2E2E2E2E2E2E2E2E2E2E2E2E2E2E2E2E2E2E2E2E2E2E2E2E2E2E2E2E2E2E2E2E2E2E2E2E2E2E2E2E2E2E2E2E2E2E2E2E2E2
310
E2E2E2E2E2E2E2E2E2E2E2E2E2E2E2E2E2E2E2E2E2E2E2E2E2E2E2E2E2E2E2E2E2E2E2E2E2E2E2E2E2E2E2E2E2E2E2E2E2E2E2E2E2E2E2E2E2E2E2E2E2E2E2E2E2E2E2E2E2E2E2E2E2E2E2F5E2E2E2F5F5E2E2E2F5E2E2E2E2E2E2E2E2E2E2E2E2E2E2E2E2E2E2E2E2E2E2E2E2E2E2E2E2E2E2E2E2E2E2E2E2E2E2E2E2E2E2
310
E2E2E2E2E2E2E2E2E2E2E2E2E2E2E2E2E2E2E2E2E2E2E2E2E2E2E2E2E2E2E2E2E2E2E2E2E2E2E2E2E2E2E2E2E2E2E2E2E2E2E2E2E2E2E2E2E2E2E2E2E2E2E2E2E2E2E2E2E2E2E2E2E2E2E2E2E2E2E2E2E2E2E2E2E2E2E2E2E2E2E2E2E2E2E2E2E2E2E2E2E2E2E2E2E2E2E2E2E2E2E2E2E2E2E2E2E2E2E2E2E2E2E2E2E2E2E2
310
E2F5E2E2E2F5F5E2E2E2F5E2E2E2E2E2E2E2E2E2E2E2E2E2E2E2E2E2E2E2E2E2E2E2E2E2E2E2E2E2E2E2E2E2E2E2E2E2E2E2E2E2E2E2E2E2E2E2E2E2E2E2E2E2E2E2E2E2E2E2E2E2E2E2E2E2E2E2E2E2E2E2E2E2E2E2E2E2E2E2E2E2E2E2E2E2E2E2E2E2E2E2E2E2E2E2E2E2E2E2E2E2E2E2E2E2E2E2E2E2E2E2E2E2E2E2E2
310
E2E2E2E2E2E2E2E2E2E2E2E2E2E2E2E2E2E2E2E2E2E2E2E2E2E2E2E2E2E2E2E2E2E2E2E2E2E2E2E2E2E2E2E2E2E2E2E2E2E2E2E2E2E2F5E2E2E2F5F5E2E2E2F5E2E2E2E2E2E2E2E2E2E2E2E2E2E2E2E2E2E2E2E2E2E2E2E2E2E2E2E2E2E2E2E2E2E2E2E2E2E2E2E2E2E2E2E2E2E2E2E2E2E2E2E2E2E2E2E2E2E2E2E2E2E2E2
310
E2E2E2E2E2E2E2E2E2E2E2E2E2E2E2E2E2E2E2E2E2E2E2E2E2E2E2E2E2E2E2E2E2E2E2E2E2E2E2E2E2E2E2E2E2E2E2E2E2E2E2E2E2E2E2E2E2E2E2E2E2E2E2E2E2E2E2E2E2E2E2E2E2E2E2E2E2E2E2E2E2E2E2E2E2E2E2E2E2E2E2E2E2E2E2E2E2E2E2E2E2E2E2E2E2E2E2F5E2E2E2F5F5E2E2E2F5E2E2E2E2E2E2E2E2E2E2
310
E2E2E2E2E2E2E2E2E2E2E2E2E2E2E2E2E2E2E2E2E2E2E2E2E2E2E2E2E2E2E2E2E2E2E2E2E2E2E2E2E2E2E2E2E2E2E2E2E2E2E2E2E2E2E2E2E2E2E2E2E2E2E2E2E2E2E2E2E2E2E2E2E2E2E2E2E2E2E2E2E2E2E2E2E2E2E2E2E2E2E2E2E2E2E2E2E2E2E2E2E2E2E2E2E2E2E2E2E2E2E2E2E2E2E2E2E2E2E2E2E2E2E2E2E2E2E2
310
E2E2E2E2E2E2E2E2E2E2E2E2E2E2E2E2E2E2E2E2E2E2E2E2E2E2E2E2E2E2E2E2E2F5E2E2E2F5F5E2E2E2F5F5F5F5F5F5F5F5E2E2E2E2E2E2E2E2E2F5F5F5F5F5F5F5F5F5F5F5F5F5F5F5F5E2E2E2E2E2E2E2E2E2F5F5F5F5F5F5F5F5F5F5F5F5F5F5F5E2E2E2E2E2E2E2E2E2F5F5F5F5F5F5F5F5F5F5F5F5F5F5F5F5E2E2E2
310
E2E2E2E2E2F5F5F5F5F5F5F5F5F5F5F5F5F5F5F5F5E2E2E2E2E2E2E2E2E2F5F5F5F5F5F5F5F5F5F5F5F5F5F5F5E2E2E2E2E2E2E2E2E2F5F5F5F5F5F5F5F5F5F5F5F5F5F5F5F5E2E2E2E2E2E2E2E2E2F5F5F5F5F5F5F5F5E2E2E2F5F5E2E2E2E2E2E2E2E2E2E2E2E2E2E2E2E2E2E2E2E2E2E2E2E2E2E2E2E2E2E2E2E2E2E2E2
310
E2E2E2E2E2E2E2E2E2E2E2E2E2E2E2E2E2E2E2E2E2E2E2E2E2E2E2E2E2E2E2E2E2E2E2E2E2E2E2E2E2E2E2E2E2E2E2E2E2E2E2E2E2E2E2E2E2E2E2E2E2E2E2E2E2E2E2E2E2E2E2E2E2E2E2E2E2E2E2E2E2E2E2E2E2E2E2E2E2E2E2E2E2E2E2E2E2E2E2E2E2E2E2E2E2E2E2E2E2E2E2E2E2E2E2E2E2E2E2E2E2E2E2E2E2E2E2
310
E2E2E2E2E2E2E2E2E2E2E2E2E2E2E2E2F5F5E2E2E2E2E2E2E2E2E2E2E2E2E2E2E2E2E2E2E2E2E2E2E2E2E2E2E2E2E2E2E2E2E2E2E2E2E2E2E2E2E2E2E2E2E2E2E2E2E2E2E2E2E2E2E2E2E2E2E2E2E2E2E2E2E2E2E2E2E2E2E2E2E2E2E2E2E2E2E2E2E2E2E2E2E2E2E2E2E2E2E2E2E2E2E2E2E2E2E2E2E2E2E2E2E2E2E2E2E2
310
E2E2E2E2E2E2E2E2E2E2E2E2E2E2E2E2E2E2E2E2E2E2E2E2E2E2E2E2E2E2E2E2E2E2E2E2E2E2E2E2E2E2E2E2E2E2E2E2E2E2E2E2E2E2E2E2E2E2E2E2E2E2E2E2E2E2E2E2E2F5F5E2E2E2E2E2E2E2E2E2E2E2E2E2E2E2E2E2E2E2E2E2E2E2E2E2E2E2E2E2E2E2E2E2E2E2E2E2E2E2E2E2E2E2E2E2E2E2E2E2E2E2E2E2E2E2E2
310
E2E2E2E2E2E2E2E2E2E2E2E2E2E2E2E2E2E2E2E2E2E2E2E2E2E2E2E2E2E2E2E2E2E2E2E2E2E2E2E2E2E2E2E2E2E2E2E2E2E2E2E2E2E2E2E2E2E2E2E2E2E2E2E2E2E2E2E2E2E2E2E2E2E2E2E2E2E2E2E2E2E2E2E2E2E2E2E2E2E2E2E2E2E2E2E2E2E2E2E2E2E2E2E2E2E2E2E2E2E2E2E2E2E2E2E2E2E2E2E2E2E2F5F5E2E2E2
310
E2E2E2E2E2E2E2E2E2E2E2E2E2E2E2E2E2E2E2E2E2E2E2E2E2E2E2E2E2E2E2E2E2E2E2E2E2E2E2E2E2E2E2E2E2E2E2E2E2E2E2E2E2E2E2E2E2E2E2E2E2E2E2E2E2E2E2E2E2E2E2E2E2E2E2E2E2E2E2E2E2E2E2E2E2E2E2E2E2E2E2E2E2E2E2E2E2E2E2E2E2E2E2E2E2E2E2E2E2E2E2E2E2E2E2E2E2E2E2E2E2E2E2E2E2E2E2
310
E2E2E2E2E2E2E2E2E2E2E2E2E2E2E2E2E2E2E2E2E2E2E2E2E2E2E2E2E2E2E2E2E2E2E2E2E2E2E2E2E2E2E2E2E2E2E2E2F5
  0
XRECORD
  5
5618C
102
{ACAD_REACTORS
330
5618B
102
}
330
5618B
100
AcDbXrecord
280
     1
102
SHADEPLOT
 70
     0
102
SHADEPLOTRESLEVEL
 70
     2
102
SHADEPLOTCUSTOMDPI
 70
   300
  0
ENDSEC
  0
EOF
